  0
SECTION
  2
HEADER
  9
$ACADVER
  1
AC1015
  9
$ACADMAINTVER
 70
     6
  9
$DWGCODEPAGE
  3
ANSI_1252
  9
$INSBASE
 10
0.0
 20
0.0
 30
0.0
  9
$EXTMIN
 10
69.16606801665944
 20
1284.099523137991
 30
0.0
  9
$EXTMAX
 10
685.1580448911
 20
1368.099520879741
 30
0.0
  9
$LIMMIN
 10
0.0
 20
0.0
  9
$LIMMAX
 10
12.0
 20
9.0
  9
$ORTHOMODE
 70
     0
  9
$REGENMODE
 70
     1
  9
$FILLMODE
 70
     1
  9
$QTEXTMODE
 70
     0
  9
$MIRRTEXT
 70
     1
  9
$LTSCALE
 40
1.0
  9
$ATTMODE
 70
     1
  9
$TEXTSIZE
 40
0.2
  9
$TRACEWID
 40
0.05
  9
$TEXTSTYLE
  7
Standard
  9
$CLAYER
  8
0
  9
$CELTYPE
  6
ByLayer
  9
$CECOLOR
 62
   256
  9
$CELTSCALE
 40
1.0
  9
$DISPSILH
 70
     0
  9
$DIMSCALE
 40
1.0
  9
$DIMASZ
 40
0.18
  9
$DIMEXO
 40
0.0625
  9
$DIMDLI
 40
0.38
  9
$DIMRND
 40
0.0
  9
$DIMDLE
 40
0.0
  9
$DIMEXE
 40
0.18
  9
$DIMTP
 40
0.0
  9
$DIMTM
 40
0.0
  9
$DIMTXT
 40
0.18
  9
$DIMCEN
 40
0.09
  9
$DIMTSZ
 40
0.0
  9
$DIMTOL
 70
     0
  9
$DIMLIM
 70
     0
  9
$DIMTIH
 70
     1
  9
$DIMTOH
 70
     1
  9
$DIMSE1
 70
     0
  9
$DIMSE2
 70
     0
  9
$DIMTAD
 70
     0
  9
$DIMZIN
 70
     0
  9
$DIMBLK
  1

  9
$DIMASO
 70
     1
  9
$DIMSHO
 70
     1
  9
$DIMPOST
  1

  9
$DIMAPOST
  1

  9
$DIMALT
 70
     0
  9
$DIMALTD
 70
     2
  9
$DIMALTF
 40
25.4
  9
$DIMLFAC
 40
1.0
  9
$DIMTOFL
 70
     0
  9
$DIMTVP
 40
0.0
  9
$DIMTIX
 70
     0
  9
$DIMSOXD
 70
     0
  9
$DIMSAH
 70
     0
  9
$DIMBLK1
  1

  9
$DIMBLK2
  1

  9
$DIMSTYLE
  2
Standard
  9
$DIMCLRD
 70
     0
  9
$DIMCLRE
 70
     0
  9
$DIMCLRT
 70
     0
  9
$DIMTFAC
 40
1.0
  9
$DIMGAP
 40
0.09
  9
$DIMJUST
 70
     0
  9
$DIMSD1
 70
     0
  9
$DIMSD2
 70
     0
  9
$DIMTOLJ
 70
     1
  9
$DIMTZIN
 70
     0
  9
$DIMALTZ
 70
     0
  9
$DIMALTTZ
 70
     0
  9
$DIMUPT
 70
     0
  9
$DIMDEC
 70
     4
  9
$DIMTDEC
 70
     4
  9
$DIMALTU
 70
     2
  9
$DIMALTTD
 70
     2
  9
$DIMTXSTY
  7
Standard
  9
$DIMAUNIT
 70
     0
  9
$DIMADEC
 70
     0
  9
$DIMALTRND
 40
0.0
  9
$DIMAZIN
 70
     0
  9
$DIMDSEP
 70
    46
  9
$DIMATFIT
 70
     3
  9
$DIMFRAC
 70
     0
  9
$DIMLDRBLK
  1

  9
$DIMLUNIT
 70
     2
  9
$DIMLWD
 70
    -2
  9
$DIMLWE
 70
    -2
  9
$DIMTMOVE
 70
     0
  9
$LUNITS
 70
     2
  9
$LUPREC
 70
     4
  9
$SKETCHINC
 40
0.1
  9
$FILLETRAD
 40
0.5
  9
$AUNITS
 70
     0
  9
$AUPREC
 70
     0
  9
$MENU
  1
.
  9
$ELEVATION
 40
0.0
  9
$PELEVATION
 40
0.0
  9
$THICKNESS
 40
0.0
  9
$LIMCHECK
 70
     0
  9
$CHAMFERA
 40
0.5
  9
$CHAMFERB
 40
0.5
  9
$CHAMFERC
 40
1.0
  9
$CHAMFERD
 40
0.0
  9
$SKPOLY
 70
     0
  9
$TDCREATE
 40
2454165.329701343
  9
$TDUCREATE
 40
2454165.288034676
  9
$TDUPDATE
 40
2454165.329701354
  9
$TDUUPDATE
 40
2454165.288034687
  9
$TDINDWG
 40
0.0000000116
  9
$TDUSRTIMER
 40
0.0000000116
  9
$USRTIMER
 70
     1
  9
$ANGBASE
 50
0.0
  9
$ANGDIR
 70
     0
  9
$PDMODE
 70
     0
  9
$PDSIZE
 40
0.0
  9
$PLINEWID
 40
0.0
  9
$SPLFRAME
 70
     0
  9
$SPLINETYPE
 70
     6
  9
$SPLINESEGS
 70
     8
  9
$HANDSEED
  5
95
  9
$SURFTAB1
 70
     6
  9
$SURFTAB2
 70
     6
  9
$SURFTYPE
 70
     6
  9
$SURFU
 70
     6
  9
$SURFV
 70
     6
  9
$UCSBASE
  2

  9
$UCSNAME
  2

  9
$UCSORG
 10
0.0
 20
0.0
 30
0.0
  9
$UCSXDIR
 10
1.0
 20
0.0
 30
0.0
  9
$UCSYDIR
 10
0.0
 20
1.0
 30
0.0
  9
$UCSORTHOREF
  2

  9
$UCSORTHOVIEW
 70
     0
  9
$UCSORGTOP
 10
0.0
 20
0.0
 30
0.0
  9
$UCSORGBOTTOM
 10
0.0
 20
0.0
 30
0.0
  9
$UCSORGLEFT
 10
0.0
 20
0.0
 30
0.0
  9
$UCSORGRIGHT
 10
0.0
 20
0.0
 30
0.0
  9
$UCSORGFRONT
 10
0.0
 20
0.0
 30
0.0
  9
$UCSORGBACK
 10
0.0
 20
0.0
 30
0.0
  9
$PUCSBASE
  2

  9
$PUCSNAME
  2

  9
$PUCSORG
 10
0.0
 20
0.0
 30
0.0
  9
$PUCSXDIR
 10
1.0
 20
0.0
 30
0.0
  9
$PUCSYDIR
 10
0.0
 20
1.0
 30
0.0
  9
$PUCSORTHOREF
  2

  9
$PUCSORTHOVIEW
 70
     0
  9
$PUCSORGTOP
 10
0.0
 20
0.0
 30
0.0
  9
$PUCSORGBOTTOM
 10
0.0
 20
0.0
 30
0.0
  9
$PUCSORGLEFT
 10
0.0
 20
0.0
 30
0.0
  9
$PUCSORGRIGHT
 10
0.0
 20
0.0
 30
0.0
  9
$PUCSORGFRONT
 10
0.0
 20
0.0
 30
0.0
  9
$PUCSORGBACK
 10
0.0
 20
0.0
 30
0.0
  9
$USERI1
 70
     0
  9
$USERI2
 70
     0
  9
$USERI3
 70
     0
  9
$USERI4
 70
     0
  9
$USERI5
 70
     0
  9
$USERR1
 40
14.0
  9
$USERR2
 40
0.0
  9
$USERR3
 40
0.0
  9
$USERR4
 40
0.0
  9
$USERR5
 40
0.0
  9
$WORLDVIEW
 70
     1
  9
$SHADEDGE
 70
     3
  9
$SHADEDIF
 70
    70
  9
$TILEMODE
 70
     1
  9
$MAXACTVP
 70
    64
  9
$PINSBASE
 10
0.0
 20
0.0
 30
0.0
  9
$PLIMCHECK
 70
     0
  9
$PEXTMIN
 10
1.00000000000000E+20
 20
1.00000000000000E+20
 30
1.00000000000000E+20
  9
$PEXTMAX
 10
-1.00000000000000E+20
 20
-1.00000000000000E+20
 30
-1.00000000000000E+20
  9
$PLIMMIN
 10
0.0
 20
0.0
  9
$PLIMMAX
 10
12.0
 20
9.0
  9
$UNITMODE
 70
     0
  9
$VISRETAIN
 70
     1
  9
$PLINEGEN
 70
     0
  9
$PSLTSCALE
 70
     1
  9
$TREEDEPTH
 70
  3020
  9
$CMLSTYLE
  2
Standard
  9
$CMLJUST
 70
     0
  9
$CMLSCALE
 40
1.0
  9
$PROXYGRAPHICS
 70
     1
  9
$MEASUREMENT
 70
     1
  9
$CELWEIGHT
370
    -1
  9
$ENDCAPS
280
     0
  9
$JOINSTYLE
280
     0
  9
$LWDISPLAY
290
     0
  9
$INSUNITS
 70
     1
  9
$HYPERLINKBASE
  1

  9
$STYLESHEET
  1

  9
$XEDIT
290
     1
  9
$CEPSNTYPE
380
     0
  9
$PSTYLEMODE
290
     1
  9
$FINGERPRINTGUID
  2
{28CFA3EE-71EA-4B6F-B09D-4F6860B51039}
  9
$VERSIONGUID
  2
{FAEB1C32-E019-11D5-929B-00C0DF256EC4}
  9
$EXTNAMES
290
     1
  9
$PSVPSCALE
 40
0.0
  9
$OLESTARTUP
290
     0
  0
ENDSEC
  0
SECTION
  2
CLASSES
  0
CLASS
  1
ACDBDICTIONARYWDFLT
  2
AcDbDictionaryWithDefault
  3
ObjectDBX Classes
 90
        0
280
     0
281
     0
  0
CLASS
  1
ACDBPLACEHOLDER
  2
AcDbPlaceHolder
  3
ObjectDBX Classes
 90
        0
280
     0
281
     0
  0
CLASS
  1
LAYOUT
  2
AcDbLayout
  3
ObjectDBX Classes
 90
        0
280
     0
281
     0
  0
ENDSEC
  0
SECTION
  2
TABLES
  0
TABLE
  2
VPORT
  5
8
330
0
100
AcDbSymbolTable
 70
     1
  0
VPORT
  5
29
330
8
100
AcDbSymbolTableRecord
100
AcDbViewportTableRecord
  2
*Active
 70
     0
 10
0.0
 20
0.0
 11
1.0
 21
1.0
 12
377.1620564538797
 22
1326.099522008866
 13
0.0
 23
0.0
 14
0.5
 24
0.5
 15
0.5
 25
0.5
 16
0.0
 26
0.0
 36
1.0
 17
0.0
 27
0.0
 37
0.0
 40
422.7866938770536
 41
1.60267857142857
 42
50.0
 43
0.0
 44
0.0
 50
0.0
 51
0.0
 71
     0
 72
   100
 73
     1
 74
     3
 75
     0
 76
     0
 77
     0
 78
     0
281
     0
 65
     1
110
0.0
120
0.0
130
0.0
111
1.0
121
0.0
131
0.0
112
0.0
122
1.0
132
0.0
 79
     0
146
0.0
  0
ENDTAB
  0
TABLE
  2
LTYPE
  5
5
330
0
100
AcDbSymbolTable
 70
     8
  0
LTYPE
  5
14
330
5
100
AcDbSymbolTableRecord
100
AcDbLinetypeTableRecord
  2
ByBlock
 70
     0
  3

 72
    65
 73
     0
 40
0.0
  0
LTYPE
  5
15
330
5
100
AcDbSymbolTableRecord
100
AcDbLinetypeTableRecord
  2
ByLayer
 70
     0
  3

 72
    65
 73
     0
 40
0.0
  0
LTYPE
  5
16
330
5
100
AcDbSymbolTableRecord
100
AcDbLinetypeTableRecord
  2
Continuous
 70
     0
  3
Solid line
 72
    65
 73
     0
 40
0.0
  0
LTYPE
  5
2A
330
5
100
AcDbSymbolTableRecord
100
AcDbLinetypeTableRecord
  2
DASHED
 70
     0
  3
Dashed
 72
    65
 73
     2
 40
15.0
 49
7.0
 74
     0
 49
-8.0
 74
     0
  0
LTYPE
  5
2B
330
5
100
AcDbSymbolTableRecord
100
AcDbLinetypeTableRecord
  2
DOTTED
 70
     0
  3
Dotted
 72
    65
 73
     2
 40
1.0
 49
0.0
 74
     0
 49
-1.0
 74
     0
  0
LTYPE
  5
2C
330
5
100
AcDbSymbolTableRecord
100
AcDbLinetypeTableRecord
  2
DOT_CENTER
 70
     0
  3
Dot_Center
 72
    65
 73
     4
 40
14.0
 49
12.0
 74
     0
 49
-1.0
 74
     0
 49
0.0
 74
     0
 49
-1.0
 74
     0
  0
LTYPE
  5
2D
330
5
100
AcDbSymbolTableRecord
100
AcDbLinetypeTableRecord
  2
LONG_DASHED
 70
     0
  3
Long_Dashed
 72
    65
 73
     2
 40
15.0
 49
10.0
 74
     0
 49
-5.0
 74
     0
  0
LTYPE
  5
2E
330
5
100
AcDbSymbolTableRecord
100
AcDbLinetypeTableRecord
  2
DASH_CENTER
 70
     0
  3
Dash_Center
 72
    65
 73
     4
 40
14.0
 49
11.0
 74
     0
 49
-1.0
 74
     0
 49
1.0
 74
     0
 49
-1.0
 74
     0
  0
LTYPE
  5
2F
330
5
100
AcDbSymbolTableRecord
100
AcDbLinetypeTableRecord
  2
PHANTOM
 70
     0
  3
Phantom
 72
    65
 73
     6
 40
13.0
 49
10.0
 74
     0
 49
-1.0
 74
     0
 49
0.0
 74
     0
 49
-1.0
 74
     0
 49
0.0
 74
     0
 49
-1.0
 74
     0
  0
LTYPE
  5
30
330
5
100
AcDbSymbolTableRecord
100
AcDbLinetypeTableRecord
  2
CENTER_DASH_DASH
 70
     0
  3
Center_Dash_Dash
 72
    65
 73
     6
 40
14.0
 49
9.0
 74
     0
 49
-1.0
 74
     0
 49
1.0
 74
     0
 49
-1.0
 74
     0
 49
1.0
 74
     0
 49
-1.0
 74
     0
  0
ENDTAB
  0
TABLE
  2
LAYER
  5
2
330
0
100
AcDbSymbolTable
 70
     2
  0
LAYER
  5
10
330
2
100
AcDbSymbolTableRecord
100
AcDbLayerTableRecord
  2
0
 70
     0
 62
     7
  6
Continuous
370
    -3
390
F
  0
LAYER
  5
31
330
2
100
AcDbSymbolTableRecord
100
AcDbLayerTableRecord
  2
1
 70
     0
 62
     7
  6
Continuous
370
    -3
390
F
  0
ENDTAB
  0
TABLE
  2
STYLE
  5
3
330
0
100
AcDbSymbolTable
 70
     2
  0
STYLE
  5
11
330
3
100
AcDbSymbolTableRecord
100
AcDbTextStyleTableRecord
  2
Standard
 70
     0
 40
0.0
 41
1.0
 50
0.0
 71
     0
 42
0.2
  3
txt
  4

  0
STYLE
  5
76
330
3
100
AcDbSymbolTableRecord
100
AcDbTextStyleTableRecord
  2
CONVERTER_1
 70
     0
 40
0.0
 41
0.9
 50
0.0
 71
     0
 42
0.2
  3
txt.shx
  4

  0
ENDTAB
  0
TABLE
  2
VIEW
  5
6
330
0
100
AcDbSymbolTable
 70
     0
  0
ENDTAB
  0
TABLE
  2
UCS
  5
7
330
0
100
AcDbSymbolTable
 70
     0
  0
ENDTAB
  0
TABLE
  2
APPID
  5
9
330
0
100
AcDbSymbolTable
 70
     1
  0
APPID
  5
12
330
9
100
AcDbSymbolTableRecord
100
AcDbRegAppTableRecord
  2
ACAD
 70
     0
  0
ENDTAB
  0
TABLE
  2
DIMSTYLE
  5
A
330
0
100
AcDbSymbolTable
 70
     4
100
AcDbDimStyleTable
  0
DIMSTYLE
105
27
330
A
100
AcDbSymbolTableRecord
100
AcDbDimStyleTableRecord
  2
Standard
 70
     0
340
11
  0
DIMSTYLE
105
7A
102
{ACAD_REACTORS
330
7B
102
}
330
A
100
AcDbSymbolTableRecord
100
AcDbDimStyleTableRecord
  2
ME10_DIM_0
 70
     0
 41
14.0
 42
0.0
 44
4.0
 73
     0
 74
     0
 77
     1
 78
     8
140
14.0
147
4.0
172
     1
173
     1
176
     4
177
     4
178
     1
271
     2
340
76
  0
DIMSTYLE
105
85
102
{ACAD_REACTORS
330
86
102
}
330
A
100
AcDbSymbolTableRecord
100
AcDbDimStyleTableRecord
  2
ME10_DIM_1
 70
     0
 41
14.0
 42
0.0
 44
4.0
 73
     0
 74
     0
 77
     1
 78
     8
140
14.0
147
4.0
172
     1
173
     1
176
     4
177
     4
178
     1
271
     2
340
76
  0
DIMSTYLE
105
93
102
{ACAD_REACTORS
330
94
102
}
330
A
100
AcDbSymbolTableRecord
100
AcDbDimStyleTableRecord
  2
ME10_DIM_2
 70
     0
 41
14.0
 42
0.0
 44
4.0
 73
     0
 74
     0
 77
     1
 78
     8
140
14.0
147
4.0
172
     1
173
     1
176
     4
177
     4
178
     1
271
     2
340
76
  0
ENDTAB
  0
TABLE
  2
BLOCK_RECORD
  5
1
330
0
100
AcDbSymbolTable
 70
    10
  0
BLOCK_RECORD
  5
1F
330
1
100
AcDbSymbolTableRecord
100
AcDbBlockTableRecord
  2
*Model_Space
340
22
  0
BLOCK_RECORD
  5
1B
330
1
100
AcDbSymbolTableRecord
100
AcDbBlockTableRecord
  2
*Paper_Space
340
1E
  0
BLOCK_RECORD
  5
23
330
1
100
AcDbSymbolTableRecord
100
AcDbBlockTableRecord
  2
*Paper_Space0
340
26
  0
BLOCK_RECORD
  5
32
330
1
100
AcDbSymbolTableRecord
100
AcDbBlockTableRecord
  2
Abdeckung_Edelstahl_f_r_600
340
0
102
{BLKREFS
331
48
102
}
  0
BLOCK_RECORD
  5
35
330
1
100
AcDbSymbolTableRecord
100
AcDbBlockTableRecord
  2
Maschengitter
340
0
102
{BLKREFS
331
40
102
}
  0
BLOCK_RECORD
  5
38
330
1
100
AcDbSymbolTableRecord
100
AcDbBlockTableRecord
  2
HL_3200_Nirorahmen
340
0
102
{BLKREFS
331
3C
102
}
  0
BLOCK_RECORD
  5
3B
330
1
100
AcDbSymbolTableRecord
100
AcDbBlockTableRecord
  2
HL_3000_Aufstockelement
340
0
102
{BLKREFS
331
41
102
}
  0
BLOCK_RECORD
  5
3F
330
1
100
AcDbSymbolTableRecord
100
AcDbBlockTableRecord
  2
HL510NC_Bodenablauf_Schnitt
340
0
102
{BLKREFS
331
45
102
}
  0
BLOCK_RECORD
  5
44
330
1
100
AcDbSymbolTableRecord
100
AcDbBlockTableRecord
  2
HL510NC_Bodenablauf
340
0
102
{BLKREFS
331
49
102
}
  0
BLOCK_RECORD
  5
6F
330
1
100
AcDbSymbolTableRecord
100
AcDbBlockTableRecord
  2
*D07
340
0
  0
BLOCK_RECORD
  5
7C
330
1
100
AcDbSymbolTableRecord
100
AcDbBlockTableRecord
  2
*D18
340
0
  0
BLOCK_RECORD
  5
87
330
1
100
AcDbSymbolTableRecord
100
AcDbBlockTableRecord
  2
*D29
340
0
  0
ENDTAB
  0
ENDSEC
  0
SECTION
  2
BLOCKS
  0
BLOCK
  5
20
330
1F
100
AcDbEntity
  8
0
100
AcDbBlockBegin
  2
*Model_Space
 70
     0
 71
     0
 10
0.0
 20
0.0
 30
0.0
  3
*Model_Space
  1

  0
ENDBLK
  5
21
330
1F
100
AcDbEntity
  8
0
100
AcDbBlockEnd
  0
BLOCK
  5
1C
330
1B
100
AcDbEntity
 67
     1
  8
0
100
AcDbBlockBegin
  2
*Paper_Space
 70
     0
 71
     0
 10
0.0
 20
0.0
 30
0.0
  3
*Paper_Space
  1

  0
ENDBLK
  5
1D
330
1B
100
AcDbEntity
 67
     1
  8
0
100
AcDbBlockEnd
  0
BLOCK
  5
24
330
23
100
AcDbEntity
  8
0
100
AcDbBlockBegin
  2
*Paper_Space0
 70
     0
 71
     0
 10
0.0
 20
0.0
 30
0.0
  3
*Paper_Space0
  1

  0
ENDBLK
  5
25
330
23
100
AcDbEntity
  8
0
100
AcDbBlockEnd
  0
BLOCK
  5
33
330
32
100
AcDbEntity
  8
0
100
AcDbBlockBegin
  2
Abdeckung_Edelstahl_f_r_600
 70
     0
 71
     0
 10
76.16606801665937
 20
1298.09952313799
 30
0.0
  3
Abdeckung_Edelstahl_f_r_600
  1

  0
LINE
  5
4A
330
32
100
AcDbEntity
  8
0
  6
Continuous
 62
     7
100
AcDbLine
 10
163.7139047128001
 20
1326.099520879741
 30
0.0
 11
163.7139045042001
 21
1312.099521923041
 31
0.0
  0
LINE
  5
4B
330
32
100
AcDbEntity
  8
0
  6
Continuous
 62
     7
100
AcDbLine
 10
125.2139047128001
 20
1326.099520879741
 30
0.0
 11
125.2139047128001
 21
1312.099521923041
 31
0.0
  0
LINE
  5
4C
330
32
100
AcDbEntity
  8
0
  6
Continuous
 62
     7
100
AcDbLine
 10
125.2139047128001
 20
1312.099521923041
 30
0.0
 11
126.7139047258
 21
1312.099521923041
 31
0.0
  0
LINE
  5
4D
330
32
100
AcDbEntity
  8
0
  6
Continuous
 62
     7
100
AcDbLine
 10
126.7139047258
 20
1312.099521923041
 30
0.0
 11
126.7139047128001
 21
1326.099520879741
 31
0.0
  0
LINE
  5
4E
330
32
100
AcDbEntity
  8
0
  6
Continuous
 62
     7
100
AcDbLine
 10
161.2139047128001
 20
1330.099520879741
 30
0.0
 11
129.2139047128001
 21
1330.099520879741
 31
0.0
  0
LINE
  5
4F
330
32
100
AcDbEntity
  8
0
  6
Continuous
 62
     7
100
AcDbLine
 10
163.7139045042001
 20
1312.099521923041
 30
0.0
 11
165.2139038187
 21
1312.099521923041
 31
0.0
  0
LINE
  5
50
330
32
100
AcDbEntity
  8
0
  6
Continuous
 62
     7
100
AcDbLine
 10
165.2139038187
 20
1312.099521923041
 30
0.0
 11
165.2139047128001
 21
1326.099520879741
 31
0.0
  0
LINE
  5
51
330
32
100
AcDbEntity
  8
0
  6
Continuous
 62
     7
100
AcDbLine
 10
129.2139047128001
 20
1328.599520879741
 30
0.0
 11
161.2139047128001
 21
1328.599520879741
 31
0.0
  0
LINE
  5
52
330
32
100
AcDbEntity
  8
0
  6
Continuous
 62
     7
100
AcDbLine
 10
125.2139047128001
 20
1330.099521148241
 30
0.0
 11
125.2139047128001
 21
1333.099519777341
 31
0.0
  0
LINE
  5
53
330
32
100
AcDbEntity
  8
0
  6
Continuous
 62
     7
100
AcDbLine
 10
165.2139038187
 20
1330.099521148241
 30
0.0
 11
165.2139038187
 21
1333.099519777341
 31
0.0
  0
LINE
  5
54
330
32
100
AcDbEntity
  8
0
  6
Continuous
 62
     7
100
AcDbLine
 10
685.1580448911
 20
1330.099520879741
 30
0.0
 11
685.1580448911
 21
1328.599520879741
 31
0.0
  0
LINE
  5
55
330
32
100
AcDbEntity
  8
0
  6
Continuous
 62
     7
100
AcDbLine
 10
187.1580448911
 20
1330.099520879741
 30
0.0
 11
187.1580448911
 21
1328.599520879741
 31
0.0
  0
LINE
  5
56
330
32
100
AcDbEntity
  8
0
  6
Continuous
 62
     7
100
AcDbLine
 10
187.1580448911
 20
1330.099520879741
 30
0.0
 11
685.1580448911
 21
1330.099520879741
 31
0.0
  0
LINE
  5
57
330
32
100
AcDbEntity
  8
0
  6
Continuous
 62
     7
100
AcDbLine
 10
187.1580448911
 20
1326.099520879741
 30
0.0
 11
187.1580448911
 21
1328.599520879741
 31
0.0
  0
LINE
  5
58
330
32
100
AcDbEntity
  8
0
  6
Continuous
 62
     7
100
AcDbLine
 10
685.1580448911
 20
1326.099520879741
 30
0.0
 11
685.1580448911
 21
1328.599520879741
 31
0.0
  0
LINE
  5
59
330
32
100
AcDbEntity
  8
0
  6
Continuous
 62
     7
100
AcDbLine
 10
187.1580448911
 20
1312.099520879741
 30
0.0
 11
685.1580448911
 21
1312.099520879741
 31
0.0
  0
LINE
  5
5A
330
32
100
AcDbEntity
  8
0
  6
Continuous
 62
     7
100
AcDbLine
 10
187.1580448911
 20
1312.099520879741
 30
0.0
 11
187.1580448911
 21
1326.099520879741
 31
0.0
  0
LINE
  5
5B
330
32
100
AcDbEntity
  8
0
  6
Continuous
 62
     7
100
AcDbLine
 10
685.1580448911
 20
1312.099520879741
 30
0.0
 11
685.1580448911
 21
1326.099520879741
 31
0.0
  0
LINE
  5
5C
330
32
100
AcDbEntity
  8
0
  6
Continuous
 62
     7
100
AcDbLine
 10
187.1580448911
 20
1330.099520879741
 30
0.0
 11
685.1580448911
 21
1330.099520879741
 31
0.0
  0
LINE
  5
5D
330
32
100
AcDbEntity
  8
1
  6
Continuous
 62
     3
100
AcDbLine
 10
187.1580448911
 20
1326.099520879741
 30
0.0
 11
685.1580448911
 21
1326.099520879741
 31
0.0
  0
LINE
  5
5E
330
32
100
AcDbEntity
  8
1
  6
PHANTOM
 62
     2
100
AcDbLine
 10
145.2139048768414
 20
1334.489079336188
 30
0.0
 11
145.2139040437032
 21
1308.398189351398
 31
0.0
  0
LINE
  5
5F
330
32
100
AcDbEntity
  8
1
  6
PHANTOM
 62
     2
100
AcDbLine
 10
436.1580448911
 20
1306.662238292648
 30
0.0
 11
436.1580448911
 21
1338.638511002683
 31
0.0
  0
ARC
  5
60
330
32
100
AcDbEntity
  8
0
  6
Continuous
 62
     7
100
AcDbCircle
 10
129.2139047128001
 20
1326.099520879741
 30
0.0
 40
4.0
100
AcDbArc
 50
90.0
 51
180.0
  0
ARC
  5
61
330
32
100
AcDbEntity
  8
0
  6
Continuous
 62
     7
100
AcDbCircle
 10
129.2139047128001
 20
1326.099520879741
 30
0.0
 40
2.5
100
AcDbArc
 50
90.0
 51
180.0
  0
ARC
  5
62
330
32
100
AcDbEntity
  8
0
  6
Continuous
 62
     7
100
AcDbCircle
 10
161.2139047128001
 20
1326.099520879741
 30
0.0
 40
4.0
100
AcDbArc
 50
0.0
 51
90.0
  0
ARC
  5
63
330
32
100
AcDbEntity
  8
0
  6
Continuous
 62
     7
100
AcDbCircle
 10
161.2139047128001
 20
1326.099520879741
 30
0.0
 40
2.5
100
AcDbArc
 50
0.0
 51
90.0
  0
ENDBLK
  5
34
330
32
100
AcDbEntity
  8
0
100
AcDbBlockEnd
  0
BLOCK
  5
36
330
35
100
AcDbEntity
  8
0
100
AcDbBlockBegin
  2
Maschengitter
 70
     0
 71
     0
 10
830.1180745401568
 20
447.1901072652498
 30
0.0
  3
Maschengitter
  1

  0
POINT
  5
64
330
35
100
AcDbEntity
  8
1
 62
     3
 60
     1
100
AcDbPoint
 10
1149.763062510845
 20
284.3390924218573
 30
0.0
  0
POINT
  5
65
330
35
100
AcDbEntity
  8
1
 62
     3
 60
     1
100
AcDbPoint
 10
1148.240431966222
 20
284.3390924218573
 30
0.0
  0
POINT
  5
66
330
35
100
AcDbEntity
  8
1
 62
     3
 60
     1
100
AcDbPoint
 10
1042.763062510845
 20
284.3390924218573
 30
0.0
  0
POINT
  5
67
330
35
100
AcDbEntity
  8
1
 62
     3
 60
     1
100
AcDbPoint
 10
1044.299432137812
 20
284.3390924218573
 30
0.0
  0
ENDBLK
  5
37
330
35
100
AcDbEntity
  8
0
100
AcDbBlockEnd
  0
BLOCK
  5
39
330
38
100
AcDbEntity
  8
0
100
AcDbBlockBegin
  2
HL_3200_Nirorahmen
 70
     0
 71
     0
 10
605.6585713969253
 20
745.866421072664
 30
0.0
  3
HL_3200_Nirorahmen
  1

  0
POINT
  5
68
330
38
100
AcDbEntity
  8
1
 62
     3
 60
     1
100
AcDbPoint
 10
717.6183181432753
 20
771.3824464764514
 30
0.0
  0
POINT
  5
69
330
38
100
AcDbEntity
  8
1
 62
     3
 60
     1
100
AcDbPoint
 10
634.6183181432753
 20
771.3824464764514
 30
0.0
  0
POINT
  5
6A
330
38
100
AcDbEntity
  8
1
 62
     3
 60
     1
100
AcDbPoint
 10
634.6183181432753
 20
771.2324464764499
 30
0.0
  0
POINT
  5
6B
330
38
100
AcDbEntity
  8
1
 62
     3
 60
     1
100
AcDbPoint
 10
634.6183181432753
 20
770.8157972450429
 30
0.0
  0
POINT
  5
6C
330
38
100
AcDbEntity
  8
1
 62
     3
 60
     1
100
AcDbPoint
 10
634.6183181432753
 20
770.5900546140767
 30
0.0
  0
POINT
  5
6D
330
38
100
AcDbEntity
  8
1
 62
     3
 60
     1
100
AcDbPoint
 10
634.7597752805377
 20
772.1788566379694
 30
0.0
  0
XLINE
  5
6E
330
38
100
AcDbEntity
  8
1
  6
DOT_CENTER
 62
     3
 60
     1
100
AcDbXline
 10
634.6183181432753
 20
771.3824464764514
 30
0.0
 11
0.0
 21
-1.0
 31
0.0
  0
ENDBLK
  5
3A
330
38
100
AcDbEntity
  8
0
100
AcDbBlockEnd
  0
BLOCK
  5
3D
330
3B
100
AcDbEntity
  8
0
100
AcDbBlockBegin
  2
HL_3000_Aufstockelement
 70
     0
 71
     0
 10
96.64700910411705
 20
878.7796187672723
 30
0.0
  3
HL_3000_Aufstockelement
  1

  0
INSERT
  5
3C
330
3B
100
AcDbEntity
  8
0
100
AcDbBlockReference
  2
HL_3200_Nirorahmen
 10
605.6585713969253
 20
745.866421072664
 30
0.0
  0
ENDBLK
  5
3E
330
3B
100
AcDbEntity
  8
0
100
AcDbBlockEnd
  0
BLOCK
  5
42
330
3F
100
AcDbEntity
  8
0
100
AcDbBlockBegin
  2
HL510NC_Bodenablauf_Schnitt
 70
     0
 71
     0
 10
1893.15714110793
 20
404.8270811154042
 30
0.0
  3
HL510NC_Bodenablauf_Schnitt
  1

  0
INSERT
  5
40
330
3F
100
AcDbEntity
  8
1
100
AcDbBlockReference
  2
Maschengitter
 10
830.1180745401568
 20
447.1901072652498
 30
0.0
  0
INSERT
  5
41
330
3F
100
AcDbEntity
  8
0
100
AcDbBlockReference
  2
HL_3000_Aufstockelement
 10
96.64700910411705
 20
878.7796187672723
 30
0.0
  0
ENDBLK
  5
43
330
3F
100
AcDbEntity
  8
0
100
AcDbBlockEnd
  0
BLOCK
  5
46
330
44
100
AcDbEntity
  8
0
100
AcDbBlockBegin
  2
HL510NC_Bodenablauf
 70
     0
 71
     0
 10
516.1585073401791
 20
770.276302761246
 30
0.0
  3
HL510NC_Bodenablauf
  1

  0
INSERT
  5
45
330
44
100
AcDbEntity
  8
1
100
AcDbBlockReference
  2
HL510NC_Bodenablauf_Schnitt
 10
1893.15714110793
 20
404.8270811154042
 30
0.0
  0
ENDBLK
  5
47
330
44
100
AcDbEntity
  8
0
100
AcDbBlockEnd
  0
BLOCK
  5
78
330
6F
100
AcDbEntity
  8
0
100
AcDbBlockBegin
  2
*D07
 70
     1
 71
     0
 10
0.0
 20
0.0
 30
0.0
  3
*D07
  1

  0
LINE
  5
70
330
6F
100
AcDbEntity
  8
1
  6
Continuous
 62
     4
100
AcDbLine
 10
165.2139054678783
 20
1349.745854373314
 30
0.0
 11
125.2139054678783
 21
1349.745854373314
 31
0.0
  0
LINE
  5
71
330
6F
100
AcDbEntity
  8
1
  6
Continuous
 62
     4
100
AcDbLine
 10
125.2139047128001
 20
1326.099520879742
 30
0.0
 11
125.2139055956069
 21
1353.745854373314
 31
0.0
  0
LINE
  5
72
330
6F
100
AcDbEntity
  8
1
  6
Continuous
 62
     4
100
AcDbLine
 10
165.2139047128001
 20
1326.099520879742
 30
0.0
 11
165.2139055956069
 21
1353.745853729441
 31
0.0
  0
LINE
  5
73
330
6F
100
AcDbEntity
  8
1
  6
Continuous
 62
     4
100
AcDbLine
 10
165.2139055956069
 20
1353.745853729441
 30
0.0
 11
165.2139055956069
 21
1353.745854373314
 31
0.0
  0
SOLID
  5
74
330
6F
100
AcDbEntity
  8
1
 62
     4
100
AcDbTrace
 10
151.2139054678783
 20
1347.90271940709
 30
0.0
 11
151.2139054678783
 21
1351.588989339537
 31
0.0
 12
165.2139054678783
 22
1349.745854373314
 32
0.0
 13
165.2139054678783
 23
1349.745854373314
 33
0.0
  0
SOLID
  5
75
330
6F
100
AcDbEntity
  8
1
 62
     4
100
AcDbTrace
 10
139.2139054678783
 20
1351.588989339537
 30
0.0
 11
139.2139054678783
 21
1347.90271940709
 31
0.0
 12
125.2139054678783
 22
1349.745854373314
 32
0.0
 13
125.2139054678783
 23
1349.745854373314
 33
0.0
  0
MTEXT
  5
77
330
6F
100
AcDbEntity
  8
1
 62
     1
100
AcDbMText
 10
134.550088857671
 20
1353.745854373314
 30
0.0
 40
14.0
 41
0.0
 71
     7
 72
     1
  1
40
  7
CONVERTER_1
 11
0.9999999999970621
 21
2.424068405545307E-6
 31
0.0
 73
     1
 44
0.60024009603842
  0
ENDBLK
  5
79
330
6F
100
AcDbEntity
  8
0
100
AcDbBlockEnd
  0
BLOCK
  5
83
330
7C
100
AcDbEntity
  8
0
100
AcDbBlockBegin
  2
*D18
 70
     1
 71
     0
 10
0.0
 20
0.0
 30
0.0
  3
*D18
  1

  0
LINE
  5
7D
330
7C
100
AcDbEntity
  8
1
  6
Continuous
 62
     4
100
AcDbLine
 10
685.1580448911
 20
1350.099520879741
 30
0.0
 11
187.1580448911
 21
1350.099520879741
 31
0.0
  0
LINE
  5
7E
330
7C
100
AcDbEntity
  8
1
  6
Continuous
 62
     4
100
AcDbLine
 10
187.1580448911
 20
1328.599520879741
 30
0.0
 11
187.1580448911
 21
1354.099520879741
 31
0.0
  0
LINE
  5
7F
330
7C
100
AcDbEntity
  8
1
  6
Continuous
 62
     4
100
AcDbLine
 10
685.1580448911
 20
1330.099520879741
 30
0.0
 11
685.1580448911
 21
1354.099520879741
 31
0.0
  0
SOLID
  5
80
330
7C
100
AcDbEntity
  8
1
 62
     4
100
AcDbTrace
 10
671.1580448911
 20
1348.256385913518
 30
0.0
 11
671.1580448911
 21
1351.942655845965
 31
0.0
 12
685.1580448911
 22
1350.099520879741
 32
0.0
 13
685.1580448911
 23
1350.099520879741
 33
0.0
  0
SOLID
  5
81
330
7C
100
AcDbEntity
  8
1
 62
     4
100
AcDbTrace
 10
201.1580448911
 20
1351.942655845965
 30
0.0
 11
201.1580448911
 21
1348.256385913518
 31
0.0
 12
187.1580448911
 22
1350.099520879741
 32
0.0
 13
187.1580448911
 23
1350.099520879741
 33
0.0
  0
MTEXT
  5
82
330
7C
100
AcDbEntity
  8
1
 62
     1
100
AcDbMText
 10
395.405143184849
 20
1354.099520879741
 30
0.0
 40
14.0
 41
0.0
 71
     7
 72
     1
  1
LX -100
  7
CONVERTER_1
 11
0.9999999999970621
 21
2.424068405545307E-6
 31
0.0
 73
     1
 44
0.60024009603842
  0
ENDBLK
  5
84
330
7C
100
AcDbEntity
  8
0
100
AcDbBlockEnd
  0
BLOCK
  5
91
330
87
100
AcDbEntity
  8
0
100
AcDbBlockBegin
  2
*D29
 70
     1
 71
     0
 10
0.0
 20
0.0
 30
0.0
  3
*D29
  1

  0
LINE
  5
88
330
87
100
AcDbEntity
  8
1
  6
Continuous
 62
     4
100
AcDbLine
 10
87.16606801665944
 20
1367.40803648281
 30
0.0
 11
87.16606801665944
 21
1330.09952222242
 31
0.0
  0
LINE
  5
89
330
87
100
AcDbEntity
  8
1
  6
Continuous
 62
     4
100
AcDbLine
 10
87.16606801665944
 20
1330.09952222242
 30
0.0
 11
87.16606801665944
 21
1312.099523137991
 31
0.0
  0
LINE
  5
8A
330
87
100
AcDbEntity
  8
1
  6
Continuous
 62
     4
100
AcDbLine
 10
87.16606801665944
 20
1312.099523137991
 30
0.0
 11
87.16606801665944
 21
1284.099523137991
 31
0.0
  0
LINE
  5
8B
330
87
100
AcDbEntity
  8
1
  6
Continuous
 62
     4
100
AcDbLine
 10
125.2139047128001
 20
1312.099521923042
 30
0.0
 11
83.16606801665944
 21
1312.099523265719
 31
0.0
  0
LINE
  5
8C
330
87
100
AcDbEntity
  8
1
  6
Continuous
 62
     4
100
AcDbLine
 10
129.2139047128001
 20
1330.099520879742
 30
0.0
 11
83.1660683264261
 21
1330.099522350148
 31
0.0
  0
LINE
  5
8D
330
87
100
AcDbEntity
  8
1
  6
Continuous
 62
     4
100
AcDbLine
 10
83.1660683264261
 20
1330.099522350148
 30
0.0
 11
83.16606801665944
 21
1330.099522350148
 31
0.0
  0
SOLID
  5
8E
330
87
100
AcDbEntity
  8
1
 62
     4
100
AcDbTrace
 10
85.32293305043589
 20
1344.09952222242
 30
0.0
 11
89.00920298288298
 21
1344.09952222242
 31
0.0
 12
87.16606801665944
 22
1330.09952222242
 32
0.0
 13
87.16606801665944
 23
1330.09952222242
 33
0.0
  0
SOLID
  5
8F
330
87
100
AcDbEntity
  8
1
 62
     4
100
AcDbTrace
 10
89.00920298288297
 20
1298.099523137991
 30
0.0
 11
85.32293305043589
 21
1298.099523137991
 31
0.0
 12
87.16606801665944
 22
1312.099523137991
 32
0.0
 13
87.16606801665944
 23
1312.099523137991
 33
0.0
  0
MTEXT
  5
90
330
87
100
AcDbEntity
  8
1
 62
     1
100
AcDbMText
 10
83.16606801665944
 20
1350.60803648281
 30
0.0
 40
14.0
 41
0.0
 71
     7
 72
     1
  1
18
  7
CONVERTER_1
 11
0.0
 21
1.0
 31
0.0
 73
     1
 44
0.60024009603842
  0
ENDBLK
  5
92
330
87
100
AcDbEntity
  8
0
100
AcDbBlockEnd
  0
ENDSEC
  0
SECTION
  2
ENTITIES
  0
INSERT
  5
48
330
1F
100
AcDbEntity
  8
1
100
AcDbBlockReference
  2
Abdeckung_Edelstahl_f_r_600
 10
76.16606801665937
 20
1298.09952313799
 30
0.0
  0
INSERT
  5
49
330
1F
100
AcDbEntity
  8
0
100
AcDbBlockReference
  2
HL510NC_Bodenablauf
 10
516.1585073401791
 20
770.276302761246
 30
0.0
  0
DIMENSION
  5
7B
330
1F
100
AcDbEntity
  8
1
100
AcDbDimension
  2
*D07
 10
165.2139054678783
 20
1349.745854373314
 30
0.0
 11
145.050088857671
 21
1360.745854373314
 31
0.0
 70
    32
  1
<>
 71
     5
 42
-1.0
 53
359.9999981704225
  3
ME10_DIM_0
100
AcDbAlignedDimension
 13
125.2139047128001
 23
1326.099520879741
 33
0.0
 14
165.2139047128001
 24
1326.099520879741
 34
0.0
 50
359.9999981704225
100
AcDbRotatedDimension
  0
DIMENSION
  5
86
330
1F
100
AcDbEntity
  8
1
100
AcDbDimension
  2
*D18
 10
685.1580448911
 20
1350.099520879741
 30
0.0
 11
434.605143184849
 21
1361.099520879741
 31
0.0
 70
    32
  1
LX -100
 71
     5
 42
-1.0
 53
180.0
  3
ME10_DIM_1
100
AcDbAlignedDimension
 13
187.1580448911
 23
1328.599520879741
 33
0.0
 14
685.1580448911
 24
1330.099520879741
 34
0.0
 50
180.0
100
AcDbRotatedDimension
  0
DIMENSION
  5
94
330
1F
100
AcDbEntity
  8
1
100
AcDbDimension
  2
*D29
 10
87.16606801665944
 20
1330.09952222242
 30
0.0
 11
76.16606801665944
 21
1359.00803648281
 31
0.0
 70
    32
  1
<>
 71
     5
 42
-1.0
 53
89.9999981704226
  3
ME10_DIM_2
100
AcDbAlignedDimension
 13
125.2139047128001
 23
1312.099521923041
 33
0.0
 14
129.2139047128001
 24
1330.099520879741
 34
0.0
 50
89.9999981704226
100
AcDbRotatedDimension
  0
ENDSEC
  0
SECTION
  2
OBJECTS
  0
DICTIONARY
  5
C
330
0
100
AcDbDictionary
281
     1
  3
ACAD_GROUP
350
D
  3
ACAD_LAYOUT
350
1A
  3
ACAD_MLINESTYLE
350
17
  3
ACAD_PLOTSETTINGS
350
19
  3
ACAD_PLOTSTYLENAME
350
E
  0
DICTIONARY
  5
D
102
{ACAD_REACTORS
330
C
102
}
330
C
100
AcDbDictionary
281
     1
  0
DICTIONARY
  5
1A
102
{ACAD_REACTORS
330
C
102
}
330
C
100
AcDbDictionary
281
     1
  3
Layout1
350
1E
  3
Layout2
350
26
  3
Model
350
22
  0
DICTIONARY
  5
17
102
{ACAD_REACTORS
330
C
102
}
330
C
100
AcDbDictionary
281
     1
  3
Standard
350
18
  0
DICTIONARY
  5
19
102
{ACAD_REACTORS
330
C
102
}
330
C
100
AcDbDictionary
281
     1
  0
ACDBDICTIONARYWDFLT
  5
E
102
{ACAD_REACTORS
330
C
102
}
330
C
100
AcDbDictionary
281
     1
  3
Normal
350
F
100
AcDbDictionaryWithDefault
340
F
  0
LAYOUT
  5
1E
102
{ACAD_REACTORS
330
1A
102
}
330
1A
100
AcDbPlotSettings
  1

  2

  4

  6

 40
0.0
 41
0.0
 42
0.0
 43
0.0
 44
0.0
 45
0.0
 46
0.0
 47
0.0
 48
0.0
 49
0.0
140
0.0
141
0.0
142
1.0
143
1.0
 70
   688
 72
     0
 73
     0
 74
     5
  7

 75
    16
147
1.0
148
0.0
149
0.0
100
AcDbLayout
  1
Layout1
 70
     1
 71
     1
 10
0.0
 20
0.0
 11
0.0
 21
0.0
 12
0.0
 22
0.0
 32
0.0
 14
0.0
 24
0.0
 34
0.0
 15
0.0
 25
0.0
 35
0.0
146
0.0
 13
0.0
 23
0.0
 33
0.0
 16
1.0
 26
0.0
 36
0.0
 17
0.0
 27
1.0
 37
0.0
 76
     0
330
1B
  0
LAYOUT
  5
26
102
{ACAD_REACTORS
330
1A
102
}
330
1A
100
AcDbPlotSettings
  1

  2

  4

  6

 40
0.0
 41
0.0
 42
0.0
 43
0.0
 44
0.0
 45
0.0
 46
0.0
 47
0.0
 48
0.0
 49
0.0
140
0.0
141
0.0
142
1.0
143
1.0
 70
   688
 72
     0
 73
     0
 74
     5
  7

 75
    16
147
1.0
148
0.0
149
0.0
100
AcDbLayout
  1
Layout2
 70
     1
 71
     2
 10
0.0
 20
0.0
 11
0.0
 21
0.0
 12
0.0
 22
0.0
 32
0.0
 14
0.0
 24
0.0
 34
0.0
 15
0.0
 25
0.0
 35
0.0
146
0.0
 13
0.0
 23
0.0
 33
0.0
 16
1.0
 26
0.0
 36
0.0
 17
0.0
 27
1.0
 37
0.0
 76
     0
330
23
  0
LAYOUT
  5
22
102
{ACAD_REACTORS
330
1A
102
}
330
1A
100
AcDbPlotSettings
  1

  2

  4

  6

 40
0.0
 41
0.0
 42
0.0
 43
0.0
 44
0.0
 45
0.0
 46
0.0
 47
0.0
 48
0.0
 49
0.0
140
0.0
141
0.0
142
1.0
143
1.0
 70
  1712
 72
     0
 73
     0
 74
     0
  7

 75
     0
147
1.0
148
0.0
149
0.0
100
AcDbLayout
  1
Model
 70
     1
 71
     0
 10
0.0
 20
0.0
 11
0.0
 21
0.0
 12
0.0
 22
0.0
 32
0.0
 14
69.16606801665944
 24
1284.099523137991
 34
0.0
 15
685.1580448911
 25
1368.099520879741
 35
0.0
146
0.0
 13
0.0
 23
0.0
 33
0.0
 16
1.0
 26
0.0
 36
0.0
 17
0.0
 27
1.0
 37
0.0
 76
     0
330
1F
  0
MLINESTYLE
  5
18
102
{ACAD_REACTORS
330
17
102
}
330
17
100
AcDbMlineStyle
  2
Standard
 70
     0
  3

 62
   256
 51
90.0
 52
90.0
 71
     2
 49
0.5
 62
   256
  6
BYLAYER
 49
-0.5
 62
   256
  6
BYLAYER
  0
ACDBPLACEHOLDER
  5
F
102
{ACAD_REACTORS
330
E
102
}
330
E
  0
ENDSEC
  0
EOF
