  0
SECTION
  2
HEADER
  9
$ACADVER
  1
AC1015
  9
$ACADMAINTVER
 70
     6
  9
$DWGCODEPAGE
  3
ANSI_1252
  9
$INSBASE
 10
0.0
 20
0.0
 30
0.0
  9
$EXTMIN
 10
-118.1149789361168
 20
-53.38123184001779
 30
0.0
  9
$EXTMAX
 10
35.6808138044106
 20
132.0
 30
0.0
  9
$LIMMIN
 10
0.0
 20
0.0
  9
$LIMMAX
 10
12.0
 20
9.0
  9
$ORTHOMODE
 70
     0
  9
$REGENMODE
 70
     1
  9
$FILLMODE
 70
     1
  9
$QTEXTMODE
 70
     0
  9
$MIRRTEXT
 70
     1
  9
$LTSCALE
 40
1.0
  9
$ATTMODE
 70
     1
  9
$TEXTSIZE
 40
0.2
  9
$TRACEWID
 40
0.05
  9
$TEXTSTYLE
  7
Standard
  9
$CLAYER
  8
0
  9
$CELTYPE
  6
ByLayer
  9
$CECOLOR
 62
   256
  9
$CELTSCALE
 40
1.0
  9
$DISPSILH
 70
     0
  9
$DIMSCALE
 40
1.0
  9
$DIMASZ
 40
0.18
  9
$DIMEXO
 40
0.0625
  9
$DIMDLI
 40
0.38
  9
$DIMRND
 40
0.0
  9
$DIMDLE
 40
0.0
  9
$DIMEXE
 40
0.18
  9
$DIMTP
 40
0.0
  9
$DIMTM
 40
0.0
  9
$DIMTXT
 40
0.18
  9
$DIMCEN
 40
0.09
  9
$DIMTSZ
 40
0.0
  9
$DIMTOL
 70
     0
  9
$DIMLIM
 70
     0
  9
$DIMTIH
 70
     1
  9
$DIMTOH
 70
     1
  9
$DIMSE1
 70
     0
  9
$DIMSE2
 70
     0
  9
$DIMTAD
 70
     0
  9
$DIMZIN
 70
     0
  9
$DIMBLK
  1

  9
$DIMASO
 70
     1
  9
$DIMSHO
 70
     1
  9
$DIMPOST
  1

  9
$DIMAPOST
  1

  9
$DIMALT
 70
     0
  9
$DIMALTD
 70
     2
  9
$DIMALTF
 40
25.4
  9
$DIMLFAC
 40
1.0
  9
$DIMTOFL
 70
     0
  9
$DIMTVP
 40
0.0
  9
$DIMTIX
 70
     0
  9
$DIMSOXD
 70
     0
  9
$DIMSAH
 70
     0
  9
$DIMBLK1
  1

  9
$DIMBLK2
  1

  9
$DIMSTYLE
  2
Standard
  9
$DIMCLRD
 70
     0
  9
$DIMCLRE
 70
     0
  9
$DIMCLRT
 70
     0
  9
$DIMTFAC
 40
1.0
  9
$DIMGAP
 40
0.09
  9
$DIMJUST
 70
     0
  9
$DIMSD1
 70
     0
  9
$DIMSD2
 70
     0
  9
$DIMTOLJ
 70
     1
  9
$DIMTZIN
 70
     0
  9
$DIMALTZ
 70
     0
  9
$DIMALTTZ
 70
     0
  9
$DIMUPT
 70
     0
  9
$DIMDEC
 70
     4
  9
$DIMTDEC
 70
     4
  9
$DIMALTU
 70
     2
  9
$DIMALTTD
 70
     2
  9
$DIMTXSTY
  7
Standard
  9
$DIMAUNIT
 70
     0
  9
$DIMADEC
 70
     0
  9
$DIMALTRND
 40
0.0
  9
$DIMAZIN
 70
     0
  9
$DIMDSEP
 70
    46
  9
$DIMATFIT
 70
     3
  9
$DIMFRAC
 70
     0
  9
$DIMLDRBLK
  1

  9
$DIMLUNIT
 70
     2
  9
$DIMLWD
 70
    -2
  9
$DIMLWE
 70
    -2
  9
$DIMTMOVE
 70
     0
  9
$LUNITS
 70
     2
  9
$LUPREC
 70
     4
  9
$SKETCHINC
 40
0.1
  9
$FILLETRAD
 40
0.5
  9
$AUNITS
 70
     0
  9
$AUPREC
 70
     0
  9
$MENU
  1
.
  9
$ELEVATION
 40
0.0
  9
$PELEVATION
 40
0.0
  9
$THICKNESS
 40
0.0
  9
$LIMCHECK
 70
     0
  9
$CHAMFERA
 40
0.5
  9
$CHAMFERB
 40
0.5
  9
$CHAMFERC
 40
1.0
  9
$CHAMFERD
 40
0.0
  9
$SKPOLY
 70
     0
  9
$TDCREATE
 40
2455448.42686941
  9
$TDUCREATE
 40
2455448.343536077
  9
$TDUPDATE
 40
2455448.426869421
  9
$TDUUPDATE
 40
2455448.343536088
  9
$TDINDWG
 40
0.0000000116
  9
$TDUSRTIMER
 40
0.0000000116
  9
$USRTIMER
 70
     1
  9
$ANGBASE
 50
0.0
  9
$ANGDIR
 70
     0
  9
$PDMODE
 70
     0
  9
$PDSIZE
 40
0.0
  9
$PLINEWID
 40
0.0
  9
$SPLFRAME
 70
     0
  9
$SPLINETYPE
 70
     6
  9
$SPLINESEGS
 70
     8
  9
$HANDSEED
  5
1EC
  9
$SURFTAB1
 70
     6
  9
$SURFTAB2
 70
     6
  9
$SURFTYPE
 70
     6
  9
$SURFU
 70
     6
  9
$SURFV
 70
     6
  9
$UCSBASE
  2

  9
$UCSNAME
  2

  9
$UCSORG
 10
0.0
 20
0.0
 30
0.0
  9
$UCSXDIR
 10
1.0
 20
0.0
 30
0.0
  9
$UCSYDIR
 10
0.0
 20
1.0
 30
0.0
  9
$UCSORTHOREF
  2

  9
$UCSORTHOVIEW
 70
     0
  9
$UCSORGTOP
 10
0.0
 20
0.0
 30
0.0
  9
$UCSORGBOTTOM
 10
0.0
 20
0.0
 30
0.0
  9
$UCSORGLEFT
 10
0.0
 20
0.0
 30
0.0
  9
$UCSORGRIGHT
 10
0.0
 20
0.0
 30
0.0
  9
$UCSORGFRONT
 10
0.0
 20
0.0
 30
0.0
  9
$UCSORGBACK
 10
0.0
 20
0.0
 30
0.0
  9
$PUCSBASE
  2

  9
$PUCSNAME
  2

  9
$PUCSORG
 10
0.0
 20
0.0
 30
0.0
  9
$PUCSXDIR
 10
1.0
 20
0.0
 30
0.0
  9
$PUCSYDIR
 10
0.0
 20
1.0
 30
0.0
  9
$PUCSORTHOREF
  2

  9
$PUCSORTHOVIEW
 70
     0
  9
$PUCSORGTOP
 10
0.0
 20
0.0
 30
0.0
  9
$PUCSORGBOTTOM
 10
0.0
 20
0.0
 30
0.0
  9
$PUCSORGLEFT
 10
0.0
 20
0.0
 30
0.0
  9
$PUCSORGRIGHT
 10
0.0
 20
0.0
 30
0.0
  9
$PUCSORGFRONT
 10
0.0
 20
0.0
 30
0.0
  9
$PUCSORGBACK
 10
0.0
 20
0.0
 30
0.0
  9
$USERI1
 70
     0
  9
$USERI2
 70
     0
  9
$USERI3
 70
     0
  9
$USERI4
 70
     0
  9
$USERI5
 70
     0
  9
$USERR1
 40
16.5
  9
$USERR2
 40
0.0
  9
$USERR3
 40
0.0
  9
$USERR4
 40
0.0
  9
$USERR5
 40
0.0
  9
$WORLDVIEW
 70
     1
  9
$SHADEDGE
 70
     3
  9
$SHADEDIF
 70
    70
  9
$TILEMODE
 70
     1
  9
$MAXACTVP
 70
    64
  9
$PINSBASE
 10
0.0
 20
0.0
 30
0.0
  9
$PLIMCHECK
 70
     0
  9
$PEXTMIN
 10
1.00000000000000E+20
 20
1.00000000000000E+20
 30
1.00000000000000E+20
  9
$PEXTMAX
 10
-1.00000000000000E+20
 20
-1.00000000000000E+20
 30
-1.00000000000000E+20
  9
$PLIMMIN
 10
0.0
 20
0.0
  9
$PLIMMAX
 10
12.0
 20
9.0
  9
$UNITMODE
 70
     0
  9
$VISRETAIN
 70
     1
  9
$PLINEGEN
 70
     0
  9
$PSLTSCALE
 70
     1
  9
$TREEDEPTH
 70
  3020
  9
$CMLSTYLE
  2
Standard
  9
$CMLJUST
 70
     0
  9
$CMLSCALE
 40
1.0
  9
$PROXYGRAPHICS
 70
     1
  9
$MEASUREMENT
 70
     1
  9
$CELWEIGHT
370
    -1
  9
$ENDCAPS
280
     0
  9
$JOINSTYLE
280
     0
  9
$LWDISPLAY
290
     0
  9
$INSUNITS
 70
     1
  9
$HYPERLINKBASE
  1

  9
$STYLESHEET
  1

  9
$XEDIT
290
     1
  9
$CEPSNTYPE
380
     0
  9
$PSTYLEMODE
290
     1
  9
$FINGERPRINTGUID
  2
{8B74F0E1-3DDB-4EFC-A130-4800F35E3A34}
  9
$VERSIONGUID
  2
{FAEB1C32-E019-11D5-929B-00C0DF256EC4}
  9
$EXTNAMES
290
     1
  9
$PSVPSCALE
 40
0.0
  9
$OLESTARTUP
290
     0
  0
ENDSEC
  0
SECTION
  2
CLASSES
  0
CLASS
  1
ACDBDICTIONARYWDFLT
  2
AcDbDictionaryWithDefault
  3
ObjectDBX Classes
 90
        0
280
     0
281
     0
  0
CLASS
  1
VISUALSTYLE
  2
AcDbVisualStyle
  3
ObjectDBX Classes
 90
     4095
280
     0
281
     0
  0
CLASS
  1
SCALE
  2
AcDbScale
  3
ObjectDBX Classes
 90
     1153
280
     0
281
     0
  0
CLASS
  1

  2
exOdDbCircle
  3

 90
        0
280
     0
281
     1
  0
CLASS
  1

  2
exOdDbSpline
  3

 90
        0
280
     0
281
     1
  0
CLASS
  1
DICTIONARYVAR
  2
AcDbDictionaryVar
  3
ObjectDBX Classes
 90
        0
280
     0
281
     0
  0
CLASS
  1
ACDBPLACEHOLDER
  2
AcDbPlaceHolder
  3
ObjectDBX Classes
 90
        0
280
     0
281
     0
  0
CLASS
  1
LAYOUT
  2
AcDbLayout
  3
ObjectDBX Classes
 90
        0
280
     0
281
     0
  0
ENDSEC
  0
SECTION
  2
TABLES
  0
TABLE
  2
VPORT
  5
8
330
0
100
AcDbSymbolTable
 70
     1
  0
VPORT
  5
29
330
8
100
AcDbSymbolTableRecord
100
AcDbViewportTableRecord
  2
*Active
 70
     0
 10
0.0
 20
0.0
 11
1.0
 21
1.0
 12
-41.2170825658531
 22
39.3093840799911
 13
0.0
 23
0.0
 14
0.5
 24
0.5
 15
0.5
 25
0.5
 16
0.0
 26
0.0
 36
1.0
 17
0.0
 27
0.0
 37
0.0
 40
203.9193550240196
 41
1.60267857142857
 42
50.0
 43
0.0
 44
0.0
 50
0.0
 51
0.0
 71
     0
 72
   100
 73
     1
 74
     3
 75
     0
 76
     0
 77
     0
 78
     0
281
     0
 65
     1
110
0.0
120
0.0
130
0.0
111
1.0
121
0.0
131
0.0
112
0.0
122
1.0
132
0.0
 79
     0
146
0.0
  0
ENDTAB
  0
TABLE
  2
LTYPE
  5
5
330
0
100
AcDbSymbolTable
 70
     8
  0
LTYPE
  5
14
330
5
100
AcDbSymbolTableRecord
100
AcDbLinetypeTableRecord
  2
ByBlock
 70
     0
  3

 72
    65
 73
     0
 40
0.0
  0
LTYPE
  5
15
330
5
100
AcDbSymbolTableRecord
100
AcDbLinetypeTableRecord
  2
ByLayer
 70
     0
  3

 72
    65
 73
     0
 40
0.0
  0
LTYPE
  5
16
330
5
100
AcDbSymbolTableRecord
100
AcDbLinetypeTableRecord
  2
Continuous
 70
     0
  3
Solid line
 72
    65
 73
     0
 40
0.0
  0
LTYPE
  5
3B
330
5
100
AcDbSymbolTableRecord
100
AcDbLinetypeTableRecord
  2
DASHED
 70
     0
  3
Dashed
 72
    65
 73
     2
 40
15.0
 49
7.0
 74
     0
 49
-8.0
 74
     0
  0
LTYPE
  5
3C
330
5
100
AcDbSymbolTableRecord
100
AcDbLinetypeTableRecord
  2
DOTTED
 70
     0
  3
Dotted
 72
    65
 73
     2
 40
1.0
 49
0.0
 74
     0
 49
-1.0
 74
     0
  0
LTYPE
  5
3D
330
5
100
AcDbSymbolTableRecord
100
AcDbLinetypeTableRecord
  2
DOT_CENTER
 70
     0
  3
Dot_Center
 72
    65
 73
     4
 40
14.0
 49
12.0
 74
     0
 49
-1.0
 74
     0
 49
0.0
 74
     0
 49
-1.0
 74
     0
  0
LTYPE
  5
3E
330
5
100
AcDbSymbolTableRecord
100
AcDbLinetypeTableRecord
  2
LONG_DASHED
 70
     0
  3
Long_Dashed
 72
    65
 73
     2
 40
15.0
 49
10.0
 74
     0
 49
-5.0
 74
     0
  0
LTYPE
  5
3F
330
5
100
AcDbSymbolTableRecord
100
AcDbLinetypeTableRecord
  2
DASH_CENTER
 70
     0
  3
Dash_Center
 72
    65
 73
     4
 40
14.0
 49
11.0
 74
     0
 49
-1.0
 74
     0
 49
1.0
 74
     0
 49
-1.0
 74
     0
  0
LTYPE
  5
40
330
5
100
AcDbSymbolTableRecord
100
AcDbLinetypeTableRecord
  2
PHANTOM
 70
     0
  3
Phantom
 72
    65
 73
     6
 40
13.0
 49
10.0
 74
     0
 49
-1.0
 74
     0
 49
0.0
 74
     0
 49
-1.0
 74
     0
 49
0.0
 74
     0
 49
-1.0
 74
     0
  0
LTYPE
  5
41
330
5
100
AcDbSymbolTableRecord
100
AcDbLinetypeTableRecord
  2
CENTER_DASH_DASH
 70
     0
  3
Center_Dash_Dash
 72
    65
 73
     6
 40
14.0
 49
9.0
 74
     0
 49
-1.0
 74
     0
 49
1.0
 74
     0
 49
-1.0
 74
     0
 49
1.0
 74
     0
 49
-1.0
 74
     0
  0
ENDTAB
  0
TABLE
  2
LAYER
  5
2
330
0
100
AcDbSymbolTable
 70
     2
  0
LAYER
  5
10
330
2
100
AcDbSymbolTableRecord
100
AcDbLayerTableRecord
  2
0
 70
     0
 62
     7
  6
Continuous
370
    -3
390
F
  0
LAYER
  5
42
330
2
100
AcDbSymbolTableRecord
100
AcDbLayerTableRecord
  2
1
 70
     0
 62
     7
  6
Continuous
370
    -3
390
F
  0
ENDTAB
  0
TABLE
  2
STYLE
  5
3
330
0
100
AcDbSymbolTable
 70
     2
  0
STYLE
  5
11
330
3
100
AcDbSymbolTableRecord
100
AcDbTextStyleTableRecord
  2
Standard
 70
     0
 40
0.0
 41
1.0
 50
0.0
 71
     0
 42
0.2
  3
txt
  4

  0
STYLE
  5
82
330
3
100
AcDbSymbolTableRecord
100
AcDbTextStyleTableRecord
  2
CONVERTER_11
 70
     0
 40
0.0
 41
0.9
 50
0.0
 71
     0
 42
0.2
  3
txt.shx
  4

  0
ENDTAB
  0
TABLE
  2
VIEW
  5
6
330
0
100
AcDbSymbolTable
 70
     0
  0
ENDTAB
  0
TABLE
  2
UCS
  5
7
330
0
100
AcDbSymbolTable
 70
     0
  0
ENDTAB
  0
TABLE
  2
APPID
  5
9
330
0
100
AcDbSymbolTable
 70
     1
  0
APPID
  5
12
330
9
100
AcDbSymbolTableRecord
100
AcDbRegAppTableRecord
  2
ACAD
 70
     0
  0
ENDTAB
  0
TABLE
  2
DIMSTYLE
  5
A
330
0
100
AcDbSymbolTable
 70
     4
100
AcDbDimStyleTable
  0
DIMSTYLE
105
27
330
A
100
AcDbSymbolTableRecord
100
AcDbDimStyleTableRecord
  2
Standard
 70
     0
340
11
  0
DIMSTYLE
105
86
102
{ACAD_REACTORS
330
87
102
}
330
A
100
AcDbSymbolTableRecord
100
AcDbDimStyleTableRecord
  2
ME10_DIM_10
 70
     0
 41
3.5
 42
0.0
 44
2.0
 73
     0
 74
     0
 77
     1
 78
     8
140
3.5
147
2.0
172
     1
173
     1
176
     4
177
     4
178
     1
271
     2
340
82
  0
DIMSTYLE
105
1DB
102
{ACAD_REACTORS
330
1DC
102
}
330
A
100
AcDbSymbolTableRecord
100
AcDbDimStyleTableRecord
  2
ME10_DIM_11
 70
     0
 41
3.5
 42
0.0
 44
2.0
 73
     0
 74
     0
 77
     1
 78
     8
140
3.5
147
2.0
172
     1
173
     1
176
     4
177
     4
178
     1
271
     2
340
82
  0
DIMSTYLE
105
1E6
102
{ACAD_REACTORS
330
1E7
102
}
330
A
100
AcDbSymbolTableRecord
100
AcDbDimStyleTableRecord
  2
ME10_DIM_12
 70
     0
 41
3.5
 42
0.0
 44
2.0
 73
     0
 74
     0
 77
     1
 78
     8
140
3.5
147
2.0
172
     1
173
     1
176
     4
177
     4
178
     1
271
     2
340
82
  0
ENDTAB
  0
TABLE
  2
BLOCK_RECORD
  5
1
330
0
100
AcDbSymbolTable
 70
     6
  0
BLOCK_RECORD
  5
1F
330
1
100
AcDbSymbolTableRecord
100
AcDbBlockTableRecord
  2
*Model_Space
340
22
  0
BLOCK_RECORD
  5
1B
330
1
100
AcDbSymbolTableRecord
100
AcDbBlockTableRecord
  2
*Paper_Space
340
1E
  0
BLOCK_RECORD
  5
23
330
1
100
AcDbSymbolTableRecord
100
AcDbBlockTableRecord
  2
*Paper_Space0
340
26
  0
BLOCK_RECORD
  5
43
330
1
100
AcDbSymbolTableRecord
100
AcDbBlockTableRecord
  2
Einlaufrost_Quadra_140x140__1
340
0
102
{BLKREFS
331
6B
102
}
  0
BLOCK_RECORD
  5
46
330
1
100
AcDbSymbolTableRecord
100
AcDbBlockTableRecord
  2
Einlaufrost_Quadra_140x140__2
340
0
102
{BLKREFS
331
6C
102
}
  0
BLOCK_RECORD
  5
7A
330
1
100
AcDbSymbolTableRecord
100
AcDbBlockTableRecord
  2
*D3
340
0
  0
BLOCK_RECORD
  5
1D2
330
1
100
AcDbSymbolTableRecord
100
AcDbBlockTableRecord
  2
*D4
340
0
  0
BLOCK_RECORD
  5
1DD
330
1
100
AcDbSymbolTableRecord
100
AcDbBlockTableRecord
  2
*D5
340
0
  0
ENDTAB
  0
ENDSEC
  0
SECTION
  2
BLOCKS
  0
BLOCK
  5
20
330
1F
100
AcDbEntity
  8
0
100
AcDbBlockBegin
  2
*Model_Space
 70
     0
 10
0.0
 20
0.0
 30
0.0
  3
*Model_Space
  1

  0
ENDBLK
  5
21
330
1F
100
AcDbEntity
  8
0
100
AcDbBlockEnd
  0
BLOCK
  5
1C
330
1B
100
AcDbEntity
 67
     1
  8
0
100
AcDbBlockBegin
  2
*Paper_Space
 70
     0
 10
0.0
 20
0.0
 30
0.0
  3
*Paper_Space
  1

  0
ENDBLK
  5
1D
330
1B
100
AcDbEntity
 67
     1
  8
0
100
AcDbBlockEnd
  0
BLOCK
  5
24
330
23
100
AcDbEntity
  8
0
100
AcDbBlockBegin
  2
*Paper_Space0
 70
     0
 10
0.0
 20
0.0
 30
0.0
  3
*Paper_Space0
  1

  0
ENDBLK
  5
25
330
23
100
AcDbEntity
  8
0
100
AcDbBlockEnd
  0
BLOCK
  5
44
330
43
100
AcDbEntity
  8
0
100
AcDbBlockBegin
  2
Einlaufrost_Quadra_140x140__1
 70
     0
 10
-43.11497893611681
 20
-43.6906159200089
 30
0.0
  3
Einlaufrost_Quadra_140x140__1
  1

  0
LINE
  5
6D
330
43
100
AcDbEntity
  8
0
  6
Continuous
 62
     7
100
AcDbLine
 10
16.88502106388319
 20
-46.0
 30
0.0
 11
-115.1149789361168
 21
-46.0
 31
0.0
  0
LINE
  5
6E
330
43
100
AcDbEntity
  8
0
  6
Continuous
 62
     7
100
AcDbLine
 10
16.88502106388319
 20
-41.0
 30
0.0
 11
-115.1149789361168
 21
-41.0
 31
0.0
  0
LINE
  5
6F
330
43
100
AcDbEntity
  8
1
  6
Continuous
 62
     3
100
AcDbLine
 10
-118.1149789361168
 20
-41.5
 30
0.0
 11
19.88502106388319
 21
-41.5
 31
0.0
  0
LINE
  5
70
330
43
100
AcDbEntity
  8
0
  6
Continuous
 62
     3
100
AcDbLine
 10
16.88502106388319
 20
-46.0
 30
0.0
 11
16.88502106388319
 21
-41.0
 31
0.0
  0
LINE
  5
71
330
43
100
AcDbEntity
  8
0
  6
Continuous
 62
     3
100
AcDbLine
 10
-115.1149789361168
 20
-46.0
 30
0.0
 11
-115.1149789361168
 21
-41.0
 31
0.0
  0
LINE
  5
72
330
43
100
AcDbEntity
  8
0
  6
Continuous
 62
     7
100
AcDbLine
 10
19.88502106388319
 20
-46.0
 30
0.0
 11
19.88502106388319
 21
-41.5
 31
0.0
  0
LINE
  5
73
330
43
100
AcDbEntity
  8
0
  6
Continuous
 62
     7
100
AcDbLine
 10
16.88502106388319
 20
-41.0
 30
0.0
 11
19.38502106388319
 21
-41.0
 31
0.0
  0
LINE
  5
74
330
43
100
AcDbEntity
  8
0
  6
Continuous
 62
     7
100
AcDbLine
 10
16.88502106388319
 20
-46.0
 30
0.0
 11
19.88502106388319
 21
-46.0
 31
0.0
  0
LINE
  5
75
330
43
100
AcDbEntity
  8
0
  6
Continuous
 62
     7
100
AcDbLine
 10
-118.1149789361168
 20
-46.0
 30
0.0
 11
-118.1149789361168
 21
-41.5
 31
0.0
  0
LINE
  5
76
330
43
100
AcDbEntity
  8
0
  6
Continuous
 62
     7
100
AcDbLine
 10
-118.1149789361168
 20
-46.0
 30
0.0
 11
-115.1149789361168
 21
-46.0
 31
0.0
  0
LINE
  5
77
330
43
100
AcDbEntity
  8
0
  6
Continuous
 62
     7
100
AcDbLine
 10
-117.6149789361168
 20
-41.0
 30
0.0
 11
-115.1149789361168
 21
-41.0
 31
0.0
  0
ARC
  5
78
330
43
100
AcDbEntity
  8
1
  6
Continuous
 62
     7
100
AcDbCircle
 10
19.38502106388319
 20
-41.5
 30
0.0
 40
0.5
100
AcDbArc
 50
0.0
 51
90.0
  0
ARC
  5
79
330
43
100
AcDbEntity
  8
1
  6
Continuous
 62
     7
100
AcDbCircle
 10
-117.6149789361168
 20
-41.5
 30
0.0
 40
0.5
100
AcDbArc
 50
90.0
 51
180.0
  0
DIMENSION
  5
87
330
43
100
AcDbEntity
  8
1
100
AcDbDimension
  2
*D3
 10
29.88502106388319
 20
-41.0
 30
0.0
 11
26.13502106388319
 21
-52.33123184001779
 31
0.0
 70
    32
  1
<>
 71
     5
 42
-1.0
 53
90.0
  3
ME10_DIM_10
100
AcDbAlignedDimension
 13
19.88502106388319
 23
-46.0
 33
0.0
 14
19.38502106388319
 24
-41.0
 34
0.0
 50
90.0
100
AcDbRotatedDimension
  0
ENDBLK
  5
45
330
43
100
AcDbEntity
  8
0
100
AcDbBlockEnd
  0
BLOCK
  5
47
330
46
100
AcDbEntity
  8
0
100
AcDbBlockBegin
  2
Einlaufrost_Quadra_140x140__2
 70
     0
 10
-41.2170825658531
 20
56.3565672828635
 30
0.0
  3
Einlaufrost_Quadra_140x140__2
  1

  0
LINE
  5
88
330
46
100
AcDbEntity
  8
0
  6
Continuous
 62
     7
100
AcDbLine
 10
-2.42444735159022
 20
2.99660927723881
 30
0.0
 11
-2.71694735159821
 21
2.99660927724188
 31
0.0
  0
LINE
  5
89
330
46
100
AcDbEntity
  8
0
  6
Continuous
 62
     7
100
AcDbLine
 10
-2.51444735158671
 20
3.52160927723771
 30
0.0
 11
-2.53694735159452
 21
3.69660927724085
 31
0.0
  0
LINE
  5
8A
330
46
100
AcDbEntity
  8
0
  6
Continuous
 62
     7
100
AcDbLine
 10
-2.53694735159452
 20
3.69660927724085
 30
0.0
 11
-2.62694735159411
 21
3.84660927724213
 31
0.0
  0
LINE
  5
8B
330
46
100
AcDbEntity
  8
0
  6
Continuous
 62
     7
100
AcDbLine
 10
-2.96444735159132
 20
4.72160927724401
 30
0.0
 11
-2.85194735159301
 21
4.6716092772382
 31
0.0
  0
LINE
  5
8C
330
46
100
AcDbEntity
  8
0
  6
Continuous
 62
     7
100
AcDbLine
 10
-2.85194735159242
 20
4.97160927724426
 30
0.0
 11
-3.03194735159582
 21
4.99660927724262
 31
0.0
  0
LINE
  5
8D
330
46
100
AcDbEntity
  8
0
  6
Continuous
 62
     7
100
AcDbLine
 10
-2.71694735159141
 20
4.89660927724197
 30
0.0
 11
-2.85194735159242
 21
4.97160927724426
 31
0.0
  0
LINE
  5
8E
330
46
100
AcDbEntity
  8
0
  6
Continuous
 62
     7
100
AcDbLine
 10
-2.62694735158462
 20
4.79660927724664
 30
0.0
 11
-2.71694735159141
 21
4.89660927724197
 31
0.0
  0
LINE
  5
8F
330
46
100
AcDbEntity
  8
0
  6
Continuous
 62
     7
100
AcDbLine
 10
-2.53694735159051
 20
4.64660927723919
 30
0.0
 11
-2.62694735158462
 21
4.79660927724664
 31
0.0
  0
LINE
  5
90
330
46
100
AcDbEntity
  8
0
  6
Continuous
 62
     7
100
AcDbLine
 10
-3.09944735159141
 20
4.74660927723975
 30
0.0
 11
-3.57194735159381
 21
4.74660927724552
 31
0.0
  0
LINE
  5
91
330
46
100
AcDbEntity
  8
0
  6
Continuous
 62
     7
100
AcDbLine
 10
-3.03194735159582
 20
4.99660927724262
 30
0.0
 11
-3.81944735158741
 21
4.9966092772416
 31
0.0
  0
LINE
  5
92
330
46
100
AcDbEntity
  8
0
  6
Continuous
 62
     7
100
AcDbLine
 10
-3.09944735159141
 20
4.74660927723975
 30
0.0
 11
-2.96444735159132
 21
4.72160927724401
 31
0.0
  0
LINE
  5
93
330
46
100
AcDbEntity
  8
0
  6
Continuous
 62
     7
100
AcDbLine
 10
-2.51444735158401
 20
4.47160927723946
 30
0.0
 11
-2.53694735159051
 21
4.64660927723919
 31
0.0
  0
LINE
  5
94
330
46
100
AcDbEntity
  8
0
  6
Continuous
 62
     7
100
AcDbLine
 10
-2.62694735158831
 20
3.99660927724151
 30
0.0
 11
-2.53694735159492
 21
4.14660927724351
 31
0.0
  0
LINE
  5
95
330
46
100
AcDbEntity
  8
0
  6
Continuous
 62
     7
100
AcDbLine
 10
-2.53694735159492
 20
4.14660927724351
 30
0.0
 11
-2.51444735158981
 21
4.32160927724005
 31
0.0
  0
LINE
  5
96
330
46
100
AcDbEntity
  8
0
  6
Continuous
 62
     7
100
AcDbLine
 10
-2.51444735158401
 20
4.47160927723946
 30
0.0
 11
-2.51444735158981
 21
4.32160927724005
 31
0.0
  0
LINE
  5
97
330
46
100
AcDbEntity
  8
0
  6
Continuous
 62
     7
100
AcDbLine
 10
-2.76194735159682
 20
3.17160927723905
 30
0.0
 11
-2.71694735159821
 21
2.99660927724188
 31
0.0
  0
LINE
  5
98
330
46
100
AcDbEntity
  8
0
  6
Continuous
 62
     7
100
AcDbLine
 10
-2.73944735158611
 20
4.32160927724198
 30
0.0
 11
-2.78444735158952
 21
4.19660927724318
 31
0.0
  0
LINE
  5
99
330
46
100
AcDbEntity
  8
0
  6
Continuous
 62
     7
100
AcDbLine
 10
-2.78444735159151
 20
4.59660927722644
 30
0.0
 11
-2.73944735158841
 21
4.47160927724196
 31
0.0
  0
LINE
  5
9A
330
46
100
AcDbEntity
  8
0
  6
Continuous
 62
     7
100
AcDbLine
 10
-2.78444735158541
 20
3.37160927724569
 30
0.0
 11
-2.76194735159682
 21
3.17160927723905
 31
0.0
  0
LINE
  5
9B
330
46
100
AcDbEntity
  8
0
  6
Continuous
 62
     7
100
AcDbLine
 10
-2.78444735158641
 20
3.52160927724229
 30
0.0
 11
-2.78444735158541
 21
3.37160927724569
 31
0.0
  0
LINE
  5
9C
330
46
100
AcDbEntity
  8
0
  6
Continuous
 62
     7
100
AcDbLine
 10
-2.73944735158841
 20
4.47160927724196
 30
0.0
 11
-2.73944735158611
 21
4.32160927724198
 31
0.0
  0
LINE
  5
9D
330
46
100
AcDbEntity
  8
0
  6
Continuous
 62
     7
100
AcDbLine
 10
-2.73944735158382
 20
3.92160927723916
 30
0.0
 11
-2.62694735158831
 21
3.99660927724151
 31
0.0
  0
LINE
  5
9E
330
46
100
AcDbEntity
  8
0
  6
Continuous
 62
     7
100
AcDbLine
 10
-3.57194735159341
 20
2.99660927724146
 30
0.0
 11
-3.81944735159001
 21
2.99660927724137
 31
0.0
  0
LINE
  5
9F
330
46
100
AcDbEntity
  8
0
  6
Continuous
 62
     7
100
AcDbLine
 10
-3.09944735159401
 20
4.04660927724093
 30
0.0
 11
-3.57194735159361
 21
4.04660927723996
 31
0.0
  0
LINE
  5
A0
330
46
100
AcDbEntity
  8
0
  6
Continuous
 62
     7
100
AcDbLine
 10
-3.14444735159471
 20
3.79660927723394
 30
0.0
 11
-3.57194735159371
 21
3.79660927723706
 31
0.0
  0
LINE
  5
A1
330
46
100
AcDbEntity
  8
0
  6
Continuous
 62
     7
100
AcDbLine
 10
-2.96444735159481
 20
4.0716092772517
 30
0.0
 11
-3.09944735159401
 21
4.04660927724093
 31
0.0
  0
LINE
  5
A2
330
46
100
AcDbEntity
  8
0
  6
Continuous
 62
     7
100
AcDbLine
 10
-3.14444735159471
 20
3.79660927723394
 30
0.0
 11
-3.00944735159742
 21
3.77160927724493
 31
0.0
  0
LINE
  5
A3
330
46
100
AcDbEntity
  8
0
  6
Continuous
 62
     7
100
AcDbLine
 10
-3.81944735158741
 20
4.9966092772416
 30
0.0
 11
-3.81944735159001
 21
2.99660927724137
 31
0.0
  0
LINE
  5
A4
330
46
100
AcDbEntity
  8
0
  6
Continuous
 62
     7
100
AcDbLine
 10
-3.57194735159381
 20
4.74660927724552
 30
0.0
 11
-3.57194735159361
 21
4.04660927723996
 31
0.0
  0
LINE
  5
A5
330
46
100
AcDbEntity
  8
0
  6
Continuous
 62
     7
100
AcDbLine
 10
-3.57194735159371
 20
3.79660927723706
 30
0.0
 11
-3.57194735159341
 21
2.99660927724146
 31
0.0
  0
LINE
  5
A6
330
46
100
AcDbEntity
  8
0
  6
Continuous
 62
     7
100
AcDbLine
 10
-2.85194735159301
 20
4.6716092772382
 30
0.0
 11
-2.78444735159151
 21
4.59660927722644
 31
0.0
  0
LINE
  5
A7
330
46
100
AcDbEntity
  8
0
  6
Continuous
 62
     7
100
AcDbLine
 10
-2.82944735159501
 20
3.64660927724021
 30
0.0
 11
-2.78444735158641
 21
3.52160927724229
 31
0.0
  0
LINE
  5
A8
330
46
100
AcDbEntity
  8
0
  6
Continuous
 62
     7
100
AcDbLine
 10
-2.89694735159232
 20
3.72160927724191
 30
0.0
 11
-2.82944735159501
 21
3.64660927724021
 31
0.0
  0
LINE
  5
A9
330
46
100
AcDbEntity
  8
0
  6
Continuous
 62
     7
100
AcDbLine
 10
-2.78444735158952
 20
4.19660927724318
 30
0.0
 11
-2.85194735159261
 21
4.12160927724546
 31
0.0
  0
LINE
  5
AA
330
46
100
AcDbEntity
  8
0
  6
Continuous
 62
     7
100
AcDbLine
 10
-2.62694735159411
 20
3.84660927724213
 30
0.0
 11
-2.73944735158382
 21
3.92160927723916
 31
0.0
  0
LINE
  5
AB
330
46
100
AcDbEntity
  8
0
  6
Continuous
 62
     7
100
AcDbLine
 10
-2.85194735159261
 20
4.12160927724546
 30
0.0
 11
-2.96444735159481
 21
4.0716092772517
 31
0.0
  0
LINE
  5
AC
330
46
100
AcDbEntity
  8
0
  6
Continuous
 62
     7
100
AcDbLine
 10
-3.00944735159742
 20
3.77160927724493
 30
0.0
 11
-2.89694735159232
 21
3.72160927724191
 31
0.0
  0
LINE
  5
AD
330
46
100
AcDbEntity
  8
0
  6
Continuous
 62
     7
100
AcDbLine
 10
-2.42444735159022
 20
2.99660927723881
 30
0.0
 11
-2.49194735159031
 21
3.19660927724864
 31
0.0
  0
LINE
  5
AE
330
46
100
AcDbEntity
  8
0
  6
Continuous
 62
     7
100
AcDbLine
 10
-2.51444735158671
 20
3.52160927723771
 30
0.0
 11
-2.51444735159251
 21
3.37160927723833
 31
0.0
  0
LINE
  5
AF
330
46
100
AcDbEntity
  8
0
  6
Continuous
 62
     7
100
AcDbLine
 10
-2.49194735159031
 20
3.19660927724864
 30
0.0
 11
-2.51444735159251
 21
3.37160927723833
 31
0.0
  0
LINE
  5
B0
330
46
100
AcDbEntity
  8
1
  6
Continuous
 62
     7
100
AcDbLine
 10
-8.61497893611681
 20
5.1000000000058
 30
0.0
 11
-8.61497893611681
 21
0.89999999999413
 31
0.0
  0
LINE
  5
B1
330
46
100
AcDbEntity
  8
1
  6
Continuous
 62
     7
100
AcDbLine
 10
-11.81497893630301
 20
2.59999999997667
 30
0.0
 11
-11.81497893630301
 21
0.89999999999413
 31
0.0
  0
LINE
  5
B2
330
46
100
AcDbEntity
  8
1
  6
Continuous
 62
     7
100
AcDbLine
 10
-7.11497893611681
 20
5.1000000000058
 30
0.0
 11
-7.11497893611671
 21
0.99999999999998
 31
0.0
  0
LINE
  5
B3
330
46
100
AcDbEntity
  8
1
  6
Continuous
 62
     7
100
AcDbLine
 10
-9.41497893616331
 20
2.5999999999767
 30
0.0
 11
-9.41497893616331
 21
0.89999999999413
 31
0.0
  0
LINE
  5
B4
330
46
100
AcDbEntity
  8
1
  6
Continuous
 62
     7
100
AcDbLine
 10
-12.61497893611681
 20
5.1000000000058
 30
0.0
 11
-12.61497893611673
 21
0.89999999999413
 31
0.0
  0
LINE
  5
B5
330
46
100
AcDbEntity
  8
1
  6
Continuous
 62
     7
100
AcDbLine
 10
-11.81497893630301
 20
2.59999999997667
 30
0.0
 11
-9.41497893616331
 21
2.5999999999767
 31
0.0
  0
LINE
  5
B6
330
46
100
AcDbEntity
  8
1
  6
Continuous
 62
     7
100
AcDbLine
 10
-6.71497893620992
 20
0.5999999999767
 30
0.0
 11
-4.51497893625651
 21
0.59999999997667
 31
0.0
  0
LINE
  5
B7
330
46
100
AcDbEntity
  8
1
  6
Continuous
 62
     7
100
AcDbLine
 10
-11.81497893630311
 20
3.39999999999419
 30
0.0
 11
-9.41497893616331
 21
3.39999999999413
 31
0.0
  0
LINE
  5
B8
330
46
100
AcDbEntity
  8
1
  6
Continuous
 62
     7
100
AcDbLine
 10
-9.41497893616331
 20
5.10000000000577
 30
0.0
 11
-9.41497893616331
 21
3.39999999999413
 31
0.0
  0
LINE
  5
B9
330
46
100
AcDbEntity
  8
1
  6
Continuous
 62
     7
100
AcDbLine
 10
-11.81497893630301
 20
5.1000000000058
 30
0.0
 11
-11.81497893630311
 21
3.39999999999419
 31
0.0
  0
LINE
  5
BA
330
46
100
AcDbEntity
  8
1
  6
Continuous
 62
     7
100
AcDbLine
 10
-6.31497893630301
 20
1.39999999999413
 30
0.0
 11
-4.51497893625651
 21
1.39999999999413
 31
0.0
  0
LINE
  5
BB
330
46
100
AcDbEntity
  8
1
  6
Continuous
 62
     7
100
AcDbLine
 10
-6.31497893630301
 20
5.1000000000058
 30
0.0
 11
-6.31497893630301
 21
1.39999999999413
 31
0.0
  0
LINE
  5
BC
330
46
100
AcDbEntity
  8
0
  6
Continuous
 62
     7
100
AcDbLine
 10
-118.1149789361168
 20
129.0
 30
0.0
 11
-118.1149789361168
 21
-3.0
 31
0.0
  0
LINE
  5
BD
330
46
100
AcDbEntity
  8
0
  6
Continuous
 62
     7
100
AcDbLine
 10
-115.1149789361168
 20
-6.0
 30
0.0
 11
16.88502106388319
 21
-6.0
 31
0.0
  0
LINE
  5
BE
330
46
100
AcDbEntity
  8
0
  6
Continuous
 62
     7
100
AcDbLine
 10
-32.61497893611681
 20
60.0
 30
0.0
 11
-32.61497893611681
 21
52.5
 31
0.0
  0
LINE
  5
BF
330
46
100
AcDbEntity
  8
0
  6
Continuous
 62
     7
100
AcDbLine
 10
-73.11497893611681
 20
93.0
 30
0.0
 11
-65.61497893611681
 21
93.0
 31
0.0
  0
LINE
  5
C0
330
46
100
AcDbEntity
  8
0
  6
Continuous
 62
     7
100
AcDbLine
 10
-32.61497893611681
 20
87.0
 30
0.0
 11
-32.61497893611681
 21
79.5
 31
0.0
  0
LINE
  5
C1
330
46
100
AcDbEntity
  8
0
  6
Continuous
 62
     7
100
AcDbLine
 10
-32.61497893611681
 20
93.0
 30
0.0
 11
-25.11497893611681
 21
93.0
 31
0.0
  0
LINE
  5
C2
330
46
100
AcDbEntity
  8
0
  6
Continuous
 62
     7
100
AcDbLine
 10
-59.61497893611681
 20
93.0
 30
0.0
 11
-52.11497893611681
 21
93.0
 31
0.0
  0
LINE
  5
C3
330
46
100
AcDbEntity
  8
0
  6
Continuous
 62
     7
100
AcDbLine
 10
-73.11497893611681
 20
100.5
 30
0.0
 11
-73.11497893611681
 21
93.0
 31
0.0
  0
LINE
  5
C4
330
46
100
AcDbEntity
  8
0
  6
Continuous
 62
     7
100
AcDbLine
 10
-65.61497893611681
 20
93.0
 30
0.0
 11
-65.61497893611681
 21
100.5
 31
0.0
  0
LINE
  5
C5
330
46
100
AcDbEntity
  8
0
  6
Continuous
 62
     7
100
AcDbLine
 10
-46.11497893611681
 20
93.0
 30
0.0
 11
-38.61497893611681
 21
93.0
 31
0.0
  0
LINE
  5
C6
330
46
100
AcDbEntity
  8
0
  6
Continuous
 62
     7
100
AcDbLine
 10
-38.61497893611681
 20
93.0
 30
0.0
 11
-38.61497893611681
 21
100.5
 31
0.0
  0
LINE
  5
C7
330
46
100
AcDbEntity
  8
0
  6
Continuous
 62
     7
100
AcDbLine
 10
-46.11497893611681
 20
100.5
 30
0.0
 11
-46.11497893611681
 21
93.0
 31
0.0
  0
LINE
  5
C8
330
46
100
AcDbEntity
  8
0
  6
Continuous
 62
     7
100
AcDbLine
 10
-38.61497893611681
 20
100.5
 30
0.0
 11
-46.11497893611681
 21
100.5
 31
0.0
  0
LINE
  5
C9
330
46
100
AcDbEntity
  8
0
  6
Continuous
 62
     7
100
AcDbLine
 10
-65.61497893611681
 20
106.5
 30
0.0
 11
-65.61497893611681
 21
114.0
 31
0.0
  0
LINE
  5
CA
330
46
100
AcDbEntity
  8
0
  6
Continuous
 62
     7
100
AcDbLine
 10
-38.61497893611681
 20
114.0
 30
0.0
 11
-46.11497893611681
 21
114.0
 31
0.0
  0
LINE
  5
CB
330
46
100
AcDbEntity
  8
0
  6
Continuous
 62
     7
100
AcDbLine
 10
-38.61497893611681
 20
106.5
 30
0.0
 11
-38.61497893611681
 21
114.0
 31
0.0
  0
LINE
  5
CC
330
46
100
AcDbEntity
  8
0
  6
Continuous
 62
     7
100
AcDbLine
 10
-46.11497893611681
 20
106.5
 30
0.0
 11
-38.61497893611681
 21
106.5
 31
0.0
  0
LINE
  5
CD
330
46
100
AcDbEntity
  8
0
  6
Continuous
 62
     7
100
AcDbLine
 10
-46.11497893611681
 20
114.0
 30
0.0
 11
-46.11497893611681
 21
106.5
 31
0.0
  0
LINE
  5
CE
330
46
100
AcDbEntity
  8
0
  6
Continuous
 62
     7
100
AcDbLine
 10
-59.61497893611681
 20
100.5
 30
0.0
 11
-59.61497893611681
 21
93.0
 31
0.0
  0
LINE
  5
CF
330
46
100
AcDbEntity
  8
0
  6
Continuous
 62
     7
100
AcDbLine
 10
-59.61497893611681
 20
114.0
 30
0.0
 11
-59.61497893611681
 21
106.5
 31
0.0
  0
LINE
  5
D0
330
46
100
AcDbEntity
  8
0
  6
Continuous
 62
     7
100
AcDbLine
 10
-52.11497893611681
 20
100.5
 30
0.0
 11
-59.61497893611681
 21
100.5
 31
0.0
  0
LINE
  5
D1
330
46
100
AcDbEntity
  8
0
  6
Continuous
 62
     7
100
AcDbLine
 10
-59.61497893611681
 20
106.5
 30
0.0
 11
-52.11497893611681
 21
106.5
 31
0.0
  0
LINE
  5
D2
330
46
100
AcDbEntity
  8
0
  6
Continuous
 62
     7
100
AcDbLine
 10
-52.11497893611681
 20
114.0
 30
0.0
 11
-59.61497893611681
 21
114.0
 31
0.0
  0
LINE
  5
D3
330
46
100
AcDbEntity
  8
0
  6
Continuous
 62
     7
100
AcDbLine
 10
-52.11497893611681
 20
93.0
 30
0.0
 11
-52.11497893611681
 21
100.5
 31
0.0
  0
LINE
  5
D4
330
46
100
AcDbEntity
  8
0
  6
Continuous
 62
     7
100
AcDbLine
 10
-52.11497893611681
 20
106.5
 30
0.0
 11
-52.11497893611681
 21
114.0
 31
0.0
  0
LINE
  5
D5
330
46
100
AcDbEntity
  8
0
  6
Continuous
 62
     7
100
AcDbLine
 10
-73.11497893611681
 20
106.5
 30
0.0
 11
-65.61497893611681
 21
106.5
 31
0.0
  0
LINE
  5
D6
330
46
100
AcDbEntity
  8
0
  6
Continuous
 62
     7
100
AcDbLine
 10
-65.61497893611681
 20
114.0
 30
0.0
 11
-73.11497893611681
 21
114.0
 31
0.0
  0
LINE
  5
D7
330
46
100
AcDbEntity
  8
0
  6
Continuous
 62
     7
100
AcDbLine
 10
-73.11497893611681
 20
114.0
 30
0.0
 11
-73.11497893611681
 21
106.5
 31
0.0
  0
LINE
  5
D8
330
46
100
AcDbEntity
  8
0
  6
Continuous
 62
     7
100
AcDbLine
 10
-65.61497893611681
 20
100.5
 30
0.0
 11
-73.11497893611681
 21
100.5
 31
0.0
  0
LINE
  5
D9
330
46
100
AcDbEntity
  8
0
  6
Continuous
 62
     7
100
AcDbLine
 10
-32.61497893611681
 20
114.0
 30
0.0
 11
-32.61497893611681
 21
106.5
 31
0.0
  0
LINE
  5
DA
330
46
100
AcDbEntity
  8
0
  6
Continuous
 62
     7
100
AcDbLine
 10
-32.61497893611681
 20
100.5
 30
0.0
 11
-32.61497893611681
 21
93.0
 31
0.0
  0
LINE
  5
DB
330
46
100
AcDbEntity
  8
0
  6
Continuous
 62
     7
100
AcDbLine
 10
-25.11497893611681
 20
100.5
 30
0.0
 11
-32.61497893611681
 21
100.5
 31
0.0
  0
LINE
  5
DC
330
46
100
AcDbEntity
  8
0
  6
Continuous
 62
     7
100
AcDbLine
 10
-25.11497893611681
 20
93.0
 30
0.0
 11
-25.11497893611681
 21
100.5
 31
0.0
  0
LINE
  5
DD
330
46
100
AcDbEntity
  8
0
  6
Continuous
 62
     7
100
AcDbLine
 10
-25.11497893611681
 20
114.0
 30
0.0
 11
-32.61497893611681
 21
114.0
 31
0.0
  0
LINE
  5
DE
330
46
100
AcDbEntity
  8
0
  6
Continuous
 62
     7
100
AcDbLine
 10
-25.11497893611681
 20
106.5
 30
0.0
 11
-25.11497893611681
 21
114.0
 31
0.0
  0
LINE
  5
DF
330
46
100
AcDbEntity
  8
0
  6
Continuous
 62
     7
100
AcDbLine
 10
-32.61497893611681
 20
106.5
 30
0.0
 11
-25.11497893611681
 21
106.5
 31
0.0
  0
LINE
  5
E0
330
46
100
AcDbEntity
  8
0
  6
Continuous
 62
     7
100
AcDbLine
 10
-25.11497893611681
 20
87.0
 30
0.0
 11
-32.61497893611681
 21
87.0
 31
0.0
  0
LINE
  5
E1
330
46
100
AcDbEntity
  8
0
  6
Continuous
 62
     7
100
AcDbLine
 10
-25.11497893611681
 20
79.5
 30
0.0
 11
-25.11497893611681
 21
87.0
 31
0.0
  0
LINE
  5
E2
330
46
100
AcDbEntity
  8
0
  6
Continuous
 62
     7
100
AcDbLine
 10
-32.61497893611681
 20
79.5
 30
0.0
 11
-25.11497893611681
 21
79.5
 31
0.0
  0
LINE
  5
E3
330
46
100
AcDbEntity
  8
0
  6
Continuous
 62
     7
100
AcDbLine
 10
-25.11497893611681
 20
73.5
 30
0.0
 11
-32.61497893611681
 21
73.5
 31
0.0
  0
LINE
  5
E4
330
46
100
AcDbEntity
  8
0
  6
Continuous
 62
     7
100
AcDbLine
 10
-25.11497893611681
 20
66.0
 30
0.0
 11
-25.11497893611681
 21
73.5
 31
0.0
  0
LINE
  5
E5
330
46
100
AcDbEntity
  8
0
  6
Continuous
 62
     7
100
AcDbLine
 10
-32.61497893611681
 20
66.0
 30
0.0
 11
-25.11497893611681
 21
66.0
 31
0.0
  0
LINE
  5
E6
330
46
100
AcDbEntity
  8
0
  6
Continuous
 62
     7
100
AcDbLine
 10
-32.61497893611681
 20
73.5
 30
0.0
 11
-32.61497893611681
 21
66.0
 31
0.0
  0
LINE
  5
E7
330
46
100
AcDbEntity
  8
0
  6
Continuous
 62
     7
100
AcDbLine
 10
-25.11497893611681
 20
60.0
 30
0.0
 11
-32.61497893611681
 21
60.0
 31
0.0
  0
LINE
  5
E8
330
46
100
AcDbEntity
  8
0
  6
Continuous
 62
     7
100
AcDbLine
 10
-25.11497893611681
 20
52.5
 30
0.0
 11
-25.11497893611681
 21
60.0
 31
0.0
  0
LINE
  5
E9
330
46
100
AcDbEntity
  8
0
  6
Continuous
 62
     7
100
AcDbLine
 10
-32.61497893611681
 20
52.5
 30
0.0
 11
-25.11497893611681
 21
52.5
 31
0.0
  0
LINE
  5
EA
330
46
100
AcDbEntity
  8
0
  6
Continuous
 62
     7
100
AcDbLine
 10
19.88502106388319
 20
-3.0
 30
0.0
 11
19.88502106388319
 21
129.0
 31
0.0
  0
LINE
  5
EB
330
46
100
AcDbEntity
  8
0
  6
Continuous
 62
     7
100
AcDbLine
 10
-79.11497893611681
 20
39.0
 30
0.0
 11
-79.11497893611681
 21
46.5
 31
0.0
  0
LINE
  5
EC
330
46
100
AcDbEntity
  8
0
  6
Continuous
 62
     7
100
AcDbLine
 10
-79.11497893611681
 20
79.5
 30
0.0
 11
-79.11497893611681
 21
87.0
 31
0.0
  0
LINE
  5
ED
330
46
100
AcDbEntity
  8
0
  6
Continuous
 62
     7
100
AcDbLine
 10
-79.11497893611681
 20
66.0
 30
0.0
 11
-79.11497893611681
 21
73.5
 31
0.0
  0
LINE
  5
EE
330
46
100
AcDbEntity
  8
0
  6
Continuous
 62
     7
100
AcDbLine
 10
-100.1149789361168
 20
93.0
 30
0.0
 11
-92.61497893611681
 21
93.0
 31
0.0
  0
LINE
  5
EF
330
46
100
AcDbEntity
  8
0
  6
Continuous
 62
     7
100
AcDbLine
 10
-100.1149789361168
 20
106.5
 30
0.0
 11
-92.61497893611681
 21
106.5
 31
0.0
  0
LINE
  5
F0
330
46
100
AcDbEntity
  8
0
  6
Continuous
 62
     7
100
AcDbLine
 10
-100.1149789361168
 20
114.0
 30
0.0
 11
-100.1149789361168
 21
106.5
 31
0.0
  0
LINE
  5
F1
330
46
100
AcDbEntity
  8
0
  6
Continuous
 62
     7
100
AcDbLine
 10
-92.61497893611681
 20
106.5
 30
0.0
 11
-92.61497893611681
 21
114.0
 31
0.0
  0
LINE
  5
F2
330
46
100
AcDbEntity
  8
0
  6
Continuous
 62
     7
100
AcDbLine
 10
-92.61497893611681
 20
114.0
 30
0.0
 11
-100.1149789361168
 21
114.0
 31
0.0
  0
LINE
  5
F3
330
46
100
AcDbEntity
  8
0
  6
Continuous
 62
     7
100
AcDbLine
 10
-100.1149789361168
 20
73.5
 30
0.0
 11
-100.1149789361168
 21
66.0
 31
0.0
  0
LINE
  5
F4
330
46
100
AcDbEntity
  8
0
  6
Continuous
 62
     7
100
AcDbLine
 10
-92.61497893611681
 20
79.5
 30
0.0
 11
-92.61497893611681
 21
87.0
 31
0.0
  0
LINE
  5
F5
330
46
100
AcDbEntity
  8
0
  6
Continuous
 62
     7
100
AcDbLine
 10
-92.61497893611681
 20
66.0
 30
0.0
 11
-92.61497893611681
 21
73.5
 31
0.0
  0
LINE
  5
F6
330
46
100
AcDbEntity
  8
0
  6
Continuous
 62
     7
100
AcDbLine
 10
-100.1149789361168
 20
79.5
 30
0.0
 11
-92.61497893611681
 21
79.5
 31
0.0
  0
LINE
  5
F7
330
46
100
AcDbEntity
  8
0
  6
Continuous
 62
     7
100
AcDbLine
 10
-92.61497893611681
 20
73.5
 30
0.0
 11
-100.1149789361168
 21
73.5
 31
0.0
  0
LINE
  5
F8
330
46
100
AcDbEntity
  8
0
  6
Continuous
 62
     7
100
AcDbLine
 10
-92.61497893611681
 20
100.5
 30
0.0
 11
-100.1149789361168
 21
100.5
 31
0.0
  0
LINE
  5
F9
330
46
100
AcDbEntity
  8
0
  6
Continuous
 62
     7
100
AcDbLine
 10
-92.61497893611681
 20
93.0
 30
0.0
 11
-92.61497893611681
 21
100.5
 31
0.0
  0
LINE
  5
FA
330
46
100
AcDbEntity
  8
0
  6
Continuous
 62
     7
100
AcDbLine
 10
-100.1149789361168
 20
66.0
 30
0.0
 11
-92.61497893611681
 21
66.0
 31
0.0
  0
LINE
  5
FB
330
46
100
AcDbEntity
  8
0
  6
Continuous
 62
     7
100
AcDbLine
 10
-92.61497893611681
 20
87.0
 30
0.0
 11
-100.1149789361168
 21
87.0
 31
0.0
  0
LINE
  5
FC
330
46
100
AcDbEntity
  8
0
  6
Continuous
 62
     7
100
AcDbLine
 10
-100.1149789361168
 20
87.0
 30
0.0
 11
-100.1149789361168
 21
79.5
 31
0.0
  0
LINE
  5
FD
330
46
100
AcDbEntity
  8
0
  6
Continuous
 62
     7
100
AcDbLine
 10
-100.1149789361168
 20
100.5
 30
0.0
 11
-100.1149789361168
 21
93.0
 31
0.0
  0
LINE
  5
FE
330
46
100
AcDbEntity
  8
0
  6
Continuous
 62
     7
100
AcDbLine
 10
-79.11497893611681
 20
106.5
 30
0.0
 11
-79.11497893611681
 21
114.0
 31
0.0
  0
LINE
  5
FF
330
46
100
AcDbEntity
  8
0
  6
Continuous
 62
     7
100
AcDbLine
 10
-86.61497893611681
 20
106.5
 30
0.0
 11
-79.11497893611681
 21
106.5
 31
0.0
  0
LINE
  5
100
330
46
100
AcDbEntity
  8
0
  6
Continuous
 62
     7
100
AcDbLine
 10
-86.61497893611681
 20
93.0
 30
0.0
 11
-79.11497893611681
 21
93.0
 31
0.0
  0
LINE
  5
101
330
46
100
AcDbEntity
  8
0
  6
Continuous
 62
     7
100
AcDbLine
 10
-79.11497893611681
 20
100.5
 30
0.0
 11
-86.61497893611681
 21
100.5
 31
0.0
  0
LINE
  5
102
330
46
100
AcDbEntity
  8
0
  6
Continuous
 62
     7
100
AcDbLine
 10
-79.11497893611681
 20
93.0
 30
0.0
 11
-79.11497893611681
 21
100.5
 31
0.0
  0
LINE
  5
103
330
46
100
AcDbEntity
  8
0
  6
Continuous
 62
     7
100
AcDbLine
 10
-86.61497893611681
 20
100.5
 30
0.0
 11
-86.61497893611681
 21
93.0
 31
0.0
  0
LINE
  5
104
330
46
100
AcDbEntity
  8
0
  6
Continuous
 62
     7
100
AcDbLine
 10
-79.11497893611681
 20
114.0
 30
0.0
 11
-86.61497893611681
 21
114.0
 31
0.0
  0
LINE
  5
105
330
46
100
AcDbEntity
  8
0
  6
Continuous
 62
     7
100
AcDbLine
 10
-79.11497893611681
 20
87.0
 30
0.0
 11
-86.61497893611681
 21
87.0
 31
0.0
  0
LINE
  5
106
330
46
100
AcDbEntity
  8
0
  6
Continuous
 62
     7
100
AcDbLine
 10
-86.61497893611681
 20
79.5
 30
0.0
 11
-79.11497893611681
 21
79.5
 31
0.0
  0
LINE
  5
107
330
46
100
AcDbEntity
  8
0
  6
Continuous
 62
     7
100
AcDbLine
 10
-86.61497893611681
 20
87.0
 30
0.0
 11
-86.61497893611681
 21
79.5
 31
0.0
  0
LINE
  5
108
330
46
100
AcDbEntity
  8
0
  6
Continuous
 62
     7
100
AcDbLine
 10
-92.61497893611681
 20
60.0
 30
0.0
 11
-100.1149789361168
 21
60.0
 31
0.0
  0
LINE
  5
109
330
46
100
AcDbEntity
  8
0
  6
Continuous
 62
     7
100
AcDbLine
 10
-100.1149789361168
 20
60.0
 30
0.0
 11
-100.1149789361168
 21
52.5
 31
0.0
  0
LINE
  5
10A
330
46
100
AcDbEntity
  8
0
  6
Continuous
 62
     7
100
AcDbLine
 10
-92.61497893611681
 20
52.5
 30
0.0
 11
-92.61497893611681
 21
60.0
 31
0.0
  0
LINE
  5
10B
330
46
100
AcDbEntity
  8
0
  6
Continuous
 62
     7
100
AcDbLine
 10
-100.1149789361168
 20
52.5
 30
0.0
 11
-92.61497893611681
 21
52.5
 31
0.0
  0
LINE
  5
10C
330
46
100
AcDbEntity
  8
0
  6
Continuous
 62
     7
100
AcDbLine
 10
-86.61497893611681
 20
39.0
 30
0.0
 11
-79.11497893611681
 21
39.0
 31
0.0
  0
LINE
  5
10D
330
46
100
AcDbEntity
  8
0
  6
Continuous
 62
     7
100
AcDbLine
 10
-100.1149789361168
 20
39.0
 30
0.0
 11
-92.61497893611681
 21
39.0
 31
0.0
  0
LINE
  5
10E
330
46
100
AcDbEntity
  8
0
  6
Continuous
 62
     7
100
AcDbLine
 10
-79.11497893611681
 20
73.5
 30
0.0
 11
-86.61497893611681
 21
73.5
 31
0.0
  0
LINE
  5
10F
330
46
100
AcDbEntity
  8
0
  6
Continuous
 62
     7
100
AcDbLine
 10
-86.61497893611681
 20
73.5
 30
0.0
 11
-86.61497893611681
 21
66.0
 31
0.0
  0
LINE
  5
110
330
46
100
AcDbEntity
  8
0
  6
Continuous
 62
     7
100
AcDbLine
 10
-86.61497893611681
 20
46.5
 30
0.0
 11
-86.61497893611681
 21
39.0
 31
0.0
  0
LINE
  5
111
330
46
100
AcDbEntity
  8
0
  6
Continuous
 62
     7
100
AcDbLine
 10
-86.61497893611681
 20
114.0
 30
0.0
 11
-86.61497893611681
 21
106.5
 31
0.0
  0
LINE
  5
112
330
46
100
AcDbEntity
  8
0
  6
Continuous
 62
     7
100
AcDbLine
 10
-86.61497893611681
 20
60.0
 30
0.0
 11
-86.61497893611681
 21
52.5
 31
0.0
  0
LINE
  5
113
330
46
100
AcDbEntity
  8
0
  6
Continuous
 62
     7
100
AcDbLine
 10
-92.61497893611681
 20
33.0
 30
0.0
 11
-100.1149789361168
 21
33.0
 31
0.0
  0
LINE
  5
114
330
46
100
AcDbEntity
  8
0
  6
Continuous
 62
     7
100
AcDbLine
 10
-100.1149789361168
 20
46.5
 30
0.0
 11
-100.1149789361168
 21
39.0
 31
0.0
  0
LINE
  5
115
330
46
100
AcDbEntity
  8
0
  6
Continuous
 62
     7
100
AcDbLine
 10
-92.61497893611681
 20
46.5
 30
0.0
 11
-100.1149789361168
 21
46.5
 31
0.0
  0
LINE
  5
116
330
46
100
AcDbEntity
  8
0
  6
Continuous
 62
     7
100
AcDbLine
 10
-92.61497893611681
 20
39.0
 30
0.0
 11
-92.61497893611681
 21
46.5
 31
0.0
  0
LINE
  5
117
330
46
100
AcDbEntity
  8
0
  6
Continuous
 62
     7
100
AcDbLine
 10
-79.11497893611681
 20
33.0
 30
0.0
 11
-86.61497893611681
 21
33.0
 31
0.0
  0
LINE
  5
118
330
46
100
AcDbEntity
  8
0
  6
Continuous
 62
     7
100
AcDbLine
 10
-79.11497893611681
 20
46.5
 30
0.0
 11
-86.61497893611681
 21
46.5
 31
0.0
  0
LINE
  5
119
330
46
100
AcDbEntity
  8
0
  6
Continuous
 62
     7
100
AcDbLine
 10
-79.11497893611681
 20
52.5
 30
0.0
 11
-79.11497893611681
 21
60.0
 31
0.0
  0
LINE
  5
11A
330
46
100
AcDbEntity
  8
0
  6
Continuous
 62
     7
100
AcDbLine
 10
-86.61497893611681
 20
66.0
 30
0.0
 11
-79.11497893611681
 21
66.0
 31
0.0
  0
LINE
  5
11B
330
46
100
AcDbEntity
  8
0
  6
Continuous
 62
     7
100
AcDbLine
 10
-86.61497893611681
 20
52.5
 30
0.0
 11
-79.11497893611681
 21
52.5
 31
0.0
  0
LINE
  5
11C
330
46
100
AcDbEntity
  8
0
  6
Continuous
 62
     7
100
AcDbLine
 10
-79.11497893611681
 20
60.0
 30
0.0
 11
-86.61497893611681
 21
60.0
 31
0.0
  0
LINE
  5
11D
330
46
100
AcDbEntity
  8
0
  6
Continuous
 62
     7
100
AcDbLine
 10
-86.61497893611681
 20
33.0
 30
0.0
 11
-86.61497893611681
 21
25.5
 31
0.0
  0
LINE
  5
11E
330
46
100
AcDbEntity
  8
0
  6
Continuous
 62
     7
100
AcDbLine
 10
-86.61497893611681
 20
25.5
 30
0.0
 11
-79.11497893611681
 21
25.5
 31
0.0
  0
LINE
  5
11F
330
46
100
AcDbEntity
  8
0
  6
Continuous
 62
     7
100
AcDbLine
 10
-92.61497893611681
 20
25.5
 30
0.0
 11
-92.61497893611681
 21
33.0
 31
0.0
  0
LINE
  5
120
330
46
100
AcDbEntity
  8
0
  6
Continuous
 62
     7
100
AcDbLine
 10
-100.1149789361168
 20
25.5
 30
0.0
 11
-92.61497893611681
 21
25.5
 31
0.0
  0
LINE
  5
121
330
46
100
AcDbEntity
  8
0
  6
Continuous
 62
     7
100
AcDbLine
 10
-100.1149789361168
 20
33.0
 30
0.0
 11
-100.1149789361168
 21
25.5
 31
0.0
  0
LINE
  5
122
330
46
100
AcDbEntity
  8
0
  6
Continuous
 62
     7
100
AcDbLine
 10
-86.61497893611681
 20
19.5
 30
0.0
 11
-86.61497893611681
 21
12.0
 31
0.0
  0
LINE
  5
123
330
46
100
AcDbEntity
  8
0
  6
Continuous
 62
     7
100
AcDbLine
 10
-86.61497893611681
 20
12.0
 30
0.0
 11
-79.11497893611681
 21
12.0
 31
0.0
  0
LINE
  5
124
330
46
100
AcDbEntity
  8
0
  6
Continuous
 62
     7
100
AcDbLine
 10
-92.61497893611681
 20
12.0
 30
0.0
 11
-92.61497893611681
 21
19.5
 31
0.0
  0
LINE
  5
125
330
46
100
AcDbEntity
  8
0
  6
Continuous
 62
     7
100
AcDbLine
 10
-100.1149789361168
 20
12.0
 30
0.0
 11
-92.61497893611681
 21
12.0
 31
0.0
  0
LINE
  5
126
330
46
100
AcDbEntity
  8
0
  6
Continuous
 62
     7
100
AcDbLine
 10
-100.1149789361168
 20
19.5
 30
0.0
 11
-100.1149789361168
 21
12.0
 31
0.0
  0
LINE
  5
127
330
46
100
AcDbEntity
  8
0
  6
Continuous
 62
     7
100
AcDbLine
 10
-92.61497893611681
 20
19.5
 30
0.0
 11
-100.1149789361168
 21
19.5
 31
0.0
  0
LINE
  5
128
330
46
100
AcDbEntity
  8
0
  6
Continuous
 62
     7
100
AcDbLine
 10
-79.11497893611681
 20
19.5
 30
0.0
 11
-86.61497893611681
 21
19.5
 31
0.0
  0
LINE
  5
129
330
46
100
AcDbEntity
  8
0
  6
Continuous
 62
     7
100
AcDbLine
 10
16.88502106388319
 20
132.0
 30
0.0
 11
-115.1149789361168
 21
132.0
 31
0.0
  0
LINE
  5
12A
330
46
100
AcDbEntity
  8
0
  6
Continuous
 62
     7
100
AcDbLine
 10
-65.61497893611681
 20
33.0
 30
0.0
 11
-73.11497893611681
 21
33.0
 31
0.0
  0
LINE
  5
12B
330
46
100
AcDbEntity
  8
0
  6
Continuous
 62
     7
100
AcDbLine
 10
-73.11497893611681
 20
79.5
 30
0.0
 11
-65.61497893611681
 21
79.5
 31
0.0
  0
LINE
  5
12C
330
46
100
AcDbEntity
  8
0
  6
Continuous
 62
     7
100
AcDbLine
 10
-73.11497893611681
 20
87.0
 30
0.0
 11
-73.11497893611681
 21
79.5
 31
0.0
  0
LINE
  5
12D
330
46
100
AcDbEntity
  8
0
  6
Continuous
 62
     7
100
AcDbLine
 10
-59.61497893611681
 20
39.0
 30
0.0
 11
-52.11497893611681
 21
39.0
 31
0.0
  0
LINE
  5
12E
330
46
100
AcDbEntity
  8
0
  6
Continuous
 62
     7
100
AcDbLine
 10
-52.11497893611681
 20
87.0
 30
0.0
 11
-59.61497893611681
 21
87.0
 31
0.0
  0
LINE
  5
12F
330
46
100
AcDbEntity
  8
0
  6
Continuous
 62
     7
100
AcDbLine
 10
-59.61497893611681
 20
79.5
 30
0.0
 11
-52.11497893611681
 21
79.5
 31
0.0
  0
LINE
  5
130
330
46
100
AcDbEntity
  8
0
  6
Continuous
 62
     7
100
AcDbLine
 10
-59.61497893611681
 20
52.5
 30
0.0
 11
-52.11497893611681
 21
52.5
 31
0.0
  0
LINE
  5
131
330
46
100
AcDbEntity
  8
0
  6
Continuous
 62
     7
100
AcDbLine
 10
-52.11497893611681
 20
60.0
 30
0.0
 11
-59.61497893611681
 21
60.0
 31
0.0
  0
LINE
  5
132
330
46
100
AcDbEntity
  8
0
  6
Continuous
 62
     7
100
AcDbLine
 10
-52.11497893611681
 20
52.5
 30
0.0
 11
-52.11497893611681
 21
60.0
 31
0.0
  0
LINE
  5
133
330
46
100
AcDbEntity
  8
0
  6
Continuous
 62
     7
100
AcDbLine
 10
-59.61497893611681
 20
60.0
 30
0.0
 11
-59.61497893611681
 21
52.5
 31
0.0
  0
LINE
  5
134
330
46
100
AcDbEntity
  8
0
  6
Continuous
 62
     7
100
AcDbLine
 10
-52.11497893611681
 20
66.0
 30
0.0
 11
-52.11497893611681
 21
73.5
 31
0.0
  0
LINE
  5
135
330
46
100
AcDbEntity
  8
0
  6
Continuous
 62
     7
100
AcDbLine
 10
-59.61497893611681
 20
66.0
 30
0.0
 11
-52.11497893611681
 21
66.0
 31
0.0
  0
LINE
  5
136
330
46
100
AcDbEntity
  8
0
  6
Continuous
 62
     7
100
AcDbLine
 10
-59.61497893611681
 20
73.5
 30
0.0
 11
-59.61497893611681
 21
66.0
 31
0.0
  0
LINE
  5
137
330
46
100
AcDbEntity
  8
0
  6
Continuous
 62
     7
100
AcDbLine
 10
-52.11497893611681
 20
73.5
 30
0.0
 11
-59.61497893611681
 21
73.5
 31
0.0
  0
LINE
  5
138
330
46
100
AcDbEntity
  8
0
  6
Continuous
 62
     7
100
AcDbLine
 10
-59.61497893611681
 20
87.0
 30
0.0
 11
-59.61497893611681
 21
79.5
 31
0.0
  0
LINE
  5
139
330
46
100
AcDbEntity
  8
0
  6
Continuous
 62
     7
100
AcDbLine
 10
-52.11497893611681
 20
79.5
 30
0.0
 11
-52.11497893611681
 21
87.0
 31
0.0
  0
LINE
  5
13A
330
46
100
AcDbEntity
  8
0
  6
Continuous
 62
     7
100
AcDbLine
 10
-52.11497893611681
 20
39.0
 30
0.0
 11
-52.11497893611681
 21
46.5
 31
0.0
  0
LINE
  5
13B
330
46
100
AcDbEntity
  8
0
  6
Continuous
 62
     7
100
AcDbLine
 10
-59.61497893611681
 20
46.5
 30
0.0
 11
-59.61497893611681
 21
39.0
 31
0.0
  0
LINE
  5
13C
330
46
100
AcDbEntity
  8
0
  6
Continuous
 62
     7
100
AcDbLine
 10
-52.11497893611681
 20
46.5
 30
0.0
 11
-59.61497893611681
 21
46.5
 31
0.0
  0
LINE
  5
13D
330
46
100
AcDbEntity
  8
0
  6
Continuous
 62
     7
100
AcDbLine
 10
-73.11497893611681
 20
66.0
 30
0.0
 11
-65.61497893611681
 21
66.0
 31
0.0
  0
LINE
  5
13E
330
46
100
AcDbEntity
  8
0
  6
Continuous
 62
     7
100
AcDbLine
 10
-73.11497893611681
 20
46.5
 30
0.0
 11
-73.11497893611681
 21
39.0
 31
0.0
  0
LINE
  5
13F
330
46
100
AcDbEntity
  8
0
  6
Continuous
 62
     7
100
AcDbLine
 10
-73.11497893611681
 20
73.5
 30
0.0
 11
-73.11497893611681
 21
66.0
 31
0.0
  0
LINE
  5
140
330
46
100
AcDbEntity
  8
0
  6
Continuous
 62
     7
100
AcDbLine
 10
-73.11497893611681
 20
60.0
 30
0.0
 11
-73.11497893611681
 21
52.5
 31
0.0
  0
LINE
  5
141
330
46
100
AcDbEntity
  8
0
  6
Continuous
 62
     7
100
AcDbLine
 10
-73.11497893611681
 20
39.0
 30
0.0
 11
-65.61497893611681
 21
39.0
 31
0.0
  0
LINE
  5
142
330
46
100
AcDbEntity
  8
0
  6
Continuous
 62
     7
100
AcDbLine
 10
-73.11497893611681
 20
25.5
 30
0.0
 11
-65.61497893611681
 21
25.5
 31
0.0
  0
LINE
  5
143
330
46
100
AcDbEntity
  8
0
  6
Continuous
 62
     7
100
AcDbLine
 10
-73.11497893611681
 20
33.0
 30
0.0
 11
-73.11497893611681
 21
25.5
 31
0.0
  0
LINE
  5
144
330
46
100
AcDbEntity
  8
0
  6
Continuous
 62
     7
100
AcDbLine
 10
-65.61497893611681
 20
25.5
 30
0.0
 11
-65.61497893611681
 21
33.0
 31
0.0
  0
LINE
  5
145
330
46
100
AcDbEntity
  8
0
  6
Continuous
 62
     7
100
AcDbLine
 10
-65.61497893611681
 20
60.0
 30
0.0
 11
-73.11497893611681
 21
60.0
 31
0.0
  0
LINE
  5
146
330
46
100
AcDbEntity
  8
0
  6
Continuous
 62
     7
100
AcDbLine
 10
-65.61497893611681
 20
46.5
 30
0.0
 11
-73.11497893611681
 21
46.5
 31
0.0
  0
LINE
  5
147
330
46
100
AcDbEntity
  8
0
  6
Continuous
 62
     7
100
AcDbLine
 10
-73.11497893611681
 20
52.5
 30
0.0
 11
-65.61497893611681
 21
52.5
 31
0.0
  0
LINE
  5
148
330
46
100
AcDbEntity
  8
0
  6
Continuous
 62
     7
100
AcDbLine
 10
-65.61497893611681
 20
87.0
 30
0.0
 11
-73.11497893611681
 21
87.0
 31
0.0
  0
LINE
  5
149
330
46
100
AcDbEntity
  8
0
  6
Continuous
 62
     7
100
AcDbLine
 10
-65.61497893611681
 20
73.5
 30
0.0
 11
-73.11497893611681
 21
73.5
 31
0.0
  0
LINE
  5
14A
330
46
100
AcDbEntity
  8
0
  6
Continuous
 62
     7
100
AcDbLine
 10
-65.61497893611681
 20
79.5
 30
0.0
 11
-65.61497893611681
 21
87.0
 31
0.0
  0
LINE
  5
14B
330
46
100
AcDbEntity
  8
0
  6
Continuous
 62
     7
100
AcDbLine
 10
-65.61497893611681
 20
66.0
 30
0.0
 11
-65.61497893611681
 21
73.5
 31
0.0
  0
LINE
  5
14C
330
46
100
AcDbEntity
  8
0
  6
Continuous
 62
     7
100
AcDbLine
 10
-65.61497893611681
 20
39.0
 30
0.0
 11
-65.61497893611681
 21
46.5
 31
0.0
  0
LINE
  5
14D
330
46
100
AcDbEntity
  8
0
  6
Continuous
 62
     7
100
AcDbLine
 10
-65.61497893611681
 20
52.5
 30
0.0
 11
-65.61497893611681
 21
60.0
 31
0.0
  0
LINE
  5
14E
330
46
100
AcDbEntity
  8
0
  6
Continuous
 62
     7
100
AcDbLine
 10
-52.11497893611681
 20
33.0
 30
0.0
 11
-59.61497893611681
 21
33.0
 31
0.0
  0
LINE
  5
14F
330
46
100
AcDbEntity
  8
0
  6
Continuous
 62
     7
100
AcDbLine
 10
-59.61497893611681
 20
33.0
 30
0.0
 11
-59.61497893611681
 21
25.5
 31
0.0
  0
LINE
  5
150
330
46
100
AcDbEntity
  8
0
  6
Continuous
 62
     7
100
AcDbLine
 10
-79.11497893611681
 20
25.5
 30
0.0
 11
-79.11497893611681
 21
33.0
 31
0.0
  0
LINE
  5
151
330
46
100
AcDbEntity
  8
0
  6
Continuous
 62
     7
100
AcDbLine
 10
-52.11497893611681
 20
25.5
 30
0.0
 11
-52.11497893611681
 21
33.0
 31
0.0
  0
LINE
  5
152
330
46
100
AcDbEntity
  8
0
  6
Continuous
 62
     7
100
AcDbLine
 10
-59.61497893611681
 20
25.5
 30
0.0
 11
-52.11497893611681
 21
25.5
 31
0.0
  0
LINE
  5
153
330
46
100
AcDbEntity
  8
0
  6
Continuous
 62
     7
100
AcDbLine
 10
-73.11497893611681
 20
12.0
 30
0.0
 11
-65.61497893611681
 21
12.0
 31
0.0
  0
LINE
  5
154
330
46
100
AcDbEntity
  8
0
  6
Continuous
 62
     7
100
AcDbLine
 10
-73.11497893611681
 20
19.5
 30
0.0
 11
-73.11497893611681
 21
12.0
 31
0.0
  0
LINE
  5
155
330
46
100
AcDbEntity
  8
0
  6
Continuous
 62
     7
100
AcDbLine
 10
-65.61497893611681
 20
19.5
 30
0.0
 11
-73.11497893611681
 21
19.5
 31
0.0
  0
LINE
  5
156
330
46
100
AcDbEntity
  8
0
  6
Continuous
 62
     7
100
AcDbLine
 10
-79.11497893611681
 20
12.0
 30
0.0
 11
-79.11497893611681
 21
19.5
 31
0.0
  0
LINE
  5
157
330
46
100
AcDbEntity
  8
0
  6
Continuous
 62
     7
100
AcDbLine
 10
-65.61497893611681
 20
12.0
 30
0.0
 11
-65.61497893611681
 21
19.5
 31
0.0
  0
LINE
  5
158
330
46
100
AcDbEntity
  8
0
  6
Continuous
 62
     7
100
AcDbLine
 10
-59.61497893611681
 20
19.5
 30
0.0
 11
-59.61497893611681
 21
12.0
 31
0.0
  0
LINE
  5
159
330
46
100
AcDbEntity
  8
0
  6
Continuous
 62
     7
100
AcDbLine
 10
-52.11497893611681
 20
19.5
 30
0.0
 11
-59.61497893611681
 21
19.5
 31
0.0
  0
LINE
  5
15A
330
46
100
AcDbEntity
  8
0
  6
Continuous
 62
     7
100
AcDbLine
 10
-52.11497893611681
 20
12.0
 30
0.0
 11
-52.11497893611681
 21
19.5
 31
0.0
  0
LINE
  5
15B
330
46
100
AcDbEntity
  8
0
  6
Continuous
 62
     7
100
AcDbLine
 10
-59.61497893611681
 20
12.0
 30
0.0
 11
-52.11497893611681
 21
12.0
 31
0.0
  0
LINE
  5
15C
330
46
100
AcDbEntity
  8
0
  6
Continuous
 62
     7
100
AcDbLine
 10
-46.11497893611681
 20
52.5
 30
0.0
 11
-38.61497893611681
 21
52.5
 31
0.0
  0
LINE
  5
15D
330
46
100
AcDbEntity
  8
0
  6
Continuous
 62
     7
100
AcDbLine
 10
-38.61497893611681
 20
46.5
 30
0.0
 11
-46.11497893611681
 21
46.5
 31
0.0
  0
LINE
  5
15E
330
46
100
AcDbEntity
  8
0
  6
Continuous
 62
     7
100
AcDbLine
 10
-46.11497893611681
 20
60.0
 30
0.0
 11
-46.11497893611681
 21
52.5
 31
0.0
  0
LINE
  5
15F
330
46
100
AcDbEntity
  8
0
  6
Continuous
 62
     7
100
AcDbLine
 10
-46.11497893611681
 20
46.5
 30
0.0
 11
-46.11497893611681
 21
39.0
 31
0.0
  0
LINE
  5
160
330
46
100
AcDbEntity
  8
0
  6
Continuous
 62
     7
100
AcDbLine
 10
-38.61497893611681
 20
60.0
 30
0.0
 11
-46.11497893611681
 21
60.0
 31
0.0
  0
LINE
  5
161
330
46
100
AcDbEntity
  8
0
  6
Continuous
 62
     7
100
AcDbLine
 10
-46.11497893611681
 20
66.0
 30
0.0
 11
-38.61497893611681
 21
66.0
 31
0.0
  0
LINE
  5
162
330
46
100
AcDbEntity
  8
0
  6
Continuous
 62
     7
100
AcDbLine
 10
-46.11497893611681
 20
73.5
 30
0.0
 11
-46.11497893611681
 21
66.0
 31
0.0
  0
LINE
  5
163
330
46
100
AcDbEntity
  8
0
  6
Continuous
 62
     7
100
AcDbLine
 10
-38.61497893611681
 20
73.5
 30
0.0
 11
-46.11497893611681
 21
73.5
 31
0.0
  0
LINE
  5
164
330
46
100
AcDbEntity
  8
0
  6
Continuous
 62
     7
100
AcDbLine
 10
-46.11497893611681
 20
79.5
 30
0.0
 11
-38.61497893611681
 21
79.5
 31
0.0
  0
LINE
  5
165
330
46
100
AcDbEntity
  8
0
  6
Continuous
 62
     7
100
AcDbLine
 10
-38.61497893611681
 20
66.0
 30
0.0
 11
-38.61497893611681
 21
73.5
 31
0.0
  0
LINE
  5
166
330
46
100
AcDbEntity
  8
0
  6
Continuous
 62
     7
100
AcDbLine
 10
-38.61497893611681
 20
79.5
 30
0.0
 11
-38.61497893611681
 21
87.0
 31
0.0
  0
LINE
  5
167
330
46
100
AcDbEntity
  8
0
  6
Continuous
 62
     7
100
AcDbLine
 10
-46.11497893611681
 20
87.0
 30
0.0
 11
-46.11497893611681
 21
79.5
 31
0.0
  0
LINE
  5
168
330
46
100
AcDbEntity
  8
0
  6
Continuous
 62
     7
100
AcDbLine
 10
-38.61497893611681
 20
87.0
 30
0.0
 11
-46.11497893611681
 21
87.0
 31
0.0
  0
LINE
  5
169
330
46
100
AcDbEntity
  8
0
  6
Continuous
 62
     7
100
AcDbLine
 10
-38.61497893611681
 20
12.0
 30
0.0
 11
-38.61497893611681
 21
19.5
 31
0.0
  0
LINE
  5
16A
330
46
100
AcDbEntity
  8
0
  6
Continuous
 62
     7
100
AcDbLine
 10
-38.61497893611681
 20
25.5
 30
0.0
 11
-38.61497893611681
 21
33.0
 31
0.0
  0
LINE
  5
16B
330
46
100
AcDbEntity
  8
0
  6
Continuous
 62
     7
100
AcDbLine
 10
-38.61497893611681
 20
52.5
 30
0.0
 11
-38.61497893611681
 21
60.0
 31
0.0
  0
LINE
  5
16C
330
46
100
AcDbEntity
  8
0
  6
Continuous
 62
     7
100
AcDbLine
 10
-38.61497893611681
 20
39.0
 30
0.0
 11
-38.61497893611681
 21
46.5
 31
0.0
  0
LINE
  5
16D
330
46
100
AcDbEntity
  8
0
  6
Continuous
 62
     7
100
AcDbLine
 10
-46.11497893611681
 20
19.5
 30
0.0
 11
-46.11497893611681
 21
12.0
 31
0.0
  0
LINE
  5
16E
330
46
100
AcDbEntity
  8
0
  6
Continuous
 62
     7
100
AcDbLine
 10
-38.61497893611681
 20
19.5
 30
0.0
 11
-46.11497893611681
 21
19.5
 31
0.0
  0
LINE
  5
16F
330
46
100
AcDbEntity
  8
0
  6
Continuous
 62
     7
100
AcDbLine
 10
-38.61497893611681
 20
33.0
 30
0.0
 11
-46.11497893611681
 21
33.0
 31
0.0
  0
LINE
  5
170
330
46
100
AcDbEntity
  8
0
  6
Continuous
 62
     7
100
AcDbLine
 10
-46.11497893611681
 20
39.0
 30
0.0
 11
-38.61497893611681
 21
39.0
 31
0.0
  0
LINE
  5
171
330
46
100
AcDbEntity
  8
0
  6
Continuous
 62
     7
100
AcDbLine
 10
-46.11497893611681
 20
25.5
 30
0.0
 11
-38.61497893611681
 21
25.5
 31
0.0
  0
LINE
  5
172
330
46
100
AcDbEntity
  8
0
  6
Continuous
 62
     7
100
AcDbLine
 10
-46.11497893611681
 20
33.0
 30
0.0
 11
-46.11497893611681
 21
25.5
 31
0.0
  0
LINE
  5
173
330
46
100
AcDbEntity
  8
0
  6
Continuous
 62
     7
100
AcDbLine
 10
-46.11497893611681
 20
12.0
 30
0.0
 11
-38.61497893611681
 21
12.0
 31
0.0
  0
LINE
  5
174
330
46
100
AcDbEntity
  8
0
  6
Continuous
 62
     7
100
AcDbLine
 10
-19.11497893611681
 20
87.0
 30
0.0
 11
-19.11497893611681
 21
79.5
 31
0.0
  0
LINE
  5
175
330
46
100
AcDbEntity
  8
0
  6
Continuous
 62
     7
100
AcDbLine
 10
-19.11497893611681
 20
79.5
 30
0.0
 11
-11.61497893611681
 21
79.5
 31
0.0
  0
LINE
  5
176
330
46
100
AcDbEntity
  8
0
  6
Continuous
 62
     7
100
AcDbLine
 10
-19.11497893611681
 20
93.0
 30
0.0
 11
-11.61497893611681
 21
93.0
 31
0.0
  0
LINE
  5
177
330
46
100
AcDbEntity
  8
0
  6
Continuous
 62
     7
100
AcDbLine
 10
1.88502106388319
 20
106.5
 30
0.0
 11
1.88502106388319
 21
114.0
 31
0.0
  0
LINE
  5
178
330
46
100
AcDbEntity
  8
0
  6
Continuous
 62
     7
100
AcDbLine
 10
1.88502106388319
 20
114.0
 30
0.0
 11
-5.61497893611681
 21
114.0
 31
0.0
  0
LINE
  5
179
330
46
100
AcDbEntity
  8
0
  6
Continuous
 62
     7
100
AcDbLine
 10
-5.61497893611681
 20
106.5
 30
0.0
 11
1.88502106388319
 21
106.5
 31
0.0
  0
LINE
  5
17A
330
46
100
AcDbEntity
  8
0
  6
Continuous
 62
     7
100
AcDbLine
 10
-5.61497893611681
 20
114.0
 30
0.0
 11
-5.61497893611681
 21
106.5
 31
0.0
  0
LINE
  5
17B
330
46
100
AcDbEntity
  8
0
  6
Continuous
 62
     7
100
AcDbLine
 10
-19.11497893611681
 20
100.5
 30
0.0
 11
-19.11497893611681
 21
93.0
 31
0.0
  0
LINE
  5
17C
330
46
100
AcDbEntity
  8
0
  6
Continuous
 62
     7
100
AcDbLine
 10
-11.61497893611681
 20
100.5
 30
0.0
 11
-19.11497893611681
 21
100.5
 31
0.0
  0
LINE
  5
17D
330
46
100
AcDbEntity
  8
0
  6
Continuous
 62
     7
100
AcDbLine
 10
-11.61497893611681
 20
93.0
 30
0.0
 11
-11.61497893611681
 21
100.5
 31
0.0
  0
LINE
  5
17E
330
46
100
AcDbEntity
  8
0
  6
Continuous
 62
     7
100
AcDbLine
 10
1.88502106388319
 20
100.5
 30
0.0
 11
-5.61497893611681
 21
100.5
 31
0.0
  0
LINE
  5
17F
330
46
100
AcDbEntity
  8
0
  6
Continuous
 62
     7
100
AcDbLine
 10
1.88502106388319
 20
93.0
 30
0.0
 11
1.88502106388319
 21
100.5
 31
0.0
  0
LINE
  5
180
330
46
100
AcDbEntity
  8
0
  6
Continuous
 62
     7
100
AcDbLine
 10
-5.61497893611681
 20
100.5
 30
0.0
 11
-5.61497893611681
 21
93.0
 31
0.0
  0
LINE
  5
181
330
46
100
AcDbEntity
  8
0
  6
Continuous
 62
     7
100
AcDbLine
 10
-5.61497893611681
 20
93.0
 30
0.0
 11
1.88502106388319
 21
93.0
 31
0.0
  0
LINE
  5
182
330
46
100
AcDbEntity
  8
0
  6
Continuous
 62
     7
100
AcDbLine
 10
-11.61497893611681
 20
114.0
 30
0.0
 11
-19.11497893611681
 21
114.0
 31
0.0
  0
LINE
  5
183
330
46
100
AcDbEntity
  8
0
  6
Continuous
 62
     7
100
AcDbLine
 10
-19.11497893611681
 20
106.5
 30
0.0
 11
-11.61497893611681
 21
106.5
 31
0.0
  0
LINE
  5
184
330
46
100
AcDbEntity
  8
0
  6
Continuous
 62
     7
100
AcDbLine
 10
-19.11497893611681
 20
114.0
 30
0.0
 11
-19.11497893611681
 21
106.5
 31
0.0
  0
LINE
  5
185
330
46
100
AcDbEntity
  8
0
  6
Continuous
 62
     7
100
AcDbLine
 10
-11.61497893611681
 20
106.5
 30
0.0
 11
-11.61497893611681
 21
114.0
 31
0.0
  0
LINE
  5
186
330
46
100
AcDbEntity
  8
0
  6
Continuous
 62
     7
100
AcDbLine
 10
-11.61497893611681
 20
73.5
 30
0.0
 11
-19.11497893611681
 21
73.5
 31
0.0
  0
LINE
  5
187
330
46
100
AcDbEntity
  8
0
  6
Continuous
 62
     7
100
AcDbLine
 10
-11.61497893611681
 20
87.0
 30
0.0
 11
-19.11497893611681
 21
87.0
 31
0.0
  0
LINE
  5
188
330
46
100
AcDbEntity
  8
0
  6
Continuous
 62
     7
100
AcDbLine
 10
-11.61497893611681
 20
79.5
 30
0.0
 11
-11.61497893611681
 21
87.0
 31
0.0
  0
LINE
  5
189
330
46
100
AcDbEntity
  8
0
  6
Continuous
 62
     7
100
AcDbLine
 10
-5.61497893611681
 20
79.5
 30
0.0
 11
1.88502106388319
 21
79.5
 31
0.0
  0
LINE
  5
18A
330
46
100
AcDbEntity
  8
0
  6
Continuous
 62
     7
100
AcDbLine
 10
-5.61497893611681
 20
87.0
 30
0.0
 11
-5.61497893611681
 21
79.5
 31
0.0
  0
LINE
  5
18B
330
46
100
AcDbEntity
  8
0
  6
Continuous
 62
     7
100
AcDbLine
 10
1.88502106388319
 20
87.0
 30
0.0
 11
-5.61497893611681
 21
87.0
 31
0.0
  0
LINE
  5
18C
330
46
100
AcDbEntity
  8
0
  6
Continuous
 62
     7
100
AcDbLine
 10
1.88502106388319
 20
79.5
 30
0.0
 11
1.88502106388319
 21
87.0
 31
0.0
  0
LINE
  5
18D
330
46
100
AcDbEntity
  8
0
  6
Continuous
 62
     7
100
AcDbLine
 10
1.88502106388319
 20
73.5
 30
0.0
 11
-5.61497893611681
 21
73.5
 31
0.0
  0
LINE
  5
18E
330
46
100
AcDbEntity
  8
0
  6
Continuous
 62
     7
100
AcDbLine
 10
-11.61497893611681
 20
66.0
 30
0.0
 11
-11.61497893611681
 21
73.5
 31
0.0
  0
LINE
  5
18F
330
46
100
AcDbEntity
  8
0
  6
Continuous
 62
     7
100
AcDbLine
 10
-19.11497893611681
 20
66.0
 30
0.0
 11
-11.61497893611681
 21
66.0
 31
0.0
  0
LINE
  5
190
330
46
100
AcDbEntity
  8
0
  6
Continuous
 62
     7
100
AcDbLine
 10
-19.11497893611681
 20
73.5
 30
0.0
 11
-19.11497893611681
 21
66.0
 31
0.0
  0
LINE
  5
191
330
46
100
AcDbEntity
  8
0
  6
Continuous
 62
     7
100
AcDbLine
 10
-5.61497893611681
 20
66.0
 30
0.0
 11
1.88502106388319
 21
66.0
 31
0.0
  0
LINE
  5
192
330
46
100
AcDbEntity
  8
0
  6
Continuous
 62
     7
100
AcDbLine
 10
-5.61497893611681
 20
73.5
 30
0.0
 11
-5.61497893611681
 21
66.0
 31
0.0
  0
LINE
  5
193
330
46
100
AcDbEntity
  8
0
  6
Continuous
 62
     7
100
AcDbLine
 10
1.88502106388319
 20
66.0
 30
0.0
 11
1.88502106388319
 21
73.5
 31
0.0
  0
LINE
  5
194
330
46
100
AcDbEntity
  8
0
  6
Continuous
 62
     7
100
AcDbLine
 10
-32.61497893611681
 20
39.0
 30
0.0
 11
-25.11497893611681
 21
39.0
 31
0.0
  0
LINE
  5
195
330
46
100
AcDbEntity
  8
0
  6
Continuous
 62
     7
100
AcDbLine
 10
-19.11497893611681
 20
46.5
 30
0.0
 11
-19.11497893611681
 21
39.0
 31
0.0
  0
LINE
  5
196
330
46
100
AcDbEntity
  8
0
  6
Continuous
 62
     7
100
AcDbLine
 10
1.88502106388319
 20
33.0
 30
0.0
 11
-5.61497893611681
 21
33.0
 31
0.0
  0
LINE
  5
197
330
46
100
AcDbEntity
  8
0
  6
Continuous
 62
     7
100
AcDbLine
 10
1.88502106388319
 20
46.5
 30
0.0
 11
-5.61497893611681
 21
46.5
 31
0.0
  0
LINE
  5
198
330
46
100
AcDbEntity
  8
0
  6
Continuous
 62
     7
100
AcDbLine
 10
-5.61497893611681
 20
52.5
 30
0.0
 11
1.88502106388319
 21
52.5
 31
0.0
  0
LINE
  5
199
330
46
100
AcDbEntity
  8
0
  6
Continuous
 62
     7
100
AcDbLine
 10
-5.61497893611681
 20
25.5
 30
0.0
 11
1.88502106388319
 21
25.5
 31
0.0
  0
LINE
  5
19A
330
46
100
AcDbEntity
  8
0
  6
Continuous
 62
     7
100
AcDbLine
 10
-5.61497893611681
 20
33.0
 30
0.0
 11
-5.61497893611681
 21
25.5
 31
0.0
  0
LINE
  5
19B
330
46
100
AcDbEntity
  8
0
  6
Continuous
 62
     7
100
AcDbLine
 10
-5.61497893611681
 20
19.5
 30
0.0
 11
-5.61497893611681
 21
12.0
 31
0.0
  0
LINE
  5
19C
330
46
100
AcDbEntity
  8
0
  6
Continuous
 62
     7
100
AcDbLine
 10
1.88502106388319
 20
19.5
 30
0.0
 11
-5.61497893611681
 21
19.5
 31
0.0
  0
LINE
  5
19D
330
46
100
AcDbEntity
  8
0
  6
Continuous
 62
     7
100
AcDbLine
 10
1.88502106388319
 20
12.0
 30
0.0
 11
1.88502106388319
 21
19.5
 31
0.0
  0
LINE
  5
19E
330
46
100
AcDbEntity
  8
0
  6
Continuous
 62
     7
100
AcDbLine
 10
-5.61497893611681
 20
12.0
 30
0.0
 11
1.88502106388319
 21
12.0
 31
0.0
  0
LINE
  5
19F
330
46
100
AcDbEntity
  8
0
  6
Continuous
 62
     7
100
AcDbLine
 10
1.88502106388319
 20
39.0
 30
0.0
 11
1.88502106388319
 21
46.5
 31
0.0
  0
LINE
  5
1A0
330
46
100
AcDbEntity
  8
0
  6
Continuous
 62
     7
100
AcDbLine
 10
1.88502106388319
 20
25.5
 30
0.0
 11
1.88502106388319
 21
33.0
 31
0.0
  0
LINE
  5
1A1
330
46
100
AcDbEntity
  8
0
  6
Continuous
 62
     7
100
AcDbLine
 10
-5.61497893611681
 20
39.0
 30
0.0
 11
1.88502106388319
 21
39.0
 31
0.0
  0
LINE
  5
1A2
330
46
100
AcDbEntity
  8
0
  6
Continuous
 62
     7
100
AcDbLine
 10
-5.61497893611681
 20
46.5
 30
0.0
 11
-5.61497893611681
 21
39.0
 31
0.0
  0
LINE
  5
1A3
330
46
100
AcDbEntity
  8
0
  6
Continuous
 62
     7
100
AcDbLine
 10
-5.61497893611681
 20
60.0
 30
0.0
 11
-5.61497893611681
 21
52.5
 31
0.0
  0
LINE
  5
1A4
330
46
100
AcDbEntity
  8
0
  6
Continuous
 62
     7
100
AcDbLine
 10
1.88502106388319
 20
52.5
 30
0.0
 11
1.88502106388319
 21
60.0
 31
0.0
  0
LINE
  5
1A5
330
46
100
AcDbEntity
  8
0
  6
Continuous
 62
     7
100
AcDbLine
 10
1.88502106388319
 20
60.0
 30
0.0
 11
-5.61497893611681
 21
60.0
 31
0.0
  0
LINE
  5
1A6
330
46
100
AcDbEntity
  8
0
  6
Continuous
 62
     7
100
AcDbLine
 10
-11.61497893611681
 20
60.0
 30
0.0
 11
-19.11497893611681
 21
60.0
 31
0.0
  0
LINE
  5
1A7
330
46
100
AcDbEntity
  8
0
  6
Continuous
 62
     7
100
AcDbLine
 10
-11.61497893611681
 20
52.5
 30
0.0
 11
-11.61497893611681
 21
60.0
 31
0.0
  0
LINE
  5
1A8
330
46
100
AcDbEntity
  8
0
  6
Continuous
 62
     7
100
AcDbLine
 10
-19.11497893611681
 20
52.5
 30
0.0
 11
-11.61497893611681
 21
52.5
 31
0.0
  0
LINE
  5
1A9
330
46
100
AcDbEntity
  8
0
  6
Continuous
 62
     7
100
AcDbLine
 10
-11.61497893611681
 20
25.5
 30
0.0
 11
-11.61497893611681
 21
33.0
 31
0.0
  0
LINE
  5
1AA
330
46
100
AcDbEntity
  8
0
  6
Continuous
 62
     7
100
AcDbLine
 10
-11.61497893611681
 20
39.0
 30
0.0
 11
-11.61497893611681
 21
46.5
 31
0.0
  0
LINE
  5
1AB
330
46
100
AcDbEntity
  8
0
  6
Continuous
 62
     7
100
AcDbLine
 10
-19.11497893611681
 20
39.0
 30
0.0
 11
-11.61497893611681
 21
39.0
 31
0.0
  0
LINE
  5
1AC
330
46
100
AcDbEntity
  8
0
  6
Continuous
 62
     7
100
AcDbLine
 10
-19.11497893611681
 20
33.0
 30
0.0
 11
-19.11497893611681
 21
25.5
 31
0.0
  0
LINE
  5
1AD
330
46
100
AcDbEntity
  8
0
  6
Continuous
 62
     7
100
AcDbLine
 10
-19.11497893611681
 20
60.0
 30
0.0
 11
-19.11497893611681
 21
52.5
 31
0.0
  0
LINE
  5
1AE
330
46
100
AcDbEntity
  8
0
  6
Continuous
 62
     7
100
AcDbLine
 10
-19.11497893611681
 20
19.5
 30
0.0
 11
-19.11497893611681
 21
12.0
 31
0.0
  0
LINE
  5
1AF
330
46
100
AcDbEntity
  8
0
  6
Continuous
 62
     7
100
AcDbLine
 10
-11.61497893611681
 20
46.5
 30
0.0
 11
-19.11497893611681
 21
46.5
 31
0.0
  0
LINE
  5
1B0
330
46
100
AcDbEntity
  8
0
  6
Continuous
 62
     7
100
AcDbLine
 10
-11.61497893611681
 20
19.5
 30
0.0
 11
-19.11497893611681
 21
19.5
 31
0.0
  0
LINE
  5
1B1
330
46
100
AcDbEntity
  8
0
  6
Continuous
 62
     7
100
AcDbLine
 10
-19.11497893611681
 20
12.0
 30
0.0
 11
-11.61497893611681
 21
12.0
 31
0.0
  0
LINE
  5
1B2
330
46
100
AcDbEntity
  8
0
  6
Continuous
 62
     7
100
AcDbLine
 10
-11.61497893611681
 20
12.0
 30
0.0
 11
-11.61497893611681
 21
19.5
 31
0.0
  0
LINE
  5
1B3
330
46
100
AcDbEntity
  8
0
  6
Continuous
 62
     7
100
AcDbLine
 10
-19.11497893611681
 20
25.5
 30
0.0
 11
-11.61497893611681
 21
25.5
 31
0.0
  0
LINE
  5
1B4
330
46
100
AcDbEntity
  8
0
  6
Continuous
 62
     7
100
AcDbLine
 10
-11.61497893611681
 20
33.0
 30
0.0
 11
-19.11497893611681
 21
33.0
 31
0.0
  0
LINE
  5
1B5
330
46
100
AcDbEntity
  8
0
  6
Continuous
 62
     7
100
AcDbLine
 10
-32.61497893611681
 20
46.5
 30
0.0
 11
-32.61497893611681
 21
39.0
 31
0.0
  0
LINE
  5
1B6
330
46
100
AcDbEntity
  8
0
  6
Continuous
 62
     7
100
AcDbLine
 10
-25.11497893611681
 20
46.5
 30
0.0
 11
-32.61497893611681
 21
46.5
 31
0.0
  0
LINE
  5
1B7
330
46
100
AcDbEntity
  8
0
  6
Continuous
 62
     7
100
AcDbLine
 10
-25.11497893611681
 20
39.0
 30
0.0
 11
-25.11497893611681
 21
46.5
 31
0.0
  0
LINE
  5
1B8
330
46
100
AcDbEntity
  8
0
  6
Continuous
 62
     7
100
AcDbLine
 10
-25.11497893611681
 20
33.0
 30
0.0
 11
-32.61497893611681
 21
33.0
 31
0.0
  0
LINE
  5
1B9
330
46
100
AcDbEntity
  8
0
  6
Continuous
 62
     7
100
AcDbLine
 10
-25.11497893611681
 20
12.0
 30
0.0
 11
-25.11497893611681
 21
19.5
 31
0.0
  0
LINE
  5
1BA
330
46
100
AcDbEntity
  8
0
  6
Continuous
 62
     7
100
AcDbLine
 10
-25.11497893611681
 20
25.5
 30
0.0
 11
-25.11497893611681
 21
33.0
 31
0.0
  0
LINE
  5
1BB
330
46
100
AcDbEntity
  8
0
  6
Continuous
 62
     7
100
AcDbLine
 10
-32.61497893611681
 20
25.5
 30
0.0
 11
-25.11497893611681
 21
25.5
 31
0.0
  0
LINE
  5
1BC
330
46
100
AcDbEntity
  8
0
  6
Continuous
 62
     7
100
AcDbLine
 10
-32.61497893611681
 20
33.0
 30
0.0
 11
-32.61497893611681
 21
25.5
 31
0.0
  0
LINE
  5
1BD
330
46
100
AcDbEntity
  8
0
  6
Continuous
 62
     7
100
AcDbLine
 10
-32.61497893611681
 20
12.0
 30
0.0
 11
-25.11497893611681
 21
12.0
 31
0.0
  0
LINE
  5
1BE
330
46
100
AcDbEntity
  8
0
  6
Continuous
 62
     7
100
AcDbLine
 10
-25.11497893611681
 20
19.5
 30
0.0
 11
-32.61497893611681
 21
19.5
 31
0.0
  0
LINE
  5
1BF
330
46
100
AcDbEntity
  8
0
  6
Continuous
 62
     7
100
AcDbLine
 10
-32.61497893611681
 20
19.5
 30
0.0
 11
-32.61497893611681
 21
12.0
 31
0.0
  0
ARC
  5
1C0
330
46
100
AcDbEntity
  8
0
  6
Continuous
 62
     7
100
AcDbCircle
 10
-115.1149789361168
 20
-3.0
 30
0.0
 40
3.0
100
AcDbArc
 50
180.0
 51
270.0
  0
ARC
  5
1C1
330
46
100
AcDbEntity
  8
0
  6
Continuous
 62
     7
100
AcDbCircle
 10
-115.1149789361168
 20
129.0
 30
0.0
 40
3.0
100
AcDbArc
 50
90.0
 51
180.0
  0
ARC
  5
1C2
330
46
100
AcDbEntity
  8
0
  6
Continuous
 62
     7
100
AcDbCircle
 10
16.88502106388319
 20
129.0
 30
0.0
 40
3.0
100
AcDbArc
 50
0.0
 51
90.0
  0
ARC
  5
1C3
330
46
100
AcDbEntity
  8
0
  6
Continuous
 62
     7
100
AcDbCircle
 10
16.88502106388319
 20
-3.0
 30
0.0
 40
3.0
100
AcDbArc
 50
270.0
 51
0.0
  0
CIRCLE
  5
1C4
330
46
100
AcDbEntity
  8
0
  6
Continuous
 62
     7
100
AcDbCircle
 10
-3.11497893611681
 20
3.99660927724342
 30
0.0
 40
1.600000000000705
  0
SPLINE
  5
1C5
330
46
100
AcDbEntity
  8
1
  6
Continuous
 62
     7
100
AcDbSpline
210
0.0
220
0.0
230
1.0
 70
    11
 71
     3
 72
    79
 73
    75
 74
    73
 42
0.0000000001
 43
0.0000000001
 44
0.00000001
 40
0.0
 40
0.0
 40
0.0
 40
0.0
 40
0.3907967327033054
 40
0.7791187161095925
 40
1.247745980699168
 40
1.714333364987851
 40
2.282167899461272
 40
2.849193372668717
 40
3.520315990714558
 40
4.191019167516099
 40
4.957257977252796
 40
5.723287034783485
 40
6.56937751957684
 40
7.415354049141471
 40
8.321398475920097
 40
9.227382887790121
 40
10.17051911290009
 40
11.11362912796324
 40
12.06930488154881
 40
13.02498063519296
 40
13.96809065034273
 40
14.91122687548149
 40
15.81721128735149
 40
16.72325571413011
 40
17.56923224369474
 40
18.41532272848807
 40
19.18135178601875
 40
19.94759059575544
 40
20.61829377255698
 40
21.28941639060285
 40
21.85644186381032
 40
22.42427639828375
 40
22.89086378257243
 40
23.359491047162
 40
23.7478130305683
 40
24.13860976327162
 40
24.49679243110126
 40
24.8549750989378
 40
25.24577183165174
 40
25.63409381506123
 40
26.10272107964835
 40
26.5693084639306
 40
27.13714299839914
 40
27.70416847160955
 40
28.37529108965898
 40
29.04599426645824
 40
29.81223307619129
 40
30.57826213372093
 40
31.42435261851427
 40
32.27032914807889
 40
33.17637357485724
 40
34.08235798672663
 40
35.02549421186511
 40
35.96860422701506
 40
36.92427998065926
 40
37.87995573424489
 40
38.82306574930821
 40
39.76620197441787
 40
40.67218638628729
 40
41.57823081306565
 40
42.42420734263029
 40
43.27029782742364
 40
44.03632688495329
 40
44.80256569468633
 40
45.47326887148559
 40
46.144391489535
 40
46.7114169627454
 40
47.27925149721391
 40
47.74583888149616
 40
48.21446614608331
 40
48.60278812949282
 40
48.99358486220675
 40
49.35176753004329
 40
49.70995019787294
 40
49.70995019787294
 40
49.70995019787294
 40
49.70995019787294
 10
2.339375383060655
 20
2.644737709054939
 30
0.0
 10
2.299978475654604
 20
2.51997095308323
 30
0.0
 10
2.221434144680897
 20
2.271227535876522
 30
0.0
 10
1.990840135976638
 20
1.920197620774621
 30
0.0
 10
1.695583902632703
 20
1.591193305120845
 30
0.0
 10
1.313510353505125
 20
1.265061303841875
 30
0.0
 10
0.8708723805865638
 20
0.9651191528682397
 30
0.0
 10
0.3453647989424752
 20
0.6703078435689626
 30
0.0
 10
-0.2324146095862442
 20
0.4024318641707391
 30
0.0
 10
-0.8869680177694532
 20
0.1459010260014761
 30
0.0
 10
-1.585121882602631
 20
-0.0829188798310435
 30
0.0
 10
-2.349510232839159
 20
-0.2941293889903639
 30
0.0
 10
-3.148527124512919
 20
-0.4767801920917042
 30
0.0
 10
-3.999880708135271
 20
-0.6366466533807558
 30
0.0
 10
-4.876425650834834
 20
-0.7671404153201666
 30
0.0
 10
-5.789083283970033
 20
-0.8710863337537458
 30
0.0
 10
-6.717057640305674
 20
-0.9450348527723955
 30
0.0
 10
-7.663447828227702
 20
-0.9901607091541887
 30
0.0
 10
-8.614978936155683
 20
-1.004952202529805
 30
0.0
 10
-9.566510044171972
 20
-0.990160709162344
 30
0.0
 10
-10.51290023197605
 20
-0.9450348527384005
 30
0.0
 10
-11.44087458898589
 20
-0.8710863338882598
 30
0.0
 10
-12.3535322198511
 20
-0.7671404148452226
 30
0.0
 10
-13.23007717079863
 20
-0.6366466551059096
 30
0.0
 10
-14.08143072558738
 20
-0.4767801861259185
 30
0.0
 10
-14.8804477199579
 20
-0.2941294104172757
 30
0.0
 10
-15.644835721393
 20
-0.0829188082208435
 30
0.0
 10
-16.3429908073343
 20
0.1459007719008881
 30
0.0
 10
-16.9975401958149
 20
0.4024326822605443
 30
0.0
 10
-17.57533342341996
 20
0.6703049756445572
 30
0.0
 10
-18.10079695887067
 20
0.9651280335507241
 30
0.0
 10
-18.54358396185339
 20
1.26503043317465
 30
0.0
 10
-18.92519387260967
 20
1.591286102460687
 30
0.0
 10
-19.22201632043227
 20
1.919872655834164
 30
0.0
 10
-19.44769239582569
 20
2.272214349790358
 30
0.0
 10
-19.57954546370394
 20
2.63072433031879
 30
0.0
 10
-19.63192420291039
 20
3.000000000005842
 30
0.0
 10
-19.57954546370309
 20
3.369275669696077
 30
0.0
 10
-19.44769239582759
 20
3.727785650232833
 30
0.0
 10
-19.22201632043396
 20
4.080127344193761
 30
0.0
 10
-18.92519387261129
 20
4.408713897564978
 30
0.0
 10
-18.5435839618523
 20
4.73496956684111
 30
0.0
 10
-18.10079695886684
 20
5.034871966455335
 30
0.0
 10
-17.57533342342015
 20
5.329695024368965
 30
0.0
 10
-16.99754019581804
 20
5.597567317763478
 30
0.0
 10
-16.34299080733462
 20
5.854099228114565
 30
0.0
 10
-15.64483572139157
 20
6.082918808223112
 30
0.0
 10
-14.88044771995745
 20
6.294129410416739
 30
0.0
 10
-14.08143072558741
 20
6.476780186125916
 30
0.0
 10
-13.23007717079875
 20
6.63664665510597
 30
0.0
 10
-12.35353221985138
 20
6.767140414844206
 30
0.0
 10
-11.44087458898555
 20
6.871086333880793
 30
0.0
 10
-10.51290023197644
 20
6.945034852725482
 30
0.0
 10
-9.566510044169618
 20
6.990160709155687
 30
0.0
 10
-8.61497893616496
 20
7.004952202525079
 30
0.0
 10
-7.663447828193196
 20
6.990160709157303
 30
0.0
 10
-6.717057640432478
 20
6.945034852720935
 30
0.0
 10
-5.789083283505626
 20
6.871086333888429
 30
0.0
 10
-4.876425652492754
 20
6.767140414811681
 30
0.0
 10
-3.999880702111744
 20
6.636646655224384
 30
0.0
 10
-3.148527145343137
 20
6.476780185716264
 30
0.0
 10
-2.349510158025014
 20
6.29412941188807
 30
0.0
 10
-1.585122132639568
 20
6.082918803305819
 30
0.0
 10
-0.8869671305469744
 20
5.854099245563002
 30
0.0
 10
-0.2324174660406214
 20
5.597567261587267
 30
0.0
 10
0.3453748126399923
 20
5.329695221302157
 30
0.0
 10
0.8708413726288706
 20
5.034871356641036
 30
0.0
 10
1.313618142091705
 20
4.734971686652802
 30
0.0
 10
1.695259889740647
 20
4.408707525403235
 30
0.0
 10
1.991974789523557
 20
4.080149658725295
 30
0.0
 10
2.217988567125093
 20
3.727717888183951
 30
0.0
 10
2.348660573777135
 20
3.369522936550698
 30
0.0
 10
2.405106916409169
 20
2.99916229969581
 30
0.0
 10
2.361285894176685
 20
2.762879239267803
 30
0.0
 10
2.339375383060654
 20
2.644737709054935
 30
0.0
 11
2.339375383060655
 21
2.644737709054939
 31
0.0
 11
2.204719711314911
 21
2.277872697970097
 31
0.0
 11
1.998946515648623
 21
1.948553165081632
 31
0.0
 11
1.687821639414431
 21
1.598106557871681
 31
0.0
 11
1.334575133072537
 21
1.293277601021119
 31
0.0
 11
0.8665054883258865
 21
0.9718015269387843
 31
0.0
 11
0.3726161971586247
 21
0.6932494575937027
 31
0.0
 11
-0.2351649131308084
 21
0.4086309577943263
 31
0.0
 11
-0.8593124817846416
 21
0.1631058798181892
 31
0.0
 11
-1.586904422674907
 21
-0.0771687153812376
 31
0.0
 11
-2.325111947035357
 21
-0.2817418513472532
 31
0.0
 11
-3.149675374207956
 21
-0.4713843123817827
 31
0.0
 11
-3.981052827602833
 21
-0.6278701537888096
 31
0.0
 11
-4.877114977548525
 21
-0.7619937040375051
 31
0.0
 11
-5.77725968246985
 21
-0.8646935811239655
 31
0.0
 11
-6.717381848812067
 21
-0.9400344828088648
 31
0.0
 11
-7.659421686585792
 21
-0.9849504550200492
 31
0.0
 11
-8.614978936146105
 21
-0.9999999999990228
 31
0.0
 11
-9.570536185765004
 21
-0.9849504550200341
 31
0.0
 11
-10.51257602362544
 21
-0.9400344828088485
 31
0.0
 11
-11.45269818999655
 21
-0.864693581123976
 31
0.0
 11
-12.35284289491785
 21
-0.7619937040375386
 31
0.0
 11
-13.24890504486354
 21
-0.6278701537888334
 31
0.0
 11
-14.08028249825841
 21
-0.4713843123817884
 31
0.0
 11
-14.90484592543099
 21
-0.2817418513472538
 31
0.0
 11
-15.64305344979143
 21
-0.0771687153812436
 31
0.0
 11
-16.37064539068169
 21
0.1631058798181637
 31
0.0
 11
-16.99479295933553
 21
0.4086309577942892
 31
0.0
 11
-17.60257406962499
 21
0.6932494575936788
 31
0.0
 11
-18.09646336079227
 21
0.9718015269387704
 31
0.0
 11
-18.56453300553894
 21
1.293277601021088
 31
0.0
 11
-18.91777951188084
 21
1.598106557871639
 31
0.0
 11
-19.22890438811501
 21
1.948553165081605
 31
0.0
 11
-19.43467758378128
 21
2.27787269797009
 31
0.0
 11
-19.56933325552705
 21
2.644737709054939
 31
0.0
 11
-19.61497893619402
 21
3.000000000003481
 31
0.0
 11
-19.56933325552703
 21
3.355262290958978
 31
0.0
 11
-19.43467758378126
 21
3.72212730205514
 31
0.0
 11
-19.228904388115
 21
4.051446834947394
 31
0.0
 11
-18.91777951188084
 21
4.401893442154089
 31
0.0
 11
-18.56453300553894
 21
4.706722398994808
 31
0.0
 11
-18.09646336079227
 21
5.028198473068501
 31
0.0
 11
-17.60257406962501
 21
5.30675054241961
 31
0.0
 11
-16.99479295933557
 21
5.591369042227432
 31
0.0
 11
-16.37064539068172
 21
5.836894120197305
 31
0.0
 11
-15.64305344979144
 21
6.07716871538506
 31
0.0
 11
-14.904845925431
 21
6.281741851347173
 31
0.0
 11
-14.08028249825842
 21
6.471384312381694
 31
0.0
 11
-13.24890504486356
 21
6.627870153788735
 31
0.0
 11
-12.35284289491788
 21
6.761993704035661
 31
0.0
 11
-11.45269818999657
 21
6.864693581116757
 31
0.0
 11
-10.51257602362545
 21
6.940034482797877
 31
0.0
 11
-9.570536185765002
 21
6.984950455012634
 31
0.0
 11
-8.614978936146107
 21
6.999999999995286
 31
0.0
 11
-7.659421686585789
 21
6.984950455012641
 31
0.0
 11
-6.717381848812066
 21
6.940034482797883
 31
0.0
 11
-5.777259682469854
 21
6.86469358111675
 31
0.0
 11
-4.877114977548525
 21
6.761993704035643
 31
0.0
 11
-3.981052827602833
 21
6.627870153788722
 31
0.0
 11
-3.149675374207952
 21
6.471384312381689
 31
0.0
 11
-2.325111947035357
 21
6.281741851347173
 31
0.0
 11
-1.586904422674907
 21
6.077168715385056
 31
0.0
 11
-0.8593124817846415
 21
5.836894120197291
 31
0.0
 11
-0.2351649131308044
 21
5.59136904222741
 31
0.0
 11
0.3726161971586275
 21
5.306750542419595
 31
0.0
 11
0.8665054883258863
 21
5.028198473068503
 31
0.0
 11
1.334575133072533
 21
4.706722398994826
 31
0.0
 11
1.687821639414428
 21
4.401893442154114
 31
0.0
 11
1.998946515648625
 21
4.051446834947408
 31
0.0
 11
2.204719711314913
 21
3.722127302055142
 31
0.0
 11
2.339375383060654
 21
3.355262290958978
 31
0.0
 11
2.38502106372762
 21
3.000000000003482
 31
0.0
 11
2.339375383060654
 21
2.644737709054935
 31
0.0
  0
ARC
  5
1C6
330
46
100
AcDbEntity
  8
1
  6
Continuous
 62
     7
100
AcDbCircle
 10
-12.21497893620992
 20
0.89999999999419
 30
0.0
 40
0.3999999999942396
100
AcDbArc
 50
270.0
 51
359.9999999999914
  0
ARC
  5
1C7
330
46
100
AcDbEntity
  8
1
  6
Continuous
 62
     7
100
AcDbCircle
 10
-12.21497893620992
 20
0.89999999999419
 30
0.0
 40
0.3999999999068091
100
AcDbArc
 50
180.0000000000086
 51
270.0
  0
ARC
  5
1C8
330
46
100
AcDbEntity
  8
1
  6
Continuous
 62
     7
100
AcDbCircle
 10
-9.01497893625641
 20
0.89999999999413
 30
0.0
 40
0.3999999999068962
100
AcDbArc
 50
180.0
 51
269.9999999999857
  0
ARC
  5
1C9
330
46
100
AcDbEntity
  8
1
  6
Continuous
 62
     7
100
AcDbCircle
 10
-9.01497893625641
 20
0.89999999999413
 30
0.0
 40
0.3999999999941792
100
AcDbArc
 50
269.9999999999857
 51
0.0
  0
ARC
  5
1CA
330
46
100
AcDbEntity
  8
1
  6
Continuous
 62
     7
100
AcDbCircle
 10
-9.01497893625641
 20
5.1000000000058
 30
0.0
 40
0.4000000001395989
100
AcDbArc
 50
0.0
 51
90.00000000001425
  0
ARC
  5
1CB
330
46
100
AcDbEntity
  8
1
  6
Continuous
 62
     7
100
AcDbCircle
 10
-9.01497893625641
 20
5.1000000000058
 30
0.0
 40
0.3999999999941801
100
AcDbArc
 50
90.00000000001425
 51
180.000000000004
  0
ARC
  5
1CC
330
46
100
AcDbEntity
  8
1
  6
Continuous
 62
     7
100
AcDbCircle
 10
-12.21497893620992
 20
5.1000000000058
 30
0.0
 40
0.3999999999069104
100
AcDbArc
 50
0.0
 51
90.00000000000432
  0
ARC
  5
1CD
330
46
100
AcDbEntity
  8
1
  6
Continuous
 62
     7
100
AcDbCircle
 10
-12.21497893620992
 20
5.1000000000058
 30
0.0
 40
0.3999999999941801
100
AcDbArc
 50
90.00000000000432
 51
180.0
  0
ARC
  5
1CE
330
46
100
AcDbEntity
  8
1
  6
Continuous
 62
     7
100
AcDbCircle
 10
-6.71497893620992
 20
5.1000000000058
 30
0.0
 40
0.3999999999941517
100
AcDbArc
 50
90.0
 51
180.0
  0
ARC
  5
1CF
330
46
100
AcDbEntity
  8
1
  6
Continuous
 62
     7
100
AcDbCircle
 10
-6.71497893620992
 20
5.1000000000058
 30
0.0
 40
0.3999999999069104
100
AcDbArc
 50
0.0
 51
90.0
  0
ARC
  5
1D0
330
46
100
AcDbEntity
  8
1
  6
Continuous
 62
     7
100
AcDbCircle
 10
-6.71497893620992
 20
0.99999999999995
 30
0.0
 40
0.3999999999067967
100
AcDbArc
 50
179.9999999999957
 51
270.0
  0
ARC
  5
1D1
330
46
100
AcDbEntity
  8
1
  6
Continuous
 62
     7
100
AcDbCircle
 10
-4.51497893625641
 20
0.99999999999995
 30
0.0
 40
0.4000000000232795
100
AcDbArc
 50
269.9999999999857
 51
90.00000000001425
  0
DIMENSION
  5
1DC
330
46
100
AcDbEntity
  8
1
100
AcDbDimension
  2
*D4
 10
33.6808138044106
 20
132.0
 30
0.0
 11
29.9308138044106
 21
77.3263595386106
 31
0.0
 70
    32
  1
<>
 71
     5
 42
-1.0
 53
90.0
  3
ME10_DIM_11
100
AcDbAlignedDimension
 13
16.88502106388319
 23
-6.0
 33
0.0
 14
16.88502106388319
 24
132.0
 34
0.0
 50
90.0
100
AcDbRotatedDimension
  0
DIMENSION
  5
1E7
330
46
100
AcDbEntity
  8
1
100
AcDbDimension
  2
*D5
 10
-118.1149789361168
 20
-17.286865434273
 30
0.0
 11
-57.8384206521667
 21
-13.536865434273
 31
0.0
 70
    32
  1
<>
 71
     5
 42
-1.0
 53
0.00013888888889
  3
ME10_DIM_12
100
AcDbAlignedDimension
 13
19.88502106388319
 23
-3.0
 33
0.0
 14
-118.1149789361168
 24
-3.0
 34
0.0
100
AcDbRotatedDimension
  0
ENDBLK
  5
48
330
46
100
AcDbEntity
  8
0
100
AcDbBlockEnd
  0
BLOCK
  5
84
330
7A
100
AcDbEntity
  8
0
100
AcDbBlockBegin
  2
*D3
 70
     1
 10
0.0
 20
0.0
 30
0.0
  3
*D3
  1

  0
LINE
  5
7B
330
7A
100
AcDbEntity
  8
1
  6
Continuous
 62
     4
100
AcDbLine
 10
29.88502106388319
 20
-46.0
 30
0.0
 11
29.88502106388319
 21
-53.38123184001779
 31
0.0
  0
LINE
  5
7C
330
7A
100
AcDbEntity
  8
1
  6
Continuous
 62
     4
100
AcDbLine
 10
29.88502106388319
 20
-41.0
 30
0.0
 11
29.88502106388319
 21
-46.0
 31
0.0
  0
LINE
  5
7D
330
7A
100
AcDbEntity
  8
1
  6
Continuous
 62
     4
100
AcDbLine
 10
29.88502106388319
 20
-34.0
 30
0.0
 11
29.88502106388319
 21
-41.0
 31
0.0
  0
LINE
  5
7E
330
7A
100
AcDbEntity
  8
1
  6
Continuous
 62
     4
100
AcDbLine
 10
19.38502106388319
 20
-41.0
 30
0.0
 11
31.88502106388319
 21
-41.0
 31
0.0
  0
LINE
  5
7F
330
7A
100
AcDbEntity
  8
1
  6
Continuous
 62
     4
100
AcDbLine
 10
19.88502106388319
 20
-46.0
 30
0.0
 11
31.88502106388319
 21
-46.0
 31
0.0
  0
SOLID
  5
80
330
7A
100
AcDbEntity
  8
1
 62
     4
100
AcDbTrace
 10
29.4242373223273
 20
-37.5
 30
0.0
 11
30.34580480543908
 21
-37.5
 31
0.0
 12
29.88502106388319
 22
-41.0
 32
0.0
 13
29.88502106388319
 23
-41.0
 33
0.0
  0
SOLID
  5
81
330
7A
100
AcDbEntity
  8
1
 62
     4
100
AcDbTrace
 10
30.34580480543907
 20
-49.5
 30
0.0
 11
29.4242373223273
 21
-49.5
 31
0.0
 12
29.88502106388319
 22
-46.0
 32
0.0
 13
29.88502106388319
 23
-46.0
 33
0.0
  0
MTEXT
  5
83
330
7A
100
AcDbEntity
  8
1
 62
     1
100
AcDbMText
 10
27.88502106388319
 20
-53.38123184001779
 30
0.0
 40
3.5
 41
0.0
 71
     7
 72
     1
  1
5
  7
CONVERTER_11
 11
0.0
 21
1.0
 31
0.0
 73
     1
 44
0.60024009603842
  0
ENDBLK
  5
85
330
7A
100
AcDbEntity
  8
0
100
AcDbBlockEnd
  0
BLOCK
  5
1D9
330
1D2
100
AcDbEntity
  8
0
100
AcDbBlockBegin
  2
*D4
 70
     1
 10
0.0
 20
0.0
 30
0.0
  3
*D4
  1

  0
LINE
  5
1D3
330
1D2
100
AcDbEntity
  8
1
  6
Continuous
 62
     4
100
AcDbLine
 10
33.6808138044106
 20
132.0
 30
0.0
 11
33.6808138044106
 21
-6.0
 31
0.0
  0
LINE
  5
1D4
330
1D2
100
AcDbEntity
  8
1
  6
Continuous
 62
     4
100
AcDbLine
 10
16.88502106388318
 20
132.0
 30
0.0
 11
35.6808138044106
 21
132.0
 31
0.0
  0
LINE
  5
1D5
330
1D2
100
AcDbEntity
  8
1
  6
Continuous
 62
     4
100
AcDbLine
 10
16.88502106388318
 20
-6.0
 30
0.0
 11
35.6808138044106
 21
-6.0
 31
0.0
  0
SOLID
  5
1D6
330
1D2
100
AcDbEntity
  8
1
 62
     4
100
AcDbTrace
 10
34.14159754596649
 20
128.5
 30
0.0
 11
33.22003006285472
 21
128.5
 31
0.0
 12
33.6808138044106
 22
132.0
 32
0.0
 13
33.6808138044106
 23
132.0
 33
0.0
  0
SOLID
  5
1D7
330
1D2
100
AcDbEntity
  8
1
 62
     4
100
AcDbTrace
 10
33.22003006285472
 20
-2.5
 30
0.0
 11
34.14159754596649
 21
-2.5
 31
0.0
 12
33.6808138044106
 22
-6.0
 32
0.0
 13
33.6808138044106
 23
-6.0
 33
0.0
  0
MTEXT
  5
1D8
330
1D2
100
AcDbEntity
  8
1
 62
     1
100
AcDbMText
 10
31.6808138044106
 20
73.6513595386106
 30
0.0
 40
3.5
 41
0.0
 71
     7
 72
     1
  1
138
  7
CONVERTER_11
 11
0.0
 21
1.0
 31
0.0
 73
     1
 44
0.60024009603842
  0
ENDBLK
  5
1DA
330
1D2
100
AcDbEntity
  8
0
100
AcDbBlockEnd
  0
BLOCK
  5
1E4
330
1DD
100
AcDbEntity
  8
0
100
AcDbBlockBegin
  2
*D5
 70
     1
 10
0.0
 20
0.0
 30
0.0
  3
*D5
  1

  0
LINE
  5
1DE
330
1DD
100
AcDbEntity
  8
1
  6
Continuous
 62
     4
100
AcDbLine
 10
-118.1149789361168
 20
-17.286865434273
 30
0.0
 11
19.88502106388318
 21
-17.286865434273
 31
0.0
  0
LINE
  5
1DF
330
1DD
100
AcDbEntity
  8
1
  6
Continuous
 62
     4
100
AcDbLine
 10
-118.1149789361168
 20
-3.0
 30
0.0
 11
-118.1149789361168
 21
-19.286865434273
 31
0.0
  0
LINE
  5
1E0
330
1DD
100
AcDbEntity
  8
1
  6
Continuous
 62
     4
100
AcDbLine
 10
19.88502106388318
 20
-3.0
 30
0.0
 11
19.88502106388318
 21
-19.286865434273
 31
0.0
  0
SOLID
  5
1E1
330
1DD
100
AcDbEntity
  8
1
 62
     4
100
AcDbTrace
 10
-114.6149789361168
 20
-16.82608169271711
 30
0.0
 11
-114.6149789361168
 21
-17.74764917582889
 31
0.0
 12
-118.1149789361168
 22
-17.286865434273
 32
0.0
 13
-118.1149789361168
 23
-17.286865434273
 33
0.0
  0
SOLID
  5
1E2
330
1DD
100
AcDbEntity
  8
1
 62
     4
100
AcDbTrace
 10
16.38502106388318
 20
-17.74764917582889
 30
0.0
 11
16.38502106388318
 21
-16.82608169271711
 31
0.0
 12
19.88502106388318
 22
-17.286865434273
 32
0.0
 13
19.88502106388318
 23
-17.286865434273
 33
0.0
  0
MTEXT
  5
1E3
330
1DD
100
AcDbEntity
  8
1
 62
     1
100
AcDbMText
 10
-61.51342065216669
 20
-15.286865434273
 30
0.0
 40
3.5
 41
0.0
 71
     7
 72
     1
  1
138
  7
CONVERTER_11
 11
0.9999999999970619
 21
2.424068405545306E-6
 31
0.0
 73
     1
 44
0.60024009603842
  0
ENDBLK
  5
1E5
330
1DD
100
AcDbEntity
  8
0
100
AcDbBlockEnd
  0
ENDSEC
  0
SECTION
  2
ENTITIES
  0
INSERT
  5
6B
330
1F
100
AcDbEntity
  8
0
100
AcDbBlockReference
  2
Einlaufrost_Quadra_140x140__1
 10
-43.11497893611681
 20
-43.6906159200089
 30
0.0
  0
INSERT
  5
6C
330
1F
100
AcDbEntity
  8
0
100
AcDbBlockReference
  2
Einlaufrost_Quadra_140x140__2
 10
-41.2170825658531
 20
56.3565672828635
 30
0.0
  0
ENDSEC
  0
SECTION
  2
OBJECTS
  0
DICTIONARY
  5
C
330
0
100
AcDbDictionary
281
     1
  3
ACAD_GROUP
350
D
  3
ACAD_LAYOUT
350
1A
  3
ACAD_MLEADERSTYLE
350
1EA
  3
ACAD_MLINESTYLE
350
17
  3
ACAD_PLOTSETTINGS
350
19
  3
ACAD_PLOTSTYLENAME
350
E
  3
ACAD_SCALELIST
350
49
  3
ACAD_VISUALSTYLE
350
2A
  3
AcDbVariableDictionary
350
1E8
  0
DICTIONARY
  5
D
102
{ACAD_REACTORS
330
C
102
}
330
C
100
AcDbDictionary
281
     1
  0
DICTIONARY
  5
1A
102
{ACAD_REACTORS
330
C
102
}
330
C
100
AcDbDictionary
281
     1
  3
Layout1
350
1E
  3
Layout2
350
26
  3
Model
350
22
  0
DICTIONARY
  5
1EA
102
{ACAD_REACTORS
330
C
102
}
330
C
100
AcDbDictionary
281
     1
  0
DICTIONARY
  5
17
102
{ACAD_REACTORS
330
C
102
}
330
C
100
AcDbDictionary
281
     1
  3
Standard
350
18
  0
DICTIONARY
  5
19
102
{ACAD_REACTORS
330
C
102
}
330
C
100
AcDbDictionary
281
     1
  0
ACDBDICTIONARYWDFLT
  5
E
102
{ACAD_REACTORS
330
C
102
}
330
C
100
AcDbDictionary
281
     1
  3
Normal
350
F
100
AcDbDictionaryWithDefault
340
F
  0
DICTIONARY
  5
49
102
{ACAD_REACTORS
330
C
102
}
330
C
100
AcDbDictionary
281
     1
  3
A0
350
4A
  3
A1
350
4B
  3
A2
350
4C
  3
A3
350
4D
  3
A4
350
4E
  3
A5
350
4F
  3
A6
350
50
  3
A7
350
51
  3
A8
350
52
  3
A9
350
53
  3
B0
350
54
  3
B1
350
55
  3
B2
350
56
  3
B3
350
57
  3
B4
350
58
  3
B5
350
59
  3
B6
350
5A
  3
B7
350
5B
  3
B8
350
5C
  3
B9
350
5D
  3
C0
350
5E
  3
C1
350
5F
  3
C2
350
60
  3
C3
350
61
  3
C4
350
62
  3
C5
350
63
  3
C6
350
64
  3
C7
350
65
  3
C8
350
66
  3
C9
350
67
  3
D0
350
68
  3
D1
350
69
  3
D2
350
6A
  0
DICTIONARY
  5
2A
102
{ACAD_REACTORS
330
C
102
}
330
C
100
AcDbDictionary
281
     1
  3
2dWireframe
350
2F
  3
3D Hidden
350
31
  3
3dWireframe
350
30
  3
Basic
350
32
  3
Brighten
350
36
  3
ColorChange
350
3A
  3
Conceptual
350
34
  3
Dim
350
35
  3
Facepattern
350
39
  3
Flat
350
2B
  3
FlatWithEdges
350
2C
  3
Gouraud
350
2D
  3
GouraudWithEdges
350
2E
  3
Linepattern
350
38
  3
Realistic
350
33
  3
Thicken
350
37
  0
DICTIONARY
  5
1E8
102
{ACAD_REACTORS
330
C
102
}
330
C
100
AcDbDictionary
281
     1
  3
CANNOSCALE
350
1EB
  0
LAYOUT
  5
1E
102
{ACAD_REACTORS
330
1A
102
}
330
1A
100
AcDbPlotSettings
  1

  2
none_device
  4

  6

 40
0.0
 41
0.0
 42
0.0
 43
0.0
 44
0.0
 45
0.0
 46
0.0
 47
0.0
 48
0.0
 49
0.0
140
0.0
141
0.0
142
1.0
143
1.0
 70
   688
 72
     0
 73
     0
 74
     5
  7

 75
    16
147
1.0
148
0.0
149
0.0
100
AcDbLayout
  1
Layout1
 70
     1
 71
     1
 10
0.0
 20
0.0
 11
12.0
 21
9.0
 12
0.0
 22
0.0
 32
0.0
 14
1.00000000000000E+20
 24
1.00000000000000E+20
 34
1.00000000000000E+20
 15
-1.00000000000000E+20
 25
-1.00000000000000E+20
 35
-1.00000000000000E+20
146
0.0
 13
0.0
 23
0.0
 33
0.0
 16
1.0
 26
0.0
 36
0.0
 17
0.0
 27
1.0
 37
0.0
 76
     0
330
1B
  0
LAYOUT
  5
26
102
{ACAD_REACTORS
330
1A
102
}
330
1A
100
AcDbPlotSettings
  1

  2
none_device
  4

  6

 40
0.0
 41
0.0
 42
0.0
 43
0.0
 44
0.0
 45
0.0
 46
0.0
 47
0.0
 48
0.0
 49
0.0
140
0.0
141
0.0
142
1.0
143
1.0
 70
   688
 72
     0
 73
     0
 74
     5
  7

 75
    16
147
1.0
148
0.0
149
0.0
100
AcDbLayout
  1
Layout2
 70
     1
 71
     2
 10
0.0
 20
0.0
 11
0.0
 21
0.0
 12
0.0
 22
0.0
 32
0.0
 14
0.0
 24
0.0
 34
0.0
 15
0.0
 25
0.0
 35
0.0
146
0.0
 13
0.0
 23
0.0
 33
0.0
 16
1.0
 26
0.0
 36
0.0
 17
0.0
 27
1.0
 37
0.0
 76
     0
330
23
  0
LAYOUT
  5
22
102
{ACAD_REACTORS
330
1A
102
}
330
1A
100
AcDbPlotSettings
  1

  2
none_device
  4

  6

 40
0.0
 41
0.0
 42
0.0
 43
0.0
 44
0.0
 45
0.0
 46
0.0
 47
0.0
 48
0.0
 49
0.0
140
0.0
141
0.0
142
1.0
143
1.0
 70
  1712
 72
     0
 73
     0
 74
     0
  7

 75
     0
147
1.0
148
0.0
149
0.0
100
AcDbLayout
  1
Model
 70
     1
 71
     0
 10
0.0
 20
0.0
 11
12.0
 21
9.0
 12
0.0
 22
0.0
 32
0.0
 14
-118.1149789361168
 24
-53.38123184001779
 34
0.0
 15
35.6808138044106
 25
132.0
 35
0.0
146
0.0
 13
0.0
 23
0.0
 33
0.0
 16
1.0
 26
0.0
 36
0.0
 17
0.0
 27
1.0
 37
0.0
 76
     0
330
1F
331
29
  0
MLINESTYLE
  5
18
102
{ACAD_REACTORS
330
17
102
}
330
17
100
AcDbMlineStyle
  2
Standard
 70
     0
  3

 62
   256
 51
90.0
 52
90.0
 71
     2
 49
0.5
 62
   256
  6
BYLAYER
 49
-0.5
 62
   256
  6
BYLAYER
  0
ACDBPLACEHOLDER
  5
F
102
{ACAD_REACTORS
330
E
102
}
330
E
  0
SCALE
  5
4A
102
{ACAD_REACTORS
330
49
102
}
330
49
100
AcDbScale
 70
     0
300
1:1
140
1.0
141
1.0
290
     1
  0
SCALE
  5
4B
102
{ACAD_REACTORS
330
49
102
}
330
49
100
AcDbScale
 70
     0
300
1:2
140
1.0
141
2.0
290
     0
  0
SCALE
  5
4C
102
{ACAD_REACTORS
330
49
102
}
330
49
100
AcDbScale
 70
     0
300
1:4
140
1.0
141
4.0
290
     0
  0
SCALE
  5
4D
102
{ACAD_REACTORS
330
49
102
}
330
49
100
AcDbScale
 70
     0
300
1:5
140
1.0
141
5.0
290
     0
  0
SCALE
  5
4E
102
{ACAD_REACTORS
330
49
102
}
330
49
100
AcDbScale
 70
     0
300
1:8
140
1.0
141
8.0
290
     0
  0
SCALE
  5
4F
102
{ACAD_REACTORS
330
49
102
}
330
49
100
AcDbScale
 70
     0
300
1:10
140
1.0
141
10.0
290
     0
  0
SCALE
  5
50
102
{ACAD_REACTORS
330
49
102
}
330
49
100
AcDbScale
 70
     0
300
1:16
140
1.0
141
16.0
290
     0
  0
SCALE
  5
51
102
{ACAD_REACTORS
330
49
102
}
330
49
100
AcDbScale
 70
     0
300
1:20
140
1.0
141
20.0
290
     0
  0
SCALE
  5
52
102
{ACAD_REACTORS
330
49
102
}
330
49
100
AcDbScale
 70
     0
300
1:30
140
1.0
141
30.0
290
     0
  0
SCALE
  5
53
102
{ACAD_REACTORS
330
49
102
}
330
49
100
AcDbScale
 70
     0
300
1:40
140
1.0
141
40.0
290
     0
  0
SCALE
  5
54
102
{ACAD_REACTORS
330
49
102
}
330
49
100
AcDbScale
 70
     0
300
1:50
140
1.0
141
50.0
290
     0
  0
SCALE
  5
55
102
{ACAD_REACTORS
330
49
102
}
330
49
100
AcDbScale
 70
     0
300
1:100
140
1.0
141
100.0
290
     0
  0
SCALE
  5
56
102
{ACAD_REACTORS
330
49
102
}
330
49
100
AcDbScale
 70
     0
300
2:1
140
2.0
141
1.0
290
     0
  0
SCALE
  5
57
102
{ACAD_REACTORS
330
49
102
}
330
49
100
AcDbScale
 70
     0
300
4:1
140
4.0
141
1.0
290
     0
  0
SCALE
  5
58
102
{ACAD_REACTORS
330
49
102
}
330
49
100
AcDbScale
 70
     0
300
8:1
140
8.0
141
1.0
290
     0
  0
SCALE
  5
59
102
{ACAD_REACTORS
330
49
102
}
330
49
100
AcDbScale
 70
     0
300
10:1
140
10.0
141
1.0
290
     0
  0
SCALE
  5
5A
102
{ACAD_REACTORS
330
49
102
}
330
49
100
AcDbScale
 70
     0
300
100:1
140
100.0
141
1.0
290
     0
  0
SCALE
  5
5B
102
{ACAD_REACTORS
330
49
102
}
330
49
100
AcDbScale
 70
     0
300
1/128" = 1'-0"
140
0.0078125
141
12.0
290
     0
  0
SCALE
  5
5C
102
{ACAD_REACTORS
330
49
102
}
330
49
100
AcDbScale
 70
     0
300
1/64" = 1'-0"
140
0.015625
141
12.0
290
     0
  0
SCALE
  5
5D
102
{ACAD_REACTORS
330
49
102
}
330
49
100
AcDbScale
 70
     0
300
1/32" = 1'-0"
140
0.03125
141
12.0
290
     0
  0
SCALE
  5
5E
102
{ACAD_REACTORS
330
49
102
}
330
49
100
AcDbScale
 70
     0
300
1/16" = 1'-0"
140
0.0625
141
12.0
290
     0
  0
SCALE
  5
5F
102
{ACAD_REACTORS
330
49
102
}
330
49
100
AcDbScale
 70
     0
300
3/32" = 1'-0"
140
0.09375
141
12.0
290
     0
  0
SCALE
  5
60
102
{ACAD_REACTORS
330
49
102
}
330
49
100
AcDbScale
 70
     0
300
1/8" = 1'-0"
140
0.125
141
12.0
290
     0
  0
SCALE
  5
61
102
{ACAD_REACTORS
330
49
102
}
330
49
100
AcDbScale
 70
     0
300
3/16" = 1'-0"
140
0.1875
141
12.0
290
     0
  0
SCALE
  5
62
102
{ACAD_REACTORS
330
49
102
}
330
49
100
AcDbScale
 70
     0
300
1/4" = 1'-0"
140
0.25
141
12.0
290
     0
  0
SCALE
  5
63
102
{ACAD_REACTORS
330
49
102
}
330
49
100
AcDbScale
 70
     0
300
3/8" = 1'-0"
140
0.375
141
12.0
290
     0
  0
SCALE
  5
64
102
{ACAD_REACTORS
330
49
102
}
330
49
100
AcDbScale
 70
     0
300
1/2" = 1'-0"
140
0.5
141
12.0
290
     0
  0
SCALE
  5
65
102
{ACAD_REACTORS
330
49
102
}
330
49
100
AcDbScale
 70
     0
300
3/4" = 1'-0"
140
0.75
141
12.0
290
     0
  0
SCALE
  5
66
102
{ACAD_REACTORS
330
49
102
}
330
49
100
AcDbScale
 70
     0
300
1" = 1'-0"
140
1.0
141
12.0
290
     0
  0
SCALE
  5
67
102
{ACAD_REACTORS
330
49
102
}
330
49
100
AcDbScale
 70
     0
300
1-1/2" = 1'-0"
140
1.5
141
12.0
290
     0
  0
SCALE
  5
68
102
{ACAD_REACTORS
330
49
102
}
330
49
100
AcDbScale
 70
     0
300
3" = 1'-0"
140
3.0
141
12.0
290
     0
  0
SCALE
  5
69
102
{ACAD_REACTORS
330
49
102
}
330
49
100
AcDbScale
 70
     0
300
6" = 1'-0"
140
6.0
141
12.0
290
     0
  0
SCALE
  5
6A
102
{ACAD_REACTORS
330
49
102
}
330
49
100
AcDbScale
 70
     0
300
1'-0" = 1'-0"
140
12.0
141
12.0
290
     0
  0
VISUALSTYLE
  5
2F
102
{ACAD_REACTORS
330
2A
102
}
330
2A
100
AcDbVisualStyle
  2
2dWireframe
 70
     4
 71
     0
 72
     2
 73
     0
 90
        0
 40
-0.6
 41
-30.0
 62
     5
 63
     7
 74
     1
 91
        4
 64
     7
 65
   257
 75
     1
175
     1
 42
1.0
 92
        0
 66
   257
 43
1.0
 76
     1
 77
     6
 78
     2
 67
     7
 79
     5
170
     0
171
     0
290
     0
174
     0
 93
        1
 44
0.0
173
     0
291
     0
 45
0.0
1001
ACAD
1000
AcDbSavedByObjectVersion
1070
     0
  0
VISUALSTYLE
  5
31
102
{ACAD_REACTORS
330
2A
102
}
330
2A
100
AcDbVisualStyle
  2
3D Hidden
 70
     6
 71
     1
 72
     2
 73
     2
 90
        0
 40
-0.6
 41
-30.0
 62
     5
 63
     7
 74
     2
 91
        2
 64
     7
 65
   257
 75
     2
175
     1
 42
40.0
 92
        0
 66
   257
 43
1.0
 76
     1
 77
     6
 78
     2
 67
     7
 79
     3
170
     0
171
     0
290
     0
174
     0
 93
        1
 44
0.0
173
     0
291
     0
 45
0.0
1001
ACAD
1000
AcDbSavedByObjectVersion
1070
     0
  0
VISUALSTYLE
  5
30
102
{ACAD_REACTORS
330
2A
102
}
330
2A
100
AcDbVisualStyle
  2
3dWireframe
 70
     5
 71
     0
 72
     2
 73
     0
 90
        0
 40
-0.6
 41
-30.0
 62
     5
 63
     7
 74
     1
 91
        4
 64
     7
 65
   257
 75
     1
175
     1
 42
1.0
 92
        0
 66
   257
 43
1.0
 76
     1
 77
     6
 78
     2
 67
     7
 79
     5
170
     0
171
     0
290
     0
174
     0
 93
        1
 44
0.0
173
     0
291
     0
 45
0.0
1001
ACAD
1000
AcDbSavedByObjectVersion
1070
     0
  0
VISUALSTYLE
  5
32
102
{ACAD_REACTORS
330
2A
102
}
330
2A
100
AcDbVisualStyle
  2
Basic
 70
     7
 71
     1
 72
     0
 73
     1
 90
        0
 40
-0.6
 41
-30.0
 62
     5
 63
     7
 74
     0
 91
        4
 64
     7
 65
   257
 75
     1
175
     1
 42
1.0
 92
        8
 66
     7
 43
1.0
 76
     1
 77
     6
 78
     2
 67
     7
 79
     5
170
     0
171
     0
290
     0
174
     0
 93
        1
 44
0.0
173
     0
291
     1
 45
0.0
1001
ACAD
1000
AcDbSavedByObjectVersion
1070
     0
  0
VISUALSTYLE
  5
36
102
{ACAD_REACTORS
330
2A
102
}
330
2A
100
AcDbVisualStyle
  2
Brighten
 70
    12
 71
     2
 72
     2
 73
     0
 90
        0
 40
-0.6
 41
-30.0
 62
     5
 63
     7
 74
     1
 91
        4
 64
     7
 65
   257
 75
     1
175
     1
 42
1.0
 92
        8
 66
     7
 43
1.0
 76
     1
 77
     6
 78
     2
 67
     7
 79
     5
170
     0
171
     0
290
     0
174
     0
 93
        1
 44
50.0
173
     0
291
     1
 45
0.0
1001
ACAD
1000
AcDbSavedByObjectVersion
1070
     0
  0
VISUALSTYLE
  5
3A
102
{ACAD_REACTORS
330
2A
102
}
330
2A
100
AcDbVisualStyle
  2
ColorChange
 70
    16
 71
     2
 72
     2
 73
     3
 90
        0
 40
-0.6
 41
-30.0
 62
     5
 63
     8
 74
     1
 91
        4
 64
     7
 65
   257
 75
     1
175
     1
 42
1.0
 92
        8
 66
     8
 43
1.0
 76
     1
 77
     6
 78
     2
 67
     7
 79
     5
170
     0
171
     0
290
     0
174
     0
 93
        1
 44
0.0
173
     0
291
     1
 45
0.0
1001
ACAD
1000
AcDbSavedByObjectVersion
1070
     0
  0
VISUALSTYLE
  5
34
102
{ACAD_REACTORS
330
2A
102
}
330
2A
100
AcDbVisualStyle
  2
Conceptual
 70
     9
 71
     3
 72
     2
 73
     0
 90
        0
 40
-0.6
 41
-30.0
 62
     5
 63
     7
 74
     2
 91
        2
 64
     7
 65
   257
 75
     1
175
     1
 42
40.0
 92
        8
 66
     7
 43
1.0
 76
     1
 77
     6
 78
     2
 67
     7
 79
     3
170
     0
171
     0
290
     0
174
     0
 93
        1
 44
0.0
173
     0
291
     0
 45
0.0
1001
ACAD
1000
AcDbSavedByObjectVersion
1070
     0
  0
VISUALSTYLE
  5
35
102
{ACAD_REACTORS
330
2A
102
}
330
2A
100
AcDbVisualStyle
  2
Dim
 70
    11
 71
     2
 72
     2
 73
     0
 90
        0
 40
-0.6
 41
-30.0
 62
     5
 63
     7
 74
     1
 91
        4
 64
     7
 65
   257
 75
     1
175
     1
 42
1.0
 92
        8
 66
     7
 43
1.0
 76
     1
 77
     6
 78
     2
 67
     7
 79
     5
170
     0
171
     0
290
     0
174
     0
 93
        1
 44
-50.0
173
     0
291
     1
 45
0.0
1001
ACAD
1000
AcDbSavedByObjectVersion
1070
     0
  0
VISUALSTYLE
  5
39
102
{ACAD_REACTORS
330
2A
102
}
330
2A
100
AcDbVisualStyle
  2
Facepattern
 70
    15
 71
     2
 72
     2
 73
     0
 90
        0
 40
-0.6
 41
-30.0
 62
     5
 63
     7
 74
     1
 91
        4
 64
     7
 65
   257
 75
     1
175
     1
 42
1.0
 92
        8
 66
     7
 43
1.0
 76
     1
 77
     6
 78
     2
 67
     7
 79
     5
170
     0
171
     0
290
     0
174
     0
 93
        1
 44
0.0
173
     0
291
     1
 45
0.0
1001
ACAD
1000
AcDbSavedByObjectVersion
1070
     0
  0
VISUALSTYLE
  5
2B
102
{ACAD_REACTORS
330
2A
102
}
330
2A
100
AcDbVisualStyle
  2
Flat
 70
     0
 71
     2
 72
     1
 73
     1
 90
        2
 40
-0.6
 41
30.0
 62
     5
 63
     7
 74
     0
 91
        4
 64
     7
 65
   257
 75
     1
175
     1
 42
1.0
 92
        8
 66
     7
 43
1.0
 76
     1
 77
     6
 78
     2
 67
     7
 79
     5
170
     0
171
     0
290
     0
174
     0
 93
       13
 44
0.0
173
     0
291
     1
 45
0.0
1001
ACAD
1000
AcDbSavedByObjectVersion
1070
     0
  0
VISUALSTYLE
  5
2C
102
{ACAD_REACTORS
330
2A
102
}
330
2A
100
AcDbVisualStyle
  2
FlatWithEdges
 70
     1
 71
     2
 72
     1
 73
     1
 90
        2
 40
-0.6
 41
30.0
 62
     5
 63
     7
 74
     1
 91
        4
 64
     7
 65
   257
 75
     1
175
     1
 42
1.0
 92
        0
 66
   257
 43
1.0
 76
     1
 77
     6
 78
     2
 67
     7
 79
     5
170
     0
171
     0
290
     0
174
     0
 93
       13
 44
0.0
173
     0
291
     1
 45
0.0
1001
ACAD
1000
AcDbSavedByObjectVersion
1070
     0
  0
VISUALSTYLE
  5
2D
102
{ACAD_REACTORS
330
2A
102
}
330
2A
100
AcDbVisualStyle
  2
Gouraud
 70
     2
 71
     2
 72
     2
 73
     1
 90
        2
 40
-0.6
 41
30.0
 62
     5
 63
     7
 74
     0
 91
        4
 64
     7
 65
   257
 75
     1
175
     1
 42
1.0
 92
        0
 66
     7
 43
1.0
 76
     1
 77
     6
 78
     2
 67
     7
 79
     5
170
     0
171
     0
290
     0
174
     0
 93
       13
 44
0.0
173
     0
291
     1
 45
0.0
1001
ACAD
1000
AcDbSavedByObjectVersion
1070
     0
  0
VISUALSTYLE
  5
2E
102
{ACAD_REACTORS
330
2A
102
}
330
2A
100
AcDbVisualStyle
  2
GouraudWithEdges
 70
     3
 71
     2
 72
     2
 73
     1
 90
        2
 40
-0.6
 41
30.0
 62
     5
 63
     7
 74
     1
 91
        4
 64
     7
 65
   257
 75
     1
175
     1
 42
1.0
 92
        0
 66
   257
 43
1.0
 76
     1
 77
     6
 78
     2
 67
     7
 79
     5
170
     0
171
     0
290
     0
174
     0
 93
       13
 44
0.0
173
     0
291
     1
 45
0.0
1001
ACAD
1000
AcDbSavedByObjectVersion
1070
     0
  0
VISUALSTYLE
  5
38
102
{ACAD_REACTORS
330
2A
102
}
330
2A
100
AcDbVisualStyle
  2
Linepattern
 70
    14
 71
     2
 72
     2
 73
     0
 90
        0
 40
-0.6
 41
-30.0
 62
     5
 63
     7
 74
     1
 91
        4
 64
     7
 65
   257
 75
     7
175
     7
 42
1.0
 92
        8
 66
     7
 43
1.0
 76
     1
 77
     6
 78
     2
 67
     7
 79
     5
170
     0
171
     0
290
     0
174
     0
 93
        1
 44
0.0
173
     0
291
     1
 45
0.0
1001
ACAD
1000
AcDbSavedByObjectVersion
1070
     0
  0
VISUALSTYLE
  5
33
102
{ACAD_REACTORS
330
2A
102
}
330
2A
100
AcDbVisualStyle
  2
Realistic
 70
     8
 71
     2
 72
     2
 73
     0
 90
        0
 40
-0.6
 41
-30.0
 62
     5
 63
     7
 74
     1
 91
        0
 64
     7
 65
   257
 75
     1
175
     1
 42
1.0
 92
        8
 66
     8
 43
1.0
 76
     1
 77
     6
 78
     2
 67
     7
 79
     5
170
     0
171
     0
290
     0
174
     0
 93
       13
 44
0.0
173
     0
291
     0
 45
0.0
1001
ACAD
1000
AcDbSavedByObjectVersion
1070
     0
  0
VISUALSTYLE
  5
37
102
{ACAD_REACTORS
330
2A
102
}
330
2A
100
AcDbVisualStyle
  2
Thicken
 70
    13
 71
     2
 72
     2
 73
     0
 90
        0
 40
-0.6
 41
-30.0
 62
     5
 63
     7
 74
     1
 91
        4
 64
     7
 65
   257
 75
     1
175
     1
 42
1.0
 92
       12
 66
     7
 43
1.0
 76
     1
 77
     6
 78
     2
 67
     7
 79
     5
170
     0
171
     0
290
     0
174
     0
 93
        1
 44
0.0
173
     0
291
     1
 45
0.0
1001
ACAD
1000
AcDbSavedByObjectVersion
1070
     0
  0
DICTIONARYVAR
  5
1EB
102
{ACAD_REACTORS
330
1E8
102
}
330
1E8
100
DictionaryVariables
280
     0
  1
1:1
  0
ENDSEC
  0
EOF
