  0
SECTION
  2
HEADER
  9
$ACADVER
  1
AC1015
  9
$ACADMAINTVER
 70
     6
  9
$DWGCODEPAGE
  3
ANSI_1252
  9
$INSBASE
 10
0.0
 20
0.0
 30
0.0
  9
$EXTMIN
 10
-478.285333486069
 20
313.7049446107558
 30
0.0
  9
$EXTMAX
 10
-228.7817062468107
 20
513.438018527703
 30
0.0
  9
$LIMMIN
 10
0.0
 20
0.0
  9
$LIMMAX
 10
12.0
 20
9.0
  9
$ORTHOMODE
 70
     0
  9
$REGENMODE
 70
     1
  9
$FILLMODE
 70
     1
  9
$QTEXTMODE
 70
     0
  9
$MIRRTEXT
 70
     1
  9
$LTSCALE
 40
1.0
  9
$ATTMODE
 70
     1
  9
$TEXTSIZE
 40
0.2
  9
$TRACEWID
 40
0.05
  9
$TEXTSTYLE
  7
Standard
  9
$CLAYER
  8
0
  9
$CELTYPE
  6
ByLayer
  9
$CECOLOR
 62
   256
  9
$CELTSCALE
 40
1.0
  9
$DISPSILH
 70
     0
  9
$DIMSCALE
 40
1.0
  9
$DIMASZ
 40
0.18
  9
$DIMEXO
 40
0.0625
  9
$DIMDLI
 40
0.38
  9
$DIMRND
 40
0.0
  9
$DIMDLE
 40
0.0
  9
$DIMEXE
 40
0.18
  9
$DIMTP
 40
0.0
  9
$DIMTM
 40
0.0
  9
$DIMTXT
 40
0.18
  9
$DIMCEN
 40
0.09
  9
$DIMTSZ
 40
0.0
  9
$DIMTOL
 70
     0
  9
$DIMLIM
 70
     0
  9
$DIMTIH
 70
     1
  9
$DIMTOH
 70
     1
  9
$DIMSE1
 70
     0
  9
$DIMSE2
 70
     0
  9
$DIMTAD
 70
     0
  9
$DIMZIN
 70
     0
  9
$DIMBLK
  1

  9
$DIMASO
 70
     1
  9
$DIMSHO
 70
     1
  9
$DIMPOST
  1

  9
$DIMAPOST
  1

  9
$DIMALT
 70
     0
  9
$DIMALTD
 70
     2
  9
$DIMALTF
 40
25.4
  9
$DIMLFAC
 40
1.0
  9
$DIMTOFL
 70
     0
  9
$DIMTVP
 40
0.0
  9
$DIMTIX
 70
     0
  9
$DIMSOXD
 70
     0
  9
$DIMSAH
 70
     0
  9
$DIMBLK1
  1

  9
$DIMBLK2
  1

  9
$DIMSTYLE
  2
Standard
  9
$DIMCLRD
 70
     0
  9
$DIMCLRE
 70
     0
  9
$DIMCLRT
 70
     0
  9
$DIMTFAC
 40
1.0
  9
$DIMGAP
 40
0.09
  9
$DIMJUST
 70
     0
  9
$DIMSD1
 70
     0
  9
$DIMSD2
 70
     0
  9
$DIMTOLJ
 70
     1
  9
$DIMTZIN
 70
     0
  9
$DIMALTZ
 70
     0
  9
$DIMALTTZ
 70
     0
  9
$DIMUPT
 70
     0
  9
$DIMDEC
 70
     4
  9
$DIMTDEC
 70
     4
  9
$DIMALTU
 70
     2
  9
$DIMALTTD
 70
     2
  9
$DIMTXSTY
  7
Standard
  9
$DIMAUNIT
 70
     0
  9
$DIMADEC
 70
     0
  9
$DIMALTRND
 40
0.0
  9
$DIMAZIN
 70
     0
  9
$DIMDSEP
 70
    46
  9
$DIMATFIT
 70
     3
  9
$DIMFRAC
 70
     0
  9
$DIMLDRBLK
  1

  9
$DIMLUNIT
 70
     2
  9
$DIMLWD
 70
    -2
  9
$DIMLWE
 70
    -2
  9
$DIMTMOVE
 70
     0
  9
$LUNITS
 70
     2
  9
$LUPREC
 70
     4
  9
$SKETCHINC
 40
0.1
  9
$FILLETRAD
 40
0.5
  9
$AUNITS
 70
     0
  9
$AUPREC
 70
     0
  9
$MENU
  1
.
  9
$ELEVATION
 40
0.0
  9
$PELEVATION
 40
0.0
  9
$THICKNESS
 40
0.0
  9
$LIMCHECK
 70
     0
  9
$CHAMFERA
 40
0.5
  9
$CHAMFERB
 40
0.5
  9
$CHAMFERC
 40
1.0
  9
$CHAMFERD
 40
0.0
  9
$SKPOLY
 70
     0
  9
$TDCREATE
 40
2455624.422451516
  9
$TDUCREATE
 40
2455624.38078485
  9
$TDUPDATE
 40
2455624.422451528
  9
$TDUUPDATE
 40
2455624.380784861
  9
$TDINDWG
 40
0.0000000116
  9
$TDUSRTIMER
 40
0.0000000116
  9
$USRTIMER
 70
     1
  9
$ANGBASE
 50
0.0
  9
$ANGDIR
 70
     0
  9
$PDMODE
 70
     0
  9
$PDSIZE
 40
0.0
  9
$PLINEWID
 40
0.0
  9
$SPLFRAME
 70
     0
  9
$SPLINETYPE
 70
     6
  9
$SPLINESEGS
 70
     8
  9
$HANDSEED
  5
275
  9
$SURFTAB1
 70
     6
  9
$SURFTAB2
 70
     6
  9
$SURFTYPE
 70
     6
  9
$SURFU
 70
     6
  9
$SURFV
 70
     6
  9
$UCSBASE
  2

  9
$UCSNAME
  2

  9
$UCSORG
 10
0.0
 20
0.0
 30
0.0
  9
$UCSXDIR
 10
1.0
 20
0.0
 30
0.0
  9
$UCSYDIR
 10
0.0
 20
1.0
 30
0.0
  9
$UCSORTHOREF
  2

  9
$UCSORTHOVIEW
 70
     0
  9
$UCSORGTOP
 10
0.0
 20
0.0
 30
0.0
  9
$UCSORGBOTTOM
 10
0.0
 20
0.0
 30
0.0
  9
$UCSORGLEFT
 10
0.0
 20
0.0
 30
0.0
  9
$UCSORGRIGHT
 10
0.0
 20
0.0
 30
0.0
  9
$UCSORGFRONT
 10
0.0
 20
0.0
 30
0.0
  9
$UCSORGBACK
 10
0.0
 20
0.0
 30
0.0
  9
$PUCSBASE
  2

  9
$PUCSNAME
  2

  9
$PUCSORG
 10
0.0
 20
0.0
 30
0.0
  9
$PUCSXDIR
 10
1.0
 20
0.0
 30
0.0
  9
$PUCSYDIR
 10
0.0
 20
1.0
 30
0.0
  9
$PUCSORTHOREF
  2

  9
$PUCSORTHOVIEW
 70
     0
  9
$PUCSORGTOP
 10
0.0
 20
0.0
 30
0.0
  9
$PUCSORGBOTTOM
 10
0.0
 20
0.0
 30
0.0
  9
$PUCSORGLEFT
 10
0.0
 20
0.0
 30
0.0
  9
$PUCSORGRIGHT
 10
0.0
 20
0.0
 30
0.0
  9
$PUCSORGFRONT
 10
0.0
 20
0.0
 30
0.0
  9
$PUCSORGBACK
 10
0.0
 20
0.0
 30
0.0
  9
$USERI1
 70
     0
  9
$USERI2
 70
     0
  9
$USERI3
 70
     0
  9
$USERI4
 70
     0
  9
$USERI5
 70
     0
  9
$USERR1
 40
16.5
  9
$USERR2
 40
0.0
  9
$USERR3
 40
0.0
  9
$USERR4
 40
0.0
  9
$USERR5
 40
0.0
  9
$WORLDVIEW
 70
     1
  9
$SHADEDGE
 70
     3
  9
$SHADEDIF
 70
    70
  9
$TILEMODE
 70
     1
  9
$MAXACTVP
 70
    64
  9
$PINSBASE
 10
0.0
 20
0.0
 30
0.0
  9
$PLIMCHECK
 70
     0
  9
$PEXTMIN
 10
1.00000000000000E+20
 20
1.00000000000000E+20
 30
1.00000000000000E+20
  9
$PEXTMAX
 10
-1.00000000000000E+20
 20
-1.00000000000000E+20
 30
-1.00000000000000E+20
  9
$PLIMMIN
 10
0.0
 20
0.0
  9
$PLIMMAX
 10
12.0
 20
9.0
  9
$UNITMODE
 70
     0
  9
$VISRETAIN
 70
     1
  9
$PLINEGEN
 70
     0
  9
$PSLTSCALE
 70
     1
  9
$TREEDEPTH
 70
  3020
  9
$CMLSTYLE
  2
Standard
  9
$CMLJUST
 70
     0
  9
$CMLSCALE
 40
1.0
  9
$PROXYGRAPHICS
 70
     1
  9
$MEASUREMENT
 70
     1
  9
$CELWEIGHT
370
    -1
  9
$ENDCAPS
280
     0
  9
$JOINSTYLE
280
     0
  9
$LWDISPLAY
290
     0
  9
$INSUNITS
 70
     1
  9
$HYPERLINKBASE
  1

  9
$STYLESHEET
  1

  9
$XEDIT
290
     1
  9
$CEPSNTYPE
380
     0
  9
$PSTYLEMODE
290
     1
  9
$FINGERPRINTGUID
  2
{08B84D3E-E253-4190-A4F0-51608F2FF15C}
  9
$VERSIONGUID
  2
{FAEB1C32-E019-11D5-929B-00C0DF256EC4}
  9
$EXTNAMES
290
     1
  9
$PSVPSCALE
 40
0.0
  9
$OLESTARTUP
290
     0
  0
ENDSEC
  0
SECTION
  2
CLASSES
  0
CLASS
  1
ACDBDICTIONARYWDFLT
  2
AcDbDictionaryWithDefault
  3
ObjectDBX Classes
 90
        0
280
     0
281
     0
  0
CLASS
  1
VISUALSTYLE
  2
AcDbVisualStyle
  3
ObjectDBX Classes
 90
     4095
280
     0
281
     0
  0
CLASS
  1
SCALE
  2
AcDbScale
  3
ObjectDBX Classes
 90
     1153
280
     0
281
     0
  0
CLASS
  1

  2
exOdDbCircle
  3

 90
        0
280
     0
281
     1
  0
CLASS
  1

  2
exOdDbSpline
  3

 90
        0
280
     0
281
     1
  0
CLASS
  1
DICTIONARYVAR
  2
AcDbDictionaryVar
  3
ObjectDBX Classes
 90
        0
280
     0
281
     0
  0
CLASS
  1
ACDBPLACEHOLDER
  2
AcDbPlaceHolder
  3
ObjectDBX Classes
 90
        0
280
     0
281
     0
  0
CLASS
  1
LAYOUT
  2
AcDbLayout
  3
ObjectDBX Classes
 90
        0
280
     0
281
     0
  0
ENDSEC
  0
SECTION
  2
TABLES
  0
TABLE
  2
VPORT
  5
8
330
0
100
AcDbSymbolTable
 70
     1
  0
VPORT
  5
29
330
8
100
AcDbSymbolTableRecord
100
AcDbViewportTableRecord
  2
*Active
 70
     0
 10
0.0
 20
0.0
 11
1.0
 21
1.0
 12
-353.5335198664399
 22
413.5714815692294
 13
0.0
 23
0.0
 14
0.5
 24
0.5
 15
0.5
 25
0.5
 16
0.0
 26
0.0
 36
1.0
 17
0.0
 27
0.0
 37
0.0
 40
219.7063813086419
 41
1.60267857142857
 42
50.0
 43
0.0
 44
0.0
 50
0.0
 51
0.0
 71
     0
 72
   100
 73
     1
 74
     3
 75
     0
 76
     0
 77
     0
 78
     0
281
     0
 65
     1
110
0.0
120
0.0
130
0.0
111
1.0
121
0.0
131
0.0
112
0.0
122
1.0
132
0.0
 79
     0
146
0.0
  0
ENDTAB
  0
TABLE
  2
LTYPE
  5
5
330
0
100
AcDbSymbolTable
 70
     8
  0
LTYPE
  5
14
330
5
100
AcDbSymbolTableRecord
100
AcDbLinetypeTableRecord
  2
ByBlock
 70
     0
  3

 72
    65
 73
     0
 40
0.0
  0
LTYPE
  5
15
330
5
100
AcDbSymbolTableRecord
100
AcDbLinetypeTableRecord
  2
ByLayer
 70
     0
  3

 72
    65
 73
     0
 40
0.0
  0
LTYPE
  5
16
330
5
100
AcDbSymbolTableRecord
100
AcDbLinetypeTableRecord
  2
Continuous
 70
     0
  3
Solid line
 72
    65
 73
     0
 40
0.0
  0
LTYPE
  5
3B
330
5
100
AcDbSymbolTableRecord
100
AcDbLinetypeTableRecord
  2
DASHED
 70
     0
  3
Dashed
 72
    65
 73
     2
 40
15.0
 49
7.0
 74
     0
 49
-8.0
 74
     0
  0
LTYPE
  5
3C
330
5
100
AcDbSymbolTableRecord
100
AcDbLinetypeTableRecord
  2
DOTTED
 70
     0
  3
Dotted
 72
    65
 73
     2
 40
1.0
 49
0.0
 74
     0
 49
-1.0
 74
     0
  0
LTYPE
  5
3D
330
5
100
AcDbSymbolTableRecord
100
AcDbLinetypeTableRecord
  2
DOT_CENTER
 70
     0
  3
Dot_Center
 72
    65
 73
     4
 40
14.0
 49
12.0
 74
     0
 49
-1.0
 74
     0
 49
0.0
 74
     0
 49
-1.0
 74
     0
  0
LTYPE
  5
3E
330
5
100
AcDbSymbolTableRecord
100
AcDbLinetypeTableRecord
  2
LONG_DASHED
 70
     0
  3
Long_Dashed
 72
    65
 73
     2
 40
15.0
 49
10.0
 74
     0
 49
-5.0
 74
     0
  0
LTYPE
  5
3F
330
5
100
AcDbSymbolTableRecord
100
AcDbLinetypeTableRecord
  2
DASH_CENTER
 70
     0
  3
Dash_Center
 72
    65
 73
     4
 40
14.0
 49
11.0
 74
     0
 49
-1.0
 74
     0
 49
1.0
 74
     0
 49
-1.0
 74
     0
  0
LTYPE
  5
40
330
5
100
AcDbSymbolTableRecord
100
AcDbLinetypeTableRecord
  2
PHANTOM
 70
     0
  3
Phantom
 72
    65
 73
     6
 40
13.0
 49
10.0
 74
     0
 49
-1.0
 74
     0
 49
0.0
 74
     0
 49
-1.0
 74
     0
 49
0.0
 74
     0
 49
-1.0
 74
     0
  0
LTYPE
  5
41
330
5
100
AcDbSymbolTableRecord
100
AcDbLinetypeTableRecord
  2
CENTER_DASH_DASH
 70
     0
  3
Center_Dash_Dash
 72
    65
 73
     6
 40
14.0
 49
9.0
 74
     0
 49
-1.0
 74
     0
 49
1.0
 74
     0
 49
-1.0
 74
     0
 49
1.0
 74
     0
 49
-1.0
 74
     0
  0
ENDTAB
  0
TABLE
  2
LAYER
  5
2
330
0
100
AcDbSymbolTable
 70
     2
  0
LAYER
  5
10
330
2
100
AcDbSymbolTableRecord
100
AcDbLayerTableRecord
  2
0
 70
     0
 62
     7
  6
Continuous
370
    -3
390
F
  0
LAYER
  5
42
330
2
100
AcDbSymbolTableRecord
100
AcDbLayerTableRecord
  2
1
 70
     0
 62
     7
  6
Continuous
370
    -3
390
F
  0
ENDTAB
  0
TABLE
  2
STYLE
  5
3
330
0
100
AcDbSymbolTable
 70
     2
  0
STYLE
  5
11
330
3
100
AcDbSymbolTableRecord
100
AcDbTextStyleTableRecord
  2
Standard
 70
     0
 40
0.0
 41
1.0
 50
0.0
 71
     0
 42
0.2
  3
txt
  4

  0
STYLE
  5
1CC
330
3
100
AcDbSymbolTableRecord
100
AcDbTextStyleTableRecord
  2
CONVERTER_11
 70
     0
 40
0.0
 41
0.9
 50
0.0
 71
     0
 42
0.2
  3
txt.shx
  4

  0
ENDTAB
  0
TABLE
  2
VIEW
  5
6
330
0
100
AcDbSymbolTable
 70
     0
  0
ENDTAB
  0
TABLE
  2
UCS
  5
7
330
0
100
AcDbSymbolTable
 70
     0
  0
ENDTAB
  0
TABLE
  2
APPID
  5
9
330
0
100
AcDbSymbolTable
 70
     1
  0
APPID
  5
12
330
9
100
AcDbSymbolTableRecord
100
AcDbRegAppTableRecord
  2
ACAD
 70
     0
  0
ENDTAB
  0
TABLE
  2
DIMSTYLE
  5
A
330
0
100
AcDbSymbolTable
 70
     3
100
AcDbDimStyleTable
  0
DIMSTYLE
105
27
330
A
100
AcDbSymbolTableRecord
100
AcDbDimStyleTableRecord
  2
Standard
 70
     0
340
11
  0
DIMSTYLE
105
1D7
102
{ACAD_REACTORS
330
1D8
102
}
330
A
100
AcDbSymbolTableRecord
100
AcDbDimStyleTableRecord
  2
ME10_DIM_10
 70
     0
 41
7.0
 42
0.0
 44
2.0
 73
     0
 74
     0
 77
     1
 78
     8
140
7.0
147
2.0
172
     1
173
     1
176
     4
177
     4
178
     1
271
     2
340
1CC
  0
DIMSTYLE
105
1E2
102
{ACAD_REACTORS
330
1E3
102
}
330
A
100
AcDbSymbolTableRecord
100
AcDbDimStyleTableRecord
  2
ME10_DIM_11
 70
     0
 41
7.0
 42
0.0
 44
2.0
 73
     0
 74
     0
 77
     1
 78
     8
140
7.0
147
2.0
172
     1
173
     1
176
     4
177
     4
178
     1
271
     2
340
1CC
  0
ENDTAB
  0
TABLE
  2
BLOCK_RECORD
  5
1
330
0
100
AcDbSymbolTable
 70
    15
  0
BLOCK_RECORD
  5
1F
330
1
100
AcDbSymbolTableRecord
100
AcDbBlockTableRecord
  2
*Model_Space
340
22
  0
BLOCK_RECORD
  5
1B
330
1
100
AcDbSymbolTableRecord
100
AcDbBlockTableRecord
  2
*Paper_Space
340
1E
  0
BLOCK_RECORD
  5
23
330
1
100
AcDbSymbolTableRecord
100
AcDbBlockTableRecord
  2
*Paper_Space0
340
26
  0
BLOCK_RECORD
  5
43
330
1
100
AcDbSymbolTableRecord
100
AcDbBlockTableRecord
  2
Bolzen-395902442__1
340
0
102
{BLKREFS
331
72
102
}
  0
BLOCK_RECORD
  5
46
330
1
100
AcDbSymbolTableRecord
100
AcDbBlockTableRecord
  2
Dichtung-330052440__2
340
0
102
{BLKREFS
331
73
102
}
  0
BLOCK_RECORD
  5
49
330
1
100
AcDbSymbolTableRecord
100
AcDbBlockTableRecord
  2
Edelstahlklappe-gekoernt__3
340
0
102
{BLKREFS
331
74
102
}
  0
BLOCK_RECORD
  5
4C
330
1
100
AcDbSymbolTableRecord
100
AcDbBlockTableRecord
  2
Klappeneinschub-309022433__4
340
0
102
{BLKREFS
331
75
102
}
  0
BLOCK_RECORD
  5
4F
330
1
100
AcDbSymbolTableRecord
100
AcDbBlockTableRecord
  2
BG-0710_1VE__5
340
0
102
{BLKREFS
331
79
102
}
  0
BLOCK_RECORD
  5
78
330
1
100
AcDbSymbolTableRecord
100
AcDbBlockTableRecord
  2
Vordans2
340
0
102
{BLKREFS
331
93
102
}
  0
BLOCK_RECORD
  5
7C
330
1
100
AcDbSymbolTableRecord
100
AcDbBlockTableRecord
  2
Bolzen-395902442__6
340
0
102
{BLKREFS
331
89
102
}
  0
BLOCK_RECORD
  5
7F
330
1
100
AcDbSymbolTableRecord
100
AcDbBlockTableRecord
  2
Edelstahlklappe-gekoernt__7
340
0
102
{BLKREFS
331
8A
102
}
  0
BLOCK_RECORD
  5
82
330
1
100
AcDbSymbolTableRecord
100
AcDbBlockTableRecord
  2
Klappeneinschub-309022433__8
340
0
102
{BLKREFS
331
8B
102
}
  0
BLOCK_RECORD
  5
85
330
1
100
AcDbSymbolTableRecord
100
AcDbBlockTableRecord
  2
Dichtung-330052440__9
340
0
102
{BLKREFS
331
8C
102
}
  0
BLOCK_RECORD
  5
88
330
1
100
AcDbSymbolTableRecord
100
AcDbBlockTableRecord
  2
BG-0710_1VE__10
340
0
102
{BLKREFS
331
90
102
}
  0
BLOCK_RECORD
  5
8F
330
1
100
AcDbSymbolTableRecord
100
AcDbBlockTableRecord
  2
SA_Links2
340
0
102
{BLKREFS
331
94
102
}
  0
BLOCK_RECORD
  5
1CE
330
1
100
AcDbSymbolTableRecord
100
AcDbBlockTableRecord
  2
*D13
340
0
  0
BLOCK_RECORD
  5
1D9
330
1
100
AcDbSymbolTableRecord
100
AcDbBlockTableRecord
  2
*D14
340
0
  0
ENDTAB
  0
ENDSEC
  0
SECTION
  2
BLOCKS
  0
BLOCK
  5
20
330
1F
100
AcDbEntity
  8
0
100
AcDbBlockBegin
  2
*Model_Space
 70
     0
 10
0.0
 20
0.0
 30
0.0
  3
*Model_Space
  1

  0
ENDBLK
  5
21
330
1F
100
AcDbEntity
  8
0
100
AcDbBlockEnd
  0
BLOCK
  5
1C
330
1B
100
AcDbEntity
 67
     1
  8
0
100
AcDbBlockBegin
  2
*Paper_Space
 70
     0
 10
0.0
 20
0.0
 30
0.0
  3
*Paper_Space
  1

  0
ENDBLK
  5
1D
330
1B
100
AcDbEntity
 67
     1
  8
0
100
AcDbBlockEnd
  0
BLOCK
  5
24
330
23
100
AcDbEntity
  8
0
100
AcDbBlockBegin
  2
*Paper_Space0
 70
     0
 10
0.0
 20
0.0
 30
0.0
  3
*Paper_Space0
  1

  0
ENDBLK
  5
25
330
23
100
AcDbEntity
  8
0
100
AcDbBlockEnd
  0
BLOCK
  5
44
330
43
100
AcDbEntity
  8
0
100
AcDbBlockBegin
  2
Bolzen-395902442__1
 70
     0
 10
-429.9999999999928
 20
480.0449446109119
 30
0.0
  3
Bolzen-395902442__1
  1

  0
LINE
  5
95
330
43
100
AcDbEntity
  8
0
  6
Continuous
 62
     7
100
AcDbLine
 10
-412.9999999999874
 20
488.0449446109119
 30
0.0
 11
-380.9999999999874
 21
488.0449446109119
 31
0.0
  0
LINE
  5
96
330
43
100
AcDbEntity
  8
0
  6
Continuous
 62
     7
100
AcDbLine
 10
-364.9999999999875
 20
488.0449446109119
 30
0.0
 11
-363.9999999999923
 21
488.0449446109119
 31
0.0
  0
LINE
  5
97
330
43
100
AcDbEntity
  8
0
  6
Continuous
 62
     7
100
AcDbLine
 10
-429.9999999999923
 20
488.0449446109119
 30
0.0
 11
-428.9999999999875
 21
488.0449446109119
 31
0.0
  0
LINE
  5
98
330
43
100
AcDbEntity
  8
0
  6
Continuous
 62
     7
100
AcDbLine
 10
-429.9999999999928
 20
480.0449446109119
 30
0.0
 11
-428.9999999999875
 21
480.0449446109119
 31
0.0
  0
LINE
  5
99
330
43
100
AcDbEntity
  8
0
  6
Continuous
 62
     7
100
AcDbLine
 10
-412.3216373532364
 20
480.0449446109119
 30
0.0
 11
-381.6783626467389
 21
480.0449446109119
 31
0.0
  0
LINE
  5
9A
330
43
100
AcDbEntity
  8
0
  6
Continuous
 62
     7
100
AcDbLine
 10
-364.9999999999875
 20
480.0449446109119
 30
0.0
 11
-363.9999999999927
 21
480.0449446109119
 31
0.0
  0
LINE
  5
9B
330
43
100
AcDbEntity
  8
1
  6
DOT_CENTER
 62
     2
100
AcDbLine
 10
-429.9999999999928
 20
484.0449446109119
 30
0.0
 11
-363.9999999999923
 21
484.0449446109119
 31
0.0
  0
ENDBLK
  5
45
330
43
100
AcDbEntity
  8
0
100
AcDbBlockEnd
  0
BLOCK
  5
47
330
46
100
AcDbEntity
  8
0
100
AcDbBlockBegin
  2
Dichtung-330052440__2
 70
     0
 10
-469.2499999999933
 20
325.9549446109109
 30
0.0
  3
Dichtung-330052440__2
  1

  0
ARC
  5
9C
330
46
100
AcDbEntity
  8
0
  6
Continuous
 62
     7
100
AcDbCircle
 10
-396.9999999999929
 20
398.2049446109108
 30
0.0
 40
72.25
100
AcDbArc
 50
0.0
 51
63.8872875365296
  0
ARC
  5
9D
330
46
100
AcDbEntity
  8
0
  6
Continuous
 62
     7
100
AcDbCircle
 10
-396.9999999999929
 20
398.2049446109108
 30
0.0
 40
69.3399842252743
100
AcDbArc
 50
117.2974402042637
 51
0.0
  0
ARC
  5
9E
330
46
100
AcDbEntity
  8
0
  6
Continuous
 62
     7
100
AcDbCircle
 10
-396.9999999999929
 20
398.2049446109108
 30
0.0
 40
72.25
100
AcDbArc
 50
180.0
 51
0.0
  0
ARC
  5
9F
330
46
100
AcDbEntity
  8
0
  6
Continuous
 62
     7
100
AcDbCircle
 10
-396.9999999999929
 20
398.2049446109108
 30
0.0
 40
72.25000000000036
100
AcDbArc
 50
116.1127124634737
 51
180.0
  0
ARC
  5
A0
330
46
100
AcDbEntity
  8
0
  6
Continuous
 62
     7
100
AcDbCircle
 10
-396.9999999999929
 20
398.2049446109108
 30
0.0
 40
69.33998422527418
100
AcDbArc
 50
0.0
 51
62.7025597957399
  0
CIRCLE
  5
A1
330
46
100
AcDbEntity
  8
0
  6
Continuous
 62
     7
100
AcDbCircle
 10
-396.9999999999929
 20
398.2049446109108
 30
0.0
 40
64.2999999999999
  0
ENDBLK
  5
48
330
46
100
AcDbEntity
  8
0
100
AcDbBlockEnd
  0
BLOCK
  5
4A
330
49
100
AcDbEntity
  8
0
100
AcDbBlockBegin
  2
Edelstahlklappe-gekoernt__3
 70
     0
 10
-462.9999999999934
 20
332.2049446109114
 30
0.0
  3
Edelstahlklappe-gekoernt__3
  1

  0
LINE
  5
A2
330
49
100
AcDbEntity
  8
0
  6
Continuous
 62
     7
100
AcDbLine
 10
-380.9999999999878
 20
488.9449446109119
 30
0.0
 11
-364.9999999999879
 21
488.9449446109119
 31
0.0
  0
LINE
  5
A3
330
49
100
AcDbEntity
  8
0
  6
Continuous
 62
     7
100
AcDbLine
 10
-380.9999999999878
 20
488.9449446109119
 30
0.0
 11
-380.9999999999874
 21
488.0449446109119
 31
0.0
  0
LINE
  5
A4
330
49
100
AcDbEntity
  8
0
  6
Continuous
 62
     7
100
AcDbLine
 10
-380.9999999999874
 20
488.0449446109119
 30
0.0
 11
-380.9999999999877
 21
485.6078452264724
 31
0.0
  0
LINE
  5
A5
330
49
100
AcDbEntity
  8
0
  6
Continuous
 62
     7
100
AcDbLine
 10
-428.9999999999877
 20
485.6078452264725
 30
0.0
 11
-428.9999999999879
 21
488.9449446109119
 31
0.0
  0
LINE
  5
A6
330
49
100
AcDbEntity
  8
0
  6
Continuous
 62
     3
100
AcDbLine
 10
-426.732233041153
 20
421.3537979844002
 30
0.0
 11
-431.5958510209928
 21
416.1529997192167
 31
0.0
  0
LINE
  5
A7
330
49
100
AcDbEntity
  8
0
  6
Continuous
 62
     7
100
AcDbLine
 10
-428.7999999999947
 20
458.5938715760426
 30
0.0
 11
-428.7999999999951
 21
469.3499156109119
 31
0.0
  0
LINE
  5
A8
330
49
100
AcDbEntity
  8
0
  6
Continuous
 62
     7
100
AcDbLine
 10
-428.7999999999951
 20
469.3499156109119
 30
0.0
 11
-428.7999999999951
 21
470.8962729913366
 31
0.0
  0
LINE
  5
A9
330
49
100
AcDbEntity
  8
0
  6
Continuous
 62
     7
100
AcDbLine
 10
-428.7999999999944
 20
456.0388447041954
 30
0.0
 11
-428.7999999999947
 21
458.5938715760426
 31
0.0
  0
LINE
  5
AA
330
49
100
AcDbEntity
  8
0
  6
Continuous
 62
     7
100
AcDbLine
 10
-428.7999999999944
 20
455.1814529279355
 30
0.0
 11
-428.7999999999944
 21
456.0388447041954
 31
0.0
  0
LINE
  5
AB
330
49
100
AcDbEntity
  8
0
  6
Continuous
 62
     7
100
AcDbLine
 10
-428.9999999999877
 20
474.922741202326
 30
0.0
 11
-428.9999999999877
 21
469.3499156109119
 31
0.0
  0
LINE
  5
AC
330
49
100
AcDbEntity
  8
0
  6
Continuous
 62
     7
100
AcDbLine
 10
-428.7999999999951
 20
469.3499156109119
 30
0.0
 11
-428.9999999999877
 21
469.3499156109119
 31
0.0
  0
LINE
  5
AD
330
49
100
AcDbEntity
  8
0
  6
Continuous
 62
     7
100
AcDbLine
 10
-428.9999999999877
 20
474.922741202326
 30
0.0
 11
-428.9999999999875
 21
480.0449446109119
 31
0.0
  0
LINE
  5
AE
330
49
100
AcDbEntity
  8
0
  6
Continuous
 62
     3
100
AcDbLine
 10
-432.2999999999945
 20
453.9715116560503
 30
0.0
 11
-432.2999999999945
 21
453.0818295443689
 31
0.0
  0
LINE
  5
AF
330
49
100
AcDbEntity
  8
0
  6
Continuous
 62
     7
100
AcDbLine
 10
-428.9999999999875
 20
480.0449446109119
 30
0.0
 11
-428.9999999999877
 21
485.6078452264725
 31
0.0
  0
LINE
  5
B0
330
49
100
AcDbEntity
  8
0
  6
Continuous
 62
     7
100
AcDbLine
 10
-364.9999999999878
 20
485.6078452264724
 30
0.0
 11
-364.9999999999879
 21
488.9449446109119
 31
0.0
  0
LINE
  5
B1
330
49
100
AcDbEntity
  8
0
  6
Continuous
 62
     3
100
AcDbLine
 10
-380.9999999999877
 20
485.6078452264724
 30
0.0
 11
-364.9999999999878
 21
485.6078452264724
 31
0.0
  0
LINE
  5
B2
330
49
100
AcDbEntity
  8
0
  6
Continuous
 62
     7
100
AcDbLine
 10
-380.9999999999877
 20
485.6078452264724
 30
0.0
 11
-380.9999999999877
 21
481.9449446109119
 31
0.0
  0
LINE
  5
B3
330
49
100
AcDbEntity
  8
0
  6
Continuous
 62
     7
100
AcDbLine
 10
-364.9999999999875
 20
480.0449446109119
 30
0.0
 11
-364.9999999999878
 21
485.6078452264724
 31
0.0
  0
LINE
  5
B4
330
49
100
AcDbEntity
  8
0
  6
Continuous
 62
     7
100
AcDbLine
 10
-364.9999999999877
 20
474.9227412023259
 30
0.0
 11
-364.9999999999875
 21
480.0449446109119
 31
0.0
  0
LINE
  5
B5
330
49
100
AcDbEntity
  8
0
  6
Continuous
 62
     7
100
AcDbLine
 10
-428.9999999999879
 20
488.9449446109119
 30
0.0
 11
-412.9999999999878
 21
488.9449446109119
 31
0.0
  0
LINE
  5
B6
330
49
100
AcDbEntity
  8
0
  6
Continuous
 62
     3
100
AcDbLine
 10
-428.9999999999877
 20
485.6078452264725
 30
0.0
 11
-412.9999999999878
 21
485.6078452264725
 31
0.0
  0
LINE
  5
B7
330
49
100
AcDbEntity
  8
0
  6
Continuous
 62
     7
100
AcDbLine
 10
-412.9999999999874
 20
488.0449446109119
 30
0.0
 11
-412.9999999999878
 21
485.6078452264725
 31
0.0
  0
LINE
  5
B8
330
49
100
AcDbEntity
  8
0
  6
Continuous
 62
     7
100
AcDbLine
 10
-412.9999999999878
 20
488.9449446109119
 30
0.0
 11
-412.9999999999874
 21
488.0449446109119
 31
0.0
  0
LINE
  5
B9
330
49
100
AcDbEntity
  8
0
  6
Continuous
 62
     7
100
AcDbLine
 10
-364.9999999999877
 20
469.3499156109119
 30
0.0
 11
-365.1999999999951
 21
469.3499156109119
 31
0.0
  0
LINE
  5
BA
330
49
100
AcDbEntity
  8
0
  6
Continuous
 62
     7
100
AcDbLine
 10
-364.9999999999877
 20
469.3499156109119
 30
0.0
 11
-364.9999999999877
 21
474.9227412023259
 31
0.0
  0
LINE
  5
BB
330
49
100
AcDbEntity
  8
0
  6
Continuous
 62
     7
100
AcDbLine
 10
-365.1999999999948
 20
458.5938715760445
 30
0.0
 11
-365.1999999999951
 21
469.3499156109119
 31
0.0
  0
LINE
  5
BC
330
49
100
AcDbEntity
  8
0
  6
Continuous
 62
     7
100
AcDbLine
 10
-365.1999999999951
 20
469.3499156109119
 30
0.0
 11
-365.1999999999951
 21
470.8962729913365
 31
0.0
  0
LINE
  5
BD
330
49
100
AcDbEntity
  8
0
  6
Continuous
 62
     7
100
AcDbLine
 10
-365.1999999999967
 20
456.0388447041974
 30
0.0
 11
-365.1999999999948
 21
458.5938715760445
 31
0.0
  0
LINE
  5
BE
330
49
100
AcDbEntity
  8
0
  6
Continuous
 62
     3
100
AcDbLine
 10
-361.6999999999966
 20
453.081829544372
 30
0.0
 11
-361.6999999999966
 21
453.9715116560534
 31
0.0
  0
LINE
  5
BF
330
49
100
AcDbEntity
  8
0
  6
Continuous
 62
     7
100
AcDbLine
 10
-365.1999999999966
 20
455.1814529279375
 30
0.0
 11
-365.1999999999967
 21
456.0388447041974
 31
0.0
  0
LINE
  5
C0
330
49
100
AcDbEntity
  8
0
  6
Continuous
 62
     3
100
AcDbLine
 10
-367.2677669588263
 20
421.3537979843944
 30
0.0
 11
-362.4041489789932
 21
416.1529997192185
 31
0.0
  0
LINE
  5
C1
330
49
100
AcDbEntity
  8
0
  6
Continuous
 62
     7
100
AcDbLine
 10
-412.9999999999878
 20
485.6078452264725
 30
0.0
 11
-412.9999999999877
 21
481.9449446109119
 31
0.0
  0
LINE
  5
C2
330
49
100
AcDbEntity
  8
0
  6
Continuous
 62
     7
100
AcDbLine
 10
-383.9999999999877
 20
478.9449446109119
 30
0.0
 11
-409.9999999999877
 21
478.9449446109119
 31
0.0
  0
LINE
  5
C3
330
49
100
AcDbEntity
  8
0
  6
Continuous
 62
     7
100
AcDbLine
 10
-428.7999999999951
 20
470.8962729913366
 30
0.0
 11
-365.1999999999951
 21
470.8962729913365
 31
0.0
  0
LINE
  5
C4
330
49
100
AcDbEntity
  8
0
  6
Continuous
 62
     7
100
AcDbLine
 10
-379.7170370868493
 20
436.3374300591904
 30
0.0
 11
-379.7170370868492
 21
435.0662767873512
 31
0.0
  0
LINE
  5
C5
330
49
100
AcDbEntity
  8
0
  6
Continuous
 62
     3
100
AcDbLine
 10
-383.1667784966201
 20
435.7262223928363
 30
0.0
 11
-410.8332215033673
 21
435.7262223928354
 31
0.0
  0
LINE
  5
C6
330
49
100
AcDbEntity
  8
0
  6
Continuous
 62
     3
100
AcDbLine
 10
-382.2768350614938
 20
433.0474277751628
 30
0.0
 11
-383.8256242234321
 21
434.3120088304632
 31
0.0
  0
LINE
  5
C7
330
49
100
AcDbEntity
  8
0
  6
Continuous
 62
     3
100
AcDbLine
 10
-410.1743757765553
 20
434.3120088304623
 30
0.0
 11
-411.7231649384936
 21
433.0474277751618
 31
0.0
  0
LINE
  5
C8
330
49
100
AcDbEntity
  8
0
  6
Continuous
 62
     3
100
AcDbLine
 10
-383.8256242234321
 20
434.3120088304632
 30
0.0
 11
-410.1743757765553
 21
434.3120088304623
 31
0.0
  0
LINE
  5
C9
330
49
100
AcDbEntity
  8
0
  6
Continuous
 62
     3
100
AcDbLine
 10
-379.7170370868492
 20
435.0662767873512
 30
0.0
 11
-380.2868795092978
 21
435.531551176948
 31
0.0
  0
LINE
  5
CA
330
49
100
AcDbEntity
  8
0
  6
Continuous
 62
     3
100
AcDbLine
 10
-379.7170370868493
 20
436.3374300591904
 30
0.0
 11
-380.2868795092978
 21
435.531551176948
 31
0.0
  0
LINE
  5
CB
330
49
100
AcDbEntity
  8
0
  6
Continuous
 62
     3
100
AcDbLine
 10
-381.2519639308976
 20
438.4341791211109
 30
0.0
 11
-383.1667784966201
 21
435.7262223928363
 31
0.0
  0
LINE
  5
CC
330
49
100
AcDbEntity
  8
0
  6
Continuous
 62
     7
100
AcDbLine
 10
-412.7480360690902
 20
438.4341791211099
 30
0.0
 11
-381.2519639308976
 21
438.4341791211109
 31
0.0
  0
LINE
  5
CD
330
49
100
AcDbEntity
  8
0
  6
Continuous
 62
     3
100
AcDbLine
 10
-379.2954990760967
 20
410.3144400509265
 30
0.0
 11
-414.7045009238882
 21
410.3144400509261
 31
0.0
  0
LINE
  5
CE
330
49
100
AcDbEntity
  8
0
  6
Continuous
 62
     7
100
AcDbLine
 10
-382.2768350614938
 20
433.0474277751628
 30
0.0
 11
-411.7231649384936
 21
433.0474277751618
 31
0.0
  0
LINE
  5
CF
330
49
100
AcDbEntity
  8
0
  6
Continuous
 62
     3
100
AcDbLine
 10
-379.2954990760967
 20
410.3144400509265
 30
0.0
 11
-375.4133457510612
 21
406.1631484894365
 31
0.0
  0
LINE
  5
D0
330
49
100
AcDbEntity
  8
0
  6
Continuous
 62
     3
100
AcDbLine
 10
-379.2954988787253
 20
412.3954287545022
 30
0.0
 11
-414.7045011212598
 21
412.3954287545011
 31
0.0
  0
LINE
  5
D1
330
49
100
AcDbEntity
  8
0
  6
Continuous
 62
     3
100
AcDbLine
 10
-414.7045009238882
 20
410.3144400509261
 30
0.0
 11
-418.586654248924
 21
406.1631484894355
 31
0.0
  0
LINE
  5
D2
330
49
100
AcDbEntity
  8
0
  6
Continuous
 62
     7
100
AcDbLine
 10
-414.2829629131383
 20
435.0662767873502
 30
0.0
 11
-414.2829629131384
 21
436.3374300591893
 31
0.0
  0
LINE
  5
D3
330
49
100
AcDbEntity
  8
0
  6
Continuous
 62
     3
100
AcDbLine
 10
-410.8332215033673
 20
435.7262223928354
 30
0.0
 11
-412.7480360690902
 21
438.4341791211099
 31
0.0
  0
LINE
  5
D4
330
49
100
AcDbEntity
  8
0
  6
Continuous
 62
     3
100
AcDbLine
 10
-413.7131204906897
 20
435.531551176947
 30
0.0
 11
-414.2829629131384
 21
436.3374300591893
 31
0.0
  0
LINE
  5
D5
330
49
100
AcDbEntity
  8
0
  6
Continuous
 62
     3
100
AcDbLine
 10
-413.7131204906897
 20
435.531551176947
 30
0.0
 11
-414.2829629131383
 21
435.0662767873502
 31
0.0
  0
LINE
  5
D6
330
49
100
AcDbEntity
  8
0
  6
Continuous
 62
     7
100
AcDbLine
 10
-428.9999999999877
 20
474.922741202326
 30
0.0
 11
-364.9999999999877
 21
474.9227412023259
 31
0.0
  0
LINE
  5
D7
330
49
100
AcDbEntity
  8
1
  6
DOT_CENTER
 62
     2
100
AcDbLine
 10
-317.424643651379
 20
398.2049446109117
 30
0.0
 11
-478.285333486069
 21
398.2049446109117
 31
0.0
  0
LINE
  5
D8
330
49
100
AcDbEntity
  8
1
  6
DOT_CENTER
 62
     2
100
AcDbLine
 10
-396.9999999999932
 20
501.7950569704619
 30
0.0
 11
-396.9999999999932
 21
318.157368618123
 31
0.0
  0
ARC
  5
D9
330
49
100
AcDbEntity
  8
0
  6
Continuous
 62
     3
100
AcDbCircle
 10
-403.6513814690455
 20
399.7464039046845
 30
0.0
 40
51.76416287624571
100
AcDbArc
 50
116.4799596522268
 51
121.1069275866879
  0
ARC
  5
DA
330
49
100
AcDbEntity
  8
0
  6
Continuous
 62
     3
100
AcDbCircle
 10
-401.8953392715557
 20
399.2886162902526
 30
0.0
 40
54.24368324613908
100
AcDbArc
 50
116.6545466731603
 51
122.0002308861603
  0
ARC
  5
DB
330
49
100
AcDbEntity
  8
0
  6
Continuous
 62
     7
100
AcDbCircle
 10
-419.7939022245857
 20
442.3992251856574
 30
0.0
 40
7.854208754497805
100
AcDbArc
 50
145.3790883331919
 51
152.0540617184762
  0
ARC
  5
DC
330
49
100
AcDbEntity
  8
0
  6
Continuous
 62
     3
100
AcDbCircle
 10
-396.9999999999932
 20
398.2049446109117
 30
0.0
 40
58.62554639750842
100
AcDbArc
 50
124.1457017396775
 51
178.8542982603256
  0
ARC
  5
DD
330
49
100
AcDbEntity
  8
0
  6
Continuous
 62
     7
100
AcDbCircle
 10
-396.9999999999969
 20
398.2049446109095
 30
0.0
 40
66.00000000000016
100
AcDbArc
 50
118.8042178095584
 51
122.3336366132937
  0
ARC
  5
DE
330
49
100
AcDbEntity
  8
0
  6
Continuous
 62
     7
100
AcDbCircle
 10
-396.9999999999969
 20
398.2049446109095
 30
0.0
 40
65.24999999999982
100
AcDbArc
 50
119.1669678886818
 51
122.7514781349079
  0
ARC
  5
DF
330
49
100
AcDbEntity
  8
0
  6
Continuous
 62
     7
100
AcDbCircle
 10
-383.9999999999877
 20
481.9449446109119
 30
0.0
 40
3.0
100
AcDbArc
 50
270.0
 51
0.0
  0
ARC
  5
E0
330
49
100
AcDbEntity
  8
0
  6
Continuous
 62
     3
100
AcDbCircle
 10
-396.9999999999932
 20
398.2049446109117
 30
0.0
 40
58.6255463975081
100
AcDbArc
 50
1.14570173967809
 51
55.85429826032607
  0
ARC
  5
E1
330
49
100
AcDbEntity
  8
0
  6
Continuous
 62
     3
100
AcDbCircle
 10
-392.1046607284422
 20
399.2886162902609
 30
0.0
 40
54.24368324613894
100
AcDbArc
 50
57.99976911382787
 51
63.34545332683994
  0
ARC
  5
E2
330
49
100
AcDbEntity
  8
0
  6
Continuous
 62
     3
100
AcDbCircle
 10
-390.3486185309161
 20
399.7464039047296
 30
0.0
 40
51.76416287619496
100
AcDbArc
 50
58.89307241331398
 51
63.52004034777843
  0
ARC
  5
E3
330
49
100
AcDbEntity
  8
0
  6
Continuous
 62
     7
100
AcDbCircle
 10
-374.2060977748201
 20
442.3992251860165
 30
0.0
 40
7.854208753815504
100
AcDbArc
 50
27.94593828121288
 51
34.62091166709001
  0
ARC
  5
E4
330
49
100
AcDbEntity
  8
0
  6
Continuous
 62
     7
100
AcDbCircle
 10
-396.9999999999822
 20
398.2049446109051
 30
0.0
 40
65.24999999999963
100
AcDbArc
 50
57.24852186510449
 51
60.83303211133007
  0
ARC
  5
E5
330
49
100
AcDbEntity
  8
0
  6
Continuous
 62
     7
100
AcDbCircle
 10
-396.9999999999822
 20
398.2049446109051
 30
0.0
 40
66.00000000000003
100
AcDbArc
 50
57.66636338671853
 51
61.19578219045342
  0
ARC
  5
E6
330
49
100
AcDbEntity
  8
0
  6
Continuous
 62
     3
100
AcDbCircle
 10
-396.9999999999932
 20
398.2049446109117
 30
0.0
 40
58.6255463975078
100
AcDbArc
 50
301.145701739678
 51
358.8542982603262
  0
ARC
  5
E7
330
49
100
AcDbEntity
  8
0
  6
Continuous
 62
     3
100
AcDbCircle
 10
-396.9999999999932
 20
398.2049446109117
 30
0.0
 40
58.62554639750803
100
AcDbArc
 50
181.1457017396775
 51
238.8542982603258
  0
ARC
  5
E8
330
49
100
AcDbEntity
  8
0
  6
Continuous
 62
     3
100
AcDbCircle
 10
-396.9999999999932
 20
398.2049446109117
 30
0.0
 40
58.62554639750775
100
AcDbArc
 50
241.1457017396777
 51
298.8542982603261
  0
ARC
  5
E9
330
49
100
AcDbEntity
  8
0
  6
Continuous
 62
     3
100
AcDbCircle
 10
-396.9999999999924
 20
400.1424981930023
 30
0.0
 40
53.94176334458223
100
AcDbArc
 50
58.77370061796601
 51
121.2262993820386
  0
ARC
  5
EA
330
49
100
AcDbEntity
  8
0
  6
Continuous
 62
     3
100
AcDbCircle
 10
-396.9999999999923
 20
399.4965815996413
 30
0.0
 40
56.43110679677961
100
AcDbArc
 50
58.80383640204898
 51
121.1961635979671
  0
ARC
  5
EB
330
49
100
AcDbEntity
  8
0
  6
Continuous
 62
     3
100
AcDbCircle
 10
-396.9999999999932
 20
398.2049446109117
 30
0.0
 40
58.62554639750841
100
AcDbArc
 50
58.14570173967798
 51
121.8542982603258
  0
ARC
  5
EC
330
49
100
AcDbEntity
  8
0
  6
Continuous
 62
     7
100
AcDbCircle
 10
-396.9999999999932
 20
398.2049446109117
 30
0.0
 40
65.24999999999922
100
AcDbArc
 50
60.83303211131884
 51
119.1669678886856
  0
ARC
  5
ED
330
49
100
AcDbEntity
  8
0
  6
Continuous
 62
     3
100
AcDbCircle
 10
-396.9999999999932
 20
398.2049446109117
 30
0.0
 40
68.25000000000027
100
AcDbArc
 50
62.22931004485214
 51
117.770689955151
  0
ARC
  5
EE
330
49
100
AcDbEntity
  8
0
  6
Continuous
 62
     3
100
AcDbCircle
 10
-396.9999999999932
 20
398.2049446109117
 30
0.0
 40
57.86751044403518
100
AcDbArc
 50
125.5443582315846
 51
54.45564176841846
  0
ARC
  5
EF
330
49
100
AcDbEntity
  8
0
  6
Continuous
 62
     3
100
AcDbCircle
 10
-396.9999999999932
 20
398.2049446109117
 30
0.0
 40
56.34312669424889
100
AcDbArc
 50
126.6175089520998
 51
53.38249104790279
  0
ARC
  5
F0
330
49
100
AcDbEntity
  8
0
  6
Continuous
 62
     7
100
AcDbCircle
 10
-396.9999999999932
 20
398.2049446109117
 30
0.0
 40
66.00000000000026
100
AcDbArc
 50
122.3336366132975
 51
57.66636338670742
  0
ARC
  5
F1
330
49
100
AcDbEntity
  8
0
  6
Continuous
 62
     7
100
AcDbCircle
 10
-396.9999999999932
 20
398.2049446109117
 30
0.0
 40
65.24999999999994
100
AcDbArc
 50
122.7514781349117
 51
57.24852186509326
  0
ARC
  5
F2
330
49
100
AcDbEntity
  8
0
  6
Continuous
 62
     7
100
AcDbCircle
 10
-409.9999999999877
 20
481.9449446109119
 30
0.0
 40
3.0
100
AcDbArc
 50
180.0
 51
270.0
  0
SPLINE
  5
F3
330
49
100
AcDbEntity
  8
0
  6
Continuous
 62
     7
100
AcDbSpline
210
0.0
220
0.0
230
1.0
 70
     8
 71
     3
 72
    28
 73
    24
 74
    22
 42
0.0000000001
 43
0.0000000001
 44
0.00000001
 40
0.0
 40
0.0
 40
0.0
 40
0.0
 40
0.0319334578018867
 40
0.0949106987846989
 40
0.1802167973943918
 40
0.3118846634202836
 40
0.4933582796206459
 40
0.7018609931300334
 40
0.929816142862455
 40
1.131850327537272
 40
1.321812177740121
 40
1.491041692326649
 40
1.630869163217619
 40
1.732618492456814
 40
2.140416092963271
 40
2.535413601930793
 40
2.739440142927255
 40
2.95258109818874
 40
3.153343581945517
 40
3.268103654105974
 40
3.370312821655897
 40
3.433290062638198
 40
3.46522352044072
 40
3.46522352044072
 40
3.46522352044072
 40
3.46522352044072
 10
-427.4130300491619
 20
448.1924049739881
 30
0.0
 10
-427.4157782491557
 20
448.1819902036409
 30
0.0
 10
-427.4239462835548
 20
448.1510360508689
 30
0.0
 10
-427.4686169105285
 20
448.1075481870831
 30
0.0
 10
-427.5342978132453
 20
448.0427092879412
 30
0.0
 10
-427.6373427757893
 20
447.9578992534249
 30
0.0
 10
-427.7744672258455
 20
447.8513611133664
 30
0.0
 10
-427.9407243677741
 20
447.7295849357728
 30
0.0
 10
-428.1144815244954
 20
447.6067164197143
 30
0.0
 10
-428.2846737357604
 20
447.4894849669334
 30
0.0
 10
-428.4396633967102
 20
447.3847212534059
 30
0.0
 10
-428.5781213864533
 20
447.2925326939409
 30
0.0
 10
-428.6925194745843
 20
447.2172696804878
 30
0.0
 10
-428.8738568891583
 20
447.0990703104826
 30
0.0
 10
-429.1278596196399
 20
446.9365974138781
 30
0.0
 10
-429.4133034074296
 20
446.7600277074471
 30
0.0
 10
-429.6458800163603
 20
446.621509828833
 30
0.0
 10
-429.8245425271922
 20
446.518810601679
 30
0.0
 10
-429.9795134843966
 20
446.4353948063613
 30
0.0
 10
-430.104567384449
 20
446.3728472628563
 30
0.0
 10
-430.1901793326959
 20
446.3386938154661
 30
0.0
 10
-430.2534897805034
 20
446.3135172554649
 30
0.0
 10
-430.2850910933287
 20
446.3186387290179
 30
0.0
 10
-430.2957236058117
 20
446.3203618894381
 30
0.0
 11
-427.4130300491619
 21
448.1924049739881
 31
0.0
 11
-427.4230131937388
 21
448.1620721114206
 31
0.0
 11
-427.4627276608272
 21
448.1131957982854
 31
0.0
 11
-427.5242255818516
 21
448.0540761216143
 31
0.0
 11
-427.6246976974747
 21
447.9689774675355
 31
0.0
 11
-427.7678843749403
 21
447.8574864420079
 31
0.0
 11
-427.9357976305806
 21
447.7338801309997
 31
0.0
 11
-428.1218242090411
 21
447.6021316494305
 31
0.0
 11
-428.2881584254977
 21
447.487454972582
 31
0.0
 11
-428.445519256473
 21
447.3810450416205
 31
0.0
 11
-428.5863730329141
 21
447.2872428973514
 31
0.0
 11
-428.7031860857677
 21
447.2103895805799
 31
0.0
 11
-428.7884247459808
 21
447.1548261321115
 31
0.0
 11
-429.1320137872406
 21
446.9351776545274
 31
0.0
 11
-429.4681895341734
 21
446.7277917840716
 31
0.0
 11
-429.6435458072261
 21
446.6234988939398
 31
0.0
 11
-429.8285612732621
 21
446.5176766650025
 31
0.0
 11
-430.0055194334569
 21
446.4228537541388
 31
0.0
 11
-430.108716262468
 21
446.3726512776628
 31
0.0
 11
-430.2031485834071
 21
446.3335456426045
 31
0.0
 11
-430.2639526462826
 21
446.3171444591238
 31
0.0
 11
-430.2957236058117
 21
446.3203618894381
 31
0.0
  0
SPLINE
  5
F4
330
49
100
AcDbEntity
  8
0
  6
Continuous
 62
     7
100
AcDbSpline
210
0.0
220
0.0
230
1.0
 70
     8
 71
     3
 72
    11
 73
     7
 74
     5
 42
0.0000000001
 43
0.0000000001
 44
0.00000001
 40
0.0
 40
0.0
 40
0.0
 40
0.0
 40
0.1186997829543863
 40
0.2531494227709843
 40
0.3443507553777947
 40
0.4410747924302341
 40
0.4410747924302341
 40
0.4410747924302341
 40
0.4410747924302341
 10
-427.9402762864494
 20
448.0010688950783
 30
0.0
 10
-427.9050311518291
 20
448.0190532444749
 30
0.0
 10
-427.8298643295944
 20
448.057408223358
 30
0.0
 10
-427.7261981497651
 20
448.106711748499
 30
0.0
 10
-427.6280772781203
 20
448.1506064666363
 30
0.0
 10
-427.569577925222
 20
448.1730410853004
 30
0.0
 10
-427.5394686664907
 20
448.1845880461544
 30
0.0
 11
-427.9402762864494
 21
448.0010688950783
 31
0.0
 11
-427.8343114897447
 21
448.0545581494454
 31
0.0
 11
-427.7129123205707
 21
448.1123417749
 31
0.0
 11
-427.629451862039
 21
448.1491118025168
 31
0.0
 11
-427.5394686664907
 21
448.1845880461544
 31
0.0
  0
SPLINE
  5
F5
330
49
100
AcDbEntity
  8
0
  6
Continuous
 62
     7
100
AcDbSpline
210
0.0
220
0.0
230
1.0
 70
     8
 71
     3
 72
    11
 73
     7
 74
     5
 42
0.0000000001
 43
0.0000000001
 44
0.00000001
 40
0.0
 40
0.0
 40
0.0
 40
0.0
 40
0.0502626448209123
 40
0.0944670448707264
 40
0.1176072549274536
 40
0.1343574658737254
 40
0.1343574658737254
 40
0.1343574658737254
 40
0.1343574658737254
 10
-427.5394686664907
 20
448.1845880461544
 30
0.0
 10
-427.5233690564771
 20
448.1897746603395
 30
0.0
 10
-427.4931103506935
 20
448.1995227370018
 30
0.0
 10
-427.4559197421334
 20
448.20605687252
 30
0.0
 10
-427.4248875714161
 20
448.2084498499042
 30
0.0
 10
-427.4165366484392
 20
448.1971498902603
 30
0.0
 10
-427.4130300491619
 20
448.1924049739881
 30
0.0
 11
-427.5394686664907
 21
448.1845880461544
 31
0.0
 11
-427.491279014375
 21
448.1988740845614
 31
0.0
 11
-427.447727041798
 21
448.2064407660276
 31
0.0
 11
-427.4246728693668
 21
448.204447162511
 31
0.0
 11
-427.4130300491619
 21
448.1924049739881
 31
0.0
  0
SPLINE
  5
F6
330
49
100
AcDbEntity
  8
0
  6
Continuous
 62
     7
100
AcDbSpline
210
0.0
220
0.0
230
1.0
 70
     8
 71
     3
 72
     9
 73
     5
 74
     3
 42
0.0000000001
 43
0.0000000001
 44
0.00000001
 40
0.0
 40
0.0
 40
0.0
 40
0.0
 40
0.0726458418624039
 40
0.1223308294104481
 40
0.1223308294104481
 40
0.1223308294104481
 40
0.1223308294104481
 10
-427.5394686664907
 20
448.1845880461544
 30
0.0
 10
-427.5147330758361
 20
448.1872190368212
 30
0.0
 10
-427.4730799647545
 20
448.1916494524129
 30
0.0
 10
-427.4358533922111
 20
448.1733405533235
 30
0.0
 10
-427.4207337220332
 20
448.1659043458878
 30
0.0
 11
-427.5394686664907
 21
448.1845880461544
 31
0.0
 11
-427.466822934166
 21
448.1844618918632
 31
0.0
 11
-427.4207337220332
 21
448.1659043458878
 31
0.0
  0
SPLINE
  5
F7
330
49
100
AcDbEntity
  8
0
  6
Continuous
 62
     3
100
AcDbSpline
210
0.0
220
0.0
230
1.0
 70
     8
 71
     3
 72
    11
 73
     7
 74
     5
 42
0.0000000001
 43
0.0000000001
 44
0.00000001
 40
0.0
 40
0.0
 40
0.0
 40
0.0
 40
12.27069391040692
 40
24.54138782081282
 40
24.63380022449929
 40
24.72621304441533
 40
24.72621304441533
 40
24.72621304441533
 40
24.72621304441533
 10
-424.9644660940592
 20
446.2695235555455
 30
0.0
 10
-424.96446630427
 20
442.179292252077
 30
0.0
 10
-424.9644667246918
 20
433.9988296451405
 30
0.0
 10
-424.9644646146735
 20
425.7875629036353
 30
0.0
 10
-424.9644661275922
 20
421.6357231923031
 30
0.0
 10
-424.9644661498988
 20
421.5741147844356
 30
0.0
 10
-424.9644661610521
 20
421.5433105111302
 30
0.0
 11
-424.9644660940592
 21
446.2695235555455
 31
0.0
 11
-424.9644660940607
 21
433.9988296451386
 31
0.0
 11
-424.9644660940605
 21
421.7281357347327
 31
0.0
 11
-424.9644661275563
 21
421.6357233310462
 31
0.0
 11
-424.9644661610521
 21
421.5433105111302
 31
0.0
  0
SPLINE
  5
F8
330
49
100
AcDbEntity
  8
0
  6
Continuous
 62
     7
100
AcDbSpline
210
0.0
220
0.0
230
1.0
 70
     8
 71
     3
 72
    18
 73
    14
 74
    12
 42
0.0000000001
 43
0.0000000001
 44
0.00000001
 40
0.0
 40
0.0
 40
0.0
 40
0.0
 40
0.0180281589388575
 40
0.034994766708866
 40
0.0534444819916095
 40
0.0719976315164967
 40
0.1098618946040999
 40
0.1536928353768384
 40
0.2397804759865822
 40
0.3551841146262177
 40
0.5231667437813182
 40
0.7162863066345114
 40
0.9338913534685457
 40
0.9338913534685457
 40
0.9338913534685457
 40
0.9338913534685457
 10
-426.2296054255315
 20
447.7676907745591
 30
0.0
 10
-426.233683515391
 20
447.7632645623879
 30
0.0
 10
-426.2415995651513
 20
447.7546727664723
 30
0.0
 10
-426.2516032200325
 20
447.739889443499
 30
0.0
 10
-426.2615380459791
 20
447.7248945687249
 30
0.0
 10
-426.2737841238442
 20
447.703125949633
 30
0.0
 10
-426.287882575895
 20
447.6727698321837
 30
0.0
 10
-426.306354555314
 20
447.619893135438
 30
0.0
 10
-426.3236785772381
 20
447.5396895417651
 30
0.0
 10
-426.3339006292222
 20
447.41665822296
 30
0.0
 10
-426.3279585897884
 20
447.2576046274181
 30
0.0
 10
-426.303031014589
 20
447.0660390544384
 30
0.0
 10
-426.2731761931768
 20
446.9323678441723
 30
0.0
 10
-426.2573588799251
 20
446.8615478122475
 30
0.0
 11
-426.2296054255315
 21
447.7676907745591
 31
0.0
 11
-426.2414772197228
 21
447.7541233496964
 31
0.0
 11
-426.2513004488652
 21
447.7402896969454
 31
0.0
 11
-426.2613303188174
 21
447.7248044232069
 31
0.0
 11
-426.2704854523175
 21
447.7086674195232
 31
0.0
 11
-426.2865074798216
 21
447.6743600288643
 31
0.0
 11
-426.3011185599494
 21
447.6330360926224
 31
0.0
 11
-426.3200285729652
 21
447.5490510149389
 31
0.0
 11
-426.3305596989124
 21
447.4341288882724
 31
0.0
 11
-426.3258804686185
 21
447.266211442777
 31
0.0
 11
-426.3013967042347
 21
447.0746501971186
 31
0.0
 11
-426.2573588799251
 21
446.8615478122475
 31
0.0
  0
SPLINE
  5
F9
330
49
100
AcDbEntity
  8
0
  6
Continuous
 62
     7
100
AcDbSpline
210
0.0
220
0.0
230
1.0
 70
     8
 71
     3
 72
    11
 73
     7
 74
     5
 42
0.0000000001
 43
0.0000000001
 44
0.00000001
 40
0.0
 40
0.0
 40
0.0
 40
0.0
 40
0.3264538820972331
 40
0.6789544057283581
 40
1.08854398544101
 40
1.422982395333821
 40
1.422982395333821
 40
1.422982395333821
 40
1.422982395333821
 10
-426.2573588799251
 20
446.8615478122475
 30
0.0
 10
-426.1557797079225
 20
446.8224805838377
 30
0.0
 10
-425.9445167083271
 20
446.7412290861433
 30
0.0
 10
-425.6126193792736
 20
446.5943048009452
 30
0.0
 10
-425.2827915326615
 20
446.4366121787037
 30
0.0
 10
-425.0631805774813
 20
446.3213386639867
 30
0.0
 10
-424.9644660940592
 20
446.2695235555455
 30
0.0
 11
-426.2573588799251
 21
446.8615478122475
 31
0.0
 11
-425.9536038219356
 21
446.741944292725
 31
0.0
 11
-425.6306955591307
 21
446.6005693551565
 31
0.0
 11
-425.2614555749631
 21
446.4232970846202
 31
0.0
 11
-424.9644660940592
 21
446.2695235555455
 31
0.0
  0
SPLINE
  5
FA
330
49
100
AcDbEntity
  8
0
  6
Continuous
 62
     3
100
AcDbSpline
210
0.0
220
0.0
230
1.0
 70
     8
 71
     3
 72
    11
 73
     7
 74
     5
 42
0.0000000001
 43
0.0000000001
 44
0.00000001
 40
0.0
 40
0.0
 40
0.0
 40
0.0
 40
12.27069395509432
 40
24.54138791018863
 40
24.63379906444914
 40
24.7262098024953
 40
24.7262098024953
 40
24.7262098024953
 40
24.7262098024953
 10
-426.7322330470279
 20
446.0800077868955
 30
0.0
 10
-426.7322330285955
 20
441.9897764685296
 30
0.0
 10
-426.7322329917307
 20
433.8093138317976
 30
0.0
 10
-426.7322331767464
 20
425.5980474769931
 30
0.0
 10
-426.7322330440867
 20
421.4462088611843
 30
0.0
 10
-426.7322330421309
 20
421.3846015637489
 30
0.0
 10
-426.732233041153
 20
421.3537979844002
 30
0.0
 11
-426.7322330470279
 21
446.0800077868955
 31
0.0
 11
-426.7322330470274
 21
433.8093138318012
 31
0.0
 11
-426.7322330470269
 21
421.5386198767069
 31
0.0
 11
-426.7322330440899
 21
421.4462087224464
 31
0.0
 11
-426.732233041153
 21
421.3537979844002
 31
0.0
  0
SPLINE
  5
FB
330
49
100
AcDbEntity
  8
0
  6
Continuous
 62
     3
100
AcDbSpline
210
0.0
220
0.0
230
1.0
 70
     8
 71
     3
 72
    15
 73
    11
 74
     9
 42
0.0000000001
 43
0.0000000001
 44
0.00000001
 40
0.0
 40
0.0
 40
0.0
 40
0.0
 40
0.1834448699393149
 40
0.3833451212668347
 40
0.5976571825443484
 40
0.8237623151441803
 40
1.058626745012431
 40
1.298924710138602
 40
1.54122401836004
 40
1.782156939966886
 40
1.782156939966886
 40
1.782156939966886
 40
1.782156939966886
 10
-426.732233041153
 20
421.3537979844002
 30
0.0
 10
-426.6728165408606
 20
421.3682848811976
 30
0.0
 10
-426.548653758236
 20
421.398558179172
 30
0.0
 10
-426.3528046020272
 20
421.4354905425852
 30
0.0
 10
-426.1418733663794
 20
421.468275403291
 30
0.0
 10
-425.9183898216378
 20
421.4954942223711
 30
0.0
 10
-425.6855854579143
 20
421.5169153133194
 30
0.0
 10
-425.446892996174
 20
421.5321423775225
 30
0.0
 10
-425.2058606391932
 20
421.5415641838804
 30
0.0
 10
-425.0447791625311
 20
421.5427295003959
 30
0.0
 10
-424.9644661610521
 20
421.5433105111302
 30
0.0
 11
-426.732233041153
 21
421.3537979844002
 31
0.0
 11
-426.5536497935096
 21
421.395750862349
 31
0.0
 11
-426.35736116577
 21
421.4335779042755
 31
0.0
 11
-426.1455984341619
 21
421.4665355302656
 31
0.0
 11
-425.9211747028843
 21
421.4940586083532
 31
0.0
 11
-425.6873064177277
 21
421.5156670700114
 31
0.0
 11
-425.4475057447088
 21
421.5311185833185
 31
0.0
 11
-425.2053801844011
 21
421.5402928849408
 31
0.0
 11
-424.9644661610521
 21
421.5433105111302
 31
0.0
  0
SPLINE
  5
FC
330
49
100
AcDbEntity
  8
0
  6
Continuous
 62
     7
100
AcDbSpline
210
0.0
220
0.0
230
1.0
 70
     8
 71
     3
 72
    15
 73
    11
 74
     9
 42
0.0000000001
 43
0.0000000001
 44
0.00000001
 40
0.0
 40
0.0
 40
0.0
 40
0.0
 40
0.2579981157435163
 40
0.5445111242854408
 40
0.849256716206785
 40
1.176263595995608
 40
1.503115120699003
 40
1.807746336373134
 40
2.094635592965043
 40
2.352944694241442
 40
2.352944694241442
 40
2.352944694241442
 40
2.352944694241442
 10
-427.9402762864494
 20
448.0010688950783
 30
0.0
 10
-428.0170973884587
 20
447.9624127036931
 30
0.0
 10
-428.1792301408757
 20
447.8808278976524
 30
0.0
 10
-428.4326467011275
 20
447.7546337184086
 30
0.0
 10
-428.7017896755497
 20
447.6086524773165
 30
0.0
 10
-428.9748960062857
 20
447.4424452748866
 30
0.0
 10
-429.2378004864402
 20
447.2605974098133
 30
0.0
 10
-429.4806764804562
 20
447.0740993160498
 30
0.0
 10
-429.6991864461485
 20
446.8938035961598
 30
0.0
 10
-429.8398392527632
 20
446.7787249306024
 30
0.0
 10
-429.9064790354118
 20
446.7242019001362
 30
0.0
 11
-427.9402762864494
 21
448.0010688950783
 31
0.0
 11
-428.1708177893429
 21
447.8852516115202
 31
0.0
 11
-428.4264704595804
 21
447.7559016356245
 31
0.0
 11
-428.6940595882818
 21
447.6100731953384
 31
0.0
 11
-428.9732051361921
 21
447.4397462670179
 31
0.0
 11
-429.2422328508276
 21
447.2541229711767
 31
0.0
 11
-429.4842168136747
 21
447.0690717909916
 31
0.0
 11
-429.7066652494772
 21
446.8879029775691
 31
0.0
 11
-429.9064790354118
 21
446.7242019001362
 31
0.0
  0
SPLINE
  5
FD
330
49
100
AcDbEntity
  8
0
  6
Continuous
 62
     3
100
AcDbSpline
210
0.0
220
0.0
230
1.0
 70
     8
 71
     3
 72
    15
 73
    11
 74
     9
 42
0.0000000001
 43
0.0000000001
 44
0.00000001
 40
0.0
 40
0.0
 40
0.0
 40
0.0
 40
0.0375164888670996
 40
0.0762003622592536
 40
0.1159113849137774
 40
0.1564911166026808
 40
0.1977672930742057
 40
0.2395565649734427
 40
0.2816689121127142
 40
0.323911436397212
 40
0.323911436397212
 40
0.323911436397212
 40
0.323911436397212
 10
-430.3946558131112
 20
444.0671195536509
 30
0.0
 10
-430.4039056098951
 20
444.0587008828535
 30
0.0
 10
-430.42269302543
 20
444.041601581083
 30
0.0
 10
-430.4526137206808
 20
444.0171299291819
 30
0.0
 10
-430.4842098465486
 20
443.9931501244566
 30
0.0
 10
-430.5174213196058
 20
443.9699147725223
 30
0.0
 10
-430.5520349385988
 20
443.947524207017
 30
0.0
 10
-430.5878692627769
 20
443.9261343561402
 30
0.0
 10
-430.6246590557146
 20
443.9057489193852
 30
0.0
 10
-430.6498111417953
 20
443.8931728937656
 30
0.0
 10
-430.6624065922908
 20
443.8868751772416
 30
0.0
 11
-430.3946558131112
 21
444.0671195536509
 31
0.0
 11
-430.4226191217163
 21
444.0421087498099
 31
0.0
 11
-430.4524905216936
 21
444.0175294592584
 31
0.0
 11
-430.4841288971026
 21
443.9935299067262
 31
0.0
 11
-430.5173668089313
 21
443.970249961683
 31
0.0
 11
-430.5520210159737
 21
443.9478265659016
 31
0.0
 11
-430.5878887867386
 21
443.9263825395486
 31
0.0
 11
-430.6247581870234
 21
443.9060331635333
 31
0.0
 11
-430.6624065922908
 21
443.8868751772416
 31
0.0
  0
SPLINE
  5
FE
330
49
100
AcDbEntity
  8
0
  6
Continuous
 62
     3
100
AcDbSpline
210
0.0
220
0.0
230
1.0
 70
     8
 71
     3
 72
    11
 73
     7
 74
     5
 42
0.0000000001
 43
0.0000000001
 44
0.00000001
 40
0.0
 40
0.0
 40
0.0
 40
0.0
 40
0.1161809780405706
 40
0.2881981070562339
 40
0.4603657312293208
 40
0.5652437952300409
 40
0.5652437952300409
 40
0.5652437952300409
 40
0.5652437952300409
 10
-430.2733705847868
 20
443.5169345511751
 30
0.0
 10
-430.277210365049
 20
443.5554789861925
 30
0.0
 10
-430.2867353098528
 20
443.6510921700108
 30
0.0
 10
-430.3131083701348
 20
443.8024130074444
 30
0.0
 10
-430.3501164121882
 20
443.9478010076521
 30
0.0
 10
-430.3824250835116
 20
444.0343541180569
 30
0.0
 10
-430.3946558131112
 20
444.0671195536509
 30
0.0
 11
-430.2733705847868
 21
443.5169345511751
 31
0.0
 11
-430.2860250968903
 21
443.6324243038889
 31
0.0
 11
-430.3152597289196
 21
443.8019389904647
 31
0.0
 11
-430.3593217216551
 21
443.9683728560377
 31
0.0
 11
-430.3946558131112
 21
444.0671195536509
 31
0.0
  0
SPLINE
  5
FF
330
49
100
AcDbEntity
  8
0
  6
Continuous
 62
     7
100
AcDbSpline
210
0.0
220
0.0
230
1.0
 70
     8
 71
     3
 72
    11
 73
     7
 74
     5
 42
0.0000000001
 43
0.0000000001
 44
0.00000001
 40
0.0
 40
0.0
 40
0.0
 40
0.0
 40
0.0967162545759807
 40
0.1879109266245824
 40
0.2936955872145155
 40
0.4410752286618534
 40
0.4410752286618534
 40
0.4410752286618534
 40
0.4410752286618534
 10
-430.237155268129
 20
446.4326898829832
 30
0.0
 10
-430.2143623403097
 20
446.4554980787809
 30
0.0
 10
-430.1700777450699
 20
446.4998123383207
 30
0.0
 10
-430.0971805630134
 20
446.5652049910234
 30
0.0
 10
-430.010224447721
 20
446.6401433619038
 30
0.0
 10
-429.9446520297028
 20
446.6932726664608
 30
0.0
 10
-429.9064790354118
 20
446.7242019001362
 30
0.0
 11
-430.237155268129
 21
446.4326898829832
 31
0.0
 11
-430.1681523256157
 21
446.500458812617
 31
0.0
 11
-430.1006199557102
 21
446.5617437799826
 31
0.0
 11
-430.0204407306396
 21
446.6307487528701
 31
0.0
 11
-429.9064790354118
 21
446.7242019001362
 31
0.0
  0
SPLINE
  5
100
330
49
100
AcDbEntity
  8
0
  6
Continuous
 62
     7
100
AcDbSpline
210
0.0
220
0.0
230
1.0
 70
     8
 71
     3
 72
     9
 73
     5
 74
     3
 42
0.0000000001
 43
0.0000000001
 44
0.00000001
 40
0.0
 40
0.0
 40
0.0
 40
0.0
 40
0.0496849875480503
 40
0.122330829410503
 40
0.122330829410503
 40
0.122330829410503
 40
0.122330829410503
 10
-430.2683807113429
 20
446.3166207682839
 30
0.0
 10
-430.2690243009753
 20
446.3334578523455
 30
0.0
 10
-430.2706089014233
 20
446.3749129187502
 30
0.0
 10
-430.2496196688091
 20
446.4111629168106
 30
0.0
 10
-430.237155268129
 20
446.4326898829832
 30
0.0
 11
-430.2683807113429
 21
446.3166207682839
 31
0.0
 11
-430.2665877017488
 21
446.3662733926279
 31
0.0
 11
-430.237155268129
 21
446.4326898829832
 31
0.0
  0
SPLINE
  5
101
330
49
100
AcDbEntity
  8
0
  6
Continuous
 62
     7
100
AcDbSpline
210
0.0
220
0.0
230
1.0
 70
     8
 71
     3
 72
    11
 73
     7
 74
     5
 42
0.0000000001
 43
0.0000000001
 44
0.00000001
 40
0.0
 40
0.0
 40
0.0
 40
0.0
 40
0.0136697697924609
 40
0.0401111375468302
 40
0.0798554013538774
 40
0.1345847767720342
 40
0.1345847767720342
 40
0.1345847767720342
 40
0.1345847767720342
 10
-430.2957236058117
 20
446.3203618894381
 30
0.0
 10
-430.2984331439975
 20
446.3243149002602
 30
0.0
 10
-430.3063837284266
 20
446.3359142002645
 30
0.0
 10
-430.2919877315533
 20
446.3630909159727
 30
0.0
 10
-430.2707331617513
 20
446.3951345294025
 30
0.0
 10
-430.249472024263
 20
446.4189141489608
 30
0.0
 10
-430.237155268129
 20
446.4326898829832
 30
0.0
 11
-430.2957236058117
 21
446.3203618894381
 31
0.0
 11
-430.3020889801676
 21
446.332459187297
 31
0.0
 11
-430.2944334015641
 21
446.3577680403917
 31
0.0
 11
-430.2725435079753
 21
446.3909409067773
 31
0.0
 11
-430.237155268129
 21
446.4326898829832
 31
0.0
  0
SPLINE
  5
102
330
49
100
AcDbEntity
  8
0
  6
Continuous
 62
     3
100
AcDbSpline
210
0.0
220
0.0
230
1.0
 70
     8
 71
     3
 72
    15
 73
    11
 74
     9
 42
0.0000000001
 43
0.0000000001
 44
0.00000001
 40
0.0
 40
0.0
 40
0.0
 40
0.0
 40
0.0461114176388861
 40
0.091481515467799
 40
0.1357667470578671
 40
0.178633348773025
 40
0.2197645404080986
 40
0.2588702493121644
 40
0.295691560854153
 40
0.3300094820932916
 40
0.3300094820932916
 40
0.3300094820932916
 40
0.3300094820932916
 10
-431.9231562931648
 20
416.1947378610549
 30
0.0
 10
-431.9079636078242
 20
416.1924064988345
 30
0.0
 10
-431.8778224855135
 20
416.1877812550243
 30
0.0
 10
-431.8330370779902
 20
416.1812714891055
 30
0.0
 10
-431.7892830395245
 20
416.1751927827619
 30
0.0
 10
-431.7468867180303
 20
416.1696169995904
 30
0.0
 10
-431.7061621687004
 20
416.164578801355
 30
0.0
 10
-431.6673975144227
 20
416.1601245398344
 30
0.0
 10
-431.630854276205
 20
416.1562380009304
 30
0.0
 10
-431.6072417982866
 20
416.1540535225157
 30
0.0
 10
-431.5958510209928
 20
416.1529997192167
 30
0.0
 11
-431.9231562931648
 21
416.1947378610549
 31
0.0
 11
-431.8775691146065
 21
416.187804464502
 31
0.0
 11
-431.832672456288
 21
416.1812671983429
 31
0.0
 11
-431.788807322443
 21
416.1751818249157
 31
0.0
 11
-431.7463060713401
 21
416.1695970959793
 31
0.0
 11
-431.705484906161
 21
416.1645565207399
 31
0.0
 11
-431.6666346538134
 21
416.1600939697413
 31
0.0
 11
-431.6300159683151
 21
416.1562363984783
 31
0.0
 11
-431.5958510209928
 21
416.1529997192167
 31
0.0
  0
SPLINE
  5
103
330
49
100
AcDbEntity
  8
0
  6
Continuous
 62
     3
100
AcDbSpline
210
0.0
220
0.0
230
1.0
 70
     8
 71
     3
 72
    11
 73
     7
 74
     5
 42
0.0000000001
 43
0.0000000001
 44
0.00000001
 40
0.0
 40
0.0
 40
0.0
 40
0.0
 40
0.0973284504041711
 40
0.2402738281031736
 40
0.3807942334304499
 40
0.4643273135291951
 40
0.4643273135291951
 40
0.4643273135291951
 40
0.4643273135291951
 10
-430.6069948761079
 20
443.4279235163419
 30
0.0
 10
-430.6065742134042
 20
443.4603723705777
 30
0.0
 10
-430.6055357273528
 20
443.5404785511699
 30
0.0
 10
-430.6142059349489
 20
443.6672567767758
 30
0.0
 10
-430.6333611161813
 20
443.7884826881826
 30
0.0
 10
-430.6545185426999
 20
443.8601541543138
 30
0.0
 10
-430.6624065922908
 20
443.8868751772416
 30
0.0
 11
-430.6069948761079
 21
443.4279235163419
 31
0.0
 11
-430.606800947965
 21
443.5252517735437
 31
0.0
 11
-430.6163822503011
 21
443.6678756833592
 31
0.0
 11
-430.6400578180833
 21
443.8063872417345
 31
0.0
 11
-430.6624065922908
 21
443.8868751772416
 31
0.0
  0
SPLINE
  5
104
330
49
100
AcDbEntity
  8
0
  6
Continuous
 62
     3
100
AcDbSpline
210
0.0
220
0.0
230
1.0
 70
     8
 71
     3
 72
    15
 73
    11
 74
     9
 42
0.0000000001
 43
0.0000000001
 44
0.00000001
 40
0.0
 40
0.0
 40
0.0
 40
0.0
 40
0.0469664305987416
 40
0.0934754217884177
 40
0.1392085677564894
 40
0.1838551671014808
 40
0.2271196856523492
 40
0.2687311133495674
 40
0.3084480816888427
 40
0.3460676840493237
 40
0.3460676840493237
 40
0.3460676840493237
 40
0.3460676840493237
 10
-430.6069948761079
 20
443.4279235163419
 30
0.0
 10
-430.5915465217208
 20
443.4304664449579
 30
0.0
 10
-430.5608002754368
 20
443.435527534803
 30
0.0
 10
-430.5152627302743
 20
443.4444847802403
 30
0.0
 10
-430.4707134664265
 20
443.454375473606
 30
0.0
 10
-430.4275023130592
 20
443.4652315777639
 30
0.0
 10
-430.3859411664392
 20
443.4769491499499
 30
0.0
 10
-430.3463403416011
 20
443.4894788609065
 30
0.0
 10
-430.3089062213288
 20
443.5025860294559
 30
0.0
 10
-430.2849996820396
 20
443.5122389731372
 30
0.0
 10
-430.2733705847868
 20
443.5169345511751
 30
0.0
 11
-430.6069948761079
 21
443.4279235163419
 31
0.0
 11
-430.5606924292723
 21
443.435793015705
 31
0.0
 11
-430.5150482399115
 21
443.4447201786964
 31
0.0
 11
-430.4704087284188
 21
443.4546617406377
 31
0.0
 11
-430.4271109977596
 21
443.4655532672907
 31
0.0
 11
-430.3854777203242
 21
443.4773213926904
 31
0.0
 11
-430.3458048793768
 21
443.48987434478
 31
0.0
 11
-430.3083601099133
 21
443.5031154479777
 31
0.0
 11
-430.2733705847868
 21
443.5169345511751
 31
0.0
  0
SPLINE
  5
105
330
49
100
AcDbEntity
  8
0
  6
Continuous
 62
     3
100
AcDbSpline
210
0.0
220
0.0
230
1.0
 70
     8
 71
     3
 72
    20
 73
    16
 74
    14
 42
0.0000000001
 43
0.0000000001
 44
0.00000001
 40
0.0
 40
0.0
 40
0.0
 40
0.0
 40
0.0309983393973199
 40
0.0607134994160959
 40
0.0905966009377032
 40
0.1237899821372286
 40
0.1932638853783802
 40
0.2595552170170341
 40
0.4118729729420524
 40
0.5814656934418432
 40
0.796961342730563
 40
1.004837638003049
 40
1.193295624877965
 40
1.349207011611367
 40
1.458673202881755
 40
1.458673202881755
 40
1.458673202881755
 40
1.458673202881755
 10
-430.6402973587518
 20
445.2897527617879
 30
0.0
 10
-430.6472850538363
 20
445.2821294241684
 30
0.0
 10
-430.6609711876639
 20
445.2671983177572
 30
0.0
 10
-430.6787494976757
 20
445.2427384964993
 30
0.0
 10
-430.6962112569876
 20
445.2172052817672
 30
0.0
 10
-430.718750547738
 20
445.1791665283146
 30
0.0
 10
-430.7433020442542
 20
445.1283469100111
 30
0.0
 10
-430.7763444541443
 20
445.0380613183962
 30
0.0
 10
-430.8042305789505
 20
444.911051186754
 30
0.0
 10
-430.8176195727402
 20
444.731986997166
 30
0.0
 10
-430.8082455389514
 20
444.5340836525949
 30
0.0
 10
-430.7789660370803
 20
444.332032247164
 30
0.0
 10
-430.7396753421463
 20
444.1520825322914
 30
0.0
 10
-430.7000563951792
 20
444.0060228678532
 30
0.0
 10
-430.6734015210108
 20
443.9216700570262
 30
0.0
 10
-430.6624065922908
 20
443.8868751772416
 30
0.0
 11
-430.6402973587518
 21
445.2897527617879
 31
0.0
 11
-430.6607985302632
 21
445.2665019765957
 31
0.0
 11
-430.6785972232802
 21
445.2427070766836
 31
0.0
 11
-430.6953315153792
 21
445.2179489825627
 31
0.0
 11
-430.712315868922
 21
445.1894300013364
 31
0.0
 11
-430.7426761695947
 21
445.1269409993071
 31
0.0
 11
-430.765615782151
 21
445.0647452211047
 31
0.0
 11
-430.7996080351345
 21
444.9162688744796
 31
0.0
 11
-430.8134344107629
 21
444.7472407046868
 31
0.0
 11
-430.8046099636641
 21
444.5319258097172
 31
0.0
 11
-430.775497275261
 21
444.326098198571
 31
0.0
 11
-430.7356940285604
 21
444.1418914821651
 31
0.0
 11
-430.6947979065683
 21
443.9914392714165
 31
0.0
 11
-430.6624065922908
 21
443.8868751772416
 31
0.0
  0
SPLINE
  5
106
330
49
100
AcDbEntity
  8
0
  6
Continuous
 62
     3
100
AcDbSpline
210
0.0
220
0.0
230
1.0
 70
     8
 71
     3
 72
    22
 73
    18
 74
    16
 42
0.0000000001
 43
0.0000000001
 44
0.00000001
 40
0.0
 40
0.0
 40
0.0
 40
0.0
 40
0.0101704318717069
 40
0.0196129813078351
 40
0.0293454016805662
 40
0.040017064500004
 40
0.060416251918417
 40
0.0837202561922167
 40
0.1295248783668378
 40
0.1853299979410279
 40
0.2766755105500253
 40
0.3687992703307659
 40
0.4566092311510768
 40
0.6288404139265167
 40
0.8244478699934294
 40
1.042689685206176
 40
1.282680243914097
 40
1.282680243914097
 40
1.282680243914097
 40
1.282680243914097
 10
-430.6402973587518
 20
445.2897527617879
 30
0.0
 10
-430.6422968321293
 20
445.2870099197302
 30
0.0
 10
-430.646152679597
 20
445.2817205366748
 30
0.0
 10
-430.6508252356134
 20
445.273110625482
 30
0.0
 10
-430.6556882890682
 20
445.2644333829378
 30
0.0
 10
-430.6616491392938
 20
445.2521996386533
 30
0.0
 10
-430.6686654000831
 20
445.2354710773277
 30
0.0
 10
-430.6780913544619
 20
445.2071345417416
 30
0.0
 10
-430.6872307512442
 20
445.1664057897043
 30
0.0
 10
-430.6942761668919
 20
445.1023622193002
 30
0.0
 10
-430.6937228683967
 20
445.0224022599613
 30
0.0
 10
-430.6845395562104
 20
444.9323593169603
 30
0.0
 10
-430.6648078691213
 20
444.8165799979946
 30
0.0
 10
-430.6284783979803
 20
444.6689174851
 30
0.0
 10
-430.5686885134611
 20
444.4828264389783
 30
0.0
 10
-430.4907803415756
 20
444.2791291851896
 30
0.0
 10
-430.4276953742797
 20
444.1399907063256
 30
0.0
 10
-430.3946558131112
 20
444.0671195536509
 30
0.0
 11
-430.6402973587518
 21
445.2897527617879
 31
0.0
 11
-430.6460986889557
 21
445.2813991845708
 31
0.0
 11
-430.6507963250662
 21
445.273208094605
 31
0.0
 11
-430.6554570456979
 21
445.2646642260723
 31
0.0
 11
-430.6601655660954
 21
445.2550874717683
 31
0.0
 11
-430.6680646633004
 21
445.2362797310566
 31
0.0
 11
-430.6754692528894
 21
445.2141833813986
 31
0.0
 11
-430.685742249243
 21
445.169545628784
 31
0.0
 11
-430.692156790159
 21
445.1141103959846
 31
0.0
 11
-430.6922902834324
 21
445.0227649809199
 31
0.0
 11
-430.6833474837814
 21
444.9310763041351
 31
0.0
 11
-430.6688351755203
 21
444.8444738669396
 31
0.0
 11
-430.6285450776919
 21
444.6770215204729
 31
0.0
 11
-430.5694130755996
 21
444.4905659407829
 31
0.0
 11
-430.4914472828655
 21
444.286725745849
 31
0.0
 11
-430.3946558131112
 21
444.0671195536509
 31
0.0
  0
SPLINE
  5
107
330
49
100
AcDbEntity
  8
0
  6
Continuous
 62
     7
100
AcDbSpline
210
0.0
220
0.0
230
1.0
 70
     8
 71
     3
 72
     9
 73
     5
 74
     3
 42
0.0000000001
 43
0.0000000001
 44
0.00000001
 40
0.0
 40
0.0
 40
0.0
 40
0.0
 40
0.0726458418623336
 40
0.1223308294103496
 40
0.1223308294103496
 40
0.1223308294103496
 40
0.1223308294103496
 10
-455.5494426899308
 20
399.8132558505949
 30
0.0
 10
-455.5381772561429
 20
399.8354338026754
 30
0.0
 10
-455.5192070050782
 20
399.8727800182753
 30
0.0
 10
-455.4835768257335
 20
399.8940291078807
 30
0.0
 10
-455.4691055348447
 20
399.9026594814139
 30
0.0
 11
-455.5494426899308
 21
399.8132558505949
 31
0.0
 11
-455.5097711864883
 21
399.8741129796308
 31
0.0
 11
-455.4691055348447
 21
399.9026594814139
 31
0.0
  0
SPLINE
  5
108
330
49
100
AcDbEntity
  8
0
  6
Continuous
 62
     7
100
AcDbSpline
210
0.0
220
0.0
230
1.0
 70
     8
 71
     3
 72
    11
 73
     7
 74
     5
 42
0.0000000001
 43
0.0000000001
 44
0.00000001
 40
0.0
 40
0.0
 40
0.0
 40
0.0
 40
0.0502626448013783
 40
0.0944670448704591
 40
0.1209084126251176
 40
0.1345781824173487
 40
0.1345781824173487
 40
0.1345781824173487
 40
0.1345781824173487
 10
-455.5494426899308
 20
399.8132558505949
 30
0.0
 10
-455.5449960066047
 20
399.8296183715081
 30
0.0
 10
-455.5366386064926
 20
399.8603712099908
 30
0.0
 10
-455.5217615760872
 20
399.8957008144636
 30
0.0
 10
-455.5059851406905
 20
399.9240187907653
 30
0.0
 10
-455.4919263197653
 20
399.9236718411464
 30
0.0
 10
-455.4871351107058
 20
399.9235536016321
 30
0.0
 11
-455.5494426899308
 21
399.8132558505949
 31
0.0
 11
-455.5351780042553
 21
399.8614518276574
 31
0.0
 11
-455.5178038529744
 21
399.902098695344
 31
0.0
 11
-455.5007475897183
 21
399.9223033931264
 31
0.0
 11
-455.4871351107058
 21
399.9235536016321
 31
0.0
  0
SPLINE
  5
109
330
49
100
AcDbEntity
  8
0
  6
Continuous
 62
     7
100
AcDbSpline
210
0.0
220
0.0
230
1.0
 70
     8
 71
     3
 72
    15
 73
    11
 74
     9
 42
0.0000000001
 43
0.0000000001
 44
0.00000001
 40
0.0
 40
0.0
 40
0.0
 40
0.0
 40
0.2579981157440684
 40
0.5445111242854361
 40
0.8492567162061189
 40
1.176263595995574
 40
1.503115120706228
 40
1.807746336373077
 40
2.094635592965609
 40
2.352944694241552
 40
2.352944694241552
 40
2.352944694241552
 40
2.352944694241552
 10
-455.6138260546296
 20
399.3771586029781
 30
0.0
 10
-455.623246015513
 20
399.2916773349522
 30
0.0
 10
-455.6431270657162
 20
399.1112670973663
 30
0.0
 10
-455.6753122725706
 20
398.8300038108454
 30
0.0
 10
-455.6994678720653
 20
398.5247744373496
 30
0.0
 10
-455.7088191516349
 20
398.2052052654955
 30
0.0
 10
-455.6994967417268
 20
397.8856735700557
 30
0.0
 10
-455.6753660265182
 20
397.5804064803941
 30
0.0
 10
-455.643166369576
 20
397.2989525164695
 30
0.0
 10
-455.6232582886413
 20
397.1183148139027
 30
0.0
 10
-455.6138260546295
 20
397.0327306188421
 30
0.0
 11
-455.6138260546296
 21
399.3771586029781
 31
0.0
 11
-455.642255409317
 21
399.1207316162557
 31
0.0
 11
-455.673011815186
 21
398.8358742000604
 31
0.0
 11
-455.6964492791852
 21
398.5320312125218
 31
0.0
 11
-455.7056346593167
 21
398.2051533634383
 31
0.0
 11
-455.6964808592609
 21
397.8784300444814
 31
0.0
 11
-455.6730777928904
 21
397.5746991207296
 31
0.0
 11
-455.6422909426593
 21
397.2894665570187
 31
0.0
 11
-455.6138260546295
 21
397.0327306188421
 31
0.0
  0
SPLINE
  5
10A
330
49
100
AcDbEntity
  8
0
  6
Continuous
 62
     3
100
AcDbSpline
210
0.0
220
0.0
230
1.0
 70
     8
 71
     3
 72
     9
 73
     5
 74
     3
 42
0.0000000001
 43
0.0000000001
 44
0.00000001
 40
0.0
 40
0.0
 40
0.0
 40
0.0
 40
13.46791744006962
 40
27.32333443600504
 40
27.32333443600504
 40
27.32333443600504
 40
27.32333443600504
 10
-430.6069948761079
 20
443.4279235163419
 30
0.0
 10
-430.3817154078448
 20
438.9325015432149
 30
0.0
 10
-429.9246747198312
 20
429.8123151039017
 30
0.0
 10
-431.2507270767766
 20
420.7766449032304
 30
0.0
 10
-431.9231562931648
 20
416.1947378610549
 30
0.0
 11
-430.6069948761079
 21
443.4279235163419
 31
0.0
 11
-430.3643754768968
 21
429.9621916016015
 31
0.0
 11
-431.9231562931648
 21
416.1947378610549
 31
0.0
  0
SPLINE
  5
10B
330
49
100
AcDbEntity
  8
0
  6
Continuous
 62
     3
100
AcDbSpline
210
0.0
220
0.0
230
1.0
 70
     8
 71
     3
 72
     9
 73
     5
 74
     3
 42
0.0000000001
 43
0.0000000001
 44
0.00000001
 40
0.0
 40
0.0
 40
0.0
 40
0.0
 40
13.53257822338956
 40
27.45451642575257
 40
27.45451642575257
 40
27.45451642575257
 40
27.45451642575257
 10
-430.2733705847868
 20
443.5169345511751
 30
0.0
 10
-430.0470095278557
 20
438.9999296193294
 30
0.0
 10
-429.5877745429859
 20
429.8359562766722
 30
0.0
 10
-430.9201934064462
 20
420.7569049433505
 30
0.0
 10
-431.5958510209928
 20
416.1529997192167
 30
0.0
 11
-430.2733705847868
 21
443.5169345511751
 31
0.0
 11
-430.0295863462104
 21
429.9865523460347
 31
0.0
 11
-431.5958510209928
 21
416.1529997192167
 31
0.0
  0
SPLINE
  5
10C
330
49
100
AcDbEntity
  8
0
  6
Continuous
 62
     7
100
AcDbSpline
210
0.0
220
0.0
230
1.0
 70
     8
 71
     3
 72
    11
 73
     7
 74
     5
 42
0.0000000001
 43
0.0000000001
 44
0.00000001
 40
0.0
 40
0.0
 40
0.0
 40
0.0
 40
0.1341351311691068
 40
0.2531498743046937
 40
0.3664708973583529
 40
0.4410767801026982
 40
0.4410767801026982
 40
0.4410767801026982
 40
0.4410767801026982
 10
-455.6138260546296
 20
399.3771586029781
 30
0.0
 10
-455.6091569274993
 20
399.4216288912422
 30
0.0
 10
-455.6003450007818
 20
399.5055565527447
 30
0.0
 10
-455.5840490488933
 20
399.6266260703907
 30
0.0
 10
-455.5679845079846
 20
399.7277197263932
 30
0.0
 10
-455.5547118553988
 20
399.7889484180337
 30
0.0
 10
-455.5494426899308
 20
399.8132558505949
 30
0.0
 11
-455.6138260546296
 21
399.3771586029781
 31
0.0
 11
-455.5991322375589
 21
399.5104864888597
 31
0.0
 11
-455.5833160529733
 21
399.6284456232613
 31
0.0
 11
-455.564708494019
 21
399.7402285066366
 31
0.0
 11
-455.5494426899308
 21
399.8132558505949
 31
0.0
  0
SPLINE
  5
10D
330
49
100
AcDbEntity
  8
0
  6
Continuous
 62
     7
100
AcDbSpline
210
0.0
220
0.0
230
1.0
 70
     8
 71
     3
 72
    11
 73
     7
 74
     5
 42
0.0000000001
 43
0.0000000001
 44
0.00000001
 40
0.0
 40
0.0
 40
0.0
 40
0.0
 40
0.0967162545530949
 40
0.1879109266246129
 40
0.3069318764226865
 40
0.4410752452598259
 40
0.4410752452598259
 40
0.4410752452598259
 40
0.4410752452598259
 10
-455.5494426899304
 20
396.5966333712256
 30
0.0
 10
-455.5561570634453
 20
396.6281714296416
 30
0.0
 10
-455.5692024833152
 20
396.6894470219218
 30
0.0
 10
-455.5850292165804
 20
396.7905585378776
 30
0.0
 10
-455.6003448053914
 20
396.9043258369197
 30
0.0
 10
-455.6091568465362
 20
396.9882578376942
 30
0.0
 10
-455.6138260546295
 20
397.0327306188421
 30
0.0
 11
-455.5494426899304
 21
396.5966333712256
 31
0.0
 11
-455.5686968006077
 21
396.6914137126304
 31
0.0
 11
-455.5833139342213
 21
396.7814293091632
 31
0.0
 11
-455.5991312434468
 21
396.8993945549761
 31
0.0
 11
-455.6138260546295
 21
397.0327306188421
 31
0.0
  0
SPLINE
  5
10E
330
49
100
AcDbEntity
  8
0
  6
Continuous
 62
     7
100
AcDbSpline
210
0.0
220
0.0
230
1.0
 70
     8
 71
     3
 72
    11
 73
     7
 74
     5
 42
0.0000000001
 43
0.0000000001
 44
0.00000001
 40
0.0
 40
0.0
 40
0.0
 40
0.0
 40
0.0167502109458309
 40
0.0398904210029627
 40
0.0840948210481275
 40
0.1343574658737809
 40
0.1343574658737809
 40
0.1343574658737809
 40
0.1343574658737809
 10
-455.4871351107057
 20
396.4863356201881
 30
0.0
 10
-455.4930243631769
 20
396.4866922351758
 30
0.0
 10
-455.5070495453809
 20
396.4875415093753
 30
0.0
 10
-455.5219439571923
 20
396.5148705865073
 30
0.0
 10
-455.5367194272043
 20
396.5496200005742
 30
0.0
 10
-455.5450240745325
 20
396.5803062696056
 30
0.0
 10
-455.5494426899304
 20
396.5966333712256
 30
0.0
 11
-455.4871351107057
 21
396.4863356201881
 31
0.0
 11
-455.5035756741544
 21
396.4895414648849
 31
0.0
 11
-455.5178038529742
 21
396.5077905264761
 31
0.0
 11
-455.5351780042474
 21
396.54843739414
 31
0.0
 11
-455.5494426899304
 21
396.5966333712256
 31
0.0
  0
SPLINE
  5
10F
330
49
100
AcDbEntity
  8
0
  6
Continuous
 62
     7
100
AcDbSpline
210
0.0
220
0.0
230
1.0
 70
     8
 71
     3
 72
    29
 73
    25
 74
    23
 42
0.0000000001
 43
0.0000000001
 44
0.00000001
 40
0.0
 40
0.0
 40
0.0
 40
0.0
 40
0.0319334578243904
 40
0.0949106987842747
 40
0.1863327770641112
 40
0.3118834600918513
 40
0.4933570762797503
 40
0.7018597897864607
 40
0.9298149395340694
 40
1.131849124206981
 40
1.321810974408218
 40
1.491040488994136
 40
1.630867959885981
 40
1.732617289128357
 40
2.140414889629237
 40
2.535412398602324
 40
2.739438939566055
 40
2.952579894834357
 40
3.153342378617018
 40
3.268102450785894
 40
3.370311618327588
 40
3.419860894020387
 40
3.449515647035741
 40
3.465644842572073
 40
3.465644842572073
 40
3.465644842572073
 40
3.465644842572073
 10
-455.4871351107058
 20
399.9235536016321
 30
0.0
 10
-455.4798980172048
 20
399.9155758700263
 30
0.0
 10
-455.458388364065
 20
399.8918649369481
 30
0.0
 10
-455.4458017449494
 20
399.8286686275446
 30
0.0
 10
-455.4274231591993
 20
399.738269531124
 30
0.0
 10
-455.4124448106467
 20
399.6056845551474
 30
0.0
 10
-455.3979697275254
 20
399.4346791305842
 30
0.0
 10
-455.3863828354777
 20
399.2289226613935
 30
0.0
 10
-455.3779736156775
 20
399.0162778954864
 30
0.0
 10
-455.3723478717781
 20
398.8096940592019
 30
0.0
 10
-455.3688991558719
 20
398.622650331867
 30
0.0
 10
-455.3669929563133
 20
398.4563202400178
 30
0.0
 10
-455.3661776604841
 20
398.3193866779875
 30
0.0
 10
-455.3658112180052
 20
398.1029287134532
 30
0.0
 10
-455.367882617978
 20
397.8014090915352
 30
0.0
 10
-455.375288079708
 20
397.4658700754501
 30
0.0
 10
-455.3857347629066
 20
397.1953290607659
 30
0.0
 10
-455.397077740699
 20
396.989694325314
 30
0.0
 10
-455.4110082229334
 20
396.8138679436435
 30
0.0
 10
-455.4277745474991
 20
396.6758440672199
 30
0.0
 10
-455.4422428835297
 20
396.587585057912
 30
0.0
 10
-455.4591285635439
 20
396.5301695208666
 30
0.0
 10
-455.4707834765563
 20
396.4993389887348
 30
0.0
 10
-455.4828752930464
 20
396.4897231702312
 30
0.0
 10
-455.4871351107057
 20
396.4863356201881
 30
0.0
 11
-455.4871351107058
 21
399.9235536016321
 31
0.0
 11
-455.4671330418478
 21
399.8986605710809
 31
0.0
 11
-455.4477719655926
 21
399.8387332684121
 31
0.0
 11
-455.4307444932321
 21
399.7489108793211
 31
0.0
 11
-455.4150355006955
 21
399.6243468332957
 31
0.0
 11
-455.3995163128382
 21
399.4435380166396
 31
0.0
 11
-455.3873034513016
 21
399.2353932892196
 31
0.0
 11
-455.3781272136169
 21
399.0076229071275
 31
0.0
 11
-455.3725433670552
 21
398.8056659007275
 31
0.0
 11
-455.3690053409522
 21
398.6157370011278
 31
0.0
 11
-455.3670507082226
 21
398.4465187751063
 31
0.0
 11
-455.3662170417807
 21
398.3066937894411
 31
0.0
 11
-455.3660419145413
 21
398.2049446109101
 31
0.0
 11
-455.3689612049708
 21
397.7971574596686
 31
0.0
 11
-455.3781272136168
 21
397.4022663146926
 31
0.0
 11
-455.386165707555
 21
397.1983981905711
 31
0.0
 11
-455.3981823635953
 21
396.9855962479336
 31
0.0
 11
-455.4150355006954
 21
396.7855423885245
 31
0.0
 11
-455.4291371826075
 21
396.671652016976
 31
0.0
 11
-455.4477719655925
 21
396.571155953408
 31
0.0
 11
-455.4618846987623
 21
396.5236589905139
 31
0.0
 11
-455.4751616785323
 21
396.4971424638827
 31
0.0
 11
-455.4871351107057
 21
396.4863356201881
 31
0.0
  0
SPLINE
  5
110
330
49
100
AcDbEntity
  8
0
  6
Continuous
 62
     7
100
AcDbSpline
210
0.0
220
0.0
230
1.0
 70
     8
 71
     3
 72
     9
 73
     5
 74
     3
 42
0.0000000001
 43
0.0000000001
 44
0.00000001
 40
0.0
 40
0.0
 40
0.0
 40
0.0
 40
0.04968501365737
 40
0.1223309247296008
 40
0.1223309247296008
 40
0.1223309247296008
 40
0.1223309247296008
 10
-455.4691054395408
 20
396.5072297119199
 30
0.0
 10
-455.4835767482489
 20
396.5158600750073
 30
0.0
 10
-455.519206980506
 20
396.5371091442842
 30
0.0
 10
-455.5381772457611
 20
396.574455394651
 30
0.0
 10
-455.5494426899304
 20
396.5966333712256
 30
0.0
 11
-455.4691054395408
 21
396.5072297119199
 31
0.0
 11
-455.5097711396488
 21
396.5357761901064
 31
0.0
 11
-455.5494426899304
 21
396.5966333712256
 31
0.0
  0
SPLINE
  5
111
330
49
100
AcDbEntity
  8
0
  6
Continuous
 62
     3
100
AcDbSpline
210
0.0
220
0.0
230
1.0
 70
     8
 71
     3
 72
    11
 73
     7
 74
     5
 42
0.0000000001
 43
0.0000000001
 44
0.00000001
 40
0.0
 40
0.0
 40
0.0
 40
0.0
 40
0.1161796186612667
 40
0.2881981063090506
 40
0.4603670472189301
 40
0.5652437936579986
 40
0.5652437936579986
 40
0.5652437936579986
 40
0.5652437936579986
 10
-363.7266294152014
 20
443.5169345511769
 30
0.0
 10
-363.722789684697
 20
443.5554785354374
 30
0.0
 10
-363.7132647519002
 20
443.6510917195869
 30
0.0
 10
-363.6868916698314
 20
443.8024130008021
 30
0.0
 10
-363.6498834626106
 20
443.9478014316131
 30
0.0
 10
-363.6175747706677
 20
444.0343545330006
 30
0.0
 10
-363.6053441868781
 20
444.0671195536534
 30
0.0
 11
-363.7266294152014
 21
443.5169345511769
 31
0.0
 11
-363.7139750824384
 21
443.6324229560261
 31
0.0
 11
-363.6847402710906
 21
443.8019389903653
 31
0.0
 11
-363.6406778767634
 21
443.9683741117195
 31
0.0
 11
-363.6053441868781
 21
444.0671195536534
 31
0.0
  0
SPLINE
  5
112
330
49
100
AcDbEntity
  8
0
  6
Continuous
 62
     7
100
AcDbSpline
210
0.0
220
0.0
230
1.0
 70
     8
 71
     3
 72
     9
 73
     5
 74
     3
 42
0.0000000001
 43
0.0000000001
 44
0.00000001
 40
0.0
 40
0.0
 40
0.0
 40
0.0
 40
0.0726461081866008
 40
0.1223311962051819
 40
0.1223311962051819
 40
0.1223311962051819
 40
0.1223311962051819
 10
-363.76284473186
 20
446.4326898829854
 30
0.0
 10
-363.7503802738887
 20
446.4111628319731
 30
0.0
 10
-363.7293909588142
 20
446.374912715252
 30
0.0
 10
-363.730975735763
 20
446.33345752069
 30
0.0
 10
-363.7316193964533
 20
446.3166204010138
 30
0.0
 11
-363.76284473186
 21
446.4326898829854
 31
0.0
 11
-363.7334122283213
 21
446.3662731323113
 31
0.0
 11
-363.7316193964533
 21
446.3166204010138
 31
0.0
  0
SPLINE
  5
113
330
49
100
AcDbEntity
  8
0
  6
Continuous
 62
     7
100
AcDbSpline
210
0.0
220
0.0
230
1.0
 70
     8
 71
     3
 72
    11
 73
     7
 74
     5
 42
0.0000000001
 43
0.0000000001
 44
0.00000001
 40
0.0
 40
0.0
 40
0.0
 40
0.0
 40
0.0502626448201626
 40
0.0944670448705427
 40
0.1176072549243636
 40
0.1343574658732319
 40
0.1343574658732319
 40
0.1343574658732319
 40
0.1343574658732319
 10
-363.76284473186
 20
446.4326898829854
 30
0.0
 10
-363.7515582226992
 20
446.4200917434305
 30
0.0
 10
-363.7303455871298
 20
446.3964139401855
 30
0.0
 10
-363.709249574028
 20
446.3650963010153
 30
0.0
 10
-363.6944415594637
 20
446.3377203140046
 30
0.0
 10
-363.701367959889
 20
446.325495258599
 30
0.0
 10
-363.7042763941777
 20
446.3203618894402
 30
0.0
 11
-363.76284473186
 21
446.4326898829854
 31
0.0
 11
-363.7301932890339
 21
446.3944771004946
 31
0.0
 11
-363.7055665984253
 21
446.3577680403938
 31
0.0
 11
-363.698010869159
 21
446.3358961342906
 31
0.0
 11
-363.7042763941777
 21
446.3203618894402
 31
0.0
  0
SPLINE
  5
114
330
49
100
AcDbEntity
  8
0
  6
Continuous
 62
     7
100
AcDbSpline
210
0.0
220
0.0
230
1.0
 70
     8
 71
     3
 72
    33
 73
    29
 74
    27
 42
0.0000000001
 43
0.0000000001
 44
0.00000001
 40
0.0
 40
0.0
 40
0.0
 40
0.0
 40
0.0378492335837179
 40
0.0947827619206284
 40
0.1969919294572684
 40
0.311752001631078
 40
0.5125144854059682
 40
0.7256554406721412
 40
0.9296819816458298
 40
1.004512283678678
 40
1.125666513840259
 40
1.289681782768924
 40
1.493103069274478
 40
1.73248452844372
 40
1.971865987617193
 40
2.175287274125644
 40
2.339302543054587
 40
2.460456773214199
 40
2.535287075241511
 40
2.76324222495843
 40
2.97174493847071
 40
3.153218554683646
 40
3.246717741857563
 40
3.317919853433732
 40
3.370212498338383
 40
3.419761774013204
 40
3.449416527034334
 40
3.465545722582962
 40
3.465545722582962
 40
3.465545722582962
 40
3.465545722582962
 10
-363.7042763941777
 20
446.3203618894402
 30
0.0
 10
-363.7169484266191
 20
446.3187672308192
 30
0.0
 10
-363.7486819683638
 20
446.3147738567368
 30
0.0
 10
-363.8115676904018
 20
446.3391588909952
 30
0.0
 10
-363.8954698036607
 20
446.3729472999882
 30
0.0
 10
-364.0204672076673
 20
446.4353427242161
 30
0.0
 10
-364.1754638944731
 20
446.5188289925466
 30
0.0
 10
-364.3541195529672
 20
446.6215043620186
 30
0.0
 10
-364.4950080409842
 20
446.7054237798831
 30
0.0
 10
-364.6090347942078
 20
446.7745405705708
 30
0.0
 10
-364.7113178011521
 20
446.8372960903404
 30
0.0
 10
-364.849587519574
 20
446.9233571535166
 30
0.0
 10
-365.0205388161777
 20
447.0314804890582
 30
0.0
 10
-365.2117517888504
 20
447.15455430311
 30
0.0
 10
-365.4019585910352
 20
447.2791774222251
 30
0.0
 10
-365.5702664622112
 20
447.3913714239424
 30
0.0
 10
-365.7051261597145
 20
447.4826830678751
 30
0.0
 10
-365.8040592702898
 20
447.5505978985362
 30
0.0
 10
-365.9201280100497
 20
447.6312051748253
 30
0.0
 10
-366.0593157757381
 20
447.7295656510594
 30
0.0
 10
-366.2254125535817
 20
447.8514120911494
 30
0.0
 10
-366.3529299627227
 20
447.9499753952524
 30
0.0
 10
-366.441832056057
 20
448.0236327996044
 30
0.0
 10
-366.4957412673355
 20
448.0717545938072
 30
0.0
 10
-366.5373224399107
 20
448.112082979176
 30
0.0
 10
-366.5654463571315
 20
448.1450473788811
 30
0.0
 10
-366.5849715511646
 20
448.1716087885018
 30
0.0
 10
-366.5864493411995
 20
448.1869872917325
 30
0.0
 10
-366.5869699508277
 20
448.1924049739902
 30
0.0
 11
-363.7042763941777
 21
446.3203618894402
 31
0.0
 11
-363.7420571191628
 21
446.3180856419857
 31
0.0
 11
-363.7968514165823
 21
446.3335456426066
 31
0.0
 11
-363.8912837375092
 21
446.3726512776595
 31
0.0
 11
-363.9944805665325
 21
446.422853754141
 31
0.0
 11
-364.1714387267432
 21
446.5176766650134
 31
0.0
 11
-364.356454192783
 21
446.6234988939535
 31
0.0
 11
-364.531810465816
 21
446.7277917840738
 31
0.0
 11
-364.5958029027083
 21
446.7665802117671
 31
0.0
 11
-364.6990823542809
 21
446.8299182127531
 31
0.0
 11
-364.8383420662268
 21
446.9165654346964
 31
0.0
 11
-365.0102752842383
 21
447.0252815252616
 31
0.0
 11
-365.2115752540086
 21
447.1548261321137
 31
0.0
 11
-365.4117962151196
 21
447.2860322666037
 31
0.0
 11
-365.5810448457577
 21
447.3988822592128
 31
0.0
 11
-365.7168430495342
 21
447.4908597363086
 31
0.0
 11
-365.8167127300608
 21
447.5594483242595
 31
0.0
 11
-365.8781757909484
 21
447.6021316494325
 31
0.0
 11
-366.0642023693962
 21
447.7338801309928
 31
0.0
 11
-366.2321156250392
 21
447.8574864420023
 31
0.0
 11
-366.3753023025148
 21
447.9689774675375
 31
0.0
 11
-366.447113632869
 21
448.0288542646708
 31
0.0
 11
-366.5001047372991
 21
448.0764114254795
 31
0.0
 11
-366.5372723391623
 21
448.1131957982873
 31
0.0
 11
-366.5694202986227
 21
448.1509004322522
 31
0.0
 11
-366.5844277676289
 21
448.176477379896
 31
0.0
 11
-366.5869699508277
 21
448.1924049739902
 31
0.0
  0
SPLINE
  5
115
330
49
100
AcDbEntity
  8
0
  6
Continuous
 62
     7
100
AcDbSpline
210
0.0
220
0.0
230
1.0
 70
     8
 71
     3
 72
    15
 73
    11
 74
     9
 42
0.0000000001
 43
0.0000000001
 44
0.00000001
 40
0.0
 40
0.0
 40
0.0
 40
0.0
 40
0.2579981157435961
 40
0.5445111242855146
 40
0.8492567162099467
 40
1.176263595995601
 40
1.503115120702032
 40
1.807746336373036
 40
2.094635592965636
 40
2.352944694241605
 40
2.352944694241605
 40
2.352944694241605
 40
2.352944694241605
 10
-364.0935209645776
 20
446.7242019001383
 30
0.0
 10
-364.160081109776
 20
446.7786585794117
 30
0.0
 10
-364.3005578701979
 20
446.8935906887825
 30
0.0
 10
-364.5189157904444
 20
447.0737704394513
 30
0.0
 10
-364.761746600069
 20
447.2602688612375
 30
0.0
 10
-365.0246667870435
 20
447.4421613495637
 30
0.0
 10
-365.2977259638699
 20
447.6083723530118
 30
0.0
 10
-365.5668870167767
 20
447.7543950055182
 30
0.0
 10
-365.820471362638
 20
447.8806809162563
 30
0.0
 10
-365.9828096052313
 20
447.9623669387256
 30
0.0
 10
-366.0597237135402
 20
448.0010688950803
 30
0.0
 11
-364.0935209645776
 21
446.7242019001383
 31
0.0
 11
-364.2930949948653
 21
446.8877049097803
 31
0.0
 11
-364.5152453866767
 21
447.0686438704321
 31
0.0
 11
-364.7573045998292
 21
447.2537849332068
 31
0.0
 11
-365.0264447145947
 21
447.439518877469
 31
0.0
 11
-365.3054434628908
 21
447.6097881279287
 31
0.0
 11
-365.5729198727043
 21
447.7555843821827
 31
0.0
 11
-365.8289037493093
 21
447.8851131452685
 31
0.0
 11
-366.0597237135402
 21
448.0010688950803
 31
0.0
  0
SPLINE
  5
116
330
49
100
AcDbEntity
  8
0
  6
Continuous
 62
     7
100
AcDbSpline
210
0.0
220
0.0
230
1.0
 70
     8
 71
     3
 72
    11
 73
     7
 74
     5
 42
0.0000000001
 43
0.0000000001
 44
0.00000001
 40
0.0
 40
0.0
 40
0.0
 40
0.0
 40
0.1473700178183283
 40
0.2531498577053473
 40
0.3443511903151363
 40
0.4410752273648494
 40
0.4410752273648494
 40
0.4410752273648494
 40
0.4410752273648494
 10
-364.0935209645776
 20
446.7242019001383
 30
0.0
 10
-364.0553504525776
 20
446.6932746994412
 30
0.0
 10
-363.9897817580467
 20
446.6401484491249
 30
0.0
 10
-363.902827419084
 20
446.5652119960529
 30
0.0
 10
-363.8299275913629
 20
446.4998174834899
 30
0.0
 10
-363.7856395272645
 20
446.4554998814087
 30
0.0
 10
-363.76284473186
 20
446.4326898829854
 30
0.0
 11
-364.0935209645776
 21
446.7242019001383
 31
0.0
 11
-363.9795666341215
 21
446.630754948759
 31
0.0
 11
-363.8993908744198
 21
446.5617533394823
 31
0.0
 11
-363.8318533559782
 21
446.5004641342945
 31
0.0
 11
-363.76284473186
 21
446.4326898829854
 31
0.0
  0
SPLINE
  5
117
330
49
100
AcDbEntity
  8
0
  6
Continuous
 62
     7
100
AcDbSpline
210
0.0
220
0.0
230
1.0
 70
     8
 71
     3
 72
    11
 73
     7
 74
     5
 42
0.0000000001
 43
0.0000000001
 44
0.00000001
 40
0.0
 40
0.0
 40
0.0
 40
0.0
 40
0.0746012994745565
 40
0.187912462338528
 40
0.293697122942971
 40
0.4410767643756566
 40
0.4410767643756566
 40
0.4410767643756566
 40
0.4410767643756566
 10
-366.4605313334989
 20
448.1845880461564
 30
0.0
 10
-366.4372769773348
 20
448.1757691053089
 30
0.0
 10
-366.3787018136627
 20
448.1535551639761
 30
0.0
 10
-366.2892054149731
 20
448.1137586980155
 30
0.0
 10
-366.1787130900521
 20
448.0616550671083
 30
0.0
 10
-366.1035057053303
 20
448.0233615010598
 30
0.0
 10
-366.0597237135402
 20
448.0010688950803
 30
0.0
 11
-366.4605313334989
 21
448.1845880461564
 31
0.0
 11
-366.3909753368924
 21
448.1576192267651
 31
0.0
 11
-366.2871008174694
 21
448.1123477805298
 31
0.0
 11
-366.1914498090706
 21
448.0671672646907
 31
0.0
 11
-366.0597237135402
 21
448.0010688950803
 31
0.0
  0
SPLINE
  5
118
330
49
100
AcDbEntity
  8
0
  6
Continuous
 62
     7
100
AcDbSpline
210
0.0
220
0.0
230
1.0
 70
     8
 71
     3
 72
     9
 73
     5
 74
     3
 42
0.0000000001
 43
0.0000000001
 44
0.00000001
 40
0.0
 40
0.0
 40
0.0
 40
0.0
 40
0.0496850136572323
 40
0.1223309247294926
 40
0.1223309247294926
 40
0.1223309247294926
 40
0.1223309247294926
 10
-366.5792663537531
 20
448.1659042814761
 30
0.0
 10
-366.5641466826308
 20
448.1733405095455
 30
0.0
 10
-366.5269200983183
 20
448.1916494640827
 30
0.0
 10
-366.4852669503503
 20
448.1872190414571
 30
0.0
 10
-366.4605313334989
 20
448.1845880461564
 30
0.0
 11
-366.5792663537531
 21
448.1659042814761
 31
0.0
 11
-366.5331771350146
 21
448.184461880949
 31
0.0
 11
-366.4605313334989
 21
448.1845880461564
 31
0.0
  0
SPLINE
  5
119
330
49
100
AcDbEntity
  8
0
  6
Continuous
 62
     3
100
AcDbSpline
210
0.0
220
0.0
230
1.0
 70
     8
 71
     3
 72
    23
 73
    19
 74
    17
 42
0.0000000001
 43
0.0000000001
 44
0.00000001
 40
0.0
 40
0.0
 40
0.0
 40
0.0
 40
0.0101704320776411
 40
0.0196129814181579
 40
0.0293454014696661
 40
0.0400170647260279
 40
0.0604162524912049
 40
0.0837202566855626
 40
0.1295248794825878
 40
0.1853299991472233
 40
0.2348302731966513
 40
0.2956596391909059
 40
0.3691306345345687
 40
0.456654829274278
 40
0.6288859845492117
 40
0.8244933973888944
 40
1.042735203211485
 40
1.282725821288485
 40
1.282725821288485
 40
1.282725821288485
 40
1.282725821288485
 10
-363.3597026412367
 20
445.2897527617901
 30
0.0
 10
-363.3577031678022
 20
445.2870099197015
 30
0.0
 10
-363.3538473202811
 20
445.281720536664
 30
0.0
 10
-363.3491747642406
 20
445.2731106253893
 30
0.0
 10
-363.3443117114784
 20
445.2644333831377
 30
0.0
 10
-363.3383508572615
 20
445.2521996371975
 30
0.0
 10
-363.331334626968
 20
445.2354710873653
 30
0.0
 10
-363.3219084823791
 20
445.2071344785856
 30
0.0
 10
-363.3127706505858
 20
445.1664063262051
 30
0.0
 10
-363.3072456887768
 20
445.1162487077135
 30
0.0
 10
-363.3058231241071
 20
445.0608480180549
 30
0.0
 10
-363.3085050779872
 20
444.9995915877733
 30
0.0
 10
-363.3165336797978
 20
444.9260386359653
 30
0.0
 10
-363.3352161114891
 20
444.8164874146747
 30
0.0
 10
-363.3715211712362
 20
444.6689175142762
 30
0.0
 10
-363.4313117452579
 20
444.4828265316586
 30
0.0
 10
-363.5092197616025
 20
444.279129289088
 30
0.0
 10
-363.5723046581784
 20
444.1399907486533
 30
0.0
 10
-363.6053441868781
 20
444.0671195536534
 30
0.0
 11
-363.3597026412367
 21
445.2897527617901
 31
0.0
 11
-363.353901310867
 21
445.2813991844374
 31
0.0
 11
-363.3492036748698
 21
445.2732080945169
 31
0.0
 11
-363.34454295439
 21
445.2646642262672
 31
0.0
 11
-363.3398344337999
 21
445.2550874715711
 31
0.0
 11
-363.3319353364877
 21
445.2362797305283
 31
0.0
 11
-363.3245307469609
 21
445.2141833809332
 31
0.0
 11
-363.314257750557
 21
445.1695456276915
 31
0.0
 11
-363.3078432097511
 21
445.1141103947883
 31
0.0
 11
-363.3064343600165
 21
445.0646301737561
 31
0.0
 11
-363.3089157843058
 21
445.0038514414499
 31
0.0
 11
-363.3166913251617
 21
444.9307930530117
 31
0.0
 11
-363.3311648251266
 21
444.8444738635831
 31
0.0
 11
-363.3714549588912
 21
444.6770215540482
 31
0.0
 11
-363.4305870200578
 21
444.4905660384419
 31
0.0
 11
-363.5085528241967
 21
444.2867258579237
 31
0.0
 11
-363.6053441868781
 21
444.0671195536534
 31
0.0
  0
SPLINE
  5
11A
330
49
100
AcDbEntity
  8
0
  6
Continuous
 62
     3
100
AcDbSpline
210
0.0
220
0.0
230
1.0
 70
     8
 71
     3
 72
    15
 73
    11
 74
     9
 42
0.0000000001
 43
0.0000000001
 44
0.00000001
 40
0.0
 40
0.0
 40
0.0
 40
0.0
 40
0.042242524284625
 40
0.0843548714240784
 40
0.1261441433234809
 40
0.1674203197951321
 40
0.2080000514842265
 40
0.2477110741389095
 40
0.2863949475313319
 40
0.3239114363984694
 40
0.3239114363984694
 40
0.3239114363984694
 40
0.3239114363984694
 10
-363.3375934076978
 20
443.886875177243
 30
0.0
 10
-363.3501888581933
 20
443.893172893767
 30
0.0
 10
-363.3753409442741
 20
443.9057489193868
 30
0.0
 10
-363.4121307372119
 20
443.9261343561417
 30
0.0
 10
-363.4479650613901
 20
443.9475242070188
 30
0.0
 10
-363.482578680383
 20
443.9699147725244
 30
0.0
 10
-363.5157901534405
 20
443.9931501244587
 30
0.0
 10
-363.5473862793084
 20
444.0171299291841
 30
0.0
 10
-363.5773069745592
 20
444.0416015810854
 30
0.0
 10
-363.5960943900942
 20
444.058700882856
 30
0.0
 10
-363.6053441868781
 20
444.0671195536534
 30
0.0
 11
-363.3375934076978
 21
443.886875177243
 31
0.0
 11
-363.3752418129653
 21
443.9060331635347
 31
0.0
 11
-363.4121112132502
 21
443.9263825395502
 31
0.0
 11
-363.4479789840152
 21
443.9478265659034
 31
0.0
 11
-363.4826331910577
 21
443.9702499616849
 31
0.0
 11
-363.5158711028865
 21
443.9935299067282
 31
0.0
 11
-363.5475094782956
 21
444.0175294592606
 31
0.0
 11
-363.577380878273
 21
444.0421087498124
 31
0.0
 11
-363.6053441868781
 21
444.0671195536534
 31
0.0
  0
SPLINE
  5
11B
330
49
100
AcDbEntity
  8
0
  6
Continuous
 62
     3
100
AcDbSpline
210
0.0
220
0.0
230
1.0
 70
     8
 71
     3
 72
    11
 73
     7
 74
     5
 42
0.0000000001
 43
0.0000000001
 44
0.00000001
 40
0.0
 40
0.0
 40
0.0
 40
0.0
 40
12.27069391040669
 40
24.54138782081236
 40
24.63380022449139
 40
24.72621304439652
 40
24.72621304439652
 40
24.72621304439652
 40
24.72621304439652
 10
-369.0355339059293
 20
446.2695235555478
 30
0.0
 10
-369.0355336957182
 20
442.1792922520796
 30
0.0
 10
-369.0355332752961
 20
433.9988296451436
 30
0.0
 10
-369.035535385312
 20
425.7875629036389
 30
0.0
 10
-369.0355338723942
 20
421.6357231923145
 30
0.0
 10
-369.0355338500877
 20
421.5741147844531
 30
0.0
 10
-369.0355338389343
 20
421.5433105111513
 30
0.0
 11
-369.0355339059293
 21
446.2695235555478
 31
0.0
 11
-369.0355339059267
 21
433.9988296451411
 31
0.0
 11
-369.035533905926
 21
421.7281357347354
 31
0.0
 11
-369.0355338724301
 21
421.6357233310564
 31
0.0
 11
-369.0355338389343
 21
421.5433105111513
 31
0.0
  0
SPLINE
  5
11C
330
49
100
AcDbEntity
  8
0
  6
Continuous
 62
     3
100
AcDbSpline
210
0.0
220
0.0
230
1.0
 70
     8
 71
     3
 72
    11
 73
     7
 74
     5
 42
0.0000000001
 43
0.0000000001
 44
0.00000001
 40
0.0
 40
0.0
 40
0.0
 40
0.0
 40
0.0973266680046832
 40
0.2402738269139099
 40
0.3807959205036177
 40
0.4643273107326356
 40
0.4643273107326356
 40
0.4643273107326356
 40
0.4643273107326356
 10
-363.3930051238802
 20
443.4279235163438
 30
0.0
 10
-363.3934257856121
 20
443.4603717758351
 30
0.0
 10
-363.3944642882775
 20
443.5404779547941
 30
0.0
 10
-363.3857941249129
 20
443.66725675052
 30
0.0
 10
-363.3666387707161
 20
443.7884832454934
 30
0.0
 10
-363.3454813103787
 20
443.8601546992877
 30
0.0
 10
-363.3375934076978
 20
443.886875177243
 30
0.0
 11
-363.3930051238802
 21
443.4279235163438
 31
0.0
 11
-363.3931990940504
 21
443.5252499910589
 31
0.0
 11
-363.3836177496971
 21
443.6678756832767
 31
0.0
 11
-363.3599417964589
 21
443.8063888885139
 31
0.0
 11
-363.3375934076978
 21
443.886875177243
 31
0.0
  0
SPLINE
  5
11D
330
49
100
AcDbEntity
  8
0
  6
Continuous
 62
     3
100
AcDbSpline
210
0.0
220
0.0
230
1.0
 70
     8
 71
     3
 72
    20
 73
    16
 74
    14
 42
0.0000000001
 43
0.0000000001
 44
0.00000001
 40
0.0
 40
0.0
 40
0.0
 40
0.0
 40
0.0309983398677814
 40
0.0607134997497573
 40
0.090596601676389
 40
0.1237899828306802
 40
0.1866214768554627
 40
0.2595560798369236
 40
0.4118738370506723
 40
0.5814665585824703
 40
0.7969593728892557
 40
1.00483352161142
 40
1.193290753755122
 40
1.349203538888426
 40
1.45867407001716
 40
1.45867407001716
 40
1.45867407001716
 40
1.45867407001716
 10
-363.3597026412367
 20
445.2897527617901
 30
0.0
 10
-363.3527149450947
 20
445.282129427872
 30
0.0
 10
-363.339028809328
 20
445.2671983288549
 30
0.0
 10
-363.3212505123606
 20
445.2427384533285
 30
0.0
 10
-363.3037887018926
 20
445.2172054503441
 30
0.0
 10
-363.2823791847847
 20
445.1810717585499
 30
0.0
 10
-363.2575550539758
 20
445.1304117006672
 30
0.0
 10
-363.2241298604383
 20
445.040227427617
 30
0.0
 10
-363.1957705311521
 20
444.9110540212376
 30
0.0
 10
-363.1823800915441
 20
444.7319869008781
 30
0.0
 10
-363.1917543926846
 20
444.5340865544246
 30
0.0
 10
-363.2210331514005
 20
444.3320366318734
 30
0.0
 10
-363.2603234671972
 20
444.1520874261325
 30
0.0
 10
-363.299942595067
 20
444.0060260711138
 30
0.0
 10
-363.3265980438118
 20
443.9216714364445
 30
0.0
 10
-363.3375934076978
 20
443.886875177243
 30
0.0
 11
-363.3597026412367
 21
445.2897527617901
 31
0.0
 11
-363.339201469354
 21
445.2665019762982
 31
0.0
 11
-363.3214027765182
 21
445.2427070764213
 31
0.0
 11
-363.304668484217
 21
445.2179489819483
 31
0.0
 11
-363.2876841307329
 21
445.1894300007396
 31
0.0
 11
-363.2599378787417
 21
445.13305676115
 31
0.0
 11
-363.2343842173699
 21
445.0647452196467
 31
0.0
 11
-363.200391964434
 21
444.9162688716886
 31
0.0
 11
-363.1865655891448
 21
444.7472407008326
 31
0.0
 11
-363.1953897623728
 21
444.5319286320006
 31
0.0
 11
-363.2245018276554
 21
444.326103100635
 31
0.0
 11
-363.2643045881792
 21
444.1418970513262
 31
0.0
 11
-363.3052008471312
 21
443.9914434286654
 31
0.0
 11
-363.3375934076978
 21
443.886875177243
 31
0.0
  0
SPLINE
  5
11E
330
49
100
AcDbEntity
  8
0
  6
Continuous
 62
     3
100
AcDbSpline
210
0.0
220
0.0
230
1.0
 70
     8
 71
     3
 72
    15
 73
    11
 74
     9
 42
0.0000000001
 43
0.0000000001
 44
0.00000001
 40
0.0
 40
0.0
 40
0.0
 40
0.0
 40
0.0469664305987225
 40
0.0934754217885103
 40
0.1392085677563908
 40
0.1838551671015063
 40
0.2271196856524686
 40
0.2687311133496669
 40
0.3084480816889044
 40
0.3460676840494271
 40
0.3460676840494271
 40
0.3460676840494271
 40
0.3460676840494271
 10
-363.3930051238802
 20
443.4279235163438
 30
0.0
 10
-363.4084534782673
 20
443.4304664449598
 30
0.0
 10
-363.4391997245513
 20
443.4355275348049
 30
0.0
 10
-363.4847372697135
 20
443.4444847802421
 30
0.0
 10
-363.5292865335617
 20
443.4543754736075
 30
0.0
 10
-363.5724976869289
 20
443.4652315777658
 30
0.0
 10
-363.6140588335488
 20
443.4769491499516
 30
0.0
 10
-363.653659658387
 20
443.4894788609084
 30
0.0
 10
-363.6910937786596
 20
443.5025860294575
 30
0.0
 10
-363.7150003179485
 20
443.5122389731389
 30
0.0
 10
-363.7266294152014
 20
443.5169345511769
 30
0.0
 11
-363.3930051238802
 21
443.4279235163438
 31
0.0
 11
-363.4393075707158
 21
443.4357930157068
 31
0.0
 11
-363.4849517600767
 21
443.4447201786982
 31
0.0
 11
-363.5295912715692
 21
443.4546617406394
 31
0.0
 11
-363.5728890022285
 21
443.4655532672925
 31
0.0
 11
-363.6145222796641
 21
443.4773213926921
 31
0.0
 11
-363.6541951206114
 21
443.4898743447818
 31
0.0
 11
-363.6916398900748
 21
443.5031154479794
 31
0.0
 11
-363.7266294152014
 21
443.5169345511769
 31
0.0
  0
SPLINE
  5
11F
330
49
100
AcDbEntity
  8
0
  6
Continuous
 62
     7
100
AcDbSpline
210
0.0
220
0.0
230
1.0
 70
     8
 71
     3
 72
    11
 73
     7
 74
     5
 42
0.0000000001
 43
0.0000000001
 44
0.00000001
 40
0.0
 40
0.0
 40
0.0
 40
0.0
 40
0.3264538821044514
 40
0.6789544057287282
 40
1.088543984216302
 40
1.422982395333701
 40
1.422982395333701
 40
1.422982395333701
 40
1.422982395333701
 10
-367.7426411200641
 20
446.8615478122508
 30
0.0
 10
-367.8442202920689
 20
446.82248058384
 30
0.0
 10
-368.0554832916644
 20
446.7412290861456
 30
0.0
 10
-368.3873806203442
 20
446.5943048011118
 30
0.0
 10
-368.7172084669618
 20
446.4366121788885
 30
0.0
 10
-368.9368194221445
 20
446.3213386641766
 30
0.0
 10
-369.0355339059293
 20
446.2695235555478
 30
0.0
 11
-367.7426411200641
 21
446.8615478122508
 31
0.0
 11
-368.0463961780601
 21
446.7419442927253
 31
0.0
 11
-368.3693044408586
 21
446.6005693551591
 31
0.0
 11
-368.7385444239307
 21
446.4232970851715
 31
0.0
 11
-369.0355339059293
 21
446.2695235555478
 31
0.0
  0
SPLINE
  5
120
330
49
100
AcDbEntity
  8
0
  6
Continuous
 62
     7
100
AcDbSpline
210
0.0
220
0.0
230
1.0
 70
     8
 71
     3
 72
    19
 73
    15
 74
    13
 42
0.0000000001
 43
0.0000000001
 44
0.00000001
 40
0.0
 40
0.0
 40
0.0
 40
0.0
 40
0.0180281538577229
 40
0.0349947665198849
 40
0.0528014123533194
 40
0.0719976423817844
 40
0.1114689833242842
 40
0.1536927353789909
 40
0.2397803759745808
 40
0.3551840146244274
 40
0.5095112616789735
 40
0.6638767101578913
 40
0.8087738402494267
 40
0.9339539249282595
 40
0.9339539249282595
 40
0.9339539249282595
 40
0.9339539249282595
 10
-367.7703945744667
 20
447.7676907745673
 30
0.0
 10
-367.7663163283127
 20
447.7632646894057
 30
0.0
 10
-367.7583999729778
 20
447.7546731376557
 30
0.0
 10
-367.748518919559
 20
447.7400659106947
 30
0.0
 10
-367.738572031308
 20
447.7250794465954
 30
0.0
 10
-367.7260428657871
 20
447.7028536002244
 30
0.0
 10
-367.7119212202279
 20
447.6722660265875
 30
0.0
 10
-367.6935326920581
 20
447.6193694525518
 30
0.0
 10
-367.6763181948553
 20
447.5396878933702
 30
0.0
 10
-367.6664947481325
 20
447.4212106972271
 30
0.0
 10
-367.6708563697791
 20
447.2796362067534
 30
0.0
 10
-367.6884896243531
 20
447.1293634824042
 30
0.0
 10
-367.7130517903984
 20
446.9899488673391
 30
0.0
 10
-367.7332700223049
 20
446.9022131079232
 30
0.0
 10
-367.7426411200641
 20
446.8615478122508
 30
0.0
 11
-367.7703945744667
 21
447.7676907745673
 31
0.0
 11
-367.7585227850186
 21
447.754123352306
 31
0.0
 11
-367.7486995511204
 21
447.7402896969319
 31
0.0
 11
-367.7390035518162
 21
447.7253543618727
 31
0.0
 11
-367.7295145476415
 21
447.7086674194602
 31
0.0
 11
-367.712885681706
 21
447.6728698277325
 31
0.0
 11
-367.6988814400414
 21
447.6330360926205
 31
0.0
 11
-367.679971427028
 21
447.549051014951
 31
0.0
 11
-367.6694403010786
 21
447.4341288882745
 31
0.0
 11
-367.6730618414446
 21
447.279844139745
 31
0.0
 11
-367.6903701219665
 21
447.1264521089563
 31
0.0
 11
-367.715513696791
 21
446.983753198821
 31
0.0
 11
-367.7426411200641
 21
446.8615478122508
 31
0.0
  0
SPLINE
  5
121
330
49
100
AcDbEntity
  8
0
  6
Continuous
 62
     7
100
AcDbSpline
210
0.0
220
0.0
230
1.0
 70
     8
 71
     3
 72
    11
 73
     7
 74
     5
 42
0.0000000001
 43
0.0000000001
 44
0.00000001
 40
0.0
 40
0.0
 40
0.0
 40
0.0
 40
0.0167502109481819
 40
0.0398904210026982
 40
0.0796346847856617
 40
0.1343640602279249
 40
0.1343640602279249
 40
0.1343640602279249
 40
0.1343640602279249
 10
-366.5869699508277
 20
448.1924049739902
 30
0.0
 10
-366.5834645168396
 20
448.1971505830579
 30
0.0
 10
-366.5751163689857
 20
448.2084521925843
 30
0.0
 10
-366.5456960104157
 20
448.2061658933732
 30
0.0
 10
-366.5083595855698
 20
448.2000015135445
 30
0.0
 10
-366.4780752844048
 20
448.1902418826116
 30
0.0
 10
-366.4605313334989
 20
448.1845880461564
 30
0.0
 11
-366.5869699508277
 21
448.1924049739902
 31
0.0
 11
-366.5753271306207
 21
448.2044471625137
 31
0.0
 11
-366.5522729581916
 21
448.2064407660296
 31
0.0
 11
-366.513064614976
 21
448.1999359734938
 31
0.0
 11
-366.4605313334989
 21
448.1845880461564
 31
0.0
  0
SPLINE
  5
122
330
49
100
AcDbEntity
  8
0
  6
Continuous
 62
     3
100
AcDbSpline
210
0.0
220
0.0
230
1.0
 70
     8
 71
     3
 72
    11
 73
     7
 74
     5
 42
0.0000000001
 43
0.0000000001
 44
0.00000001
 40
0.0
 40
0.0
 40
0.0
 40
0.0
 40
12.2706939550938
 40
24.54138791018761
 40
24.63379906445095
 40
24.72620980250286
 40
24.72620980250286
 40
24.72620980250286
 40
24.72620980250286
 10
-367.2677669529606
 20
446.0800077868973
 30
0.0
 10
-367.267766971369
 20
441.9897764685328
 30
0.0
 10
-367.267767008186
 20
433.8093138318037
 30
0.0
 10
-367.2677668234064
 20
425.5980474769858
 30
0.0
 10
-367.267766955896
 20
421.4462088611834
 30
0.0
 10
-367.2677669578495
 20
421.384601563745
 30
0.0
 10
-367.2677669588263
 20
421.3537979843944
 30
0.0
 11
-367.2677669529606
 21
446.0800077868973
 31
0.0
 11
-367.2677669529601
 21
433.8093138318035
 31
0.0
 11
-367.2677669529597
 21
421.5386198767097
 31
0.0
 11
-367.267766955893
 21
421.4462087224463
 31
0.0
 11
-367.2677669588263
 21
421.3537979843944
 31
0.0
  0
SPLINE
  5
123
330
49
100
AcDbEntity
  8
0
  6
Continuous
 62
     3
100
AcDbSpline
210
0.0
220
0.0
230
1.0
 70
     8
 71
     3
 72
    15
 73
    11
 74
     9
 42
0.0000000001
 43
0.0000000001
 44
0.00000001
 40
0.0
 40
0.0
 40
0.0
 40
0.0
 40
0.2409329216079681
 40
0.483232229830556
 40
0.7235301949577861
 40
0.958394624827297
 40
1.184499757426959
 40
1.398811818707028
 40
1.598712070038429
 40
1.782156939977003
 40
1.782156939977003
 40
1.782156939977003
 40
1.782156939977003
 10
-369.0355338389343
 20
421.5433105111513
 30
0.0
 10
-368.9552208374549
 20
421.5427295004158
 30
0.0
 10
-368.7941393607922
 20
421.5415641838981
 30
0.0
 10
-368.5531070038102
 20
421.5321423775371
 30
0.0
 10
-368.314414542069
 20
421.5169153133303
 30
0.0
 10
-368.0816101783453
 20
421.4954942223792
 30
0.0
 10
-367.8581266336026
 20
421.4682754032955
 30
0.0
 10
-367.6471953979535
 20
421.4354905425862
 30
0.0
 10
-367.4513462417432
 20
421.39855817917
 30
0.0
 10
-367.3271834591183
 20
421.3682848811929
 30
0.0
 10
-367.2677669588263
 20
421.3537979843944
 30
0.0
 11
-369.0355338389343
 21
421.5433105111513
 31
0.0
 11
-368.7946198155843
 21
421.5402928849585
 31
0.0
 11
-368.5524942552755
 21
421.5311185833329
 31
0.0
 11
-368.3126935822558
 21
421.5156670700226
 31
0.0
 11
-368.0788252970982
 21
421.4940586083611
 31
0.0
 11
-367.8544015658211
 21
421.4665355302703
 31
0.0
 11
-367.642638834211
 21
421.4335779042767
 31
0.0
 11
-367.4463502064682
 21
421.3957508623465
 31
0.0
 11
-367.2677669588263
 21
421.3537979843944
 31
0.0
  0
SPLINE
  5
124
330
49
100
AcDbEntity
  8
0
  6
Continuous
 62
     7
100
AcDbSpline
210
0.0
220
0.0
230
1.0
 70
     8
 71
     3
 72
    11
 73
     7
 74
     5
 42
0.0000000001
 43
0.0000000001
 44
0.00000001
 40
0.0
 40
0.0
 40
0.0
 40
0.0
 40
0.050262644796114
 40
0.0944670448703901
 40
0.1190015307855697
 40
0.134467433636311
 40
0.134467433636311
 40
0.134467433636311
 40
0.134467433636311
 10
-338.4505573100555
 20
396.5966333712292
 30
0.0
 10
-338.4549857917871
 20
396.5802916234948
 30
0.0
 10
-338.4633089825811
 20
396.5495778275385
 30
0.0
 10
-338.4781512703355
 20
396.5145772884674
 30
0.0
 10
-338.4933680870182
 20
396.4868445734861
 30
0.0
 10
-338.5074285126831
 20
396.4864775338114
 30
0.0
 10
-338.5128648892804
 20
396.4863356201919
 30
0.0
 11
-338.4505573100555
 21
396.5966333712292
 31
0.0
 11
-338.4648219957293
 21
396.5484373941717
 31
0.0
 11
-338.4821961470119
 21
396.5077905264801
 31
0.0
 11
-338.4975770799718
 21
396.4886759273369
 31
0.0
 11
-338.5128648892804
 21
396.4863356201919
 31
0.0
  0
SPLINE
  5
125
330
49
100
AcDbEntity
  8
0
  6
Continuous
 62
     7
100
AcDbSpline
210
0.0
220
0.0
230
1.0
 70
     8
 71
     3
 72
    11
 73
     7
 74
     5
 42
0.0000000001
 43
0.0000000001
 44
0.00000001
 40
0.0
 40
0.0
 40
0.0
 40
0.0
 40
0.0967162545487586
 40
0.1879109266247806
 40
0.306931876477711
 40
0.4410752452599371
 40
0.4410752452599371
 40
0.4410752452599371
 40
0.4410752452599371
 10
-338.4505573100559
 20
399.8132558505985
 30
0.0
 10
-338.4438429365413
 20
399.7817177921841
 30
0.0
 10
-338.4307975166714
 20
399.7204421999036
 30
0.0
 10
-338.4149707834031
 20
399.6193306839298
 30
0.0
 10
-338.3996551945929
 20
399.5055633848863
 30
0.0
 10
-338.3908431534481
 20
399.4216313841117
 30
0.0
 10
-338.3861739453568
 20
399.3771586029819
 30
0.0
 11
-338.4505573100559
 21
399.8132558505985
 31
0.0
 11
-338.4313031993794
 21
399.718475509198
 31
0.0
 11
-338.416686065765
 21
399.6284599126608
 31
0.0
 11
-338.4008687565329
 21
399.5104946667934
 31
0.0
 11
-338.3861739453568
 21
399.3771586029819
 31
0.0
  0
SPLINE
  5
126
330
49
100
AcDbEntity
  8
0
  6
Continuous
 62
     7
100
AcDbSpline
210
0.0
220
0.0
230
1.0
 70
     8
 71
     3
 72
     9
 73
     5
 74
     3
 42
0.0000000001
 43
0.0000000001
 44
0.00000001
 40
0.0
 40
0.0
 40
0.0
 40
0.0
 40
0.0726458418623668
 40
0.1223308294103828
 40
0.1223308294103828
 40
0.1223308294103828
 40
0.1223308294103828
 10
-338.4505573100555
 20
396.5966333712292
 30
0.0
 10
-338.4618227438432
 20
396.5744554191486
 30
0.0
 10
-338.4807929949079
 20
396.5371092035486
 30
0.0
 10
-338.5164231742526
 20
396.5158601139433
 30
0.0
 10
-338.5308944651415
 20
396.5072297404101
 30
0.0
 11
-338.4505573100555
 21
396.5966333712292
 31
0.0
 11
-338.4902288134979
 21
396.5357762421932
 31
0.0
 11
-338.5308944651415
 21
396.5072297404101
 31
0.0
  0
SPLINE
  5
127
330
49
100
AcDbEntity
  8
0
  6
Continuous
 62
     7
100
AcDbSpline
210
0.0
220
0.0
230
1.0
 70
     8
 71
     3
 72
     9
 73
     5
 74
     3
 42
0.0000000001
 43
0.0000000001
 44
0.00000001
 40
0.0
 40
0.0
 40
0.0
 40
0.0
 40
0.0496849875479744
 40
0.1223308294102791
 40
0.1223308294102791
 40
0.1223308294102791
 40
0.1223308294102791
 10
-338.5308944651416
 20
399.9026594814178
 30
0.0
 10
-338.5164231742527
 20
399.8940291078845
 30
0.0
 10
-338.4807929949083
 20
399.8727800182792
 30
0.0
 10
-338.4618227438436
 20
399.8354338026791
 30
0.0
 10
-338.4505573100559
 20
399.8132558505985
 30
0.0
 11
-338.5308944651416
 21
399.9026594814178
 31
0.0
 11
-338.4902288134982
 21
399.8741129796346
 31
0.0
 11
-338.4505573100559
 21
399.8132558505985
 31
0.0
  0
SPLINE
  5
128
330
49
100
AcDbEntity
  8
0
  6
Continuous
 62
     7
100
AcDbSpline
210
0.0
220
0.0
230
1.0
 70
     8
 71
     3
 72
    11
 73
     7
 74
     5
 42
0.0000000001
 43
0.0000000001
 44
0.00000001
 40
0.0
 40
0.0
 40
0.0
 40
0.0
 40
0.0136697697935544
 40
0.0401111375467248
 40
0.0843155375950918
 40
0.134578182417348
 40
0.134578182417348
 40
0.134578182417348
 40
0.134578182417348
 10
-338.5128648892805
 20
399.923553601636
 30
0.0
 10
-338.5080736802206
 20
399.9236718411501
 30
0.0
 10
-338.4940148592952
 20
399.9240187907682
 30
0.0
 10
-338.478238423903
 20
399.8957008144741
 30
0.0
 10
-338.4633613934958
 20
399.8603712100014
 30
0.0
 10
-338.4550039933838
 20
399.8296183715185
 30
0.0
 10
-338.4505573100559
 20
399.8132558505985
 30
0.0
 11
-338.5128648892805
 21
399.923553601636
 31
0.0
 11
-338.4992524102668
 21
399.9223033931294
 31
0.0
 11
-338.482196147012
 21
399.9020986953479
 31
0.0
 11
-338.4648219957379
 21
399.8614518276809
 31
0.0
 11
-338.4505573100559
 21
399.8132558505985
 31
0.0
  0
SPLINE
  5
129
330
49
100
AcDbEntity
  8
0
  6
Continuous
 62
     3
100
AcDbSpline
210
0.0
220
0.0
230
1.0
 70
     8
 71
     3
 72
     9
 73
     5
 74
     3
 42
0.0000000001
 43
0.0000000001
 44
0.00000001
 40
0.0
 40
0.0
 40
0.0
 40
0.0
 40
13.46791744006983
 40
27.32333443600526
 40
27.32333443600526
 40
27.32333443600526
 40
27.32333443600526
 10
-363.3930051238802
 20
443.4279235163438
 30
0.0
 10
-363.6182845921431
 20
438.9325015432167
 30
0.0
 10
-364.0753252801559
 20
429.8123151039032
 30
0.0
 10
-362.7492729232098
 20
420.776644903232
 30
0.0
 10
-362.0768437068212
 20
416.1947378610567
 30
0.0
 11
-363.3930051238802
 21
443.4279235163438
 31
0.0
 11
-363.6356245230903
 21
429.9621916016032
 31
0.0
 11
-362.0768437068212
 21
416.1947378610567
 31
0.0
  0
SPLINE
  5
12A
330
49
100
AcDbEntity
  8
0
  6
Continuous
 62
     3
100
AcDbSpline
210
0.0
220
0.0
230
1.0
 70
     8
 71
     3
 72
     9
 73
     5
 74
     3
 42
0.0000000001
 43
0.0000000001
 44
0.00000001
 40
0.0
 40
0.0
 40
0.0
 40
0.0
 40
13.53257822338971
 40
27.45451642575273
 40
27.45451642575273
 40
27.45451642575273
 40
27.45451642575273
 10
-363.7266294152014
 20
443.5169345511769
 30
0.0
 10
-363.9529904721321
 20
438.9999296193312
 30
0.0
 10
-364.4122254570009
 20
429.835956276674
 30
0.0
 10
-363.0798065935402
 20
420.7569049433522
 30
0.0
 10
-362.4041489789932
 20
416.1529997192185
 30
0.0
 11
-363.7266294152014
 21
443.5169345511769
 31
0.0
 11
-363.9704136537766
 21
429.9865523460364
 31
0.0
 11
-362.4041489789932
 21
416.1529997192185
 31
0.0
  0
SPLINE
  5
12B
330
49
100
AcDbEntity
  8
0
  6
Continuous
 62
     3
100
AcDbSpline
210
0.0
220
0.0
230
1.0
 70
     8
 71
     3
 72
    15
 73
    11
 74
     9
 42
0.0000000001
 43
0.0000000001
 44
0.00000001
 40
0.0
 40
0.0
 40
0.0
 40
0.0
 40
0.0461114176387822
 40
0.0914815154677596
 40
0.1357667470578761
 40
0.1786333487729925
 40
0.2197645404081016
 40
0.2588702493120545
 40
0.2956915608541562
 40
0.3300094820933001
 40
0.3300094820933001
 40
0.3300094820933001
 40
0.3300094820933001
 10
-362.0768437068212
 20
416.1947378610567
 30
0.0
 10
-362.0920363921616
 20
416.1924064988364
 30
0.0
 10
-362.1221775144724
 20
416.187781255026
 30
0.0
 10
-362.1669629219957
 20
416.181271489107
 30
0.0
 10
-362.2107169604616
 20
416.1751927827638
 30
0.0
 10
-362.2531132819557
 20
416.1696169995919
 30
0.0
 10
-362.2938378312855
 20
416.164578801357
 30
0.0
 10
-362.3326024855633
 20
416.1601245398361
 30
0.0
 10
-362.3691457237809
 20
416.1562380009324
 30
0.0
 10
-362.3927582016993
 20
416.1540535225174
 30
0.0
 10
-362.4041489789932
 20
416.1529997192185
 30
0.0
 11
-362.0768437068212
 21
416.1947378610567
 31
0.0
 11
-362.1224308853794
 21
416.1878044645038
 31
0.0
 11
-362.167327543698
 21
416.1812671983446
 31
0.0
 11
-362.211192677543
 21
416.1751818249174
 31
0.0
 11
-362.2536939286459
 21
416.169597095981
 31
0.0
 11
-362.294515093825
 21
416.1645565207417
 31
0.0
 11
-362.3333653461725
 21
416.1600939697431
 31
0.0
 11
-362.3699840316709
 21
416.1562363984801
 31
0.0
 11
-362.4041489789932
 21
416.1529997192185
 31
0.0
  0
SPLINE
  5
12C
330
49
100
AcDbEntity
  8
0
  6
Continuous
 62
     7
100
AcDbSpline
210
0.0
220
0.0
230
1.0
 70
     8
 71
     3
 72
    15
 73
    11
 74
     9
 42
0.0000000001
 43
0.0000000001
 44
0.00000001
 40
0.0
 40
0.0
 40
0.0
 40
0.0
 40
0.2579981157440621
 40
0.5445111242855368
 40
0.8492567162034337
 40
1.176263595995508
 40
1.503115120708952
 40
1.807746336373011
 40
2.094635592965706
 40
2.35294469424153
 40
2.35294469424153
 40
2.35294469424153
 40
2.35294469424153
 10
-338.3861739453567
 20
397.0327306188459
 30
0.0
 10
-338.3767539844732
 20
397.1182118868718
 30
0.0
 10
-338.3568729342703
 20
397.2986221244578
 30
0.0
 10
-338.3246877274159
 20
397.5798854109779
 30
0.0
 10
-338.3005321279212
 20
397.8851147844734
 30
0.0
 10
-338.2911808483514
 20
398.2046839563286
 30
0.0
 10
-338.3005032582597
 20
398.5242156517692
 30
0.0
 10
-338.3246339734682
 20
398.8294827414308
 30
0.0
 10
-338.3568336304104
 20
399.1109367053544
 30
0.0
 10
-338.3767417113449
 20
399.2915744079213
 30
0.0
 10
-338.3861739453568
 20
399.3771586029819
 30
0.0
 11
-338.3861739453567
 21
397.0327306188459
 31
0.0
 11
-338.3577445906693
 21
397.2891576055683
 31
0.0
 11
-338.3269881848004
 21
397.5740150217637
 31
0.0
 11
-338.3035507208014
 21
397.8778580092995
 31
0.0
 11
-338.2943653406697
 21
398.2047358583857
 31
0.0
 11
-338.3035191407257
 21
398.5314591773454
 31
0.0
 11
-338.326922207096
 21
398.8351901010944
 31
0.0
 11
-338.357709057327
 21
399.1204226648054
 31
0.0
 11
-338.3861739453568
 21
399.3771586029819
 31
0.0
  0
SPLINE
  5
12D
330
49
100
AcDbEntity
  8
0
  6
Continuous
 62
     7
100
AcDbSpline
210
0.0
220
0.0
230
1.0
 70
     8
 71
     3
 72
    29
 73
    25
 74
    23
 42
0.0000000001
 43
0.0000000001
 44
0.00000001
 40
0.0
 40
0.0
 40
0.0
 40
0.0
 40
0.031933457801516
 40
0.0949106987848681
 40
0.197119866345793
 40
0.311879938495323
 40
0.4933535546918273
 40
0.7018562682001733
 40
0.9298114179373675
 40
1.131845602610107
 40
1.321807452811175
 40
1.491036967396978
 40
1.63086443828905
 40
1.732613767531825
 40
2.140411368040039
 40
2.53540887700568
 40
2.76030749941304
 40
2.934336069373713
 40
3.063393190840521
 40
3.153347705682211
 40
3.268107777854894
 40
3.370316945392607
 40
3.433294186378958
 40
3.465227644177475
 40
3.465227644177475
 40
3.465227644177475
 40
3.465227644177475
 10
-338.5128648892804
 20
396.4863356201919
 30
0.0
 10
-338.5201009374111
 20
396.4943142909289
 30
0.0
 10
-338.5416074835794
 20
396.518028015253
 30
0.0
 10
-338.5549738449462
 20
396.5848369630147
 30
0.0
 10
-338.57295893837
 20
396.6752370823642
 30
0.0
 10
-338.5878833748402
 20
396.8077736878899
 30
0.0
 10
-338.6020209876152
 20
396.975213897185
 30
0.0
 10
-338.6136200813585
 20
397.1809653648037
 30
0.0
 10
-338.6220256733606
 20
397.3936116177274
 30
0.0
 10
-338.6276522975
 20
397.6001950933472
 30
0.0
 10
-338.6311008054354
 20
397.7872389054115
 30
0.0
 10
-338.6330070503612
 20
397.9535689802843
 30
0.0
 10
-338.6338223420367
 20
398.0905025395193
 30
0.0
 10
-338.6341887607014
 20
398.3069605363539
 30
0.0
 10
-338.6321177752488
 20
398.6084796352446
 30
0.0
 10
-338.6245572843222
 20
398.9509764964309
 30
0.0
 10
-338.6141960097464
 20
399.2154332363036
 30
0.0
 10
-338.6044429337185
 20
399.39114756851
 30
0.0
 10
-338.5949151247646
 20
399.5218656651887
 30
0.0
 10
-338.5844144591589
 20
399.6325207541487
 30
0.0
 10
-338.5729697493306
 20
399.7346620179435
 30
0.0
 10
-338.5549722038994
 20
399.8250507593236
 30
0.0
 10
-338.5416076287743
 20
399.8918613392476
 30
0.0
 10
-338.5201009739638
 20
399.9155749643003
 30
0.0
 10
-338.5128648892805
 20
399.923553601636
 30
0.0
 11
-338.5128648892804
 21
396.4863356201919
 31
0.0
 11
-338.5328669581284
 21
396.5112286507218
 31
0.0
 11
-338.5522280343936
 21
396.571155953412
 31
0.0
 11
-338.5708628173814
 21
396.6716520169991
 31
0.0
 11
-338.5849644992907
 21
396.7855423885284
 31
0.0
 11
-338.6004836871487
 21
396.9663512051931
 31
0.0
 11
-338.6126965486851
 21
397.1744959326147
 31
0.0
 11
-338.6218727863693
 21
397.4022663146965
 31
0.0
 11
-338.6274566329309
 21
397.6042233210962
 31
0.0
 11
-338.6309946590339
 21
397.7941522206958
 31
0.0
 11
-338.6329492917635
 21
397.9633704467172
 31
0.0
 11
-338.6337829582054
 21
398.1031954323827
 31
0.0
 11
-338.6339580854449
 21
398.204944610914
 31
0.0
 11
-338.6310387950152
 21
398.6127317621629
 31
0.0
 11
-338.6218727863693
 21
399.0076229071314
 31
0.0
 11
-338.6128447254944
 21
399.2323402506489
 31
0.0
 11
-338.6030357365372
 21
399.4060921625756
 31
0.0
 11
-338.5934182007264
 21
399.5347904283224
 31
0.0
 11
-338.5849644992908
 21
399.6243468332996
 31
0.0
 11
-338.570862817378
 21
399.7382372048519
 31
0.0
 11
-338.5522280343937
 21
399.838733268416
 31
0.0
 11
-338.5328669581272
 21
399.898660571109
 31
0.0
 11
-338.5128648892805
 21
399.923553601636
 31
0.0
  0
SPLINE
  5
12E
330
49
100
AcDbEntity
  8
0
  6
Continuous
 62
     7
100
AcDbSpline
210
0.0
220
0.0
230
1.0
 70
     8
 71
     3
 72
    11
 73
     7
 74
     5
 42
0.0000000001
 43
0.0000000001
 44
0.00000001
 40
0.0
 40
0.0
 40
0.0
 40
0.0
 40
0.1341351311336214
 40
0.2531498743045774
 40
0.3664708973418176
 40
0.441076780102637
 40
0.441076780102637
 40
0.441076780102637
 40
0.441076780102637
 10
-338.3861739453567
 20
397.0327306188459
 30
0.0
 10
-338.3908430724857
 20
396.9882603305936
 30
0.0
 10
-338.3996549992035
 20
396.9043326690911
 30
0.0
 10
-338.4159509510903
 20
396.7832631514506
 30
0.0
 10
-338.432015492001
 20
396.6821694954365
 30
0.0
 10
-338.4452881445865
 20
396.6209408037958
 30
0.0
 10
-338.4505573100555
 20
396.5966333712292
 30
0.0
 11
-338.3861739453567
 21
397.0327306188459
 31
0.0
 11
-338.4008677624233
 21
396.8994027329996
 31
0.0
 11
-338.416683947013
 21
396.7814435985628
 31
0.0
 11
-338.4352915059643
 21
396.6696607152037
 31
0.0
 11
-338.4505573100555
 21
396.5966333712292
 31
0.0
  0
SPLINE
  5
12F
330
49
100
AcDbEntity
  8
0
  6
Continuous
 62
     7
100
AcDbSpline
210
0.0
220
0.0
230
1.0
 70
     8
 71
     3
 72
    11
 73
     7
 74
     5
 42
0.0000000001
 43
0.0000000001
 44
0.00000001
 40
0.0
 40
0.0
 40
0.0
 40
0.0
 40
0.0136697697924791
 40
0.0401111375467715
 40
0.0798554013396832
 40
0.1345847767717541
 40
0.1345847767717541
 40
0.1345847767717541
 40
0.1345847767717541
 10
-366.2680733994975
 20
348.4129043058241
 30
0.0
 10
-366.265574459241
 20
348.4088149061939
 30
0.0
 10
-366.2582418312692
 20
348.3968154011884
 30
0.0
 10
-366.2740404183305
 20
348.3704293584914
 30
0.0
 10
-366.2969428926327
 20
348.3395420379545
 30
0.0
 10
-366.3194194215996
 20
348.3169077294996
 30
0.0
 10
-366.3324402642636
 20
348.3037954838484
 30
0.0
 11
-366.2680733994975
 21
348.4129043058241
 31
0.0
 11
-366.2623498723174
 21
348.4004904489376
 31
0.0
 11
-366.2713195222446
 21
348.3756169427734
 31
0.0
 11
-366.2949155501693
 21
348.343635167172
 31
0.0
 11
-366.3324402642636
 21
348.3037954838484
 31
0.0
  0
SPLINE
  5
130
330
49
100
AcDbEntity
  8
0
  6
Continuous
 62
     7
100
AcDbSpline
210
0.0
220
0.0
230
1.0
 70
     8
 71
     3
 72
     9
 73
     5
 74
     3
 42
0.0000000001
 43
0.0000000001
 44
0.00000001
 40
0.0
 40
0.0
 40
0.0
 40
0.0
 40
0.0496849875480004
 40
0.1223308294103313
 40
0.1223308294103313
 40
0.1223308294103313
 40
0.1223308294103313
 10
-366.2951830263268
 20
348.4180713164302
 30
0.0
 10
-366.2954215036063
 20
348.4012236241282
 30
0.0
 10
-366.2960086653393
 20
348.3597424388715
 30
0.0
 10
-366.3188663112518
 20
348.3246406117336
 30
0.0
 10
-366.3324402642636
 20
348.3037954838484
 30
0.0
 11
-366.2951830263268
 21
348.4180713164302
 31
0.0
 11
-366.2995721962384
 21
348.3685805781539
 31
0.0
 11
-366.3324402642636
 21
348.3037954838484
 31
0.0
  0
SPLINE
  5
131
330
49
100
AcDbEntity
  8
0
  6
Continuous
 62
     7
100
AcDbSpline
210
0.0
220
0.0
230
1.0
 70
     8
 71
     3
 72
    33
 73
    29
 74
    27
 42
0.0000000001
 43
0.0000000001
 44
0.00000001
 40
0.0
 40
0.0
 40
0.0
 40
0.0
 40
0.0161291955412958
 40
0.0457839485588831
 40
0.095333224244499
 40
0.1476258690964845
 40
0.2188279806645161
 40
0.3123271678992479
 40
0.5130896516844757
 40
0.7262306069536184
 40
0.9302571479139735
 40
1.005087449942637
 40
1.126241680102573
 40
1.290256949031557
 40
1.493678235539411
 40
1.733059694711902
 40
1.834809023943787
 40
1.974636494832116
 40
2.143866009419876
 40
2.333827859626415
 40
2.535862044306266
 40
2.763817194048222
 40
2.972319907555943
 40
3.15379352374835
 40
3.268553595909642
 40
3.370762763458762
 40
3.43374000446509
 40
3.465673462244126
 40
3.465673462244126
 40
3.465673462244126
 40
3.465673462244126
 10
-369.2447914897727
 20
346.694295315102
 30
0.0
 10
-369.2439880540734
 20
346.6996783260686
 30
0.0
 10
-369.2417074407204
 20
346.7149584122052
 30
0.0
 10
-369.2208188870773
 20
346.7404615480058
 30
0.0
 10
-369.1910082993686
 20
346.7719088973799
 30
0.0
 10
-369.1473734398866
 20
346.8100057361297
 30
0.0
 10
-369.091019881537
 20
346.8552406890407
 30
0.0
 10
-368.9932210839798
 20
346.9279800688339
 30
0.0
 10
-368.853949672086
 20
347.0239771369272
 30
0.0
 10
-368.6814736952562
 20
347.1366067030254
 30
0.0
 10
-368.5427121013045
 20
347.2240268646456
 30
0.0
 10
-368.4293641590064
 20
347.2942484301008
 30
0.0
 10
-368.3270122783151
 20
347.356892452796
 30
0.0
 10
-368.1875584304935
 20
347.4410208315529
 30
0.0
 10
-368.0136098551262
 20
347.5442530960445
 30
0.0
 10
-367.8567778808933
 20
347.6356485423854
 30
0.0
 10
-367.717801392131
 20
347.7155730485414
 30
0.0
 10
-367.5988058572368
 20
347.7833337984434
 30
0.0
 10
-367.4538066458392
 20
347.8648479672516
 30
0.0
 10
-367.2900977049938
 20
347.9553833816913
 30
0.0
 10
-367.108377853212
 20
348.0538023188842
 30
0.0
 10
-366.9200180007039
 20
348.1528459894948
 30
0.0
 10
-366.7360324558716
 20
348.245676613373
 30
0.0
 10
-366.5839561746463
 20
348.3171531862277
 30
0.0
 10
-366.4617138890908
 20
348.3704965478673
 30
0.0
 10
-366.3744325425116
 20
348.4001210597489
 30
0.0
 10
-366.309891115868
 20
348.4219499251319
 30
0.0
 10
-366.2786011551017
 20
348.4151815719597
 30
0.0
 10
-366.2680733994975
 20
348.4129043058241
 30
0.0
 11
-369.2447914897727
 21
346.694295315102
 31
0.0
 11
-369.2414192046831
 21
346.7100680333866
 31
0.0
 11
-369.2250937088827
 21
346.7348244984695
 31
0.0
 11
-369.1910164990033
 21
346.7707949653529
 31
0.0
 11
-369.1519746887613
 21
346.8055837244374
 31
0.0
 11
-369.0965672573188
 21
346.850302369684
 31
0.0
 11
-369.0217206324143
 21
346.906338793142
 31
0.0
 11
-368.8568954765889
 21
347.0209609677103
 31
0.0
 11
-368.6786119163095
 21
347.1377686684287
 31
0.0
 11
-368.5060761887703
 21
347.2466642704463
 31
0.0
 11
-368.4424634882319
 21
347.2860723715412
 31
0.0
 11
-368.3391410262935
 21
347.3493401859861
 31
0.0
 11
-368.198715200019
 21
347.4340844822956
 31
0.0
 11
-368.0237924064724
 21
347.5379220289844
 31
0.0
 11
-367.8169790427173
 21
347.6584695945669
 31
0.0
 11
-367.7287741056847
 21
347.7091925191889
 31
0.0
 11
-367.607265282797
 21
347.7783830357029
 31
0.0
 11
-367.4597406839126
 21
347.8612993871157
 31
0.0
 11
-367.2934884188903
 21
347.9531998164338
 31
0.0
 11
-367.1157965975888
 21
348.0493425666639
 31
0.0
 11
-366.9139535416301
 21
348.1552809027614
 31
0.0
 11
-366.7275884892514
 21
348.2487766181283
 31
0.0
 11
-366.5632438668663
 21
348.3257410155277
 31
0.0
 11
-366.4575610709098
 21
348.3704737865272
 31
0.0
 11
-366.3612115353802
 21
348.404583622855
 31
0.0
 11
-366.2996324307145
 21
348.4177800903117
 31
0.0
 11
-366.2680733994975
 21
348.4129043058241
 31
0.0
  0
SPLINE
  5
132
330
49
100
AcDbEntity
  8
0
  6
Continuous
 62
     7
100
AcDbSpline
210
0.0
220
0.0
230
1.0
 70
     8
 71
     3
 72
    15
 73
    11
 74
     9
 42
0.0000000001
 43
0.0000000001
 44
0.00000001
 40
0.0
 40
0.0
 40
0.0
 40
0.0
 40
0.2579981157424769
 40
0.5445111242854136
 40
0.8492567162047352
 40
1.176263595995525
 40
1.503115120706162
 40
1.807746336372992
 40
2.09463559296643
 40
2.352944694241597
 40
2.352944694241597
 40
2.352944694241597
 40
2.352944694241597
 10
-368.7082540684757
 20
346.8577752385615
 30
0.0
 10
-368.6295151383763
 20
346.8923579471465
 30
0.0
 10
-368.4633347644225
 20
346.9653455714098
 30
0.0
 10
-368.2036610097168
 20
347.0781040079081
 30
0.0
 10
-367.9272468185407
 20
347.2097993318501
 30
0.0
 10
-367.6458161576636
 20
347.3614854721119
 30
0.0
 10
-367.3737547970521
 20
347.529324763637
 30
0.0
 10
-367.12145110007
 20
347.7028561208499
 30
0.0
 10
-366.8938046457864
 20
347.8714688237175
 30
0.0
 10
-366.7473218469497
 20
347.9790285788308
 30
0.0
 10
-366.6779198768708
 20
348.0299892306297
 30
0.0
 11
-368.7082540684757
 21
346.8577752385615
 31
0.0
 11
-368.4719671064159
 21
346.9613681885496
 31
0.0
 11
-368.2098951445986
 21
347.0771610678364
 31
0.0
 11
-367.93504066663
 21
347.2087851223815
 31
0.0
 11
-367.6473634553223
 21
347.3642692743865
 31
0.0
 11
-367.3689896611248
 21
347.5355583572544
 31
0.0
 11
-367.117652498426
 21
347.7076914691336
 31
0.0
 11
-366.8860272773807
 21
347.8769699453921
 31
0.0
 11
-366.6779198768708
 21
348.0299892306297
 31
0.0
  0
SPLINE
  5
133
330
49
100
AcDbEntity
  8
0
  6
Continuous
 62
     7
100
AcDbSpline
210
0.0
220
0.0
230
1.0
 70
     8
 71
     3
 72
    11
 73
     7
 74
     5
 42
0.0000000001
 43
0.0000000001
 44
0.00000001
 40
0.0
 40
0.0
 40
0.0
 40
0.0
 40
0.1473700178327489
 40
0.2531498577053695
 40
0.3555131763107001
 40
0.4410765016751239
 40
0.4410765016751239
 40
0.4410765016751239
 40
0.4410765016751239
 10
-368.7082540684757
 20
346.8577752385615
 30
0.0
 10
-368.7531396123784
 20
346.8378057196755
 30
0.0
 10
-368.8302432812189
 20
346.8035023997818
 30
0.0
 10
-368.9399309188188
 20
346.7586373230608
 30
0.0
 10
-369.0313412504731
 20
346.7234734262856
 30
0.0
 10
-369.0909686073003
 20
346.704240863291
 30
0.0
 10
-369.1181170457816
 20
346.6954842441638
 30
0.0
 11
-368.7082540684757
 21
346.8577752385615
 31
0.0
 11
-368.8432500952647
 21
346.7986652148159
 31
0.0
 11
-368.9411300125105
 21
346.7585541649239
 31
0.0
 11
-369.0369078254384
 21
346.7224313252427
 31
0.0
 11
-369.1181170457816
 21
346.6954842441638
 31
0.0
  0
SPLINE
  5
134
330
49
100
AcDbEntity
  8
0
  6
Continuous
 62
     7
100
AcDbSpline
210
0.0
220
0.0
230
1.0
 70
     8
 71
     3
 72
    11
 73
     7
 74
     5
 42
0.0000000001
 43
0.0000000001
 44
0.00000001
 40
0.0
 40
0.0
 40
0.0
 40
0.0
 40
0.0855571738056169
 40
0.1879122005734334
 40
0.3069331504184105
 40
0.4410765192085005
 40
0.4410765192085005
 40
0.4410765192085005
 40
0.4410765192085005
 10
-366.3324402642636
 20
348.3037954838484
 30
0.0
 10
-366.3535965577649
 20
348.2846640718695
 30
0.0
 10
-366.4000628620032
 20
348.2426450854406
 30
0.0
 10
-366.4796469802785
 20
348.1782864895964
 30
0.0
 10
-366.5734584567923
 20
348.1058670262216
 30
0.0
 10
-366.6417398390021
 20
348.0562693780359
 30
0.0
 10
-366.6779198768708
 20
348.0299892306297
 30
0.0
 11
-366.3324402642636
 21
348.3037954838484
 31
0.0
 11
-366.39637704469
 21
348.2469437635727
 31
0.0
 11
-366.4755426188888
 21
348.182064156866
 31
0.0
 11
-366.5697948639511
 21
348.1093833423224
 31
0.0
 11
-366.6779198768708
 21
348.0299892306297
 31
0.0
  0
SPLINE
  5
135
330
49
100
AcDbEntity
  8
0
  6
Continuous
 62
     7
100
AcDbSpline
210
0.0
220
0.0
230
1.0
 70
     8
 71
     3
 72
    35
 73
    31
 74
    29
 42
0.0000000001
 43
0.0000000001
 44
0.00000001
 40
0.0
 40
0.0
 40
0.0
 40
0.0
 40
0.0378492335782016
 40
0.094782761920759
 40
0.147075406754348
 40
0.218277518319438
 40
0.3117767055755062
 40
0.4017312204174107
 40
0.5307883418844277
 40
0.7048169118451376
 40
0.9297155342519551
 40
1.004545836275207
 40
1.125700066432865
 40
1.289715335362389
 40
1.493136621872838
 40
1.732518081049899
 40
1.971899540242275
 40
2.175320826762491
 40
2.33933609569402
 40
2.460490325843994
 40
2.535320627847718
 40
2.739347168793961
 40
2.952488124065849
 40
3.153250607862473
 40
3.246749795073115
 40
3.317951906644356
 40
3.370244551517272
 40
3.419793827189872
 40
3.449448580211655
 40
3.465577775761796
 40
3.465577775761796
 40
3.465577775761796
 40
3.465577775761796
 10
-427.7319266004854
 20
348.4129043058221
 30
0.0
 10
-427.7193567992799
 20
348.4151721845214
 30
0.0
 10
-427.6878792669122
 20
348.4208514489737
 30
0.0
 10
-427.6400043099586
 20
348.4048187887429
 30
0.0
 10
-427.5830650439508
 20
348.3867963802139
 30
0.0
 10
-427.5156364651697
 20
348.3600415125516
 30
0.0
 10
-427.4376909264765
 20
348.3265846089554
 30
0.0
 10
-427.3430218193467
 20
348.2830484271661
 30
0.0
 10
-427.2250638500009
 20
348.2260392723884
 30
0.0
 10
-427.0680085438311
 20
348.1465899874453
 30
0.0
 10
-426.9282562586927
 20
348.0730413672622
 30
0.0
 10
-426.8046383023919
 20
348.0067001000426
 30
0.0
 10
-426.6992110464372
 20
347.9493827358719
 30
0.0
 10
-426.556626756758
 20
347.8706764868025
 30
0.0
 10
-426.3802509962244
 20
347.7716480843159
 30
0.0
 10
-426.1828588916496
 20
347.6587503009409
 30
0.0
 10
-425.9863904893564
 20
347.5442526153977
 30
0.0
 10
-425.8124415011318
 20
347.4410209268678
 30
0.0
 10
-425.6729877336682
 20
347.3568924359998
 30
0.0
 10
-425.5706358393971
 20
347.2942484322683
 30
0.0
 10
-425.4572878996979
 20
347.2240268632156
 30
0.0
 10
-425.3185263043404
 20
347.1366067035774
 30
0.0
 10
-425.146050328007
 20
347.0239771367863
 30
0.0
 10
-425.0067789160013
 20
346.9279800688549
 30
0.0
 10
-424.9089801184592
 20
346.855240689046
 30
0.0
 10
-424.8526265601076
 20
346.8100057361377
 30
0.0
 10
-424.8089917006221
 20
346.7719088973861
 30
0.0
 10
-424.7791811129105
 20
346.7404615480092
 30
0.0
 10
-424.7582925592657
 20
346.7149584122103
 30
0.0
 10
-424.7560119459104
 20
346.6996783260695
 30
0.0
 10
-424.7552085102101
 20
346.6942953151001
 30
0.0
 11
-427.7319266004854
 21
348.4129043058221
 31
0.0
 11
-427.6943167822636
 21
348.4171547241289
 31
0.0
 11
-427.6387884646028
 21
348.404583622853
 31
0.0
 11
-427.5891396103657
 21
348.3881668029222
 31
0.0
 11
-427.5227084118405
 21
348.3625418823597
 31
0.0
 11
-427.4367561331167
 21
348.3257410155258
 31
0.0
 11
-427.3549711606168
 21
348.2882839332365
 31
0.0
 11
-427.2387064251516
 21
348.2322638306968
 31
0.0
 11
-427.0833283609883
 21
348.1538827083558
 31
0.0
 11
-426.8842034023941
 21
348.049342566662
 31
0.0
 11
-426.8182686354666
 21
348.0139564025424
 31
0.0
 11
-426.7118158699481
 21
347.9561104329458
 31
0.0
 11
-426.5682122433806
 21
347.8768702481992
 31
0.0
 11
-426.3908248933058
 21
347.77730143863
 31
0.0
 11
-426.1830209572655
 21
347.658469594565
 31
0.0
 11
-425.9762075934934
 21
347.5379220289723
 31
0.0
 11
-425.8012847999361
 21
347.4340844822772
 31
0.0
 11
-425.6608589736596
 21
347.3493401859662
 31
0.0
 11
-425.5575365117298
 21
347.2860723715263
 31
0.0
 11
-425.4939238112126
 21
347.2466642704445
 31
0.0
 11
-425.3213880836853
 21
347.1377686684345
 31
0.0
 11
-425.1431045234035
 21
347.0209609677148
 31
0.0
 11
-424.9782793675686
 21
346.9063387931402
 31
0.0
 11
-424.9034327426831
 21
346.850302369697
 31
0.0
 11
-424.8480253112375
 21
346.8055837244491
 31
0.0
 11
-424.8089835009795
 21
346.7707949653511
 31
0.0
 11
-424.7749062911083
 21
346.734824498478
 31
0.0
 11
-424.7585807953034
 21
346.7100680333929
 31
0.0
 11
-424.7552085102101
 21
346.6942953151001
 31
0.0
  0
SPLINE
  5
136
330
49
100
AcDbEntity
  8
0
  6
Continuous
 62
     7
100
AcDbSpline
210
0.0
220
0.0
230
1.0
 70
     8
 71
     3
 72
    11
 73
     7
 74
     5
 42
0.0000000001
 43
0.0000000001
 44
0.00000001
 40
0.0
 40
0.0
 40
0.0
 40
0.0
 40
0.0967162545524193
 40
0.1879109266247572
 40
0.2936955872267716
 40
0.4410752286618705
 40
0.4410752286618705
 40
0.4410752286618705
 40
0.4410752286618705
 10
-424.8818829542013
 20
346.695484244162
 30
0.0
 10
-424.9125529781459
 20
346.7054381873434
 30
0.0
 10
-424.9721420580341
 20
346.724777797789
 30
0.0
 10
-425.0635019663414
 20
346.7600420195175
 30
0.0
 10
-425.1697497939523
 20
346.8034991771187
 30
0.0
 10
-425.2468576057632
 20
346.837804429853
 30
0.0
 10
-425.2917459315072
 20
346.8577752385598
 30
0.0
 11
-424.8818829542013
 21
346.695484244162
 31
0.0
 11
-424.9735921929752
 21
346.7261998658904
 31
0.0
 11
-425.0588565531169
 21
346.7585488551172
 31
0.0
 11
-425.1567410406308
 21
346.7986614656385
 31
0.0
 11
-425.2917459315072
 21
346.8577752385598
 31
0.0
  0
SPLINE
  5
137
330
49
100
AcDbEntity
  8
0
  6
Continuous
 62
     7
100
AcDbSpline
210
0.0
220
0.0
230
1.0
 70
     8
 71
     3
 72
    15
 73
    11
 74
     9
 42
0.0000000001
 43
0.0000000001
 44
0.00000001
 40
0.0
 40
0.0
 40
0.0
 40
0.0
 40
0.2579981157427916
 40
0.5445111242854705
 40
0.8492567162106944
 40
1.176263595995507
 40
1.503115120702923
 40
1.807746336373071
 40
2.094635592965362
 40
2.352944694241539
 40
2.352944694241539
 40
2.352944694241539
 40
2.352944694241539
 10
-427.3220801231122
 20
348.0299892306277
 30
0.0
 10
-427.2527611538961
 20
347.9790906711872
 30
0.0
 10
-427.1064618301455
 20
347.8716680578644
 30
0.0
 10
-426.8789732822924
 20
347.703163207841
 30
0.0
 10
-426.6267146906109
 20
347.5296291582873
 30
0.0
 10
-426.3546353093045
 20
347.3617461266955
 30
0.0
 10
-426.0732515387868
 20
347.2100537227814
 30
0.0
 10
-425.7968171265963
 20
347.0783179903324
 30
0.0
 10
-425.5369710153694
 20
346.9654767292749
 30
0.0
 10
-425.3705801355982
 20
346.8923987818215
 30
0.0
 10
-425.2917459315072
 20
346.8577752385598
 30
0.0
 11
-427.3220801231122
 21
348.0299892306277
 31
0.0
 11
-427.1142225157395
 21
347.8771551938946
 31
0.0
 11
-426.8829069597913
 21
347.7080906569847
 31
0.0
 11
-426.6314899458169
 21
347.5358717239894
 31
0.0
 11
-426.3529981146458
 21
347.3644780269128
 31
0.0
 11
-426.0654705203953
 21
347.2090437908254
 31
0.0
 11
-425.7907302913232
 21
347.0774459789512
 31
0.0
 11
-425.5283182200477
 21
346.9614918914985
 31
0.0
 11
-425.2917459315072
 21
346.8577752385598
 31
0.0
  0
SPLINE
  5
138
330
49
100
AcDbEntity
  8
0
  6
Continuous
 62
     7
100
AcDbSpline
210
0.0
220
0.0
230
1.0
 70
     8
 71
     3
 72
    11
 73
     7
 74
     5
 42
0.0000000001
 43
0.0000000001
 44
0.00000001
 40
0.0
 40
0.0
 40
0.0
 40
0.0
 40
0.1473700178261317
 40
0.2531498577054067
 40
0.3555131762411148
 40
0.4410765016750064
 40
0.4410765016750064
 40
0.4410765016750064
 40
0.4410765016750064
 10
-427.3220801231122
 20
348.0299892306277
 30
0.0
 10
-427.3618170057184
 20
348.0588764924658
 30
0.0
 10
-427.4300763866008
 20
348.1084985684599
 30
0.0
 10
-427.5237745015656
 20
348.1810583107273
 30
0.0
 10
-427.5999324952982
 20
348.2426400317219
 30
0.0
 10
-427.6464020618454
 20
348.2846625559968
 30
0.0
 10
-427.6675597357189
 20
348.3037954838464
 30
0.0
 11
-427.3220801231122
 21
348.0299892306277
 31
0.0
 11
-427.4407689186835
 21
348.11734420736
 31
0.0
 11
-427.5244460654906
 21
348.1820551772732
 31
0.0
 11
-427.6036182687222
 21
348.2469397765021
 31
0.0
 11
-427.6675597357189
 21
348.3037954838464
 31
0.0
  0
SPLINE
  5
139
330
49
100
AcDbEntity
  8
0
  6
Continuous
 62
     7
100
AcDbSpline
210
0.0
220
0.0
230
1.0
 70
     8
 71
     3
 72
     9
 73
     5
 74
     3
 42
0.0000000001
 43
0.0000000001
 44
0.00000001
 40
0.0
 40
0.0
 40
0.0
 40
0.0
 40
0.0726461081868056
 40
0.122331196205379
 40
0.122331196205379
 40
0.122331196205379
 40
0.122331196205379
 10
-427.6675597357189
 20
348.3037954838464
 30
0.0
 10
-427.6811337503837
 20
348.3246406934564
 30
0.0
 10
-427.7039914848542
 20
348.359742634777
 30
0.0
 10
-427.7045784770357
 20
348.4012239572528
 30
0.0
 10
-427.7048168852187
 20
348.4180716888394
 30
0.0
 11
-427.6675597357189
 21
348.3037954838464
 31
0.0
 11
-427.7004278871919
 21
348.3685808344546
 31
0.0
 11
-427.7048168852187
 21
348.4180716888394
 31
0.0
  0
SPLINE
  5
13A
330
49
100
AcDbEntity
  8
0
  6
Continuous
 62
     7
100
AcDbSpline
210
0.0
220
0.0
230
1.0
 70
     8
 71
     3
 72
    11
 73
     7
 74
     5
 42
0.0000000001
 43
0.0000000001
 44
0.00000001
 40
0.0
 40
0.0
 40
0.0
 40
0.0
 40
0.0600424547379461
 40
0.0944781519849697
 40
0.1190126378966975
 40
0.1344785407505298
 40
0.1344785407505298
 40
0.1344785407505298
 40
0.1344785407505298
 10
-427.6675597357189
 20
348.3037954838464
 30
0.0
 10
-427.6818525388466
 20
348.3181570329647
 30
0.0
 10
-427.7043425857992
 20
348.3407552532784
 30
0.0
 10
-427.7266519763728
 20
348.3718057963724
 30
0.0
 10
-427.7412437807442
 20
348.3957715791892
 30
0.0
 10
-427.734524549628
 20
348.4081271145228
 30
0.0
 10
-427.7319266004854
 20
348.4129043058221
 30
0.0
 11
-427.6675597357189
 21
348.3037954838464
 31
0.0
 11
-427.7085076947204
 21
348.3477085915088
 31
0.0
 11
-427.7286804777384
 21
348.3756169427714
 31
0.0
 11
-427.737543739699
 21
348.3984945210167
 31
0.0
 11
-427.7319266004854
 21
348.4129043058221
 31
0.0
  0
SPLINE
  5
13B
330
49
100
AcDbEntity
  8
0
  6
Continuous
 62
     7
100
AcDbSpline
210
0.0
220
0.0
230
1.0
 70
     8
 71
     3
 72
    11
 73
     7
 74
     5
 42
0.0000000001
 43
0.0000000001
 44
0.00000001
 40
0.0
 40
0.0
 40
0.0
 40
0.0
 40
0.0600424547533379
 40
0.0944781519848769
 40
0.1209195197427983
 40
0.1345892895318852
 40
0.1345892895318852
 40
0.1345892895318852
 40
0.1345892895318852
 10
-369.1181170457816
 20
346.6954842441638
 30
0.0
 10
-369.1377347524028
 20
346.6902942386605
 30
0.0
 10
-369.1686036546713
 20
346.6821276483577
 30
0.0
 10
-369.2070049415557
 20
346.6782180339068
 30
0.0
 10
-369.2357802766215
 20
346.6777339171043
 30
0.0
 10
-369.2425010633853
 20
346.6900858194049
 30
0.0
 10
-369.2447914897727
 20
346.694295315102
 30
0.0
 11
-369.1181170457816
 21
346.6954842441638
 31
0.0
 11
-369.1766208920923
 21
346.681978825264
 31
0.0
 11
-369.2108766247572
 21
346.6784628583393
 31
0.0
 11
-369.2369025379435
 21
346.6831316667233
 31
0.0
 11
-369.2447914897727
 21
346.694295315102
 31
0.0
  0
SPLINE
  5
13C
330
49
100
AcDbEntity
  8
0
  6
Continuous
 62
     7
100
AcDbSpline
210
0.0
220
0.0
230
1.0
 70
     8
 71
     3
 72
    11
 73
     7
 74
     5
 42
0.0000000001
 43
0.0000000001
 44
0.00000001
 40
0.0
 40
0.0
 40
0.0
 40
0.0
 40
0.0154659028551777
 40
0.0400003887654846
 40
0.0744360859819473
 40
0.1344785407503591
 40
0.1344785407503591
 40
0.1344785407503591
 40
0.1344785407503591
 10
-424.7552085102101
 20
346.6942953151001
 30
0.0
 10
-424.7580467046632
 20
346.689656829495
 30
0.0
 10
-424.7653872965818
 20
346.6776600369877
 30
0.0
 10
-424.7934381754968
 20
346.6783140188524
 30
0.0
 10
-424.8314834299047
 20
346.6821092462819
 30
0.0
 10
-424.8622990862531
 20
346.6902870881185
 30
0.0
 10
-424.8818829542013
 20
346.695484244162
 30
0.0
 11
-424.7552085102101
 21
346.6942953151001
 31
0.0
 11
-424.7648791803092
 21
346.6822258374411
 31
0.0
 11
-424.7891233752257
 21
346.6784628583375
 31
0.0
 11
-424.8233791078757
 21
346.6819788252597
 31
0.0
 11
-424.8818829542013
 21
346.695484244162
 31
0.0
  0
SPLINE
  5
13D
330
49
100
AcDbEntity
  8
0
  6
Continuous
 62
     7
100
AcDbSpline
210
0.0
220
0.0
230
1.0
 70
     8
 71
     3
 72
     9
 73
     5
 74
     3
 42
0.0000000001
 43
0.0000000001
 44
0.00000001
 40
0.0
 40
0.0
 40
0.0
 40
0.0
 40
0.0726459110721522
 40
0.1223309247294172
 40
0.1223309247294172
 40
0.1223309247294172
 40
0.1223309247294172
 10
-369.1181170457816
 20
346.6954842441638
 30
0.0
 10
-369.1429564589845
 20
346.6941514167121
 30
0.0
 10
-369.1847843931656
 20
346.6919070231561
 30
0.0
 10
-369.2210017430947
 20
346.7121391747951
 30
0.0
 10
-369.2357115111263
 20
346.7203565142186
 30
0.0
 11
-369.1181170457816
 21
346.6954842441638
 31
0.0
 11
-369.1906566857742
 21
346.6994122239557
 31
0.0
 11
-369.2357115111263
 21
346.7203565142186
 31
0.0
  0
SPLINE
  5
13E
330
49
100
AcDbEntity
  8
0
  6
Continuous
 62
     7
100
AcDbSpline
210
0.0
220
0.0
230
1.0
 70
     8
 71
     3
 72
     9
 73
     5
 74
     3
 42
0.0000000001
 43
0.0000000001
 44
0.00000001
 40
0.0
 40
0.0
 40
0.0
 40
0.0
 40
0.0496850136573644
 40
0.1223309247295673
 40
0.1223309247295673
 40
0.1223309247295673
 40
0.1223309247295673
 10
-424.7642884888565
 20
346.7203565142168
 30
0.0
 10
-424.778998256888
 20
346.7121391747932
 30
0.0
 10
-424.8152156068171
 20
346.6919070231543
 30
0.0
 10
-424.8570435409983
 20
346.6941514167103
 30
0.0
 10
-424.8818829542013
 20
346.695484244162
 30
0.0
 11
-424.7642884888565
 21
346.7203565142168
 31
0.0
 11
-424.8093433142086
 21
346.6994122239537
 31
0.0
 11
-424.8818829542013
 21
346.695484244162
 31
0.0
  0
SPLINE
  5
13F
330
49
100
AcDbEntity
  8
0
  6
Continuous
 62
     3
100
AcDbSpline
210
0.0
220
0.0
230
1.0
 70
     8
 71
     3
 72
    19
 73
    15
 74
    13
 42
0.0000000001
 43
0.0000000001
 44
0.00000001
 40
0.0
 40
0.0
 40
0.0
 40
0.0
 40
1.945474124703537
 40
4.578548260776342
 40
6.348035692920302
 40
7.760007455249609
 40
9.204661494247354
 40
10.80910035172218
 40
12.50762785083667
 40
14.26587663938853
 40
16.07661372376032
 40
17.88827882086326
 40
20.04507755225162
 40
21.52306790709597
 40
21.52306790709597
 40
21.52306790709597
 40
21.52306790709597
 10
-362.0768437068212
 20
416.1947378610567
 30
0.0
 10
-361.9805088682609
 20
415.5531211933063
 30
0.0
 10
-361.7537910199268
 20
414.0431176209578
 30
0.0
 10
-361.7882247087887
 20
411.908726529083
 30
0.0
 10
-362.2145996219161
 20
410.005322313451
 30
0.0
 10
-362.8634341852677
 20
408.5942216921405
 30
0.0
 10
-363.7787065386695
 20
407.4043612905114
 30
0.0
 10
-365.0418041422657
 20
406.4217497036241
 30
0.0
 10
-366.5948095191151
 20
405.7288095521011
 30
0.0
 10
-368.3127166986744
 20
405.329604879879
 30
0.0
 10
-370.1043685035587
 20
405.1763593897041
 30
0.0
 10
-372.032682706398
 20
405.2197065245687
 30
0.0
 10
-373.8403673899333
 20
405.4158659383343
 30
0.0
 10
-375.031960509344
 20
405.6360186397365
 30
0.0
 10
-375.5164901740936
 20
405.7255378832321
 30
0.0
 11
-362.0768437068212
 21
416.1947378610567
 31
0.0
 11
-361.8332569120107
 21
414.2645733490824
 31
0.0
 11
-361.8998444999155
 21
411.6323413115917
 31
0.0
 11
-362.3066819107724
 21
409.9102585337779
 31
0.0
 11
-362.9041545614345
 21
408.6309264075003
 31
0.0
 11
-363.7875941039309
 21
407.4878779102149
 31
0.0
 11
-365.0485669102816
 21
406.4958236632006
 31
0.0
 11
-366.5925820639785
 21
405.7880010368298
 31
0.0
 11
-368.3015302795069
 21
405.3745584179741
 31
0.0
 11
-370.1046786176095
 21
405.2089538905088
 31
0.0
 11
-371.9160655187329
 21
405.2407016227044
 31
0.0
 11
-374.060454482514
 21
405.4717356888773
 31
0.0
 11
-375.5164901740936
 21
405.7255378832321
 31
0.0
  0
SPLINE
  5
140
330
49
100
AcDbEntity
  8
0
  6
Continuous
 62
     3
100
AcDbSpline
210
0.0
220
0.0
230
1.0
 70
     8
 71
     3
 72
    15
 73
    11
 74
     9
 42
0.0000000001
 43
0.0000000001
 44
0.00000001
 40
0.0
 40
0.0
 40
0.0
 40
0.0
 40
1.832724741720194
 40
3.979915667855642
 40
6.220159457048683
 40
7.869823831467166
 40
9.526491562103262
 40
11.68004477397822
 40
13.30702000178495
 40
15.49518772998323
 40
15.49518772998323
 40
15.49518772998323
 40
15.49518772998323
 10
-379.2954988787253
 20
412.3954287545022
 30
0.0
 10
-378.6841968292806
 20
412.414935080459
 30
0.0
 10
-377.3567030987741
 20
412.4572947051918
 30
0.0
 10
-375.3134498645123
 20
412.8760472899896
 30
0.0
 10
-373.4357720066138
 20
413.6443271327823
 30
0.0
 10
-371.9052064629728
 20
414.7019166600041
 30
0.0
 10
-370.6365781539553
 20
416.0257935006235
 30
0.0
 10
-369.7324898695859
 20
417.6214752473634
 30
0.0
 10
-369.1408856588295
 20
419.5368224703072
 30
0.0
 10
-369.0739338925928
 20
420.811958660656
 30
0.0
 10
-369.0355338389343
 20
421.5433105111513
 30
0.0
 11
-379.2954988787253
 21
412.3954287545022
 31
0.0
 11
-377.4658625839616
 21
412.5017819763457
 31
0.0
 11
-375.3623700868208
 21
412.9327671126915
 31
0.0
 11
-373.2973417495328
 21
413.8013004748692
 31
0.0
 11
-371.9430201292261
 21
414.7432163400054
 31
0.0
 11
-370.7996270035513
 21
415.9420491598308
 31
0.0
 11
-369.7273210555337
 21
417.8096549507361
 31
0.0
 11
-369.2531045131919
 21
419.3659862338716
 31
0.0
 11
-369.0355338389343
 21
421.5433105111513
 31
0.0
  0
SPLINE
  5
141
330
49
100
AcDbEntity
  8
0
  6
Continuous
 62
     3
100
AcDbSpline
210
0.0
220
0.0
230
1.0
 70
     8
 71
     3
 72
    11
 73
     7
 74
     5
 42
0.0000000001
 43
0.0000000001
 44
0.00000001
 40
0.0
 40
0.0
 40
0.0
 40
0.0
 40
0.2081186536614201
 40
0.4503304456933629
 40
0.6764496538842747
 40
0.8730831719535664
 40
0.8730831719535664
 40
0.8730831719535664
 40
0.8730831719535664
 10
-382.2700704458026
 20
435.1943209083879
 30
0.0
 10
-382.2174030629031
 20
435.239475171061
 30
0.0
 10
-382.1034405439393
 20
435.3371806812436
 30
0.0
 10
-381.9346972405926
 20
435.4867486608708
 30
0.0
 10
-381.7676416013362
 20
435.6324374991083
 30
0.0
 10
-381.6629368990658
 20
435.7267525942884
 30
0.0
 10
-381.6142359618821
 20
435.7706210493457
 30
0.0
 11
-382.2700704458026
 21
435.1943209083879
 31
0.0
 11
-382.1124154990497
 21
435.3301822044446
 31
0.0
 11
-381.9304610837038
 21
435.4900544751341
 31
0.0
 11
-381.7606635699773
 21
435.6393819697397
 31
0.0
 11
-381.6142359618821
 21
435.7706210493457
 31
0.0
  0
SPLINE
  5
142
330
49
100
AcDbEntity
  8
0
  6
Continuous
 62
     3
100
AcDbSpline
210
0.0
220
0.0
230
1.0
 70
     8
 71
     3
 72
    11
 73
     7
 74
     5
 42
0.0000000001
 43
0.0000000001
 44
0.00000001
 40
0.0
 40
0.0
 40
0.0
 40
0.0
 40
0.2081186536626657
 40
0.4503304456934051
 40
0.6764496538850765
 40
0.873083171953532
 40
0.873083171953532
 40
0.873083171953532
 40
0.873083171953532
 10
-411.7299295541848
 20
435.1943209083869
 30
0.0
 10
-411.7825969370845
 20
435.2394751710603
 30
0.0
 10
-411.8965594560483
 20
435.337180681243
 30
0.0
 10
-412.0653027593955
 20
435.4867486608704
 30
0.0
 10
-412.2323583986515
 20
435.6324374991074
 30
0.0
 10
-412.3370631009219
 20
435.7267525942874
 30
0.0
 10
-412.3857640381054
 20
435.7706210493446
 30
0.0
 11
-411.7299295541848
 21
435.1943209083869
 31
0.0
 11
-411.8875845009386
 21
435.3301822044444
 31
0.0
 11
-412.0695389162837
 21
435.4900544751331
 31
0.0
 11
-412.2393364300107
 21
435.6393819697392
 31
0.0
 11
-412.3857640381054
 21
435.7706210493446
 31
0.0
  0
SPLINE
  5
143
330
49
100
AcDbEntity
  8
0
  6
Continuous
 62
     3
100
AcDbSpline
210
0.0
220
0.0
230
1.0
 70
     8
 71
     3
 72
    11
 73
     7
 74
     5
 42
0.0000000001
 43
0.0000000001
 44
0.00000001
 40
0.0
 40
0.0
 40
0.0
 40
0.0
 40
0.4184567254271992
 40
0.794089358699646
 40
1.146597750259752
 40
1.556335118480127
 40
1.556335118480127
 40
1.556335118480127
 40
1.556335118480127
 10
-410.8332215033673
 20
435.7262223928354
 30
0.0
 10
-410.9716451054846
 20
435.7438293801474
 30
0.0
 10
-411.234326292702
 20
435.7772414880519
 30
0.0
 10
-411.6163629390682
 20
435.7956656460368
 30
0.0
 10
-411.9958590647202
 20
435.7968898967424
 30
0.0
 10
-412.2494492449706
 20
435.7798049088574
 30
0.0
 10
-412.3857640381054
 20
435.7706210493446
 30
0.0
 11
-410.8332215033673
 21
435.7262223928354
 31
0.0
 11
-411.2490206598943
 21
435.7733084044179
 31
0.0
 11
-411.6241298479714
 21
435.7931319308271
 31
0.0
 11
-411.9766382144562
 21
435.7929989701485
 31
0.0
 11
-412.3857640381054
 21
435.7706210493446
 31
0.0
  0
SPLINE
  5
144
330
49
100
AcDbEntity
  8
0
  6
Continuous
 62
     3
100
AcDbSpline
210
0.0
220
0.0
230
1.0
 70
     8
 71
     3
 72
    11
 73
     7
 74
     5
 42
0.0000000001
 43
0.0000000001
 44
0.00000001
 40
0.0
 40
0.0
 40
0.0
 40
0.0
 40
0.3127706359290756
 40
0.6395304215401469
 40
0.9715210490377726
 40
1.350631274224102
 40
1.350631274224102
 40
1.350631274224102
 40
1.350631274224102
 10
-380.2868795092978
 20
435.531551176948
 30
0.0
 10
-380.3876081118286
 20
435.5585240491226
 30
0.0
 10
-380.5935705591866
 20
435.6136761968322
 30
0.0
 10
-380.910957564257
 20
435.6787554436668
 30
0.0
 10
-381.2524963526143
 20
435.7348925169363
 30
0.0
 10
-381.4884445555095
 20
435.758196802113
 30
0.0
 10
-381.6142359618821
 20
435.7706210493457
 30
0.0
 11
-380.2868795092978
 21
435.531551176948
 31
0.0
 11
-380.5897747966018
 21
435.609524990684
 31
0.0
 11
-380.909635880206
 21
435.6763145459163
 31
0.0
 11
-381.237412977278
 21
435.7290397901673
 31
0.0
 11
-381.6142359618821
 21
435.7706210493457
 31
0.0
  0
SPLINE
  5
145
330
49
100
AcDbEntity
  8
0
  6
Continuous
 62
     3
100
AcDbSpline
210
0.0
220
0.0
230
1.0
 70
     8
 71
     3
 72
    11
 73
     7
 74
     5
 42
0.0000000001
 43
0.0000000001
 44
0.00000001
 40
0.0
 40
0.0
 40
0.0
 40
0.0
 40
0.4097373682388435
 40
0.7622457597803614
 40
1.159104525931427
 40
1.556336640761112
 40
1.556336640761112
 40
1.556336640761112
 40
1.556336640761112
 10
-381.6142359618821
 20
435.7706210493457
 30
0.0
 10
-381.7505509552665
 20
435.7798038042309
 30
0.0
 10
-382.0041415080354
 20
435.7968867371459
 30
0.0
 10
-382.3907142092401
 20
435.7956539641183
 30
0.0
 10
-382.7727513793573
 20
435.7766694703873
 30
0.0
 10
-383.035394962817
 20
435.7430433552227
 30
0.0
 10
-383.1667784966201
 20
435.7262223928363
 30
0.0
 11
-381.6142359618821
 21
435.7706210493457
 31
0.0
 11
-382.0233617855498
 21
435.7929989701501
 31
0.0
 11
-382.375870152016
 21
435.7931319308282
 31
0.0
 11
-382.7721422451053
 21
435.771560919967
 31
0.0
 11
-383.1667784966201
 21
435.7262223928363
 31
0.0
  0
SPLINE
  5
146
330
49
100
AcDbEntity
  8
0
  6
Continuous
 62
     3
100
AcDbSpline
210
0.0
220
0.0
230
1.0
 70
     8
 71
     3
 72
    11
 73
     7
 74
     5
 42
0.0000000001
 43
0.0000000001
 44
0.00000001
 40
0.0
 40
0.0
 40
0.0
 40
0.0
 40
0.211355846321101
 40
0.4166355875013193
 40
0.6071874460644637
 40
0.7806052522176508
 40
0.7806052522176508
 40
0.7806052522176508
 40
0.7806052522176508
 10
-410.5037986399613
 20
435.0191156116488
 30
0.0
 10
-410.531029623062
 20
435.0840950011165
 30
0.0
 10
-410.5847087468707
 20
435.2121857380305
 30
0.0
 10
-410.6657896899023
 20
435.39761220173
 30
0.0
 10
-410.7458346452634
 20
435.5697905969042
 30
0.0
 10
-410.8050212976676
 20
435.6757410170433
 30
0.0
 10
-410.8332215033673
 20
435.7262223928354
 30
0.0
 11
-410.5037986399613
 21
435.0191156116488
 31
0.0
 11
-410.5859950653425
 21
435.2138334624706
 31
0.0
 11
-410.6685100716645
 21
435.4017990068416
 31
0.0
 11
-410.7504386260061
 21
435.5738388940346
 31
0.0
 11
-410.8332215033673
 21
435.7262223928354
 31
0.0
  0
SPLINE
  5
147
330
49
100
AcDbEntity
  8
0
  6
Continuous
 62
     3
100
AcDbSpline
210
0.0
220
0.0
230
1.0
 70
     8
 71
     3
 72
    11
 73
     7
 74
     5
 42
0.0000000001
 43
0.0000000001
 44
0.00000001
 40
0.0
 40
0.0
 40
0.0
 40
0.0
 40
0.2956157132822282
 40
0.596185632423671
 40
0.9235096691751701
 40
1.2385929258495
 40
1.2385929258495
 40
1.2385929258495
 40
1.2385929258495
 10
-411.7299295541848
 20
435.1943209083869
 30
0.0
 10
-411.6324613586365
 20
435.1798354133547
 30
0.0
 10
-411.435891503946
 20
435.1506216617552
 30
0.0
 10
-411.1311880429499
 20
435.1068095516183
 30
0.0
 10
-410.8199985458567
 20
435.0625125554986
 30
0.0
 10
-410.6078511510793
 20
435.0333963274183
 30
0.0
 10
-410.5037986399613
 20
435.0191156116488
 30
0.0
 11
-411.7299295541848
 21
435.1943209083869
 31
0.0
 11
-411.4374915124758
 21
435.1510931198617
 31
0.0
 11
-411.1400057187494
 21
435.1081457238562
 31
0.0
 11
-410.8159205199715
 21
435.0622130669724
 31
0.0
 11
-410.5037986399613
 21
435.0191156116488
 31
0.0
  0
SPLINE
  5
148
330
49
100
AcDbEntity
  8
0
  6
Continuous
 62
     3
100
AcDbSpline
210
0.0
220
0.0
230
1.0
 70
     8
 71
     3
 72
    11
 73
     7
 74
     5
 42
0.0000000001
 43
0.0000000001
 44
0.00000001
 40
0.0
 40
0.0
 40
0.0
 40
0.0
 40
0.5487220734119165
 40
1.007218425549035
 40
1.571657969822479
 40
2.040098175550292
 40
2.040098175550292
 40
2.040098175550292
 40
2.040098175550292
 10
-412.1571441396763
 20
434.7636149481663
 30
0.0
 10
-411.9846956261824
 20
434.7023854660338
 30
0.0
 10
-411.6681541042249
 20
434.589994393068
 30
0.0
 10
-411.1611768896947
 20
434.456543664613
 30
0.0
 10
-410.6728321079871
 20
434.3592357284426
 30
0.0
 10
-410.3299035743116
 20
434.326744515365
 30
0.0
 10
-410.1743757765553
 20
434.3120088304623
 30
0.0
 11
-412.1571441396763
 21
434.7636149481663
 31
0.0
 11
-411.6373168728496
 21
434.5879006160446
 31
0.0
 11
-411.194350476723
 21
434.4695803860514
 31
0.0
 11
-410.6399890553478
 21
434.3633946354513
 31
0.0
 11
-410.1743757765553
 21
434.3120088304623
 31
0.0
  0
SPLINE
  5
149
330
49
100
AcDbEntity
  8
0
  6
Continuous
 62
     3
100
AcDbSpline
210
0.0
220
0.0
230
1.0
 70
     8
 71
     3
 72
    11
 73
     7
 74
     5
 42
0.0000000001
 43
0.0000000001
 44
0.00000001
 40
0.0
 40
0.0
 40
0.0
 40
0.0
 40
0.2113558463211231
 40
0.4166355875004756
 40
0.6071874460362704
 40
0.7806052522174773
 40
0.7806052522174773
 40
0.7806052522174773
 40
0.7806052522174773
 10
-383.4962013600261
 20
435.0191156116496
 30
0.0
 10
-383.5234323431267
 20
434.9541362221819
 30
0.0
 10
-383.5771114669355
 20
434.8260454852681
 30
0.0
 10
-383.658192409963
 20
434.6406190215772
 30
0.0
 10
-383.7382373653244
 20
434.4684406264032
 30
0.0
 10
-383.797424017728
 20
434.3624902062636
 30
0.0
 10
-383.8256242234321
 20
434.3120088304632
 30
0.0
 11
-383.4962013600261
 21
435.0191156116496
 31
0.0
 11
-383.5783977854073
 21
434.8243977608278
 31
0.0
 11
-383.660912791729
 21
434.6364322164576
 31
0.0
 11
-383.7428413460584
 21
434.4643923292891
 31
0.0
 11
-383.8256242234321
 21
434.3120088304632
 31
0.0
  0
SPLINE
  5
14A
330
49
100
AcDbEntity
  8
0
  6
Continuous
 62
     3
100
AcDbSpline
210
0.0
220
0.0
230
1.0
 70
     8
 71
     3
 72
    11
 73
     7
 74
     5
 42
0.0000000001
 43
0.0000000001
 44
0.00000001
 40
0.0
 40
0.0
 40
0.0
 40
0.0
 40
0.5444469655022027
 40
1.032876566691819
 40
1.49137291871833
 40
2.040094992240868
 40
2.040094992240868
 40
2.040094992240868
 40
2.040094992240868
 10
-383.8256242234321
 20
434.3120088304632
 30
0.0
 10
-383.6448843725493
 20
434.3297167018721
 30
0.0
 10
-383.3020007337876
 20
434.363310507299
 30
0.0
 10
-382.8143295188839
 20
434.4630449218187
 30
0.0
 10
-382.3318383033096
 20
434.5899802299857
 30
0.0
 10
-382.015301696253
 20
434.7023804712364
 30
0.0
 10
-381.8428558603112
 20
434.7636149481672
 30
0.0
 11
-383.8256242234321
 21
434.3120088304632
 31
0.0
 11
-383.2848323754916
 21
434.3749903789175
 31
0.0
 11
-382.8056495232645
 21
434.469580386052
 31
0.0
 11
-382.3626831272441
 21
434.5879006160143
 31
0.0
 11
-381.8428558603112
 21
434.7636149481672
 31
0.0
  0
SPLINE
  5
14B
330
49
100
AcDbEntity
  8
0
  6
Continuous
 62
     3
100
AcDbSpline
210
0.0
220
0.0
230
1.0
 70
     8
 71
     3
 72
    11
 73
     7
 74
     5
 42
0.0000000001
 43
0.0000000001
 44
0.00000001
 40
0.0
 40
0.0
 40
0.0
 40
0.0
 40
0.2956157132320573
 40
0.5961856323234431
 40
0.9235096782449606
 40
1.23859292584844
 40
1.23859292584844
 40
1.23859292584844
 40
1.23859292584844
 10
-382.2700704458026
 20
435.1943209083879
 30
0.0
 10
-382.3675386413381
 20
435.179835413383
 30
0.0
 10
-382.564108496003
 20
435.1506216618384
 30
0.0
 10
-382.8688119600124
 20
435.1068095514161
 30
0.0
 10
-383.1800014571014
 20
435.0625125551517
 30
0.0
 10
-383.3921488519063
 20
435.0333963270274
 30
0.0
 10
-383.4962013600261
 20
435.0191156116496
 30
0.0
 11
-382.2700704458026
 21
435.1943209083879
 31
0.0
 11
-382.5625084874745
 21
435.1510931199551
 31
0.0
 11
-382.8599942811637
 21
435.108145724042
 31
0.0
 11
-383.1840794890103
 21
435.0622130657971
 31
0.0
 11
-383.4962013600261
 21
435.0191156116496
 31
0.0
  0
SPLINE
  5
14C
330
49
100
AcDbEntity
  8
0
  6
Continuous
 62
     3
100
AcDbSpline
210
0.0
220
0.0
230
1.0
 70
     8
 71
     3
 72
    11
 73
     7
 74
     5
 42
0.0000000001
 43
0.0000000001
 44
0.00000001
 40
0.0
 40
0.0
 40
0.0
 40
0.0
 40
0.1734178061808801
 40
0.3639696647166505
 40
0.5692494058973017
 40
0.7806052522176719
 40
0.7806052522176719
 40
0.7806052522176719
 40
0.7806052522176719
 10
-383.1667784966201
 20
435.7262223928363
 30
0.0
 10
-383.1949787023242
 20
435.6757410170359
 30
0.0
 10
-383.2541653547279
 20
435.5697905968967
 30
0.0
 10
-383.3342103100892
 20
435.397612201722
 30
0.0
 10
-383.4152912531169
 20
435.2121857380311
 30
0.0
 10
-383.4689703769255
 20
435.0840950011171
 30
0.0
 10
-383.4962013600261
 20
435.0191156116496
 30
0.0
 11
-383.1667784966201
 21
435.7262223928363
 31
0.0
 11
-383.2495613739937
 21
435.5738388940107
 31
0.0
 11
-383.3314899283231
 21
435.4017990068422
 31
0.0
 11
-383.4140049346453
 21
435.2138334624708
 31
0.0
 11
-383.4962013600261
 21
435.0191156116496
 31
0.0
  0
SPLINE
  5
14D
330
49
100
AcDbEntity
  8
0
  6
Continuous
 62
     3
100
AcDbSpline
210
0.0
220
0.0
230
1.0
 70
     8
 71
     3
 72
    11
 73
     7
 74
     5
 42
0.0000000001
 43
0.0000000001
 44
0.00000001
 40
0.0
 40
0.0
 40
0.0
 40
0.0
 40
0.1553556286768236
 40
0.3052120756774626
 40
0.4556027790606618
 40
0.6068084423631644
 40
0.6068084423631644
 40
0.6068084423631644
 40
0.6068084423631644
 10
-382.2700704458026
 20
435.1943209083879
 30
0.0
 10
-382.2325218719212
 20
435.1586550092217
 30
0.0
 10
-382.1587538451645
 20
435.0885856901496
 30
0.0
 10
-382.0509746100017
 20
434.9815977040636
 30
0.0
 10
-381.9442383794802
 20
434.8754661558005
 30
0.0
 10
-381.8767108566296
 20
434.8009657878747
 30
0.0
 10
-381.8428558603112
 20
434.7636149481672
 30
0.0
 11
-382.2700704458026
 21
435.1943209083879
 31
0.0
 11
-382.1578304135005
 21
435.0869079365903
 31
0.0
 11
-382.0511111471606
 21
434.9817035978037
 31
0.0
 11
-381.9453705609708
 21
434.8747629970183
 31
0.0
 11
-381.8428558603112
 21
434.7636149481672
 31
0.0
  0
SPLINE
  5
14E
330
49
100
AcDbEntity
  8
0
  6
Continuous
 62
     3
100
AcDbSpline
210
0.0
220
0.0
230
1.0
 70
     8
 71
     3
 72
    11
 73
     7
 74
     5
 42
0.0000000001
 43
0.0000000001
 44
0.00000001
 40
0.0
 40
0.0
 40
0.0
 40
0.0
 40
0.4955666381119688
 40
0.9326683980199388
 40
1.362160261149789
 40
1.737680062080492
 40
1.737680062080492
 40
1.737680062080492
 40
1.737680062080492
 10
-381.8428558603112
 20
434.7636149481672
 30
0.0
 10
-381.6891947846307
 20
434.8243791811911
 30
0.0
 10
-381.4000009239644
 20
434.9387389373023
 30
0.0
 10
-380.9901706297003
 20
435.1348069583214
 30
0.0
 10
-380.624094552128
 20
435.3286102020194
 30
0.0
 10
-380.3941455411739
 20
435.4669969005345
 30
0.0
 10
-380.2868795092978
 20
435.531551176948
 30
0.0
 11
-381.8428558603112
 21
434.7636149481672
 31
0.0
 11
-381.3842960787705
 21
434.951522424237
 31
0.0
 11
-380.9892364108162
 21
435.1385673580644
 31
0.0
 11
-380.6102670278028
 21
435.3406699736665
 31
0.0
 11
-380.2868795092978
 21
435.531551176948
 31
0.0
  0
SPLINE
  5
14F
330
49
100
AcDbEntity
  8
0
  6
Continuous
 62
     3
100
AcDbSpline
210
0.0
220
0.0
230
1.0
 70
     8
 71
     3
 72
    11
 73
     7
 74
     5
 42
0.0000000001
 43
0.0000000001
 44
0.00000001
 40
0.0
 40
0.0
 40
0.0
 40
0.0
 40
0.1734178061552923
 40
0.3639696647168335
 40
0.5692494058985003
 40
0.7806052522175415
 40
0.7806052522175415
 40
0.7806052522175415
 40
0.7806052522175415
 10
-410.1743757765553
 20
434.3120088304623
 30
0.0
 10
-410.2025759822552
 20
434.362490206255
 30
0.0
 10
-410.2617626346594
 20
434.4684406263943
 30
0.0
 10
-410.3418075900211
 20
434.640619021569
 30
0.0
 10
-410.4228885330522
 20
434.8260454852679
 30
0.0
 10
-410.4765676568609
 20
434.9541362221817
 30
0.0
 10
-410.5037986399613
 20
435.0191156116488
 30
0.0
 11
-410.1743757765553
 21
434.3120088304623
 31
0.0
 11
-410.2571586539174
 21
434.464392329265
 31
0.0
 11
-410.3390872082583
 21
434.6364322164565
 31
0.0
 11
-410.421602214581
 21
434.8243977608288
 31
0.0
 11
-410.5037986399613
 21
435.0191156116488
 31
0.0
  0
SPLINE
  5
150
330
49
100
AcDbEntity
  8
0
  6
Continuous
 62
     3
100
AcDbSpline
210
0.0
220
0.0
230
1.0
 70
     8
 71
     3
 72
    15
 73
    11
 74
     9
 42
0.0000000001
 43
0.0000000001
 44
0.00000001
 40
0.0
 40
0.0
 40
0.0
 40
0.0
 40
2.326799862789624
 40
4.532662484938388
 40
7.149852227888184
 40
9.103048796755022
 40
11.65324202419497
 40
13.61422724584644
 40
16.02108226906666
 40
17.99436610395131
 40
17.99436610395131
 40
17.99436610395131
 40
17.99436610395131
 10
-379.2954990760967
 20
410.3144400509265
 30
0.0
 10
-378.5226960441908
 20
410.39347350167
 30
0.0
 10
-377.0172570217012
 20
410.5474325778109
 30
0.0
 10
-374.7123532994109
 20
411.1954888945909
 30
0.0
 10
-372.6533267494112
 20
412.1614870786651
 30
0.0
 10
-370.7310754977049
 20
413.5720116859635
 30
0.0
 10
-369.2763093448017
 20
415.1938188084109
 30
0.0
 10
-368.1427703013658
 20
417.2135989645619
 30
0.0
 10
-367.4720675164698
 20
419.2418958743957
 30
0.0
 10
-367.3312198419944
 20
420.6978708572543
 30
0.0
 10
-367.2677669588263
 20
421.3537979843944
 30
0.0
 11
-379.2954990760967
 21
410.3144400509265
 31
0.0
 11
-376.9887482816542
 21
410.6192323963306
 31
0.0
 11
-374.863628822389
 21
411.2105843994939
 31
0.0
 11
-372.5023757868298
 21
412.339374128657
 31
0.0
 11
-370.9302868195073
 21
413.4984742604213
 31
0.0
 11
-369.2319268396075
 21
415.4008566814806
 31
0.0
 11
-368.2669633214747
 21
417.1079912538586
 31
0.0
 11
-367.5235671761017
 21
419.3971643084451
 31
0.0
 11
-367.2677669588263
 21
421.3537979843944
 31
0.0
  0
SPLINE
  5
151
330
49
100
AcDbEntity
  8
0
  6
Continuous
 62
     3
100
AcDbSpline
210
0.0
220
0.0
230
1.0
 70
     8
 71
     3
 72
    21
 73
    17
 74
    15
 42
0.0000000001
 43
0.0000000001
 44
0.00000001
 40
0.0
 40
0.0
 40
0.0
 40
0.0
 40
0.979617160099855
 40
2.373051766002158
 40
3.531088353494938
 40
4.73300034053935
 40
6.367859550006655
 40
7.680253185091428
 40
9.020751363433174
 40
10.51082259175469
 40
11.95306172346753
 40
13.76399590675018
 40
15.32691246471044
 40
17.35943225564771
 40
19.45154577463369
 40
20.98853422154012
 40
20.98853422154012
 40
20.98853422154012
 40
20.98853422154012
 10
-362.4041489789932
 20
416.1529997192185
 30
0.0
 10
-362.3466159295642
 20
415.8315148295839
 30
0.0
 10
-362.2072462756713
 20
415.0527409205882
 30
0.0
 10
-362.0895829858937
 20
413.8797824516759
 30
0.0
 10
-362.068230599998
 20
412.6273510748845
 30
0.0
 10
-362.1783603744091
 20
411.2980193362223
 30
0.0
 10
-362.4982547978412
 20
409.9421103577217
 30
0.0
 10
-363.1135877842124
 20
408.640943987657
 30
0.0
 10
-363.9771216805289
 20
407.5463016054561
 30
0.0
 10
-365.1242864519239
 20
406.6755493496219
 30
0.0
 10
-366.5771759601736
 20
406.0265305524469
 30
0.0
 10
-368.1519854799648
 20
405.6683308059436
 30
0.0
 10
-369.9515184587102
 20
405.5222619604955
 30
0.0
 10
-371.8501579340927
 20
405.5866774916691
 30
0.0
 10
-373.7253073102171
 20
405.8211047248319
 30
0.0
 10
-374.9111293022194
 20
406.0613854011964
 30
0.0
 10
-375.4133457510612
 20
406.1631484894365
 30
0.0
 11
-362.4041489789932
 21
416.1529997192185
 31
0.0
 11
-362.2418247071454
 21
415.1869248716362
 31
0.0
 11
-362.1027678404148
 21
413.8004461704867
 31
0.0
 11
-362.0873786398606
 21
412.6425118413997
 31
0.0
 11
-362.191647500269
 21
411.4451311879105
 31
0.0
 11
-362.5833423062449
 21
409.8578883540153
 31
0.0
 11
-363.1517063603599
 21
408.6749516036347
 31
0.0
 11
-363.9840649356265
 21
407.6241830428576
 31
0.0
 11
-365.1657704818176
 21
406.7165023349141
 31
0.0
 11
-366.4774660354083
 21
406.1169120683702
 31
0.0
 11
-368.2387854676454
 21
405.6959174439323
 31
0.0
 11
-369.7958678179259
 21
405.5609999817884
 31
0.0
 11
-371.8276397811234
 21
405.6161306458166
 31
0.0
 11
-373.9037997043548
 21
405.8740045481255
 31
0.0
 11
-375.4133457510612
 21
406.1631484894365
 31
0.0
  0
SPLINE
  5
152
330
49
100
AcDbEntity
  8
0
  6
Continuous
 62
     3
100
AcDbSpline
210
0.0
220
0.0
230
1.0
 70
     8
 71
     3
 72
    15
 73
    11
 74
     9
 42
0.0000000001
 43
0.0000000001
 44
0.00000001
 40
0.0
 40
0.0
 40
0.0
 40
0.0
 40
0.058427569799149
 40
0.1174646337770306
 40
0.1764911553115847
 40
0.2348687423027856
 40
0.2919640969428184
 40
0.3471735781161107
 40
0.3999414980531744
 40
0.4497837599802006
 40
0.4497837599802006
 40
0.4497837599802006
 40
0.4497837599802006
 10
-375.5164901740936
 20
405.7255378832321
 30
0.0
 10
-375.5128446217448
 20
405.7446697120023
 30
0.0
 10
-375.5055154880321
 20
405.7831329455016
 30
0.0
 10
-375.4936777684825
 20
405.8407620093336
 30
0.0
 10
-375.4812266089442
 20
405.898243722703
 30
0.0
 10
-375.4682317045705
 20
405.9549415234914
 30
0.0
 10
-375.4548461887046
 20
406.0102403509006
 30
0.0
 10
-375.4411968847211
 20
406.0635459453862
 30
0.0
 10
-375.4275082911114
 20
406.1143433926288
 30
0.0
 10
-375.4179760017359
 20
406.1471923239728
 30
0.0
 10
-375.4133457510612
 20
406.1631484894365
 30
0.0
 11
-375.5164901740936
 21
405.7255378832321
 31
0.0
 11
-375.5054175580333
 21
405.7829066734078
 31
0.0
 11
-375.4935738630461
 21
405.8407435285451
 31
0.0
 11
-375.4810650393543
 21
405.8984293983428
 31
0.0
 11
-375.4680195255055
 21
405.9553306921008
 31
0.0
 11
-375.4545745472591
 21
406.0108204396352
 31
0.0
 11
-375.4408806993591
 21
406.0643046928422
 31
0.0
 11
-375.4270873074133
 21
406.1152379404621
 31
0.0
 11
-375.4133457510612
 21
406.1631484894365
 31
0.0
  0
SPLINE
  5
153
330
49
100
AcDbEntity
  8
0
  6
Continuous
 62
     3
100
AcDbSpline
210
0.0
220
0.0
230
1.0
 70
     8
 71
     3
 72
    15
 73
    11
 74
     9
 42
0.0000000001
 43
0.0000000001
 44
0.00000001
 40
0.0
 40
0.0
 40
0.0
 40
0.0
 40
0.2264839555660971
 40
0.4711679051041556
 40
0.7304096863772468
 40
0.9998206466802961
 40
1.2745514292069
 40
1.549550786336176
 40
1.819874068554449
 40
2.080988703575665
 40
2.080988703575665
 40
2.080988703575665
 40
2.080988703575665
 10
-379.2954990760967
 20
410.3144400509265
 30
0.0
 10
-379.2954990670663
 20
410.3899347027818
 30
0.0
 10
-379.2954990482801
 20
410.5469906711498
 30
0.0
 10
-379.2954990239723
 20
410.7904605666092
 30
0.0
 10
-379.2954990002842
 20
411.048239463647
 30
0.0
 10
-379.2954989771874
 20
411.3160339716813
 30
0.0
 10
-379.2954989540719
 20
411.5890810050009
 30
0.0
 10
-379.2954989303861
 20
411.8624321456257
 30
0.0
 10
-379.2954989059286
 20
412.1312445704152
 30
0.0
 10
-379.2954988876878
 20
412.3083905428284
 30
0.0
 10
-379.2954988787253
 20
412.3954287545022
 30
0.0
 11
-379.2954990760967
 21
410.3144400509265
 31
0.0
 11
-379.2954990497234
 21
410.5409240064926
 31
0.0
 11
-379.2954990247714
 21
410.7856079560307
 31
0.0
 11
-379.2954990008349
 21
411.0448497373038
 31
0.0
 11
-379.295498977411
 21
411.3142606976068
 31
0.0
 11
-379.2954989539883
 21
411.5889914801334
 31
0.0
 11
-379.2954989300507
 21
411.8639908372627
 31
0.0
 11
-379.2954989050999
 21
412.134314119481
 31
0.0
 11
-379.2954988787253
 21
412.3954287545022
 31
0.0
  0
SPLINE
  5
154
330
49
100
AcDbEntity
  8
0
  6
Continuous
 62
     3
100
AcDbSpline
210
0.0
220
0.0
230
1.0
 70
     8
 71
     3
 72
    11
 73
     7
 74
     5
 42
0.0000000001
 43
0.0000000001
 44
0.00000001
 40
0.0
 40
0.0
 40
0.0
 40
0.0
 40
0.3755198006181832
 40
0.8050116640607956
 40
1.273412957284094
 40
1.737682001779933
 40
1.737682001779933
 40
1.737682001779933
 40
1.737682001779933
 10
-413.7131204906897
 20
435.531551176947
 30
0.0
 10
-413.6058538783478
 20
435.4669976476203
 30
0.0
 10
-413.3759036228421
 20
435.3286125505394
 30
0.0
 10
-413.0006136288856
 20
435.1299119757385
 30
0.0
 10
-412.5904351099506
 20
434.9344965341882
 30
0.0
 10
-412.301147227655
 20
434.8204069834359
 30
0.0
 10
-412.1571441396763
 20
434.7636149481663
 30
0.0
 11
-413.7131204906897
 21
435.531551176947
 31
0.0
 11
-413.3897329724574
 21
435.3406699738183
 31
0.0
 11
-413.0107635891712
 21
435.1385673580631
 31
0.0
 11
-412.5870622352739
 21
434.9388752595743
 31
0.0
 11
-412.1571441396763
 21
434.7636149481663
 31
0.0
  0
SPLINE
  5
155
330
49
100
AcDbEntity
  8
0
  6
Continuous
 62
     3
100
AcDbSpline
210
0.0
220
0.0
230
1.0
 70
     8
 71
     3
 72
    11
 73
     7
 74
     5
 42
0.0000000001
 43
0.0000000001
 44
0.00000001
 40
0.0
 40
0.0
 40
0.0
 40
0.0
 40
0.3279618292245644
 40
0.711100455949927
 40
1.03786024163932
 40
1.350630877490099
 40
1.350630877490099
 40
1.350630877490099
 40
1.350630877490099
 10
-412.3857640381054
 20
435.7706210493446
 30
0.0
 10
-412.494594839304
 20
435.7600661224654
 30
0.0
 10
-412.7305663014001
 20
435.7371804917383
 30
0.0
 10
-413.0723412897031
 20
435.6822052641803
 30
0.0
 10
-413.4064275718808
 20
435.6136709744994
 30
0.0
 10
-413.6123912743539
 20
435.5585223339116
 30
0.0
 10
-413.7131204906897
 20
435.531551176947
 30
0.0
 11
-412.3857640381054
 21
435.7706210493446
 31
0.0
 11
-412.7118733820423
 21
435.735812182294
 31
0.0
 11
-413.0903641197815
 21
435.6763145459154
 31
0.0
 11
-413.410225203462
 21
435.6095249906652
 31
0.0
 11
-413.7131204906897
 21
435.531551176947
 31
0.0
  0
SPLINE
  5
156
330
49
100
AcDbEntity
  8
0
  6
Continuous
 62
     7
100
AcDbSpline
210
0.0
220
0.0
230
1.0
 70
     8
 71
     3
 72
    11
 73
     7
 74
     5
 42
0.0000000001
 43
0.0000000001
 44
0.00000001
 40
0.0
 40
0.0
 40
0.0
 40
0.0
 40
0.8865663820261767
 40
1.61575191132598
 40
2.253108871719175
 40
2.91278220818641
 40
2.91278220818641
 40
2.91278220818641
 40
2.91278220818641
 10
-379.7170370868493
 20
436.3374300591904
 30
0.0
 10
-379.7325589213048
 20
436.6343411955575
 30
0.0
 10
-379.7608471963819
 20
437.1754566109456
 30
0.0
 10
-380.0589912624895
 20
437.8832300324681
 30
0.0
 10
-380.5889162427794
 20
438.3619927294521
 30
0.0
 10
-381.0284273292335
 20
438.4098425598546
 30
0.0
 10
-381.2519639308976
 20
438.4341791211109
 30
0.0
 11
-379.7170370868493
 21
436.3374300591904
 31
0.0
 11
-379.8194569615355
 21
437.2180605827406
 31
0.0
 11
-380.1214166760076
 21
437.8817863295488
 31
0.0
 11
-380.6072976449629
 21
438.2942709704371
 31
0.0
 11
-381.2519639308976
 21
438.4341791211109
 31
0.0
  0
SPLINE
  5
157
330
49
100
AcDbEntity
  8
0
  6
Continuous
 62
     3
100
AcDbSpline
210
0.0
220
0.0
230
1.0
 70
     8
 71
     3
 72
     9
 73
     5
 74
     3
 42
0.0000000001
 43
0.0000000001
 44
0.00000001
 40
0.0
 40
0.0
 40
0.0
 40
0.0
 40
21.5858408999854
 40
43.17168179997086
 40
43.17168179997086
 40
43.17168179997086
 40
43.17168179997086
 10
-375.5164901740936
 20
405.7255378832321
 30
0.0
 10
-382.6776601160599
 20
406.7752203256858
 30
0.0
 10
-396.9999999999927
 20
408.8745852105935
 30
0.0
 10
-411.3223398839252
 20
406.7752203256852
 30
0.0
 10
-418.4835098258916
 20
405.725537883231
 30
0.0
 11
-375.5164901740936
 21
405.7255378832321
 31
0.0
 11
-396.9999999999926
 21
407.8249027681395
 31
0.0
 11
-418.4835098258916
 21
405.725537883231
 31
0.0
  0
SPLINE
  5
158
330
49
100
AcDbEntity
  8
0
  6
Continuous
 62
     3
100
AcDbSpline
210
0.0
220
0.0
230
1.0
 70
     8
 71
     3
 72
     9
 73
     5
 74
     3
 42
0.0000000001
 43
0.0000000001
 44
0.00000001
 40
0.0
 40
0.0
 40
0.0
 40
0.0
 40
21.68947662447091
 40
43.37895324894185
 40
43.37895324894185
 40
43.37895324894185
 40
43.37895324894185
 10
-375.4133457510612
 20
406.1631484894365
 30
0.0
 10
-382.6088971673717
 20
407.217870559529
 30
0.0
 10
-396.9999999999926
 20
409.3273146997141
 30
0.0
 10
-411.3911028326135
 20
407.2178705595283
 30
0.0
 10
-418.586654248924
 20
406.1631484894355
 30
0.0
 11
-375.4133457510612
 21
406.1631484894365
 31
0.0
 11
-396.9999999999926
 21
408.2725926296213
 31
0.0
 11
-418.586654248924
 21
406.1631484894355
 31
0.0
  0
SPLINE
  5
159
330
49
100
AcDbEntity
  8
0
  6
Continuous
 62
     7
100
AcDbSpline
210
0.0
220
0.0
230
1.0
 70
     8
 71
     3
 72
    11
 73
     7
 74
     5
 42
0.0000000001
 43
0.0000000001
 44
0.00000001
 40
0.0
 40
0.0
 40
0.0
 40
0.0
 40
1.049061087570977
 40
1.96514450890853
 40
2.795463725634743
 40
3.634702352151417
 40
3.634702352151417
 40
3.634702352151417
 40
3.634702352151417
 10
-382.2768350614938
 20
433.0474277751628
 30
0.0
 10
-381.9250563253961
 20
433.0709435032072
 30
0.0
 10
-381.2660898840863
 20
433.1149941351359
 30
0.0
 10
-380.407987497545
 20
433.5326777284391
 30
0.0
 10
-379.8165505902487
 20
434.2190072920705
 30
0.0
 10
-379.7503261865907
 20
434.7828495360457
 30
0.0
 10
-379.7170370868492
 20
435.0662767873512
 30
0.0
 11
-382.2768350614938
 21
433.0474277751628
 31
0.0
 11
-381.2373838211444
 21
433.189097406318
 31
0.0
 11
-380.4192502840473
 21
433.6012458629773
 31
0.0
 11
-379.8966669812645
 21
434.2464874404639
 31
0.0
 11
-379.7170370868492
 21
435.0662767873512
 31
0.0
  0
SPLINE
  5
15A
330
49
100
AcDbEntity
  8
0
  6
Continuous
 62
     3
100
AcDbSpline
210
0.0
220
0.0
230
1.0
 70
     8
 71
     3
 72
    11
 73
     7
 74
     5
 42
0.0000000001
 43
0.0000000001
 44
0.00000001
 40
0.0
 40
0.0
 40
0.0
 40
0.0
 40
0.1553556286768201
 40
0.3052120756775799
 40
0.4556027790597741
 40
0.6068084423630702
 40
0.6068084423630702
 40
0.6068084423630702
 40
0.6068084423630702
 10
-411.7299295541848
 20
435.1943209083869
 30
0.0
 10
-411.767478128066
 20
435.1586550092206
 30
0.0
 10
-411.8412461548228
 20
435.0885856901485
 30
0.0
 10
-411.9490253899855
 20
434.9815977040628
 30
0.0
 10
-412.0557616205069
 20
434.8754661557995
 30
0.0
 10
-412.1232891433576
 20
434.800965787874
 30
0.0
 10
-412.1571441396763
 20
434.7636149481663
 30
0.0
 11
-411.7299295541848
 21
435.1943209083869
 31
0.0
 11
-411.8421695864868
 21
435.0869079365892
 31
0.0
 11
-411.9488888528268
 21
434.9817035978025
 31
0.0
 11
-412.0546294390159
 21
434.8747629970179
 31
0.0
 11
-412.1571441396763
 21
434.7636149481663
 31
0.0
  0
SPLINE
  5
15B
330
49
100
AcDbEntity
  8
0
  6
Continuous
 62
     7
100
AcDbSpline
210
0.0
220
0.0
230
1.0
 70
     8
 71
     3
 72
    11
 73
     7
 74
     5
 42
0.0000000001
 43
0.0000000001
 44
0.00000001
 40
0.0
 40
0.0
 40
0.0
 40
0.0
 40
0.8392386265167298
 40
1.669557843242934
 40
2.585641264580462
 40
3.634702352151503
 40
3.634702352151503
 40
3.634702352151503
 40
3.634702352151503
 10
-414.2829629131383
 20
435.0662767873502
 30
0.0
 10
-414.2496738133969
 20
434.7828495360446
 30
0.0
 10
-414.1834494097388
 20
434.2190072920693
 30
0.0
 10
-413.5920125024426
 20
433.5326777284382
 30
0.0
 10
-412.733910115901
 20
433.114994135135
 30
0.0
 10
-412.0749436745913
 20
433.0709435032062
 30
0.0
 10
-411.7231649384936
 20
433.0474277751618
 30
0.0
 11
-414.2829629131383
 21
435.0662767873502
 31
0.0
 11
-414.103333018723
 21
434.2464874404628
 31
0.0
 11
-413.5807497159401
 21
433.6012458629763
 31
0.0
 11
-412.7626161788431
 21
433.189097406317
 31
0.0
 11
-411.7231649384936
 21
433.0474277751618
 31
0.0
  0
SPLINE
  5
15C
330
49
100
AcDbEntity
  8
0
  6
Continuous
 62
     3
100
AcDbSpline
210
0.0
220
0.0
230
1.0
 70
     8
 71
     3
 72
    15
 73
    11
 74
     9
 42
0.0000000001
 43
0.0000000001
 44
0.00000001
 40
0.0
 40
0.0
 40
0.0
 40
0.0
 40
0.2611146350211029
 40
0.5314379172393184
 40
0.8064372743684807
 40
1.081168056895028
 40
1.350579017197907
 40
1.609820798470884
 40
1.854504748008943
 40
2.080988703574983
 40
2.080988703574983
 40
2.080988703574983
 40
2.080988703574983
 10
-414.7045011212598
 20
412.3954287545011
 30
0.0
 10
-414.7045011122975
 20
412.3083905428275
 30
0.0
 10
-414.7045010940565
 20
412.1312445704143
 30
0.0
 10
-414.7045010695991
 20
411.8624321456247
 30
0.0
 10
-414.7045010459129
 20
411.5890810050002
 30
0.0
 10
-414.7045010227977
 20
411.3160339716806
 30
0.0
 10
-414.7045009997008
 20
411.0482394636466
 30
0.0
 10
-414.7045009760127
 20
410.7904605666084
 30
0.0
 10
-414.7045009517049
 20
410.5469906711495
 30
0.0
 10
-414.7045009329186
 20
410.3899347027815
 30
0.0
 10
-414.7045009238882
 20
410.3144400509261
 30
0.0
 11
-414.7045011212598
 21
412.3954287545011
 31
0.0
 11
-414.7045010948852
 21
412.13431411948
 31
0.0
 11
-414.7045010699344
 21
411.8639908372618
 31
0.0
 11
-414.7045010459966
 21
411.5889914801326
 31
0.0
 11
-414.704501022574
 21
411.3142606976061
 31
0.0
 11
-414.7045009991501
 21
411.0448497373032
 31
0.0
 11
-414.7045009752136
 21
410.7856079560302
 31
0.0
 11
-414.7045009502615
 21
410.5409240064922
 31
0.0
 11
-414.7045009238882
 21
410.3144400509261
 31
0.0
  0
SPLINE
  5
15D
330
49
100
AcDbEntity
  8
0
  6
Continuous
 62
     3
100
AcDbSpline
210
0.0
220
0.0
230
1.0
 70
     8
 71
     3
 72
    15
 73
    11
 74
     9
 42
0.0000000001
 43
0.0000000001
 44
0.00000001
 40
0.0
 40
0.0
 40
0.0
 40
0.0
 40
0.0584275697990932
 40
0.1174646337771533
 40
0.1764911553117268
 40
0.2348687423028296
 40
0.2919640969429443
 40
0.3471735781161816
 40
0.3999414980530909
 40
0.4497837599803124
 40
0.4497837599803124
 40
0.4497837599803124
 40
0.4497837599803124
 10
-418.4835098258916
 20
405.725537883231
 30
0.0
 10
-418.4871553782404
 20
405.7446697120013
 30
0.0
 10
-418.4944845119531
 20
405.7831329455006
 30
0.0
 10
-418.5063222315028
 20
405.8407620093326
 30
0.0
 10
-418.5187733910406
 20
405.898243722702
 30
0.0
 10
-418.5317682954147
 20
405.9549415234906
 30
0.0
 10
-418.5451538112805
 20
406.0102403508995
 30
0.0
 10
-418.5588031152641
 20
406.0635459453853
 30
0.0
 10
-418.5724917088737
 20
406.1143433926277
 30
0.0
 10
-418.5820239982492
 20
406.1471923239719
 30
0.0
 10
-418.586654248924
 20
406.1631484894355
 30
0.0
 11
-418.4835098258916
 21
405.725537883231
 31
0.0
 11
-418.4945824419518
 21
405.7829066734066
 31
0.0
 11
-418.5064261369391
 21
405.8407435285441
 31
0.0
 11
-418.5189349606308
 21
405.8984293983419
 31
0.0
 11
-418.5319804744796
 21
405.9553306920998
 31
0.0
 11
-418.5454254527261
 21
406.0108204396342
 31
0.0
 11
-418.5591193006261
 21
406.0643046928412
 31
0.0
 11
-418.5729126925718
 21
406.115237940461
 31
0.0
 11
-418.586654248924
 21
406.1631484894355
 31
0.0
  0
SPLINE
  5
15E
330
49
100
AcDbEntity
  8
0
  6
Continuous
 62
     3
100
AcDbSpline
210
0.0
220
0.0
230
1.0
 70
     8
 71
     3
 72
    19
 73
    15
 74
    13
 42
0.0000000001
 43
0.0000000001
 44
0.00000001
 40
0.0
 40
0.0
 40
0.0
 40
0.0
 40
1.477149554892592
 40
3.633832542488752
 40
5.672823165983284
 40
7.255340821049123
 40
9.189278531893091
 40
10.71412505833669
 40
12.17959951888737
 40
13.76327363818286
 40
15.17881130531185
 40
16.94488532396891
 40
19.57788303130218
 40
21.52318680855412
 40
21.52318680855412
 40
21.52318680855412
 40
21.52318680855412
 10
-418.4835098258916
 20
405.725537883231
 30
0.0
 10
-418.9677742817051
 20
405.6360661001593
 30
0.0
 10
-420.1590794768204
 20
405.4159628100871
 30
0.0
 10
-422.041613701065
 20
405.2115824367396
 30
0.0
 10
-423.9711504957479
 20
405.1775940033348
 30
0.0
 10
-425.8178701202854
 20
405.3520046708691
 30
0.0
 10
-427.4621203897462
 20
405.7459107059541
 30
0.0
 10
-428.9620892723625
 20
406.4384922716458
 30
0.0
 10
-430.1863682551551
 20
407.3699869843747
 30
0.0
 10
-431.1181978231818
 20
408.5529236198509
 30
0.0
 10
-431.7857020369554
 20
410.0066199642008
 30
0.0
 10
-432.2118513702133
 20
411.9100964073009
 30
0.0
 10
-432.2461822335182
 20
414.0432560866661
 30
0.0
 10
-432.0194808800611
 20
415.5531776417555
 30
0.0
 10
-431.9231562931648
 20
416.1947378610549
 30
0.0
 11
-418.4835098258916
 21
405.725537883231
 31
0.0
 11
-419.9387135985867
 21
405.4718593712254
 31
0.0
 11
-422.0829792771326
 21
405.2407615374047
 31
0.0
 11
-424.1218395090563
 21
405.2177025396244
 31
0.0
 11
-425.6965940238396
 21
405.3742603460885
 31
0.0
 11
-427.5722474036181
 21
405.8454709872562
 31
0.0
 11
-428.951445700131
 21
406.4958316472773
 31
0.0
 11
-430.1132106675557
 21
407.3890939575708
 31
0.0
 11
-431.0958955604787
 21
408.631009460875
 31
0.0
 11
-431.6945383724788
 21
409.9137306584474
 31
0.0
 11
-432.1001882360911
 21
411.6325865650105
 31
0.0
 11
-432.1667294200792
 21
414.264743322815
 31
0.0
 11
-431.9231562931648
 21
416.1947378610549
 31
0.0
  0
SPLINE
  5
15F
330
49
100
AcDbEntity
  8
0
  6
Continuous
 62
     3
100
AcDbSpline
210
0.0
220
0.0
230
1.0
 70
     8
 71
     3
 72
    21
 73
    17
 74
    15
 42
0.0000000001
 43
0.0000000001
 44
0.00000001
 40
0.0
 40
0.0
 40
0.0
 40
0.0
 40
1.536007799193089
 40
3.628426291231158
 40
5.484737571121041
 40
7.223195276757007
 40
9.03631812741211
 40
10.47769623875416
 40
11.92668961922971
 40
13.30832977647672
 40
14.7837047862824
 40
16.25744890303994
 40
17.32081438121287
 40
18.61642275439254
 40
20.00858870285154
 40
20.988467562127
 40
20.988467562127
 40
20.988467562127
 40
20.988467562127
 10
-418.586654248924
 20
406.1631484894355
 30
0.0
 10
-419.0885406086934
 20
406.0614470945511
 30
0.0
 10
-420.2741190048151
 20
405.8212035129446
 30
0.0
 10
-422.0908643713875
 20
405.5940218350698
 30
0.0
 10
-423.988080458283
 20
405.5222956605281
 30
0.0
 10
-425.7900992378422
 20
405.6552157943379
 30
0.0
 10
-427.4226862373567
 20
406.0263865534676
 30
0.0
 10
-428.8634170082049
 20
406.6702167796891
 30
0.0
 10
-430.0124316694852
 20
407.5363064085426
 30
0.0
 10
-430.9147784923106
 20
408.6713178953619
 30
0.0
 10
-431.5188507485727
 20
409.9968040033895
 30
0.0
 10
-431.8160327512732
 20
411.3081534193385
 30
0.0
 10
-431.9307372569325
 20
412.582444670289
 30
0.0
 10
-431.9149616193621
 20
413.8347434785833
 30
0.0
 10
-431.7927032772042
 20
415.0529715676485
 30
0.0
 10
-431.6533974878651
 20
415.8314248752133
 30
0.0
 10
-431.5958510209928
 20
416.1529997192167
 30
0.0
 11
-418.586654248924
 21
406.1631484894355
 31
0.0
 11
-420.0952323792617
 21
405.8741640887343
 31
0.0
 11
-422.1716864691577
 21
405.6161843252309
 31
0.0
 11
-424.0270367205521
 21
405.5564598537221
 31
0.0
 11
-425.7599073663921
 21
405.6957240597165
 31
0.0
 11
-427.5233623845412
 21
406.117198697782
 31
0.0
 11
-428.8342394553695
 21
406.7165084382606
 31
0.0
 11
-429.9864821184258
 21
407.5950974560014
 31
0.0
 11
-430.848317466984
 21
408.6749906711358
 31
0.0
 11
-431.4707921676656
 21
410.0126216615702
 31
0.0
 11
-431.8086435166773
 21
411.4471174571891
 31
0.0
 11
-431.9074253752214
 21
412.5058847992395
 31
0.0
 11
-431.8971759194857
 21
413.8014526304666
 31
0.0
 11
-431.7582114000049
 21
415.1866655709109
 31
0.0
 11
-431.5958510209928
 21
416.1529997192167
 31
0.0
  0
SPLINE
  5
160
330
49
100
AcDbEntity
  8
0
  6
Continuous
 62
     3
100
AcDbSpline
210
0.0
220
0.0
230
1.0
 70
     8
 71
     3
 72
    15
 73
    11
 74
     9
 42
0.0000000001
 43
0.0000000001
 44
0.00000001
 40
0.0
 40
0.0
 40
0.0
 40
0.0
 40
2.498001787107641
 40
4.380286328153205
 40
6.341271549819676
 40
8.891464777242607
 40
11.41152773419305
 40
13.46164977617947
 40
15.92550127031768
 40
17.99410997714136
 40
17.99410997714136
 40
17.99410997714136
 40
17.99410997714136
 10
-426.732233041153
 20
421.3537979844002
 30
0.0
 10
-426.6434803122731
 20
420.5228079014038
 30
0.0
 10
-426.4878509740935
 20
419.0656534197031
 30
0.0
 10
-425.7709155998198
 20
417.0609195784924
 30
0.0
 10
-424.7236680958729
 20
415.1935888890749
 30
0.0
 10
-423.1421492704928
 20
413.4301522717323
 30
0.0
 10
-421.1760951463415
 20
412.0655776931246
 30
0.0
 10
-419.0267705382921
 20
411.1097297752936
 30
0.0
 10
-416.8964901609811
 20
410.5307702461322
 30
0.0
 10
-415.391415131944
 20
410.3822324844855
 30
0.0
 10
-414.7045009238882
 20
410.3144400509261
 30
0.0
 11
-426.732233041153
 21
421.3537979844002
 31
0.0
 11
-426.3555293942729
 21
418.8843633748549
 31
0.0
 11
-425.7330366785089
 21
417.107991253851
 31
0.0
 11
-424.7680731603663
 21
415.4008566814613
 31
0.0
 11
-423.0697131804754
 21
413.4984742604169
 31
0.0
 11
-421.0054212483429
 21
412.0529929821132
 31
0.0
 11
-419.1363711775946
 21
411.2105843994918
 31
0.0
 11
-416.7572733823278
 21
410.5699145424487
 31
0.0
 11
-414.7045009238882
 21
410.3144400509261
 31
0.0
  0
SPLINE
  5
161
330
49
100
AcDbEntity
  8
0
  6
Continuous
 62
     7
100
AcDbSpline
210
0.0
220
0.0
230
1.0
 70
     8
 71
     3
 72
    11
 73
     7
 74
     5
 42
0.0000000001
 43
0.0000000001
 44
0.00000001
 40
0.0
 40
0.0
 40
0.0
 40
0.0
 40
0.6596733364671674
 40
1.2970302968604
 40
2.026215826160283
 40
2.912782208186466
 40
2.912782208186466
 40
2.912782208186466
 40
2.912782208186466
 10
-412.7480360690902
 20
438.4341791211099
 30
0.0
 10
-412.9715726707543
 20
438.4098425598536
 30
0.0
 10
-413.4110837572085
 20
438.3619927294512
 30
0.0
 10
-413.9410087374981
 20
437.8832300324672
 30
0.0
 10
-414.2391528036059
 20
437.1754566109445
 30
0.0
 10
-414.2674410786829
 20
436.6343411955564
 30
0.0
 10
-414.2829629131384
 20
436.3374300591893
 30
0.0
 11
-412.7480360690902
 21
438.4341791211099
 31
0.0
 11
-413.3927023550248
 21
438.2942709704361
 31
0.0
 11
-413.8785833239801
 21
437.8817863295478
 31
0.0
 11
-414.1805430384521
 21
437.2180605827394
 31
0.0
 11
-414.2829629131384
 21
436.3374300591893
 31
0.0
  0
SPLINE
  5
162
330
49
100
AcDbEntity
  8
0
  6
Continuous
 62
     3
100
AcDbSpline
210
0.0
220
0.0
230
1.0
 70
     8
 71
     3
 72
    15
 73
    11
 74
     9
 42
0.0000000001
 43
0.0000000001
 44
0.00000001
 40
0.0
 40
0.0
 40
0.0
 40
0.0
 40
2.188167727589133
 40
3.815142955992192
 40
5.968696167861642
 40
7.625363898501465
 40
9.756996886004673
 40
11.51499652746618
 40
13.21744555926918
 40
15.49506696688821
 40
15.49506696688821
 40
15.49506696688821
 40
15.49506696688821
 10
-424.9644661610521
 20
421.5433105111302
 30
0.0
 10
-424.9260616866434
 20
420.8119580363179
 30
0.0
 10
-424.8591022126635
 20
419.5368207571013
 30
0.0
 10
-424.2675490170552
 20
417.6214807410395
 30
0.0
 10
-423.3632401839826
 20
416.0257678372084
 30
0.0
 10
-421.9833685218848
 20
414.5851315672926
 30
0.0
 10
-420.4144777915144
 20
413.5690278170532
 30
0.0
 10
-418.6677664826069
 20
412.8980398801672
 30
0.0
 10
-416.7933131837109
 20
412.4754753730899
 30
0.0
 10
-415.4647691539819
 20
412.4245634413093
 30
0.0
 10
-414.7045011212598
 20
412.3954287545011
 30
0.0
 11
-424.9644661610521
 21
421.5433105111302
 31
0.0
 11
-424.7468954869161
 21
419.3659862344505
 31
0.0
 11
-424.2726789444504
 21
417.8096549507294
 31
0.0
 11
-423.2003729964349
 21
415.9420491598293
 31
0.0
 11
-422.0569798707571
 21
414.7432163400015
 31
0.0
 11
-420.2743457777569
 21
413.5744242781337
 31
0.0
 11
-418.6376299131631
 21
412.9327671126896
 31
0.0
 11
-416.9760127669666
 21
412.5621444402141
 31
0.0
 11
-414.7045011212598
 21
412.3954287545011
 31
0.0
  0
ENDBLK
  5
4B
330
49
100
AcDbEntity
  8
0
100
AcDbBlockEnd
  0
BLOCK
  5
4D
330
4C
100
AcDbEntity
  8
0
100
AcDbBlockBegin
  2
Klappeneinschub-309022433__4
 70
     0
 10
-476.2891055083833
 20
322.2049446109115
 30
0.0
  3
Klappeneinschub-309022433__4
  1

  0
LINE
  5
163
330
4C
100
AcDbEntity
  8
0
  6
Continuous
 62
     7
100
AcDbLine
 10
-388.2499999999933
 20
489.2049446109108
 30
0.0
 11
-375.2499999999934
 21
489.2049446109108
 31
0.0
  0
LINE
  5
164
330
4C
100
AcDbEntity
  8
0
  6
Continuous
 62
     3
100
AcDbLine
 10
-391.2499999999933
 20
488.7049446109108
 30
0.0
 11
-402.7499999999933
 21
488.7049446109108
 31
0.0
  0
LINE
  5
165
330
4C
100
AcDbEntity
  8
0
  6
Continuous
 62
     7
100
AcDbLine
 10
-402.7499999999923
 20
488.0449446109119
 30
0.0
 11
-402.7499999999933
 21
488.7049446109108
 31
0.0
  0
LINE
  5
166
330
4C
100
AcDbEntity
  8
0
  6
Continuous
 62
     7
100
AcDbLine
 10
-405.7499999999933
 20
488.7049446109108
 30
0.0
 11
-405.7499999999923
 21
488.0449446109119
 31
0.0
  0
LINE
  5
167
330
4C
100
AcDbEntity
  8
0
  6
Continuous
 62
     3
100
AcDbLine
 10
-428.9999999999875
 20
488.7049446109108
 30
0.0
 11
-429.9999999999933
 21
488.7049446109108
 31
0.0
  0
LINE
  5
168
330
4C
100
AcDbEntity
  8
0
  6
Continuous
 62
     7
100
AcDbLine
 10
-391.2499999999933
 20
488.7049446109108
 30
0.0
 11
-391.2499999999923
 21
488.0449446109119
 31
0.0
  0
LINE
  5
169
330
4C
100
AcDbEntity
  8
0
  6
Continuous
 62
     7
100
AcDbLine
 10
-388.2499999999923
 20
488.0449446109119
 30
0.0
 11
-388.2499999999933
 21
488.7049446109108
 31
0.0
  0
LINE
  5
16A
330
4C
100
AcDbEntity
  8
0
  6
Continuous
 62
     3
100
AcDbLine
 10
-380.9999999999874
 20
488.7049446109108
 30
0.0
 11
-388.2499999999933
 21
488.7049446109108
 31
0.0
  0
LINE
  5
16B
330
4C
100
AcDbEntity
  8
0
  6
Continuous
 62
     7
100
AcDbLine
 10
-375.2499999999934
 20
489.2049446109108
 30
0.0
 11
-375.1477272727206
 21
489.2049446109108
 31
0.0
  0
LINE
  5
16C
330
4C
100
AcDbEntity
  8
0
  6
Continuous
 62
     7
100
AcDbLine
 10
-402.7499999999933
 20
488.7049446109108
 30
0.0
 11
-402.7499999999933
 21
489.2049446109108
 31
0.0
  0
LINE
  5
16D
330
4C
100
AcDbEntity
  8
0
  6
Continuous
 62
     7
100
AcDbLine
 10
-402.7499999999933
 20
489.2049446109108
 30
0.0
 11
-405.7499999999933
 21
489.2049446109108
 31
0.0
  0
LINE
  5
16E
330
4C
100
AcDbEntity
  8
0
  6
Continuous
 62
     7
100
AcDbLine
 10
-405.7499999999933
 20
489.2049446109108
 30
0.0
 11
-405.7499999999933
 21
488.7049446109108
 31
0.0
  0
LINE
  5
16F
330
4C
100
AcDbEntity
  8
0
  6
Continuous
 62
     7
100
AcDbLine
 10
-391.2499999999933
 20
489.2049446109108
 30
0.0
 11
-391.2499999999933
 21
488.7049446109108
 31
0.0
  0
LINE
  5
170
330
4C
100
AcDbEntity
  8
0
  6
Continuous
 62
     7
100
AcDbLine
 10
-388.2499999999933
 20
488.7049446109108
 30
0.0
 11
-388.2499999999933
 21
489.2049446109108
 31
0.0
  0
LINE
  5
171
330
4C
100
AcDbEntity
  8
0
  6
Continuous
 62
     7
100
AcDbLine
 10
-388.2499999999933
 20
489.2049446109108
 30
0.0
 11
-391.2499999999933
 21
489.2049446109108
 31
0.0
  0
LINE
  5
172
330
4C
100
AcDbEntity
  8
0
  6
Continuous
 62
     7
100
AcDbLine
 10
-375.2499999999934
 20
491.0349446109108
 30
0.0
 11
-374.9999999999931
 21
491.0349446109108
 31
0.0
  0
LINE
  5
173
330
4C
100
AcDbEntity
  8
0
  6
Continuous
 62
     7
100
AcDbLine
 10
-375.2499999999934
 20
489.2049446109108
 30
0.0
 11
-375.2499999999934
 21
491.0349446109108
 31
0.0
  0
LINE
  5
174
330
4C
100
AcDbEntity
  8
0
  6
Continuous
 62
     7
100
AcDbLine
 10
-429.9999999999931
 20
491.0449446109109
 30
0.0
 11
-469.7499999999928
 21
491.0449446109109
 31
0.0
  0
LINE
  5
175
330
4C
100
AcDbEntity
  8
0
  6
Continuous
 62
     7
100
AcDbLine
 10
-429.9999999999933
 20
489.2049446109108
 30
0.0
 11
-420.7499999999935
 21
489.2049446109108
 31
0.0
  0
LINE
  5
176
330
4C
100
AcDbEntity
  8
0
  6
Continuous
 62
     7
100
AcDbLine
 10
-420.7499999999935
 20
489.2049446109108
 30
0.0
 11
-420.6477272727206
 21
489.2049446109108
 31
0.0
  0
LINE
  5
177
330
4C
100
AcDbEntity
  8
0
  6
Continuous
 62
     7
100
AcDbLine
 10
-418.9999999999931
 20
489.8276775288312
 30
0.0
 11
-418.9999999999931
 21
491.0349446109108
 31
0.0
  0
LINE
  5
178
330
4C
100
AcDbEntity
  8
0
  6
Continuous
 62
     7
100
AcDbLine
 10
-420.4999999999931
 20
489.8276775288312
 30
0.0
 11
-420.4999999999931
 21
491.0349446109108
 31
0.0
  0
LINE
  5
179
330
4C
100
AcDbEntity
  8
0
  6
Continuous
 62
     7
100
AcDbLine
 10
-418.9999999999931
 20
489.8276775288312
 30
0.0
 11
-420.4999999999931
 21
489.8276775288312
 31
0.0
  0
LINE
  5
17A
330
4C
100
AcDbEntity
  8
0
  6
Continuous
 62
     7
100
AcDbLine
 10
-420.7499999999935
 20
489.2049446109108
 30
0.0
 11
-420.7499999999934
 21
491.0349446109108
 31
0.0
  0
LINE
  5
17B
330
4C
100
AcDbEntity
  8
0
  6
Continuous
 62
     7
100
AcDbLine
 10
-420.4999999999931
 20
491.0349446109108
 30
0.0
 11
-418.9999999999931
 21
491.0349446109108
 31
0.0
  0
LINE
  5
17C
330
4C
100
AcDbEntity
  8
0
  6
Continuous
 62
     7
100
AcDbLine
 10
-420.7499999999934
 20
491.0349446109108
 30
0.0
 11
-420.4999999999931
 21
491.0349446109108
 31
0.0
  0
LINE
  5
17D
330
4C
100
AcDbEntity
  8
0
  6
Continuous
 62
     7
100
AcDbLine
 10
-418.7499999999935
 20
489.2049446109108
 30
0.0
 11
-418.7499999999935
 21
491.0349446109108
 31
0.0
  0
LINE
  5
17E
330
4C
100
AcDbEntity
  8
0
  6
Continuous
 62
     7
100
AcDbLine
 10
-418.9999999999931
 20
491.0349446109108
 30
0.0
 11
-418.7499999999935
 21
491.0349446109108
 31
0.0
  0
LINE
  5
17F
330
4C
100
AcDbEntity
  8
0
  6
Continuous
 62
     7
100
AcDbLine
 10
-429.9999999999931
 20
491.0449446109109
 30
0.0
 11
-429.9999999999933
 21
489.2049446109108
 31
0.0
  0
LINE
  5
180
330
4C
100
AcDbEntity
  8
0
  6
Continuous
 62
     7
100
AcDbLine
 10
-429.9999999999933
 20
489.2049446109108
 30
0.0
 11
-429.9999999999933
 21
488.7049446109108
 31
0.0
  0
LINE
  5
181
330
4C
100
AcDbEntity
  8
0
  6
Continuous
 62
     7
100
AcDbLine
 10
-476.2499999999929
 20
489.9251093678885
 30
0.0
 11
-476.2891055083833
 21
491.0449446109109
 31
0.0
  0
LINE
  5
182
330
4C
100
AcDbEntity
  8
0
  6
Continuous
 62
     7
100
AcDbLine
 10
-469.7499999999928
 20
484.0449446109109
 30
0.0
 11
-476.0446601219409
 21
484.0449446109108
 31
0.0
  0
LINE
  5
183
330
4C
100
AcDbEntity
  8
0
  6
Continuous
 62
     7
100
AcDbLine
 10
-476.2499999999928
 20
491.0449446109109
 30
0.0
 11
-476.2891055083833
 21
491.0449446109109
 31
0.0
  0
LINE
  5
184
330
4C
100
AcDbEntity
  8
0
  6
Continuous
 62
     7
100
AcDbLine
 10
-476.2499999999929
 20
489.9251093678885
 30
0.0
 11
-476.0446601219409
 21
484.0449446109108
 31
0.0
  0
LINE
  5
185
330
4C
100
AcDbEntity
  8
0
  6
Continuous
 62
     7
100
AcDbLine
 10
-473.047061270462
 20
398.2049446590121
 30
0.0
 11
-476.0446601219409
 21
484.0449446109108
 31
0.0
  0
LINE
  5
186
330
4C
100
AcDbEntity
  8
0
  6
Continuous
 62
     7
100
AcDbLine
 10
-473.047061270462
 20
398.2049446590121
 30
0.0
 11
-472.9529678548014
 21
395.5316182098826
 31
0.0
  0
LINE
  5
187
330
4C
100
AcDbEntity
  8
0
  6
Continuous
 62
     7
100
AcDbLine
 10
-433.9999999999928
 20
477.0449446109109
 30
0.0
 11
-472.3198356171193
 21
477.0449446109109
 31
0.0
  0
LINE
  5
188
330
4C
100
AcDbEntity
  8
0
  6
Continuous
 62
     7
100
AcDbLine
 10
-472.3198356171193
 20
477.0449446109109
 30
0.0
 11
-470.3644352487783
 21
421.4892663881664
 31
0.0
  0
LINE
  5
189
330
4C
100
AcDbEntity
  8
0
  6
Continuous
 62
     7
100
AcDbLine
 10
-429.9999999999928
 20
471.2870901732847
 30
0.0
 11
-429.9999999999928
 21
484.0449446109109
 31
0.0
  0
LINE
  5
18A
330
4C
100
AcDbEntity
  8
0
  6
Continuous
 62
     7
100
AcDbLine
 10
-433.9999999999928
 20
464.5901839341219
 30
0.0
 11
-433.9999999999928
 21
477.0449446109109
 31
0.0
  0
LINE
  5
18B
330
4C
100
AcDbEntity
  8
0
  6
Continuous
 62
     7
100
AcDbLine
 10
-317.7499999999929
 20
489.9251093678884
 30
0.0
 11
-317.9553398780447
 21
484.0449446109109
 31
0.0
  0
LINE
  5
18C
330
4C
100
AcDbEntity
  8
0
  6
Continuous
 62
     7
100
AcDbLine
 10
-373.2499999999934
 20
489.2049446109108
 30
0.0
 11
-363.9999999999933
 21
489.2049446109108
 31
0.0
  0
LINE
  5
18D
330
4C
100
AcDbEntity
  8
0
  6
Continuous
 62
     7
100
AcDbLine
 10
-373.4999999999931
 20
489.8276775288313
 30
0.0
 11
-374.9999999999931
 21
489.8276775288313
 31
0.0
  0
LINE
  5
18E
330
4C
100
AcDbEntity
  8
0
  6
Continuous
 62
     3
100
AcDbLine
 10
-363.9999999999933
 20
488.7049446109108
 30
0.0
 11
-364.9999999999875
 21
488.7049446109108
 31
0.0
  0
LINE
  5
18F
330
4C
100
AcDbEntity
  8
0
  6
Continuous
 62
     7
100
AcDbLine
 10
-363.9999999999933
 20
488.7049446109108
 30
0.0
 11
-363.9999999999933
 21
489.2049446109108
 31
0.0
  0
LINE
  5
190
330
4C
100
AcDbEntity
  8
0
  6
Continuous
 62
     7
100
AcDbLine
 10
-373.3528413555897
 20
489.2043440458463
 30
0.0
 11
-373.2499999999934
 21
489.2049446109108
 31
0.0
  0
LINE
  5
191
330
4C
100
AcDbEntity
  8
0
  6
Continuous
 62
     7
100
AcDbLine
 10
-374.9999999999931
 20
489.8276775288313
 30
0.0
 11
-374.9999999999931
 21
491.0349446109108
 31
0.0
  0
LINE
  5
192
330
4C
100
AcDbEntity
  8
0
  6
Continuous
 62
     7
100
AcDbLine
 10
-373.4999999999931
 20
489.8276775288313
 30
0.0
 11
-373.4999999999931
 21
491.0349446109108
 31
0.0
  0
LINE
  5
193
330
4C
100
AcDbEntity
  8
0
  6
Continuous
 62
     7
100
AcDbLine
 10
-373.2499999999934
 20
489.2049446109108
 30
0.0
 11
-373.2499999999934
 21
491.0349446109108
 31
0.0
  0
LINE
  5
194
330
4C
100
AcDbEntity
  8
0
  6
Continuous
 62
     7
100
AcDbLine
 10
-374.9999999999931
 20
491.0349446109108
 30
0.0
 11
-373.4999999999931
 21
491.0349446109108
 31
0.0
  0
LINE
  5
195
330
4C
100
AcDbEntity
  8
0
  6
Continuous
 62
     7
100
AcDbLine
 10
-373.4999999999931
 20
491.0349446109108
 30
0.0
 11
-373.2499999999934
 21
491.0349446109108
 31
0.0
  0
LINE
  5
196
330
4C
100
AcDbEntity
  8
0
  6
Continuous
 62
     7
100
AcDbLine
 10
-363.9999999999933
 20
489.2049446109108
 30
0.0
 11
-363.9999999999931
 21
491.0449446109109
 31
0.0
  0
LINE
  5
197
330
4C
100
AcDbEntity
  8
0
  6
Continuous
 62
     7
100
AcDbLine
 10
-317.7108944916027
 20
491.0449446109109
 30
0.0
 11
-317.7499999999929
 21
489.9251093678884
 31
0.0
  0
LINE
  5
198
330
4C
100
AcDbEntity
  8
0
  6
Continuous
 62
     7
100
AcDbLine
 10
-324.2499999999928
 20
491.0449446109109
 30
0.0
 11
-363.9999999999931
 21
491.0449446109109
 31
0.0
  0
LINE
  5
199
330
4C
100
AcDbEntity
  8
0
  6
Continuous
 62
     7
100
AcDbLine
 10
-317.7108944916027
 20
491.0449446109109
 30
0.0
 11
-317.7499999999928
 21
491.0449446109109
 31
0.0
  0
LINE
  5
19A
330
4C
100
AcDbEntity
  8
0
  6
Continuous
 62
     7
100
AcDbLine
 10
-317.9553398780447
 20
484.0449446109109
 30
0.0
 11
-324.2499999999928
 21
484.0449446109108
 31
0.0
  0
LINE
  5
19B
330
4C
100
AcDbEntity
  8
0
  6
Continuous
 62
     7
100
AcDbLine
 10
-317.7499999999929
 20
489.9251093678884
 30
0.0
 11
-317.7499999999928
 21
498.795056970462
 31
0.0
  0
LINE
  5
19C
330
4C
100
AcDbEntity
  8
0
  6
Continuous
 62
     7
100
AcDbLine
 10
-324.2499999999928
 20
484.0449446109108
 30
0.0
 11
-324.2499999999928
 21
498.7950569704619
 31
0.0
  0
LINE
  5
19D
330
4C
100
AcDbEntity
  8
0
  6
Continuous
 62
     7
100
AcDbLine
 10
-324.2499999999928
 20
498.7950569704619
 30
0.0
 11
-317.7499999999928
 21
498.795056970462
 31
0.0
  0
LINE
  5
19E
330
4C
100
AcDbEntity
  8
0
  6
Continuous
 62
     7
100
AcDbLine
 10
-317.7499999999928
 20
498.795056970462
 30
0.0
 11
-317.7499999999927
 21
501.7950569704619
 31
0.0
  0
LINE
  5
19F
330
4C
100
AcDbEntity
  8
0
  6
Continuous
 62
     7
100
AcDbLine
 10
-324.2499999999928
 20
498.7950569704619
 30
0.0
 11
-324.2499999999927
 21
501.7950569704619
 31
0.0
  0
LINE
  5
1A0
330
4C
100
AcDbEntity
  8
0
  6
Continuous
 62
     7
100
AcDbLine
 10
-324.2499999999927
 20
501.7950569704619
 30
0.0
 11
-317.7499999999927
 21
501.7950569704619
 31
0.0
  0
LINE
  5
1A1
330
4C
100
AcDbEntity
  8
0
  6
Continuous
 62
     7
100
AcDbLine
 10
-388.2499999999923
 20
478.9449446109119
 30
0.0
 11
-388.2499999999923
 21
480.0449446109119
 31
0.0
  0
LINE
  5
1A2
330
4C
100
AcDbEntity
  8
0
  6
Continuous
 62
     7
100
AcDbLine
 10
-391.2499999999923
 20
480.0449446109119
 30
0.0
 11
-391.2499999999923
 21
478.9449446109119
 31
0.0
  0
LINE
  5
1A3
330
4C
100
AcDbEntity
  8
0
  6
Continuous
 62
     7
100
AcDbLine
 10
-429.9999999999933
 20
488.7049446109108
 30
0.0
 11
-429.9999999999928
 21
484.0449446109109
 31
0.0
  0
LINE
  5
1A4
330
4C
100
AcDbEntity
  8
0
  6
Continuous
 62
     7
100
AcDbLine
 10
-402.7499999999933
 20
489.2049446109108
 30
0.0
 11
-391.2499999999933
 21
489.2049446109108
 31
0.0
  0
LINE
  5
1A5
330
4C
100
AcDbEntity
  8
0
  6
Continuous
 62
     7
100
AcDbLine
 10
-418.7499999999935
 20
489.2049446109108
 30
0.0
 11
-405.7499999999933
 21
489.2049446109108
 31
0.0
  0
LINE
  5
1A6
330
4C
100
AcDbEntity
  8
0
  6
Continuous
 62
     7
100
AcDbLine
 10
-418.852272727266
 20
489.2049446109108
 30
0.0
 11
-418.7499999999935
 21
489.2049446109108
 31
0.0
  0
LINE
  5
1A7
330
4C
100
AcDbEntity
  8
0
  6
Continuous
 62
     3
100
AcDbLine
 10
-405.7499999999933
 20
488.7049446109108
 30
0.0
 11
-412.9999999999874
 21
488.7049446109108
 31
0.0
  0
LINE
  5
1A8
330
4C
100
AcDbEntity
  8
0
  6
Continuous
 62
     7
100
AcDbLine
 10
-476.2499999999927
 20
498.7950569704619
 30
0.0
 11
-476.2499999999927
 21
501.7950569704619
 31
0.0
  0
LINE
  5
1A9
330
4C
100
AcDbEntity
  8
0
  6
Continuous
 62
     7
100
AcDbLine
 10
-469.7499999999927
 20
498.795056970462
 30
0.0
 11
-476.2499999999927
 21
498.7950569704619
 31
0.0
  0
LINE
  5
1AA
330
4C
100
AcDbEntity
  8
0
  6
Continuous
 62
     7
100
AcDbLine
 10
-469.7499999999927
 20
501.795056970462
 30
0.0
 11
-476.2499999999927
 21
501.7950569704619
 31
0.0
  0
LINE
  5
1AB
330
4C
100
AcDbEntity
  8
0
  6
Continuous
 62
     7
100
AcDbLine
 10
-323.6355647512075
 20
421.4892663881663
 30
0.0
 11
-321.6801643828663
 21
477.0449446109108
 31
0.0
  0
LINE
  5
1AC
330
4C
100
AcDbEntity
  8
0
  6
Continuous
 62
     7
100
AcDbLine
 10
-363.9999999999928
 20
484.0449446109109
 30
0.0
 11
-363.9999999999928
 21
471.2870901732847
 31
0.0
  0
LINE
  5
1AD
330
4C
100
AcDbEntity
  8
0
  6
Continuous
 62
     7
100
AcDbLine
 10
-324.2499999999928
 20
484.0449446109108
 30
0.0
 11
-363.9999999999928
 21
484.0449446109109
 31
0.0
  0
LINE
  5
1AE
330
4C
100
AcDbEntity
  8
0
  6
Continuous
 62
     7
100
AcDbLine
 10
-363.9999999999928
 20
484.0449446109109
 30
0.0
 11
-363.9999999999933
 21
488.7049446109108
 31
0.0
  0
LINE
  5
1AF
330
4C
100
AcDbEntity
  8
0
  6
Continuous
 62
     7
100
AcDbLine
 10
-359.9999999999928
 20
477.0449446109108
 30
0.0
 11
-359.9999999999929
 21
464.5901839341219
 31
0.0
  0
LINE
  5
1B0
330
4C
100
AcDbEntity
  8
0
  6
Continuous
 62
     7
100
AcDbLine
 10
-321.0470321451845
 20
395.5316182098827
 30
0.0
 11
-320.9529387312167
 21
398.2049446109109
 31
0.0
  0
LINE
  5
1B1
330
4C
100
AcDbEntity
  8
0
  6
Continuous
 62
     7
100
AcDbLine
 10
-317.9553398780447
 20
484.0449446109109
 30
0.0
 11
-320.9529387312167
 21
398.2049446109109
 31
0.0
  0
LINE
  5
1B2
330
4C
100
AcDbEntity
  8
0
  6
Continuous
 62
     7
100
AcDbLine
 10
-469.7499999999927
 20
498.795056970462
 30
0.0
 11
-469.7499999999927
 21
501.795056970462
 31
0.0
  0
LINE
  5
1B3
330
4C
100
AcDbEntity
  8
0
  6
Continuous
 62
     7
100
AcDbLine
 10
-469.7499999999928
 20
484.0449446109109
 30
0.0
 11
-469.7499999999927
 21
498.795056970462
 31
0.0
  0
LINE
  5
1B4
330
4C
100
AcDbEntity
  8
0
  6
Continuous
 62
     7
100
AcDbLine
 10
-402.7499999999923
 20
478.9449446109119
 30
0.0
 11
-402.7499999999923
 21
480.0449446109119
 31
0.0
  0
LINE
  5
1B5
330
4C
100
AcDbEntity
  8
0
  6
Continuous
 62
     7
100
AcDbLine
 10
-321.6801643828663
 20
477.0449446109108
 30
0.0
 11
-359.9999999999928
 21
477.0449446109108
 31
0.0
  0
LINE
  5
1B6
330
4C
100
AcDbEntity
  8
0
  6
Continuous
 62
     7
100
AcDbLine
 10
-476.2499999999929
 20
489.9251093678885
 30
0.0
 11
-476.2499999999927
 21
498.7950569704619
 31
0.0
  0
LINE
  5
1B7
330
4C
100
AcDbEntity
  8
0
  6
Continuous
 62
     7
100
AcDbLine
 10
-429.9999999999928
 20
484.0449446109109
 30
0.0
 11
-469.7499999999928
 21
484.0449446109109
 31
0.0
  0
LINE
  5
1B8
330
4C
100
AcDbEntity
  8
0
  6
Continuous
 62
     7
100
AcDbLine
 10
-405.7499999999923
 20
480.0449446109119
 30
0.0
 11
-405.7499999999923
 21
478.9449446109119
 31
0.0
  0
ARC
  5
1B9
330
4C
100
AcDbEntity
  8
0
  6
Continuous
 62
     7
100
AcDbCircle
 10
-396.9999999999936
 20
398.2049446109108
 30
0.0
 40
75.99999999999972
100
AcDbArc
 50
119.1332327839956
 51
162.2658919943806
  0
ARC
  5
1BA
330
4C
100
AcDbEntity
  8
0
  6
Continuous
 62
     7
100
AcDbCircle
 10
-469.8647446707862
 20
421.5068540618573
 30
0.0
 40
0.4999999999999491
100
AcDbArc
 50
182.0158147900163
 51
342.2658919943943
  0
ARC
  5
1BB
330
4C
100
AcDbEntity
  8
0
  6
Continuous
 62
     7
100
AcDbCircle
 10
-426.9999999999927
 20
471.2870901732847
 30
0.0
 40
3.000000000000057
100
AcDbArc
 50
180.0
 51
233.1301023540989
  0
ARC
  5
1BC
330
4C
100
AcDbEntity
  8
0
  6
Continuous
 62
     7
100
AcDbCircle
 10
-396.9999999999936
 20
398.2049446109108
 30
0.0
 40
72.25000000000068
100
AcDbArc
 50
0.0
 51
63.88728753652911
  0
ARC
  5
1BD
330
4C
100
AcDbEntity
  8
0
  6
Continuous
 62
     7
100
AcDbCircle
 10
-396.9999999999936
 20
398.2049446109108
 30
0.0
 40
76.00000000000063
100
AcDbArc
 50
17.73410800561907
 51
60.86676721600343
  0
ARC
  5
1BE
330
4C
100
AcDbEntity
  8
0
  6
Continuous
 62
     7
100
AcDbCircle
 10
-366.9999999999927
 20
471.2870901732847
 30
0.0
 40
3.000000000000011
100
AcDbArc
 50
306.8698976457871
 51
0.0
  0
ARC
  5
1BF
330
4C
100
AcDbEntity
  8
0
  6
Continuous
 62
     7
100
AcDbCircle
 10
-324.1352553291997
 20
421.5068540618573
 30
0.0
 40
0.4999999999999988
100
AcDbArc
 50
197.7341080056221
 51
357.9841852099711
  0
ARC
  5
1C0
330
4C
100
AcDbEntity
  8
0
  6
Continuous
 62
     7
100
AcDbCircle
 10
-396.9999999999936
 20
398.2049446109108
 30
0.0
 40
76.00000000000057
100
AcDbArc
 50
270.0000000000003
 51
357.9841852099767
  0
ARC
  5
1C1
330
4C
100
AcDbEntity
  8
0
  6
Continuous
 62
     7
100
AcDbCircle
 10
-396.9999999999936
 20
398.2049446109108
 30
0.0
 40
72.24999999999932
100
AcDbArc
 50
180.0
 51
0.0
  0
ARC
  5
1C2
330
4C
100
AcDbEntity
  8
0
  6
Continuous
 62
     7
100
AcDbCircle
 10
-396.9999999999936
 20
398.2049446109108
 30
0.0
 40
72.25000000000006
100
AcDbArc
 50
116.1127124634731
 51
180.0
  0
ARC
  5
1C3
330
4C
100
AcDbEntity
  8
0
  6
Continuous
 62
     7
100
AcDbCircle
 10
-396.9999999999936
 20
398.2049446109108
 30
0.0
 40
75.99999999999936
100
AcDbArc
 50
182.0158147900234
 51
270.0000000000003
  0
SPLINE
  5
1C4
330
4C
100
AcDbEntity
  8
0
  6
Continuous
 62
     7
100
AcDbSpline
210
0.0
220
0.0
230
1.0
 70
     8
 71
     3
 72
    15
 73
    11
 74
     9
 42
0.0000000001
 43
0.0000000001
 44
0.00000001
 40
0.0
 40
0.0
 40
0.0
 40
0.0
 40
0.0856872641689302
 40
0.1784490069658228
 40
0.2783143143867374
 40
0.3852860604674668
 40
0.4993420857634782
 40
0.6204319758305267
 40
0.7484787743905765
 40
0.8833760618464513
 40
0.8833760618464513
 40
0.8833760618464513
 40
0.8833760618464513
 10
-420.4999999999931
 20
489.8276775288312
 30
0.0
 10
-420.5014589113217
 20
489.7991523472882
 30
0.0
 10
-420.5044971840496
 20
489.7397468992413
 30
0.0
 10
-420.5087348216593
 20
489.6470718990261
 30
0.0
 10
-420.5129720290028
 20
489.5472954480986
 30
0.0
 10
-420.5171554676293
 20
489.4404127345032
 30
0.0
 10
-420.5212903707483
 20
489.3264483628138
 30
0.0
 10
-420.5253590181758
 20
489.2054524029559
 30
0.0
 10
-420.5293746716097
 20
489.0775039233344
 30
0.0
 10
-420.5318878827453
 20
488.9898919011265
 30
0.0
 10
-420.5331772266896
 20
488.9449446109119
 30
0.0
 11
-420.4999999999931
 21
489.8276775288312
 31
0.0
 11
-420.5043026762907
 21
489.742098359535
 31
0.0
 11
-420.5085782774783
 21
489.6494352052545
 31
0.0
 11
-420.5128181912716
 21
489.5496599440056
 31
0.0
 11
-420.5170138937216
 21
489.4427705126266
 31
0.0
 11
-420.5211564668675
 21
489.3287897423447
 31
0.0
 11
-420.5252371818777
 21
489.2077686316183
 31
0.0
 11
-420.5292470107584
 21
489.0797846330332
 31
0.0
 11
-420.5331772266896
 21
488.9449446109119
 31
0.0
  0
SPLINE
  5
1C5
330
4C
100
AcDbEntity
  8
0
  6
Continuous
 62
     7
100
AcDbSpline
210
0.0
220
0.0
230
1.0
 70
     8
 71
     3
 72
    15
 73
    11
 74
     9
 42
0.0000000001
 43
0.0000000001
 44
0.00000001
 40
0.0
 40
0.0
 40
0.0
 40
0.0
 40
0.1348972874558197
 40
0.2629440860158074
 40
0.3840339760812064
 40
0.4980900013789809
 40
0.6050617474597102
 40
0.7049270548806249
 40
0.7976887976773419
 40
0.883376061846451
 40
0.883376061846451
 40
0.883376061846451
 40
0.883376061846451
 10
-418.9668227732967
 20
488.9449446109119
 30
0.0
 10
-418.968112117241
 20
488.9898919011264
 30
0.0
 10
-418.9706253283766
 20
489.0775039233342
 30
0.0
 10
-418.9746409818103
 20
489.2054524029554
 30
0.0
 10
-418.978709629238
 20
489.3264483628132
 30
0.0
 10
-418.9828445323567
 20
489.4404127345026
 30
0.0
 10
-418.9870279709835
 20
489.5472954480986
 30
0.0
 10
-418.991265178327
 20
489.6470718990261
 30
0.0
 10
-418.9955028159363
 20
489.739746899241
 30
0.0
 10
-418.9985410886644
 20
489.7991523472881
 30
0.0
 10
-418.9999999999931
 20
489.8276775288312
 30
0.0
 11
-418.9668227732967
 21
488.9449446109119
 31
0.0
 11
-418.970752989228
 21
489.0797846330332
 31
0.0
 11
-418.9747628181085
 21
489.2077686316182
 31
0.0
 11
-418.9788435331186
 21
489.328789742343
 31
0.0
 11
-418.9829861062646
 21
489.4427705126266
 31
0.0
 11
-418.9871818087146
 21
489.5496599440056
 31
0.0
 11
-418.9914217225079
 21
489.6494352052545
 31
0.0
 11
-418.9956973236954
 21
489.7420983595348
 31
0.0
 11
-418.9999999999931
 21
489.8276775288312
 31
0.0
  0
SPLINE
  5
1C6
330
4C
100
AcDbEntity
  8
0
  6
Continuous
 62
     7
100
AcDbSpline
210
0.0
220
0.0
230
1.0
 70
     8
 71
     3
 72
    22
 73
    18
 74
    16
 42
0.0000000001
 43
0.0000000001
 44
0.00000001
 40
0.0
 40
0.0
 40
0.0
 40
0.0
 40
0.0001418954017871
 40
0.0011351632143763
 40
0.0020979189511257
 40
0.0040213148789222
 40
0.0088792049742093
 40
0.015822862936622
 40
0.0284610766369248
 40
0.0450572329759176
 40
0.0656271367649538
 40
0.0900837318945913
 40
0.1182321741701545
 40
0.1497768591283319
 40
0.1843298794194322
 40
0.2214247592930735
 40
0.2605404065140387
 40
0.2605404065140387
 40
0.2605404065140387
 40
0.2605404065140387
 10
-420.6477272727206
 20
489.2049446109108
 30
0.0
 10
-420.6476990697607
 20
489.2049067126668
 30
0.0
 10
-420.6474734460814
 20
489.2046035267147
 30
0.0
 10
-420.6469538604242
 20
489.2040944820869
 30
0.0
 10
-420.6467403429879
 20
489.2027796947758
 30
0.0
 10
-420.646060610752
 20
489.2003114536498
 30
0.0
 10
-420.6455621379646
 20
489.1957298534466
 30
0.0
 10
-420.6446935641526
 20
489.1876474554115
 30
0.0
 10
-420.6438636667556
 20
489.1756043651111
 30
0.0
 10
-420.6429315416738
 20
489.159033717432
 30
0.0
 10
-420.6420374396274
 20
489.13851004048
 30
0.0
 10
-420.6411699421731
 20
489.1141343115476
 30
0.0
 10
-420.6403486639989
 20
489.08609606077
 30
0.0
 10
-420.6395830811055
 20
489.0546899718132
 30
0.0
 10
-420.6388899960204
 20
489.0202993321301
 30
0.0
 10
-420.6382657742727
 20
488.9833833475996
 30
0.0
 10
-420.6379304304576
 20
488.9579820334469
 30
0.0
 10
-420.6377583126299
 20
488.9449446109119
 30
0.0
 11
-420.6477272727206
 21
489.2049446109108
 31
0.0
 11
-420.6476417963568
 21
489.2048313497247
 31
0.0
 11
-420.6470434618103
 21
489.2040385214217
 31
0.0
 11
-420.6467827017764
 21
489.2031117513243
 31
0.0
 11
-420.6463462568758
 21
489.2012385274339
 31
0.0
 11
-420.6456394489294
 21
489.1964323315676
 31
0.0
 11
-420.6449269690149
 21
489.1895253236575
 31
0.0
 11
-420.643977534506
 21
489.1769228231259
 31
0.0
 11
-420.6430370868579
 21
489.1603533341945
 31
0.0
 11
-420.6421187746668
 21
489.1398039389574
 31
0.0
 11
-420.6412375342792
 21
489.1153632257781
 31
0.0
 11
-420.6404035323959
 21
489.087227141413
 31
0.0
 11
-420.6396286972145
 21
489.0556919740668
 31
0.0
 11
-420.6389250782156
 21
489.0211461185767
 31
0.0
 11
-420.6382994684067
 21
488.9840565145723
 31
0.0
 11
-420.6377583126299
 21
488.9449446109119
 31
0.0
  0
SPLINE
  5
1C7
330
4C
100
AcDbEntity
  8
0
  6
Continuous
 62
     7
100
AcDbSpline
210
0.0
220
0.0
230
1.0
 70
     8
 71
     3
 72
    15
 73
    11
 74
     9
 42
0.0000000001
 43
0.0000000001
 44
0.00000001
 40
0.0
 40
0.0
 40
0.0
 40
0.0
 40
0.0856872641652286
 40
0.1784490069658793
 40
0.2783143143868508
 40
0.3852860604675802
 40
0.4993420857653545
 40
0.6204319758307574
 40
0.7484787743906882
 40
0.8833760618465647
 40
0.8833760618465647
 40
0.8833760618465647
 40
0.8833760618465647
 10
-374.9999999999931
 20
489.8276775288313
 30
0.0
 10
-375.0014589113217
 20
489.7991523472895
 30
0.0
 10
-375.0044971840494
 20
489.7397468992425
 30
0.0
 10
-375.0087348216593
 20
489.6470718990274
 30
0.0
 10
-375.0129720290026
 20
489.5472954480986
 30
0.0
 10
-375.0171554676294
 20
489.4404127345028
 30
0.0
 10
-375.0212903707483
 20
489.3264483628132
 30
0.0
 10
-375.0253590181759
 20
489.2054524029553
 30
0.0
 10
-375.0293746716097
 20
489.0775039233343
 30
0.0
 10
-375.0318878827453
 20
488.9898919011265
 30
0.0
 10
-375.0331772266896
 20
488.9449446109119
 30
0.0
 11
-374.9999999999931
 21
489.8276775288313
 31
0.0
 11
-375.0043026762905
 21
489.7420983595388
 31
0.0
 11
-375.0085782774783
 21
489.6494352052546
 31
0.0
 11
-375.0128181912716
 21
489.5496599440056
 31
0.0
 11
-375.0170138937216
 21
489.4427705126266
 31
0.0
 11
-375.0211564668676
 21
489.328789742343
 31
0.0
 11
-375.0252371818778
 21
489.2077686316182
 31
0.0
 11
-375.0292470107583
 21
489.0797846330332
 31
0.0
 11
-375.0331772266896
 21
488.9449446109119
 31
0.0
  0
SPLINE
  5
1C8
330
4C
100
AcDbEntity
  8
0
  6
Continuous
 62
     7
100
AcDbSpline
210
0.0
220
0.0
230
1.0
 70
     8
 71
     3
 72
    15
 73
    11
 74
     9
 42
0.0000000001
 43
0.0000000001
 44
0.00000001
 40
0.0
 40
0.0
 40
0.0
 40
0.0
 40
0.1348972874558197
 40
0.2629440860158074
 40
0.3840339760811515
 40
0.4980900013789806
 40
0.6050617474622727
 40
0.7049270548806813
 40
0.7976887976775171
 40
0.8833760618465637
 40
0.8833760618465637
 40
0.8833760618465637
 40
0.8833760618465637
 10
-373.4668227732967
 20
488.9449446109119
 30
0.0
 10
-373.468112117241
 20
488.9898919011264
 30
0.0
 10
-373.4706253283766
 20
489.0775039233342
 30
0.0
 10
-373.4746409818104
 20
489.2054524029555
 30
0.0
 10
-373.478709629238
 20
489.3264483628132
 30
0.0
 10
-373.4828445323566
 20
489.4404127345034
 30
0.0
 10
-373.4870279709837
 20
489.5472954480994
 30
0.0
 10
-373.4912651783268
 20
489.647071899027
 30
0.0
 10
-373.4955028159367
 20
489.7397468992413
 30
0.0
 10
-373.4985410886645
 20
489.7991523472883
 30
0.0
 10
-373.4999999999931
 20
489.8276775288313
 30
0.0
 11
-373.4668227732967
 21
488.9449446109119
 31
0.0
 11
-373.470752989228
 21
489.0797846330332
 31
0.0
 11
-373.4747628181085
 21
489.2077686316182
 31
0.0
 11
-373.4788435331187
 21
489.3287897423429
 31
0.0
 11
-373.4829861062646
 21
489.4427705126266
 31
0.0
 11
-373.4871818087148
 21
489.5496599440081
 31
0.0
 11
-373.4914217225079
 21
489.6494352052546
 31
0.0
 11
-373.4956973236955
 21
489.742098359535
 31
0.0
 11
-373.4999999999931
 21
489.8276775288313
 31
0.0
  0
SPLINE
  5
1C9
330
4C
100
AcDbEntity
  8
0
  6
Continuous
 62
     7
100
AcDbSpline
210
0.0
220
0.0
230
1.0
 70
     8
 71
     3
 72
    24
 73
    20
 74
    18
 42
0.0000000001
 43
0.0000000001
 44
0.00000001
 40
0.0
 40
0.0
 40
0.0
 40
0.0
 40
0.0391156472198269
 40
0.0762105270945499
 40
0.1107635473857082
 40
0.1347289148216814
 40
0.1568254854315654
 40
0.1769285074230417
 40
0.1949133221368604
 40
0.2107138944660619
 40
0.224277146429926
 40
0.2356094489903904
 40
0.2447178266686478
 40
0.2516614846315752
 40
0.2565193747262354
 40
0.2581196696966871
 40
0.2587577607239363
 40
0.2596148339377304
 40
0.2597372729682307
 40
0.2597372729682307
 40
0.2597372729682307
 40
0.2597372729682307
 10
-373.3622416873567
 20
488.9449446109119
 30
0.0
 10
-373.3620695708415
 20
488.9579820331277
 30
0.0
 10
-373.3617342295836
 20
488.9833833466595
 30
0.0
 10
-373.3611099898292
 20
489.0202993355626
 30
0.0
 10
-373.3604678675426
 20
489.0521640282194
 30
0.0
 10
-373.3598258725127
 20
489.0790280614843
 30
0.0
 10
-373.3592204142852
 20
489.1010747922223
 30
0.0
 10
-373.3585861704567
 20
489.1211262927155
 30
0.0
 10
-373.3579282303883
 20
489.1390771629489
 30
0.0
 10
-373.3572495565105
 20
489.1548454969978
 30
0.0
 10
-373.3565589813663
 20
489.1683936945417
 30
0.0
 10
-373.3558600670041
 20
489.1797064243638
 30
0.0
 10
-373.3551711527066
 20
489.188810566107
 30
0.0
 10
-373.3544684650619
 20
489.1957423294024
 30
0.0
 10
-373.3538940225478
 20
489.2001803883385
 30
0.0
 10
-373.3533943959033
 20
489.2024902912427
 30
0.0
 10
-373.3531922136361
 20
489.2035053187143
 30
0.0
 10
-373.3529699831845
 20
489.2040000522443
 30
0.0
 10
-373.3528556475447
 20
489.2043058243349
 30
0.0
 10
-373.3528413555897
 20
489.2043440458463
 30
0.0
 11
-373.3622416873567
 21
488.9449446109119
 31
0.0
 11
-373.36170053158
 21
488.9840565145711
 31
0.0
 11
-373.361074921771
 21
489.0211461185767
 31
0.0
 11
-373.360371302772
 21
489.0556919740668
 31
0.0
 11
-373.3597961892103
 21
489.0796504398093
 31
0.0
 11
-373.3591861169745
 21
489.1017385869607
 31
0.0
 11
-373.3585461182744
 21
489.1218314188879
 31
0.0
 11
-373.3578812253198
 21
489.1398039389574
 31
0.0
 11
-373.3571950799924
 21
489.1555896062072
 31
0.0
 11
-373.3564946344495
 21
489.1691347595794
 31
0.0
 11
-373.3557854357546
 21
489.1804448488157
 31
0.0
 11
-373.3550730309717
 21
489.1895253236576
 31
0.0
 11
-373.3543605510571
 21
489.1964323315682
 31
0.0
 11
-373.3536537431108
 21
489.2012385274339
 31
0.0
 11
-373.3533324748921
 21
489.2028062425624
 31
0.0
 11
-373.3531868915401
 21
489.2034275038976
 31
0.0
 11
-373.3528845475835
 21
489.2042294781028
 31
0.0
 11
-373.3528413555897
 21
489.2043440458463
 31
0.0
  0
SPLINE
  5
1CA
330
4C
100
AcDbEntity
  8
0
  6
Continuous
 62
     7
100
AcDbSpline
210
0.0
220
0.0
230
1.0
 70
     8
 71
     3
 72
    22
 73
    18
 74
    16
 42
0.0000000001
 43
0.0000000001
 44
0.00000001
 40
0.0
 40
0.0
 40
0.0
 40
0.0
 40
0.0001418954017871
 40
0.0011351632142856
 40
0.0020979189510349
 40
0.0040213148789422
 40
0.0088792049736024
 40
0.0158228629365298
 40
0.0284610766413295
 40
0.0450572329371026
 40
0.0656271367650164
 40
0.0900837319144978
 40
0.1182321742046183
 40
0.1497768591283936
 40
0.1843298794193234
 40
0.2214247592925687
 40
0.2605404065141007
 40
0.2605404065141007
 40
0.2605404065141007
 40
0.2605404065141007
 10
-375.1477272727206
 20
489.2049446109108
 30
0.0
 10
-375.1476990697607
 20
489.2049067126668
 30
0.0
 10
-375.1474734460818
 20
489.2046035267149
 30
0.0
 10
-375.1469538604239
 20
489.204094482087
 30
0.0
 10
-375.1467403429879
 20
489.2027796947759
 30
0.0
 10
-375.146060610752
 20
489.2003114536499
 30
0.0
 10
-375.1455621379646
 20
489.1957298534471
 30
0.0
 10
-375.1446935641528
 20
489.1876474554101
 30
0.0
 10
-375.1438636667543
 20
489.175604365123
 30
0.0
 10
-375.1429315416732
 20
489.1590337174434
 30
0.0
 10
-375.142037439628
 20
489.1385100404863
 30
0.0
 10
-375.1411699421726
 20
489.1141343115295
 30
0.0
 10
-375.1403486639985
 20
489.0860960607519
 30
0.0
 10
-375.1395830811052
 20
489.054689971802
 30
0.0
 10
-375.1388899960205
 20
489.0202993321303
 30
0.0
 10
-375.1382657742726
 20
488.9833833476
 30
0.0
 10
-375.1379304304575
 20
488.957982033447
 30
0.0
 10
-375.1377583126299
 20
488.9449446109119
 30
0.0
 11
-375.1477272727206
 21
489.2049446109108
 31
0.0
 11
-375.1476417963568
 21
489.2048313497247
 31
0.0
 11
-375.1470434618103
 21
489.2040385214218
 31
0.0
 11
-375.1467827017764
 21
489.2031117513245
 31
0.0
 11
-375.1463462568758
 21
489.2012385274339
 31
0.0
 11
-375.1456394489294
 21
489.1964323315682
 31
0.0
 11
-375.1449269690149
 21
489.1895253236576
 31
0.0
 11
-375.1439775345042
 21
489.1769228231217
 31
0.0
 11
-375.1430370868587
 21
489.1603533342334
 31
0.0
 11
-375.1421187746668
 21
489.1398039389574
 31
0.0
 11
-375.1412375342787
 21
489.1153632257582
 31
0.0
 11
-375.140403532395
 21
489.0872271413786
 31
0.0
 11
-375.1396286972145
 21
489.0556919740668
 31
0.0
 11
-375.1389250782156
 21
489.0211461185769
 31
0.0
 11
-375.1382994684066
 21
488.9840565145728
 31
0.0
 11
-375.1377583126299
 21
488.9449446109119
 31
0.0
  0
SPLINE
  5
1CB
330
4C
100
AcDbEntity
  8
0
  6
Continuous
 62
     7
100
AcDbSpline
210
0.0
220
0.0
230
1.0
 70
     8
 71
     3
 72
    24
 73
    20
 74
    18
 42
0.0000000001
 43
0.0000000001
 44
0.00000001
 40
0.0
 40
0.0
 40
0.0
 40
0.0
 40
0.0391156472215328
 40
0.0762105270962558
 40
0.1107635473857081
 40
0.1347289148463551
 40
0.1568254854452631
 40
0.1769285074189987
 40
0.1949133221368631
 40
0.2107138944661758
 40
0.2242771464298216
 40
0.235609448990332
 40
0.2447178266685373
 40
0.2516614846315719
 40
0.2565193747262404
 40
0.2581196696966364
 40
0.2587577607239539
 40
0.2603076003853118
 40
0.2605290060512132
 40
0.2605290060512132
 40
0.2605290060512132
 40
0.2605290060512132
 10
-418.8622416873567
 20
488.9449446109119
 30
0.0
 10
-418.862069570855
 20
488.9579820331361
 30
0.0
 10
-418.8617342296233
 20
488.9833833466835
 30
0.0
 10
-418.8611099896837
 20
489.0202993354809
 30
0.0
 10
-418.860467867982
 20
489.0521640284783
 30
0.0
 10
-418.8598258714525
 20
489.0790280608943
 30
0.0
 10
-418.8592204178038
 20
489.1010747942346
 30
0.0
 10
-418.8585861591197
 20
489.1211262862721
 30
0.0
 10
-418.8579282659832
 20
489.1390771831879
 30
0.0
 10
-418.8572494478933
 20
489.1548454352349
 30
0.0
 10
-418.8565593013143
 20
489.1683938764735
 30
0.0
 10
-418.8558591646076
 20
489.1797059112346
 30
0.0
 10
-418.8551735476901
 20
489.1888119279647
 30
0.0
 10
-418.8544626337419
 20
489.1957390135431
 30
0.0
 10
-418.853904739605
 20
489.200186482371
 30
0.0
 10
-418.8533852514889
 20
489.2024850914609
 30
0.0
 10
-418.8531664129106
 20
489.2037435413518
 30
0.0
 10
-418.8526104519976
 20
489.2043736171504
 30
0.0
 10
-418.8523102522362
 20
489.2048811671597
 30
0.0
 10
-418.852272727266
 20
489.2049446109108
 30
0.0
 11
-418.8622416873567
 21
488.9449446109119
 31
0.0
 11
-418.86170053158
 21
488.9840565145728
 31
0.0
 11
-418.861074921771
 21
489.0211461185784
 31
0.0
 11
-418.860371302772
 21
489.0556919740668
 31
0.0
 11
-418.8597961892098
 21
489.0796504398339
 31
0.0
 11
-418.8591861169744
 21
489.1017385869744
 31
0.0
 11
-418.8585461182747
 21
489.1218314188839
 31
0.0
 11
-418.8578812253198
 21
489.1398039389574
 31
0.0
 11
-418.8571950799925
 21
489.1555896062073
 31
0.0
 11
-418.8564946344493
 21
489.1691347595793
 31
0.0
 11
-418.8557854357547
 21
489.1804448488156
 31
0.0
 11
-418.8550730309717
 21
489.1895253236575
 31
0.0
 11
-418.8543605510572
 21
489.1964323315682
 31
0.0
 11
-418.8536537431108
 21
489.2012385274339
 31
0.0
 11
-418.8533324748921
 21
489.2028062425623
 31
0.0
 11
-418.85318689154
 21
489.2034275038976
 31
0.0
 11
-418.8523869978002
 21
489.2047549725341
 31
0.0
 11
-418.852272727266
 21
489.2049446109108
 31
0.0
  0
ENDBLK
  5
4E
330
4C
100
AcDbEntity
  8
0
100
AcDbBlockEnd
  0
BLOCK
  5
76
330
4F
100
AcDbEntity
  8
0
100
AcDbBlockBegin
  2
BG-0710_1VE__5
 70
     0
 10
-476.2891055083833
 20
322.2049446109115
 30
0.0
  3
BG-0710_1VE__5
  1

  0
INSERT
  5
72
330
4F
100
AcDbEntity
  8
0
100
AcDbBlockReference
  2
Bolzen-395902442__1
 10
-429.9999999999928
 20
480.0449446109119
 30
0.0
  0
INSERT
  5
73
330
4F
100
AcDbEntity
  8
0
100
AcDbBlockReference
  2
Dichtung-330052440__2
 10
-469.2499999999933
 20
325.9549446109109
 30
0.0
  0
INSERT
  5
74
330
4F
100
AcDbEntity
  8
0
100
AcDbBlockReference
  2
Edelstahlklappe-gekoernt__3
 10
-462.9999999999934
 20
332.2049446109114
 30
0.0
  0
INSERT
  5
75
330
4F
100
AcDbEntity
  8
0
100
AcDbBlockReference
  2
Klappeneinschub-309022433__4
 10
-476.2891055083833
 20
322.2049446109115
 30
0.0
  0
ENDBLK
  5
77
330
4F
100
AcDbEntity
  8
0
100
AcDbBlockEnd
  0
BLOCK
  5
7A
330
78
100
AcDbEntity
  8
0
100
AcDbBlockBegin
  2
Vordans2
 70
     0
 10
-397.0000000000004
 20
412.0000000001601
 30
0.0
  3
Vordans2
  1

  0
INSERT
  5
79
330
78
100
AcDbEntity
  8
0
100
AcDbBlockReference
  2
BG-0710_1VE__5
 10
-476.2891055083833
 20
322.2049446109115
 30
0.0
  0
MTEXT
  5
1CD
330
78
100
AcDbEntity
  8
1
 62
     1
100
AcDbMText
 10
-396.9999999999999
 20
317.2049446107558
 30
0.0
 40
3.5
 41
0.0
 71
     2
 72
     1
  1
 
  7
CONVERTER_11
 73
     1
 44
1.32052821128451
  0
DIMENSION
  5
1D8
330
78
100
AcDbEntity
  8
1
100
AcDbDimension
  2
*D13
 10
-303.447266606422
 20
501.7950569704619
 30
0.0
 11
-308.947266606422
 21
413.722500697591
 31
0.0
 70
    32
  1
180
 71
     5
 42
-1.0
 53
90.0
  3
ME10_DIM_10
100
AcDbAlignedDimension
 13
-396.9999999999932
 23
322.2049446109102
 33
0.0
 14
-317.7499999999927
 24
501.7950569704619
 34
0.0
 50
90.0
100
AcDbRotatedDimension
  0
DIMENSION
  5
1E3
330
78
100
AcDbEntity
  8
1
100
AcDbDimension
  2
*D14
 10
-317.7499999999928
 20
504.438018527703
 30
0.0
 11
-403.934644324259
 21
509.938018527703
 31
0.0
 70
    32
  1
159
 71
     5
 42
-1.0
 53
0.00013888888889
  3
ME10_DIM_11
100
AcDbAlignedDimension
 13
-476.2499999999927
 23
501.7950569704619
 33
0.0
 14
-317.7499999999928
 24
498.795056970462
 34
0.0
100
AcDbRotatedDimension
  0
ENDBLK
  5
7B
330
78
100
AcDbEntity
  8
0
100
AcDbBlockEnd
  0
BLOCK
  5
7D
330
7C
100
AcDbEntity
  8
0
100
AcDbBlockBegin
  2
Bolzen-395902442__6
 70
     0
 10
-256.2108917222166
 20
480.0449446109118
 30
0.0
  3
Bolzen-395902442__6
  1

  0
CIRCLE
  5
1E4
330
7C
100
AcDbEntity
  8
0
  6
Continuous
 62
     7
100
AcDbCircle
 10
-252.2108917222166
 20
484.0449446109118
 30
0.0
 40
4.0
  0
CIRCLE
  5
1E5
330
7C
100
AcDbEntity
  8
0
  6
Continuous
 62
     7
100
AcDbCircle
 10
-252.2108917222166
 20
484.0449446109118
 30
0.0
 40
3.0
  0
ENDBLK
  5
7E
330
7C
100
AcDbEntity
  8
0
100
AcDbBlockEnd
  0
BLOCK
  5
80
330
7F
100
AcDbEntity
  8
0
100
AcDbBlockBegin
  2
Edelstahlklappe-gekoernt__7
 70
     0
 10
-256.2108917222173
 20
340.0464912970903
 30
0.0
  3
Edelstahlklappe-gekoernt__7
  1

  0
LINE
  5
1E6
330
7F
100
AcDbEntity
  8
0
  6
Continuous
 62
     7
100
AcDbLine
 10
-240.0374637364217
 20
454.0845712152729
 30
0.0
 11
-237.9434280271865
 21
446.269523555544
 31
0.0
  0
LINE
  5
1E7
330
7F
100
AcDbEntity
  8
0
  6
Continuous
 62
     7
100
AcDbLine
 10
-243.0708917222169
 20
458.5373571269043
 30
0.0
 11
-243.0708917222173
 21
466.4049446109119
 31
0.0
  0
LINE
  5
1E8
330
7F
100
AcDbEntity
  8
0
  6
Continuous
 62
     7
100
AcDbLine
 10
-235.8439538135602
 20
438.4341791211098
 30
0.0
 11
-235.2821315956879
 21
436.3374300591892
 31
0.0
  0
LINE
  5
1E9
330
7F
100
AcDbEntity
  8
0
  6
Continuous
 62
     7
100
AcDbLine
 10
-233.1359970852856
 20
434.3120088304623
 30
0.0
 11
-234.4005781405861
 21
433.0474277751618
 31
0.0
  0
LINE
  5
1EA
330
7F
100
AcDbEntity
  8
0
  6
Continuous
 62
     7
100
AcDbLine
 10
-233.1359970852857
 20
435.7262223928353
 30
0.0
 11
-235.8439538135602
 21
438.4341791211098
 31
0.0
  0
LINE
  5
1EB
330
7F
100
AcDbEntity
  8
0
  6
Continuous
 62
     7
100
AcDbLine
 10
-234.9415271030424
 20
435.06627678735
 30
0.0
 11
-234.4005781405861
 21
433.0474277751618
 31
0.0
  0
LINE
  5
1EC
330
7F
100
AcDbEntity
  8
0
  6
Continuous
 62
     7
100
AcDbLine
 10
-235.2821315956879
 20
436.3374300591892
 30
0.0
 11
-234.9415271030424
 21
435.06627678735
 31
0.0
  0
LINE
  5
1ED
330
7F
100
AcDbEntity
  8
0
  6
Continuous
 62
     7
100
AcDbLine
 10
-237.9434280271865
 20
446.269523555544
 30
0.0
 11
-235.8439538135602
 21
438.4341791211098
 31
0.0
  0
LINE
  5
1EE
330
7F
100
AcDbEntity
  8
0
  6
Continuous
 62
     7
100
AcDbLine
 10
-245.7147058435963
 20
455.1814529279374
 30
0.0
 11
-245.2708917222169
 21
455.1814529279354
 31
0.0
  0
LINE
  5
1EF
330
7F
100
AcDbEntity
  8
0
  6
Continuous
 62
     7
100
AcDbLine
 10
-242.2343889452752
 20
455.9280103477461
 30
0.0
 11
-243.3038669661509
 21
456.0215775504628
 31
0.0
  0
LINE
  5
1F0
330
7F
100
AcDbEntity
  8
0
  6
Continuous
 62
     7
100
AcDbLine
 10
-231.3180592906516
 20
421.5433108119172
 30
0.0
 11
-228.8668916809118
 21
412.395428754501
 31
0.0
  0
LINE
  5
1F1
330
7F
100
AcDbEntity
  8
0
  6
Continuous
 62
     7
100
AcDbLine
 10
-252.5108917222173
 20
479.8748127185132
 30
0.0
 11
-252.5130547511978
 21
479.8558280568009
 31
0.0
  0
LINE
  5
1F2
330
7F
100
AcDbEntity
  8
0
  6
Continuous
 62
     7
100
AcDbLine
 10
-245.6997400144728
 20
456.0388447041953
 30
0.0
 11
-245.2708917222169
 21
456.0388447041953
 31
0.0
  0
LINE
  5
1F3
330
7F
100
AcDbEntity
  8
0
  6
Continuous
 62
     7
100
AcDbLine
 10
-245.5572002103907
 20
464.2049446109119
 30
0.0
 11
-245.2708917222173
 21
464.2049446109119
 31
0.0
  0
LINE
  5
1F4
330
7F
100
AcDbEntity
  8
0
  6
Continuous
 62
     3
100
AcDbLine
 10
-245.2708917222173
 20
464.2049446109119
 30
0.0
 11
-245.2708917222169
 21
456.0388447041953
 31
0.0
  0
LINE
  5
1F5
330
7F
100
AcDbEntity
  8
0
  6
Continuous
 62
     7
100
AcDbLine
 10
-243.0708917222173
 20
466.4049446109119
 30
0.0
 11
-243.0708917222169
 21
469.3499156109119
 31
0.0
  0
LINE
  5
1F6
330
7F
100
AcDbEntity
  8
0
  6
Continuous
 62
     7
100
AcDbLine
 10
-242.2708917222169
 20
470.8962729913365
 30
0.0
 11
-242.3708917222173
 21
470.8962729913365
 31
0.0
  0
LINE
  5
1F7
330
7F
100
AcDbEntity
  8
0
  6
Continuous
 62
     7
100
AcDbLine
 10
-243.0708917222169
 20
469.3499156109119
 30
0.0
 11
-242.3708917222173
 21
469.3499156109118
 31
0.0
  0
LINE
  5
1F8
330
7F
100
AcDbEntity
  8
0
  6
Continuous
 62
     7
100
AcDbLine
 10
-242.3708917222173
 20
474.9227412023259
 30
0.0
 11
-242.3708917222173
 21
470.8962729913365
 31
0.0
  0
LINE
  5
1F9
330
7F
100
AcDbEntity
  8
0
  6
Continuous
 62
     7
100
AcDbLine
 10
-242.3708917222173
 20
470.8962729913365
 30
0.0
 11
-242.3708917222173
 21
469.3499156109118
 31
0.0
  0
LINE
  5
1FA
330
7F
100
AcDbEntity
  8
0
  6
Continuous
 62
     7
100
AcDbLine
 10
-243.0708917222173
 20
474.8149446109118
 30
0.0
 11
-243.0708917222169
 21
469.3499156109119
 31
0.0
  0
LINE
  5
1FB
330
7F
100
AcDbEntity
  8
0
  6
Continuous
 62
     7
100
AcDbLine
 10
-245.2586058165005
 20
481.3114059801234
 30
0.0
 11
-243.0708917222173
 21
474.8149446109118
 31
0.0
  0
LINE
  5
1FC
330
7F
100
AcDbEntity
  8
0
  6
Continuous
 62
     7
100
AcDbLine
 10
-242.3708917222173
 20
474.9227412023259
 30
0.0
 11
-245.22223089037
 21
483.3953241024625
 31
0.0
  0
LINE
  5
1FD
330
7F
100
AcDbEntity
  8
0
  6
Continuous
 62
     3
100
AcDbLine
 10
-232.0253429075849
 20
421.3537979844001
 30
0.0
 11
-235.6669810575741
 21
416.1529997192166
 31
0.0
  0
LINE
  5
1FE
330
7F
100
AcDbEntity
  8
0
  6
Continuous
 62
     3
100
AcDbLine
 10
-234.4762527134456
 20
435.5315511769469
 30
0.0
 11
-235.2821315956879
 21
436.3374300591892
 31
0.0
  0
LINE
  5
1FF
330
7F
100
AcDbEntity
  8
0
  6
Continuous
 62
     3
100
AcDbLine
 10
-234.4762527134456
 20
435.5315511769469
 30
0.0
 11
-234.9415271030424
 21
435.06627678735
 31
0.0
  0
LINE
  5
200
330
7F
100
AcDbEntity
  8
0
  6
Continuous
 62
     7
100
AcDbLine
 10
-234.4005781405861
 20
433.0474277751618
 30
0.0
 11
-231.3180592906516
 21
421.5433108119172
 31
0.0
  0
LINE
  5
201
330
7F
100
AcDbEntity
  8
0
  6
Continuous
 62
     7
100
AcDbLine
 10
-229.2338261365065
 20
410.3144400509263
 30
0.0
 11
-230.663535278918
 21
408.2726037889713
 31
0.0
  0
LINE
  5
202
330
7F
100
AcDbEntity
  8
0
  6
Continuous
 62
     7
100
AcDbLine
 10
-230.663535278918
 20
408.2726037889713
 30
0.0
 11
-232.1405917811687
 21
406.1631484894354
 31
0.0
  0
LINE
  5
203
330
7F
100
AcDbEntity
  8
0
  6
Continuous
 62
     7
100
AcDbLine
 10
-242.2708917222169
 20
458.5938715760423
 30
0.0
 11
-242.2708917222169
 21
470.8962729913365
 31
0.0
  0
LINE
  5
204
330
7F
100
AcDbEntity
  8
0
  6
Continuous
 62
     3
100
AcDbLine
 10
-230.78860348281
 20
407.8249138741684
 30
0.0
 11
-232.2586023772
 21
405.725537883231
 31
0.0
  0
LINE
  5
205
330
7F
100
AcDbEntity
  8
0
  6
Continuous
 62
     7
100
AcDbLine
 10
-243.885399503444
 20
340.3374341668764
 30
0.0
 11
-247.2108917222147
 21
340.0464912970903
 31
0.0
  0
LINE
  5
206
330
7F
100
AcDbEntity
  8
0
  6
Continuous
 62
     3
100
AcDbLine
 10
-241.7975037440903
 20
341.8618179166629
 30
0.0
 11
-241.7975037440896
 21
443.4279235163418
 31
0.0
  0
LINE
  5
207
330
7F
100
AcDbEntity
  8
0
  6
Continuous
 62
     3
100
AcDbLine
 10
-243.885399503444
 20
340.3374341668764
 30
0.0
 11
-243.8853995034435
 21
445.2897527617878
 31
0.0
  0
LINE
  5
208
330
7F
100
AcDbEntity
  8
1
  6
DOT_CENTER
 62
     2
100
AcDbLine
 10
-242.2343889452743
 20
398.204944610912
 30
0.0
 11
-247.2108917222158
 21
398.2049446109119
 31
0.0
  0
ARC
  5
209
330
7F
100
AcDbEntity
  8
0
  6
Continuous
 62
     7
100
AcDbCircle
 10
-376.2708917222202
 20
398.2049446109118
 30
0.0
 40
145.8000000000029
100
AcDbArc
 50
337.2667592103463
 51
0.0
  0
ARC
  5
20A
330
7F
100
AcDbEntity
  8
0
  6
Continuous
 62
     7
100
AcDbCircle
 10
-245.2708917222173
 20
466.4049446109119
 30
0.0
 40
2.199999999999989
100
AcDbArc
 50
270.0
 51
0.0
  0
ARC
  5
20B
330
7F
100
AcDbEntity
  8
0
  6
Continuous
 62
     7
100
AcDbCircle
 10
-233.8431038850591
 20
435.0191155667769
 30
0.0
 40
0.9999999814137318
100
AcDbArc
 50
315.000002570987
 51
0.00000257096463
  0
ARC
  5
20C
330
7F
100
AcDbEntity
  8
0
  6
Continuous
 62
     7
100
AcDbCircle
 10
-242.4522782962505
 20
453.4375236095407
 30
0.0
 40
2.499999992489002
100
AcDbArc
 50
14.99999987946555
 51
85.00000012053302
  0
ARC
  5
20D
330
7F
100
AcDbEntity
  8
0
  6
Continuous
 62
     7
100
AcDbCircle
 10
-252.0108917222173
 20
484.0449446109118
 30
0.0
 40
4.200000000000001
100
AcDbArc
 50
91.36431415095625
 51
263.1628588318638
  0
ARC
  5
20E
330
7F
100
AcDbEntity
  8
0
  6
Continuous
 62
     7
100
AcDbCircle
 10
-231.2817062468107
 20
411.7483811424023
 30
0.0
 40
2.500000000000587
100
AcDbArc
 50
324.9999999832673
 51
14.99999998439655
  0
ARC
  5
20F
330
7F
100
AcDbEntity
  8
0
  6
Continuous
 62
     7
100
AcDbCircle
 10
-233.8431038850588
 20
435.0191156565208
 30
0.0
 40
0.9999999814133967
100
AcDbArc
 50
359.9999974290191
 51
44.99999742902451
  0
ARC
  5
210
330
7F
100
AcDbEntity
  8
0
  6
Continuous
 62
     7
100
AcDbCircle
 10
-230.0901288479157
 20
407.8711002835256
 30
0.0
 40
0.6999999999999857
100
AcDbArc
 50
145.0000000000021
 51
183.7831573886332
  0
ARC
  5
211
330
7F
100
AcDbEntity
  8
0
  6
Continuous
 62
     7
100
AcDbCircle
 10
-376.2708917222202
 20
398.2049446109118
 30
0.0
 40
145.8000000000029
100
AcDbArc
 50
0.0
 51
3.78315738863041
  0
ARC
  5
212
330
7F
100
AcDbEntity
  8
0
  6
Continuous
 62
     7
100
AcDbCircle
 10
-244.1032888603132
 20
342.827920912106
 30
0.0
 40
2.500000000000228
100
AcDbArc
 50
275.0000000000007
 51
337.266759210348
  0
SPLINE
  5
213
330
7F
100
AcDbEntity
  8
0
  6
Continuous
 62
     3
100
AcDbSpline
210
0.0
220
0.0
230
1.0
 70
     8
 71
     3
 72
    11
 73
     7
 74
     5
 42
0.0000000001
 43
0.0000000001
 44
0.00000001
 40
0.0
 40
0.0
 40
0.0
 40
0.0
 40
12.70355716881103
 40
25.40711433762227
 40
25.50278540521939
 40
25.5984560419196
 40
25.5984560419196
 40
25.5984560419196
 40
25.5984560419196
 10
-238.6507108621271
 20
446.0800077868954
 30
0.0
 10
-237.5547366657119
 20
441.9897764733025
 30
0.0
 10
-235.3627882728815
 20
433.8093138461166
 30
0.0
 10
-233.1625862629026
 20
425.598047443149
 30
0.0
 10
-232.0501043304287
 20
421.4462088611853
 30
0.0
 10
-232.0335967028079
 20
421.3846015637491
 30
0.0
 10
-232.0253429075849
 20
421.3537979844001
 30
0.0
 11
-238.6507108621271
 21
446.0800077868954
 31
0.0
 11
-235.3627883262901
 21
433.8093138318012
 31
0.0
 11
-232.0748657904532
 21
421.5386198767068
 31
0.0
 11
-232.0501042932569
 21
421.4462087224462
 31
0.0
 11
-232.0253429075849
 21
421.3537979844001
 31
0.0
  0
SPLINE
  5
214
330
7F
100
AcDbEntity
  8
0
  6
Continuous
 62
     3
100
AcDbSpline
210
0.0
220
0.0
230
1.0
 70
     8
 71
     3
 72
    11
 73
     7
 74
     5
 42
0.0000000001
 43
0.0000000001
 44
0.00000001
 40
0.0
 40
0.0
 40
0.0
 40
0.0
 40
0.1114902427210413
 40
0.2576364928198101
 40
0.4077731074203594
 40
0.5073963564618162
 40
0.5073963564618162
 40
0.5073963564618162
 40
0.5073963564618162
 10
-241.7975037440896
 20
443.4279235163418
 30
0.0
 10
-241.8095679962391
 20
443.4630823176303
 30
0.0
 10
-241.8374465938314
 20
443.544328801938
 30
0.0
 10
-241.8901316454158
 20
443.6697323267266
 30
0.0
 10
-241.9491146733067
 20
443.7880293376601
 30
0.0
 10
-241.9931942606678
 20
443.8586902325894
 30
0.0
 10
-242.0107765560987
 20
443.8868751772415
 30
0.0
 11
-241.7975037440896
 21
443.4279235163418
 31
0.0
 11
-241.8347093327627
 21
443.533022604794
 31
0.0
 11
-241.8910420374683
 21
443.6678756833591
 31
0.0
 11
-241.9591226656016
 21
443.8016891024048
 31
0.0
 11
-242.0107765560987
 21
443.8868751772415
 31
0.0
  0
SPLINE
  5
215
330
7F
100
AcDbEntity
  8
0
  6
Continuous
 62
     3
100
AcDbSpline
210
0.0
220
0.0
230
1.0
 70
     8
 71
     3
 72
    15
 73
    11
 74
     9
 42
0.0000000001
 43
0.0000000001
 44
0.00000001
 40
0.0
 40
0.0
 40
0.0
 40
0.0
 40
0.0133005450320521
 40
0.0297704033376258
 40
0.0493896132926685
 40
0.0720729424479448
 40
0.0976828655636387
 40
0.1260323600752745
 40
0.1568951316882796
 40
0.1900097910969962
 40
0.1900097910969962
 40
0.1900097910969962
 40
0.1900097910969962
 10
-241.7975037440896
 20
443.4279235163418
 30
0.0
 10
-241.793960666549
 20
443.4305912052768
 30
0.0
 10
-241.7860302511272
 20
443.4365622519805
 30
0.0
 10
-241.7720914686432
 20
443.4453506140264
 30
0.0
 10
-241.755192893126
 20
443.455260867685
 30
0.0
 10
-241.7353088229486
 20
443.4660900964102
 30
0.0
 10
-241.7126051259345
 20
443.4778067554598
 30
0.0
 10
-241.6872410051488
 20
443.4903031973415
 30
0.0
 10
-241.65944023727
 20
443.503506778036
 30
0.0
 10
-241.6400362755815
 20
443.5123548152548
 30
0.0
 10
-241.6299928028718
 20
443.516934551175
 30
0.0
 11
-241.7975037440896
 21
443.4279235163418
 31
0.0
 11
-241.7867804150199
 21
443.4357921065467
 31
0.0
 11
-241.7729404092288
 21
443.4447201786963
 31
0.0
 11
-241.7560260087539
 21
443.454660825347
 31
0.0
 11
-241.736129071048
 21
443.4655532672906
 31
0.0
 11
-241.7133826369188
 21
443.4773205055562
 31
0.0
 11
-241.6879642388613
 21
443.4898743447799
 31
0.0
 11
-241.6600858279599
 21
443.5031146195976
 31
0.0
 11
-241.6299928028718
 21
443.516934551175
 31
0.0
  0
SPLINE
  5
216
330
7F
100
AcDbEntity
  8
0
  6
Continuous
 62
     3
100
AcDbSpline
210
0.0
220
0.0
230
1.0
 70
     8
 71
     3
 72
    15
 73
    11
 74
     9
 42
0.0000000001
 43
0.0000000001
 44
0.00000001
 40
0.0
 40
0.0
 40
0.0
 40
0.0
 40
0.0322395134463018
 40
0.063056647851506
 40
0.0922981928300768
 40
0.1198356383274976
 40
0.1455688921599075
 40
0.1694333608946277
 40
0.1914034474211018
 40
0.2115004416008216
 40
0.2115004416008216
 40
0.2115004416008216
 40
0.2115004416008216
 10
-241.9029781378927
 20
444.0671195536507
 30
0.0
 10
-241.9098209860452
 20
444.0588319269424
 30
0.0
 10
-241.923204781895
 20
444.0426223163435
 30
0.0
 10
-241.9417523503578
 20
444.0180634346925
 30
0.0
 10
-241.9584771584537
 20
443.9941200804273
 30
0.0
 10
-241.9732058669175
 20
443.9708806806409
 30
0.0
 10
-241.9858783910436
 20
443.948491543616
 30
0.0
 10
-241.9963705829377
 20
443.9270574493538
 30
0.0
 10
-242.0048410472263
 20
443.9067406730102
 30
0.0
 10
-242.0088576682606
 20
443.8932974839125
 30
0.0
 10
-242.0107765560987
 20
443.8868751772415
 30
0.0
 11
-241.9029781378927
 21
444.0671195536507
 31
0.0
 11
-241.9233204584407
 21
444.0421080318662
 31
0.0
 11
-241.9419104972117
 21
444.0175294592583
 31
0.0
 11
-241.9586153691502
 21
443.9935291424635
 31
0.0
 11
-241.9733255916743
 21
443.9702499616829
 31
0.0
 11
-241.9859492943879
 21
443.9478258121427
 31
0.0
 11
-241.9964230200117
 21
443.9263825395485
 31
0.0
 11
-242.0047031312797
 21
443.9060324914068
 31
0.0
 11
-242.0107765560987
 21
443.8868751772415
 31
0.0
  0
SPLINE
  5
217
330
7F
100
AcDbEntity
  8
0
  6
Continuous
 62
     3
100
AcDbSpline
210
0.0
220
0.0
230
1.0
 70
     8
 71
     3
 72
    11
 73
     7
 74
     5
 42
0.0000000001
 43
0.0000000001
 44
0.00000001
 40
0.0
 40
0.0
 40
0.0
 40
0.0
 40
1.166496456830484
 40
2.258289691616476
 40
3.41848828804504
 40
4.493025203327663
 40
4.493025203327663
 40
4.493025203327663
 40
4.493025203327663
 10
-243.8853995034435
 20
445.2897527617878
 30
0.0
 10
-243.5722757092269
 20
445.5203414338378
 30
0.0
 10
-242.9660807803538
 20
445.9667517234232
 30
0.0
 10
-242.0230215864423
 20
446.6067226575486
 30
0.0
 10
-241.0898881077995
 20
447.2061140470609
 30
0.0
 10
-240.4486718501037
 20
447.5853440691207
 30
0.0
 10
-240.1403532432875
 20
447.7676907745591
 30
0.0
 11
-243.8853995034435
 21
445.2897527617878
 31
0.0
 11
-242.9415456575481
 21
445.9752116601811
 31
0.0
 11
-242.0394352821214
 21
446.5901989267744
 31
0.0
 11
-241.0619925677271
 21
447.2152321444776
 31
0.0
 11
-240.1403532432875
 21
447.7676907745591
 31
0.0
  0
SPLINE
  5
218
330
7F
100
AcDbEntity
  8
0
  6
Continuous
 62
     7
100
AcDbSpline
210
0.0
220
0.0
230
1.0
 70
     8
 71
     3
 72
    12
 73
     8
 74
     6
 42
0.0000000001
 43
0.0000000001
 44
0.00000001
 40
0.0
 40
0.0
 40
0.0
 40
0.0
 40
0.1729126975662299
 40
0.5039450931913114
 40
0.9588445341311294
 40
1.365399848619907
 40
1.920229892165366
 40
1.920229892165366
 40
1.920229892165366
 40
1.920229892165366
 10
-240.1403532432875
 20
447.7676907745591
 30
0.0
 10
-240.0842569324048
 20
447.7544170748453
 30
0.0
 10
-239.9207671423929
 20
447.7157315651431
 30
0.0
 10
-239.6164656556278
 20
447.6157452444251
 30
0.0
 10
-239.2546723765647
 20
447.4491516101286
 30
0.0
 10
-238.8498163395174
 20
447.2025398896322
 30
0.0
 10
-238.6121843453062
 20
446.9863273448566
 30
0.0
 10
-238.4750433241807
 20
446.8615478122474
 30
0.0
 11
-240.1403532432875
 21
447.7676907745591
 31
0.0
 11
-239.9724830077227
 21
447.726237367087
 31
0.0
 11
-239.6577241095446
 21
447.6237225731741
 31
0.0
 11
-239.244217475967
 21
447.4341288882723
 31
0.0
 11
-238.8988521249047
 21
447.2196294756282
 31
0.0
 11
-238.4750433241807
 21
446.8615478122474
 31
0.0
  0
SPLINE
  5
219
330
7F
100
AcDbEntity
  8
0
  6
Continuous
 62
     7
100
AcDbSpline
210
0.0
220
0.0
230
1.0
 70
     8
 71
     3
 72
    15
 73
    11
 74
     9
 42
0.0000000001
 43
0.0000000001
 44
0.00000001
 40
0.0
 40
0.0
 40
0.0
 40
0.0
 40
0.5438775810819536
 40
0.921000973416136
 40
1.376112873896831
 40
1.842447691501562
 40
2.298725391463539
 40
2.764144205868258
 40
3.223650315045199
 40
3.68634692064545
 40
3.68634692064545
 40
3.68634692064545
 40
3.68634692064545
 10
-245.2708917222169
 20
456.0388447041953
 30
0.0
 10
-245.0889446403182
 20
456.0535584581909
 30
0.0
 10
-244.7808358942183
 20
456.0784746934322
 30
0.0
 10
-244.351967550897
 20
456.2537255892918
 30
0.0
 10
-243.9862159637688
 20
456.4899071032541
 30
0.0
 10
-243.6587993410652
 20
456.8167155924582
 30
0.0
 10
-243.3973218925839
 20
457.2015941803352
 30
0.0
 10
-243.2108557662002
 20
457.6246674482389
 30
0.0
 10
-243.0928739472352
 20
458.0751979618889
 30
0.0
 10
-243.0782360112564
 20
458.3829491683232
 30
0.0
 10
-243.0708917222169
 20
458.5373571269043
 30
0.0
 11
-245.2708917222169
 21
456.0388447041953
 31
0.0
 11
-244.7324005168884
 21
456.1151994354657
 31
0.0
 11
-244.3813986929847
 21
456.2531116273196
 31
0.0
 11
-243.9992690370762
 21
456.500303391006
 31
0.0
 11
-243.6680227041005
 21
456.8285472470042
 31
0.0
 11
-243.4111005702895
 21
457.2056153531079
 31
0.0
 11
-243.2217622895891
 21
457.6307808364944
 31
0.0
 11
-243.1089780651815
 21
458.0762307024678
 31
0.0
 11
-243.0708917222169
 21
458.5373571269043
 31
0.0
  0
SPLINE
  5
21A
330
7F
100
AcDbEntity
  8
0
  6
Continuous
 62
     3
100
AcDbSpline
210
0.0
220
0.0
230
1.0
 70
     8
 71
     3
 72
    12
 73
     8
 74
     6
 42
0.0000000001
 43
0.0000000001
 44
0.00000001
 40
0.0
 40
0.0
 40
0.0
 40
0.0
 40
0.0889139110395799
 40
0.2257229477696284
 40
0.3733986655301555
 40
0.4784321265437111
 40
0.5387118445680233
 40
0.5387118445680233
 40
0.5387118445680233
 40
0.5387118445680233
 10
-233.3866041798376
 20
434.7636149481662
 30
0.0
 10
-233.3661801533769
 20
434.7421866409376
 30
0.0
 10
-233.3143303201604
 20
434.6877872717413
 30
0.0
 10
-233.2332882146652
 20
434.5917684990471
 30
0.0
 10
-233.1652757688262
 20
434.4850788300242
 30
0.0
 10
-233.1114342325839
 20
434.3855008855465
 30
0.0
 10
-233.1294337499412
 20
434.3316463297594
 30
0.0
 10
-233.1359970852856
 20
434.3120088304623
 30
0.0
 11
-233.3866041798376
 21
434.7636149481662
 31
0.0
 11
-233.3257757315812
 21
434.6987644781674
 31
0.0
 11
-233.2384384121276
 21
434.5934606075754
 31
0.0
 11
-233.1580530382637
 21
434.4695803860513
 31
0.0
 11
-233.1224814767913
 21
434.3707538109467
 31
0.0
 11
-233.1359970852856
 21
434.3120088304623
 31
0.0
  0
SPLINE
  5
21B
330
7F
100
AcDbEntity
  8
0
  6
Continuous
 62
     7
100
AcDbSpline
210
0.0
220
0.0
230
1.0
 70
     8
 71
     3
 72
    11
 73
     7
 74
     5
 42
0.0000000001
 43
0.0000000001
 44
0.00000001
 40
0.0
 40
0.0
 40
0.0
 40
0.0
 40
0.1834410438925229
 40
0.3933227644317795
 40
0.6058289470032849
 40
0.8014262865022531
 40
0.8014262865022531
 40
0.8014262865022531
 40
0.8014262865022531
 10
-238.4750433241807
 20
446.8615478122474
 30
0.0
 10
-238.4854587904888
 20
446.8012898262563
 30
0.0
 10
-238.507790979154
 20
446.6720884374819
 30
0.0
 10
-238.549730962668
 20
446.4745050298019
 30
0.0
 10
-238.5975421666826
 20
446.2741026394104
 30
0.0
 10
-238.6334843580162
 20
446.1428939597985
 30
0.0
 10
-238.6507108621271
 20
446.0800077868954
 30
0.0
 11
-238.4750433241807
 21
446.8615478122474
 31
0.0
 11
-238.5073548072248
 21
446.6809748778196
 31
0.0
 11
-238.5503980659588
 21
446.4755542982905
 31
0.0
 11
-238.6000349076199
 21
446.2689264647805
 31
0.0
 11
-238.6507108621271
 21
446.0800077868954
 31
0.0
  0
SPLINE
  5
21C
330
7F
100
AcDbEntity
  8
0
  6
Continuous
 62
     7
100
AcDbSpline
210
0.0
220
0.0
230
1.0
 70
     8
 71
     3
 72
    11
 73
     7
 74
     5
 42
0.0000000001
 43
0.0000000001
 44
0.00000001
 40
0.0
 40
0.0
 40
0.0
 40
0.0
 40
0.2281321186580644
 40
0.4379105951801969
 40
0.631787299682245
 40
0.8184638607086261
 40
0.8184638607086261
 40
0.8184638607086261
 40
0.8184638607086261
 10
-238.4750433241807
 20
446.8615478122474
 30
0.0
 10
-238.4086043881268
 20
446.8240744517432
 30
0.0
 10
-238.2810716487579
 20
446.7521425304586
 30
0.0
 10
-238.1246536429677
 20
446.608997390115
 30
0.0
 10
-238.0056331559122
 20
446.4491175789088
 30
0.0
 10
-237.9638998694013
 20
446.328628336522
 30
0.0
 10
-237.9434280271865
 20
446.269523555544
 30
0.0
 11
-238.4750433241807
 21
446.8615478122474
 31
0.0
 11
-238.2809141679104
 21
446.7417223798501
 31
0.0
 11
-238.1257277225237
 21
446.6005693551564
 31
0.0
 11
-238.0132637647771
 21
446.4426452127444
 31
0.0
 11
-237.9434280271865
 21
446.269523555544
 31
0.0
  0
SPLINE
  5
21D
330
7F
100
AcDbEntity
  8
0
  6
Continuous
 62
     3
100
AcDbSpline
210
0.0
220
0.0
230
1.0
 70
     8
 71
     3
 72
    11
 73
     7
 74
     5
 42
0.0000000001
 43
0.0000000001
 44
0.00000001
 40
0.0
 40
0.0
 40
0.0
 40
0.0
 40
1.077868356861982
 40
2.155736713723722
 40
5.491788452979311
 40
8.424713709194886
 40
8.424713709194886
 40
8.424713709194886
 40
8.424713709194886
 10
-242.2343889452752
 20
455.9280103477461
 30
0.0
 10
-242.1450735289658
 20
455.5799993322065
 30
0.0
 10
-241.9664426963468
 20
454.8839773011273
 30
0.0
 10
-241.5113962481136
 20
453.1108402511508
 30
0.0
 10
-240.9026770278771
 20
450.738750575823
 30
0.0
 10
-240.3833289476672
 20
448.7146576179916
 30
0.0
 10
-240.1403532432875
 20
447.7676907745591
 30
0.0
 11
-242.2343889452752
 21
455.9280103477461
 31
0.0
 11
-241.9664446269118
 21
454.8839768056695
 31
0.0
 11
-241.6985093270523
 21
453.8399409490951
 31
0.0
 11
-240.8692945602959
 21
450.6085876602108
 31
0.0
 11
-240.1403532432875
 21
447.7676907745591
 31
0.0
  0
SPLINE
  5
21E
330
7F
100
AcDbEntity
  8
0
  6
Continuous
 62
     7
100
AcDbSpline
210
0.0
220
0.0
230
1.0
 70
     8
 71
     3
 72
    15
 73
    11
 74
     9
 42
0.0000000001
 43
0.0000000001
 44
0.00000001
 40
0.0
 40
0.0
 40
0.0
 40
0.0
 40
0.505854043675759
 40
1.256822461433043
 40
1.877820001728114
 40
2.51424019713866
 40
3.246357207657725
 40
3.771847506868512
 40
4.293268772225954
 40
5.030207791839171
 40
5.030207791839171
 40
5.030207791839171
 40
5.030207791839171
 10
-245.2708917222169
 20
455.1814529279354
 30
0.0
 10
-245.1020726688766
 20
455.191147990104
 30
0.0
 10
-244.682632356382
 20
455.2152359104255
 30
0.0
 10
-244.0832005191426
 20
455.4323450975918
 30
0.0
 10
-243.518784651381
 20
455.7989573185981
 30
0.0
 10
-243.0465355575374
 20
456.2712761903956
 30
0.0
 10
-242.6980668467923
 20
456.8039854120935
 30
0.0
 10
-242.4665525742329
 20
457.3514321064696
 30
0.0
 10
-242.3070868292224
 20
457.9275934674193
 30
0.0
 10
-242.2842599355021
 20
458.3477900307673
 30
0.0
 10
-242.2708917222169
 20
458.5938715760423
 30
0.0
 11
-245.2708917222169
 21
455.1814529279354
 31
0.0
 11
-244.7673895797106
 21
455.2301756741088
 31
0.0
 11
-244.0574087138459
 21
455.4748810777575
 31
0.0
 11
-243.5365098831173
 21
455.8129673880366
 31
0.0
 11
-243.0850501556005
 21
456.2615370922709
 31
0.0
 11
-242.6830010833476
 21
456.8733800954931
 31
0.0
 11
-242.4767691821936
 21
457.3567106837151
 31
0.0
 11
-242.341747904283
 21
457.8603468524702
 31
0.0
 11
-242.2708917222169
 21
458.5938715760423
 31
0.0
  0
SPLINE
  5
21F
330
7F
100
AcDbEntity
  8
0
  6
Continuous
 62
     3
100
AcDbSpline
210
0.0
220
0.0
230
1.0
 70
     8
 71
     3
 72
    13
 73
     9
 74
     7
 42
0.0000000001
 43
0.0000000001
 44
0.00000001
 40
0.0
 40
0.0
 40
0.0
 40
0.0
 40
0.2078461250821381
 40
0.6201572643767441
 40
1.191131353760323
 40
1.447721040886016
 40
1.862510799249024
 40
2.384511039691584
 40
2.384511039691584
 40
2.384511039691584
 40
2.384511039691584
 10
-243.8853995034435
 20
445.2897527617878
 30
0.0
 10
-243.8197554280227
 20
445.267539157654
 30
0.0
 10
-243.623891058555
 20
445.2012597022824
 30
0.0
 10
-243.2619697686368
 20
445.0355019629609
 30
0.0
 10
-242.910096499381
 20
444.8151492549536
 30
0.0
 10
-242.5866853356677
 20
444.5563999009695
 30
0.0
 10
-242.296930008585
 20
444.2813153685598
 30
0.0
 10
-242.1131711067219
 20
444.0280180702831
 30
0.0
 10
-242.0107765560987
 20
443.8868751772415
 30
0.0
 11
-243.8853995034435
 21
445.2897527617878
 31
0.0
 11
-243.6893020448051
 21
445.2208630061835
 31
0.0
 11
-243.3136453015477
 21
445.0509145233081
 31
0.0
 11
-242.8301232000556
 21
444.7472407046867
 31
0.0
 11
-242.6295861862698
 21
444.5871683034392
 31
0.0
 11
-242.3315276260576
 21
444.2987040277878
 31
0.0
 11
-242.0107765560987
 21
443.8868751772415
 31
0.0
  0
SPLINE
  5
220
330
7F
100
AcDbEntity
  8
0
  6
Continuous
 62
     3
100
AcDbSpline
210
0.0
220
0.0
230
1.0
 70
     8
 71
     3
 72
    12
 73
     8
 74
     6
 42
0.0000000001
 43
0.0000000001
 44
0.00000001
 40
0.0
 40
0.0
 40
0.0
 40
0.0
 40
0.2135524131687496
 40
0.6320234282369981
 40
1.203748727092042
 40
1.941044153436461
 40
2.37475755537722
 40
2.37475755537722
 40
2.37475755537722
 40
2.37475755537722
 10
-243.8853995034435
 20
445.2897527617878
 30
0.0
 10
-243.8161109538257
 20
445.2733812586639
 30
0.0
 10
-243.6110466044361
 20
445.2249286405166
 30
0.0
 10
-243.2307057706994
 20
445.0930676403826
 30
0.0
 10
-242.7158601323373
 20
444.8323091050545
 30
0.0
 10
-242.2447888619269
 20
444.479725090018
 30
0.0
 10
-241.9953604138706
 20
444.1786357696454
 30
0.0
 10
-241.9029781378927
 20
444.0671195536507
 30
0.0
 11
-243.8853995034435
 21
445.2897527617878
 31
0.0
 11
-243.678146697246
 21
445.2382657974817
 31
0.0
 11
-243.2823000190279
 21
445.1025329797995
 31
0.0
 11
-242.7721281738416
 21
444.8444738669395
 31
0.0
 11
-242.1893299185425
 21
444.3928648110862
 31
0.0
 11
-241.9029781378927
 21
444.0671195536507
 31
0.0
  0
SPLINE
  5
221
330
7F
100
AcDbEntity
  8
0
  6
Continuous
 62
     3
100
AcDbSpline
210
0.0
220
0.0
230
1.0
 70
     8
 71
     3
 72
    17
 73
    13
 74
    11
 42
0.0000000001
 43
0.0000000001
 44
0.00000001
 40
0.0
 40
0.0
 40
0.0
 40
0.0
 40
1.808153673306777
 40
3.289373353070487
 40
4.446746407532348
 40
6.052554568471892
 40
7.28959090361057
 40
8.192319646116886
 40
9.535045788394415
 40
10.53076654237687
 40
11.12389736182104
 40
11.43431373064381
 40
11.43431373064381
 40
11.43431373064381
 40
11.43431373064381
 10
-232.0253429075849
 20
421.3537979844001
 30
0.0
 10
-231.8410588472321
 20
420.7799396188077
 30
0.0
 10
-231.5058113035808
 20
419.7359827670847
 30
0.0
 10
-231.0674914610725
 20
418.3200037572643
 30
0.0
 10
-230.6593313851724
 20
416.9653293326292
 30
0.0
 10
-230.287836189347
 20
415.6847618835367
 30
0.0
 10
-229.9560707634653
 20
414.4808317221317
 30
0.0
 10
-229.6666145373907
 20
413.3573251457598
 30
0.0
 10
-229.4101686208298
 20
412.3045173199748
 30
0.0
 10
-229.247579584115
 20
411.3474768222761
 30
0.0
 10
-229.1398726031569
 20
410.7108151687876
 30
0.0
 10
-229.209801762389
 20
410.4157950908364
 30
0.0
 10
-229.2338261365065
 20
410.3144400509263
 30
0.0
 11
-232.0253429075849
 21
421.3537979844001
 31
0.0
 11
-231.4758178718417
 21
419.6311715183941
 31
0.0
 11
-231.0375706749649
 21
418.216268294089
 31
0.0
 11
-230.7040524756483
 21
417.1079912538509
 31
0.0
 11
-230.2574831734711
 21
415.5655270863277
 31
0.0
 11
-229.9303624905642
 21
414.372526267691
 31
0.0
 11
-229.7046363929885
 21
413.4984742604167
 31
0.0
 11
-229.4009546740695
 21
412.1905404292349
 31
0.0
 11
-229.2244723812427
 21
411.2105843994917
 31
0.0
 11
-229.1760544408141
 21
410.6194330888959
 31
0.0
 11
-229.2338261365065
 21
410.3144400509263
 31
0.0
  0
SPLINE
  5
222
330
7F
100
AcDbEntity
  8
0
  6
Continuous
 62
     3
100
AcDbSpline
210
0.0
220
0.0
230
1.0
 70
     8
 71
     3
 72
    11
 73
     7
 74
     5
 42
0.0000000001
 43
0.0000000001
 44
0.00000001
 40
0.0
 40
0.0
 40
0.0
 40
0.0
 40
0.9227483000614238
 40
1.919667207841377
 40
2.90974199818044
 40
3.826270681317097
 40
3.826270681317097
 40
3.826270681317097
 40
3.826270681317097
 10
-241.9029781378927
 20
444.0671195536507
 30
0.0
 10
-241.6486558772966
 20
444.2401451603808
 30
0.0
 10
-241.1195689054129
 20
444.600104190741
 30
0.0
 10
-240.3002940898783
 20
445.1195282761307
 30
0.0
 10
-239.4714031773798
 20
445.619442331287
 30
0.0
 10
-238.9171482817134
 20
445.9304854028518
 30
0.0
 10
-238.6507108621271
 20
446.0800077868954
 30
0.0
 11
-241.9029781378927
 21
444.0671195536507
 31
0.0
 11
-241.1373727792048
 21
444.5822048475725
 31
0.0
 11
-240.2964088479023
 21
445.1175803932762
 31
0.0
 11
-239.4477210294017
 21
445.6274598664791
 31
0.0
 11
-238.6507108621271
 21
446.0800077868954
 31
0.0
  0
SPLINE
  5
223
330
7F
100
AcDbEntity
  8
0
  6
Continuous
 62
     3
100
AcDbSpline
210
0.0
220
0.0
230
1.0
 70
     8
 71
     3
 72
    11
 73
     7
 74
     5
 42
0.0000000001
 43
0.0000000001
 44
0.00000001
 40
0.0
 40
0.0
 40
0.0
 40
0.0
 40
0.3958185061459579
 40
0.7570624738912464
 40
1.111776149722061
 40
1.338099208414721
 40
1.338099208414721
 40
1.338099208414721
 40
1.338099208414721
 10
-234.4762527134456
 20
435.5315511769469
 30
0.0
 10
-234.360050872656
 20
435.4689010598272
 30
0.0
 10
-234.1377973607738
 20
435.3490732803785
 30
0.0
 10
-233.8292391028658
 20
435.1431878541168
 30
0.0
 10
-233.579907090882
 20
434.9510558129455
 30
0.0
 10
-233.4407918003376
 20
434.816159291094
 30
0.0
 10
-233.3866041798376
 20
434.7636149481662
 30
0.0
 11
-234.4762527134456
 21
435.5315511769469
 31
0.0
 11
-234.130966056867
 21
435.3380326646636
 31
0.0
 11
-233.8297837272141
 21
435.138567358063
 31
0.0
 11
-233.5513867176138
 21
434.9187563099626
 31
0.0
 11
-233.3866041798376
 21
434.7636149481662
 31
0.0
  0
SPLINE
  5
224
330
7F
100
AcDbEntity
  8
0
  6
Continuous
 62
     3
100
AcDbSpline
210
0.0
220
0.0
230
1.0
 70
     8
 71
     3
 72
    11
 73
     7
 74
     5
 42
0.0000000001
 43
0.0000000001
 44
0.00000001
 40
0.0
 40
0.0
 40
0.0
 40
0.0
 40
0.186335060102981
 40
0.4028603237358173
 40
0.6492795807838716
 40
0.9233062083604993
 40
0.9233062083604993
 40
0.9233062083604993
 40
0.9233062083604993
 10
-233.5847753320522
 20
435.7706210493446
 30
0.0
 10
-233.6456076033596
 20
435.7580173840782
 30
0.0
 10
-233.7771282549154
 20
435.7307679943676
 30
0.0
 10
-233.9861207482653
 20
435.6741797465631
 30
0.0
 10
-234.2222562171822
 20
435.6065238867139
 30
0.0
 10
-234.3886451471441
 20
435.5574104968128
 30
0.0
 10
-234.4762527134456
 20
435.5315511769469
 30
0.0
 11
-233.5847753320522
 21
435.7706210493446
 31
0.0
 11
-233.7668771180966
 21
435.7311280861355
 31
0.0
 11
-233.9763494685388
 21
435.6763145459153
 31
0.0
 11
-234.2133277369006
 21
435.6087590089966
 31
0.0
 11
-234.4762527134456
 21
435.5315511769469
 31
0.0
  0
SPLINE
  5
225
330
7F
100
AcDbEntity
  8
0
  6
Continuous
 62
     3
100
AcDbSpline
210
0.0
220
0.0
230
1.0
 70
     8
 71
     3
 72
    11
 73
     7
 74
     5
 42
0.0000000001
 43
0.0000000001
 44
0.00000001
 40
0.0
 40
0.0
 40
0.0
 40
0.0
 40
0.1236681114943628
 40
0.3092483138609321
 40
0.49864931156734
 40
0.6157121199976716
 40
0.6157121199976716
 40
0.6157121199976716
 40
0.6157121199976716
 10
-241.6299928028718
 20
443.516934551175
 30
0.0
 10
-241.644342477813
 20
443.5555865594417
 30
0.0
 10
-241.6802257198744
 20
443.652240969697
 30
0.0
 10
-241.748384868857
 20
443.8039890665855
 30
0.0
 10
-241.8256258209125
 20
443.9489732658254
 30
0.0
 10
-241.8815979479522
 20
444.0344639051442
 30
0.0
 10
-241.9029781378927
 20
444.0671195536507
 30
0.0
 11
-241.6299928028718
 21
443.516934551175
 31
0.0
 11
-241.6740632560085
 21
443.632483661777
 31
0.0
 11
-241.7497263453572
 21
443.8019389904646
 31
0.0
 11
-241.8399849183048
 21
443.9684506355277
 31
0.0
 11
-241.9029781378927
 21
444.0671195536507
 31
0.0
  0
SPLINE
  5
226
330
7F
100
AcDbEntity
  8
0
  6
Continuous
 62
     3
100
AcDbSpline
210
0.0
220
0.0
230
1.0
 70
     8
 71
     3
 72
    11
 73
     7
 74
     5
 42
0.0000000001
 43
0.0000000001
 44
0.00000001
 40
0.0
 40
0.0
 40
0.0
 40
0.0
 40
0.1522075665725082
 40
0.2366485546657123
 40
0.3656329789528208
 40
0.5169695965508814
 40
0.5169695965508814
 40
0.5169695965508814
 40
0.5169695965508814
 10
-233.1078125650121
 20
435.1943209083868
 30
0.0
 10
-233.1260429529427
 20
435.1468503509545
 30
0.0
 10
-233.1543871085712
 20
435.0730443039984
 30
0.0
 10
-233.2170485192962
 20
434.9680457915305
 30
0.0
 10
-233.2928949750534
 20
434.8727558437121
 30
0.0
 10
-233.3537502879205
 20
434.8018790994229
 30
0.0
 10
-233.3866041798376
 20
434.7636149481662
 30
0.0
 11
-233.1078125650121
 21
435.1943209083868
 31
0.0
 11
-233.1675556645795
 21
435.0543283893867
 31
0.0
 11
-233.2106360559135
 21
434.9817035978024
 31
0.0
 11
-233.2887906825781
 21
434.8790934811491
 31
0.0
 11
-233.3866041798376
 21
434.7636149481662
 31
0.0
  0
SPLINE
  5
227
330
7F
100
AcDbEntity
  8
0
  6
Continuous
 62
     3
100
AcDbSpline
210
0.0
220
0.0
230
1.0
 70
     8
 71
     3
 72
    11
 73
     7
 74
     5
 42
0.0000000001
 43
0.0000000001
 44
0.00000001
 40
0.0
 40
0.0
 40
0.0
 40
0.0
 40
0.1708283766994812
 40
0.3495078011755335
 40
0.5377811920736485
 40
0.754833361579713
 40
0.754833361579713
 40
0.754833361579713
 40
0.754833361579713
 10
-233.1078125650121
 20
435.1943209083868
 30
0.0
 10
-233.1339730187194
 20
435.2449532632093
 30
0.0
 10
-233.1874962262194
 20
435.3485449693664
 30
0.0
 10
-233.2917412976572
 20
435.4952485800968
 30
0.0
 10
-233.4256918611322
 20
435.6372644213482
 30
0.0
 10
-233.5292954990885
 20
435.7241133675404
 30
0.0
 10
-233.5847753320522
 20
435.7706210493446
 30
0.0
 11
-233.1078125650121
 21
435.1943209083868
 31
0.0
 11
-233.1896925363112
 21
435.3442475724124
 31
0.0
 11
-233.2929721753991
 21
435.490054475133
 31
0.0
 11
-233.4213858131124
 21
435.6277381973717
 31
0.0
 11
-233.5847753320522
 21
435.7706210493446
 31
0.0
  0
SPLINE
  5
228
330
7F
100
AcDbEntity
  8
0
  6
Continuous
 62
     3
100
AcDbSpline
210
0.0
220
0.0
230
1.0
 70
     8
 71
     3
 72
    11
 73
     7
 74
     5
 42
0.0000000001
 43
0.0000000001
 44
0.00000001
 40
0.0
 40
0.0
 40
0.0
 40
0.0
 40
0.0846169301321628
 40
0.1849472600032916
 40
0.3108085869017768
 40
0.4658873287661333
 40
0.4658873287661333
 40
0.4658873287661333
 40
0.4658873287661333
 10
-233.1359970852857
 20
435.7262223928353
 30
0.0
 10
-233.1588738324906
 20
435.7433496776596
 30
0.0
 10
-233.2088755485387
 20
435.7807847913488
 30
0.0
 10
-233.3142769445798
 20
435.7971065416609
 30
0.0
 10
-233.4410643939414
 20
435.7945632058709
 30
0.0
 10
-233.5336616852755
 20
435.7791365523943
 30
0.0
 10
-233.5847753320522
 20
435.7706210493446
 30
0.0
 11
-233.1359970852857
 21
435.7262223928353
 31
0.0
 11
-233.2072894222299
 21
435.7718011988533
 31
0.0
 11
-233.3053260223623
 21
435.793131930827
 31
0.0
 11
-233.4311825955335
 21
435.7920380394907
 31
0.0
 11
-233.5847753320522
 21
435.7706210493446
 31
0.0
  0
SPLINE
  5
229
330
7F
100
AcDbEntity
  8
0
  6
Continuous
 62
     3
100
AcDbSpline
210
0.0
220
0.0
230
1.0
 70
     8
 71
     3
 72
    11
 73
     7
 74
     5
 42
0.0000000001
 43
0.0000000001
 44
0.00000001
 40
0.0
 40
0.0
 40
0.0
 40
0.0
 40
0.1054184230327623
 40
0.2043532581924666
 40
0.2780023642791734
 40
0.3278455166953248
 40
0.3278455166953248
 40
0.3278455166953248
 40
0.3278455166953248
 10
-233.1078125650121
 20
435.1943209083868
 30
0.0
 10
-233.0752120058886
 20
435.1807603367547
 30
0.0
 10
-233.0120159317667
 20
435.154473214293
 30
0.0
 10
-232.9313156746512
 20
435.1129168627633
 30
0.0
 10
-232.8613910709952
 20
435.0757799932908
 30
0.0
 10
-232.8483624371709
 20
435.0354096360248
 30
0.0
 10
-232.8431039036454
 20
435.0191156116487
 30
0.0
 11
-233.1078125650121
 21
435.1943209083868
 31
0.0
 11
-233.0110421212929
 21
435.152505538759
 31
0.0
 11
-232.9226096135265
 21
435.1081457238561
 31
0.0
 11
-232.8630814052046
 21
435.064780031871
 31
0.0
 11
-232.8431039036454
 21
435.0191156116487
 31
0.0
  0
SPLINE
  5
22A
330
7F
100
AcDbEntity
  8
0
  6
Continuous
 62
     3
100
AcDbSpline
210
0.0
220
0.0
230
1.0
 70
     8
 71
     3
 72
    15
 73
    11
 74
     9
 42
0.0000000001
 43
0.0000000001
 44
0.00000001
 40
0.0
 40
0.0
 40
0.0
 40
0.0
 40
0.0155769596728562
 40
0.0339868867229864
 40
0.0552815916064785
 40
0.0794239762610215
 40
0.1063098154450087
 40
0.1357762052491924
 40
0.1676150602590762
 40
0.2015795306229136
 40
0.2015795306229136
 40
0.2015795306229136
 40
0.2015795306229136
 10
-235.8629842050835
 20
416.1947378610548
 30
0.0
 10
-235.8583782404946
 20
416.1923305258698
 30
0.0
 10
-235.848328628759
 20
416.1870780356564
 30
0.0
 10
-235.8309666861746
 20
416.1807730736522
 30
0.0
 10
-235.8105591940948
 20
416.1747261702388
 30
0.0
 10
-235.7870725814832
 20
416.1692273293197
 30
0.0
 10
-235.7607024112406
 20
416.1642430276343
 30
0.0
 10
-235.7316315465907
 20
416.1598412656404
 30
0.0
 10
-235.7001040035961
 20
416.1559895220615
 30
0.0
 10
-235.678257274616
 20
416.1540175533721
 30
0.0
 10
-235.6669810575741
 20
416.1529997192166
 30
0.0
 11
-235.8629842050835
 21
416.1947378610548
 31
0.0
 11
-235.8490351424064
 21
416.1878049451401
 31
0.0
 11
-235.8318251662064
 21
416.1812671983428
 31
0.0
 11
-235.8114183498882
 21
416.1751822740351
 31
0.0
 11
-235.787930895303
 21
416.1695970959792
 31
0.0
 11
-235.7615217223064
 21
416.1645568648075
 31
0.0
 11
-235.7323952619015
 21
416.1600939697412
 31
0.0
 11
-235.7007909323411
 21
416.1562366336946
 31
0.0
 11
-235.6669810575741
 21
416.1529997192166
 31
0.0
  0
SPLINE
  5
22B
330
7F
100
AcDbEntity
  8
0
  6
Continuous
 62
     3
100
AcDbSpline
210
0.0
220
0.0
230
1.0
 70
     8
 71
     3
 72
    15
 73
    11
 74
     9
 42
0.0000000001
 43
0.0000000001
 44
0.00000001
 40
0.0
 40
0.0
 40
0.0
 40
0.0
 40
0.1621224078046849
 40
0.3082492587196847
 40
0.4356177345444658
 40
0.5419318689853846
 40
0.6254487187049088
 40
0.6851237307715998
 40
0.7127857212112948
 40
0.7322330411686216
 40
0.7322330411686216
 40
0.7322330411686216
 40
0.7322330411686216
 10
-232.0253429075849
 20
421.3537979844001
 30
0.0
 10
-231.9731434618905
 20
421.3677846285658
 30
0.0
 10
-231.8738947481639
 20
421.3943779462596
 30
0.0
 10
-231.7336364972793
 20
421.4319595880236
 30
0.0
 10
-231.6113471349857
 20
421.4647264982137
 30
0.0
 10
-231.509216647162
 20
421.4920918626302
 30
0.0
 10
-231.4288817843993
 20
421.5136171206041
 30
0.0
 10
-231.3738709691723
 20
421.5283568277208
 30
0.0
 10
-231.3394889710383
 20
421.5375691103609
 30
0.0
 10
-231.3243208734398
 20
421.541633132223
 30
0.0
 10
-231.3180592906516
 20
421.5433108119172
 30
0.0
 11
-232.0253429075849
 21
421.3537979844001
 31
0.0
 11
-231.8687445692098
 21
421.3957579120758
 31
0.0
 11
-231.7275967575075
 21
421.4335779042755
 31
0.0
 11
-231.6045681483385
 21
421.4665428850864
 31
0.0
 11
-231.5018764731402
 21
421.4940586083531
 31
0.0
 11
-231.4212052839586
 21
421.5156739599142
 31
0.0
 11
-231.3635635397704
 21
421.5311185833184
 31
0.0
 11
-231.3368440345429
 21
421.5382777561395
 31
0.0
 11
-231.3180592906516
 21
421.5433108119172
 31
0.0
  0
SPLINE
  5
22C
330
7F
100
AcDbEntity
  8
0
  6
Continuous
 62
     3
100
AcDbSpline
210
0.0
220
0.0
230
1.0
 70
     8
 71
     3
 72
    15
 73
    11
 74
     9
 42
0.0000000001
 43
0.0000000001
 44
0.00000001
 40
0.0
 40
0.0
 40
0.0
 40
0.0
 40
0.0574099639814852
 40
0.1153104292310096
 40
0.1735101833188876
 40
0.2318138144861943
 40
0.2900268691871566
 40
0.3479590052036222
 40
0.4054264298036231
 40
0.4622564505925557
 40
0.4622564505925557
 40
0.4622564505925557
 40
0.4622564505925557
 10
-232.2586023772
 20
405.725537883231
 30
0.0
 10
-232.2596665447196
 20
405.7446561695061
 30
0.0
 10
-232.2618039718307
 20
405.7830560855425
 30
0.0
 10
-232.2588247047751
 20
405.8409223299623
 30
0.0
 10
-232.2511763803626
 20
405.8986095437273
 30
0.0
 10
-232.2384534455791
 20
405.9555211804955
 30
0.0
 10
-232.2208683042024
 20
406.0110301985981
 30
0.0
 10
-232.1985500521497
 20
406.0644869800883
 30
0.0
 10
-232.1721529045183
 20
406.1155910187945
 30
0.0
 10
-232.1510729700518
 20
406.1473550454866
 30
0.0
 10
-232.1405917811687
 20
406.1631484894354
 30
0.0
 11
-232.2586023772
 21
405.725537883231
 31
0.0
 11
-232.2607742753145
 21
405.7829067495518
 31
0.0
 11
-232.2580593403388
 21
405.840743528544
 31
0.0
 11
-232.2503387693923
 21
405.89842891803
 31
0.0
 11
-232.237630444758
 21
405.9553306920997
 31
0.0
 11
-232.2200303849692
 21
406.0108194083675
 31
0.0
 11
-232.1977715276713
 21
406.0643046928411
 31
0.0
 11
-232.1711547809818
 21
406.1152365461926
 31
0.0
 11
-232.1405917811687
 21
406.1631484894354
 31
0.0
  0
SPLINE
  5
22D
330
7F
100
AcDbEntity
  8
0
  6
Continuous
 62
     3
100
AcDbSpline
210
0.0
220
0.0
230
1.0
 70
     8
 71
     3
 72
     9
 73
     5
 74
     3
 42
0.0000000001
 43
0.0000000001
 44
0.00000001
 40
0.0
 40
0.0
 40
0.0
 40
0.0
 40
14.0751155565788
 40
28.06493770178685
 40
28.06493770178685
 40
28.06493770178685
 40
28.06493770178685
 10
-241.6299928028718
 20
443.516934551175
 30
0.0
 10
-240.1885995634301
 20
439.0391978818308
 30
0.0
 10
-237.3145477443811
 20
430.1108590582527
 30
0.0
 10
-236.2150561150625
 20
420.7961832825369
 30
0.0
 10
-235.6669810575741
 20
416.1529997192166
 30
0.0
 11
-241.6299928028718
 21
443.516934551175
 31
0.0
 11
-237.752153802363
 21
429.9865523460346
 31
0.0
 11
-235.6669810575741
 21
416.1529997192166
 31
0.0
  0
SPLINE
  5
22E
330
7F
100
AcDbEntity
  8
0
  6
Continuous
 62
     3
100
AcDbSpline
210
0.0
220
0.0
230
1.0
 70
     8
 71
     3
 72
     9
 73
     5
 74
     3
 42
0.0000000001
 43
0.0000000001
 44
0.00000001
 40
0.0
 40
0.0
 40
0.0
 40
0.0
 40
14.00786244470441
 40
27.93083902334836
 40
27.93083902334836
 40
27.93083902334836
 40
27.93083902334836
 10
-241.7975037440896
 20
443.4279235163418
 30
0.0
 10
-240.3629977078397
 20
438.9715821757932
 30
0.0
 10
-237.5026785595985
 20
430.0859043568327
 30
0.0
 10
-236.4084404739012
 20
420.8157355643456
 30
0.0
 10
-235.8629842050835
 20
416.1947378610548
 30
0.0
 11
-241.7975037440896
 21
443.4279235163418
 31
0.0
 11
-237.9381936671327
 21
429.9621916016014
 31
0.0
 11
-235.8629842050835
 21
416.1947378610548
 31
0.0
  0
SPLINE
  5
22F
330
7F
100
AcDbEntity
  8
0
  6
Continuous
 62
     3
100
AcDbSpline
210
0.0
220
0.0
230
1.0
 70
     8
 71
     3
 72
    20
 73
    16
 74
    14
 42
0.0000000001
 43
0.0000000001
 44
0.00000001
 40
0.0
 40
0.0
 40
0.0
 40
0.0
 40
0.3236645535892508
 40
0.7471157165927772
 40
1.087377201904079
 40
1.470522188415286
 40
2.148444558825923
 40
2.831392522914114
 40
3.9081868484305
 40
5.06299430576165
 40
6.512674462410015
 40
8.106599503113273
 40
9.803502652532773
 40
11.38854118700279
 40
12.69276036485702
 40
12.69276036485702
 40
12.69276036485702
 40
12.69276036485702
 10
-232.2586023772
 20
405.725537883231
 30
0.0
 10
-232.3239829102815
 20
405.6397991461081
 30
0.0
 10
-232.4749009619579
 20
405.4418881999913
 30
0.0
 10
-232.7772259814854
 20
405.2177059734511
 30
0.0
 10
-233.1780321956752
 20
405.1776556902491
 30
0.0
 10
-233.6068961952744
 20
405.4079711754724
 30
0.0
 10
-233.9648290132656
 20
405.8803832110586
 30
0.0
 10
-234.3261873122371
 20
406.608658426269
 30
0.0
 10
-234.6370818936998
 20
407.5326132147785
 30
0.0
 10
-234.9309736329511
 20
408.7242822372364
 30
0.0
 10
-235.1855418150664
 20
410.1012313972288
 30
0.0
 10
-235.4094558764196
 20
411.6656641489957
 30
0.0
 10
-235.5949128842324
 20
413.280492855927
 30
0.0
 10
-235.7434244283845
 20
414.8020277563813
 30
0.0
 10
-235.8257997498559
 20
415.7615891218879
 30
0.0
 10
-235.8629842050835
 20
416.1947378610548
 30
0.0
 11
-232.2586023772
 21
405.725537883231
 31
0.0
 11
-232.4654047886092
 21
405.4765569484479
 31
0.0
 11
-232.8171311191276
 21
405.2407615374046
 31
0.0
 11
-233.1560926222502
 21
405.2110465952517
 31
0.0
 11
-233.5027355974083
 21
405.3742603460884
 31
0.0
 11
-233.9445497156749
 21
405.8884383553454
 31
0.0
 11
-234.2567857010585
 21
406.4958316472772
 31
0.0
 11
-234.6148170292183
 21
407.5113608627705
 31
0.0
 11
-234.897601894921
 21
408.6310094608749
 31
0.0
 11
-235.1675429386547
 21
410.0553354030272
 31
0.0
 11
-235.39749034004
 21
411.6325865650103
 31
0.0
 11
-235.5942078154586
 21
413.3180486777185
 31
0.0
 11
-235.7491514913664
 21
414.8954958600517
 31
0.0
 11
-235.8629842050835
 21
416.1947378610548
 31
0.0
  0
SPLINE
  5
230
330
7F
100
AcDbEntity
  8
0
  6
Continuous
 62
     3
100
AcDbSpline
210
0.0
220
0.0
230
1.0
 70
     8
 71
     3
 72
    22
 73
    18
 74
    16
 42
0.0000000001
 43
0.0000000001
 44
0.00000001
 40
0.0
 40
0.0
 40
0.0
 40
0.0
 40
0.3913815774609506
 40
0.8190179138005453
 40
1.181994159974467
 40
1.568823383374309
 40
2.198860642120535
 40
2.836999007823743
 40
3.828013205837473
 40
4.888136732847467
 40
6.224283272294565
 40
7.697377082671755
 40
8.841132533585977
 40
10.06413421444629
 40
11.10664642483449
 40
11.93671407978536
 40
12.42254565971461
 40
12.42254565971461
 40
12.42254565971461
 40
12.42254565971461
 10
-232.1405917811687
 20
406.1631484894354
 30
0.0
 10
-232.2197920300406
 20
406.059303082091
 30
0.0
 10
-232.3855290660667
 20
405.8419927798723
 30
0.0
 10
-232.7064857406234
 20
405.5969697881737
 30
0.0
 10
-233.1111360651225
 20
405.518931634434
 30
0.0
 10
-233.5527745950612
 20
405.7113778963543
 30
0.0
 10
-233.9118564250749
 20
406.1476365079864
 30
0.0
 10
-234.2602793842951
 20
406.815732061497
 30
0.0
 10
-234.5548337543793
 20
407.6662079629572
 30
0.0
 10
-234.8276818064519
 20
408.7621394262655
 30
0.0
 10
-235.0593763824515
 20
410.0318357970141
 30
0.0
 10
-235.2385317497024
 20
411.3374740289792
 30
0.0
 10
-235.3792215822868
 20
412.6097515633167
 30
0.0
 10
-235.4845782892118
 20
413.7413239234807
 30
0.0
 10
-235.5679763398622
 20
414.7698225564435
 30
0.0
 10
-235.6256793276578
 20
415.553844392103
 30
0.0
 10
-235.6558441637972
 20
415.9914391926374
 30
0.0
 10
-235.6669810575741
 20
416.1529997192166
 30
0.0
 11
-232.1405917811687
 21
406.1631484894354
 31
0.0
 11
-232.3911306965554
 21
405.8624662800304
 31
0.0
 11
-232.7407276572088
 21
405.6161843252309
 31
0.0
 11
-233.0987908502478
 21
405.5566653780188
 31
0.0
 11
-233.4597611137331
 21
405.6957240597164
 31
0.0
 11
-233.890459953358
 21
406.1555560474621
 31
0.0
 11
-234.1946851808457
 21
406.7165084382605
 31
0.0
 11
-234.5333889822892
 21
407.6478455821309
 31
0.0
 11
-234.7957529635316
 21
408.6749906711357
 31
0.0
 11
-235.0419245058087
 21
409.9882641181563
 31
0.0
 11
-235.2462583242652
 21
411.4471174571889
 31
0.0
 11
-235.3731473798398
 21
412.5838125346267
 31
0.0
 11
-235.4875401610388
 21
413.8014526304665
 31
0.0
 11
-235.5722638532346
 21
414.8405164421687
 31
0.0
 11
-235.633293514886
 21
415.668337492997
 31
0.0
 11
-235.6669810575741
 21
416.1529997192166
 31
0.0
  0
ENDBLK
  5
81
330
7F
100
AcDbEntity
  8
0
100
AcDbBlockEnd
  0
BLOCK
  5
83
330
82
100
AcDbEntity
  8
0
100
AcDbBlockBegin
  2
Klappeneinschub-309022433__8
 70
     0
 10
-269.7108917222169
 20
322.2049446109107
 30
0.0
  3
Klappeneinschub-309022433__8
  1

  0
LINE
  5
231
330
82
100
AcDbEntity
  8
0
  6
Continuous
 62
     7
100
AcDbLine
 10
-269.7108917222169
 20
421.4892663881662
 30
0.0
 11
-269.7108917222159
 21
462.2822948801004
 31
0.0
  0
LINE
  5
232
330
82
100
AcDbEntity
  8
0
  6
Continuous
 62
     7
100
AcDbLine
 10
-269.7108917222159
 20
462.2822948801004
 30
0.0
 11
-269.7108917222154
 21
464.5901839341217
 31
0.0
  0
LINE
  5
233
330
82
100
AcDbEntity
  8
0
  6
Continuous
 62
     7
100
AcDbLine
 10
-269.7108917222149
 20
421.3545540000864
 30
0.0
 11
-269.7108917222169
 21
421.4892663881662
 31
0.0
  0
LINE
  5
234
330
82
100
AcDbEntity
  8
0
  6
Continuous
 62
     7
100
AcDbLine
 10
-269.7108917222159
 20
465.2822948801005
 30
0.0
 11
-269.7108917222159
 21
468.2822948801005
 31
0.0
  0
LINE
  5
235
330
82
100
AcDbEntity
  8
0
  6
Continuous
 62
     7
100
AcDbLine
 10
-269.7108917222154
 20
464.5901839341217
 30
0.0
 11
-269.7108917222159
 21
465.2822948801005
 31
0.0
  0
LINE
  5
236
330
82
100
AcDbEntity
  8
0
  6
Continuous
 62
     7
100
AcDbLine
 10
-269.7108917222159
 20
468.2822948801005
 30
0.0
 11
-269.7108917222159
 21
471.4549446109108
 31
0.0
  0
LINE
  5
237
330
82
100
AcDbEntity
  8
0
  6
Continuous
 62
     7
100
AcDbLine
 10
-269.7108917222148
 20
489.2049446109107
 30
0.0
 11
-267.7108917222147
 21
489.2049446109107
 31
0.0
  0
LINE
  5
238
330
82
100
AcDbEntity
  8
0
  6
Continuous
 62
     7
100
AcDbLine
 10
-269.7108917222159
 20
471.4549446109108
 30
0.0
 11
-269.7108917222148
 21
489.2049446109107
 31
0.0
  0
LINE
  5
239
330
82
100
AcDbEntity
  8
0
  6
Continuous
 62
     7
100
AcDbLine
 10
-265.7108917222155
 20
491.0349446109108
 30
0.0
 11
-254.7108917222155
 21
491.0349446109108
 31
0.0
  0
LINE
  5
23A
330
82
100
AcDbEntity
  8
0
  6
Continuous
 62
     7
100
AcDbLine
 10
-254.7108917222155
 20
490.5832930262221
 30
0.0
 11
-254.7108917222155
 21
491.0349446109108
 31
0.0
  0
LINE
  5
23B
330
82
100
AcDbEntity
  8
0
  6
Continuous
 62
     7
100
AcDbLine
 10
-265.7108917222155
 20
489.2049446109107
 30
0.0
 11
-265.7108917222155
 21
491.0349446109108
 31
0.0
  0
LINE
  5
23C
330
82
100
AcDbEntity
  8
0
  6
Continuous
 62
     7
100
AcDbLine
 10
-265.7108917222155
 20
489.2049446109107
 30
0.0
 11
-256.9410502819266
 21
489.2049446109107
 31
0.0
  0
LINE
  5
23D
330
82
100
AcDbEntity
  8
0
  6
Continuous
 62
     7
100
AcDbLine
 10
-245.2108917222147
 20
489.925109367889
 30
0.0
 11
-245.2108917222163
 21
484.0449446109108
 31
0.0
  0
LINE
  5
23E
330
82
100
AcDbEntity
  8
0
  6
Continuous
 62
     7
100
AcDbLine
 10
-248.4130420107598
 20
489.9251093678884
 30
0.0
 11
-245.2108917222147
 21
489.925109367889
 31
0.0
  0
LINE
  5
23F
330
82
100
AcDbEntity
  8
0
  6
Continuous
 62
     7
100
AcDbLine
 10
-245.2108917222147
 20
489.925109367889
 30
0.0
 11
-245.2108917222147
 21
498.7950569704618
 31
0.0
  0
LINE
  5
240
330
82
100
AcDbEntity
  8
0
  6
Continuous
 62
     7
100
AcDbLine
 10
-245.2108917222147
 20
498.7950569704618
 30
0.0
 11
-241.7108917222147
 21
498.7950569704618
 31
0.0
  0
LINE
  5
241
330
82
100
AcDbEntity
  8
0
  6
Continuous
 62
     7
100
AcDbLine
 10
-241.7108917222147
 20
498.7950569704618
 30
0.0
 11
-241.7108917222147
 21
501.7950569704618
 31
0.0
  0
LINE
  5
242
330
82
100
AcDbEntity
  8
0
  6
Continuous
 62
     7
100
AcDbLine
 10
-251.7108917222147
 20
501.7950569704618
 30
0.0
 11
-251.7108917222147
 21
491.0270646327952
 31
0.0
  0
LINE
  5
243
330
82
100
AcDbEntity
  8
0
  6
Continuous
 62
     7
100
AcDbLine
 10
-241.7108917222147
 20
501.7950569704618
 30
0.0
 11
-251.7108917222147
 21
501.7950569704618
 31
0.0
  0
LINE
  5
244
330
82
100
AcDbEntity
  8
0
  6
Continuous
 62
     7
100
AcDbLine
 10
-248.0358194301992
 20
322.2049446109107
 30
0.0
 11
-246.7558975815576
 21
395.5316182098825
 31
0.0
  0
LINE
  5
245
330
82
100
AcDbEntity
  8
0
  6
Continuous
 62
     3
100
AcDbLine
 10
-246.7558975815576
 20
395.5316182098825
 30
0.0
 11
-267.7108917222148
 21
395.5316182098825
 31
0.0
  0
LINE
  5
246
330
82
100
AcDbEntity
  8
0
  6
Continuous
 62
     7
100
AcDbLine
 10
-246.7092344948136
 20
398.204944659012
 30
0.0
 11
-246.7558975815576
 21
395.5316182098825
 31
0.0
  0
LINE
  5
247
330
82
100
AcDbEntity
  8
0
  6
Continuous
 62
     7
100
AcDbLine
 10
-246.7092344948136
 20
398.204944659012
 30
0.0
 11
-245.2108917222163
 21
484.0449446109108
 31
0.0
  0
LINE
  5
248
330
82
100
AcDbEntity
  8
0
  6
Continuous
 62
     3
100
AcDbLine
 10
-267.7108917222148
 20
398.2049446109107
 30
0.0
 11
-246.7092344948136
 21
398.204944659012
 31
0.0
  0
LINE
  5
249
330
82
100
AcDbEntity
  8
0
  6
Continuous
 62
     7
100
AcDbLine
 10
-248.0358194301992
 20
322.2049446109107
 30
0.0
 11
-267.7108917222159
 21
322.2049446109107
 31
0.0
  0
LINE
  5
24A
330
82
100
AcDbEntity
  8
0
  6
Continuous
 62
     3
100
AcDbLine
 10
-267.7108917222147
 20
489.2049446109107
 30
0.0
 11
-267.7108917222148
 21
398.2049446109107
 31
0.0
  0
LINE
  5
24B
330
82
100
AcDbEntity
  8
0
  6
Continuous
 62
     3
100
AcDbLine
 10
-267.7108917222148
 20
395.5316182098825
 30
0.0
 11
-267.7108917222159
 21
322.2049446109107
 31
0.0
  0
LINE
  5
24C
330
82
100
AcDbEntity
  8
0
  6
Continuous
 62
     3
100
AcDbLine
 10
-267.7108917222148
 20
398.2049446109107
 30
0.0
 11
-267.7108917222148
 21
395.5316182098825
 31
0.0
  0
LINE
  5
24D
330
82
100
AcDbEntity
  8
0
  6
Continuous
 62
     7
100
AcDbLine
 10
-267.7108917222147
 20
489.2049446109107
 30
0.0
 11
-265.7108917222155
 21
489.2049446109107
 31
0.0
  0
LINE
  5
24E
330
82
100
AcDbEntity
  8
0
  6
Continuous
 62
     7
100
AcDbLine
 10
-269.7108917222149
 20
398.2752953083335
 30
0.0
 11
-269.7108917222149
 21
421.3545540000864
 31
0.0
  0
LINE
  5
24F
330
82
100
AcDbEntity
  8
0
  6
Continuous
 62
     7
100
AcDbLine
 10
-269.7108917222149
 20
395.6019689046464
 30
0.0
 11
-269.7108917222159
 21
334.1275943417211
 31
0.0
  0
LINE
  5
250
330
82
100
AcDbEntity
  8
0
  6
Continuous
 62
     7
100
AcDbLine
 10
-269.7108917222159
 20
328.127594341721
 30
0.0
 11
-269.7108917222159
 21
324.9549446109107
 31
0.0
  0
LINE
  5
251
330
82
100
AcDbEntity
  8
0
  6
Continuous
 62
     7
100
AcDbLine
 10
-269.7108917222159
 20
331.127594341721
 30
0.0
 11
-269.7108917222159
 21
328.127594341721
 31
0.0
  0
LINE
  5
252
330
82
100
AcDbEntity
  8
0
  6
Continuous
 62
     7
100
AcDbLine
 10
-269.7108917222159
 20
324.9549446109107
 30
0.0
 11
-269.7108917222159
 21
324.2049446109107
 31
0.0
  0
LINE
  5
253
330
82
100
AcDbEntity
  8
0
  6
Continuous
 62
     7
100
AcDbLine
 10
-269.7108917222159
 20
334.1275943417211
 30
0.0
 11
-269.7108917222159
 21
331.127594341721
 31
0.0
  0
LINE
  5
254
330
82
100
AcDbEntity
  8
0
  6
Continuous
 62
     7
100
AcDbLine
 10
-269.7108917222149
 20
398.2752953083335
 30
0.0
 11
-269.7108917222149
 21
395.6019689046464
 31
0.0
  0
LINE
  5
255
330
82
100
AcDbEntity
  8
1
  6
DOT_CENTER
 62
     2
100
AcDbLine
 10
-247.5908917222163
 20
484.0449446109108
 30
0.0
 11
-256.8308917222163
 21
484.0449446109108
 31
0.0
  0
LINE
  5
256
330
82
100
AcDbEntity
  8
1
  6
DOT_CENTER
 62
     2
100
AcDbLine
 10
-252.2108917222163
 20
488.6649446109108
 30
0.0
 11
-252.2108917222163
 21
479.4249446109108
 31
0.0
  0
ARC
  5
257
330
82
100
AcDbEntity
  8
0
  6
Continuous
 62
     7
100
AcDbCircle
 10
-252.2108917222149
 20
484.0449446109103
 30
0.0
 40
7.000000000000504
100
AcDbArc
 50
57.14260512295597
 51
85.90395624184629
  0
ARC
  5
258
330
82
100
AcDbEntity
  8
0
  6
Continuous
 62
     7
100
AcDbCircle
 10
-252.2108917222163
 20
484.0449446109108
 30
0.0
 40
6.99999999999999
100
AcDbArc
 50
110.9248324276314
 51
132.5114037779382
  0
ARC
  5
259
330
82
100
AcDbEntity
  8
0
  6
Continuous
 62
     7
100
AcDbCircle
 10
-252.2108917222163
 20
484.0449446109108
 30
0.0
 40
7.000000000000028
100
AcDbArc
 50
85.90395624183462
 51
110.9248324276314
  0
ARC
  5
25A
330
82
100
AcDbEntity
  8
0
  6
Continuous
 62
     7
100
AcDbCircle
 10
-267.7108917222159
 20
324.2049446109107
 30
0.0
 40
2.0
100
AcDbArc
 50
180.0
 51
270.0
  0
CIRCLE
  5
25B
330
82
100
AcDbEntity
  8
0
  6
Continuous
 62
     7
100
AcDbCircle
 10
-252.2108917222163
 20
484.0449446109108
 30
0.0
 40
4.200000000000017
  0
SPLINE
  5
25C
330
82
100
AcDbEntity
  8
0
  6
Continuous
 62
     3
100
AcDbSpline
210
0.0
220
0.0
230
1.0
 70
     8
 71
     3
 72
    16
 73
    12
 74
    10
 42
0.0000000001
 43
0.0000000001
 44
0.00000001
 40
0.0
 40
0.0
 40
0.0
 40
0.0
 40
0.3919985549758138
 40
0.7653893367140258
 40
1.109690668401465
 40
1.414426965506607
 40
1.619544595461923
 40
1.783090428194879
 40
1.902900669003346
 40
1.97693260002707
 40
2.00416556590851
 40
2.00416556590851
 40
2.00416556590851
 40
2.00416556590851
 10
-267.7108917222148
 20
398.2049446109107
 30
0.0
 10
-267.8415574455926
 20
398.2052369903515
 30
0.0
 10
-268.0966863231811
 20
398.2058078702779
 30
0.0
 10
-268.4665744957335
 20
398.2098669881166
 30
0.0
 10
-268.8072995144673
 20
398.2162156981037
 30
0.0
 10
-269.0920008878899
 20
398.2239354228986
 30
0.0
 10
-269.3160847189937
 20
398.2335065232114
 30
0.0
 10
-269.4791916782477
 20
398.2409616535195
 30
0.0
 10
-269.5967538805856
 20
398.253788735405
 30
0.0
 10
-269.6721597446903
 20
398.2564580644804
 30
0.0
 10
-269.7026831294837
 20
398.2713030705793
 30
0.0
 10
-269.7108917222149
 20
398.2752953083335
 30
0.0
 11
-267.7108917222148
 21
398.2049446109107
 31
0.0
 11
-268.1028875517093
 21
398.2064063776564
 31
0.0
 11
-268.4762562306955
 21
398.2104690663251
 31
0.0
 11
-268.8204960325664
 21
398.216977968658
 31
0.0
 11
-269.1251052307155
 21
398.2257783763964
 31
0.0
 11
-269.3300491987427
 21
398.234217101877
 31
0.0
 11
-269.4933270065348
 21
398.243576422735
 31
0.0
 11
-269.6127114794632
 21
398.2536680740463
 31
0.0
 11
-269.6859754428994
 21
398.2643037908873
 31
0.0
 11
-269.7108917222149
 21
398.2752953083335
 31
0.0
  0
SPLINE
  5
25D
330
82
100
AcDbEntity
  8
0
  6
Continuous
 62
     3
100
AcDbSpline
210
0.0
220
0.0
230
1.0
 70
     8
 71
     3
 72
    16
 73
    12
 74
    10
 42
0.0000000001
 43
0.0000000001
 44
0.00000001
 40
0.0
 40
0.0
 40
0.0
 40
0.0
 40
0.3919982186863203
 40
0.7653882414334918
 40
1.10968875230805
 40
1.414424624407769
 40
1.619542661667877
 40
1.783090134454491
 40
1.902904300110796
 40
1.976945389301898
 40
2.004210689288465
 40
2.004210689288465
 40
2.004210689288465
 40
2.004210689288465
 10
-267.7108917222148
 20
395.5316182098825
 30
0.0
 10
-267.8415574048178
 20
395.5318765652908
 30
0.0
 10
-268.0966860565712
 20
395.5323810119494
 30
0.0
 10
-268.4665745510011
 20
395.5363694463458
 30
0.0
 10
-268.807299408099
 20
395.5426733626709
 30
0.0
 10
-269.0920021456186
 20
395.5503756785589
 30
0.0
 10
-269.3160836774209
 20
395.5599584415344
 30
0.0
 10
-269.4791977978822
 20
395.5674314185032
 30
0.0
 10
-269.5967468297483
 20
395.5803176637614
 30
0.0
 10
-269.6721902957456
 20
395.5830049921684
 30
0.0
 10
-269.7026845810515
 20
395.5979473601992
 30
0.0
 10
-269.7108917222149
 20
395.6019689046464
 30
0.0
 11
-267.7108917222148
 21
395.5316182098825
 31
0.0
 11
-268.1028875666419
 21
395.5329825431098
 31
0.0
 11
-268.476256259851
 21
395.5369735352747
 31
0.0
 11
-268.8204960748352
 21
395.5434381751024
 31
0.0
 11
-269.125105284588
 21
395.5522234513177
 31
0.0
 11
-269.3300492598128
 21
395.5606718966476
 31
0.0
 11
-269.4933270695582
 21
395.5700597984159
 31
0.0
 11
-269.6127115354539
 21
395.5801980228522
 31
0.0
 11
-269.6859754791296
 21
395.5908974361859
 31
0.0
 11
-269.7108917222149
 21
395.6019689046464
 31
0.0
  0
ENDBLK
  5
84
330
82
100
AcDbEntity
  8
0
100
AcDbBlockEnd
  0
BLOCK
  5
86
330
85
100
AcDbEntity
  8
0
100
AcDbBlockBegin
  2
Dichtung-330052440__9
 70
     0
 10
-270.7108917222159
 20
324.9549446109107
 30
0.0
  3
Dichtung-330052440__9
  1

  0
LINE
  5
25E
330
85
100
AcDbEntity
  8
0
  6
Continuous
 62
     7
100
AcDbLine
 10
-269.7108917222169
 20
421.4892663881662
 30
0.0
 11
-269.7108917222159
 21
462.2822948801004
 31
0.0
  0
LINE
  5
25F
330
85
100
AcDbEntity
  8
0
  6
Continuous
 62
     7
100
AcDbLine
 10
-269.7108917222159
 20
462.2822948801004
 30
0.0
 11
-269.7108917222154
 21
464.5901839341217
 31
0.0
  0
LINE
  5
260
330
85
100
AcDbEntity
  8
0
  6
Continuous
 62
     7
100
AcDbLine
 10
-269.7108917222149
 20
421.3545540000864
 30
0.0
 11
-269.7108917222169
 21
421.4892663881662
 31
0.0
  0
LINE
  5
261
330
85
100
AcDbEntity
  8
0
  6
Continuous
 62
     7
100
AcDbLine
 10
-269.7108917222159
 20
465.2822948801005
 30
0.0
 11
-269.7108917222159
 21
468.2822948801005
 31
0.0
  0
LINE
  5
262
330
85
100
AcDbEntity
  8
0
  6
Continuous
 62
     7
100
AcDbLine
 10
-269.7108917222154
 20
464.5901839341217
 30
0.0
 11
-269.7108917222159
 21
465.2822948801005
 31
0.0
  0
LINE
  5
263
330
85
100
AcDbEntity
  8
0
  6
Continuous
 62
     7
100
AcDbLine
 10
-269.7108917222159
 20
468.2822948801005
 30
0.0
 11
-269.7108917222159
 21
471.4549446109108
 31
0.0
  0
LINE
  5
264
330
85
100
AcDbEntity
  8
0
  6
Continuous
 62
     7
100
AcDbLine
 10
-247.2108917222159
 20
325.9549446109107
 30
0.0
 11
-247.9703629367173
 21
325.9549446109107
 31
0.0
  0
LINE
  5
265
330
85
100
AcDbEntity
  8
0
  6
Continuous
 62
     7
100
AcDbLine
 10
-247.2108917222159
 20
325.9549446109107
 30
0.0
 11
-247.2108917222147
 21
369.4650213494158
 31
0.0
  0
LINE
  5
266
330
85
100
AcDbEntity
  8
0
  6
Continuous
 62
     7
100
AcDbLine
 10
-269.7108917222149
 20
398.2752953083335
 30
0.0
 11
-269.7108917222149
 21
421.3545540000864
 31
0.0
  0
LINE
  5
267
330
85
100
AcDbEntity
  8
0
  6
Continuous
 62
     7
100
AcDbLine
 10
-269.7108917222149
 20
395.6019689046464
 30
0.0
 11
-269.7108917222159
 21
334.1275943417211
 31
0.0
  0
LINE
  5
268
330
85
100
AcDbEntity
  8
0
  6
Continuous
 62
     7
100
AcDbLine
 10
-269.7108917222159
 20
328.127594341721
 30
0.0
 11
-269.7108917222159
 21
324.9549446109107
 31
0.0
  0
LINE
  5
269
330
85
100
AcDbEntity
  8
0
  6
Continuous
 62
     7
100
AcDbLine
 10
-269.7108917222159
 20
331.127594341721
 30
0.0
 11
-269.7108917222159
 21
328.127594341721
 31
0.0
  0
LINE
  5
26A
330
85
100
AcDbEntity
  8
0
  6
Continuous
 62
     7
100
AcDbLine
 10
-269.7108917222159
 20
334.1275943417211
 30
0.0
 11
-269.7108917222159
 21
331.127594341721
 31
0.0
  0
LINE
  5
26B
330
85
100
AcDbEntity
  8
0
  6
Continuous
 62
     7
100
AcDbLine
 10
-269.7108917222149
 20
398.2752953083335
 30
0.0
 11
-269.7108917222149
 21
395.6019689046464
 31
0.0
  0
LINE
  5
26C
330
85
100
AcDbEntity
  8
0
  6
Continuous
 62
     7
100
AcDbLine
 10
-270.7108917222159
 20
325.5322948801003
 30
0.0
 11
-270.7108917222159
 21
470.8775943417213
 31
0.0
  0
LINE
  5
26D
330
85
100
AcDbEntity
  8
0
  6
Continuous
 62
     7
100
AcDbLine
 10
-270.7108917222159
 20
325.5322948801003
 30
0.0
 11
-269.7108917222159
 21
324.9549446109107
 31
0.0
  0
LINE
  5
26E
330
85
100
AcDbEntity
  8
0
  6
Continuous
 62
     7
100
AcDbLine
 10
-270.7108917222159
 20
470.8775943417213
 30
0.0
 11
-269.7108917222159
 21
471.4549446109108
 31
0.0
  0
LINE
  5
26F
330
85
100
AcDbEntity
  8
1
  6
DOT_CENTER
 62
     2
100
AcDbLine
 10
-270.7108917222159
 20
398.2049446109107
 30
0.0
 11
-269.7108917222159
 21
398.2049446109107
 31
0.0
  0
ENDBLK
  5
87
330
85
100
AcDbEntity
  8
0
100
AcDbBlockEnd
  0
BLOCK
  5
8D
330
88
100
AcDbEntity
  8
0
100
AcDbBlockBegin
  2
BG-0710_1VE__10
 70
     0
 10
-270.7108917222159
 20
322.2049446109107
 30
0.0
  3
BG-0710_1VE__10
  1

  0
INSERT
  5
89
330
88
100
AcDbEntity
  8
0
100
AcDbBlockReference
  2
Bolzen-395902442__6
 10
-256.2108917222166
 20
480.0449446109118
 30
0.0
  0
INSERT
  5
8A
330
88
100
AcDbEntity
  8
0
100
AcDbBlockReference
  2
Edelstahlklappe-gekoernt__7
 10
-256.2108917222173
 20
340.0464912970903
 30
0.0
  0
INSERT
  5
8B
330
88
100
AcDbEntity
  8
0
100
AcDbBlockReference
  2
Klappeneinschub-309022433__8
 10
-269.7108917222169
 20
322.2049446109107
 30
0.0
  0
INSERT
  5
8C
330
88
100
AcDbEntity
  8
0
100
AcDbBlockReference
  2
Dichtung-330052440__9
 10
-270.7108917222159
 20
324.9549446109107
 30
0.0
  0
ENDBLK
  5
8E
330
88
100
AcDbEntity
  8
0
100
AcDbBlockEnd
  0
BLOCK
  5
91
330
8F
100
AcDbEntity
  8
0
100
AcDbBlockBegin
  2
SA_Links2
 70
     0
 10
-249.747636107688
 20
412.00000000016
 30
0.0
  3
SA_Links2
  1

  0
INSERT
  5
90
330
8F
100
AcDbEntity
  8
0
100
AcDbBlockReference
  2
BG-0710_1VE__10
 10
-270.7108917222159
 20
322.2049446109107
 30
0.0
  0
MTEXT
  5
270
330
8F
100
AcDbEntity
  8
1
 62
     1
100
AcDbMText
 10
-249.7476361076879
 20
317.2049446107558
 30
0.0
 40
3.5
 41
0.0
 71
     2
 72
     1
  1
 
  7
CONVERTER_11
 73
     1
 44
1.32052821128451
  0
ENDBLK
  5
92
330
8F
100
AcDbEntity
  8
0
100
AcDbBlockEnd
  0
BLOCK
  5
1D5
330
1CE
100
AcDbEntity
  8
0
100
AcDbBlockBegin
  2
*D13
 70
     1
 10
0.0
 20
0.0
 30
0.0
  3
*D13
  1

  0
LINE
  5
1CF
330
1CE
100
AcDbEntity
  8
1
  6
Continuous
 62
     4
100
AcDbLine
 10
-303.447266606422
 20
501.7950569704619
 30
0.0
 11
-303.447266606422
 21
322.2049446109102
 31
0.0
  0
LINE
  5
1D0
330
1CE
100
AcDbEntity
  8
1
  6
Continuous
 62
     4
100
AcDbLine
 10
-317.7499999999927
 20
501.7950569704619
 30
0.0
 11
-301.447266606422
 21
501.7950569704619
 31
0.0
  0
LINE
  5
1D1
330
1CE
100
AcDbEntity
  8
1
  6
Continuous
 62
     4
100
AcDbLine
 10
-396.9999999999932
 20
322.2049446109102
 30
0.0
 11
-301.447266606422
 21
322.2049446109102
 31
0.0
  0
SOLID
  5
1D2
330
1CE
100
AcDbEntity
  8
1
 62
     4
100
AcDbTrace
 10
-302.5256991233102
 20
494.7950569704619
 30
0.0
 11
-304.3688340895337
 21
494.7950569704619
 31
0.0
 12
-303.447266606422
 22
501.7950569704619
 32
0.0
 13
-303.447266606422
 23
501.7950569704619
 33
0.0
  0
SOLID
  5
1D3
330
1CE
100
AcDbEntity
  8
1
 62
     4
100
AcDbTrace
 10
-304.3688340895337
 20
329.2049446109102
 30
0.0
 11
-302.5256991233102
 21
329.2049446109102
 31
0.0
 12
-303.447266606422
 22
322.2049446109102
 32
0.0
 13
-303.447266606422
 23
322.2049446109102
 33
0.0
  0
MTEXT
  5
1D4
330
1CE
100
AcDbEntity
  8
1
 62
     1
100
AcDbMText
 10
-305.447266606422
 20
406.372500697591
 30
0.0
 40
7.0
 41
0.0
 71
     7
 72
     1
  1
180
  7
CONVERTER_11
 11
0.0
 21
1.0
 31
0.0
 73
     1
 44
0.60024009603842
  0
ENDBLK
  5
1D6
330
1CE
100
AcDbEntity
  8
0
100
AcDbBlockEnd
  0
BLOCK
  5
1E0
330
1D9
100
AcDbEntity
  8
0
100
AcDbBlockBegin
  2
*D14
 70
     1
 10
0.0
 20
0.0
 30
0.0
  3
*D14
  1

  0
LINE
  5
1DA
330
1D9
100
AcDbEntity
  8
1
  6
Continuous
 62
     4
100
AcDbLine
 10
-317.7499999999928
 20
504.438018527703
 30
0.0
 11
-476.2499999999927
 21
504.438018527703
 31
0.0
  0
LINE
  5
1DB
330
1D9
100
AcDbEntity
  8
1
  6
Continuous
 62
     4
100
AcDbLine
 10
-317.7499999999928
 20
498.795056970462
 30
0.0
 11
-317.7499999999928
 21
506.438018527703
 31
0.0
  0
LINE
  5
1DC
330
1D9
100
AcDbEntity
  8
1
  6
Continuous
 62
     4
100
AcDbLine
 10
-476.2499999999927
 20
501.7950569704619
 30
0.0
 11
-476.2499999999927
 21
506.438018527703
 31
0.0
  0
SOLID
  5
1DD
330
1D9
100
AcDbEntity
  8
1
 62
     4
100
AcDbTrace
 10
-324.7499999999928
 20
503.5164510445912
 30
0.0
 11
-324.7499999999928
 21
505.3595860108147
 31
0.0
 12
-317.7499999999928
 22
504.438018527703
 32
0.0
 13
-317.7499999999928
 23
504.438018527703
 33
0.0
  0
SOLID
  5
1DE
330
1D9
100
AcDbEntity
  8
1
 62
     4
100
AcDbTrace
 10
-469.2499999999927
 20
505.3595860108147
 30
0.0
 11
-469.2499999999927
 21
503.5164510445912
 31
0.0
 12
-476.2499999999927
 22
504.438018527703
 32
0.0
 13
-476.2499999999927
 23
504.438018527703
 33
0.0
  0
MTEXT
  5
1DF
330
1D9
100
AcDbEntity
  8
1
 62
     1
100
AcDbMText
 10
-411.284644324259
 20
506.438018527703
 30
0.0
 40
7.0
 41
0.0
 71
     7
 72
     1
  1
159
  7
CONVERTER_11
 11
0.9999999999970619
 21
2.424068405545306E-6
 31
0.0
 73
     1
 44
0.60024009603842
  0
ENDBLK
  5
1E1
330
1D9
100
AcDbEntity
  8
0
100
AcDbBlockEnd
  0
ENDSEC
  0
SECTION
  2
ENTITIES
  0
INSERT
  5
93
330
1F
100
AcDbEntity
  8
0
100
AcDbBlockReference
  2
Vordans2
 10
-397.0000000000004
 20
412.0000000001601
 30
0.0
  0
INSERT
  5
94
330
1F
100
AcDbEntity
  8
0
100
AcDbBlockReference
  2
SA_Links2
 10
-249.747636107688
 20
412.00000000016
 30
0.0
  0
ENDSEC
  0
SECTION
  2
OBJECTS
  0
DICTIONARY
  5
C
330
0
100
AcDbDictionary
281
     1
  3
ACAD_GROUP
350
D
  3
ACAD_LAYOUT
350
1A
  3
ACAD_MLEADERSTYLE
350
273
  3
ACAD_MLINESTYLE
350
17
  3
ACAD_PLOTSETTINGS
350
19
  3
ACAD_PLOTSTYLENAME
350
E
  3
ACAD_SCALELIST
350
50
  3
ACAD_VISUALSTYLE
350
2A
  3
AcDbVariableDictionary
350
271
  0
DICTIONARY
  5
D
102
{ACAD_REACTORS
330
C
102
}
330
C
100
AcDbDictionary
281
     1
  0
DICTIONARY
  5
1A
102
{ACAD_REACTORS
330
C
102
}
330
C
100
AcDbDictionary
281
     1
  3
Layout1
350
1E
  3
Layout2
350
26
  3
Model
350
22
  0
DICTIONARY
  5
273
102
{ACAD_REACTORS
330
C
102
}
330
C
100
AcDbDictionary
281
     1
  0
DICTIONARY
  5
17
102
{ACAD_REACTORS
330
C
102
}
330
C
100
AcDbDictionary
281
     1
  3
Standard
350
18
  0
DICTIONARY
  5
19
102
{ACAD_REACTORS
330
C
102
}
330
C
100
AcDbDictionary
281
     1
  0
ACDBDICTIONARYWDFLT
  5
E
102
{ACAD_REACTORS
330
C
102
}
330
C
100
AcDbDictionary
281
     1
  3
Normal
350
F
100
AcDbDictionaryWithDefault
340
F
  0
DICTIONARY
  5
50
102
{ACAD_REACTORS
330
C
102
}
330
C
100
AcDbDictionary
281
     1
  3
A0
350
51
  3
A1
350
52
  3
A2
350
53
  3
A3
350
54
  3
A4
350
55
  3
A5
350
56
  3
A6
350
57
  3
A7
350
58
  3
A8
350
59
  3
A9
350
5A
  3
B0
350
5B
  3
B1
350
5C
  3
B2
350
5D
  3
B3
350
5E
  3
B4
350
5F
  3
B5
350
60
  3
B6
350
61
  3
B7
350
62
  3
B8
350
63
  3
B9
350
64
  3
C0
350
65
  3
C1
350
66
  3
C2
350
67
  3
C3
350
68
  3
C4
350
69
  3
C5
350
6A
  3
C6
350
6B
  3
C7
350
6C
  3
C8
350
6D
  3
C9
350
6E
  3
D0
350
6F
  3
D1
350
70
  3
D2
350
71
  0
DICTIONARY
  5
2A
102
{ACAD_REACTORS
330
C
102
}
330
C
100
AcDbDictionary
281
     1
  3
2dWireframe
350
2F
  3
3D Hidden
350
31
  3
3dWireframe
350
30
  3
Basic
350
32
  3
Brighten
350
36
  3
ColorChange
350
3A
  3
Conceptual
350
34
  3
Dim
350
35
  3
Facepattern
350
39
  3
Flat
350
2B
  3
FlatWithEdges
350
2C
  3
Gouraud
350
2D
  3
GouraudWithEdges
350
2E
  3
Linepattern
350
38
  3
Realistic
350
33
  3
Thicken
350
37
  0
DICTIONARY
  5
271
102
{ACAD_REACTORS
330
C
102
}
330
C
100
AcDbDictionary
281
     1
  3
CANNOSCALE
350
274
  0
LAYOUT
  5
1E
102
{ACAD_REACTORS
330
1A
102
}
330
1A
100
AcDbPlotSettings
  1

  2
none_device
  4

  6

 40
0.0
 41
0.0
 42
0.0
 43
0.0
 44
0.0
 45
0.0
 46
0.0
 47
0.0
 48
0.0
 49
0.0
140
0.0
141
0.0
142
1.0
143
1.0
 70
   688
 72
     0
 73
     0
 74
     5
  7

 75
    16
147
1.0
148
0.0
149
0.0
100
AcDbLayout
  1
Layout1
 70
     1
 71
     1
 10
0.0
 20
0.0
 11
12.0
 21
9.0
 12
0.0
 22
0.0
 32
0.0
 14
1.00000000000000E+20
 24
1.00000000000000E+20
 34
1.00000000000000E+20
 15
-1.00000000000000E+20
 25
-1.00000000000000E+20
 35
-1.00000000000000E+20
146
0.0
 13
0.0
 23
0.0
 33
0.0
 16
1.0
 26
0.0
 36
0.0
 17
0.0
 27
1.0
 37
0.0
 76
     0
330
1B
  0
LAYOUT
  5
26
102
{ACAD_REACTORS
330
1A
102
}
330
1A
100
AcDbPlotSettings
  1

  2
none_device
  4

  6

 40
0.0
 41
0.0
 42
0.0
 43
0.0
 44
0.0
 45
0.0
 46
0.0
 47
0.0
 48
0.0
 49
0.0
140
0.0
141
0.0
142
1.0
143
1.0
 70
   688
 72
     0
 73
     0
 74
     5
  7

 75
    16
147
1.0
148
0.0
149
0.0
100
AcDbLayout
  1
Layout2
 70
     1
 71
     2
 10
0.0
 20
0.0
 11
0.0
 21
0.0
 12
0.0
 22
0.0
 32
0.0
 14
0.0
 24
0.0
 34
0.0
 15
0.0
 25
0.0
 35
0.0
146
0.0
 13
0.0
 23
0.0
 33
0.0
 16
1.0
 26
0.0
 36
0.0
 17
0.0
 27
1.0
 37
0.0
 76
     0
330
23
  0
LAYOUT
  5
22
102
{ACAD_REACTORS
330
1A
102
}
330
1A
100
AcDbPlotSettings
  1

  2
none_device
  4

  6

 40
0.0
 41
0.0
 42
0.0
 43
0.0
 44
0.0
 45
0.0
 46
0.0
 47
0.0
 48
0.0
 49
0.0
140
0.0
141
0.0
142
1.0
143
1.0
 70
  1712
 72
     0
 73
     0
 74
     0
  7

 75
     0
147
1.0
148
0.0
149
0.0
100
AcDbLayout
  1
Model
 70
     1
 71
     0
 10
0.0
 20
0.0
 11
12.0
 21
9.0
 12
0.0
 22
0.0
 32
0.0
 14
-478.285333486069
 24
313.7049446107558
 34
0.0
 15
-228.7817062468107
 25
513.438018527703
 35
0.0
146
0.0
 13
0.0
 23
0.0
 33
0.0
 16
1.0
 26
0.0
 36
0.0
 17
0.0
 27
1.0
 37
0.0
 76
     0
330
1F
331
29
  0
MLINESTYLE
  5
18
102
{ACAD_REACTORS
330
17
102
}
330
17
100
AcDbMlineStyle
  2
Standard
 70
     0
  3

 62
   256
 51
90.0
 52
90.0
 71
     2
 49
0.5
 62
   256
  6
BYLAYER
 49
-0.5
 62
   256
  6
BYLAYER
  0
ACDBPLACEHOLDER
  5
F
102
{ACAD_REACTORS
330
E
102
}
330
E
  0
SCALE
  5
51
102
{ACAD_REACTORS
330
50
102
}
330
50
100
AcDbScale
 70
     0
300
1:1
140
1.0
141
1.0
290
     1
  0
SCALE
  5
52
102
{ACAD_REACTORS
330
50
102
}
330
50
100
AcDbScale
 70
     0
300
1:2
140
1.0
141
2.0
290
     0
  0
SCALE
  5
53
102
{ACAD_REACTORS
330
50
102
}
330
50
100
AcDbScale
 70
     0
300
1:4
140
1.0
141
4.0
290
     0
  0
SCALE
  5
54
102
{ACAD_REACTORS
330
50
102
}
330
50
100
AcDbScale
 70
     0
300
1:5
140
1.0
141
5.0
290
     0
  0
SCALE
  5
55
102
{ACAD_REACTORS
330
50
102
}
330
50
100
AcDbScale
 70
     0
300
1:8
140
1.0
141
8.0
290
     0
  0
SCALE
  5
56
102
{ACAD_REACTORS
330
50
102
}
330
50
100
AcDbScale
 70
     0
300
1:10
140
1.0
141
10.0
290
     0
  0
SCALE
  5
57
102
{ACAD_REACTORS
330
50
102
}
330
50
100
AcDbScale
 70
     0
300
1:16
140
1.0
141
16.0
290
     0
  0
SCALE
  5
58
102
{ACAD_REACTORS
330
50
102
}
330
50
100
AcDbScale
 70
     0
300
1:20
140
1.0
141
20.0
290
     0
  0
SCALE
  5
59
102
{ACAD_REACTORS
330
50
102
}
330
50
100
AcDbScale
 70
     0
300
1:30
140
1.0
141
30.0
290
     0
  0
SCALE
  5
5A
102
{ACAD_REACTORS
330
50
102
}
330
50
100
AcDbScale
 70
     0
300
1:40
140
1.0
141
40.0
290
     0
  0
SCALE
  5
5B
102
{ACAD_REACTORS
330
50
102
}
330
50
100
AcDbScale
 70
     0
300
1:50
140
1.0
141
50.0
290
     0
  0
SCALE
  5
5C
102
{ACAD_REACTORS
330
50
102
}
330
50
100
AcDbScale
 70
     0
300
1:100
140
1.0
141
100.0
290
     0
  0
SCALE
  5
5D
102
{ACAD_REACTORS
330
50
102
}
330
50
100
AcDbScale
 70
     0
300
2:1
140
2.0
141
1.0
290
     0
  0
SCALE
  5
5E
102
{ACAD_REACTORS
330
50
102
}
330
50
100
AcDbScale
 70
     0
300
4:1
140
4.0
141
1.0
290
     0
  0
SCALE
  5
5F
102
{ACAD_REACTORS
330
50
102
}
330
50
100
AcDbScale
 70
     0
300
8:1
140
8.0
141
1.0
290
     0
  0
SCALE
  5
60
102
{ACAD_REACTORS
330
50
102
}
330
50
100
AcDbScale
 70
     0
300
10:1
140
10.0
141
1.0
290
     0
  0
SCALE
  5
61
102
{ACAD_REACTORS
330
50
102
}
330
50
100
AcDbScale
 70
     0
300
100:1
140
100.0
141
1.0
290
     0
  0
SCALE
  5
62
102
{ACAD_REACTORS
330
50
102
}
330
50
100
AcDbScale
 70
     0
300
1/128" = 1'-0"
140
0.0078125
141
12.0
290
     0
  0
SCALE
  5
63
102
{ACAD_REACTORS
330
50
102
}
330
50
100
AcDbScale
 70
     0
300
1/64" = 1'-0"
140
0.015625
141
12.0
290
     0
  0
SCALE
  5
64
102
{ACAD_REACTORS
330
50
102
}
330
50
100
AcDbScale
 70
     0
300
1/32" = 1'-0"
140
0.03125
141
12.0
290
     0
  0
SCALE
  5
65
102
{ACAD_REACTORS
330
50
102
}
330
50
100
AcDbScale
 70
     0
300
1/16" = 1'-0"
140
0.0625
141
12.0
290
     0
  0
SCALE
  5
66
102
{ACAD_REACTORS
330
50
102
}
330
50
100
AcDbScale
 70
     0
300
3/32" = 1'-0"
140
0.09375
141
12.0
290
     0
  0
SCALE
  5
67
102
{ACAD_REACTORS
330
50
102
}
330
50
100
AcDbScale
 70
     0
300
1/8" = 1'-0"
140
0.125
141
12.0
290
     0
  0
SCALE
  5
68
102
{ACAD_REACTORS
330
50
102
}
330
50
100
AcDbScale
 70
     0
300
3/16" = 1'-0"
140
0.1875
141
12.0
290
     0
  0
SCALE
  5
69
102
{ACAD_REACTORS
330
50
102
}
330
50
100
AcDbScale
 70
     0
300
1/4" = 1'-0"
140
0.25
141
12.0
290
     0
  0
SCALE
  5
6A
102
{ACAD_REACTORS
330
50
102
}
330
50
100
AcDbScale
 70
     0
300
3/8" = 1'-0"
140
0.375
141
12.0
290
     0
  0
SCALE
  5
6B
102
{ACAD_REACTORS
330
50
102
}
330
50
100
AcDbScale
 70
     0
300
1/2" = 1'-0"
140
0.5
141
12.0
290
     0
  0
SCALE
  5
6C
102
{ACAD_REACTORS
330
50
102
}
330
50
100
AcDbScale
 70
     0
300
3/4" = 1'-0"
140
0.75
141
12.0
290
     0
  0
SCALE
  5
6D
102
{ACAD_REACTORS
330
50
102
}
330
50
100
AcDbScale
 70
     0
300
1" = 1'-0"
140
1.0
141
12.0
290
     0
  0
SCALE
  5
6E
102
{ACAD_REACTORS
330
50
102
}
330
50
100
AcDbScale
 70
     0
300
1-1/2" = 1'-0"
140
1.5
141
12.0
290
     0
  0
SCALE
  5
6F
102
{ACAD_REACTORS
330
50
102
}
330
50
100
AcDbScale
 70
     0
300
3" = 1'-0"
140
3.0
141
12.0
290
     0
  0
SCALE
  5
70
102
{ACAD_REACTORS
330
50
102
}
330
50
100
AcDbScale
 70
     0
300
6" = 1'-0"
140
6.0
141
12.0
290
     0
  0
SCALE
  5
71
102
{ACAD_REACTORS
330
50
102
}
330
50
100
AcDbScale
 70
     0
300
1'-0" = 1'-0"
140
12.0
141
12.0
290
     0
  0
VISUALSTYLE
  5
2F
102
{ACAD_REACTORS
330
2A
102
}
330
2A
100
AcDbVisualStyle
  2
2dWireframe
 70
     4
 71
     0
 72
     2
 73
     0
 90
        0
 40
-0.6
 41
-30.0
 62
     5
 63
     7
 74
     1
 91
        4
 64
     7
 65
   257
 75
     1
175
     1
 42
1.0
 92
        0
 66
   257
 43
1.0
 76
     1
 77
     6
 78
     2
 67
     7
 79
     5
170
     0
171
     0
290
     0
174
     0
 93
        1
 44
0.0
173
     0
291
     0
 45
0.0
1001
ACAD
1000
AcDbSavedByObjectVersion
1070
     0
  0
VISUALSTYLE
  5
31
102
{ACAD_REACTORS
330
2A
102
}
330
2A
100
AcDbVisualStyle
  2
3D Hidden
 70
     6
 71
     1
 72
     2
 73
     2
 90
        0
 40
-0.6
 41
-30.0
 62
     5
 63
     7
 74
     2
 91
        2
 64
     7
 65
   257
 75
     2
175
     1
 42
40.0
 92
        0
 66
   257
 43
1.0
 76
     1
 77
     6
 78
     2
 67
     7
 79
     3
170
     0
171
     0
290
     0
174
     0
 93
        1
 44
0.0
173
     0
291
     0
 45
0.0
1001
ACAD
1000
AcDbSavedByObjectVersion
1070
     0
  0
VISUALSTYLE
  5
30
102
{ACAD_REACTORS
330
2A
102
}
330
2A
100
AcDbVisualStyle
  2
3dWireframe
 70
     5
 71
     0
 72
     2
 73
     0
 90
        0
 40
-0.6
 41
-30.0
 62
     5
 63
     7
 74
     1
 91
        4
 64
     7
 65
   257
 75
     1
175
     1
 42
1.0
 92
        0
 66
   257
 43
1.0
 76
     1
 77
     6
 78
     2
 67
     7
 79
     5
170
     0
171
     0
290
     0
174
     0
 93
        1
 44
0.0
173
     0
291
     0
 45
0.0
1001
ACAD
1000
AcDbSavedByObjectVersion
1070
     0
  0
VISUALSTYLE
  5
32
102
{ACAD_REACTORS
330
2A
102
}
330
2A
100
AcDbVisualStyle
  2
Basic
 70
     7
 71
     1
 72
     0
 73
     1
 90
        0
 40
-0.6
 41
-30.0
 62
     5
 63
     7
 74
     0
 91
        4
 64
     7
 65
   257
 75
     1
175
     1
 42
1.0
 92
        8
 66
     7
 43
1.0
 76
     1
 77
     6
 78
     2
 67
     7
 79
     5
170
     0
171
     0
290
     0
174
     0
 93
        1
 44
0.0
173
     0
291
     1
 45
0.0
1001
ACAD
1000
AcDbSavedByObjectVersion
1070
     0
  0
VISUALSTYLE
  5
36
102
{ACAD_REACTORS
330
2A
102
}
330
2A
100
AcDbVisualStyle
  2
Brighten
 70
    12
 71
     2
 72
     2
 73
     0
 90
        0
 40
-0.6
 41
-30.0
 62
     5
 63
     7
 74
     1
 91
        4
 64
     7
 65
   257
 75
     1
175
     1
 42
1.0
 92
        8
 66
     7
 43
1.0
 76
     1
 77
     6
 78
     2
 67
     7
 79
     5
170
     0
171
     0
290
     0
174
     0
 93
        1
 44
50.0
173
     0
291
     1
 45
0.0
1001
ACAD
1000
AcDbSavedByObjectVersion
1070
     0
  0
VISUALSTYLE
  5
3A
102
{ACAD_REACTORS
330
2A
102
}
330
2A
100
AcDbVisualStyle
  2
ColorChange
 70
    16
 71
     2
 72
     2
 73
     3
 90
        0
 40
-0.6
 41
-30.0
 62
     5
 63
     8
 74
     1
 91
        4
 64
     7
 65
   257
 75
     1
175
     1
 42
1.0
 92
        8
 66
     8
 43
1.0
 76
     1
 77
     6
 78
     2
 67
     7
 79
     5
170
     0
171
     0
290
     0
174
     0
 93
        1
 44
0.0
173
     0
291
     1
 45
0.0
1001
ACAD
1000
AcDbSavedByObjectVersion
1070
     0
  0
VISUALSTYLE
  5
34
102
{ACAD_REACTORS
330
2A
102
}
330
2A
100
AcDbVisualStyle
  2
Conceptual
 70
     9
 71
     3
 72
     2
 73
     0
 90
        0
 40
-0.6
 41
-30.0
 62
     5
 63
     7
 74
     2
 91
        2
 64
     7
 65
   257
 75
     1
175
     1
 42
40.0
 92
        8
 66
     7
 43
1.0
 76
     1
 77
     6
 78
     2
 67
     7
 79
     3
170
     0
171
     0
290
     0
174
     0
 93
        1
 44
0.0
173
     0
291
     0
 45
0.0
1001
ACAD
1000
AcDbSavedByObjectVersion
1070
     0
  0
VISUALSTYLE
  5
35
102
{ACAD_REACTORS
330
2A
102
}
330
2A
100
AcDbVisualStyle
  2
Dim
 70
    11
 71
     2
 72
     2
 73
     0
 90
        0
 40
-0.6
 41
-30.0
 62
     5
 63
     7
 74
     1
 91
        4
 64
     7
 65
   257
 75
     1
175
     1
 42
1.0
 92
        8
 66
     7
 43
1.0
 76
     1
 77
     6
 78
     2
 67
     7
 79
     5
170
     0
171
     0
290
     0
174
     0
 93
        1
 44
-50.0
173
     0
291
     1
 45
0.0
1001
ACAD
1000
AcDbSavedByObjectVersion
1070
     0
  0
VISUALSTYLE
  5
39
102
{ACAD_REACTORS
330
2A
102
}
330
2A
100
AcDbVisualStyle
  2
Facepattern
 70
    15
 71
     2
 72
     2
 73
     0
 90
        0
 40
-0.6
 41
-30.0
 62
     5
 63
     7
 74
     1
 91
        4
 64
     7
 65
   257
 75
     1
175
     1
 42
1.0
 92
        8
 66
     7
 43
1.0
 76
     1
 77
     6
 78
     2
 67
     7
 79
     5
170
     0
171
     0
290
     0
174
     0
 93
        1
 44
0.0
173
     0
291
     1
 45
0.0
1001
ACAD
1000
AcDbSavedByObjectVersion
1070
     0
  0
VISUALSTYLE
  5
2B
102
{ACAD_REACTORS
330
2A
102
}
330
2A
100
AcDbVisualStyle
  2
Flat
 70
     0
 71
     2
 72
     1
 73
     1
 90
        2
 40
-0.6
 41
30.0
 62
     5
 63
     7
 74
     0
 91
        4
 64
     7
 65
   257
 75
     1
175
     1
 42
1.0
 92
        8
 66
     7
 43
1.0
 76
     1
 77
     6
 78
     2
 67
     7
 79
     5
170
     0
171
     0
290
     0
174
     0
 93
       13
 44
0.0
173
     0
291
     1
 45
0.0
1001
ACAD
1000
AcDbSavedByObjectVersion
1070
     0
  0
VISUALSTYLE
  5
2C
102
{ACAD_REACTORS
330
2A
102
}
330
2A
100
AcDbVisualStyle
  2
FlatWithEdges
 70
     1
 71
     2
 72
     1
 73
     1
 90
        2
 40
-0.6
 41
30.0
 62
     5
 63
     7
 74
     1
 91
        4
 64
     7
 65
   257
 75
     1
175
     1
 42
1.0
 92
        0
 66
   257
 43
1.0
 76
     1
 77
     6
 78
     2
 67
     7
 79
     5
170
     0
171
     0
290
     0
174
     0
 93
       13
 44
0.0
173
     0
291
     1
 45
0.0
1001
ACAD
1000
AcDbSavedByObjectVersion
1070
     0
  0
VISUALSTYLE
  5
2D
102
{ACAD_REACTORS
330
2A
102
}
330
2A
100
AcDbVisualStyle
  2
Gouraud
 70
     2
 71
     2
 72
     2
 73
     1
 90
        2
 40
-0.6
 41
30.0
 62
     5
 63
     7
 74
     0
 91
        4
 64
     7
 65
   257
 75
     1
175
     1
 42
1.0
 92
        0
 66
     7
 43
1.0
 76
     1
 77
     6
 78
     2
 67
     7
 79
     5
170
     0
171
     0
290
     0
174
     0
 93
       13
 44
0.0
173
     0
291
     1
 45
0.0
1001
ACAD
1000
AcDbSavedByObjectVersion
1070
     0
  0
VISUALSTYLE
  5
2E
102
{ACAD_REACTORS
330
2A
102
}
330
2A
100
AcDbVisualStyle
  2
GouraudWithEdges
 70
     3
 71
     2
 72
     2
 73
     1
 90
        2
 40
-0.6
 41
30.0
 62
     5
 63
     7
 74
     1
 91
        4
 64
     7
 65
   257
 75
     1
175
     1
 42
1.0
 92
        0
 66
   257
 43
1.0
 76
     1
 77
     6
 78
     2
 67
     7
 79
     5
170
     0
171
     0
290
     0
174
     0
 93
       13
 44
0.0
173
     0
291
     1
 45
0.0
1001
ACAD
1000
AcDbSavedByObjectVersion
1070
     0
  0
VISUALSTYLE
  5
38
102
{ACAD_REACTORS
330
2A
102
}
330
2A
100
AcDbVisualStyle
  2
Linepattern
 70
    14
 71
     2
 72
     2
 73
     0
 90
        0
 40
-0.6
 41
-30.0
 62
     5
 63
     7
 74
     1
 91
        4
 64
     7
 65
   257
 75
     7
175
     7
 42
1.0
 92
        8
 66
     7
 43
1.0
 76
     1
 77
     6
 78
     2
 67
     7
 79
     5
170
     0
171
     0
290
     0
174
     0
 93
        1
 44
0.0
173
     0
291
     1
 45
0.0
1001
ACAD
1000
AcDbSavedByObjectVersion
1070
     0
  0
VISUALSTYLE
  5
33
102
{ACAD_REACTORS
330
2A
102
}
330
2A
100
AcDbVisualStyle
  2
Realistic
 70
     8
 71
     2
 72
     2
 73
     0
 90
        0
 40
-0.6
 41
-30.0
 62
     5
 63
     7
 74
     1
 91
        0
 64
     7
 65
   257
 75
     1
175
     1
 42
1.0
 92
        8
 66
     8
 43
1.0
 76
     1
 77
     6
 78
     2
 67
     7
 79
     5
170
     0
171
     0
290
     0
174
     0
 93
       13
 44
0.0
173
     0
291
     0
 45
0.0
1001
ACAD
1000
AcDbSavedByObjectVersion
1070
     0
  0
VISUALSTYLE
  5
37
102
{ACAD_REACTORS
330
2A
102
}
330
2A
100
AcDbVisualStyle
  2
Thicken
 70
    13
 71
     2
 72
     2
 73
     0
 90
        0
 40
-0.6
 41
-30.0
 62
     5
 63
     7
 74
     1
 91
        4
 64
     7
 65
   257
 75
     1
175
     1
 42
1.0
 92
       12
 66
     7
 43
1.0
 76
     1
 77
     6
 78
     2
 67
     7
 79
     5
170
     0
171
     0
290
     0
174
     0
 93
        1
 44
0.0
173
     0
291
     1
 45
0.0
1001
ACAD
1000
AcDbSavedByObjectVersion
1070
     0
  0
DICTIONARYVAR
  5
274
102
{ACAD_REACTORS
330
271
102
}
330
271
100
DictionaryVariables
280
     0
  1
1:1
  0
ENDSEC
  0
EOF
