  0
SECTION
  2
HEADER
  9
$ACADVER
  1
AC1015
  9
$ACADMAINTVER
 70
     6
  9
$DWGCODEPAGE
  3
ANSI_1252
  9
$INSBASE
 10
0.0
 20
0.0
 30
0.0
  9
$EXTMIN
 10
-162.4383586463972
 20
0.0
 30
0.0
  9
$EXTMAX
 10
303.591706522749
 20
366.565916723557
 30
0.0
  9
$LIMMIN
 10
0.0
 20
0.0
  9
$LIMMAX
 10
12.0
 20
9.0
  9
$ORTHOMODE
 70
     0
  9
$REGENMODE
 70
     1
  9
$FILLMODE
 70
     1
  9
$QTEXTMODE
 70
     0
  9
$MIRRTEXT
 70
     1
  9
$LTSCALE
 40
1.0
  9
$ATTMODE
 70
     1
  9
$TEXTSIZE
 40
0.2
  9
$TRACEWID
 40
0.05
  9
$TEXTSTYLE
  7
Standard
  9
$CLAYER
  8
0
  9
$CELTYPE
  6
ByLayer
  9
$CECOLOR
 62
   256
  9
$CELTSCALE
 40
1.0
  9
$DISPSILH
 70
     0
  9
$DIMSCALE
 40
1.0
  9
$DIMASZ
 40
0.18
  9
$DIMEXO
 40
0.0625
  9
$DIMDLI
 40
0.38
  9
$DIMRND
 40
0.0
  9
$DIMDLE
 40
0.0
  9
$DIMEXE
 40
0.18
  9
$DIMTP
 40
0.0
  9
$DIMTM
 40
0.0
  9
$DIMTXT
 40
0.18
  9
$DIMCEN
 40
0.09
  9
$DIMTSZ
 40
0.0
  9
$DIMTOL
 70
     0
  9
$DIMLIM
 70
     0
  9
$DIMTIH
 70
     1
  9
$DIMTOH
 70
     1
  9
$DIMSE1
 70
     0
  9
$DIMSE2
 70
     0
  9
$DIMTAD
 70
     0
  9
$DIMZIN
 70
     0
  9
$DIMBLK
  1

  9
$DIMASO
 70
     1
  9
$DIMSHO
 70
     1
  9
$DIMPOST
  1

  9
$DIMAPOST
  1

  9
$DIMALT
 70
     0
  9
$DIMALTD
 70
     2
  9
$DIMALTF
 40
25.4
  9
$DIMLFAC
 40
1.0
  9
$DIMTOFL
 70
     0
  9
$DIMTVP
 40
0.0
  9
$DIMTIX
 70
     0
  9
$DIMSOXD
 70
     0
  9
$DIMSAH
 70
     0
  9
$DIMBLK1
  1

  9
$DIMBLK2
  1

  9
$DIMSTYLE
  2
Standard
  9
$DIMCLRD
 70
     0
  9
$DIMCLRE
 70
     0
  9
$DIMCLRT
 70
     0
  9
$DIMTFAC
 40
1.0
  9
$DIMGAP
 40
0.09
  9
$DIMJUST
 70
     0
  9
$DIMSD1
 70
     0
  9
$DIMSD2
 70
     0
  9
$DIMTOLJ
 70
     1
  9
$DIMTZIN
 70
     0
  9
$DIMALTZ
 70
     0
  9
$DIMALTTZ
 70
     0
  9
$DIMUPT
 70
     0
  9
$DIMDEC
 70
     4
  9
$DIMTDEC
 70
     4
  9
$DIMALTU
 70
     2
  9
$DIMALTTD
 70
     2
  9
$DIMTXSTY
  7
Standard
  9
$DIMAUNIT
 70
     0
  9
$DIMADEC
 70
     0
  9
$DIMALTRND
 40
0.0
  9
$DIMAZIN
 70
     0
  9
$DIMDSEP
 70
    46
  9
$DIMATFIT
 70
     3
  9
$DIMFRAC
 70
     0
  9
$DIMLDRBLK
  1

  9
$DIMLUNIT
 70
     2
  9
$DIMLWD
 70
    -2
  9
$DIMLWE
 70
    -2
  9
$DIMTMOVE
 70
     0
  9
$LUNITS
 70
     2
  9
$LUPREC
 70
     4
  9
$SKETCHINC
 40
0.1
  9
$FILLETRAD
 40
0.5
  9
$AUNITS
 70
     0
  9
$AUPREC
 70
     0
  9
$MENU
  1
.
  9
$ELEVATION
 40
0.0
  9
$PELEVATION
 40
0.0
  9
$THICKNESS
 40
0.0
  9
$LIMCHECK
 70
     0
  9
$CHAMFERA
 40
0.5
  9
$CHAMFERB
 40
0.5
  9
$CHAMFERC
 40
1.0
  9
$CHAMFERD
 40
0.0
  9
$SKPOLY
 70
     0
  9
$TDCREATE
 40
2456966.617498924
  9
$TDUCREATE
 40
2456966.575832257
  9
$TDUPDATE
 40
2456966.617499283
  9
$TDUUPDATE
 40
2456966.575832616
  9
$TDINDWG
 40
0.0000000116
  9
$TDUSRTIMER
 40
0.0000000116
  9
$USRTIMER
 70
     1
  9
$ANGBASE
 50
0.0
  9
$ANGDIR
 70
     0
  9
$PDMODE
 70
     0
  9
$PDSIZE
 40
0.0
  9
$PLINEWID
 40
0.0
  9
$SPLFRAME
 70
     0
  9
$SPLINETYPE
 70
     6
  9
$SPLINESEGS
 70
     8
  9
$HANDSEED
  5
2D6
  9
$SURFTAB1
 70
     6
  9
$SURFTAB2
 70
     6
  9
$SURFTYPE
 70
     6
  9
$SURFU
 70
     6
  9
$SURFV
 70
     6
  9
$UCSBASE
  2

  9
$UCSNAME
  2

  9
$UCSORG
 10
0.0
 20
0.0
 30
0.0
  9
$UCSXDIR
 10
1.0
 20
0.0
 30
0.0
  9
$UCSYDIR
 10
0.0
 20
1.0
 30
0.0
  9
$UCSORTHOREF
  2

  9
$UCSORTHOVIEW
 70
     0
  9
$UCSORGTOP
 10
0.0
 20
0.0
 30
0.0
  9
$UCSORGBOTTOM
 10
0.0
 20
0.0
 30
0.0
  9
$UCSORGLEFT
 10
0.0
 20
0.0
 30
0.0
  9
$UCSORGRIGHT
 10
0.0
 20
0.0
 30
0.0
  9
$UCSORGFRONT
 10
0.0
 20
0.0
 30
0.0
  9
$UCSORGBACK
 10
0.0
 20
0.0
 30
0.0
  9
$PUCSBASE
  2

  9
$PUCSNAME
  2

  9
$PUCSORG
 10
0.0
 20
0.0
 30
0.0
  9
$PUCSXDIR
 10
1.0
 20
0.0
 30
0.0
  9
$PUCSYDIR
 10
0.0
 20
1.0
 30
0.0
  9
$PUCSORTHOREF
  2

  9
$PUCSORTHOVIEW
 70
     0
  9
$PUCSORGTOP
 10
0.0
 20
0.0
 30
0.0
  9
$PUCSORGBOTTOM
 10
0.0
 20
0.0
 30
0.0
  9
$PUCSORGLEFT
 10
0.0
 20
0.0
 30
0.0
  9
$PUCSORGRIGHT
 10
0.0
 20
0.0
 30
0.0
  9
$PUCSORGFRONT
 10
0.0
 20
0.0
 30
0.0
  9
$PUCSORGBACK
 10
0.0
 20
0.0
 30
0.0
  9
$USERI1
 70
     0
  9
$USERI2
 70
     0
  9
$USERI3
 70
     0
  9
$USERI4
 70
     0
  9
$USERI5
 70
     0
  9
$USERR1
 40
18.1
  9
$USERR2
 40
0.0
  9
$USERR3
 40
0.0
  9
$USERR4
 40
0.0
  9
$USERR5
 40
0.0
  9
$WORLDVIEW
 70
     1
  9
$SHADEDGE
 70
     3
  9
$SHADEDIF
 70
    70
  9
$TILEMODE
 70
     1
  9
$MAXACTVP
 70
    64
  9
$PINSBASE
 10
0.0
 20
0.0
 30
0.0
  9
$PLIMCHECK
 70
     0
  9
$PEXTMIN
 10
1.00000000000000E+20
 20
1.00000000000000E+20
 30
1.00000000000000E+20
  9
$PEXTMAX
 10
-1.00000000000000E+20
 20
-1.00000000000000E+20
 30
-1.00000000000000E+20
  9
$PLIMMIN
 10
0.0
 20
0.0
  9
$PLIMMAX
 10
12.0
 20
9.0
  9
$UNITMODE
 70
     0
  9
$VISRETAIN
 70
     1
  9
$PLINEGEN
 70
     0
  9
$PSLTSCALE
 70
     1
  9
$TREEDEPTH
 70
  3020
  9
$CMLSTYLE
  2
Standard
  9
$CMLJUST
 70
     0
  9
$CMLSCALE
 40
1.0
  9
$PROXYGRAPHICS
 70
     1
  9
$MEASUREMENT
 70
     1
  9
$CELWEIGHT
370
    -1
  9
$ENDCAPS
280
     0
  9
$JOINSTYLE
280
     0
  9
$LWDISPLAY
290
     0
  9
$INSUNITS
 70
     1
  9
$HYPERLINKBASE
  1

  9
$STYLESHEET
  1

  9
$XEDIT
290
     1
  9
$CEPSNTYPE
380
     0
  9
$PSTYLEMODE
290
     1
  9
$FINGERPRINTGUID
  2
{7F4C7437-4C07-4D06-9B56-224987E8B9DD}
  9
$VERSIONGUID
  2
{FAEB1C32-E019-11D5-929B-00C0DF256EC4}
  9
$EXTNAMES
290
     1
  9
$PSVPSCALE
 40
0.0
  9
$OLESTARTUP
290
     0
  0
ENDSEC
  0
SECTION
  2
CLASSES
  0
CLASS
  1
ACDBDICTIONARYWDFLT
  2
AcDbDictionaryWithDefault
  3
ObjectDBX Classes
 90
        0
280
     0
281
     0
  0
CLASS
  1
VISUALSTYLE
  2
AcDbVisualStyle
  3
ObjectDBX Classes
 90
     4095
280
     0
281
     0
  0
CLASS
  1
MATERIAL
  2
AcDbMaterial
  3
ObjectDBX Classes
 90
     1153
280
     0
281
     0
  0
CLASS
  1
DICTIONARYVAR
  2
AcDbDictionaryVar
  3
ObjectDBX Classes
 90
        0
280
     0
281
     0
  0
CLASS
  1
ACDBPLACEHOLDER
  2
AcDbPlaceHolder
  3
ObjectDBX Classes
 90
        0
280
     0
281
     0
  0
CLASS
  1
LAYOUT
  2
AcDbLayout
  3
ObjectDBX Classes
 90
        0
280
     0
281
     0
  0
ENDSEC
  0
SECTION
  2
TABLES
  0
TABLE
  2
VPORT
  5
8
330
0
100
AcDbSymbolTable
 70
     1
  0
VPORT
  5
29
330
8
100
AcDbSymbolTableRecord
100
AcDbViewportTableRecord
  2
*Active
 70
     0
 10
0.0
 20
0.0
 11
1.0
 21
1.0
 12
70.5766739381759
 22
183.2829583617785
 13
0.0
 23
0.0
 14
0.5
 24
0.5
 15
0.5
 25
0.5
 16
0.0
 26
0.0
 36
1.0
 17
0.0
 27
0.0
 37
0.0
 40
403.2225083959127
 41
1.60267857142857
 42
50.0
 43
0.0
 44
0.0
 50
0.0
 51
0.0
 71
     0
 72
   100
 73
     1
 74
     3
 75
     0
 76
     0
 77
     0
 78
     0
281
     0
 65
     1
110
0.0
120
0.0
130
0.0
111
1.0
121
0.0
131
0.0
112
0.0
122
1.0
132
0.0
 79
     0
146
0.0
  0
ENDTAB
  0
TABLE
  2
LTYPE
  5
5
330
0
100
AcDbSymbolTable
 70
     8
  0
LTYPE
  5
14
330
5
100
AcDbSymbolTableRecord
100
AcDbLinetypeTableRecord
  2
ByBlock
 70
     0
  3

 72
    65
 73
     0
 40
0.0
  0
LTYPE
  5
15
330
5
100
AcDbSymbolTableRecord
100
AcDbLinetypeTableRecord
  2
ByLayer
 70
     0
  3

 72
    65
 73
     0
 40
0.0
  0
LTYPE
  5
16
330
5
100
AcDbSymbolTableRecord
100
AcDbLinetypeTableRecord
  2
Continuous
 70
     0
  3
Solid line
 72
    65
 73
     0
 40
0.0
  0
LTYPE
  5
3F
330
5
100
AcDbSymbolTableRecord
100
AcDbLinetypeTableRecord
  2
DASHED
 70
     0
  3
Dashed
 72
    65
 73
     2
 40
15.0
 49
7.0
 74
     0
 49
-8.0
 74
     0
  0
LTYPE
  5
40
330
5
100
AcDbSymbolTableRecord
100
AcDbLinetypeTableRecord
  2
DOTTED
 70
     0
  3
Dotted
 72
    65
 73
     2
 40
1.0
 49
0.0
 74
     0
 49
-1.0
 74
     0
  0
LTYPE
  5
41
330
5
100
AcDbSymbolTableRecord
100
AcDbLinetypeTableRecord
  2
DOT_CENTER
 70
     0
  3
Dot_Center
 72
    65
 73
     4
 40
14.0
 49
12.0
 74
     0
 49
-1.0
 74
     0
 49
0.0
 74
     0
 49
-1.0
 74
     0
  0
LTYPE
  5
42
330
5
100
AcDbSymbolTableRecord
100
AcDbLinetypeTableRecord
  2
LONG_DASHED
 70
     0
  3
Long_Dashed
 72
    65
 73
     2
 40
15.0
 49
10.0
 74
     0
 49
-5.0
 74
     0
  0
LTYPE
  5
43
330
5
100
AcDbSymbolTableRecord
100
AcDbLinetypeTableRecord
  2
DASH_CENTER
 70
     0
  3
Dash_Center
 72
    65
 73
     4
 40
14.0
 49
11.0
 74
     0
 49
-1.0
 74
     0
 49
1.0
 74
     0
 49
-1.0
 74
     0
  0
LTYPE
  5
44
330
5
100
AcDbSymbolTableRecord
100
AcDbLinetypeTableRecord
  2
PHANTOM
 70
     0
  3
Phantom
 72
    65
 73
     6
 40
13.0
 49
10.0
 74
     0
 49
-1.0
 74
     0
 49
0.0
 74
     0
 49
-1.0
 74
     0
 49
0.0
 74
     0
 49
-1.0
 74
     0
  0
LTYPE
  5
45
330
5
100
AcDbSymbolTableRecord
100
AcDbLinetypeTableRecord
  2
CENTER_DASH_DASH
 70
     0
  3
Center_Dash_Dash
 72
    65
 73
     6
 40
14.0
 49
9.0
 74
     0
 49
-1.0
 74
     0
 49
1.0
 74
     0
 49
-1.0
 74
     0
 49
1.0
 74
     0
 49
-1.0
 74
     0
  0
ENDTAB
  0
TABLE
  2
LAYER
  5
2
330
0
100
AcDbSymbolTable
 70
     2
  0
LAYER
  5
10
330
2
100
AcDbSymbolTableRecord
100
AcDbLayerTableRecord
  2
0
 70
     0
 62
     7
  6
Continuous
370
    -3
390
F
  0
LAYER
  5
46
330
2
100
AcDbSymbolTableRecord
100
AcDbLayerTableRecord
  2
1
 70
     0
 62
     7
  6
Continuous
370
    -3
390
F
  0
ENDTAB
  0
TABLE
  2
STYLE
  5
3
330
0
100
AcDbSymbolTable
 70
     2
  0
STYLE
  5
11
330
3
100
AcDbSymbolTableRecord
100
AcDbTextStyleTableRecord
  2
Standard
 70
     0
 40
0.0
 41
1.0
 50
0.0
 71
     0
 42
0.2
  3
txt
  4

  0
STYLE
  5
10F
330
3
100
AcDbSymbolTableRecord
100
AcDbTextStyleTableRecord
  2
CONVERTER_11
 70
     0
 40
0.0
 41
0.9
 50
0.0
 71
     0
 42
0.2
  3
txt.shx
  4

  0
ENDTAB
  0
TABLE
  2
VIEW
  5
6
330
0
100
AcDbSymbolTable
 70
     0
  0
ENDTAB
  0
TABLE
  2
UCS
  5
7
330
0
100
AcDbSymbolTable
 70
     0
  0
ENDTAB
  0
TABLE
  2
APPID
  5
9
330
0
100
AcDbSymbolTable
 70
     1
  0
APPID
  5
12
330
9
100
AcDbSymbolTableRecord
100
AcDbRegAppTableRecord
  2
ACAD
 70
     0
  0
ENDTAB
  0
TABLE
  2
DIMSTYLE
  5
A
330
0
100
AcDbSymbolTable
 70
     9
100
AcDbDimStyleTable
  0
DIMSTYLE
105
27
330
A
100
AcDbSymbolTableRecord
100
AcDbDimStyleTableRecord
  2
Standard
 70
     0
178
     0
340
11
  0
DIMSTYLE
105
113
102
{ACAD_REACTORS
330
114
102
}
330
A
100
AcDbSymbolTableRecord
100
AcDbDimStyleTableRecord
  2
ME10_DIM_10
 70
     0
 41
7.0
 42
0.0
 44
2.0
 73
     0
 74
     0
 77
     1
 78
     8
140
7.0
147
2.0
172
     1
173
     1
174
     1
175
     1
176
     4
177
     4
271
     0
178
     1
271
     0
340
10F
  0
DIMSTYLE
105
11E
102
{ACAD_REACTORS
330
11F
102
}
330
A
100
AcDbSymbolTableRecord
100
AcDbDimStyleTableRecord
  2
ME10_DIM_11
 70
     0
  3
30-<>
 41
7.0
 42
0.0
 44
2.0
 73
     0
 74
     0
 77
     1
 78
     8
140
7.0
147
2.0
172
     1
173
     1
174
     1
175
     1
176
     4
177
     4
271
     2
178
     1
271
     2
340
10F
  0
DIMSTYLE
105
12A
102
{ACAD_REACTORS
330
12B
102
}
330
A
100
AcDbSymbolTableRecord
100
AcDbDimStyleTableRecord
  2
ME10_DIM_12
 70
     0
  3
DN<>
 41
7.0
 42
0.0
 44
2.0
 73
     0
 74
     0
 77
     1
 78
     8
140
7.0
147
2.0
172
     1
173
     1
174
     1
175
     1
176
     4
177
     4
271
     2
178
     1
271
     2
340
10F
  0
DIMSTYLE
105
136
102
{ACAD_REACTORS
330
137
102
}
330
A
100
AcDbSymbolTableRecord
100
AcDbDimStyleTableRecord
  2
ME10_DIM_13
 70
     0
 41
7.0
 42
0.0
 44
2.0
 73
     0
 74
     0
 77
     1
 78
     8
140
7.0
147
2.0
172
     1
173
     1
174
     1
175
     1
176
     4
177
     4
271
     0
178
     1
271
     0
340
10F
  0
DIMSTYLE
105
142
102
{ACAD_REACTORS
330
143
102
}
330
A
100
AcDbSymbolTableRecord
100
AcDbDimStyleTableRecord
  2
ME10_DIM_14
 70
     0
 41
7.0
 42
0.0
 44
2.0
 73
     0
 74
     0
 77
     1
 78
     8
140
7.0
147
2.0
172
     1
173
     1
174
     1
175
     1
176
     4
177
     4
271
     0
178
     1
271
     0
340
10F
  0
DIMSTYLE
105
14E
102
{ACAD_REACTORS
330
14F
102
}
330
A
100
AcDbSymbolTableRecord
100
AcDbDimStyleTableRecord
  2
ME10_DIM_15
 70
     0
 41
7.0
 42
0.0
 44
2.0
 73
     0
 74
     0
 77
     1
 78
     8
140
7.0
147
2.0
172
     1
173
     1
174
     1
175
     1
176
     4
177
     4
271
     2
178
     1
271
     2
340
10F
  0
DIMSTYLE
105
15A
102
{ACAD_REACTORS
330
15B
102
}
330
A
100
AcDbSymbolTableRecord
100
AcDbDimStyleTableRecord
  2
ME10_DIM_16
 70
     0
  3
DN<>
 41
7.0
 42
0.0
 44
2.0
 73
     0
 74
     0
 77
     1
 78
     8
140
7.0
147
2.0
172
     1
173
     1
174
     1
175
     1
176
     4
177
     4
271
     2
178
     1
271
     2
340
10F
  0
DIMSTYLE
105
2A9
102
{ACAD_REACTORS
330
2AA
102
}
330
A
100
AcDbSymbolTableRecord
100
AcDbDimStyleTableRecord
  2
ME10_DIM_17
 70
     0
 41
7.0
 42
0.0
 44
2.0
 73
     0
 74
     0
 77
     1
 78
     8
140
7.0
147
2.0
172
     1
173
     1
174
     1
175
     1
176
     4
177
     4
271
     2
178
     1
271
     2
340
10F
  0
ENDTAB
  0
TABLE
  2
BLOCK_RECORD
  5
1
330
0
100
AcDbSymbolTable
 70
    21
  0
BLOCK_RECORD
  5
1F
330
1
100
AcDbSymbolTableRecord
100
AcDbBlockTableRecord
  2
*Model_Space
340
22
  0
BLOCK_RECORD
  5
1B
330
1
100
AcDbSymbolTableRecord
100
AcDbBlockTableRecord
  2
*Paper_Space
340
1E
  0
BLOCK_RECORD
  5
23
330
1
100
AcDbSymbolTableRecord
100
AcDbBlockTableRecord
  2
*Paper_Space0
340
26
  0
BLOCK_RECORD
  5
47
330
1
100
AcDbSymbolTableRecord
100
AcDbBlockTableRecord
  2
Hl_13_Tauchrohr
340
0
102
{BLKREFS
331
54
102
}
  0
BLOCK_RECORD
  5
4A
330
1
100
AcDbSymbolTableRecord
100
AcDbBlockTableRecord
  2
Holländermutter_6_4__1
340
0
102
{BLKREFS
331
55
102
}
  0
BLOCK_RECORD
  5
4D
330
1
100
AcDbSymbolTableRecord
100
AcDbBlockTableRecord
  2
HL_100_Krümmer
340
0
102
{BLKREFS
331
56
102
}
  0
BLOCK_RECORD
  5
50
330
1
100
AcDbSymbolTableRecord
100
AcDbBlockTableRecord
  2
HL_100_Abgangsbogen_DN40
340
0
102
{BLKREFS
331
57
102
}
  0
BLOCK_RECORD
  5
53
330
1
100
AcDbSymbolTableRecord
100
AcDbBlockTableRecord
  2
HL_100_40_Röhrensifon
340
0
102
{BLKREFS
331
73
102
}
  0
BLOCK_RECORD
  5
5A
330
1
100
AcDbSymbolTableRecord
100
AcDbBlockTableRecord
  2
Holländermutter_2_
340
0
102
{BLKREFS
331
74
102
}
  0
BLOCK_RECORD
  5
5D
330
1
100
AcDbSymbolTableRecord
100
AcDbBlockTableRecord
  2
Holländermutter_6_4__2
340
0
102
{BLKREFS
331
75
102
}
  0
BLOCK_RECORD
  5
60
330
1
100
AcDbSymbolTableRecord
100
AcDbBlockTableRecord
  2
Dichtstopfen
340
0
102
{BLKREFS
331
6A
102
}
  0
BLOCK_RECORD
  5
63
330
1
100
AcDbSymbolTableRecord
100
AcDbBlockTableRecord
  2
Holländermutter_1
340
0
102
{BLKREFS
331
6B
102
}
  0
BLOCK_RECORD
  5
66
330
1
100
AcDbSymbolTableRecord
100
AcDbBlockTableRecord
  2
HL19_ABS_10003_ABS
340
0
102
{BLKREFS
331
6C
102
}
  0
BLOCK_RECORD
  5
69
330
1
100
AcDbSymbolTableRecord
100
AcDbBlockTableRecord
  2
HL19
340
0
102
{BLKREFS
331
70
102
}
  0
BLOCK_RECORD
  5
6F
330
1
100
AcDbSymbolTableRecord
100
AcDbBlockTableRecord
  2
Rckans1
340
0
102
{BLKREFS
331
76
102
}
  0
BLOCK_RECORD
  5
109
330
1
100
AcDbSymbolTableRecord
100
AcDbBlockTableRecord
  2
*D13
340
0
  0
BLOCK_RECORD
  5
115
330
1
100
AcDbSymbolTableRecord
100
AcDbBlockTableRecord
  2
*D14
340
0
  0
BLOCK_RECORD
  5
120
330
1
100
AcDbSymbolTableRecord
100
AcDbBlockTableRecord
  2
*D15
340
0
  0
BLOCK_RECORD
  5
12C
330
1
100
AcDbSymbolTableRecord
100
AcDbBlockTableRecord
  2
*D16
340
0
  0
BLOCK_RECORD
  5
138
330
1
100
AcDbSymbolTableRecord
100
AcDbBlockTableRecord
  2
*D17
340
0
  0
BLOCK_RECORD
  5
144
330
1
100
AcDbSymbolTableRecord
100
AcDbBlockTableRecord
  2
*D18
340
0
  0
BLOCK_RECORD
  5
150
330
1
100
AcDbSymbolTableRecord
100
AcDbBlockTableRecord
  2
*D19
340
0
  0
BLOCK_RECORD
  5
29E
330
1
100
AcDbSymbolTableRecord
100
AcDbBlockTableRecord
  2
*D20
340
0
  0
ENDTAB
  0
ENDSEC
  0
SECTION
  2
BLOCKS
  0
BLOCK
  5
20
330
1F
100
AcDbEntity
  8
0
100
AcDbBlockBegin
  2
*Model_Space
 70
     0
 10
0.0
 20
0.0
 30
0.0
  3
*Model_Space
  1

  0
ENDBLK
  5
21
330
1F
100
AcDbEntity
  8
0
100
AcDbBlockEnd
  0
BLOCK
  5
1C
330
1B
100
AcDbEntity
 67
     1
  8
0
100
AcDbBlockBegin
  2
*Paper_Space
 70
     0
 10
0.0
 20
0.0
 30
0.0
  3
*Paper_Space
  1

  0
ENDBLK
  5
1D
330
1B
100
AcDbEntity
 67
     1
  8
0
100
AcDbBlockEnd
  0
BLOCK
  5
24
330
23
100
AcDbEntity
  8
0
100
AcDbBlockBegin
  2
*Paper_Space0
 70
     0
 10
0.0
 20
0.0
 30
0.0
  3
*Paper_Space0
  1

  0
ENDBLK
  5
25
330
23
100
AcDbEntity
  8
0
100
AcDbBlockEnd
  0
BLOCK
  5
48
330
47
100
AcDbEntity
  8
0
100
AcDbBlockBegin
  2
Hl_13_Tauchrohr
 70
     0
 10
-53.63172961237183
 20
179.0504302138638
 30
0.0
  3
Hl_13_Tauchrohr
  1

  0
LINE
  5
77
330
47
100
AcDbEntity
  8
1
  6
PHANTOM
 62
     2
100
AcDbLine
 10
-40.0
 20
50.05043021386376
 30
0.0
 11
-40.0
 21
308.0504302138638
 31
0.0
  0
LINE
  5
78
330
47
100
AcDbEntity
  8
1
  6
PHANTOM
 62
     2
100
AcDbLine
 10
-99.23082311587723
 20
285.9212814347974
 30
0.0
 11
-49.20341498809631
 21
272.5164778275366
 31
0.0
  0
LINE
  5
79
330
47
100
AcDbEntity
  8
1
  6
Continuous
 62
     7
100
AcDbLine
 10
-60.0
 20
290.4209186784364
 30
0.0
 11
-60.0
 21
293.5504302138676
 31
0.0
  0
LINE
  5
7A
330
47
100
AcDbEntity
  8
1
  6
Continuous
 62
     7
100
AcDbLine
 10
-86.07999730980487
 20
267.3860236643117
 30
0.0
 11
-60.0
 21
260.3979094465439
 31
0.0
  0
LINE
  5
7B
330
47
100
AcDbEntity
  8
1
  6
Continuous
 62
     7
100
AcDbLine
 10
-60.0
 20
117.7535898384861
 30
0.0
 11
-60.0
 21
137.7535898384859
 31
0.0
  0
LINE
  5
7C
330
47
100
AcDbEntity
  8
1
  6
Continuous
 62
     7
100
AcDbLine
 10
-60.0
 20
290.4209186784364
 30
0.0
 11
-78.57424500183208
 21
295.3978726266948
 31
0.0
  0
LINE
  5
7D
330
47
100
AcDbEntity
  8
1
  6
Continuous
 62
     7
100
AcDbLine
 10
-20.0
 20
293.5504302138676
 30
0.0
 11
-20.0
 21
137.7535898384859
 31
0.0
  0
LINE
  5
7E
330
47
100
AcDbEntity
  8
1
  6
Continuous
 62
     7
100
AcDbLine
 10
-20.0
 20
137.7535898384859
 30
0.0
 11
-20.0
 21
117.7535898384861
 31
0.0
  0
LINE
  5
7F
330
47
100
AcDbEntity
  8
1
  6
Continuous
 62
     7
100
AcDbLine
 10
-60.0
 20
137.7535898384859
 30
0.0
 11
-60.0
 21
260.3979094465439
 31
0.0
  0
LINE
  5
80
330
47
100
AcDbEntity
  8
1
  6
Continuous
 62
     7
100
AcDbLine
 10
-9.03263610886643
 20
302.0504302138638
 30
0.0
 11
-8.03263610886643
 21
302.0504302138638
 31
0.0
  0
ARC
  5
81
330
47
100
AcDbEntity
  8
1
  6
Continuous
 62
     7
100
AcDbCircle
 10
-83.63587800707342
 20
275.4094140624902
 30
0.0
 40
27.99999999999704
100
AcDbArc
 50
327.5797504596997
 51
32.42024954030015
  0
ENDBLK
  5
49
330
47
100
AcDbEntity
  8
0
100
AcDbBlockEnd
  0
BLOCK
  5
4B
330
4A
100
AcDbEntity
  8
0
100
AcDbBlockBegin
  2
Holländermutter_6_4__1
 70
     0
 10
-40.00000000000918
 20
304.0504302138638
 30
0.0
  3
Holländermutter_6_4__1
  1

  0
LINE
  5
82
330
4A
100
AcDbEntity
  8
0
  6
Continuous
 62
     7
100
AcDbLine
 10
-13.88350718519007
 20
293.5504302138638
 30
0.0
 11
-66.11649281481004
 21
293.5504302138638
 31
0.0
  0
LINE
  5
83
330
4A
100
AcDbEntity
  8
0
  6
Continuous
 62
     7
100
AcDbLine
 10
-66.11649281481004
 20
293.5504302138638
 30
0.0
 11
-68.5
 21
295.5504302138638
 31
0.0
  0
LINE
  5
84
330
4A
100
AcDbEntity
  8
0
  6
Continuous
 62
     7
100
AcDbLine
 10
-11.5
 20
308.0504302138638
 30
0.0
 11
-11.50000000001819
 21
295.5504302138274
 31
0.0
  0
LINE
  5
85
330
4A
100
AcDbEntity
  8
0
  6
Continuous
 62
     7
100
AcDbLine
 10
-68.5
 20
308.0504302138638
 30
0.0
 11
-68.5
 21
295.5504302138638
 31
0.0
  0
LINE
  5
86
330
4A
100
AcDbEntity
  8
0
  6
Continuous
 62
     7
100
AcDbLine
 10
-68.5
 20
308.0504302138638
 30
0.0
 11
-67.5244205234485
 21
308.0504302138638
 31
0.0
  0
LINE
  5
87
330
4A
100
AcDbEntity
  8
0
  6
Continuous
 62
     7
100
AcDbLine
 10
-11.5
 20
308.0504302138638
 30
0.0
 11
-12.47557947655151
 21
308.0504302138638
 31
0.0
  0
LINE
  5
88
330
4A
100
AcDbEntity
  8
0
  6
Continuous
 62
     7
100
AcDbLine
 10
-13.88350718519007
 20
293.5504302138638
 30
0.0
 11
-11.50000000001819
 21
295.5504302138274
 31
0.0
  0
LINE
  5
89
330
4A
100
AcDbEntity
  8
0
  6
Continuous
 62
     7
100
AcDbLine
 10
-66.42442052344632
 20
308.0504302138638
 30
0.0
 11
-67.5244205234485
 21
308.0504302138638
 31
0.0
  0
LINE
  5
8A
330
4A
100
AcDbEntity
  8
0
  6
Continuous
 62
     7
100
AcDbLine
 10
-19.12308203726571
 20
297.5504302138638
 30
0.0
 11
-19.12308203726571
 21
296.5504302138638
 31
0.0
  0
LINE
  5
8B
330
4A
100
AcDbEntity
  8
0
  6
Continuous
 62
     7
100
AcDbLine
 10
-19.12308203726571
 20
296.5504302138638
 30
0.0
 11
-19.12308203726571
 21
294.792712850542
 31
0.0
  0
LINE
  5
8C
330
4A
100
AcDbEntity
  8
0
  6
Continuous
 62
     7
100
AcDbLine
 10
-22.72932662132019
 20
293.8722309515092
 30
0.0
 11
-38.0
 21
293.8722309515092
 31
0.0
  0
LINE
  5
8D
330
4A
100
AcDbEntity
  8
0
  6
Continuous
 62
     7
100
AcDbLine
 10
-42.0
 20
293.8722309515092
 30
0.0
 11
-57.27067337868374
 21
293.8722309515092
 31
0.0
  0
LINE
  5
8E
330
4A
100
AcDbEntity
  8
0
  6
Continuous
 62
     7
100
AcDbLine
 10
-57.27067337868374
 20
308.0504302138638
 30
0.0
 11
-57.27067337868374
 21
293.8722309515092
 31
0.0
  0
LINE
  5
8F
330
4A
100
AcDbEntity
  8
0
  6
Continuous
 62
     7
100
AcDbLine
 10
-38.0
 20
294.792712850542
 30
0.0
 11
-38.0
 21
293.8722309515092
 31
0.0
  0
LINE
  5
90
330
4A
100
AcDbEntity
  8
0
  6
Continuous
 62
     7
100
AcDbLine
 10
-22.72932662132019
 20
308.0504302138638
 30
0.0
 11
-22.72932662132019
 21
293.8722309515092
 31
0.0
  0
LINE
  5
91
330
4A
100
AcDbEntity
  8
0
  6
Continuous
 62
     7
100
AcDbLine
 10
-38.0
 20
308.0504302138638
 30
0.0
 11
-38.0
 21
294.792712850542
 31
0.0
  0
LINE
  5
92
330
4A
100
AcDbEntity
  8
0
  6
Continuous
 62
     7
100
AcDbLine
 10
-60.8769179627343
 20
296.5504302138638
 30
0.0
 11
-60.8769179627343
 21
294.792712850542
 31
0.0
  0
LINE
  5
93
330
4A
100
AcDbEntity
  8
0
  6
Continuous
 62
     7
100
AcDbLine
 10
-58.04849083798763
 20
308.0504302138638
 30
0.0
 11
-58.04849083798763
 21
294.792712850542
 31
0.0
  0
LINE
  5
94
330
4A
100
AcDbEntity
  8
0
  6
Continuous
 62
     7
100
AcDbLine
 10
-21.95150916201249
 20
308.0504302138638
 30
0.0
 11
-21.95150916200157
 21
294.7927128504911
 31
0.0
  0
LINE
  5
95
330
4A
100
AcDbEntity
  8
0
  6
Continuous
 62
     7
100
AcDbLine
 10
-42.0
 20
308.0504302138638
 30
0.0
 11
-42.0
 21
294.792712850542
 31
0.0
  0
LINE
  5
96
330
4A
100
AcDbEntity
  8
0
  6
Continuous
 62
     7
100
AcDbLine
 10
-19.84745673618454
 20
308.0504302138638
 30
0.0
 11
-19.84745673618454
 21
295.5504302138638
 31
0.0
  0
LINE
  5
97
330
4A
100
AcDbEntity
  8
0
  6
Continuous
 62
     7
100
AcDbLine
 10
-60.15254326381552
 20
308.0504302138638
 30
0.0
 11
-60.15254326381552
 21
295.5504302138638
 31
0.0
  0
LINE
  5
98
330
4A
100
AcDbEntity
  8
0
  6
Continuous
 62
     7
100
AcDbLine
 10
-40.0
 20
308.0504302138638
 30
0.0
 11
-40.0
 21
295.5504302138638
 31
0.0
  0
LINE
  5
99
330
4A
100
AcDbEntity
  8
0
  6
Continuous
 62
     7
100
AcDbLine
 10
-60.8769179627343
 20
308.0504302138638
 30
0.0
 11
-60.8769179627343
 21
296.5504302138638
 31
0.0
  0
LINE
  5
9A
330
4A
100
AcDbEntity
  8
0
  6
Continuous
 62
     7
100
AcDbLine
 10
-19.12308203726571
 20
308.0504302138638
 30
0.0
 11
-19.12308203726571
 21
297.5504302138638
 31
0.0
  0
LINE
  5
9B
330
4A
100
AcDbEntity
  8
0
  6
Continuous
 62
     7
100
AcDbLine
 10
-19.12308203726571
 20
308.0504302138638
 30
0.0
 11
-19.84745673618454
 21
308.0504302138638
 31
0.0
  0
LINE
  5
9C
330
4A
100
AcDbEntity
  8
0
  6
Continuous
 62
     7
100
AcDbLine
 10
-21.95150916201249
 20
308.0504302138638
 30
0.0
 11
-22.72932662132019
 21
308.0504302138638
 31
0.0
  0
LINE
  5
9D
330
4A
100
AcDbEntity
  8
0
  6
Continuous
 62
     7
100
AcDbLine
 10
-22.72932662132019
 20
308.0504302138638
 30
0.0
 11
-38.0
 21
308.0504302138638
 31
0.0
  0
LINE
  5
9E
330
4A
100
AcDbEntity
  8
0
  6
Continuous
 62
     7
100
AcDbLine
 10
-60.15254326381552
 20
308.0504302138638
 30
0.0
 11
-60.8769179627343
 21
308.0504302138638
 31
0.0
  0
LINE
  5
9F
330
4A
100
AcDbEntity
  8
0
  6
Continuous
 62
     7
100
AcDbLine
 10
-60.0991005034266
 20
308.0504302138638
 30
0.0
 11
-60.15254326381552
 21
308.0504302138638
 31
0.0
  0
LINE
  5
A0
330
4A
100
AcDbEntity
  8
0
  6
Continuous
 62
     7
100
AcDbLine
 10
-40.0
 20
308.0504302138638
 30
0.0
 11
-42.0
 21
308.0504302138638
 31
0.0
  0
LINE
  5
A1
330
4A
100
AcDbEntity
  8
0
  6
Continuous
 62
     7
100
AcDbLine
 10
-57.27067337868374
 20
308.0504302138638
 30
0.0
 11
-58.04849083798763
 21
308.0504302138638
 31
0.0
  0
LINE
  5
A2
330
4A
100
AcDbEntity
  8
0
  6
Continuous
 62
     7
100
AcDbLine
 10
-60.0991005034266
 20
308.0504302138638
 30
0.0
 11
-58.04849083798763
 21
308.0504302138638
 31
0.0
  0
LINE
  5
A3
330
4A
100
AcDbEntity
  8
0
  6
Continuous
 62
     7
100
AcDbLine
 10
-40.0
 20
308.0504302138638
 30
0.0
 11
-38.0
 21
308.0504302138638
 31
0.0
  0
LINE
  5
A4
330
4A
100
AcDbEntity
  8
0
  6
Continuous
 62
     7
100
AcDbLine
 10
-19.90089949657341
 20
308.0504302138638
 30
0.0
 11
-19.84745673618454
 21
308.0504302138638
 31
0.0
  0
LINE
  5
A5
330
4A
100
AcDbEntity
  8
0
  6
Continuous
 62
     7
100
AcDbLine
 10
-60.0991005034266
 20
293.8722309515092
 30
0.0
 11
-66.42442052344632
 21
293.8722309515092
 31
0.0
  0
LINE
  5
A6
330
4A
100
AcDbEntity
  8
0
  6
Continuous
 62
     7
100
AcDbLine
 10
-66.42442052344632
 20
308.0504302138638
 30
0.0
 11
-66.42442052344632
 21
293.8722309515092
 31
0.0
  0
LINE
  5
A7
330
4A
100
AcDbEntity
  8
0
  6
Continuous
 62
     7
100
AcDbLine
 10
-60.8769179627343
 20
308.0504302138638
 30
0.0
 11
-66.42442052344632
 21
308.0504302138638
 31
0.0
  0
LINE
  5
A8
330
4A
100
AcDbEntity
  8
0
  6
Continuous
 62
     7
100
AcDbLine
 10
-67.5244205234485
 20
308.0504302138638
 30
0.0
 11
-67.5244205234485
 21
294.792712850542
 31
0.0
  0
LINE
  5
A9
330
4A
100
AcDbEntity
  8
0
  6
Continuous
 62
     7
100
AcDbLine
 10
-68.5
 20
310.5504302138638
 30
0.0
 11
-11.5
 21
310.5504302138638
 31
0.0
  0
LINE
  5
AA
330
4A
100
AcDbEntity
  8
0
  6
Continuous
 62
     7
100
AcDbLine
 10
-68.5
 20
310.5504302138638
 30
0.0
 11
-68.5
 21
308.0504302138638
 31
0.0
  0
LINE
  5
AB
330
4A
100
AcDbEntity
  8
0
  6
Continuous
 62
     7
100
AcDbLine
 10
-11.5
 20
310.5504302138638
 30
0.0
 11
-11.5
 21
308.0504302138638
 31
0.0
  0
LINE
  5
AC
330
4A
100
AcDbEntity
  8
0
  6
Continuous
 62
     7
100
AcDbLine
 10
-13.57557947655369
 20
308.0504302138638
 30
0.0
 11
-13.57557947655369
 21
293.8722309515092
 31
0.0
  0
LINE
  5
AD
330
4A
100
AcDbEntity
  8
0
  6
Continuous
 62
     7
100
AcDbLine
 10
-42.0
 20
294.792712850542
 30
0.0
 11
-42.0
 21
293.8722309515092
 31
0.0
  0
LINE
  5
AE
330
4A
100
AcDbEntity
  8
0
  6
Continuous
 62
     7
100
AcDbLine
 10
-19.90089949657341
 20
293.8722309515092
 30
0.0
 11
-13.57557947655369
 21
293.8722309515092
 31
0.0
  0
LINE
  5
AF
330
4A
100
AcDbEntity
  8
0
  6
Continuous
 62
     7
100
AcDbLine
 10
-12.47557947655151
 20
308.0504302138638
 30
0.0
 11
-12.47557947655151
 21
294.792712850542
 31
0.0
  0
LINE
  5
B0
330
4A
100
AcDbEntity
  8
0
  6
Continuous
 62
     7
100
AcDbLine
 10
-13.57557947655369
 20
308.0504302138638
 30
0.0
 11
-12.47557947655151
 21
308.0504302138638
 31
0.0
  0
LINE
  5
B1
330
4A
100
AcDbEntity
  8
0
  6
Continuous
 62
     7
100
AcDbLine
 10
-42.0
 20
308.0504302138638
 30
0.0
 11
-57.27067337868374
 21
308.0504302138638
 31
0.0
  0
LINE
  5
B2
330
4A
100
AcDbEntity
  8
0
  6
Continuous
 62
     7
100
AcDbLine
 10
-19.12308203726571
 20
308.0504302138638
 30
0.0
 11
-13.57557947655369
 21
308.0504302138638
 31
0.0
  0
LINE
  5
B3
330
4A
100
AcDbEntity
  8
0
  6
Continuous
 62
     7
100
AcDbLine
 10
-21.95150916201249
 20
308.0504302138638
 30
0.0
 11
-19.90089949657341
 21
308.0504302138638
 31
0.0
  0
LINE
  5
B4
330
4A
100
AcDbEntity
  8
1
  6
PHANTOM
 62
     2
100
AcDbLine
 10
-40.0
 20
310.5504302138638
 30
0.0
 11
-40.0
 21
308.0504302138638
 31
0.0
  0
LINE
  5
B5
330
4A
100
AcDbEntity
  8
1
  6
Continuous
 62
     7
100
AcDbLine
 10
-64.0
 20
313.5504302138638
 30
0.0
 11
-64.0
 21
314.5504302138638
 31
0.0
  0
LINE
  5
B6
330
4A
100
AcDbEntity
  8
1
  6
Continuous
 62
     7
100
AcDbLine
 10
-16.0
 20
313.5504302138638
 30
0.0
 11
-16.0
 21
314.5504302138638
 31
0.0
  0
SPLINE
  5
B7
330
4A
100
AcDbEntity
  8
0
  6
Continuous
 62
     7
100
AcDbSpline
210
0.0
220
0.0
230
1.0
 70
     8
 71
     3
 72
    11
 73
     7
 74
     5
 42
0.000000001
 43
0.0000000001
 44
0.00000001
 40
0.0
 40
0.0
 40
0.0
 40
0.0
 40
0.3158789477961299
 40
0.6240832434645889
 40
0.9336075373332586
 40
1.235572027457386
 40
1.235572027457386
 40
1.235572027457386
 40
1.235572027457386
 10
-68.5
 20
295.5504302138638
 30
0.0
 10
-68.41900125410723
 20
295.4831505896391
 30
0.0
 10
-68.25897171306445
 20
295.3502259906402
 30
0.0
 10
-68.01491638493897
 20
295.1570997623734
 30
0.0
 10
-67.7713095533162
 20
294.9709381965636
 30
0.0
 10
-67.60603577933959
 20
294.8516296266728
 30
0.0
 10
-67.5244205234485
 20
294.792712850542
 30
0.0
 11
-68.5
 21
295.5504302138638
 31
0.0
 11
-68.25620632311036
 21
295.3495716745642
 31
0.0
 11
-68.01472826912874
 21
295.1580560422212
 31
0.0
 11
-67.76846068243101
 21
294.9705525372632
 31
0.0
 11
-67.5244205234485
 21
294.792712850542
 31
0.0
  0
SPLINE
  5
B8
330
4A
100
AcDbEntity
  8
0
  6
Continuous
 62
     7
100
AcDbSpline
210
0.0
220
0.0
230
1.0
 70
     8
 71
     3
 72
    11
 73
     7
 74
     5
 42
0.000000001
 43
0.0000000001
 44
0.00000001
 40
0.0
 40
0.0
 40
0.0
 40
0.0
 40
0.2532283968018034
 40
0.515204006531663
 40
0.7778363652519784
 40
1.048535546975766
 40
1.048535546975766
 40
1.048535546975766
 40
1.048535546975766
 10
-19.12308203726571
 20
294.792712850542
 30
0.0
 10
-19.18360449102991
 20
294.8515569956114
 30
0.0
 10
-19.30674000177831
 20
294.9712779369255
 30
0.0
 10
-19.48743349917925
 20
295.1572618282652
 30
0.0
 10
-19.66883888641006
 20
295.3506050363063
 30
0.0
 10
-19.7873201002913
 20
295.4831535374086
 30
0.0
 10
-19.84745673618454
 20
295.5504302138638
 30
0.0
 11
-19.12308203726571
 21
294.792712850542
 31
0.0
 11
-19.30381539696565
 21
294.9700827287779
 31
0.0
 11
-19.48673044041437
 21
295.1576282088449
 31
0.0
 11
-19.66623045010421
 21
295.3493454549952
 31
0.0
 11
-19.84745673618454
 21
295.5504302138638
 31
0.0
  0
SPLINE
  5
B9
330
4A
100
AcDbEntity
  8
0
  6
Continuous
 62
     7
100
AcDbSpline
210
0.0
220
0.0
230
1.0
 70
     8
 71
     3
 72
    11
 73
     7
 74
     5
 42
0.000000001
 43
0.0000000001
 44
0.00000001
 40
0.0
 40
0.0
 40
0.0
 40
0.0
 40
0.5373994098884832
 40
1.069443421120906
 40
1.607942799014363
 40
2.13896765657642
 40
2.13896765657642
 40
2.13896765657642
 40
2.13896765657642
 10
-40.0
 20
295.5504302138638
 30
0.0
 10
-39.83397211191889
 20
295.4831662101678
 30
0.0
 10
-39.50357086407005
 20
295.3493085291806
 30
0.0
 10
-39.00351747066971
 20
295.1563252384786
 30
0.0
 10
-38.50324561336076
 20
294.9698968057896
 30
0.0
 10
-38.16696515839855
 20
294.851498349514
 30
0.0
 10
-38.0
 20
294.792712850542
 30
0.0
 11
-40.0
 21
295.5504302138638
 31
0.0
 11
-39.50136473285058
 21
295.3500281276437
 31
0.0
 11
-39.00516166136003
 21
295.1580558851878
 31
0.0
 11
-38.50035316920462
 21
294.970572642218
 31
0.0
 11
-38.0
 21
294.792712850542
 31
0.0
  0
SPLINE
  5
BA
330
4A
100
AcDbEntity
  8
0
  6
Continuous
 62
     7
100
AcDbSpline
210
0.0
220
0.0
230
1.0
 70
     8
 71
     3
 72
    11
 73
     7
 74
     5
 42
0.000000001
 43
0.0000000001
 44
0.00000001
 40
0.0
 40
0.0
 40
0.0
 40
0.0
 40
0.5642569841862354
 40
1.117752099907073
 40
1.680943573996691
 40
2.236567026744519
 40
2.236567026744519
 40
2.236567026744519
 40
2.236567026744519
 10
-60.15254326381552
 20
295.5504302138638
 30
0.0
 10
-59.97701923470201
 20
295.482838861239
 30
0.0
 10
-59.62931887720757
 20
295.3489453152353
 30
0.0
 10
-59.10325871887881
 20
295.1559852613827
 30
0.0
 10
-58.57779140402097
 20
294.9698532435521
 30
0.0
 10
-58.22412692845989
 20
294.8514927674738
 30
0.0
 10
-58.04849083798763
 20
294.792712850542
 30
0.0
 11
-60.15254326381552
 21
295.5504302138638
 31
0.0
 11
-59.62543447256446
 21
295.3490791114386
 31
0.0
 11
-59.10594725395293
 21
295.1580558851878
 31
0.0
 11
-58.57487762808113
 21
294.9705733816849
 31
0.0
 11
-58.04849083798763
 21
294.792712850542
 31
0.0
  0
SPLINE
  5
BB
330
4A
100
AcDbEntity
  8
0
  6
Continuous
 62
     7
100
AcDbSpline
210
0.0
220
0.0
230
1.0
 70
     8
 71
     3
 72
    11
 73
     7
 74
     5
 42
0.000000001
 43
0.0000000001
 44
0.00000001
 40
0.0
 40
0.0
 40
0.0
 40
0.0
 40
0.271273223883511
 40
0.5327401942681067
 40
0.7946573268783346
 40
1.048535542549199
 40
1.048535542549199
 40
1.048535542549199
 40
1.048535542549199
 10
-60.15254326381552
 20
295.5504302138638
 30
0.0
 10
-60.21280799831145
 20
295.48301135939
 30
0.0
 10
-60.3311589689387
 20
295.3506107840108
 30
0.0
 10
-60.51241573184123
 20
295.1574254196854
 30
0.0
 10
-60.6929661490926
 20
294.9715693025626
 30
0.0
 10
-60.81624112115252
 20
294.8517089708331
 30
0.0
 10
-60.8769179627343
 20
294.792712850542
 30
0.0
 11
-60.15254326381552
 21
295.5504302138638
 31
0.0
 11
-60.3341578597683
 21
295.3489226443702
 31
0.0
 11
-60.51286112482921
 21
295.1580558851878
 31
0.0
 11
-60.69572587485251
 21
294.9705430384983
 31
0.0
 11
-60.8769179627343
 21
294.792712850542
 31
0.0
  0
SPLINE
  5
BC
330
4A
100
AcDbEntity
  8
0
  6
Continuous
 62
     7
100
AcDbSpline
210
0.0
220
0.0
230
1.0
 70
     8
 71
     3
 72
    11
 73
     7
 74
     5
 42
0.000000001
 43
0.0000000001
 44
0.00000001
 40
0.0
 40
0.0
 40
0.0
 40
0.0
 40
0.5401144726115581
 40
1.069443422464349
 40
1.607110367596528
 40
2.13896765736486
 40
2.13896765736486
 40
2.13896765736486
 40
2.13896765736486
 10
-40.0
 20
295.5504302138638
 30
0.0
 10
-40.16686778183636
 20
295.4828289637878
 30
0.0
 10
-40.4972711754683
 20
295.3489764039372
 30
0.0
 10
-40.99707189748415
 20
295.1561095542478
 30
0.0
 10
-41.4964935928715
 20
294.9699917223653
 30
0.0
 10
-41.83277341992586
 20
294.8515914196461
 30
0.0
 10
-42.0
 20
294.792712850542
 30
0.0
 11
-40.0
 21
295.5504302138638
 31
0.0
 11
-40.50116104229484
 21
295.3490319684174
 31
0.0
 11
-40.99483833864014
 21
295.1580558851878
 31
0.0
 11
-41.49886445534777
 21
294.9708570130783
 31
0.0
 11
-42.0
 21
294.792712850542
 31
0.0
  0
SPLINE
  5
BD
330
4A
100
AcDbEntity
  8
0
  6
Continuous
 62
     7
100
AcDbSpline
210
0.0
220
0.0
230
1.0
 70
     8
 71
     3
 72
    11
 73
     7
 74
     5
 42
0.000000001
 43
0.0000000001
 44
0.00000001
 40
0.0
 40
0.0
 40
0.0
 40
0.0
 40
0.2998864799383659
 40
0.6025485779358173
 40
0.9017237172663737
 40
1.20510867884237
 40
1.20510867884237
 40
1.20510867884237
 40
1.20510867884237
 10
-60.0991005034266
 20
293.8722309515092
 30
0.0
 10
-60.16362307512605
 20
293.9485806153628
 30
0.0
 10
-60.29326539973123
 20
294.1019866118651
 30
0.0
 10
-60.48726886187991
 20
294.3315682537558
 30
0.0
 10
-60.68201958337188
 20
294.5620452079996
 30
0.0
 10
-60.81164995000173
 20
294.7154663378208
 30
0.0
 10
-60.8769179627343
 20
294.792712850542
 30
0.0
 11
-60.0991005034266
 21
293.8722309515092
 31
0.0
 11
-60.29266682787741
 21
294.1012811182599
 31
0.0
 11
-60.48801816644124
 21
294.3324568092088
 31
0.0
 11
-60.68111259637821
 21
294.5609744346143
 31
0.0
 11
-60.8769179627343
 21
294.792712850542
 31
0.0
  0
SPLINE
  5
BE
330
4A
100
AcDbEntity
  8
0
  6
Continuous
 62
     7
100
AcDbSpline
210
0.0
220
0.0
230
1.0
 70
     8
 71
     3
 72
    11
 73
     7
 74
     5
 42
0.000000001
 43
0.0000000001
 44
0.00000001
 40
0.0
 40
0.0
 40
0.0
 40
0.0
 40
0.3024286829095804
 40
0.6025600718405185
 40
0.9055648577537421
 40
1.205108678810557
 40
1.205108678810557
 40
1.205108678810557
 40
1.205108678810557
 10
-21.95150916200157
 20
294.7927128504911
 30
0.0
 10
-22.01657144642163
 20
294.7157098198342
 30
0.0
 10
-22.14620180374828
 20
294.5622886948369
 30
0.0
 10
-22.34102623562013
 20
294.3317244886534
 30
0.0
 10
-22.53523544227383
 20
294.1018993783949
 30
0.0
 10
-22.66487777434739
 20
293.948493375533
 30
0.0
 10
-22.72932662132019
 20
293.8722309515092
 30
0.0
 11
-21.95150916200157
 21
294.7927128504911
 31
0.0
 11
-22.14669733421355
 21
294.5617048729773
 31
0.0
 11
-22.34040893956638
 21
294.332456831386
 31
0.0
 11
-22.53598146756993
 21
294.10101939583
 31
0.0
 11
-22.72932662132019
 21
293.8722309515092
 31
0.0
  0
SPLINE
  5
BF
330
4A
100
AcDbEntity
  8
0
  6
Continuous
 62
     7
100
AcDbSpline
210
0.0
220
0.0
230
1.0
 70
     8
 71
     3
 72
    11
 73
     7
 74
     5
 42
0.000000001
 43
0.0000000001
 44
0.00000001
 40
0.0
 40
0.0
 40
0.0
 40
0.0
 40
0.299428791946421
 40
0.6025485779333093
 40
0.9027839839227906
 40
1.20510867883991
 40
1.20510867883991
 40
1.20510867883991
 40
1.20510867883991
 10
-57.27067337868374
 20
293.8722309515092
 30
0.0
 10
-57.33509747658585
 20
293.9484640894958
 30
0.0
 10
-57.46473980282782
 20
294.1018700846137
 30
0.0
 10
-57.65897138341307
 20
294.3317216695422
 30
0.0
 10
-57.8538205617343
 20
294.5623151639907
 30
0.0
 10
-57.98345092495935
 20
294.7157362966884
 30
0.0
 10
-58.04849083798763
 20
294.792712850542
 30
0.0
 11
-57.27067337868374
 21
293.8722309515092
 31
0.0
 11
-57.46394428637819
 21
294.1009315367414
 31
0.0
 11
-57.6595910416945
 21
294.3324568092088
 31
0.0
 11
-57.85336978094711
 21
294.5617843025965
 31
0.0
 11
-58.04849083798763
 21
294.792712850542
 31
0.0
  0
SPLINE
  5
C0
330
4A
100
AcDbEntity
  8
0
  6
Continuous
 62
     7
100
AcDbSpline
210
0.0
220
0.0
230
1.0
 70
     8
 71
     3
 72
    11
 73
     7
 74
     5
 42
0.000000001
 43
0.0000000001
 44
0.00000001
 40
0.0
 40
0.0
 40
0.0
 40
0.0
 40
0.3023613649076884
 40
0.6025600718723301
 40
0.9059830063446566
 40
1.205108678842369
 40
1.205108678842369
 40
1.205108678842369
 40
1.205108678842369
 10
-19.12308203726571
 20
294.792712850542
 30
0.0
 10
-19.1881298392718
 20
294.7157269599957
 30
0.0
 10
-19.31776019638068
 20
294.5623058348006
 30
0.0
 10
-19.51267458850992
 20
294.3316351639057
 30
0.0
 10
-19.70689828267905
 20
294.1017929178333
 30
0.0
 10
-19.83654061628201
 20
293.9483869162638
 30
0.0
 10
-19.90089949657341
 20
293.8722309515092
 30
0.0
 11
-19.12308203726571
 21
294.792712850542
 31
0.0
 11
-19.31822676157439
 21
294.5617562928014
 31
0.0
 11
-19.5119818148196
 21
294.332456831386
 31
0.0
 11
-19.70782423868513
 21
294.1007000144886
 31
0.0
 11
-19.90089949657341
 21
293.8722309515092
 31
0.0
  0
SPLINE
  5
C1
330
4A
100
AcDbEntity
  8
0
  6
Continuous
 62
     7
100
AcDbSpline
210
0.0
220
0.0
230
1.0
 70
     8
 71
     3
 72
    11
 73
     7
 74
     5
 42
0.000000001
 43
0.0000000001
 44
0.00000001
 40
0.0
 40
0.0
 40
0.0
 40
0.0
 40
0.3572711679014265
 40
0.7171622810817672
 40
1.074171569536141
 40
1.434324554759808
 40
1.434324554759808
 40
1.434324554759808
 40
1.434324554759808
 10
-66.42442052344632
 20
293.8722309515092
 30
0.0
 10
-66.51575595902531
 20
293.9486531932551
 30
0.0
 10
-66.69909660266418
 20
294.1020581087908
 30
0.0
 10
-66.9736973518351
 20
294.3318392651114
 30
0.0
 10
-67.24902938535232
 20
294.562243364314
 30
0.0
 10
-67.43235560910492
 20
294.7156655081658
 30
0.0
 10
-67.5244205234485
 20
294.792712850542
 30
0.0
 11
-66.42442052344632
 21
293.8722309515092
 31
0.0
 11
-66.6984254390668
 21
294.1014993392768
 31
0.0
 11
-66.97443315712741
 21
294.3324568092088
 31
0.0
 11
-67.24822446195324
 21
294.5615723989112
 31
0.0
 11
-67.5244205234485
 21
294.792712850542
 31
0.0
  0
SPLINE
  5
C2
330
4A
100
AcDbEntity
  8
0
  6
Continuous
 62
     7
100
AcDbSpline
210
0.0
220
0.0
230
1.0
 70
     8
 71
     3
 72
    11
 73
     7
 74
     5
 42
0.000000001
 43
0.0000000001
 44
0.00000001
 40
0.0
 40
0.0
 40
0.0
 40
0.0
 40
0.3565221488583502
 40
0.7171622810816309
 40
1.074239850857127
 40
1.434324554759808
 40
1.434324554759808
 40
1.434324554759808
 40
1.434324554759808
 10
-13.57557947655369
 20
293.8722309515092
 30
0.0
 10
-13.4844355245749
 20
293.9484929726418
 30
0.0
 10
-13.30109487863471
 20
294.1018978854267
 30
0.0
 10
-13.02647666773731
 20
294.3316936405781
 30
0.0
 10
-12.75095315983849
 20
294.5622579714107
 30
0.0
 10
-12.56762693624738
 20
294.7156801154556
 30
0.0
 10
-12.47557947655151
 20
294.792712850542
 30
0.0
 11
-13.57557947655369
 21
293.8722309515092
 31
0.0
 11
-13.30214900543939
 21
294.101018669914
 31
0.0
 11
-13.02556684287277
 21
294.3324568092088
 31
0.0
 11
-12.75172317352014
 21
294.5616162200835
 31
0.0
 11
-12.47557947655151
 21
294.792712850542
 31
0.0
  0
SPLINE
  5
C3
330
4A
100
AcDbEntity
  8
0
  6
Continuous
 62
     7
100
AcDbSpline
210
0.0
220
0.0
230
1.0
 70
     8
 71
     3
 72
    11
 73
     7
 74
     5
 42
0.000000001
 43
0.0000000001
 44
0.00000001
 40
0.0
 40
0.0
 40
0.0
 40
0.0
 40
0.5543188591686303
 40
1.117553862962418
 40
1.67397912216657
 40
2.23656702880274
 40
2.23656702880274
 40
2.23656702880274
 40
2.23656702880274
 10
-21.95150916200157
 20
294.7927128504911
 30
0.0
 10
-21.77628497168667
 20
294.8513532455548
 30
0.0
 10
-21.4230181382567
 20
294.9695772728614
 30
0.0
 10
-20.89702046283365
 20
295.155878279533
 30
0.0
 10
-20.37055247294949
 20
295.3489898733634
 30
0.0
 10
-20.02246098501594
 20
295.4830373528642
 30
0.0
 10
-19.84745673618454
 20
295.5504302138638
 30
0.0
 11
-21.95150916200157
 21
294.7927128504911
 31
0.0
 11
-21.42635548476757
 21
294.9701473820714
 31
0.0
 11
-20.89523910463322
 21
295.1576282088449
 31
0.0
 11
-20.37300263031875
 21
295.3496650129186
 31
0.0
 11
-19.84745673618454
 21
295.5504302138638
 31
0.0
  0
SPLINE
  5
C4
330
4A
100
AcDbEntity
  8
0
  6
Continuous
 62
     7
100
AcDbSpline
210
0.0
220
0.0
230
1.0
 70
     8
 71
     3
 72
    11
 73
     7
 74
     5
 42
0.000000001
 43
0.0000000001
 44
0.00000001
 40
0.0
 40
0.0
 40
0.0
 40
0.0
 40
0.3152989234476724
 40
0.6240834980412022
 40
0.9336077907776706
 40
1.235572026219473
 40
1.235572026219473
 40
1.235572026219473
 40
1.235572026219473
 10
-11.50000000001819
 20
295.5504302138274
 30
0.0
 10
-11.58084947026151
 20
295.4832734985972
 30
0.0
 10
-11.74087800013444
 20
295.3503475955691
 30
0.0
 10
-11.98493004879695
 20
295.1572169688434
 30
0.0
 10
-12.22869059947578
 20
294.9709381188088
 30
0.0
 10
-12.39396429439333
 20
294.8516295842039
 30
0.0
 10
-12.47557947655151
 20
294.792712850542
 30
0.0
 11
-11.50000000001819
 21
295.5504302138274
 31
0.0
 11
-11.74334262767984
 21
295.3499363816777
 31
0.0
 11
-11.98527193283371
 21
295.1580558851878
 31
0.0
 11
-12.23153952180428
 21
294.9705523850842
 31
0.0
 11
-12.47557947655151
 21
294.792712850542
 31
0.0
  0
ENDBLK
  5
4C
330
4A
100
AcDbEntity
  8
0
100
AcDbBlockEnd
  0
BLOCK
  5
4E
330
4D
100
AcDbEntity
  8
0
100
AcDbBlockBegin
  2
HL_100_Krümmer
 70
     0
 10
6.95934990370168
 20
50.37679491924305
 30
0.0
  3
HL_100_Krümmer
  1

  0
LINE
  5
C5
330
4D
100
AcDbEntity
  8
1
  6
Continuous
 62
     7
100
AcDbLine
 10
-62.19999999999999
 20
98.49999999999989
 30
0.0
 11
-17.80000000000007
 21
98.49999999999989
 31
0.0
  0
LINE
  5
C6
330
4D
100
AcDbEntity
  8
1
  6
Continuous
 62
     7
100
AcDbLine
 10
-63.60000000000008
 20
99.59999999999991
 30
0.0
 11
-16.40000000000009
 21
99.59999999999991
 31
0.0
  0
LINE
  5
C7
330
4D
100
AcDbEntity
  8
1
  6
Continuous
 62
     7
100
AcDbLine
 10
-63.60000000000008
 20
99.59999999999991
 30
0.0
 11
-63.60000000000008
 21
100.7535898384861
 31
0.0
  0
LINE
  5
C8
330
4D
100
AcDbEntity
  8
1
  6
Continuous
 62
     7
100
AcDbLine
 10
-62.19999999999999
 20
98.49999999999989
 30
0.0
 11
-62.50000000000011
 21
98.49999999999989
 31
0.0
  0
LINE
  5
C9
330
4D
100
AcDbEntity
  8
1
  6
Continuous
 62
     2
100
AcDbLine
 10
-17.5
 20
98.49999999999989
 30
0.0
 11
-17.5
 21
100.7535898384861
 31
0.0
  0
LINE
  5
CA
330
4D
100
AcDbEntity
  8
1
  6
Continuous
 62
     7
100
AcDbLine
 10
-17.5
 20
98.49999999999989
 30
0.0
 11
-17.80000000000007
 21
98.49999999999989
 31
0.0
  0
LINE
  5
CB
330
4D
100
AcDbEntity
  8
1
  6
Continuous
 62
     7
100
AcDbLine
 10
-17.5
 20
98.49999999999989
 30
0.0
 11
-16.40000000000009
 21
99.59999999999991
 31
0.0
  0
LINE
  5
CC
330
4D
100
AcDbEntity
  8
1
  6
Continuous
 62
     7
100
AcDbLine
 10
-62.50000000000011
 20
98.49999999999989
 30
0.0
 11
-63.60000000000008
 21
99.59999999999991
 31
0.0
  0
LINE
  5
CD
330
4D
100
AcDbEntity
  8
1
  6
Continuous
 62
     2
100
AcDbLine
 10
-62.50000000000011
 20
100.7535898384861
 30
0.0
 11
-62.50000000000011
 21
98.49999999999989
 31
0.0
  0
LINE
  5
CE
330
4D
100
AcDbEntity
  8
1
  6
Continuous
 62
     7
100
AcDbLine
 10
-16.40000000000009
 20
100.7535898384861
 30
0.0
 11
-16.40000000000009
 21
99.59999999999991
 31
0.0
  0
LINE
  5
CF
330
4D
100
AcDbEntity
  8
1
  6
Continuous
 62
     7
100
AcDbLine
 10
-37.10000000000207
 20
94.25
 30
0.0
 11
-37.10000000000207
 21
89.25
 31
0.0
  0
LINE
  5
D0
330
4D
100
AcDbEntity
  8
1
  6
Continuous
 62
     7
100
AcDbLine
 10
-44.90000000000128
 20
94.25
 30
0.0
 11
-44.90000000000128
 21
92.35000000000218
 31
0.0
  0
LINE
  5
D1
330
4D
100
AcDbEntity
  8
1
  6
Continuous
 62
     7
100
AcDbLine
 10
-40.40000000000128
 20
94.25
 30
0.0
 11
-40.40000000000128
 21
87.75
 31
0.0
  0
LINE
  5
D2
330
4D
100
AcDbEntity
  8
1
  6
Continuous
 62
     7
100
AcDbLine
 10
-41.90000000000128
 20
87.75
 30
0.0
 11
-41.90000000000128
 21
89.65000000000151
 31
0.0
  0
LINE
  5
D3
330
4D
100
AcDbEntity
  8
1
  6
Continuous
 62
     7
100
AcDbLine
 10
-46.40000000000128
 20
87.75
 30
0.0
 11
-46.40000000000128
 21
94.25
 31
0.0
  0
LINE
  5
D4
330
4D
100
AcDbEntity
  8
1
  6
Continuous
 62
     7
100
AcDbLine
 10
-33.85000000000207
 20
88.5
 30
0.0
 11
-36.35000000000207
 21
88.5
 31
0.0
  0
LINE
  5
D5
330
4D
100
AcDbEntity
  8
1
  6
Continuous
 62
     7
100
AcDbLine
 10
-37.85000000000207
 20
87.0
 30
0.0
 11
-33.85000000000207
 21
87.0
 31
0.0
  0
LINE
  5
D6
330
4D
100
AcDbEntity
  8
1
  6
Continuous
 62
     7
100
AcDbLine
 10
-38.60000000000207
 20
87.75
 30
0.0
 11
-38.60000000000207
 21
89.0
 31
0.0
  0
LINE
  5
D7
330
4D
100
AcDbEntity
  8
1
  6
Continuous
 62
     7
100
AcDbLine
 10
-38.60000000000207
 20
89.0
 30
0.0
 11
-38.60000000000207
 21
94.25
 31
0.0
  0
LINE
  5
D8
330
4D
100
AcDbEntity
  8
1
  6
Continuous
 62
     7
100
AcDbLine
 10
-44.90000000000128
 20
89.65000000000151
 30
0.0
 11
-44.90000000000128
 21
87.75
 31
0.0
  0
LINE
  5
D9
330
4D
100
AcDbEntity
  8
1
  6
Continuous
 62
     7
100
AcDbLine
 10
-42.65000000000128
 20
90.40000000000151
 30
0.0
 11
-44.15000000000128
 21
90.40000000000151
 31
0.0
  0
LINE
  5
DA
330
4D
100
AcDbEntity
  8
1
  6
Continuous
 62
     7
100
AcDbLine
 10
-41.90000000000128
 20
92.35000000000218
 30
0.0
 11
-41.90000000000128
 21
94.25
 31
0.0
  0
LINE
  5
DB
330
4D
100
AcDbEntity
  8
1
  6
Continuous
 62
     7
100
AcDbLine
 10
-44.15000000000128
 20
91.60000000000218
 30
0.0
 11
-42.65000000000128
 21
91.60000000000218
 31
0.0
  0
LINE
  5
DC
330
4D
100
AcDbEntity
  8
1
  6
PHANTOM
 62
     2
100
AcDbLine
 10
-40.0
 20
96.753589838486
 30
0.0
 11
-40.0
 21
39.92675518504751
 31
0.0
  0
LINE
  5
DD
330
4D
100
AcDbEntity
  8
1
  6
Continuous
 62
     7
100
AcDbLine
 10
22.14280978591989
 20
53.79121734463706
 30
0.0
 11
63.82555252344412
 21
35.4339485857966
 31
0.0
  0
LINE
  5
DE
330
4D
100
AcDbEntity
  8
1
  6
Continuous
 62
     7
100
AcDbLine
 10
-62.2000000000001
 20
32.93654060538819
 30
0.0
 11
-17.79999999999995
 21
50.06436792121588
 31
0.0
  0
LINE
  5
DF
330
4D
100
AcDbEntity
  8
1
  6
Continuous
 62
     7
100
AcDbLine
 10
-17.80000000000007
 20
98.49999999999989
 30
0.0
 11
-17.79999999999995
 21
50.06436792121588
 31
0.0
  0
LINE
  5
E0
330
4D
100
AcDbEntity
  8
1
  6
Continuous
 62
     7
100
AcDbLine
 10
-62.19999999999999
 20
98.49999999999989
 30
0.0
 11
-62.2000000000001
 21
32.93654060538819
 31
0.0
  0
ARC
  5
E1
330
4D
100
AcDbEntity
  8
1
  6
PHANTOM
 62
     2
100
AcDbCircle
 10
0.0
 20
75.19999999999999
 30
0.0
 40
53.00000000000007
100
AcDbArc
 50
220.1137572282769
 51
342.4087306985469
  0
ARC
  5
E2
330
4D
100
AcDbEntity
  8
1
  6
Continuous
 62
     7
100
AcDbCircle
 10
49.89079430382856
 20
60.29501278990608
 30
0.0
 40
28.49999999999995
100
AcDbArc
 50
299.2708613933634
 51
345.7894566855207
  0
ARC
  5
E3
330
4D
100
AcDbEntity
  8
1
  6
Continuous
 62
     7
100
AcDbCircle
 10
0.0
 20
75.19999999999999
 30
0.0
 40
75.20000000000009
100
AcDbArc
 50
214.195200079988
 51
270.0
  0
ARC
  5
E4
330
4D
100
AcDbEntity
  8
1
  6
Continuous
 62
     7
100
AcDbCircle
 10
49.89079430382856
 20
60.29501278990608
 30
0.0
 40
28.49999999999987
100
AcDbArc
 50
184.2105433144798
 51
193.1913184341608
  0
ARC
  5
E5
330
4D
100
AcDbEntity
  8
1
  6
Continuous
 62
     7
100
AcDbCircle
 10
0.0
 20
75.19999999999999
 30
0.0
 40
30.79999999999998
100
AcDbArc
 50
234.6954750044147
 51
315.9655829486391
  0
ARC
  5
E6
330
4D
100
AcDbEntity
  8
1
  6
Continuous
 62
     7
100
AcDbCircle
 10
0.0
 20
75.19999999999999
 30
0.0
 40
75.19999999999999
100
AcDbArc
 50
270.0
 51
328.0753269346671
  0
ARC
  5
E7
330
4D
100
AcDbEntity
  8
1
  6
Continuous
 62
     7
100
AcDbCircle
 10
-45.65000000000128
 20
87.75
 30
0.0
 40
0.75
100
AcDbArc
 50
180.0
 51
270.0
  0
ARC
  5
E8
330
4D
100
AcDbEntity
  8
1
  6
Continuous
 62
     7
100
AcDbCircle
 10
-45.65000000000128
 20
87.75
 30
0.0
 40
0.75
100
AcDbArc
 50
270.0
 51
0.0
  0
ARC
  5
E9
330
4D
100
AcDbEntity
  8
1
  6
Continuous
 62
     7
100
AcDbCircle
 10
-41.15000000000128
 20
87.75
 30
0.0
 40
0.75
100
AcDbArc
 50
180.0
 51
270.0
  0
ARC
  5
EA
330
4D
100
AcDbEntity
  8
1
  6
Continuous
 62
     7
100
AcDbCircle
 10
-41.15000000000128
 20
87.75
 30
0.0
 40
0.75
100
AcDbArc
 50
270.0
 51
0.0
  0
ARC
  5
EB
330
4D
100
AcDbEntity
  8
1
  6
Continuous
 62
     7
100
AcDbCircle
 10
-41.15000000000128
 20
94.25
 30
0.0
 40
0.75
100
AcDbArc
 50
0.0
 51
90.0
  0
ARC
  5
EC
330
4D
100
AcDbEntity
  8
1
  6
Continuous
 62
     7
100
AcDbCircle
 10
-41.15000000000128
 20
94.25
 30
0.0
 40
0.75
100
AcDbArc
 50
90.0
 51
180.0
  0
ARC
  5
ED
330
4D
100
AcDbEntity
  8
1
  6
Continuous
 62
     7
100
AcDbCircle
 10
-45.65000000000128
 20
94.25
 30
0.0
 40
0.75
100
AcDbArc
 50
0.0
 51
90.0
  0
ARC
  5
EE
330
4D
100
AcDbEntity
  8
1
  6
Continuous
 62
     7
100
AcDbCircle
 10
-45.65000000000128
 20
94.25
 30
0.0
 40
0.75
100
AcDbArc
 50
90.0
 51
180.0
  0
ARC
  5
EF
330
4D
100
AcDbEntity
  8
1
  6
Continuous
 62
     7
100
AcDbCircle
 10
-37.85000000000207
 20
87.75
 30
0.0
 40
0.75
100
AcDbArc
 50
180.0
 51
270.0
  0
ARC
  5
F0
330
4D
100
AcDbEntity
  8
1
  6
Continuous
 62
     7
100
AcDbCircle
 10
-37.85000000000207
 20
94.25
 30
0.0
 40
0.75
100
AcDbArc
 50
90.0
 51
180.0
  0
ARC
  5
F1
330
4D
100
AcDbEntity
  8
1
  6
Continuous
 62
     7
100
AcDbCircle
 10
-37.85000000000207
 20
94.25
 30
0.0
 40
0.75
100
AcDbArc
 50
0.0
 51
90.0
  0
ARC
  5
F2
330
4D
100
AcDbEntity
  8
1
  6
Continuous
 62
     7
100
AcDbCircle
 10
-33.85000000000207
 20
87.75
 30
0.0
 40
0.75
100
AcDbArc
 50
0.0
 51
90.0
  0
ARC
  5
F3
330
4D
100
AcDbEntity
  8
1
  6
Continuous
 62
     7
100
AcDbCircle
 10
-33.85000000000207
 20
87.75
 30
0.0
 40
0.75
100
AcDbArc
 50
270.0
 51
0.0
  0
ARC
  5
F4
330
4D
100
AcDbEntity
  8
1
  6
Continuous
 62
     7
100
AcDbCircle
 10
-44.15000000000128
 20
92.35000000000218
 30
0.0
 40
0.75
100
AcDbArc
 50
180.0
 51
270.0
  0
ARC
  5
F5
330
4D
100
AcDbEntity
  8
1
  6
Continuous
 62
     7
100
AcDbCircle
 10
-44.15000000000128
 20
89.65000000000151
 30
0.0
 40
0.75
100
AcDbArc
 50
90.0
 51
180.0
  0
ARC
  5
F6
330
4D
100
AcDbEntity
  8
1
  6
Continuous
 62
     7
100
AcDbCircle
 10
-42.65000000000128
 20
89.65000000000151
 30
0.0
 40
0.75
100
AcDbArc
 50
0.0
 51
90.0
  0
ARC
  5
F7
330
4D
100
AcDbEntity
  8
1
  6
Continuous
 62
     7
100
AcDbCircle
 10
-42.65000000000128
 20
92.35000000000218
 30
0.0
 40
0.75
100
AcDbArc
 50
270.0
 51
0.0
  0
ARC
  5
F8
330
4D
100
AcDbEntity
  8
1
  6
Continuous
 62
     7
100
AcDbCircle
 10
-36.35000000000207
 20
89.25
 30
0.0
 40
0.75
100
AcDbArc
 50
180.0
 51
270.0
  0
ENDBLK
  5
4F
330
4D
100
AcDbEntity
  8
0
100
AcDbBlockEnd
  0
BLOCK
  5
51
330
50
100
AcDbEntity
  8
0
100
AcDbBlockBegin
  2
HL_100_Abgangsbogen_DN40
 70
     0
 10
150.8519883772391
 20
110.5453363206091
 30
0.0
  3
HL_100_Abgangsbogen_DN40
  1

  0
LINE
  5
F9
330
50
100
AcDbEntity
  8
1
  6
PHANTOM
 62
     2
100
AcDbLine
 10
45.46563074103904
 20
129.9950127899061
 30
0.0
 11
272.8463748214178
 21
129.9950127899061
 31
0.0
  0
LINE
  5
FA
330
50
100
AcDbEntity
  8
1
  6
PHANTOM
 62
     2
100
AcDbLine
 10
49.92152791795002
 20
71.09565985131212
 30
0.0
 11
49.92152791795002
 21
135.4568262139055
 31
0.0
  0
LINE
  5
FB
330
50
100
AcDbEntity
  8
1
  6
Continuous
 62
     7
100
AcDbLine
 10
70.3215279179501
 20
109.9950127899061
 30
0.0
 11
55.92412982011581
 21
124.3924108877404
 31
0.0
  0
LINE
  5
FC
330
50
100
AcDbEntity
  8
1
  6
Continuous
 62
     7
100
AcDbLine
 10
29.52152791794992
 20
78.45086545385277
 30
0.0
 11
70.3215279179501
 21
78.45086545385277
 31
0.0
  0
LINE
  5
FD
330
50
100
AcDbEntity
  8
1
  6
Continuous
 62
     7
100
AcDbLine
 10
266.42152791795
 20
109.9950127899061
 30
0.0
 11
266.42152791795
 21
149.9950127899061
 31
0.0
  0
LINE
  5
FE
330
50
100
AcDbEntity
  8
1
  6
Continuous
 62
     7
100
AcDbLine
 10
266.42152791795
 20
149.9950127899061
 30
0.0
 11
269.92152791795
 21
149.0571906163972
 31
0.0
  0
LINE
  5
FF
330
50
100
AcDbEntity
  8
1
  6
Continuous
 62
     7
100
AcDbLine
 10
266.42152791795
 20
109.9950127899061
 30
0.0
 11
269.92152791795
 21
110.932834963415
 31
0.0
  0
LINE
  5
100
330
50
100
AcDbEntity
  8
1
  6
Continuous
 62
     7
100
AcDbLine
 10
269.92152791795
 20
149.0571906163972
 30
0.0
 11
269.92152791795
 21
110.932834963415
 31
0.0
  0
LINE
  5
101
330
50
100
AcDbEntity
  8
1
  6
Continuous
 62
     7
100
AcDbLine
 10
69.52152791795015
 20
149.9950127899061
 30
0.0
 11
266.42152791795
 21
149.9950127899061
 31
0.0
  0
LINE
  5
102
330
50
100
AcDbEntity
  8
1
  6
Continuous
 62
     7
100
AcDbLine
 10
71.8215279179501
 20
109.9950127899061
 30
0.0
 11
266.42152791795
 21
109.9950127899061
 31
0.0
  0
LINE
  5
103
330
50
100
AcDbEntity
  8
1
  6
Continuous
 62
     7
100
AcDbLine
 10
70.3215279179501
 20
78.45086545385277
 30
0.0
 11
70.3215279179501
 21
108.4950127899061
 31
0.0
  0
LINE
  5
104
330
50
100
AcDbEntity
  8
1
  6
Continuous
 62
     7
100
AcDbLine
 10
29.52152791794992
 20
78.45086545385277
 30
0.0
 11
29.52152791794992
 21
109.9950127899061
 31
0.0
  0
ARC
  5
105
330
50
100
AcDbEntity
  8
1
  6
Continuous
 62
     7
100
AcDbCircle
 10
49.92152791795002
 20
61.22501278990608
 30
0.0
 40
26.70000000000006
100
AcDbArc
 50
139.8221006672466
 51
142.0838668826735
  0
ARC
  5
106
330
50
100
AcDbEntity
  8
1
  6
Continuous
 62
     7
100
AcDbCircle
 10
49.92152791795002
 20
61.22501278990608
 30
0.0
 40
26.70000000000004
100
AcDbArc
 50
27.91613311732661
 51
40.17789933275343
  0
ARC
  5
107
330
50
100
AcDbEntity
  8
1
  6
Continuous
 62
     7
100
AcDbCircle
 10
71.8215279179501
 20
108.4950127899061
 30
0.0
 40
1.5
100
AcDbArc
 50
90.0
 51
180.0
  0
ARC
  5
108
330
50
100
AcDbEntity
  8
1
  6
Continuous
 62
     7
100
AcDbCircle
 10
69.52152791795015
 20
109.9950127899061
 30
0.0
 40
40.0
100
AcDbArc
 50
90.0
 51
180.0
  0
ENDBLK
  5
52
330
50
100
AcDbEntity
  8
0
100
AcDbBlockEnd
  0
BLOCK
  5
58
330
53
100
AcDbEntity
  8
0
100
AcDbBlockBegin
  2
HL_100_40_Röhrensifon
 70
     0
 10
70.57667393817593
 20
183.2829583617785
 30
0.0
  3
HL_100_40_Röhrensifon
  1

  0
INSERT
  5
54
330
53
100
AcDbEntity
  8
1
100
AcDbBlockReference
  2
Hl_13_Tauchrohr
 10
-53.63172961237183
 20
179.0504302138638
 30
0.0
  0
INSERT
  5
55
330
53
100
AcDbEntity
  8
0
100
AcDbBlockReference
  2
Holländermutter_6_4__1
 10
-40.00000000000918
 20
304.0504302138638
 30
0.0
  0
INSERT
  5
56
330
53
100
AcDbEntity
  8
1
100
AcDbBlockReference
  2
HL_100_Krümmer
 10
6.95934990370168
 20
50.37679491924305
 30
0.0
  0
INSERT
  5
57
330
53
100
AcDbEntity
  8
1
100
AcDbBlockReference
  2
HL_100_Abgangsbogen_DN40
 10
150.8519883772391
 20
110.5453363206091
 30
0.0
  0
DIMENSION
  5
114
330
53
100
AcDbEntity
  8
1
100
AcDbDimension
  2
*D13
 10
110.925671656896
 20
129.9950127899061
 30
0.0
 11
105.425671656896
 21
60.25174016339459
 31
0.0
 70
    32
  1
<>
 71
     5
 42
-1.0
 53
90.0
  3
ME10_DIM_10
100
AcDbAlignedDimension
 13
0.0
 23
0.0
 33
0.0
 14
45.46563074103904
 24
129.9950127899061
 34
0.0
 50
90.0
100
AcDbRotatedDimension
  0
DIMENSION
  5
11F
330
53
100
AcDbEntity
  8
1
100
AcDbDimension
  2
*D14
 10
301.591706522749
 20
129.9950127899061
 30
0.0
 11
296.091706522749
 21
223.520412407189
 31
0.0
 70
    32
  1
30-205
 71
     5
 42
-1.0
 53
90.0
  3
ME10_DIM_11
100
AcDbAlignedDimension
 13
-9.03263610886643
 23
302.0504302138638
 33
0.0
 14
272.8463748214178
 24
129.9950127899061
 34
0.0
 50
90.0
100
AcDbRotatedDimension
  0
DIMENSION
  5
12B
330
53
100
AcDbEntity
  8
1
100
AcDbDimension
  2
*D15
 10
285.700175239374
 20
109.9950127899061
 30
0.0
 11
280.200175239374
 21
167.25053590882
 31
0.0
 70
    32
  1
DN40
 71
     5
 42
-1.0
 53
90.0
  3
ME10_DIM_12
100
AcDbAlignedDimension
 13
266.42152791795
 23
149.9950127899061
 33
0.0
 14
266.42152791795
 24
109.9950127899061
 34
0.0
 50
90.0
100
AcDbRotatedDimension
  0
DIMENSION
  5
137
330
53
100
AcDbEntity
  8
1
100
AcDbDimension
  2
*D16
 10
-40.00000000000001
 20
357.565916723557
 30
0.0
 11
112.3167999666119
 21
363.065916723557
 31
0.0
 70
    32
  1
<>
 71
     5
 42
-1.0
 53
0.00013888888889
  3
ME10_DIM_13
100
AcDbAlignedDimension
 13
269.92152791795
 23
149.0571906163972
 33
0.0
 14
-40.0
 24
308.0504302138638
 34
0.0
100
AcDbRotatedDimension
  0
DIMENSION
  5
143
330
53
100
AcDbEntity
  8
1
100
AcDbDimension
  2
*D17
 10
-40.0
 20
343.063576966535
 30
0.0
 11
0.52793100623489
 21
348.563576966535
 31
0.0
 70
    32
  1
<>
 71
     5
 42
-1.0
 53
0.00013888888889
  3
ME10_DIM_14
100
AcDbAlignedDimension
 13
49.92152791795002
 23
135.4568262139055
 33
0.0
 14
-40.0
 24
308.0504302138638
 34
0.0
100
AcDbRotatedDimension
  0
DIMENSION
  5
14F
330
53
100
AcDbEntity
  8
1
100
AcDbDimension
  2
*D18
 10
-15.99999999999999
 20
323.5504302138638
 30
0.0
 11
-0.36731127616326
 21
329.0504302138638
 31
0.0
 70
    32
  1
6/4"
 71
     5
 42
-1.0
 53
0.00013888888889
  3
ME10_DIM_15
100
AcDbAlignedDimension
 13
-64.0
 23
313.5504302138638
 33
0.0
 14
-16.0
 24
313.5504302138638
 34
0.0
100
AcDbRotatedDimension
  0
DIMENSION
  5
15B
330
53
100
AcDbEntity
  8
1
100
AcDbDimension
  2
*D19
 10
-20.0
 20
133.062986056066
 30
0.0
 11
-98.83092424852498
 21
138.562986056066
 31
0.0
 70
    32
  1
DN40
 71
     5
 42
-1.0
 53
0.00013888888889
  3
ME10_DIM_16
100
AcDbAlignedDimension
 13
-60.0
 23
117.7535898384861
 33
0.0
 14
-20.0
 24
117.7535898384861
 34
0.0
100
AcDbRotatedDimension
  0
ENDBLK
  5
59
330
53
100
AcDbEntity
  8
0
100
AcDbBlockEnd
  0
BLOCK
  5
5B
330
5A
100
AcDbEntity
  8
0
100
AcDbBlockBegin
  2
Holländermutter_2_
 70
     0
 10
49.62394165668826
 20
65.49939528025601
 30
0.0
  3
Holländermutter_2_
  1

  0
LINE
  5
15C
330
5A
100
AcDbEntity
  8
0
  6
Continuous
 62
     7
100
AcDbLine
 10
28.7486814599846
 20
72.12087957939269
 30
0.0
 11
24.90663180737192
 21
72.45701536870007
 31
0.0
  0
LINE
  5
15D
330
5A
100
AcDbEntity
  8
0
  6
Continuous
 62
     7
100
AcDbLine
 10
82.86433046657316
 20
66.58331790193
 30
0.0
 11
81.93176401917322
 21
55.92403463234831
 31
0.0
  0
LINE
  5
15E
330
5A
100
AcDbEntity
  8
0
  6
Continuous
 62
     7
100
AcDbLine
 10
82.72524111629173
 20
66.5954866432968
 30
0.0
 11
81.79267466889178
 21
55.9362033737151
 31
0.0
  0
LINE
  5
15F
330
5A
100
AcDbEntity
  8
0
  6
Continuous
 62
     7
100
AcDbLine
 10
82.86433046657316
 20
66.58331790193
 30
0.0
 11
82.72524111629173
 21
66.5954866432968
 31
0.0
  0
LINE
  5
160
330
5A
100
AcDbEntity
  8
0
  6
Continuous
 62
     7
100
AcDbLine
 10
82.13709930229788
 20
67.4499982546015
 30
0.0
 11
82.86433046657316
 21
66.58331790193
 31
0.0
  0
LINE
  5
161
330
5A
100
AcDbEntity
  8
0
  6
Continuous
 62
     7
100
AcDbLine
 10
80.12596914218057
 20
73.14695845097526
 30
0.0
 11
22.34667665285929
 21
78.2019915303394
 31
0.0
  0
LINE
  5
162
330
5A
100
AcDbEntity
  8
0
  6
Continuous
 62
     7
100
AcDbLine
 10
81.79267466889178
 20
55.9362033737151
 30
0.0
 11
81.93176401917322
 21
55.92403463234831
 31
0.0
  0
LINE
  5
163
330
5A
100
AcDbEntity
  8
0
  6
Continuous
 62
     7
100
AcDbLine
 10
80.99217055411668
 20
56.00623840886379
 30
0.0
 11
81.79267466889178
 21
55.9362033737151
 31
0.0
  0
LINE
  5
164
330
5A
100
AcDbEntity
  8
0
  6
Continuous
 62
     7
100
AcDbLine
 10
15.62258830744747
 20
58.71387628224289
 30
0.0
 11
83.36382777768608
 21
52.7872857754021
 31
0.0
  0
LINE
  5
165
330
5A
100
AcDbEntity
  8
0
  6
Continuous
 62
     7
100
AcDbLine
 10
15.88405553569044
 20
61.70246037651799
 30
0.0
 11
15.62258830744747
 21
58.71387628224289
 31
0.0
  0
LINE
  5
166
330
5A
100
AcDbEntity
  8
0
  6
Continuous
 62
     7
100
AcDbLine
 10
21.60352605935361
 20
71.94294380604072
 30
0.0
 11
20.67095961195366
 21
61.28366053645897
 31
0.0
  0
LINE
  5
167
330
5A
100
AcDbEntity
  8
0
  6
Continuous
 62
     7
100
AcDbLine
 10
28.7486814599846
 20
72.12087957939269
 30
0.0
 11
27.7463904183835
 21
60.66464055133417
 31
0.0
  0
LINE
  5
168
330
5A
100
AcDbEntity
  8
0
  6
Continuous
 62
     7
100
AcDbLine
 10
22.42547846311447
 20
72.67408815878838
 30
0.0
 11
21.42318742151633
 21
61.21784913073327
 31
0.0
  0
LINE
  5
169
330
5A
100
AcDbEntity
  8
0
  6
Continuous
 62
     7
100
AcDbLine
 10
19.51947102910469
 20
72.92833086538991
 30
0.0
 11
18.5171799875028
 21
61.4720918373315
 31
0.0
  0
LINE
  5
16A
330
5A
100
AcDbEntity
  8
0
  6
Continuous
 62
     7
100
AcDbLine
 10
37.72640841774489
 20
71.33543024635748
 30
0.0
 11
36.72411737614482
 21
59.87919121829901
 31
0.0
  0
LINE
  5
16B
330
5A
100
AcDbEntity
  8
0
  6
Continuous
 62
     7
100
AcDbLine
 10
81.99446159571482
 20
67.4624774369189
 30
0.0
 11
80.99217055411668
 21
56.00623840886379
 31
0.0
  0
LINE
  5
16C
330
5A
100
AcDbEntity
  8
0
  6
Continuous
 62
     7
100
AcDbLine
 10
48.27581296815345
 20
70.41247694124439
 30
0.0
 11
47.27352192655542
 21
58.9562379131894
 31
0.0
  0
LINE
  5
16D
330
5A
100
AcDbEntity
  8
0
  6
Continuous
 62
     7
100
AcDbLine
 10
53.23811965666232
 20
69.97833136106101
 30
0.0
 11
52.23582861506418
 21
58.5220923330059
 31
0.0
  0
LINE
  5
16E
330
5A
100
AcDbEntity
  8
0
  6
Continuous
 62
     7
100
AcDbLine
 10
79.08845416170107
 20
67.71672014351708
 30
0.0
 11
78.08616312010315
 21
56.26048111546197
 31
0.0
  0
LINE
  5
16F
330
5A
100
AcDbEntity
  8
0
  6
Continuous
 62
     7
100
AcDbLine
 10
63.78752420707144
 20
69.05537805595498
 30
0.0
 11
62.78523316547489
 21
57.59913902789617
 31
0.0
  0
LINE
  5
170
330
5A
100
AcDbEntity
  8
0
  6
Continuous
 62
     7
100
AcDbLine
 10
72.76525116483413
 20
68.26992872291606
 30
0.0
 11
71.76296012323598
 21
56.81368969486101
 31
0.0
  0
LINE
  5
171
330
5A
100
AcDbEntity
  8
0
  6
Continuous
 62
     7
100
AcDbLine
 10
24.2236854843535
 20
71.71370955972247
 30
0.0
 11
23.29111903695355
 21
61.0544262901409
 31
0.0
  0
LINE
  5
172
330
5A
100
AcDbEntity
  8
0
  6
Continuous
 62
     7
100
AcDbLine
 10
19.5592141388239
 20
72.12179792379789
 30
0.0
 11
18.62664769142395
 21
61.46251465421631
 31
0.0
  0
LINE
  5
173
330
5A
100
AcDbEntity
  8
0
  6
Continuous
 62
     7
100
AcDbLine
 10
28.06573513696628
 20
71.37757377041521
 30
0.0
 11
27.13316868956633
 21
60.71829050083346
 31
0.0
  0
LINE
  5
174
330
5A
100
AcDbEntity
  8
0
  6
Continuous
 62
     7
100
AcDbLine
 10
21.60352605935361
 20
71.94294380604072
 30
0.0
 11
19.5592141388239
 21
72.12179792379789
 31
0.0
  0
LINE
  5
175
330
5A
100
AcDbEntity
  8
0
  6
Continuous
 62
     7
100
AcDbLine
 10
28.06573513696628
 20
71.37757377041521
 30
0.0
 11
24.2236854843535
 21
71.71370955972247
 31
0.0
  0
LINE
  5
176
330
5A
100
AcDbEntity
  8
0
  6
Continuous
 62
     7
100
AcDbLine
 10
37.25643176615722
 20
70.57349200545508
 30
0.0
 11
32.0800522721803
 21
71.02636652928607
 31
0.0
  0
LINE
  5
177
330
5A
100
AcDbEntity
  8
0
  6
Continuous
 62
     7
100
AcDbLine
 10
48.06708229320986
 20
69.62768263899738
 30
0.0
 11
42.18072072006737
 21
70.1426725460621
 31
0.0
  0
LINE
  5
178
330
5A
100
AcDbEntity
  8
0
  6
Continuous
 62
     7
100
AcDbLine
 10
59.19376271635213
 20
68.6542242392967
 30
0.0
 11
53.30740114320963
 21
69.16921414636118
 31
0.0
  0
LINE
  5
179
330
5A
100
AcDbEntity
  8
0
  6
Continuous
 62
     7
100
AcDbLine
 10
69.29443116423909
 20
67.7705302560725
 30
0.0
 11
64.11805167026228
 21
68.2234047799036
 31
0.0
  0
LINE
  5
17A
330
5A
100
AcDbEntity
  8
0
  6
Continuous
 62
     7
100
AcDbLine
 10
77.15079795206589
 20
67.0831872256361
 30
0.0
 11
73.30874829945321
 21
67.41932301494342
 31
0.0
  0
LINE
  5
17B
330
5A
100
AcDbEntity
  8
0
  6
Continuous
 62
     7
100
AcDbLine
 10
81.81526929759559
 20
66.6750988615608
 30
0.0
 11
79.77095737706588
 21
66.85395297931797
 31
0.0
  0
LINE
  5
17C
330
5A
100
AcDbEntity
  8
0
  6
Continuous
 62
     7
100
AcDbLine
 10
76.60730081744452
 20
67.93379293361261
 30
0.0
 11
72.76525116483413
 21
68.26992872291606
 31
0.0
  0
LINE
  5
17D
330
5A
100
AcDbEntity
  8
0
  6
Continuous
 62
     7
100
AcDbLine
 10
68.96390370104984
 20
68.6025035321203
 30
0.0
 11
63.78752420707144
 21
69.05537805595498
 31
0.0
  0
LINE
  5
17E
330
5A
100
AcDbEntity
  8
0
  6
Continuous
 62
     7
100
AcDbLine
 10
81.13276608223089
 20
67.5378660257598
 30
0.0
 11
79.08845416170107
 21
67.71672014351708
 31
0.0
  0
LINE
  5
17F
330
5A
100
AcDbEntity
  8
0
  6
Continuous
 62
     7
100
AcDbLine
 10
59.12448122980436
 20
69.4633414540001
 30
0.0
 11
53.23811965666232
 21
69.97833136106101
 31
0.0
  0
LINE
  5
180
330
5A
100
AcDbEntity
  8
0
  6
Continuous
 62
     7
100
AcDbLine
 10
82.13709930229788
 20
67.4499982546015
 30
0.0
 11
81.99446159571482
 21
67.4624774369189
 31
0.0
  0
LINE
  5
181
330
5A
100
AcDbEntity
  8
0
  6
Continuous
 62
     7
100
AcDbLine
 10
82.39856653054073
 20
70.43858234887676
 30
0.0
 11
82.13709930229788
 21
67.4499982546015
 31
0.0
  0
LINE
  5
182
330
5A
100
AcDbEntity
  8
0
  6
Continuous
 62
     7
100
AcDbLine
 10
82.39856653054073
 20
70.43858234887676
 30
0.0
 11
19.63830055076085
 21
75.92939414197917
 31
0.0
  0
LINE
  5
183
330
5A
100
AcDbEntity
  8
0
  6
Continuous
 62
     7
100
AcDbLine
 10
19.63830055076085
 20
75.92939414197917
 30
0.0
 11
19.37683332251777
 21
72.94081004770396
 31
0.0
  0
LINE
  5
184
330
5A
100
AcDbEntity
  8
0
  6
Continuous
 62
     7
100
AcDbLine
 10
19.51947102910469
 20
72.92833086538991
 30
0.0
 11
19.37683332251777
 21
72.94081004770396
 31
0.0
  0
LINE
  5
185
330
5A
100
AcDbEntity
  8
0
  6
Continuous
 62
     7
100
AcDbLine
 10
48.27581296815345
 20
70.41247694124439
 30
0.0
 11
42.38945139501197
 21
70.92746684831246
 31
0.0
  0
LINE
  5
186
330
5A
100
AcDbEntity
  8
0
  6
Continuous
 62
     7
100
AcDbLine
 10
22.42547846311447
 20
72.67408815878838
 30
0.0
 11
20.38116654258488
 21
72.8529422765456
 31
0.0
  0
LINE
  5
187
330
5A
100
AcDbEntity
  8
0
  6
Continuous
 62
     7
100
AcDbLine
 10
37.72640841774489
 20
71.33543024635748
 30
0.0
 11
32.55002892376581
 21
71.78830477018516
 31
0.0
  0
LINE
  5
188
330
5A
100
AcDbEntity
  8
0
  6
Continuous
 62
     7
100
AcDbLine
 10
37.25643176615722
 20
70.57349200545508
 30
0.0
 11
36.32386531875727
 21
59.91420873587339
 31
0.0
  0
LINE
  5
189
330
5A
100
AcDbEntity
  8
0
  6
Continuous
 62
     7
100
AcDbLine
 10
32.0800522721803
 20
71.02636652928607
 30
0.0
 11
31.14748582478035
 21
60.36708325970449
 31
0.0
  0
LINE
  5
18A
330
5A
100
AcDbEntity
  8
0
  6
Continuous
 62
     7
100
AcDbLine
 10
48.06708229320986
 20
69.62768263899738
 30
0.0
 11
47.13451584580991
 21
58.96839936941581
 31
0.0
  0
LINE
  5
18B
330
5A
100
AcDbEntity
  8
0
  6
Continuous
 62
     7
100
AcDbLine
 10
42.18072072006737
 20
70.1426725460621
 30
0.0
 11
41.24815427266731
 21
59.48338927648041
 31
0.0
  0
LINE
  5
18C
330
5A
100
AcDbEntity
  8
0
  6
Continuous
 62
     7
100
AcDbLine
 10
59.19376271635213
 20
68.6542242392967
 30
0.0
 11
58.26119626895218
 21
57.994940969715
 31
0.0
  0
LINE
  5
18D
330
5A
100
AcDbEntity
  8
0
  6
Continuous
 62
     7
100
AcDbLine
 10
53.30740114320963
 20
69.16921414636118
 30
0.0
 11
52.37483469580968
 21
58.50993087677961
 31
0.0
  0
LINE
  5
18E
330
5A
100
AcDbEntity
  8
0
  6
Continuous
 62
     7
100
AcDbLine
 10
69.29443116423909
 20
67.7705302560725
 30
0.0
 11
68.36186471683925
 21
57.11124698649087
 31
0.0
  0
LINE
  5
18F
330
5A
100
AcDbEntity
  8
0
  6
Continuous
 62
     7
100
AcDbLine
 10
64.11805167026228
 20
68.2234047799036
 30
0.0
 11
63.18548522286233
 21
57.56412151032191
 31
0.0
  0
LINE
  5
190
330
5A
100
AcDbEntity
  8
0
  6
Continuous
 62
     7
100
AcDbLine
 10
77.15079795206589
 20
67.0831872256361
 30
0.0
 11
76.21823150466594
 21
56.4239039560544
 31
0.0
  0
LINE
  5
191
330
5A
100
AcDbEntity
  8
0
  6
Continuous
 62
     7
100
AcDbLine
 10
73.30874829945321
 20
67.41932301494342
 30
0.0
 11
72.37618185205315
 21
56.76003974536178
 31
0.0
  0
LINE
  5
192
330
5A
100
AcDbEntity
  8
0
  6
Continuous
 62
     7
100
AcDbLine
 10
81.81526929759559
 20
66.6750988615608
 30
0.0
 11
80.88270285019553
 21
56.01581559197911
 31
0.0
  0
LINE
  5
193
330
5A
100
AcDbEntity
  8
0
  6
Continuous
 62
     7
100
AcDbLine
 10
79.77095737706588
 20
66.85395297931797
 30
0.0
 11
78.83839092966593
 21
56.19466970973627
 31
0.0
  0
LINE
  5
194
330
5A
100
AcDbEntity
  8
0
  6
Continuous
 62
     7
100
AcDbLine
 10
18.62664769142395
 20
61.46251465421631
 30
0.0
 11
20.67095961195366
 21
61.28366053645897
 31
0.0
  0
LINE
  5
195
330
5A
100
AcDbEntity
  8
0
  6
Continuous
 62
     7
100
AcDbLine
 10
27.13316868956633
 20
60.71829050083346
 30
0.0
 11
27.7463904183835
 21
60.66464055133417
 31
0.0
  0
LINE
  5
196
330
5A
100
AcDbEntity
  8
0
  6
Continuous
 62
     7
100
AcDbLine
 10
20.67095961195366
 20
61.28366053645897
 30
0.0
 11
21.42318742151633
 21
61.21784913073327
 31
0.0
  0
LINE
  5
197
330
5A
100
AcDbEntity
  8
0
  6
Continuous
 62
     7
100
AcDbLine
 10
36.32386531875727
 20
59.91420873587339
 30
0.0
 11
36.72411737614482
 21
59.87919121829901
 31
0.0
  0
LINE
  5
198
330
5A
100
AcDbEntity
  8
0
  6
Continuous
 62
     7
100
AcDbLine
 10
80.88270285019553
 20
56.01581559197911
 30
0.0
 11
80.99217055411668
 21
56.00623840886379
 31
0.0
  0
LINE
  5
199
330
5A
100
AcDbEntity
  8
0
  6
Continuous
 62
     7
100
AcDbLine
 10
47.13451584580991
 20
58.96839936941581
 30
0.0
 11
47.27352192655542
 21
58.9562379131894
 31
0.0
  0
LINE
  5
19A
330
5A
100
AcDbEntity
  8
0
  6
Continuous
 62
     7
100
AcDbLine
 10
47.27352192655542
 20
58.9562379131894
 30
0.0
 11
52.23582861506418
 21
58.5220923330059
 31
0.0
  0
LINE
  5
19B
330
5A
100
AcDbEntity
  8
0
  6
Continuous
 62
     7
100
AcDbLine
 10
76.21823150466594
 20
56.4239039560544
 30
0.0
 11
78.08616312010315
 21
56.26048111546197
 31
0.0
  0
LINE
  5
19C
330
5A
100
AcDbEntity
  8
0
  6
Continuous
 62
     7
100
AcDbLine
 10
58.26119626895218
 20
57.994940969715
 30
0.0
 11
62.78523316547489
 21
57.59913902789617
 31
0.0
  0
LINE
  5
19D
330
5A
100
AcDbEntity
  8
0
  6
Continuous
 62
     7
100
AcDbLine
 10
68.36186471683925
 20
57.11124698649087
 30
0.0
 11
71.76296012323598
 21
56.81368969486101
 31
0.0
  0
LINE
  5
19E
330
5A
100
AcDbEntity
  8
0
  6
Continuous
 62
     7
100
AcDbLine
 10
21.42318742151633
 20
61.21784913073327
 30
0.0
 11
23.29111903695355
 21
61.0544262901409
 31
0.0
  0
LINE
  5
19F
330
5A
100
AcDbEntity
  8
0
  6
Continuous
 62
     7
100
AcDbLine
 10
18.5171799875028
 20
61.4720918373315
 30
0.0
 11
18.62664769142395
 21
61.46251465421631
 31
0.0
  0
LINE
  5
1A0
330
5A
100
AcDbEntity
  8
0
  6
Continuous
 62
     7
100
AcDbLine
 10
23.29111903695355
 20
61.0544262901409
 30
0.0
 11
27.13316868956633
 21
60.71829050083346
 31
0.0
  0
LINE
  5
1A1
330
5A
100
AcDbEntity
  8
0
  6
Continuous
 62
     7
100
AcDbLine
 10
31.14748582478035
 20
60.36708325970449
 30
0.0
 11
36.32386531875727
 21
59.91420873587339
 31
0.0
  0
LINE
  5
1A2
330
5A
100
AcDbEntity
  8
0
  6
Continuous
 62
     7
100
AcDbLine
 10
27.7463904183835
 20
60.66464055133417
 30
0.0
 11
31.14748582478035
 21
60.36708325970449
 31
0.0
  0
LINE
  5
1A3
330
5A
100
AcDbEntity
  8
0
  6
Continuous
 62
     7
100
AcDbLine
 10
41.24815427266731
 20
59.48338927648041
 30
0.0
 11
47.13451584580991
 21
58.96839936941581
 31
0.0
  0
LINE
  5
1A4
330
5A
100
AcDbEntity
  8
0
  6
Continuous
 62
     7
100
AcDbLine
 10
36.72411737614482
 20
59.87919121829901
 30
0.0
 11
41.24815427266731
 21
59.48338927648041
 31
0.0
  0
LINE
  5
1A5
330
5A
100
AcDbEntity
  8
0
  6
Continuous
 62
     7
100
AcDbLine
 10
52.37483469580968
 20
58.50993087677961
 30
0.0
 11
58.26119626895218
 21
57.994940969715
 31
0.0
  0
LINE
  5
1A6
330
5A
100
AcDbEntity
  8
0
  6
Continuous
 62
     7
100
AcDbLine
 10
52.23582861506418
 20
58.5220923330059
 30
0.0
 11
52.37483469580968
 21
58.50993087677961
 31
0.0
  0
LINE
  5
1A7
330
5A
100
AcDbEntity
  8
0
  6
Continuous
 62
     7
100
AcDbLine
 10
63.18548522286233
 20
57.56412151032191
 30
0.0
 11
68.36186471683925
 21
57.11124698649087
 31
0.0
  0
LINE
  5
1A8
330
5A
100
AcDbEntity
  8
0
  6
Continuous
 62
     7
100
AcDbLine
 10
62.78523316547489
 20
57.59913902789617
 30
0.0
 11
63.18548522286233
 21
57.56412151032191
 31
0.0
  0
LINE
  5
1A9
330
5A
100
AcDbEntity
  8
0
  6
Continuous
 62
     7
100
AcDbLine
 10
72.37618185205315
 20
56.76003974536178
 30
0.0
 11
76.21823150466594
 21
56.4239039560544
 31
0.0
  0
LINE
  5
1AA
330
5A
100
AcDbEntity
  8
0
  6
Continuous
 62
     7
100
AcDbLine
 10
71.76296012323598
 20
56.81368969486101
 30
0.0
 11
72.37618185205315
 21
56.76003974536178
 31
0.0
  0
LINE
  5
1AB
330
5A
100
AcDbEntity
  8
0
  6
Continuous
 62
     7
100
AcDbLine
 10
78.83839092966593
 20
56.19466970973627
 30
0.0
 11
80.88270285019553
 21
56.01581559197911
 31
0.0
  0
LINE
  5
1AC
330
5A
100
AcDbEntity
  8
0
  6
Continuous
 62
     7
100
AcDbLine
 10
78.08616312010315
 20
56.26048111546197
 30
0.0
 11
78.83839092966593
 21
56.19466970973627
 31
0.0
  0
LINE
  5
1AD
330
5A
100
AcDbEntity
  8
0
  6
Continuous
 62
     7
100
AcDbLine
 10
18.51015296984633
 20
72.21357888342857
 30
0.0
 11
17.57758652244638
 21
61.55429561384699
 31
0.0
  0
LINE
  5
1AE
330
5A
100
AcDbEntity
  8
0
  6
Continuous
 62
     7
100
AcDbLine
 10
18.64924232012788
 20
72.20141014206177
 30
0.0
 11
17.71667587272793
 21
61.5421268724802
 31
0.0
  0
LINE
  5
1AF
330
5A
100
AcDbEntity
  8
0
  6
Continuous
 62
     7
100
AcDbLine
 10
19.37683332251777
 20
72.94081004770396
 30
0.0
 11
18.51015296984633
 21
72.21357888342857
 31
0.0
  0
LINE
  5
1B0
330
5A
100
AcDbEntity
  8
0
  6
Continuous
 62
     7
100
AcDbLine
 10
18.64924232012788
 20
72.20141014206177
 30
0.0
 11
18.51015296984633
 21
72.21357888342857
 31
0.0
  0
LINE
  5
1B1
330
5A
100
AcDbEntity
  8
0
  6
Continuous
 62
     7
100
AcDbLine
 10
17.71667587272793
 20
61.5421268724802
 30
0.0
 11
18.5171799875028
 21
61.4720918373315
 31
0.0
  0
LINE
  5
1B2
330
5A
100
AcDbEntity
  8
0
  6
Continuous
 62
     7
100
AcDbLine
 10
15.88405553569044
 20
61.70246037651799
 30
0.0
 11
17.57758652244638
 21
61.55429561384699
 31
0.0
  0
LINE
  5
1B3
330
5A
100
AcDbEntity
  8
0
  6
Continuous
 62
     7
100
AcDbLine
 10
17.57758652244638
 20
61.55429561384699
 30
0.0
 11
17.71667587272793
 21
61.5421268724802
 31
0.0
  0
LINE
  5
1B4
330
5A
100
AcDbEntity
  8
0
  6
Continuous
 62
     7
100
AcDbLine
 10
81.93176401917322
 20
55.92403463234831
 30
0.0
 11
83.62529500592905
 21
55.77586986967731
 31
0.0
  0
LINE
  5
1B5
330
5A
100
AcDbEntity
  8
0
  6
Continuous
 62
     7
100
AcDbLine
 10
83.62529500592905
 20
55.77586986967731
 30
0.0
 11
83.36382777768608
 21
52.7872857754021
 31
0.0
  0
LINE
  5
1B6
330
5A
100
AcDbEntity
  8
1
  6
PHANTOM
 62
     2
100
AcDbLine
 10
51.4059805364418
 20
77.61367067709767
 30
0.0
 11
49.27692883350767
 21
53.27849835727659
 31
0.0
  0
ARC
  5
1B7
330
5A
100
AcDbEntity
  8
0
  6
Continuous
 62
     7
100
AcDbCircle
 10
79.90807978531143
 20
70.6564717057459
 30
0.0
 40
2.49999999999994
100
AcDbArc
 50
355.0000000000001
 51
85.00000000000021
  0
ARC
  5
1B8
330
5A
100
AcDbEntity
  8
0
  6
Continuous
 62
     7
100
AcDbCircle
 10
22.12878729599004
 20
75.7115047851101
 30
0.0
 40
2.49999999999995
100
AcDbArc
 50
84.9999999999975
 51
175.0000000000012
  0
SPLINE
  5
1B9
330
5A
100
AcDbEntity
  8
0
  6
Continuous
 62
     7
100
AcDbSpline
210
0.0
220
0.0
230
1.0
 70
     8
 71
     3
 72
    11
 73
     7
 74
     5
 42
0.000000001
 43
0.0000000001
 44
0.00000001
 40
0.0
 40
0.0
 40
0.0
 40
0.0
 40
0.2844851893752007
 40
0.5669461445292217
 40
0.8518083868101427
 40
1.133892298755151
 40
1.133892298755151
 40
1.133892298755151
 40
1.133892298755151
 10
82.72524111629173
 20
66.5954866432968
 30
0.0
 10
82.66412883829982
 20
66.66799674090254
 30
0.0
 10
82.54233911095808
 20
66.8125009860029
 30
0.0
 10
82.35934848191945
 20
67.02960500490971
 30
0.0
 10
82.17686850483949
 20
67.2460926128197
 30
0.0
 10
82.05506493567528
 20
67.39058519497841
 30
0.0
 10
81.99446159571482
 20
67.4624774369189
 30
0.0
 11
82.72524111629173
 21
66.5954866432968
 31
0.0
 11
82.54190300138552
 21
66.81301585649942
 31
0.0
 11
82.35986348682184
 21
67.02899225873841
 31
0.0
 11
82.17627030134915
 21
67.24679960325524
 31
0.0
 11
81.99446159571482
 21
67.4624774369189
 31
0.0
  0
SPLINE
  5
1BA
330
5A
100
AcDbEntity
  8
0
  6
Continuous
 62
     7
100
AcDbSpline
210
0.0
220
0.0
230
1.0
 70
     8
 71
     3
 72
    11
 73
     7
 74
     5
 42
0.000000001
 43
0.0000000001
 44
0.00000001
 40
0.0
 40
0.0
 40
0.0
 40
0.0
 40
0.253465801981151
 40
0.5047113162539185
 40
0.7564801997503734
 40
1.009415279611979
 40
1.009415279611979
 40
1.009415279611979
 40
1.009415279611979
 10
24.2236854843535
 20
71.71370955972247
 30
0.0
 10
24.28084559931566
 20
71.77592728147451
 30
0.0
 10
24.39466513404592
 20
71.89981770546666
 30
0.0
 10
24.56526840877935
 20
72.08550352034936
 30
0.0
 10
24.73575628773217
 20
72.27105511877073
 30
0.0
 10
24.84958562372741
 20
72.3949332089633
 30
0.0
 10
24.90663180737192
 20
72.45701536870007
 30
0.0
 11
24.2236854843535
 21
71.71370955972247
 31
0.0
 11
24.39516689278502
 21
71.90036174785953
 31
0.0
 11
24.56515108272674
 21
72.0853744058378
 31
0.0
 11
24.73549436279029
 21
72.27076787291358
 31
0.0
 11
24.90663180737192
 21
72.45701536870007
 31
0.0
  0
SPLINE
  5
1BB
330
5A
100
AcDbEntity
  8
0
  6
Continuous
 62
     7
100
AcDbSpline
210
0.0
220
0.0
230
1.0
 70
     8
 71
     3
 72
    11
 73
     7
 74
     5
 42
0.000000001
 43
0.0000000001
 44
0.00000001
 40
0.0
 40
0.0
 40
0.0
 40
0.0
 40
0.2761036337136665
 40
0.550041363605282
 40
0.8253405607162232
 40
1.100080824204234
 40
1.100080824204234
 40
1.100080824204234
 40
1.100080824204234
 10
79.77095737706588
 20
66.85395297931797
 30
0.0
 10
79.7138614777815
 20
66.92613618844965
 30
0.0
 10
79.60011755809326
 20
67.06993635392823
 30
0.0
 10
79.42943652273925
 20
67.28570343485774
 30
0.0
 10
79.25903227514726
 20
67.50111001226497
 30
0.0
 10
79.1452750045257
 20
67.6448988074893
 30
0.0
 10
79.08845416170107
 20
67.71672014351708
 30
0.0
 11
79.77095737706588
 21
66.85395297931797
 31
0.0
 11
79.59966840555842
 21
67.07050159923939
 31
0.0
 11
79.42971722768755
 21
67.28534683888557
 31
0.0
 11
79.25891537341697
 21
67.50125509372504
 31
0.0
 11
79.08845416170107
 21
67.71672014351708
 31
0.0
  0
SPLINE
  5
1BC
330
5A
100
AcDbEntity
  8
0
  6
Continuous
 62
     7
100
AcDbSpline
210
0.0
220
0.0
230
1.0
 70
     8
 71
     3
 72
    11
 73
     7
 74
     5
 42
0.000000001
 43
0.0000000001
 44
0.00000001
 40
0.0
 40
0.0
 40
0.0
 40
0.0
 40
0.2747404906270008
 40
0.5500394605988794
 40
0.8244175636901656
 40
1.100080824204034
 40
1.100080824204034
 40
1.100080824204034
 40
1.100080824204034
 10
22.42547846311447
 20
72.67408815878838
 30
0.0
 10
22.35704915588332
 20
72.61322473572005
 30
0.0
 10
22.22005145156912
 20
72.49137415810976
 30
0.0
 10
22.01472138798355
 20
72.30873291764911
 30
0.0
 10
21.80916588115198
 20
72.12588232018149
 30
0.0
 10
21.6721793517881
 20
72.00401822526209
 30
0.0
 10
21.60352605935361
 20
71.94294380604072
 30
0.0
 11
22.42547846311447
 21
72.67408815878838
 31
0.0
 11
22.22019165726492
 21
72.49149663506908
 31
0.0
 11
22.01449276167102
 21
72.30852809345828
 31
0.0
 11
21.80948701224895
 21
72.12616585460378
 31
0.0
 11
21.60352605935361
 21
71.94294380604072
 31
0.0
  0
SPLINE
  5
1BD
330
5A
100
AcDbEntity
  8
0
  6
Continuous
 62
     7
100
AcDbSpline
210
0.0
220
0.0
230
1.0
 70
     8
 71
     3
 72
    11
 73
     7
 74
     5
 42
0.000000001
 43
0.0000000001
 44
0.00000001
 40
0.0
 40
0.0
 40
0.0
 40
0.0
 40
0.2735951363511879
 40
0.5500394605988823
 40
0.8240107588470851
 40
1.100080824204075
 40
1.100080824204075
 40
1.100080824204075
 40
1.100080824204075
 10
81.13276608223089
 20
67.5378660257598
 30
0.0
 10
81.18935009591489
 20
67.46634404529608
 30
0.0
 10
81.30310737081146
 20
67.32255525345408
 30
0.0
 10
81.47351857257172
 20
67.10713990999723
 30
0.0
 10
81.6444364203847
 20
66.89107346030723
 30
0.0
 10
81.75818034000098
 20
66.74727329477174
 30
0.0
 10
81.81526929759559
 20
66.6750988615608
 30
0.0
 11
81.13276608223089
 21
67.5378660257598
 31
0.0
 11
81.30251681838718
 21
67.32329905204412
 31
0.0
 11
81.47402914821726
 21
67.10649272112829
 31
0.0
 11
81.64400115156063
 21
66.89162115403903
 31
0.0
 11
81.81526929759559
 21
66.6750988615608
 31
0.0
  0
SPLINE
  5
1BE
330
5A
100
AcDbEntity
  8
0
  6
Continuous
 62
     7
100
AcDbSpline
210
0.0
220
0.0
230
1.0
 70
     8
 71
     3
 72
    11
 73
     7
 74
     5
 42
0.000000001
 43
0.0000000001
 44
0.00000001
 40
0.0
 40
0.0
 40
0.0
 40
0.0
 40
0.253005620989254
 40
0.504711316253944
 40
0.7571643754562708
 40
1.009415279607318
 40
1.009415279607318
 40
1.009415279607318
 40
1.009415279607318
 10
73.30874829945321
 20
67.41932301494342
 30
0.0
 10
73.26334315535244
 20
67.49039199572451
 30
0.0
 10
73.1727661430828
 20
67.63216480161991
 30
0.0
 10
73.03687593328253
 20
67.84484676281399
 30
0.0
 10
72.90111624476287
 20
68.05731357972584
 30
0.0
 10
72.81052743415333
 20
68.19907593846283
 30
0.0
 10
72.76525116483413
 20
68.26992872291606
 30
0.0
 11
73.30874829945321
 21
67.41932301494342
 31
0.0
 11
73.1725316549642
 21
67.63252918281005
 31
0.0
 11
73.03700925401893
 21
67.84463631581326
 31
0.0
 11
72.90107871416623
 21
68.05736956529748
 31
0.0
 11
72.76525116483413
 21
68.26992872291606
 31
0.0
  0
SPLINE
  5
1BF
330
5A
100
AcDbEntity
  8
0
  6
Continuous
 62
     7
100
AcDbSpline
210
0.0
220
0.0
230
1.0
 70
     8
 71
     3
 72
    11
 73
     7
 74
     5
 42
0.000000001
 43
0.0000000001
 44
0.00000001
 40
0.0
 40
0.0
 40
0.0
 40
0.0
 40
0.2223072486721413
 40
0.4476050081741116
 40
0.6709199640051375
 40
0.8952250758794494
 40
0.8952250758794494
 40
0.8952250758794494
 40
0.8952250758794494
 10
68.96390370104984
 20
68.6025035321203
 30
0.0
 10
68.99126584520948
 20
68.5336378573776
 30
0.0
 10
69.04635819924289
 20
68.39498011082739
 30
0.0
 10
69.12893062602622
 20
68.18714210039609
 30
0.0
 10
69.21174490416075
 20
67.97868358858977
 30
0.0
 10
69.26682846641194
 20
67.84001694774119
 30
0.0
 10
69.29443116423909
 20
67.7705302560725
 30
0.0
 11
68.96390370104984
 21
68.6025035321203
 31
0.0
 11
69.04598912578469
 21
68.39590610750341
 31
0.0
 11
69.12917398773902
 21
68.1865276005397
 31
0.0
 11
69.21162208775661
 21
67.97898994058035
 31
0.0
 11
69.29443116423909
 21
67.7705302560725
 31
0.0
  0
SPLINE
  5
1C0
330
5A
100
AcDbEntity
  8
0
  6
Continuous
 62
     7
100
AcDbSpline
210
0.0
220
0.0
230
1.0
 70
     8
 71
     3
 72
    11
 73
     7
 74
     5
 42
0.000000001
 43
0.0000000001
 44
0.00000001
 40
0.0
 40
0.0
 40
0.0
 40
0.0
 40
0.2030274890961627
 40
0.4060497092551825
 40
0.6090665640630366
 40
0.812077946736214
 40
0.812077946736214
 40
0.812077946736214
 40
0.812077946736214
 10
53.30740114320963
 20
69.16921414636118
 30
0.0
 10
53.30162854423799
 20
69.23664333163431
 30
0.0
 10
53.29008348115904
 20
69.37149995098956
 30
0.0
 10
53.27276373440495
 20
69.57378201940573
 30
0.0
 10
53.25544278935902
 20
69.77605859676427
 30
0.0
 10
53.24389398732767
 20
69.91090771251945
 30
0.0
 10
53.23811965666232
 20
69.97833136106101
 30
0.0
 11
53.30740114320963
 21
69.16921414636118
 31
0.0
 11
53.29008294469872
 21
69.37150166779799
 31
0.0
 11
53.27276331573501
 21
69.5737837785515
 31
0.0
 11
53.25544222895467
 21
69.77606037949403
 31
0.0
 11
53.23811965666232
 21
69.97833136106101
 31
0.0
  0
SPLINE
  5
1C1
330
5A
100
AcDbEntity
  8
0
  6
Continuous
 62
     7
100
AcDbSpline
210
0.0
220
0.0
230
1.0
 70
     8
 71
     3
 72
    11
 73
     7
 74
     5
 42
0.000000001
 43
0.0000000001
 44
0.00000001
 40
0.0
 40
0.0
 40
0.0
 40
0.0
 40
0.2030113826731434
 40
0.4060282374810456
 40
0.6090504576399856
 40
0.8120779467361949
 40
0.8120779467361949
 40
0.8120779467361949
 40
0.8120779467361949
 10
48.27581296815345
 20
70.41247694124439
 30
0.0
 10
48.25841836884487
 20
70.34708031142158
 30
0.0
 10
48.22362871585555
 20
70.21628528516604
 30
0.0
 10
48.17144595584149
 20
70.02008949407337
 30
0.0
 10
48.11926342240297
 20
69.82388808726316
 30
0.0
 10
48.08447614857641
 20
69.69308502214183
 30
0.0
 10
48.06708229320986
 20
69.62768263899738
 30
0.0
 11
48.27581296815345
 21
70.41247694124439
 31
0.0
 11
48.22362957731382
 21
70.21628694349894
 31
0.0
 11
48.17144667362345
 21
70.02009115379241
 31
0.0
 11
48.11926424883387
 21
69.82388968483413
 31
0.0
 11
48.06708229320986
 21
69.62768263899738
 31
0.0
  0
SPLINE
  5
1C2
330
5A
100
AcDbEntity
  8
0
  6
Continuous
 62
     7
100
AcDbSpline
210
0.0
220
0.0
230
1.0
 70
     8
 71
     3
 72
    11
 73
     7
 74
     5
 42
0.000000001
 43
0.0000000001
 44
0.00000001
 40
0.0
 40
0.0
 40
0.0
 40
0.0
 40
0.2249202220705677
 40
0.4476200677052898
 40
0.6729149690956694
 40
0.8952250758794094
 40
0.8952250758794094
 40
0.8952250758794094
 40
0.8952250758794094
 10
32.0800522721803
 20
71.02636652928607
 30
0.0
 10
32.11940949516737
 20
71.09017891687623
 30
0.0
 10
32.1977354256635
 20
71.21717373852832
 30
0.0
 10
32.31548951502329
 20
71.40808393430909
 30
0.0
 10
32.43279053054387
 20
71.59825135848638
 30
0.0
 10
32.51112357294684
 20
71.72523589541589
 30
0.0
 10
32.55002892376581
 20
71.78830477018516
 30
0.0
 11
32.0800522721803
 21
71.02636652928607
 31
0.0
 11
32.19812484681555
 21
71.21780313345393
 31
0.0
 11
32.31503600161943
 21
71.4073473318042
 31
0.0
 11
32.43331379427155
 21
71.59909757654447
 31
0.0
 11
32.55002892376581
 21
71.78830477018516
 31
0.0
  0
SPLINE
  5
1C3
330
5A
100
AcDbEntity
  8
0
  6
Continuous
 62
     7
100
AcDbSpline
210
0.0
220
0.0
230
1.0
 70
     8
 71
     3
 72
    11
 73
     7
 74
     5
 42
0.000000001
 43
0.0000000001
 44
0.00000001
 40
0.0
 40
0.0
 40
0.0
 40
0.0
 40
0.2522496124576957
 40
0.5047039633578708
 40
0.7560618762814489
 40
1.009415279611829
 40
1.009415279611829
 40
1.009415279611829
 40
1.009415279611829
 10
28.7486814599846
 20
72.12087957939269
 30
0.0
 10
28.69178987334506
 20
72.05896566664913
 30
0.0
 10
28.5779605350467
 20
71.93508757857306
 30
0.0
 10
28.40744730045804
 20
71.74950839738108
 30
0.0
 10
28.2366894386839
 20
71.56365432634999
 30
0.0
 10
28.12286990428059
 20
71.43976390205742
 30
0.0
 10
28.06573513696628
 20
71.37757377041521
 30
0.0
 11
28.7486814599846
 21
72.12087957939269
 31
0.0
 11
28.5780077999174
 21
71.93513683055873
 31
0.0
 11
28.40720073533964
 21
71.74923861653048
 31
0.0
 11
28.23714050138527
 21
71.56414318920496
 31
0.0
 11
28.06573513696628
 21
71.37757377041521
 31
0.0
  0
SPLINE
  5
1C4
330
5A
100
AcDbEntity
  8
0
  6
Continuous
 62
     7
100
AcDbSpline
210
0.0
220
0.0
230
1.0
 70
     8
 71
     3
 72
    11
 73
     7
 74
     5
 42
0.000000001
 43
0.0000000001
 44
0.00000001
 40
0.0
 40
0.0
 40
0.0
 40
0.0
 40
0.2761042276333251
 40
0.5500413636052306
 40
0.826485320272909
 40
1.100080824204161
 40
1.100080824204161
 40
1.100080824204161
 40
1.100080824204161
 10
19.5592141388239
 20
72.12179792379789
 30
0.0
 10
19.6279772537615
 20
72.18297004048931
 30
0.0
 10
19.76496378445083
 20
72.30483413391886
 30
0.0
 10
19.97080446010489
 20
72.48793839415856
 30
0.0
 10
20.17602470613698
 20
72.67048193158502
 30
0.0
 10
20.31302241408896
 20
72.79233250510518
 30
0.0
 10
20.38116654258488
 20
72.8529422765456
 30
0.0
 11
19.5592141388239
 21
72.12179792379789
 31
0.0
 11
19.76550456294624
 21
72.3053130605918
 31
0.0
 11
19.97018084114131
 21
72.48738221121556
 31
0.0
 11
20.17673526291206
 21
72.67111171898497
 31
0.0
 11
20.38116654258488
 21
72.8529422765456
 31
0.0
  0
SPLINE
  5
1C5
330
5A
100
AcDbEntity
  8
0
  6
Continuous
 62
     7
100
AcDbSpline
210
0.0
220
0.0
230
1.0
 70
     8
 71
     3
 72
    11
 73
     7
 74
     5
 42
0.000000001
 43
0.0000000001
 44
0.00000001
 40
0.0
 40
0.0
 40
0.0
 40
0.0
 40
0.2238804524118068
 40
0.447605008178107
 40
0.6707725060790577
 40
0.8952250758833517
 40
0.8952250758833517
 40
0.8952250758833517
 40
0.8952250758833517
 10
37.72640841774489
 20
71.33543024635748
 30
0.0
 10
37.68722825138834
 20
71.27191586648473
 30
0.0
 10
37.60889521410796
 20
71.14493132639352
 30
0.0
 10
37.49151237529242
 20
70.95463121914226
 30
0.0
 10
37.37403308624076
 20
70.76416653785739
 30
0.0
 10
37.29570715719628
 20
70.63717171531006
 30
0.0
 10
37.25643176615722
 20
70.57349200545508
 30
0.0
 11
37.72640841774489
 21
71.33543024635748
 31
0.0
 11
37.60886885578861
 21
71.14488652867753
 31
0.0
 11
37.49141549559636
 21
70.95447280797316
 31
0.0
 11
37.37425884090408
 21
70.76453057891185
 31
0.0
 11
37.25643176615722
 21
70.57349200545508
 31
0.0
  0
SPLINE
  5
1C6
330
5A
100
AcDbEntity
  8
0
  6
Continuous
 62
     7
100
AcDbSpline
210
0.0
220
0.0
230
1.0
 70
     8
 71
     3
 72
    11
 73
     7
 74
     5
 42
0.000000001
 43
0.0000000001
 44
0.00000001
 40
0.0
 40
0.0
 40
0.0
 40
0.0
 40
0.2030274890960299
 40
0.4060497092549296
 40
0.6090665640632831
 40
0.8120779467396936
 40
0.8120779467396936
 40
0.8120779467396936
 40
0.8120779467396936
 10
42.18072072006737
 20
70.1426725460621
 30
0.0
 10
42.19811457543391
 20
70.20807492920649
 30
0.0
 10
42.23290184926042
 20
70.33887799432777
 30
0.0
 10
42.28508438269904
 20
70.535079401138
 30
0.0
 10
42.33726714271354
 20
70.73127519223183
 30
0.0
 10
42.37205679570313
 20
70.86207021848858
 30
0.0
 10
42.38945139501197
 20
70.92746684831246
 30
0.0
 11
42.18072072006737
 21
70.1426725460621
 31
0.0
 11
42.23290267569133
 21
70.33887959189867
 31
0.0
 11
42.28508510048096
 21
70.5350810608569
 31
0.0
 11
42.33726800417153
 21
70.73127685056384
 31
0.0
 11
42.38945139501197
 21
70.92746684831246
 31
0.0
  0
SPLINE
  5
1C7
330
5A
100
AcDbEntity
  8
0
  6
Continuous
 62
     7
100
AcDbSpline
210
0.0
220
0.0
230
1.0
 70
     8
 71
     3
 72
    11
 73
     7
 74
     5
 42
0.000000001
 43
0.0000000001
 44
0.00000001
 40
0.0
 40
0.0
 40
0.0
 40
0.0
 40
0.2030113826764884
 40
0.406028237484751
 40
0.6090504576435536
 40
0.8120779467398215
 40
0.8120779467398215
 40
0.8120779467398215
 40
0.8120779467398215
 10
59.12448122980436
 20
69.4633414540001
 30
0.0
 10
59.13025556046979
 20
69.39591780545742
 30
0.0
 10
59.14180436250125
 20
69.26106868970106
 30
0.0
 10
59.1591253075475
 20
69.05879211234135
 30
0.0
 10
59.17644505430146
 20
68.85651004392508
 30
0.0
 10
59.18799011738045
 20
68.72165342456984
 30
0.0
 10
59.19376271635213
 20
68.6542242392967
 30
0.0
 11
59.12448122980436
 21
69.4633414540001
 31
0.0
 11
59.14180380209702
 21
69.26107047242982
 31
0.0
 11
59.1591248888775
 21
69.0587938714869
 31
0.0
 11
59.17644451784115
 21
68.8565117607336
 31
0.0
 11
59.19376271635213
 21
68.6542242392967
 31
0.0
  0
SPLINE
  5
1C8
330
5A
100
AcDbEntity
  8
0
  6
Continuous
 62
     7
100
AcDbSpline
210
0.0
220
0.0
230
1.0
 70
     8
 71
     3
 72
    11
 73
     7
 74
     5
 42
0.000000001
 43
0.0000000001
 44
0.00000001
 40
0.0
 40
0.0
 40
0.0
 40
0.0
 40
0.2244639081380228
 40
0.4476200677052323
 40
0.6737117037217295
 40
0.895225075883364
 40
0.895225075883364
 40
0.895225075883364
 40
0.895225075883364
 10
64.11805167026228
 20
68.2234047799036
 30
0.0
 10
64.09042943089311
 20
68.29294066439763
 30
0.0
 10
64.03534586809143
 20
68.43160730502753
 30
0.0
 10
63.95243388824032
 20
68.64031174575113
 30
0.0
 10
63.86988099710893
 20
68.84810056101855
 30
0.0
 10
63.81478864028062
 20
68.98675830645965
 30
0.0
 10
63.78752420707144
 20
69.05537805595498
 30
0.0
 11
64.11805167026228
 21
68.2234047799036
 31
0.0
 11
64.0351839676741
 21
68.4320120422997
 31
0.0
 11
63.95279449376221
 21
68.63940212437069
 31
0.0
 11
63.86931650673938
 21
68.84951841017295
 31
0.0
 11
63.78752420707144
 21
69.05537805595498
 31
0.0
  0
SPLINE
  5
1C9
330
5A
100
AcDbEntity
  8
0
  6
Continuous
 62
     7
100
AcDbSpline
210
0.0
220
0.0
230
1.0
 70
     8
 71
     3
 72
    11
 73
     7
 74
     5
 42
0.000000001
 43
0.0000000001
 44
0.00000001
 40
0.0
 40
0.0
 40
0.0
 40
0.0
 40
0.2508586252630668
 40
0.5047039633579314
 40
0.7564271155284046
 40
1.009415279611801
 40
1.009415279611801
 40
1.009415279611801
 40
1.009415279611801
 10
76.60730081744452
 20
67.93379293361261
 30
0.0
 10
76.65232719069216
 20
67.86333121722441
 30
0.0
 10
76.74291600671208
 20
67.72156886194315
 30
0.0
 10
76.8786788435522
 20
67.50909715127811
 30
0.0
 10
77.01481892857629
 20
67.29602410869619
 30
0.0
 10
77.10539594083846
 20
67.15425130279604
 30
0.0
 10
77.15079795206589
 20
67.0831872256361
 30
0.0
 11
76.60730081744452
 21
67.93379293361261
 31
0.0
 11
76.74237869356014
 21
67.72240698977282
 31
0.0
 11
76.87905890663183
 21
67.508500526506
 31
0.0
 11
77.01459070646031
 21
67.29637868280756
 31
0.0
 11
77.15079795206589
 21
67.0831872256361
 31
0.0
  0
SPLINE
  5
1CA
330
5A
100
AcDbEntity
  8
0
  6
Continuous
 62
     7
100
AcDbSpline
210
0.0
220
0.0
230
1.0
 70
     8
 71
     3
 72
    11
 73
     7
 74
     5
 42
0.000000001
 43
0.0000000001
 44
0.00000001
 40
0.0
 40
0.0
 40
0.0
 40
0.0
 40
0.2828196565171888
 40
0.5669461542309537
 40
0.8493551261160753
 40
1.133892298760109
 40
1.133892298760109
 40
1.133892298760109
 40
1.133892298760109
 10
19.51947102910469
 20
72.92833086538991
 30
0.0
 10
19.44711620605888
 20
72.86789727064615
 30
0.0
 10
19.30207223546749
 20
72.74675082061245
 30
0.0
 10
19.08478516566071
 20
72.56525056221969
 30
0.0
 10
18.86706307635767
 20
72.3833780583201
 30
0.0
 10
18.72203070968397
 20
72.26221772176133
 30
0.0
 10
18.64924232012788
 20
72.20141014206177
 30
0.0
 11
19.51947102910469
 21
72.92833086538991
 31
0.0
 11
19.30240766811276
 21
72.74702875446047
 31
0.0
 11
19.08434650253662
 21
72.5648826736055
 31
0.0
 11
18.86760856325722
 21
72.38383159496112
 31
0.0
 11
18.64924232012788
 21
72.20141014206177
 31
0.0
  0
ENDBLK
  5
5C
330
5A
100
AcDbEntity
  8
0
100
AcDbBlockEnd
  0
BLOCK
  5
5E
330
5D
100
AcDbEntity
  8
0
100
AcDbBlockBegin
  2
Holländermutter_6_4__2
 70
     0
 10
-40.00000000000918
 20
109.2535898384861
 30
0.0
  3
Holländermutter_6_4__2
  1

  0
LINE
  5
1CB
330
5D
100
AcDbEntity
  8
1
  6
PHANTOM
 62
     2
100
AcDbLine
 10
-40.0
 20
103.2535898384861
 30
0.0
 11
-40.0
 21
100.7535898384861
 31
0.0
  0
LINE
  5
1CC
330
5D
100
AcDbEntity
  8
0
  6
Continuous
 62
     7
100
AcDbLine
 10
-19.9008994965734
 20
103.2535898384861
 30
0.0
 11
-21.95150916201237
 21
103.2535898384861
 31
0.0
  0
LINE
  5
1CD
330
5D
100
AcDbEntity
  8
0
  6
Continuous
 62
     7
100
AcDbLine
 10
-13.57557947655368
 20
103.2535898384861
 30
0.0
 11
-19.1230820372657
 21
103.2535898384861
 31
0.0
  0
LINE
  5
1CE
330
5D
100
AcDbEntity
  8
0
  6
Continuous
 62
     7
100
AcDbLine
 10
-57.27067337868357
 20
103.2535898384861
 30
0.0
 11
-42.0
 21
103.2535898384861
 31
0.0
  0
LINE
  5
1CF
330
5D
100
AcDbEntity
  8
0
  6
Continuous
 62
     7
100
AcDbLine
 10
-12.4755794765515
 20
103.2535898384861
 30
0.0
 11
-13.57557947655368
 21
103.2535898384861
 31
0.0
  0
LINE
  5
1D0
330
5D
100
AcDbEntity
  8
0
  6
Continuous
 62
     7
100
AcDbLine
 10
-12.4755794765515
 20
116.5113072018078
 30
0.0
 11
-12.4755794765515
 21
103.2535898384861
 31
0.0
  0
LINE
  5
1D1
330
5D
100
AcDbEntity
  8
0
  6
Continuous
 62
     7
100
AcDbLine
 10
-13.57557947655368
 20
117.4317891008407
 30
0.0
 11
-19.9008994965734
 21
117.4317891008407
 31
0.0
  0
LINE
  5
1D2
330
5D
100
AcDbEntity
  8
0
  6
Continuous
 62
     7
100
AcDbLine
 10
-42.0
 20
117.4317891008407
 30
0.0
 11
-42.0
 21
116.5113072018078
 31
0.0
  0
LINE
  5
1D3
330
5D
100
AcDbEntity
  8
0
  6
Continuous
 62
     7
100
AcDbLine
 10
-13.57557947655368
 20
117.4317891008407
 30
0.0
 11
-13.57557947655368
 21
103.2535898384861
 31
0.0
  0
LINE
  5
1D4
330
5D
100
AcDbEntity
  8
0
  6
Continuous
 62
     7
100
AcDbLine
 10
-11.5
 20
103.2535898384861
 30
0.0
 11
-11.5
 21
100.7535898384861
 31
0.0
  0
LINE
  5
1D5
330
5D
100
AcDbEntity
  8
0
  6
Continuous
 62
     7
100
AcDbLine
 10
-68.5
 20
103.2535898384861
 30
0.0
 11
-68.5
 21
100.7535898384861
 31
0.0
  0
LINE
  5
1D6
330
5D
100
AcDbEntity
  8
0
  6
Continuous
 62
     7
100
AcDbLine
 10
-11.5
 20
100.7535898384861
 30
0.0
 11
-68.5
 21
100.7535898384861
 31
0.0
  0
LINE
  5
1D7
330
5D
100
AcDbEntity
  8
0
  6
Continuous
 62
     7
100
AcDbLine
 10
-67.5244205234485
 20
116.5113072018078
 30
0.0
 11
-67.5244205234485
 21
103.2535898384861
 31
0.0
  0
LINE
  5
1D8
330
5D
100
AcDbEntity
  8
0
  6
Continuous
 62
     7
100
AcDbLine
 10
-66.42442052344632
 20
103.2535898384861
 30
0.0
 11
-60.8769179627343
 21
103.2535898384861
 31
0.0
  0
LINE
  5
1D9
330
5D
100
AcDbEntity
  8
0
  6
Continuous
 62
     7
100
AcDbLine
 10
-66.42442052344632
 20
117.4317891008407
 30
0.0
 11
-66.42442052344632
 21
103.2535898384861
 31
0.0
  0
LINE
  5
1DA
330
5D
100
AcDbEntity
  8
0
  6
Continuous
 62
     7
100
AcDbLine
 10
-66.42442052344632
 20
117.4317891008407
 30
0.0
 11
-60.0991005034266
 21
117.4317891008407
 31
0.0
  0
LINE
  5
1DB
330
5D
100
AcDbEntity
  8
0
  6
Continuous
 62
     7
100
AcDbLine
 10
-19.84745673618454
 20
103.2535898384861
 30
0.0
 11
-19.9008994965734
 21
103.2535898384861
 31
0.0
  0
LINE
  5
1DC
330
5D
100
AcDbEntity
  8
0
  6
Continuous
 62
     7
100
AcDbLine
 10
-38.0
 20
103.2535898384861
 30
0.0
 11
-40.0
 21
103.2535898384861
 31
0.0
  0
LINE
  5
1DD
330
5D
100
AcDbEntity
  8
0
  6
Continuous
 62
     7
100
AcDbLine
 10
-58.04849083798763
 20
103.2535898384861
 30
0.0
 11
-60.0991005034266
 21
103.2535898384861
 31
0.0
  0
LINE
  5
1DE
330
5D
100
AcDbEntity
  8
0
  6
Continuous
 62
     7
100
AcDbLine
 10
-58.04849083798763
 20
103.2535898384861
 30
0.0
 11
-57.27067337868357
 21
103.2535898384861
 31
0.0
  0
LINE
  5
1DF
330
5D
100
AcDbEntity
  8
0
  6
Continuous
 62
     7
100
AcDbLine
 10
-42.0
 20
103.2535898384861
 30
0.0
 11
-40.0
 21
103.2535898384861
 31
0.0
  0
LINE
  5
1E0
330
5D
100
AcDbEntity
  8
0
  6
Continuous
 62
     7
100
AcDbLine
 10
-60.15254326381552
 20
103.2535898384861
 30
0.0
 11
-60.0991005034266
 21
103.2535898384861
 31
0.0
  0
LINE
  5
1E1
330
5D
100
AcDbEntity
  8
0
  6
Continuous
 62
     7
100
AcDbLine
 10
-60.8769179627343
 20
103.2535898384861
 30
0.0
 11
-60.15254326381552
 21
103.2535898384861
 31
0.0
  0
LINE
  5
1E2
330
5D
100
AcDbEntity
  8
0
  6
Continuous
 62
     7
100
AcDbLine
 10
-38.0
 20
103.2535898384861
 30
0.0
 11
-22.72932662132007
 21
103.2535898384861
 31
0.0
  0
LINE
  5
1E3
330
5D
100
AcDbEntity
  8
0
  6
Continuous
 62
     7
100
AcDbLine
 10
-22.72932662132007
 20
103.2535898384861
 30
0.0
 11
-21.95150916201237
 21
103.2535898384861
 31
0.0
  0
LINE
  5
1E4
330
5D
100
AcDbEntity
  8
0
  6
Continuous
 62
     7
100
AcDbLine
 10
-19.84745673618454
 20
103.2535898384861
 30
0.0
 11
-19.1230820372657
 21
103.2535898384861
 31
0.0
  0
LINE
  5
1E5
330
5D
100
AcDbEntity
  8
0
  6
Continuous
 62
     7
100
AcDbLine
 10
-19.1230820372657
 20
113.7535898384861
 30
0.0
 11
-19.1230820372657
 21
103.2535898384861
 31
0.0
  0
LINE
  5
1E6
330
5D
100
AcDbEntity
  8
0
  6
Continuous
 62
     7
100
AcDbLine
 10
-60.8769179627343
 20
114.7535898384861
 30
0.0
 11
-60.8769179627343
 21
103.2535898384861
 31
0.0
  0
LINE
  5
1E7
330
5D
100
AcDbEntity
  8
0
  6
Continuous
 62
     7
100
AcDbLine
 10
-40.0
 20
115.7535898384861
 30
0.0
 11
-40.0
 21
103.2535898384861
 31
0.0
  0
LINE
  5
1E8
330
5D
100
AcDbEntity
  8
0
  6
Continuous
 62
     7
100
AcDbLine
 10
-60.15254326381552
 20
115.7535898384861
 30
0.0
 11
-60.15254326381552
 21
103.2535898384861
 31
0.0
  0
LINE
  5
1E9
330
5D
100
AcDbEntity
  8
0
  6
Continuous
 62
     7
100
AcDbLine
 10
-19.84745673618454
 20
115.7535898384861
 30
0.0
 11
-19.84745673618454
 21
103.2535898384861
 31
0.0
  0
LINE
  5
1EA
330
5D
100
AcDbEntity
  8
0
  6
Continuous
 62
     7
100
AcDbLine
 10
-42.0
 20
116.5113072018078
 30
0.0
 11
-42.0
 21
103.2535898384861
 31
0.0
  0
LINE
  5
1EB
330
5D
100
AcDbEntity
  8
0
  6
Continuous
 62
     7
100
AcDbLine
 10
-21.95150916200146
 20
116.5113072018587
 30
0.0
 11
-21.95150916201237
 21
103.2535898384861
 31
0.0
  0
LINE
  5
1EC
330
5D
100
AcDbEntity
  8
0
  6
Continuous
 62
     7
100
AcDbLine
 10
-58.04849083798763
 20
116.5113072018078
 30
0.0
 11
-58.04849083798763
 21
103.2535898384861
 31
0.0
  0
LINE
  5
1ED
330
5D
100
AcDbEntity
  8
0
  6
Continuous
 62
     7
100
AcDbLine
 10
-60.8769179627343
 20
116.5113072018078
 30
0.0
 11
-60.8769179627343
 21
114.7535898384861
 31
0.0
  0
LINE
  5
1EE
330
5D
100
AcDbEntity
  8
0
  6
Continuous
 62
     7
100
AcDbLine
 10
-38.0
 20
116.5113072018078
 30
0.0
 11
-38.0
 21
103.2535898384861
 31
0.0
  0
LINE
  5
1EF
330
5D
100
AcDbEntity
  8
0
  6
Continuous
 62
     7
100
AcDbLine
 10
-22.72932662132007
 20
117.4317891008407
 30
0.0
 11
-22.72932662132007
 21
103.2535898384861
 31
0.0
  0
LINE
  5
1F0
330
5D
100
AcDbEntity
  8
0
  6
Continuous
 62
     7
100
AcDbLine
 10
-38.0
 20
117.4317891008407
 30
0.0
 11
-38.0
 21
116.5113072018078
 31
0.0
  0
LINE
  5
1F1
330
5D
100
AcDbEntity
  8
0
  6
Continuous
 62
     7
100
AcDbLine
 10
-57.27067337868357
 20
117.4317891008407
 30
0.0
 11
-57.27067337868357
 21
103.2535898384861
 31
0.0
  0
LINE
  5
1F2
330
5D
100
AcDbEntity
  8
0
  6
Continuous
 62
     7
100
AcDbLine
 10
-57.27067337868357
 20
117.4317891008407
 30
0.0
 11
-42.0
 21
117.4317891008407
 31
0.0
  0
LINE
  5
1F3
330
5D
100
AcDbEntity
  8
0
  6
Continuous
 62
     7
100
AcDbLine
 10
-38.0
 20
117.4317891008407
 30
0.0
 11
-22.72932662132007
 21
117.4317891008407
 31
0.0
  0
LINE
  5
1F4
330
5D
100
AcDbEntity
  8
0
  6
Continuous
 62
     7
100
AcDbLine
 10
-19.1230820372657
 20
116.5113072018078
 30
0.0
 11
-19.1230820372657
 21
114.7535898384861
 31
0.0
  0
LINE
  5
1F5
330
5D
100
AcDbEntity
  8
0
  6
Continuous
 62
     7
100
AcDbLine
 10
-19.1230820372657
 20
114.7535898384861
 30
0.0
 11
-19.1230820372657
 21
113.7535898384861
 31
0.0
  0
LINE
  5
1F6
330
5D
100
AcDbEntity
  8
0
  6
Continuous
 62
     7
100
AcDbLine
 10
-67.5244205234485
 20
103.2535898384861
 30
0.0
 11
-66.42442052344632
 21
103.2535898384861
 31
0.0
  0
LINE
  5
1F7
330
5D
100
AcDbEntity
  8
0
  6
Continuous
 62
     7
100
AcDbLine
 10
-11.50000000001819
 20
115.7535898385224
 30
0.0
 11
-13.88350718518996
 21
117.7535898384861
 31
0.0
  0
LINE
  5
1F8
330
5D
100
AcDbEntity
  8
0
  6
Continuous
 62
     7
100
AcDbLine
 10
-12.4755794765515
 20
103.2535898384861
 30
0.0
 11
-11.5
 21
103.2535898384861
 31
0.0
  0
LINE
  5
1F9
330
5D
100
AcDbEntity
  8
0
  6
Continuous
 62
     7
100
AcDbLine
 10
-67.5244205234485
 20
103.2535898384861
 30
0.0
 11
-68.5
 21
103.2535898384861
 31
0.0
  0
LINE
  5
1FA
330
5D
100
AcDbEntity
  8
0
  6
Continuous
 62
     7
100
AcDbLine
 10
-68.5
 20
115.7535898384861
 30
0.0
 11
-68.5
 21
103.2535898384861
 31
0.0
  0
LINE
  5
1FB
330
5D
100
AcDbEntity
  8
0
  6
Continuous
 62
     7
100
AcDbLine
 10
-11.50000000001819
 20
115.7535898385224
 30
0.0
 11
-11.5
 21
103.2535898384861
 31
0.0
  0
LINE
  5
1FC
330
5D
100
AcDbEntity
  8
0
  6
Continuous
 62
     7
100
AcDbLine
 10
-68.5
 20
115.7535898384861
 30
0.0
 11
-66.11649281480999
 21
117.7535898384861
 31
0.0
  0
LINE
  5
1FD
330
5D
100
AcDbEntity
  8
0
  6
Continuous
 62
     7
100
AcDbLine
 10
-66.11649281480999
 20
117.7535898384861
 30
0.0
 11
-13.88350718518996
 21
117.7535898384861
 31
0.0
  0
SPLINE
  5
1FE
330
5D
100
AcDbEntity
  8
0
  6
Continuous
 62
     7
100
AcDbSpline
210
0.0
220
0.0
230
1.0
 70
     8
 71
     3
 72
    11
 73
     7
 74
     5
 42
0.000000001
 43
0.0000000001
 44
0.00000001
 40
0.0
 40
0.0
 40
0.0
 40
0.0
 40
0.315298923447638
 40
0.6240834980412204
 40
0.9336077907776114
 40
1.235572026219465
 40
1.235572026219465
 40
1.235572026219465
 40
1.235572026219465
 10
-11.50000000001819
 20
115.7535898385224
 30
0.0
 10
-11.58084947026149
 20
115.8207465537526
 30
0.0
 10
-11.74087800013443
 20
115.9536724567806
 30
0.0
 10
-11.98493004879689
 20
116.1468030835065
 30
0.0
 10
-12.22869059947585
 20
116.3330819335407
 30
0.0
 10
-12.39396429439333
 20
116.4523904681458
 30
0.0
 10
-12.4755794765515
 20
116.5113072018078
 30
0.0
 11
-11.50000000001819
 21
115.7535898385224
 31
0.0
 11
-11.74334262767979
 21
115.9540836706722
 31
0.0
 11
-11.98527193283371
 21
116.145964167162
 31
0.0
 11
-12.23153952180428
 21
116.3334676672655
 31
0.0
 11
-12.4755794765515
 21
116.5113072018078
 31
0.0
  0
SPLINE
  5
1FF
330
5D
100
AcDbEntity
  8
0
  6
Continuous
 62
     7
100
AcDbSpline
210
0.0
220
0.0
230
1.0
 70
     8
 71
     3
 72
    11
 73
     7
 74
     5
 42
0.000000001
 43
0.0000000001
 44
0.00000001
 40
0.0
 40
0.0
 40
0.0
 40
0.0
 40
0.5543188591685076
 40
1.117553862962272
 40
1.673979122166449
 40
2.236567028802599
 40
2.236567028802599
 40
2.236567028802599
 40
2.236567028802599
 10
-21.95150916200146
 20
116.5113072018587
 30
0.0
 10
-21.77628497168659
 20
116.452666806795
 30
0.0
 10
-21.42301813825667
 20
116.3344427794885
 30
0.0
 10
-20.89702046283361
 20
116.1481417728169
 30
0.0
 10
-20.37055247294953
 20
115.9550301789864
 30
0.0
 10
-20.02246098501595
 20
115.8209826994857
 30
0.0
 10
-19.84745673618454
 20
115.7535898384861
 30
0.0
 11
-21.95150916200146
 21
116.5113072018587
 31
0.0
 11
-21.42635548476756
 21
116.3338726702785
 31
0.0
 11
-20.89523910463322
 21
116.146391843505
 31
0.0
 11
-20.37300263031875
 21
115.9543550394313
 31
0.0
 11
-19.84745673618454
 21
115.7535898384861
 31
0.0
  0
SPLINE
  5
200
330
5D
100
AcDbEntity
  8
0
  6
Continuous
 62
     7
100
AcDbSpline
210
0.0
220
0.0
230
1.0
 70
     8
 71
     3
 72
    11
 73
     7
 74
     5
 42
0.000000001
 43
0.0000000001
 44
0.00000001
 40
0.0
 40
0.0
 40
0.0
 40
0.0
 40
0.3565221488584157
 40
0.7171622810817975
 40
1.074239850857217
 40
1.434324554759889
 40
1.434324554759889
 40
1.434324554759889
 40
1.434324554759889
 10
-13.57557947655368
 20
117.4317891008407
 30
0.0
 10
-13.48443552457487
 20
117.3555270797082
 30
0.0
 10
-13.30109487863464
 20
117.2021221669232
 30
0.0
 10
-13.02647666773725
 20
116.9723264117717
 30
0.0
 10
-12.75095315983841
 20
116.7417620809391
 30
0.0
 10
-12.56762693624734
 20
116.5883399368942
 30
0.0
 10
-12.4755794765515
 20
116.5113072018078
 30
0.0
 11
-13.57557947655368
 21
117.4317891008407
 31
0.0
 11
-13.30214900543933
 21
117.2030013824358
 31
0.0
 11
-13.02556684287265
 21
116.971563243141
 31
0.0
 11
-12.75172317352008
 21
116.7424038322663
 31
0.0
 11
-12.4755794765515
 21
116.5113072018078
 31
0.0
  0
SPLINE
  5
201
330
5D
100
AcDbEntity
  8
0
  6
Continuous
 62
     7
100
AcDbSpline
210
0.0
220
0.0
230
1.0
 70
     8
 71
     3
 72
    11
 73
     7
 74
     5
 42
0.000000001
 43
0.0000000001
 44
0.00000001
 40
0.0
 40
0.0
 40
0.0
 40
0.0
 40
0.3572711679014612
 40
0.7171622810818492
 40
1.0741715695362
 40
1.43432455475989
 40
1.43432455475989
 40
1.43432455475989
 40
1.43432455475989
 10
-66.42442052344632
 20
117.4317891008407
 30
0.0
 10
-66.51575595902531
 20
117.3553668590947
 30
0.0
 10
-66.69909660266416
 20
117.2019619435591
 30
0.0
 10
-66.97369735183509
 20
116.9721807872384
 30
0.0
 10
-67.24902938535226
 20
116.7417766880359
 30
0.0
 10
-67.4323556091049
 20
116.588354544184
 30
0.0
 10
-67.5244205234485
 20
116.5113072018078
 30
0.0
 11
-66.42442052344632
 21
117.4317891008407
 31
0.0
 11
-66.69842543906678
 21
117.202520713073
 31
0.0
 11
-66.97443315712741
 21
116.971563243141
 31
0.0
 11
-67.2482244619532
 21
116.7424476534386
 31
0.0
 11
-67.5244205234485
 21
116.5113072018078
 31
0.0
  0
SPLINE
  5
202
330
5D
100
AcDbEntity
  8
0
  6
Continuous
 62
     7
100
AcDbSpline
210
0.0
220
0.0
230
1.0
 70
     8
 71
     3
 72
    11
 73
     7
 74
     5
 42
0.000000001
 43
0.0000000001
 44
0.00000001
 40
0.0
 40
0.0
 40
0.0
 40
0.0
 40
0.3023613649077043
 40
0.6025600718724604
 40
0.9059830063446807
 40
1.205108678842466
 40
1.205108678842466
 40
1.205108678842466
 40
1.205108678842466
 10
-19.1230820372657
 20
116.5113072018078
 30
0.0
 10
-19.18812983927178
 20
116.588293092354
 30
0.0
 10
-19.31776019638065
 20
116.7417142175493
 30
0.0
 10
-19.51267458850982
 20
116.9723848884443
 30
0.0
 10
-19.70689828267912
 20
117.2022271345166
 30
0.0
 10
-19.83654061628201
 20
117.355633136086
 30
0.0
 10
-19.9008994965734
 20
117.4317891008407
 30
0.0
 11
-19.1230820372657
 21
116.5113072018078
 31
0.0
 11
-19.31822676157434
 21
116.7422637595485
 31
0.0
 11
-19.51198181481959
 21
116.9715632209639
 31
0.0
 11
-19.70782423868513
 21
117.2033200378612
 31
0.0
 11
-19.9008994965734
 21
117.4317891008407
 31
0.0
  0
SPLINE
  5
203
330
5D
100
AcDbEntity
  8
0
  6
Continuous
 62
     7
100
AcDbSpline
210
0.0
220
0.0
230
1.0
 70
     8
 71
     3
 72
    11
 73
     7
 74
     5
 42
0.000000001
 43
0.0000000001
 44
0.00000001
 40
0.0
 40
0.0
 40
0.0
 40
0.0
 40
0.2994287919465624
 40
0.6025485779334936
 40
0.9027839839229457
 40
1.205108678840118
 40
1.205108678840118
 40
1.205108678840118
 40
1.205108678840118
 10
-57.27067337868357
 20
117.4317891008407
 30
0.0
 10
-57.33509747658574
 20
117.3555559628541
 30
0.0
 10
-57.46473980282774
 20
117.2021499677362
 30
0.0
 10
-57.65897138341309
 20
116.9722983828076
 30
0.0
 10
-57.85382056173431
 20
116.7417048883591
 30
0.0
 10
-57.98345092495936
 20
116.5882837556614
 30
0.0
 10
-58.04849083798763
 20
116.5113072018078
 30
0.0
 11
-57.27067337868357
 21
117.4317891008407
 31
0.0
 11
-57.46394428637815
 21
117.2030885156084
 31
0.0
 11
-57.65959104169451
 21
116.971563243141
 31
0.0
 11
-57.85336978094709
 21
116.7422357497533
 31
0.0
 11
-58.04849083798763
 21
116.5113072018078
 31
0.0
  0
SPLINE
  5
204
330
5D
100
AcDbEntity
  8
0
  6
Continuous
 62
     7
100
AcDbSpline
210
0.0
220
0.0
230
1.0
 70
     8
 71
     3
 72
    11
 73
     7
 74
     5
 42
0.000000001
 43
0.0000000001
 44
0.00000001
 40
0.0
 40
0.0
 40
0.0
 40
0.0
 40
0.3024286829096285
 40
0.6025600718406201
 40
0.9055648577537323
 40
1.205108678810626
 40
1.205108678810626
 40
1.205108678810626
 40
1.205108678810626
 10
-21.95150916200146
 20
116.5113072018587
 30
0.0
 10
-22.01657144642157
 20
116.5883102325156
 30
0.0
 10
-22.14620180374829
 20
116.7417313575129
 30
0.0
 10
-22.34102623561987
 20
116.9722955636966
 30
0.0
 10
-22.53523544227388
 20
117.2021206739549
 30
0.0
 10
-22.6648777743473
 20
117.355526676817
 30
0.0
 10
-22.72932662132007
 20
117.4317891008407
 30
0.0
 11
-21.95150916200146
 21
116.5113072018587
 31
0.0
 11
-22.14669733421351
 21
116.7423151793726
 31
0.0
 11
-22.34040893956626
 21
116.9715632209639
 31
0.0
 11
-22.53598146756985
 21
117.2030006565198
 31
0.0
 11
-22.72932662132007
 21
117.4317891008407
 31
0.0
  0
SPLINE
  5
205
330
5D
100
AcDbEntity
  8
0
  6
Continuous
 62
     7
100
AcDbSpline
210
0.0
220
0.0
230
1.0
 70
     8
 71
     3
 72
    11
 73
     7
 74
     5
 42
0.000000001
 43
0.0000000001
 44
0.00000001
 40
0.0
 40
0.0
 40
0.0
 40
0.0
 40
0.2998864799384314
 40
0.602548577935841
 40
0.9017237172664312
 40
1.205108678842467
 40
1.205108678842467
 40
1.205108678842467
 40
1.205108678842467
 10
-60.0991005034266
 20
117.4317891008407
 30
0.0
 10
-60.16362307512605
 20
117.3554394369871
 30
0.0
 10
-60.29326539973112
 20
117.2020334404847
 30
0.0
 10
-60.48726886187984
 20
116.9724517985941
 30
0.0
 10
-60.68201958337187
 20
116.7419748443501
 30
0.0
 10
-60.81164995000171
 20
116.5885537145291
 30
0.0
 10
-60.8769179627343
 20
116.5113072018078
 30
0.0
 11
-60.0991005034266
 21
117.4317891008407
 31
0.0
 11
-60.29266682787736
 21
117.2027389340899
 31
0.0
 11
-60.48801816644118
 21
116.971563243141
 31
0.0
 11
-60.68111259637818
 21
116.7430456177356
 31
0.0
 11
-60.8769179627343
 21
116.5113072018078
 31
0.0
  0
SPLINE
  5
206
330
5D
100
AcDbEntity
  8
0
  6
Continuous
 62
     7
100
AcDbSpline
210
0.0
220
0.0
230
1.0
 70
     8
 71
     3
 72
    11
 73
     7
 74
     5
 42
0.000000001
 43
0.0000000001
 44
0.00000001
 40
0.0
 40
0.0
 40
0.0
 40
0.0
 40
0.5401144726114576
 40
1.069443422464153
 40
1.607110367596457
 40
2.13896765736481
 40
2.13896765736481
 40
2.13896765736481
 40
2.13896765736481
 10
-40.0
 20
115.7535898384861
 30
0.0
 10
-40.16686778183634
 20
115.8211910885621
 30
0.0
 10
-40.49727117546826
 20
115.9550436484125
 30
0.0
 10
-40.99707189748405
 20
116.1479104981022
 30
0.0
 10
-41.49649359287142
 20
116.3340283299846
 30
0.0
 10
-41.83277341992585
 20
116.4524286327036
 30
0.0
 10
-42.0
 20
116.5113072018078
 30
0.0
 11
-40.0
 21
115.7535898384861
 31
0.0
 11
-40.50116104229478
 21
115.9549880839324
 31
0.0
 11
-40.99483833863997
 21
116.145964167162
 31
0.0
 11
-41.49886445534773
 21
116.3331630392715
 31
0.0
 11
-42.0
 21
116.5113072018078
 31
0.0
  0
SPLINE
  5
207
330
5D
100
AcDbEntity
  8
0
  6
Continuous
 62
     7
100
AcDbSpline
210
0.0
220
0.0
230
1.0
 70
     8
 71
     3
 72
    11
 73
     7
 74
     5
 42
0.000000001
 43
0.0000000001
 44
0.00000001
 40
0.0
 40
0.0
 40
0.0
 40
0.0
 40
0.2712732238834619
 40
0.5327401942680431
 40
0.7946573268782501
 40
1.048535542549095
 40
1.048535542549095
 40
1.048535542549095
 40
1.048535542549095
 10
-60.15254326381552
 20
115.7535898384861
 30
0.0
 10
-60.21280799831147
 20
115.8210086929598
 30
0.0
 10
-60.33115896893877
 20
115.953409268339
 30
0.0
 10
-60.51241573184115
 20
116.1465946326646
 30
0.0
 10
-60.69296614909267
 20
116.3324507497871
 30
0.0
 10
-60.8162411211525
 20
116.4523110815168
 30
0.0
 10
-60.8769179627343
 20
116.5113072018078
 30
0.0
 11
-60.15254326381552
 21
115.7535898384861
 31
0.0
 11
-60.33415785976832
 21
115.9550974079796
 31
0.0
 11
-60.51286112482921
 21
116.145964167162
 31
0.0
 11
-60.69572587485254
 21
116.3334770138515
 31
0.0
 11
-60.8769179627343
 21
116.5113072018078
 31
0.0
  0
SPLINE
  5
208
330
5D
100
AcDbEntity
  8
0
  6
Continuous
 62
     7
100
AcDbSpline
210
0.0
220
0.0
230
1.0
 70
     8
 71
     3
 72
    11
 73
     7
 74
     5
 42
0.000000001
 43
0.0000000001
 44
0.00000001
 40
0.0
 40
0.0
 40
0.0
 40
0.0
 40
0.5642569841862561
 40
1.117752099907127
 40
1.680943573996666
 40
2.236567026744468
 40
2.236567026744468
 40
2.236567026744468
 40
2.236567026744468
 10
-60.15254326381552
 20
115.7535898384861
 30
0.0
 10
-59.977019234702
 20
115.8211811911107
 30
0.0
 10
-59.62931887720747
 20
115.9550747371145
 30
0.0
 10
-59.10325871887871
 20
116.1480347909671
 30
0.0
 10
-58.57779140402098
 20
116.3341668087976
 30
0.0
 10
-58.22412692845988
 20
116.4525272848761
 30
0.0
 10
-58.04849083798763
 20
116.5113072018078
 30
0.0
 11
-60.15254326381552
 21
115.7535898384861
 31
0.0
 11
-59.62543447256439
 21
115.9549409409112
 31
0.0
 11
-59.10594725395282
 21
116.145964167162
 31
0.0
 11
-58.57487762808113
 21
116.333446670665
 31
0.0
 11
-58.04849083798763
 21
116.5113072018078
 31
0.0
  0
SPLINE
  5
209
330
5D
100
AcDbEntity
  8
0
  6
Continuous
 62
     7
100
AcDbSpline
210
0.0
220
0.0
230
1.0
 70
     8
 71
     3
 72
    11
 73
     7
 74
     5
 42
0.000000001
 43
0.0000000001
 44
0.00000001
 40
0.0
 40
0.0
 40
0.0
 40
0.0
 40
0.5373994098884487
 40
1.069443421120874
 40
1.607942799014357
 40
2.138967656576368
 40
2.138967656576368
 40
2.138967656576368
 40
2.138967656576368
 10
-40.0
 20
115.7535898384861
 30
0.0
 10
-39.83397211191888
 20
115.8208538421821
 30
0.0
 10
-39.50357086407001
 20
115.9547115231692
 30
0.0
 10
-39.00351747066969
 20
116.1476948138714
 30
0.0
 10
-38.50324561336075
 20
116.33412324656
 30
0.0
 10
-38.16696515839853
 20
116.4525217028358
 30
0.0
 10
-38.0
 20
116.5113072018078
 30
0.0
 11
-40.0
 21
115.7535898384861
 31
0.0
 11
-39.50136473285056
 21
115.9539919247061
 31
0.0
 11
-39.00516166136003
 21
116.145964167162
 31
0.0
 11
-38.50035316920457
 21
116.3334474101318
 31
0.0
 11
-38.0
 21
116.5113072018078
 31
0.0
  0
SPLINE
  5
20A
330
5D
100
AcDbEntity
  8
0
  6
Continuous
 62
     7
100
AcDbSpline
210
0.0
220
0.0
230
1.0
 70
     8
 71
     3
 72
    11
 73
     7
 74
     5
 42
0.000000001
 43
0.0000000001
 44
0.00000001
 40
0.0
 40
0.0
 40
0.0
 40
0.0
 40
0.2532283968016877
 40
0.5152040065314841
 40
0.7778363652519817
 40
1.048535546975668
 40
1.048535546975668
 40
1.048535546975668
 40
1.048535546975668
 10
-19.1230820372657
 20
116.5113072018078
 30
0.0
 10
-19.18360449102986
 20
116.4524630567385
 30
0.0
 10
-19.3067400017782
 20
116.3327421154243
 30
0.0
 10
-19.48743349917921
 20
116.1467582240845
 30
0.0
 10
-19.66883888640994
 20
115.9534150160435
 30
0.0
 10
-19.78732010029129
 20
115.8208665149413
 30
0.0
 10
-19.84745673618454
 20
115.7535898384861
 30
0.0
 11
-19.1230820372657
 21
116.5113072018078
 31
0.0
 11
-19.30381539696555
 21
116.3339373235719
 31
0.0
 11
-19.48673044041425
 21
116.146391843505
 31
0.0
 11
-19.66623045010419
 21
115.9546745973546
 31
0.0
 11
-19.84745673618454
 21
115.7535898384861
 31
0.0
  0
SPLINE
  5
20B
330
5D
100
AcDbEntity
  8
0
  6
Continuous
 62
     7
100
AcDbSpline
210
0.0
220
0.0
230
1.0
 70
     8
 71
     3
 72
    11
 73
     7
 74
     5
 42
0.000000001
 43
0.0000000001
 44
0.00000001
 40
0.0
 40
0.0
 40
0.0
 40
0.0
 40
0.3158789477961305
 40
0.6240832434645519
 40
0.9336075373332502
 40
1.235572027457295
 40
1.235572027457295
 40
1.235572027457295
 40
1.235572027457295
 10
-68.5
 20
115.7535898384861
 30
0.0
 10
-68.4190012541072
 20
115.8208694627109
 30
0.0
 10
-68.2589717130644
 20
115.9537940617096
 30
0.0
 10
-68.01491638493887
 20
116.1469202899764
 30
0.0
 10
-67.77130955331614
 20
116.3330818557862
 30
0.0
 10
-67.60603577933958
 20
116.452390425677
 30
0.0
 10
-67.5244205234485
 20
116.5113072018078
 30
0.0
 11
-68.5
 21
115.7535898384861
 31
0.0
 11
-68.25620632311029
 21
115.9544483777857
 31
0.0
 11
-68.01472826912868
 21
116.1459640101286
 31
0.0
 11
-67.76846068243094
 21
116.3334675150866
 31
0.0
 11
-67.5244205234485
 21
116.5113072018078
 31
0.0
  0
ENDBLK
  5
5F
330
5D
100
AcDbEntity
  8
0
100
AcDbBlockEnd
  0
BLOCK
  5
61
330
60
100
AcDbEntity
  8
0
100
AcDbBlockBegin
  2
Dichtstopfen
 70
     0
 10
-135.9164030879789
 20
235.032204981139
 30
0.0
  3
Dichtstopfen
  1

  0
LINE
  5
20C
330
60
100
AcDbEntity
  8
0
  6
Continuous
 62
     7
100
AcDbLine
 10
-144.2000216886915
 20
237.9247234128741
 30
0.0
 11
-129.7111342943555
 21
234.042437736336
 31
0.0
  0
LINE
  5
20D
330
60
100
AcDbEntity
  8
0
  6
Continuous
 62
     7
100
AcDbLine
 10
-145.1797464553561
 20
238.1872398729066
 30
0.0
 11
-144.2000216886915
 21
237.9247234128741
 31
0.0
  0
LINE
  5
20E
330
60
100
AcDbEntity
  8
0
  6
Continuous
 62
     7
100
AcDbLine
 10
-129.7111342943555
 20
234.042437736336
 30
0.0
 11
-128.731409527691
 21
233.7799212763034
 31
0.0
  0
LINE
  5
20F
330
60
100
AcDbEntity
  8
0
  6
Continuous
 62
     7
100
AcDbLine
 10
-146.1318733412696
 20
238.4423615030792
 30
0.0
 11
-145.1797464553561
 21
238.1872398729066
 31
0.0
  0
LINE
  5
210
330
60
100
AcDbEntity
  8
0
  6
Continuous
 62
     7
100
AcDbLine
 10
-125.7009328346881
 20
231.6220484591988
 30
0.0
 11
-125.3644680760548
 21
232.8777520333746
 31
0.0
  0
LINE
  5
211
330
60
100
AcDbEntity
  8
0
  6
Continuous
 62
     7
100
AcDbLine
 10
-128.731409527691
 20
233.7799212763034
 30
0.0
 11
-125.3644680760548
 21
232.8777520333746
 31
0.0
  0
LINE
  5
212
330
60
100
AcDbEntity
  8
0
  6
Continuous
 62
     7
100
AcDbLine
 10
-146.468338099903
 20
237.1866579289034
 30
0.0
 11
-146.1318733412696
 21
238.4423615030792
 31
0.0
  0
LINE
  5
213
330
60
100
AcDbEntity
  8
0
  6
Continuous
 62
     7
100
AcDbLine
 10
-146.468338099903
 20
237.1866579289034
 30
0.0
 11
-125.7009328346881
 21
231.6220484591988
 31
0.0
  0
ENDBLK
  5
62
330
60
100
AcDbEntity
  8
0
100
AcDbBlockEnd
  0
BLOCK
  5
64
330
63
100
AcDbEntity
  8
0
100
AcDbBlockBegin
  2
Holländermutter_1
 70
     0
 10
-91.30351495319287
 20
282.9303997440071
 30
0.0
  3
Holländermutter_1
  1

  0
LINE
  5
214
330
63
100
AcDbEntity
  8
1
  6
DOT_CENTER
 62
     2
100
AcDbLine
 10
-99.12827920709353
 20
285.8938048772506
 30
0.0
 11
-95.74753881508181
 21
284.9879382193916
 31
0.0
  0
LINE
  5
215
330
63
100
AcDbEntity
  8
0
  6
Continuous
 62
     7
100
AcDbLine
 10
-97.30069571236785
 20
279.1914777665946
 30
0.0
 11
-87.1584745363327
 21
276.4738777930179
 31
0.0
  0
LINE
  5
216
330
63
100
AcDbEntity
  8
0
  6
Continuous
 62
     7
100
AcDbLine
 10
-82.37778303413839
 20
294.3156613745183
 30
0.0
 11
-83.94679011043257
 21
288.4600472483538
 31
0.0
  0
LINE
  5
217
330
63
100
AcDbEntity
  8
0
  6
Continuous
 62
     7
100
AcDbLine
 10
-82.0093043229623
 20
295.6908426461349
 30
0.0
 11
-82.37778303413839
 21
294.3156613745183
 31
0.0
  0
LINE
  5
218
330
63
100
AcDbEntity
  8
0
  6
Continuous
 62
     7
100
AcDbLine
 10
-84.05216074176059
 20
288.0667986986122
 30
0.0
 11
-84.69945098118774
 21
285.6510786378267
 31
0.0
  0
LINE
  5
219
330
63
100
AcDbEntity
  8
0
  6
Continuous
 62
     7
100
AcDbLine
 10
-94.1943819177958
 20
290.7843986721887
 30
0.0
 11
-84.05216074176059
 21
288.0667986986122
 31
0.0
  0
LINE
  5
21A
330
63
100
AcDbEntity
  8
0
  6
Continuous
 62
     7
100
AcDbLine
 10
-87.1584745363327
 20
276.4738777930179
 30
0.0
 11
-87.26384516766072
 21
276.0806292432761
 31
0.0
  0
LINE
  5
21B
330
63
100
AcDbEntity
  8
0
  6
Continuous
 62
     7
100
AcDbLine
 10
-84.69945098118774
 20
285.6510786378267
 30
0.0
 11
-86.51118429690553
 21
278.8895978538033
 31
0.0
  0
LINE
  5
21C
330
63
100
AcDbEntity
  8
0
  6
Continuous
 62
     7
100
AcDbLine
 10
-91.74726354914202
 20
296.8262061120129
 30
0.0
 11
-93.31627062543623
 21
290.9705919858483
 31
0.0
  0
LINE
  5
21D
330
63
100
AcDbEntity
  8
0
  6
Continuous
 62
     7
100
AcDbLine
 10
-92.15152549899753
 20
298.4084426197113
 30
0.0
 11
-82.0093043229623
 21
295.6908426461349
 31
0.0
  0
LINE
  5
21E
330
63
100
AcDbEntity
  8
0
  6
Continuous
 62
     7
100
AcDbLine
 10
-90.28970490007558
 20
264.787966985328
 30
0.0
 11
-90.49137977256893
 21
264.0353061145728
 31
0.0
  0
LINE
  5
21F
330
63
100
AcDbEntity
  8
0
  6
Continuous
 62
     7
100
AcDbLine
 10
-90.57464330501588
 20
263.7245623810632
 30
0.0
 11
-90.69111187531198
 21
263.2898957592335
 31
0.0
  0
LINE
  5
220
330
63
100
AcDbEntity
  8
0
  6
Continuous
 62
     7
100
AcDbLine
 10
-90.49137977256893
 20
264.0353061145728
 30
0.0
 11
-90.57464330501588
 21
263.7245623810632
 31
0.0
  0
LINE
  5
221
330
63
100
AcDbEntity
  8
0
  6
Continuous
 62
     7
100
AcDbLine
 10
-89.38383824221668
 20
268.1687073773397
 30
0.0
 11
-90.28970490007558
 21
264.787966985328
 31
0.0
  0
LINE
  5
222
330
63
100
AcDbEntity
  8
0
  6
Continuous
 62
     7
100
AcDbLine
 10
-89.20133095513097
 20
268.8498338454951
 30
0.0
 11
-89.38383824221668
 21
268.1687073773397
 31
0.0
  0
LINE
  5
223
330
63
100
AcDbEntity
  8
0
  6
Continuous
 62
     7
100
AcDbLine
 10
-87.26384516766072
 20
276.0806292432761
 30
0.0
 11
-88.83285224395487
 21
270.2250151171116
 31
0.0
  0
LINE
  5
224
330
63
100
AcDbEntity
  8
0
  6
Continuous
 62
     7
100
AcDbLine
 10
-88.83285224395487
 20
270.2250151171116
 30
0.0
 11
-89.20133095513097
 21
268.8498338454951
 31
0.0
  0
LINE
  5
225
330
63
100
AcDbEntity
  8
0
  6
Continuous
 62
     7
100
AcDbLine
 10
-80.7192555055243
 20
300.5053703770572
 30
0.0
 11
-80.92093037801769
 21
299.752709506302
 31
0.0
  0
LINE
  5
226
330
63
100
AcDbEntity
  8
0
  6
Continuous
 62
     7
100
AcDbLine
 10
-80.92093037801769
 20
299.752709506302
 30
0.0
 11
-81.82679703587658
 21
296.3719691142903
 31
0.0
  0
LINE
  5
227
330
63
100
AcDbEntity
  8
0
  6
Continuous
 62
     7
100
AcDbLine
 10
-80.51952340278132
 20
301.2507807323966
 30
0.0
 11
-80.63599197307738
 21
300.8161141105668
 31
0.0
  0
LINE
  5
228
330
63
100
AcDbEntity
  8
0
  6
Continuous
 62
     7
100
AcDbLine
 10
-80.63599197307738
 20
300.8161141105668
 30
0.0
 11
-80.7192555055243
 21
300.5053703770572
 31
0.0
  0
LINE
  5
229
330
63
100
AcDbEntity
  8
0
  6
Continuous
 62
     7
100
AcDbLine
 10
-86.51118429690553
 20
278.8895978538033
 30
0.0
 11
-87.1584745363327
 21
276.4738777930179
 31
0.0
  0
LINE
  5
22A
330
63
100
AcDbEntity
  8
0
  6
Continuous
 62
     3
100
AcDbLine
 10
-79.9071509670855
 20
301.6043341229898
 30
0.0
 11
-90.3375584847187
 21
262.6775233235376
 31
0.0
  0
LINE
  5
22B
330
63
100
AcDbEntity
  8
0
  6
Continuous
 62
     7
100
AcDbLine
 10
-82.37778303413839
 20
294.3156613745183
 30
0.0
 11
-91.74726354914202
 21
296.8262061120129
 31
0.0
  0
LINE
  5
22C
330
63
100
AcDbEntity
  8
0
  6
Continuous
 62
     7
100
AcDbLine
 10
-77.97529931450737
 20
301.0866960327847
 30
0.0
 11
-88.40570683214057
 21
262.1598852333325
 31
0.0
  0
LINE
  5
22D
330
63
100
AcDbEntity
  8
0
  6
Continuous
 62
     7
100
AcDbLine
 10
-77.97529931450737
 20
301.0866960327847
 30
0.0
 11
-79.9071509670855
 21
301.6043341229898
 31
0.0
  0
LINE
  5
22E
330
63
100
AcDbEntity
  8
0
  6
Continuous
 62
     7
100
AcDbLine
 10
-88.83285224395487
 20
270.2250151171116
 30
0.0
 11
-98.2023327589585
 21
272.7355598546062
 31
0.0
  0
LINE
  5
22F
330
63
100
AcDbEntity
  8
0
  6
Continuous
 62
     7
100
AcDbLine
 10
-88.40570683214057
 20
262.1598852333325
 30
0.0
 11
-90.3375584847187
 21
262.6775233235376
 31
0.0
  0
LINE
  5
230
330
63
100
AcDbEntity
  8
0
  6
Continuous
 62
     7
100
AcDbLine
 10
-99.94412382001954
 20
266.2351071185577
 30
0.0
 11
-90.57464330501588
 21
263.7245623810632
 31
0.0
  0
LINE
  5
231
330
63
100
AcDbEntity
  8
0
  6
Continuous
 62
     7
100
AcDbLine
 10
-98.75331875722031
 20
270.6792521148343
 30
0.0
 11
-99.65918541507921
 21
267.2985117228226
 31
0.0
  0
LINE
  5
232
330
63
100
AcDbEntity
  8
0
  6
Continuous
 62
     7
100
AcDbLine
 10
-100.249418789025
 20
268.1866934270603
 30
0.0
 11
-99.34355213116609
 21
271.567433819072
 31
0.0
  0
LINE
  5
233
330
63
100
AcDbEntity
  8
0
  6
Continuous
 62
     7
100
AcDbLine
 10
-89.38383824221668
 20
268.1687073773397
 30
0.0
 11
-98.75331875722031
 21
270.6792521148343
 31
0.0
  0
LINE
  5
234
330
63
100
AcDbEntity
  8
0
  6
Continuous
 62
     7
100
AcDbLine
 10
-99.34355213116609
 20
271.567433819072
 30
0.0
 11
-89.20133095513097
 21
268.8498338454951
 31
0.0
  0
LINE
  5
235
330
63
100
AcDbEntity
  8
0
  6
Continuous
 62
     7
100
AcDbLine
 10
-90.49137977256893
 20
264.0353061145728
 30
0.0
 11
-99.86086028757259
 21
266.5458508520674
 31
0.0
  0
LINE
  5
236
330
63
100
AcDbEntity
  8
0
  6
Continuous
 62
     7
100
AcDbLine
 10
-103.8905496369807
 20
268.1207696735302
 30
0.0
 11
-100.509809244969
 21
267.2149030156712
 31
0.0
  0
LINE
  5
237
330
63
100
AcDbEntity
  8
0
  6
Continuous
 62
     7
100
AcDbLine
 10
-90.28970490007558
 20
264.787966985328
 30
0.0
 11
-99.65918541507921
 21
267.2985117228226
 31
0.0
  0
LINE
  5
238
330
63
100
AcDbEntity
  8
0
  6
Continuous
 62
     7
100
AcDbLine
 10
-100.509809244969
 20
267.2149030156712
 30
0.0
 11
-99.94412382001954
 21
266.2351071185577
 31
0.0
  0
LINE
  5
239
330
63
100
AcDbEntity
  8
0
  6
Continuous
 62
     7
100
AcDbLine
 10
-100.509809244969
 20
267.2149030156712
 30
0.0
 11
-100.4228596859481
 21
267.5394031876332
 31
0.0
  0
LINE
  5
23A
330
63
100
AcDbEntity
  8
0
  6
Continuous
 62
     7
100
AcDbLine
 10
-100.4228596859481
 20
267.5394031876332
 30
0.0
 11
-99.68853371672301
 21
267.3426411371981
 31
0.0
  0
LINE
  5
23B
330
63
100
AcDbEntity
  8
0
  6
Continuous
 62
     7
100
AcDbLine
 10
-99.86086028757259
 20
266.5458508520674
 30
0.0
 11
-99.94412382001954
 21
266.2351071185577
 31
0.0
  0
LINE
  5
23C
330
63
100
AcDbEntity
  8
0
  6
Continuous
 62
     7
100
AcDbLine
 10
-84.69945098118774
 20
285.6510786378267
 30
0.0
 11
-94.06893149619137
 21
288.1616233753213
 31
0.0
  0
LINE
  5
23D
330
63
100
AcDbEntity
  8
0
  6
Continuous
 62
     7
100
AcDbLine
 10
-83.94679011043257
 20
288.4600472483538
 30
0.0
 11
-84.05216074176059
 21
288.0667986986122
 31
0.0
  0
LINE
  5
23E
330
63
100
AcDbEntity
  8
0
  6
Continuous
 62
     7
100
AcDbLine
 10
-81.82679703587658
 20
296.3719691142903
 30
0.0
 11
-82.0093043229623
 21
295.6908426461349
 31
0.0
  0
LINE
  5
23F
330
63
100
AcDbEntity
  8
0
  6
Continuous
 62
     7
100
AcDbLine
 10
-80.92093037801769
 20
299.752709506302
 30
0.0
 11
-90.29041089302132
 21
302.2632542437966
 31
0.0
  0
LINE
  5
240
330
63
100
AcDbEntity
  8
0
  6
Continuous
 62
     7
100
AcDbLine
 10
-83.94679011043257
 20
288.4600472483538
 30
0.0
 11
-93.31627062543623
 21
290.9705919858483
 31
0.0
  0
LINE
  5
241
330
63
100
AcDbEntity
  8
0
  6
Continuous
 62
     7
100
AcDbLine
 10
-81.82679703587658
 20
296.3719691142903
 30
0.0
 11
-91.19627755088021
 21
298.8825138517849
 31
0.0
  0
LINE
  5
242
330
63
100
AcDbEntity
  8
0
  6
Continuous
 62
     7
100
AcDbLine
 10
-80.7192555055243
 20
300.5053703770572
 30
0.0
 11
-90.08873602052793
 21
303.0159151145517
 31
0.0
  0
LINE
  5
243
330
63
100
AcDbEntity
  8
0
  6
Continuous
 62
     7
100
AcDbLine
 10
-90.00547248808101
 20
303.3266588480614
 30
0.0
 11
-80.63599197307738
 21
300.8161141105668
 31
0.0
  0
LINE
  5
244
330
63
100
AcDbEntity
  8
0
  6
Continuous
 62
     7
100
AcDbLine
 10
-90.00547248808101
 20
303.3266588480614
 30
0.0
 11
-90.08873602052793
 21
303.0159151145517
 31
0.0
  0
LINE
  5
245
330
63
100
AcDbEntity
  8
0
  6
Continuous
 62
     7
100
AcDbLine
 10
-87.26384516766072
 20
276.0806292432761
 30
0.0
 11
-96.63332568266432
 21
278.5911739807707
 31
0.0
  0
LINE
  5
246
330
63
100
AcDbEntity
  8
0
  6
Continuous
 62
     7
100
AcDbLine
 10
-86.51118429690553
 20
278.8895978538033
 30
0.0
 11
-95.88066481190916
 21
281.4001425912978
 31
0.0
  0
LINE
  5
247
330
63
100
AcDbEntity
  8
0
  6
Continuous
 62
     7
100
AcDbLine
 10
-90.98526838519464
 20
302.760973423112
 30
0.0
 11
-90.00547248808101
 21
303.3266588480614
 31
0.0
  0
LINE
  5
248
330
63
100
AcDbEntity
  8
0
  6
Continuous
 62
     7
100
AcDbLine
 10
-94.06893149619137
 20
288.1616233753213
 30
0.0
 11
-95.88066481190916
 21
281.4001425912978
 31
0.0
  0
LINE
  5
249
330
63
100
AcDbEntity
  8
0
  6
Continuous
 62
     7
100
AcDbLine
 10
-94.84167215722292
 20
288.3686786114033
 30
0.0
 11
-94.06893149619137
 21
288.1616233753213
 31
0.0
  0
LINE
  5
24A
330
63
100
AcDbEntity
  8
0
  6
Continuous
 62
     7
100
AcDbLine
 10
-95.88066481190916
 20
281.4001425912978
 30
0.0
 11
-96.6534054729407
 21
281.6071978273799
 31
0.0
  0
LINE
  5
24B
330
63
100
AcDbEntity
  8
0
  6
Continuous
 62
     7
100
AcDbLine
 10
-96.6534054729407
 20
281.6071978273799
 30
0.0
 11
-94.84167215722292
 21
288.3686786114033
 31
0.0
  0
LINE
  5
24C
330
63
100
AcDbEntity
  8
0
  6
Continuous
 62
     7
100
AcDbLine
 10
-98.86970278866204
 20
273.33586364043
 30
0.0
 11
-97.30069571236785
 21
279.1914777665946
 31
0.0
  0
LINE
  5
24D
330
63
100
AcDbEntity
  8
0
  6
Continuous
 62
     7
100
AcDbLine
 10
-94.1943819177958
 20
290.7843986721887
 30
0.0
 11
-92.62537484150158
 21
296.6400127983533
 31
0.0
  0
LINE
  5
24E
330
63
100
AcDbEntity
  8
0
  6
Continuous
 62
     7
100
AcDbLine
 10
-92.15152549899753
 20
298.4084426197113
 30
0.0
 11
-91.24565884113863
 21
301.789183011723
 31
0.0
  0
LINE
  5
24F
330
63
100
AcDbEntity
  8
0
  6
Continuous
 62
     7
100
AcDbLine
 10
-91.07221794421557
 20
302.4364732511501
 30
0.0
 11
-90.33789197499053
 21
302.2397112007151
 31
0.0
  0
LINE
  5
250
330
63
100
AcDbEntity
  8
0
  6
Continuous
 62
     7
100
AcDbLine
 10
-90.29041089302132
 20
302.2632542437966
 30
0.0
 11
-91.19627755088021
 21
298.8825138517849
 31
0.0
  0
LINE
  5
251
330
63
100
AcDbEntity
  8
0
  6
Continuous
 62
     7
100
AcDbLine
 10
-96.63332568266432
 20
278.5911739807707
 30
0.0
 11
-98.2023327589585
 21
272.7355598546062
 31
0.0
  0
LINE
  5
252
330
63
100
AcDbEntity
  8
0
  6
Continuous
 62
     3
100
AcDbLine
 10
-94.36600877720636
 20
303.6668400809709
 30
0.0
 11
-103.8905496369807
 21
268.1207696735302
 31
0.0
  0
LINE
  5
253
330
63
100
AcDbEntity
  8
0
  6
Continuous
 62
     7
100
AcDbLine
 10
-91.07221794421557
 20
302.4364732511501
 30
0.0
 11
-90.98526838519464
 21
302.760973423112
 31
0.0
  0
LINE
  5
254
330
63
100
AcDbEntity
  8
0
  6
Continuous
 62
     7
100
AcDbLine
 10
-94.36600877720636
 20
303.6668400809709
 30
0.0
 11
-90.98526838519464
 21
302.760973423112
 31
0.0
  0
LINE
  5
255
330
63
100
AcDbEntity
  8
0
  6
Continuous
 62
     7
100
AcDbLine
 10
-95.590753648598
 20
302.9597332997843
 30
0.0
 11
-104.5976564181672
 21
269.3455145449219
 31
0.0
  0
ARC
  5
256
330
63
100
AcDbEntity
  8
0
  6
Continuous
 62
     7
100
AcDbCircle
 10
-103.6317305918782
 20
269.0866954998195
 30
0.0
 40
0.9999999999999187
100
AcDbArc
 50
165.0000000000043
 51
255.0000000000041
  0
ARC
  5
257
330
63
100
AcDbEntity
  8
0
  6
Continuous
 62
     7
100
AcDbCircle
 10
-90.20814896216731
 20
263.1604862366821
 30
0.0
 40
0.5000000000001544
100
AcDbArc
 50
164.9999999999901
 51
254.9999999999849
  0
ARC
  5
258
330
63
100
AcDbEntity
  8
0
  6
Continuous
 62
     7
100
AcDbCircle
 10
-80.03656048963666
 20
301.1213712098453
 30
0.0
 40
0.4999999999999858
100
AcDbArc
 50
75.00000000001184
 51
164.9999999999964
  0
ARC
  5
259
330
63
100
AcDbEntity
  8
0
  6
Continuous
 62
     7
100
AcDbCircle
 10
-94.62482782230902
 20
302.7009142546818
 30
0.0
 40
1.000000000000115
100
AcDbArc
 50
74.9999999999938
 51
164.9999999999976
  0
SPLINE
  5
25A
330
63
100
AcDbEntity
  8
0
  6
Continuous
 62
     7
100
AcDbSpline
210
0.0
220
0.0
230
1.0
 70
     8
 71
     3
 72
    11
 73
     7
 74
     5
 42
0.000000001
 43
0.0000000001
 44
0.00000001
 40
0.0
 40
0.0
 40
0.0
 40
0.0
 40
0.2257350453692569
 40
0.4488690967297878
 40
0.6744398470785449
 40
0.8976343441809997
 40
0.8976343441809997
 40
0.8976343441809997
 40
0.8976343441809997
 10
-93.31627062543623
 20
290.9705919858483
 30
0.0
 10
-93.3898831727504
 20
290.955003361701
 30
0.0
 10
-93.53626007611385
 20
290.9240057160778
 30
0.0
 10
-93.75618703933245
 20
290.8773887315101
 30
0.0
 10
-93.97527941406585
 20
290.8309183647907
 30
0.0
 10
-94.12160602186927
 20
290.7998504053698
 30
0.0
 10
-94.1943819177958
 20
290.7843986721887
 30
0.0
 11
-93.31627062543623
 21
290.9705919858483
 31
0.0
 11
-93.53710676676863
 21
290.9238190300986
 31
0.0
 11
-93.75539144742746
 21
290.8775523783187
 31
0.0
 11
-93.97605264646268
 21
290.8307464101738
 31
0.0
 11
-94.1943819177958
 21
290.7843986721887
 31
0.0
  0
SPLINE
  5
25B
330
63
100
AcDbEntity
  8
0
  6
Continuous
 62
     7
100
AcDbSpline
210
0.0
220
0.0
230
1.0
 70
     8
 71
     3
 72
    11
 73
     7
 74
     5
 42
0.000000001
 43
0.0000000001
 44
0.00000001
 40
0.0
 40
0.0
 40
0.0
 40
0.0
 40
0.2255797515741972
 40
0.4488690967297661
 40
0.6744126663341365
 40
0.897634344180988
 40
0.897634344180988
 40
0.897634344180988
 40
0.897634344180988
 10
-91.74726354914202
 20
296.8262061120129
 30
0.0
 10
-91.8208254552949
 20
296.8106282138371
 30
0.0
 10
-91.9672023594239
 20
296.7796305718317
 30
0.0
 10
-92.18712046168265
 20
296.7330154771299
 30
0.0
 10
-92.40626347484138
 20
296.686534371532
 30
0.0
 10
-92.55259008280706
 20
296.6554664128746
 30
0.0
 10
-92.62537484150158
 20
296.6400127983533
 30
0.0
 11
-91.74726354914202
 21
296.8262061120129
 31
0.0
 11
-91.96794776925789
 21
296.7794653448775
 31
0.0
 11
-92.18638437113324
 21
296.7331665044834
 31
0.0
 11
-92.4070189814608
 21
296.6863661784564
 31
0.0
 11
-92.62537484150158
 21
296.6400127983533
 31
0.0
  0
SPLINE
  5
25C
330
63
100
AcDbEntity
  8
0
  6
Continuous
 62
     7
100
AcDbSpline
210
0.0
220
0.0
230
1.0
 70
     8
 71
     3
 72
    11
 73
     7
 74
     5
 42
0.000000001
 43
0.0000000001
 44
0.00000001
 40
0.0
 40
0.0
 40
0.0
 40
0.0
 40
0.2232179694157704
 40
0.4487652474511916
 40
0.672053481213456
 40
0.8976343441809443
 40
0.8976343441809443
 40
0.8976343441809443
 40
0.8976343441809443
 10
-98.86970278866204
 20
273.33586364043
 30
0.0
 10
-98.8143970647401
 20
273.2860888652226
 30
0.0
 10
-98.7032084843887
 20
273.1860199197235
 30
0.0
 10
-98.53666589632749
 20
273.0361948424688
 30
0.0
 10
-98.36951786131877
 20
272.8858651084503
 30
0.0
 10
-98.25825056483687
 20
272.7858319109313
 30
0.0
 10
-98.2023327589585
 20
272.7355598546062
 30
0.0
 11
-98.86970278866204
 21
273.33586364043
 31
0.0
 11
-98.7037805136014
 21
273.1865449861728
 31
0.0
 11
-98.53610274236885
 21
273.0356949292805
 31
0.0
 11
-98.37008134263512
 21
272.8863813995258
 31
0.0
 11
-98.2023327589585
 21
272.7355598546062
 31
0.0
  0
SPLINE
  5
25D
330
63
100
AcDbEntity
  8
0
  6
Continuous
 62
     7
100
AcDbSpline
210
0.0
220
0.0
230
1.0
 70
     8
 71
     3
 72
    11
 73
     7
 74
     5
 42
0.000000001
 43
0.0000000001
 44
0.00000001
 40
0.0
 40
0.0
 40
0.0
 40
0.0
 40
0.2651495747987779
 40
0.5331932871598914
 40
0.7984811810110614
 40
1.066415597480066
 40
1.066415597480066
 40
1.066415597480066
 40
1.066415597480066
 10
-99.34355213116609
 20
271.567433819072
 30
0.0
 10
-99.29465861429709
 20
271.4938062928205
 30
0.0
 10
-99.19633788976148
 20
271.3457475958775
 30
0.0
 10
-99.0490420887464
 20
271.1240601957683
 30
0.0
 10
-98.90119644111749
 20
270.9016236309002
 30
0.0
 10
-98.80277415459193
 20
270.7536208097295
 30
0.0
 10
-98.75331875722031
 20
270.6792521148343
 30
0.0
 11
-99.34355213116609
 21
271.567433819072
 31
0.0
 11
-99.19686232117738
 21
271.3465573905831
 31
0.0
 11
-99.04852765740003
 21
271.1232991113202
 31
0.0
 11
-98.90167617363204
 21
270.9023640341139
 31
0.0
 11
-98.75331875722031
 21
270.6792521148343
 31
0.0
  0
SPLINE
  5
25E
330
63
100
AcDbEntity
  8
0
  6
Continuous
 62
     7
100
AcDbSpline
210
0.0
220
0.0
230
1.0
 70
     8
 71
     3
 72
    11
 73
     7
 74
     5
 42
0.000000001
 43
0.0000000001
 44
0.00000001
 40
0.0
 40
0.0
 40
0.0
 40
0.0
 40
0.2839714124429211
 40
0.5707429353688351
 40
0.8546478952706196
 40
1.141485710262975
 40
1.141485710262975
 40
1.141485710262975
 40
1.141485710262975
 10
-100.4228596859481
 20
267.5394031876332
 30
0.0
 10
-100.3762835566755
 20
267.4569978605975
 30
0.0
 10
-100.2826720194087
 20
267.2913746531934
 30
0.0
 10
-100.1424320603512
 20
267.0434011280719
 30
0.0
 10
-100.0016810463155
 20
266.794618949807
 30
0.0
 10
-99.90796107664394
 20
266.6290571376623
 30
0.0
 10
-99.86086028757259
 20
266.5458508520674
 30
0.0
 11
-100.4228596859481
 21
267.5394031876332
 31
0.0
 11
-100.2831208480944
 21
267.2921931144551
 31
0.0
 11
-100.1419548516924
 21
267.0425732678438
 31
0.0
 11
-100.0021527567664
 21
266.7954753105228
 31
0.0
 11
-99.86086028757259
 21
266.5458508520674
 31
0.0
  0
SPLINE
  5
25F
330
63
100
AcDbEntity
  8
0
  6
Continuous
 62
     7
100
AcDbSpline
210
0.0
220
0.0
230
1.0
 70
     8
 71
     3
 72
    11
 73
     7
 74
     5
 42
0.000000001
 43
0.0000000001
 44
0.00000001
 40
0.0
 40
0.0
 40
0.0
 40
0.0
 40
0.2653179004678843
 40
0.5331932871598809
 40
0.7984354947490654
 40
1.06641559748006
 40
1.06641559748006
 40
1.06641559748006
 40
1.06641559748006
 10
-100.249418789025
 20
268.1866934270603
 30
0.0
 10
-100.2004942306169
 20
268.1130191611786
 30
0.0
 10
-100.1021735014103
 20
267.9649604673364
 30
0.0
 10
-99.9548861153825
 20
267.7432857598727
 30
0.0
 10
-99.80707153015676
 20
267.5208959207716
 30
0.0
 10
-99.70864924469589
 20
267.3728930988927
 30
0.0
 10
-99.65918541507921
 20
267.2985117228226
 30
0.0
 11
-100.249418789025
 21
268.1866934270603
 31
0.0
 11
-100.1026358417086
 21
267.9656767881248
 31
0.0
 11
-99.95439431525892
 21
267.7425587193085
 31
0.0
 11
-99.80756812486706
 21
267.5216616878599
 31
0.0
 11
-99.65918541507921
 21
267.2985117228226
 31
0.0
  0
SPLINE
  5
260
330
63
100
AcDbEntity
  8
0
  6
Continuous
 62
     7
100
AcDbSpline
210
0.0
220
0.0
230
1.0
 70
     8
 71
     3
 72
    11
 73
     7
 74
     5
 42
0.000000001
 43
0.0000000001
 44
0.00000001
 40
0.0
 40
0.0
 40
0.0
 40
0.0
 40
0.2866987054016907
 40
0.570742774894119
 40
0.8577732734533716
 40
1.141485710263
 40
1.141485710263
 40
1.141485710263
 40
1.141485710263
 10
-90.08873602052793
 20
303.0159151145517
 30
0.0
 10
-90.17108968525397
 20
302.9674302791596
 30
0.0
 10
-90.33503446793708
 20
302.8709095322366
 30
0.0
 10
-90.58139389749039
 20
302.7257895502681
 30
0.0
 10
-90.82687196462786
 20
302.5811345955575
 30
0.0
 10
-90.99075353328489
 20
302.4845064516538
 30
0.0
 10
-91.07221794421557
 20
302.4364732511501
 30
0.0
 11
-90.08873602052793
 21
303.0159151145517
 31
0.0
 11
-90.33579124982136
 21
302.8704508187323
 31
0.0
 11
-90.58053226180968
 21
302.7262881659202
 31
0.0
 11
-90.82781862741771
 21
302.580562531632
 31
0.0
 11
-91.07221794421557
 21
302.4364732511501
 31
0.0
  0
SPLINE
  5
261
330
63
100
AcDbEntity
  8
0
  6
Continuous
 62
     7
100
AcDbSpline
210
0.0
220
0.0
230
1.0
 70
     8
 71
     3
 72
    11
 73
     7
 74
     5
 42
0.000000001
 43
0.0000000001
 44
0.00000001
 40
0.0
 40
0.0
 40
0.0
 40
0.0
 40
0.2650026194977603
 40
0.5331932871599234
 40
0.7984517946446563
 40
1.066415597480139
 40
1.066415597480139
 40
1.066415597480139
 40
1.066415597480139
 10
-91.24565884113863
 20
301.789183011723
 30
0.0
 10
-91.16654592291442
 20
301.8284777730046
 30
0.0
 10
-91.00736833146496
 20
301.9075400079448
 30
0.0
 10
-90.76897150573157
 20
302.0258746842512
 30
0.0
 10
-90.5296712570872
 20
302.1446093508087
 30
0.0
 10
-90.37043364647458
 20
302.2235724113232
 30
0.0
 10
-90.29041089302132
 20
302.2632542437966
 30
0.0
 11
-91.24565884113863
 21
301.789183011723
 31
0.0
 11
-91.00831514864429
 21
301.9070573514852
 31
0.0
 11
-90.76809279824317
 21
302.0263027144555
 31
0.0
 11
-90.5304744695988
 21
302.1441993034065
 31
0.0
 11
-90.29041089302132
 21
302.2632542437966
 31
0.0
  0
SPLINE
  5
262
330
63
100
AcDbEntity
  8
0
  6
Continuous
 62
     7
100
AcDbSpline
210
0.0
220
0.0
230
1.0
 70
     8
 71
     3
 72
    11
 73
     7
 74
     5
 42
0.000000001
 43
0.0000000001
 44
0.00000001
 40
0.0
 40
0.0
 40
0.0
 40
0.0
 40
0.2232182509282778
 40
0.4487652474510986
 40
0.6718805072452523
 40
0.897634344181031
 40
0.897634344181031
 40
0.897634344181031
 40
0.897634344181031
 10
-97.30069571236785
 20
279.1914777665946
 30
0.0
 10
-97.24538991870921
 20
279.1417029285998
 30
0.0
 10
-97.1342013383829
 20
279.0416339830729
 30
0.0
 10
-96.96770161502073
 20
278.8918474682524
 30
0.0
 10
-96.80055365830987
 20
278.7415177875047
 30
0.0
 10
-96.68928636457552
 20
278.6414845869286
 30
0.0
 10
-96.63332568266432
 20
278.5911739807707
 30
0.0
 11
-97.30069571236785
 21
279.1914777665946
 31
0.0
 11
-97.13477322803828
 21
279.0421589240403
 31
0.0
 11
-96.96709566607464
 21
278.8913090554453
 31
0.0
 11
-96.80120288628513
 21
278.742111184256
 31
0.0
 11
-96.63332568266432
 21
278.5911739807707
 31
0.0
  0
SPLINE
  5
263
330
63
100
AcDbEntity
  8
0
  6
Continuous
 62
     7
100
AcDbSpline
210
0.0
220
0.0
230
1.0
 70
     8
 71
     3
 72
    11
 73
     7
 74
     5
 42
0.000000001
 43
0.0000000001
 44
0.00000001
 40
0.0
 40
0.0
 40
0.0
 40
0.0
 40
0.2678832079394255
 40
0.5332223103201819
 40
0.8014521220036646
 40
1.066415597480134
 40
1.066415597480134
 40
1.066415597480134
 40
1.066415597480134
 10
-91.19627755088021
 20
298.8825138517849
 30
0.0
 10
-91.27627623658498
 20
298.8428439553854
 30
0.0
 10
-91.43551384823684
 20
298.7638808969675
 30
0.0
 10
-91.67482578848889
 20
298.6451404375801
 30
0.0
 10
-91.91324667609166
 20
298.5267938133509
 30
0.0
 10
-92.07242426697086
 20
298.447731577263
 30
0.0
 10
-92.15152549899753
 20
298.4084426197113
 30
0.0
 11
-91.19627755088021
 21
298.8825138517849
 31
0.0
 11
-91.4362689273178
 21
298.7634947258768
 31
0.0
 11
-91.67395945610207
 21
298.6455623224438
 31
0.0
 11
-91.91421686668669
 21
298.5262995514883
 31
0.0
 11
-92.15152549899753
 21
298.4084426197113
 31
0.0
  0
ENDBLK
  5
65
330
63
100
AcDbEntity
  8
0
100
AcDbBlockEnd
  0
BLOCK
  5
67
330
66
100
AcDbEntity
  8
0
100
AcDbBlockBegin
  2
HL19_ABS_10003_ABS
 70
     0
 10
-112.5784071850486
 20
267.0817377093581
 30
0.0
  3
HL19_ABS_10003_ABS
  1

  0
LINE
  5
264
330
66
100
AcDbEntity
  8
1
  6
DOT_CENTER
 62
     2
100
AcDbLine
 10
-136.9555779915234
 20
235.983580574605
 30
0.0
 11
-128.2074942670574
 21
268.6318735031754
 31
0.0
  0
LINE
  5
265
330
66
100
AcDbEntity
  8
1
  6
DOT_CENTER
 62
     2
100
AcDbLine
 10
-124.4028543040502
 20
282.8309831496246
 30
0.0
 11
-128.0780847445063
 21
269.1148364163199
 31
0.0
  0
LINE
  5
266
330
66
100
AcDbEntity
  8
1
  6
DOT_CENTER
 62
     2
100
AcDbLine
 10
-82.824077410869
 20
281.5251071727178
 30
0.0
 11
-85.12235472590197
 21
282.1409287232638
 31
0.0
  0
LINE
  5
267
330
66
100
AcDbEntity
  8
1
  6
DOT_CENTER
 62
     2
100
AcDbLine
 10
-112.76777802583
 20
289.5484975708965
 30
0.0
 11
-100.0942050333826
 21
286.1526239223531
 31
0.0
  0
LINE
  5
268
330
66
100
AcDbEntity
  8
0
  6
Continuous
 62
     7
100
AcDbLine
 10
-122.7667374827681
 20
253.1977986810746
 30
0.0
 11
-119.3940434935957
 21
259.0233832230241
 31
0.0
  0
LINE
  5
269
330
66
100
AcDbEntity
  8
0
  6
Continuous
 62
     7
100
AcDbLine
 10
-126.7437575047969
 20
240.2872095487235
 30
0.0
 11
-124.0955078853413
 21
246.3069083744998
 31
0.0
  0
LINE
  5
26A
330
66
100
AcDbEntity
  8
0
  6
Continuous
 62
     7
100
AcDbLine
 10
-140.6363652691157
 20
257.9859510154715
 30
0.0
 11
-122.7667374827681
 21
253.1977986810746
 31
0.0
  0
LINE
  5
26B
330
66
100
AcDbEntity
  8
0
  6
Continuous
 62
     7
100
AcDbLine
 10
-124.8199522550581
 20
246.5010226583268
 30
0.0
 11
-121.8008116564791
 21
252.938979635972
 31
0.0
  0
LINE
  5
26C
330
66
100
AcDbEntity
  8
0
  6
Continuous
 62
     7
100
AcDbLine
 10
-137.8667525299482
 20
271.2200639542008
 30
0.0
 11
-118.5482360041669
 21
266.04368305215
 31
0.0
  0
LINE
  5
26D
330
66
100
AcDbEntity
  8
0
  6
Continuous
 62
     7
100
AcDbLine
 10
-118.5482360041669
 20
266.04368305215
 30
0.0
 11
-116.8578658081611
 21
265.5907497232206
 31
0.0
  0
LINE
  5
26E
330
66
100
AcDbEntity
  8
0
  6
Continuous
 62
     7
100
AcDbLine
 10
-120.8429322330293
 20
259.4116117906779
 30
0.0
 11
-116.8578658081611
 21
265.5907497232206
 31
0.0
  0
LINE
  5
26F
330
66
100
AcDbEntity
  8
0
  6
Continuous
 62
     3
100
AcDbLine
 10
-137.2543800942524
 20
271.5736173447941
 30
0.0
 11
-118.9017893947601
 21
266.6560554878458
 31
0.0
  0
LINE
  5
270
330
66
100
AcDbEntity
  8
0
  6
Continuous
 62
     7
100
AcDbLine
 10
-142.9310614979781
 20
251.3538797539994
 30
0.0
 11
-142.2066171282613
 21
251.1597654701725
 31
0.0
  0
LINE
  5
271
330
66
100
AcDbEntity
  8
0
  6
Continuous
 62
     7
100
AcDbLine
 10
-142.2066171282613
 20
251.1597654701725
 30
0.0
 11
-124.8199522550581
 21
246.5010226583268
 31
0.0
  0
LINE
  5
272
330
66
100
AcDbEntity
  8
0
  6
Continuous
 62
     7
100
AcDbLine
 10
-124.8199522550581
 20
246.5010226583268
 30
0.0
 11
-124.0955078853413
 21
246.3069083744998
 31
0.0
  0
LINE
  5
273
330
66
100
AcDbEntity
  8
0
  6
Continuous
 62
     7
100
AcDbLine
 10
-122.7667374827681
 20
253.1977986810746
 30
0.0
 11
-121.8008116564791
 21
252.938979635972
 31
0.0
  0
LINE
  5
274
330
66
100
AcDbEntity
  8
0
  6
Continuous
 62
     7
100
AcDbLine
 10
-139.1955229325216
 20
264.3291736476261
 30
0.0
 11
-120.8429322330293
 21
259.4116117906779
 31
0.0
  0
LINE
  5
275
330
66
100
AcDbEntity
  8
0
  6
Continuous
 62
     7
100
AcDbLine
 10
-120.8429322330293
 20
259.4116117906779
 30
0.0
 11
-119.3940434935957
 21
259.0233832230241
 31
0.0
  0
LINE
  5
276
330
66
100
AcDbEntity
  8
0
  6
Continuous
 62
     7
100
AcDbLine
 10
-143.6474594648556
 20
244.816542838018
 30
0.0
 11
-142.9310614979781
 21
251.3538797539994
 31
0.0
  0
LINE
  5
277
330
66
100
AcDbEntity
  8
0
  6
Continuous
 62
     7
100
AcDbLine
 10
-143.8889409214278
 20
244.8812475992936
 30
0.0
 11
-143.6474594648556
 21
244.816542838018
 31
0.0
  0
LINE
  5
278
330
66
100
AcDbEntity
  8
0
  6
Continuous
 62
     7
100
AcDbLine
 10
-143.6474594648556
 20
244.816542838018
 30
0.0
 11
-126.7437575047969
 21
240.2872095487235
 31
0.0
  0
LINE
  5
279
330
66
100
AcDbEntity
  8
0
  6
Continuous
 62
     7
100
AcDbLine
 10
-126.7437575047969
 20
240.2872095487235
 30
0.0
 11
-126.5022760482246
 21
240.2225047874479
 31
0.0
  0
LINE
  5
27A
330
66
100
AcDbEntity
  8
0
  6
Continuous
 62
     7
100
AcDbLine
 10
-145.1797464553561
 20
238.1872398729066
 30
0.0
 11
-143.8889409214278
 21
244.8812475992936
 31
0.0
  0
LINE
  5
27B
330
66
100
AcDbEntity
  8
0
  6
Continuous
 62
     7
100
AcDbLine
 10
-144.2000216886915
 20
237.9247234128741
 30
0.0
 11
-129.7111342943555
 21
234.042437736336
 31
0.0
  0
LINE
  5
27C
330
66
100
AcDbEntity
  8
0
  6
Continuous
 62
     7
100
AcDbLine
 10
-145.1797464553561
 20
238.1872398729066
 30
0.0
 11
-144.2000216886915
 21
237.9247234128741
 31
0.0
  0
LINE
  5
27D
330
66
100
AcDbEntity
  8
0
  6
Continuous
 62
     7
100
AcDbLine
 10
-129.7111342943555
 20
234.042437736336
 30
0.0
 11
-128.731409527691
 21
233.7799212763034
 31
0.0
  0
LINE
  5
27E
330
66
100
AcDbEntity
  8
0
  6
Continuous
 62
     7
100
AcDbLine
 10
-128.731409527691
 20
233.7799212763034
 30
0.0
 11
-126.5022760482246
 21
240.2225047874479
 31
0.0
  0
LINE
  5
27F
330
66
100
AcDbEntity
  8
0
  6
Continuous
 62
     7
100
AcDbLine
 10
-140.6363652691157
 20
257.9859510154715
 30
0.0
 11
-140.6444116719551
 21
264.7174022152799
 31
0.0
  0
LINE
  5
280
330
66
100
AcDbEntity
  8
0
  6
Continuous
 62
     7
100
AcDbLine
 10
-139.1955229325216
 20
264.3291736476261
 30
0.0
 11
-139.5571227259541
 21
271.6729972831303
 31
0.0
  0
LINE
  5
281
330
66
100
AcDbEntity
  8
0
  6
Continuous
 62
     7
100
AcDbLine
 10
-133.5791496537964
 20
285.2897640780986
 30
0.0
 11
-137.2543800942524
 21
271.5736173447941
 31
0.0
  0
LINE
  5
282
330
66
100
AcDbEntity
  8
0
  6
Continuous
 62
     7
100
AcDbLine
 10
-133.5791496537964
 20
285.2897640780986
 30
0.0
 11
-132.4144639508349
 21
289.6364302963995
 31
0.0
  0
LINE
  5
283
330
66
100
AcDbEntity
  8
0
  6
Continuous
 62
     3
100
AcDbLine
 10
-133.5465553171281
 20
285.2810304519106
 30
0.0
 11
-133.5791496537964
 21
285.2897640780986
 31
0.0
  0
LINE
  5
284
330
66
100
AcDbEntity
  8
0
  6
Continuous
 62
     7
100
AcDbLine
 10
-139.5571227259541
 20
271.6729972831303
 30
0.0
 11
-137.8667525299482
 21
271.2200639542008
 31
0.0
  0
LINE
  5
285
330
66
100
AcDbEntity
  8
0
  6
Continuous
 62
     7
100
AcDbLine
 10
-140.6444116719551
 20
264.7174022152799
 30
0.0
 11
-139.1955229325216
 21
264.3291736476261
 31
0.0
  0
LINE
  5
286
330
66
100
AcDbEntity
  8
0
  6
Continuous
 62
     7
100
AcDbLine
 10
-142.2066171282613
 20
251.1597654701725
 30
0.0
 11
-141.6022910954048
 21
258.2447700605741
 31
0.0
  0
LINE
  5
287
330
66
100
AcDbEntity
  8
0
  6
Continuous
 62
     7
100
AcDbLine
 10
-141.6022910954048
 20
258.2447700605741
 30
0.0
 11
-140.6363652691157
 21
257.9859510154715
 31
0.0
  0
LINE
  5
288
330
66
100
AcDbEntity
  8
0
  6
Continuous
 62
     7
100
AcDbLine
 10
-79.97706791474104
 20
292.1502912618976
 30
0.0
 11
-80.24531011685514
 21
292.6149003846936
 31
0.0
  0
LINE
  5
289
330
66
100
AcDbEntity
  8
0
  6
Continuous
 62
     7
100
AcDbLine
 10
-79.97706791474104
 20
292.1502912618976
 30
0.0
 11
-85.67108690699698
 21
270.8999230835379
 31
0.0
  0
LINE
  5
28A
330
66
100
AcDbEntity
  8
0
  6
Continuous
 62
     7
100
AcDbLine
 10
-115.2265589543041
 20
280.3722022211504
 30
0.0
 11
-102.5529859618567
 21
276.9763285726069
 31
0.0
  0
LINE
  5
28B
330
66
100
AcDbEntity
  8
0
  6
Continuous
 62
     7
100
AcDbLine
 10
-85.67108690699698
 20
270.8999230835379
 30
0.0
 11
-86.13569602979285
 21
270.6316808814238
 31
0.0
  0
LINE
  5
28C
330
66
100
AcDbEntity
  8
0
  6
Continuous
 62
     7
100
AcDbLine
 10
-115.2265589543041
 20
280.3722022211504
 30
0.0
 11
-118.9017893947601
 21
266.6560554878458
 31
0.0
  0
LINE
  5
28D
330
66
100
AcDbEntity
  8
0
  6
Continuous
 62
     7
100
AcDbLine
 10
-110.3089970973558
 20
298.7247929206426
 30
0.0
 11
-97.63542410490848
 21
295.3289192720991
 31
0.0
  0
LINE
  5
28E
330
66
100
AcDbEntity
  8
0
  6
Continuous
 62
     7
100
AcDbLine
 10
-110.3089970973558
 20
298.7247929206426
 30
0.0
 11
-114.6556633156566
 21
299.8894786236041
 31
0.0
  0
LINE
  5
28F
330
66
100
AcDbEntity
  8
0
  6
Continuous
 62
     3
100
AcDbLine
 10
-110.3177307235439
 20
298.6921985839744
 30
0.0
 11
-110.3089970973558
 21
298.7247929206426
 31
0.0
  0
LINE
  5
290
330
66
100
AcDbEntity
  8
0
  6
Continuous
 62
     3
100
AcDbLine
 10
-115.2265589543041
 20
280.3722022211504
 30
0.0
 11
-110.3177307235439
 21
298.6921985839744
 31
0.0
  0
LINE
  5
291
330
66
100
AcDbEntity
  8
0
  6
Continuous
 62
     3
100
AcDbLine
 10
-115.2265589543041
 20
280.3722022211504
 30
0.0
 11
-133.5465553171281
 21
285.2810304519106
 31
0.0
  0
ARC
  5
292
330
66
100
AcDbEntity
  8
0
  6
Continuous
 62
     7
100
AcDbCircle
 10
-115.2265589543041
 20
280.3722022211504
 30
0.0
 40
18.99999999999998
100
AcDbArc
 50
74.99999999999874
 51
164.9999999999992
  0
ARC
  5
293
330
66
100
AcDbEntity
  8
0
  6
Continuous
 62
     7
100
AcDbCircle
 10
-118.4188264816156
 20
266.5266459652945
 30
0.0
 40
0.4999999999999741
100
AcDbArc
 50
164.999999999998
 51
254.9999999999944
  0
ARC
  5
294
330
66
100
AcDbEntity
  8
0
  6
Continuous
 62
     7
100
AcDbCircle
 10
-137.7373430073969
 20
271.7030268673453
 30
0.0
 40
0.4999999999999677
100
AcDbArc
 50
254.9999999999944
 51
345.0000000000101
  0
ARC
  5
295
330
66
100
AcDbEntity
  8
0
  6
Continuous
 62
     3
100
AcDbCircle
 10
-115.2265589543041
 20
280.3722022211504
 30
0.0
 40
18.96625585963113
100
AcDbArc
 50
74.99999999999883
 51
164.9999999999988
  0
ARC
  5
296
330
66
100
AcDbEntity
  8
0
  6
Continuous
 62
     7
100
AcDbCircle
 10
-118.4085394696434
 20
285.8835541424127
 30
0.0
 40
14.49999999999994
100
AcDbArc
 50
74.99999999999889
 51
164.9999999999991
  0
ARC
  5
297
330
66
100
AcDbEntity
  8
0
  6
Continuous
 62
     3
100
AcDbCircle
 10
-121.9440733755762
 20
292.0072784993707
 30
0.0
 40
1.543712436559641
100
AcDbArc
 50
17.77577707085919
 51
222.22422292919
  0
ARC
  5
298
330
66
100
AcDbEntity
  8
0
  6
Continuous
 62
     3
100
AcDbCircle
 10
-121.9440733755762
 20
292.0072784993707
 30
0.0
 40
1.248270110646955
100
AcDbArc
 50
342.3915449065944
 51
257.608455093408
  0
ARC
  5
299
330
66
100
AcDbEntity
  8
0
  6
Continuous
 62
     7
100
AcDbCircle
 10
-115.2265589543041
 20
280.3722022211504
 30
0.0
 40
12.54138126514921
100
AcDbArc
 50
116.1523389503278
 51
123.8476610496694
  0
SPLINE
  5
29A
330
66
100
AcDbEntity
  8
0
  6
Continuous
 62
     7
100
AcDbSpline
210
0.0
220
0.0
230
1.0
 70
     8
 71
     3
 72
    39
 73
    35
 74
    33
 42
0.000000001
 43
0.0000000001
 44
0.00000001
 40
0.0
 40
0.0
 40
0.0
 40
0.0
 40
0.1177780265595606
 40
0.2222550528377871
 40
0.3321237506740068
 40
0.4420271691149544
 40
0.6583162300858622
 40
0.8744988184189145
 40
1.075473671946895
 40
1.276107302124818
 40
1.382657404056775
 40
1.477979307854206
 40
1.586291329373798
 40
1.682967782486803
 40
1.847099949043695
 40
2.010887696227293
 40
2.164669111040523
 40
2.349911604059153
 40
2.516372850420283
 40
2.656543559203869
 40
2.825844903446728
 40
2.968160554728795
 40
3.276648930834533
 40
3.585585405743985
 40
3.918976346677123
 40
4.253699939440934
 40
4.656889969852164
 40
5.061814371535621
 40
5.175544521161983
 40
5.276771486303817
 40
5.39069833471326
 40
5.492065070682734
 40
5.711951743565344
 40
5.93161927274662
 40
5.93161927274662
 40
5.93161927274662
 40
5.93161927274662
 10
-120.4740600146584
 20
292.4785627082215
 30
0.0
 10
-120.4840658453531
 20
292.5165437867479
 30
0.0
 10
-120.50294752969
 20
292.5882166322718
 30
0.0
 10
-120.5404319743894
 20
292.692510130964
 30
0.0
 10
-120.5831310976563
 20
292.7918744496583
 30
0.0
 10
-120.64956560474
 20
292.9212689661616
 30
0.0
 10
-120.7479889901424
 20
293.0735954076887
 30
0.0
 10
-120.8853745411538
 20
293.2347440226448
 30
0.0
 10
-121.0381981508608
 20
293.3735267265714
 30
0.0
 10
-121.1770293720526
 20
293.4713845007147
 30
0.0
 10
-121.2935846160563
 20
293.5380069405296
 30
0.0
 10
-121.3864281789219
 20
293.5836448573916
 30
0.0
 10
-121.4789486513164
 20
293.6220739981636
 30
0.0
 10
-121.5954164611618
 20
293.6619459545863
 30
0.0
 10
-121.7328685900369
 20
293.6967923634735
 30
0.0
 10
-121.8920353396402
 20
293.7200321332536
 30
0.0
 10
-122.0597296177451
 20
293.7274670172824
 30
0.0
 10
-122.2282924603508
 20
293.7166801820738
 30
0.0
 10
-122.3900020797541
 20
293.6877528165852
 30
0.0
 10
-122.542832500038
 20
293.6444596998835
 30
0.0
 10
-122.6831966333631
 20
293.5889751010523
 30
0.0
 10
-122.8669635875143
 20
293.4938591411904
 30
0.0
 10
-123.0739598976697
 20
293.3447134890201
 30
0.0
 10
-123.2903892663832
 20
293.1104004387505
 30
0.0
 10
-123.4588684914161
 20
292.8287180202492
 30
0.0
 10
-123.5743295792095
 20
292.4880661468975
 30
0.0
 10
-123.611198178212
 20
292.1048800837637
 30
0.0
 10
-123.5634252135199
 20
291.7977261629557
 30
0.0
 10
-123.4997952387354
 20
291.6010404108228
 30
0.0
 10
-123.4592579485486
 20
291.4991059666626
 30
0.0
 10
-123.41390806977
 20
291.403727051809
 30
0.0
 10
-123.3429452235955
 20
291.2771901797165
 30
0.0
 10
-123.24064571967
 20
291.1276116657249
 30
0.0
 10
-123.1383476774517
 20
291.0224208645479
 30
0.0
 10
-123.0872241533013
 20
290.9698516893379
 30
0.0
 11
-120.4740600146584
 21
292.4785627082215
 31
0.0
 11
-120.5058193330908
 21
292.5919779235685
 31
0.0
 11
-120.540782018903
 21
292.690431262347
 31
0.0
 11
-120.5842615743824
 21
292.7913305147886
 31
0.0
 11
-120.6344357631313
 21
292.8891124775316
 31
0.0
 11
-120.7518395633002
 21
293.0707640830221
 31
0.0
 11
-120.8920881999807
 21
293.2352792237849
 31
0.0
 11
-121.0408807086923
 21
293.370378006927
 31
0.0
 11
-121.2048785280153
 21
293.4859572824
 31
0.0
 11
-121.2973839715654
 21
293.5388313513254
 31
0.0
 11
-121.3829311162518
 21
293.5808783655301
 31
0.0
 11
-121.4829594465819
 21
293.622421441592
 31
0.0
 11
-121.5744260423533
 21
293.6537295630673
 31
0.0
 11
-121.7335306747697
 21
293.6940418951674
 31
0.0
 11
-121.8956024605292
 21
293.7176885115842
 31
0.0
 11
-122.0492337543664
 21
293.7244818295313
 31
0.0
 11
-122.2340962998468
 21
293.7126234734928
 31
0.0
 11
-122.3979545887461
 21
293.6833009942265
 31
0.0
 11
-122.5328158909209
 21
293.6450876870858
 31
0.0
 11
-122.6902618795196
 21
293.5828485841464
 31
0.0
 11
-122.8166452549017
 21
293.5174193315386
 31
0.0
 11
-123.0669278091671
 21
293.3370759880037
 31
0.0
 11
-123.2766225192595
 21
293.1102062579358
 31
0.0
 11
-123.4478816184759
 21
292.8241645812344
 31
0.0
 11
-123.5554847528179
 21
292.5072080394152
 31
0.0
 11
-123.5942277399795
 21
292.1058837539495
 31
0.0
 11
-123.532267020569
 21
291.705727983123
 31
0.0
 11
-123.4972717431558
 21
291.5975157955138
 31
0.0
 11
-123.4598698785343
 21
291.503451992465
 31
0.0
 11
-123.4109154912494
 21
291.4005792806794
 31
0.0
 11
-123.3614383529188
 21
291.3121076579821
 31
0.0
 11
-123.2358072262881
 21
291.1316444492496
 31
0.0
 11
-123.0872241533013
 21
290.9698516893379
 31
0.0
  0
SPLINE
  5
29B
330
66
100
AcDbEntity
  8
0
  6
Continuous
 62
     7
100
AcDbSpline
210
0.0
220
0.0
230
1.0
 70
     8
 71
     3
 72
    23
 73
    19
 74
    17
 42
0.000000001
 43
0.0000000001
 44
0.00000001
 40
0.0
 40
0.0
 40
0.0
 40
0.0
 40
0.053206028834937
 40
0.1140263690513981
 40
0.1753878423401437
 40
0.2298825586279629
 40
0.2920047638696431
 40
0.3467937544916465
 40
0.4097533404947583
 40
0.4645423758507917
 40
0.5192264740646783
 40
0.5841403144895548
 40
0.6381155931323059
 40
0.7044580693737015
 40
0.813984456323598
 40
0.9044735229128165
 40
0.9288551504922442
 40
0.9476573164942179
 40
0.9476573164942179
 40
0.9476573164942179
 40
0.9476573164942179
 10
-120.4740600146584
 20
292.4785627082215
 30
0.0
 10
-120.4702223707638
 20
292.4612415536113
 30
0.0
 10
-120.4619978917643
 20
292.4241204122711
 30
0.0
 10
-120.4542235296436
 20
292.3661032958543
 30
0.0
 10
-120.4502397744255
 20
292.3073074275704
 30
0.0
 10
-120.4501808803881
 20
292.2479430250214
 30
0.0
 10
-120.4538020307495
 20
292.1908767052591
 30
0.0
 10
-120.4614231334286
 20
292.1313723066791
 30
0.0
 10
-120.4723637443525
 20
292.074862286167
 30
0.0
 10
-120.4868721004611
 20
292.0192117284926
 30
0.0
 10
-120.5048758545041
 20
291.9639058176933
 30
0.0
 10
-120.5264087963046
 20
291.9101459848197
 30
0.0
 10
-120.5532343630919
 20
291.854489037124
 30
0.0
 10
-120.5914589690432
 20
291.7880045343233
 30
0.0
 10
-120.6444145042062
 20
291.7162901504896
 30
0.0
 10
-120.6990414033122
 20
291.6643410145128
 30
0.0
 10
-120.7359936815449
 20
291.6392899350299
 30
0.0
 10
-120.7487399535193
 20
291.6325835626739
 30
0.0
 10
-120.7542896665999
 20
291.6296636228243
 30
0.0
 11
-120.4740600146584
 21
292.4785627082215
 31
0.0
 11
-120.4632372961515
 21
292.4264690455482
 31
0.0
 11
-120.4549068650027
 21
292.3662219102833
 31
0.0
 11
-120.4508069879609
 21
292.3049975577115
 31
0.0
 11
-120.4507298149125
 21
292.2505028959332
 31
0.0
 11
-120.4546581980385
 21
292.1885050232192
 31
0.0
 11
-120.461613337713
 21
292.1341592823852
 31
0.0
 11
-120.4735796744647
 21
292.0723473395568
 31
0.0
 11
-120.4874046980479
 21
292.0193312370049
 31
0.0
 11
-120.5043402214566
 21
291.9673356732349
 31
0.0
 11
-120.5285017785373
 21
291.9070859774467
 31
0.0
 11
-120.5519635542377
 21
291.8584765567138
 31
0.0
 11
-120.5850907224327
 21
291.800996865774
 31
0.0
 11
-120.6508757963013
 21
291.7134277307186
 31
0.0
 11
-120.7174867981435
 21
291.6521803199554
 31
0.0
 11
-120.7377938167472
 21
291.6386862974198
 31
0.0
 11
-120.7542896665999
 21
291.6296636228243
 31
0.0
  0
SPLINE
  5
29C
330
66
100
AcDbEntity
  8
0
  6
Continuous
 62
     7
100
AcDbSpline
210
0.0
220
0.0
230
1.0
 70
     8
 71
     3
 72
    21
 73
    17
 74
    15
 42
0.000000001
 43
0.0000000001
 44
0.00000001
 40
0.0
 40
0.0
 40
0.0
 40
0.0
 40
0.0208496131652258
 40
0.043255677542337
 40
0.1337853821850667
 40
0.2433592839067475
 40
0.3095998264004327
 40
0.3635189041940651
 40
0.4181846365935907
 40
0.4827191890956084
 40
0.537679543452142
 40
0.6008671714240656
 40
0.6554326231481578
 40
0.7172689452347063
 40
0.8328919387197793
 40
0.9475303318561431
 40
0.9475303318561431
 40
0.9475303318561431
 40
0.9475303318561431
 10
-122.2119411541281
 20
290.7880881441154
 30
0.0
 10
-122.2178325199925
 20
290.7843923120852
 30
0.0
 10
-122.2300550571395
 20
290.7767247619526
 30
0.0
 10
-122.2703128243297
 20
290.7573676519552
 30
0.0
 10
-122.3420128693959
 20
290.7362204856209
 30
0.0
 10
-122.4305944643343
 20
290.7262380187423
 30
0.0
 10
-122.5072461730812
 20
290.7263864258356
 30
0.0
 10
-122.5653995089778
 20
290.7307272901605
 30
0.0
 10
-122.6226016771106
 20
290.738599620939
 30
0.0
 10
-122.6795125757976
 20
290.7503198388748
 30
0.0
 10
-122.7382624072169
 20
290.7664663849097
 30
0.0
 10
-122.7927258055729
 20
290.7852633813291
 30
0.0
 10
-122.8480005970592
 20
290.8083588849611
 30
0.0
 10
-122.9172773731858
 20
290.8427831983557
 30
0.0
 10
-123.0006939388208
 20
290.8938998424165
 30
0.0
 10
-123.0584630917748
 20
290.9446066779279
 30
0.0
 10
-123.0872241533013
 20
290.9698516893379
 30
0.0
 11
-122.2119411541281
 21
290.7880881441154
 31
0.0
 11
-122.2297996547884
 21
290.777328002933
 31
0.0
 11
-122.2499083154098
 21
290.7674450173637
 31
0.0
 11
-122.3363000975179
 21
290.7403879095913
 31
0.0
 11
-122.445079602752
 21
290.7272175211325
 31
0.0
 11
-122.5113201181337
 21
290.7272774977914
 31
0.0
 11
-122.5650918102918
 21
290.7312614760805
 31
0.0
 11
-122.6192493710682
 21
290.7386979352941
 31
0.0
 11
-122.6824607277364
 21
290.7516992000182
 31
0.0
 11
-122.7354566299349
 21
290.7662619925528
 31
0.0
 11
-122.7951885452409
 21
290.7868720545743
 31
0.0
 11
-122.845527184811
 21
290.807929355097
 31
0.0
 11
-122.900937977569
 21
290.8353770282262
 31
0.0
 11
-122.9989609268239
 21
290.8966973138266
 31
0.0
 11
-123.0872241533013
 21
290.9698516893379
 31
0.0
  0
ENDBLK
  5
68
330
66
100
AcDbEntity
  8
0
100
AcDbBlockEnd
  0
BLOCK
  5
6D
330
69
100
AcDbEntity
  8
0
100
AcDbBlockBegin
  2
HL19
 70
     0
 10
-112.2218187072052
 20
267.6614813569403
 30
0.0
  3
HL19
  1

  0
INSERT
  5
6A
330
69
100
AcDbEntity
  8
0
100
AcDbBlockReference
  2
Dichtstopfen
 10
-135.9164030879789
 20
235.032204981139
 30
0.0
  0
INSERT
  5
6B
330
69
100
AcDbEntity
  8
0
100
AcDbBlockReference
  2
Holländermutter_1
 10
-91.30351495319287
 20
282.9303997440071
 30
0.0
  0
INSERT
  5
6C
330
69
100
AcDbEntity
  8
0
100
AcDbBlockReference
  2
HL19_ABS_10003_ABS
 10
-112.5784071850486
 20
267.0817377093581
 30
0.0
  0
ENDBLK
  5
6E
330
69
100
AcDbEntity
  8
0
100
AcDbBlockEnd
  0
BLOCK
  5
71
330
6F
100
AcDbEntity
  8
0
100
AcDbBlockBegin
  2
Rckans1
 70
     0
 10
-120.2068289804523
 20
257.8735321891256
 30
0.0
  3
Rckans1
  1

  0
INSERT
  5
70
330
6F
100
AcDbEntity
  8
0
100
AcDbBlockReference
  2
HL19
 10
-112.2218187072052
 20
267.6614813569403
 30
0.0
  0
MTEXT
  5
29D
330
6F
100
AcDbEntity
  8
1
 62
     1
100
AcDbMText
 10
-124.5197806935509
 20
226.8538729108707
 30
0.0
 40
3.5
 41
0.0
 71
     2
 72
     1
  1
 
  7
CONVERTER_11
 11
0.965925826289063
 21
-0.2588190451025405
 31
0.0
 73
     1
 44
1.32052821128451
  0
DIMENSION
  5
2AA
330
6F
100
AcDbEntity
  8
1
100
AcDbDimension
  2
*D20
 10
-148.9153970783503
 20
224.245601948567
 30
0.0
 11
-111.0909173533415
 21
219.8045821443783
 31
0.0
 70
    33
  1
3/4"
 71
     5
 42
-1.0
 53
-15.00000000000096
  3
ME10_DIM_17
100
AcDbAlignedDimension
 13
-128.731409527691
 23
233.7799212763034
 33
0.0
 14
-145.1797464553561
 24
238.1872398729066
 34
0.0
  0
ENDBLK
  5
72
330
6F
100
AcDbEntity
  8
0
100
AcDbBlockEnd
  0
BLOCK
  5
111
330
109
100
AcDbEntity
  8
0
100
AcDbBlockBegin
  2
*D13
 70
     1
 10
0.0
 20
0.0
 30
0.0
  3
*D13
  1

  0
LINE
  5
10A
330
109
100
AcDbEntity
  8
1
  6
Continuous
 62
     4
100
AcDbLine
 10
110.925671656896
 20
129.9950127899061
 30
0.0
 11
110.925671656896
 21
0.0
 31
0.0
  0
LINE
  5
10B
330
109
100
AcDbEntity
  8
1
  6
Continuous
 62
     4
100
AcDbLine
 10
0.0
 20
0.0
 30
0.0
 11
112.925671656896
 21
0.0
 31
0.0
  0
LINE
  5
10C
330
109
100
AcDbEntity
  8
1
  6
Continuous
 62
     4
100
AcDbLine
 10
45.46563074103906
 20
129.9950127899061
 30
0.0
 11
112.925671656896
 21
129.9950127899061
 31
0.0
  0
SOLID
  5
10D
330
109
100
AcDbEntity
  8
1
 62
     4
100
AcDbTrace
 10
111.8472391400078
 20
122.9950127899061
 30
0.0
 11
110.0041041737842
 21
122.9950127899061
 31
0.0
 12
110.925671656896
 22
129.9950127899061
 32
0.0
 13
110.925671656896
 23
129.9950127899061
 33
0.0
  0
SOLID
  5
10E
330
109
100
AcDbEntity
  8
1
 62
     4
100
AcDbTrace
 10
110.0041041737842
 20
7.0
 30
0.0
 11
111.8472391400078
 21
7.0
 31
0.0
 12
110.925671656896
 22
0.0
 32
0.0
 13
110.925671656896
 23
0.0
 33
0.0
  0
MTEXT
  5
110
330
109
100
AcDbEntity
  8
1
 62
     1
100
AcDbMText
 10
108.925671656896
 20
52.90174016339459
 30
0.0
 40
7.0
 41
0.0
 71
     7
 72
     1
  1
130
  7
CONVERTER_11
 11
0.0
 21
1.0
 31
0.0
 73
     1
 44
0.60024009603842
  0
ENDBLK
  5
112
330
109
100
AcDbEntity
  8
0
100
AcDbBlockEnd
  0
BLOCK
  5
11C
330
115
100
AcDbEntity
  8
0
100
AcDbBlockBegin
  2
*D14
 70
     1
 10
0.0
 20
0.0
 30
0.0
  3
*D14
  1

  0
LINE
  5
116
330
115
100
AcDbEntity
  8
1
  6
Continuous
 62
     4
100
AcDbLine
 10
301.591706522749
 20
129.9950127899061
 30
0.0
 11
301.591706522749
 21
302.0504302138638
 31
0.0
  0
LINE
  5
117
330
115
100
AcDbEntity
  8
1
  6
Continuous
 62
     4
100
AcDbLine
 10
-9.03263610886637
 20
302.0504302138638
 30
0.0
 11
303.591706522749
 21
302.0504302138638
 31
0.0
  0
LINE
  5
118
330
115
100
AcDbEntity
  8
1
  6
Continuous
 62
     4
100
AcDbLine
 10
272.8463748214178
 20
129.9950127899061
 30
0.0
 11
303.591706522749
 21
129.9950127899061
 31
0.0
  0
SOLID
  5
119
330
115
100
AcDbEntity
  8
1
 62
     4
100
AcDbTrace
 10
300.6701390396373
 20
136.9950127899061
 30
0.0
 11
302.5132740058608
 21
136.9950127899061
 31
0.0
 12
301.591706522749
 22
129.9950127899061
 32
0.0
 13
301.591706522749
 23
129.9950127899061
 33
0.0
  0
SOLID
  5
11A
330
115
100
AcDbEntity
  8
1
 62
     4
100
AcDbTrace
 10
302.5132740058608
 20
295.0504302138638
 30
0.0
 11
300.6701390396373
 21
295.0504302138638
 31
0.0
 12
301.591706522749
 22
302.0504302138638
 32
0.0
 13
301.591706522749
 23
302.0504302138638
 33
0.0
  0
MTEXT
  5
11B
330
115
100
AcDbEntity
  8
1
 62
     1
100
AcDbMText
 10
299.591706522749
 20
207.700412407189
 30
0.0
 40
7.0
 41
0.0
 71
     7
 72
     1
  1
\C1;30-\C1;205
  7
CONVERTER_11
 11
0.0
 21
1.0
 31
0.0
 73
     1
 44
0.60024009603842
  0
ENDBLK
  5
11D
330
115
100
AcDbEntity
  8
0
100
AcDbBlockEnd
  0
BLOCK
  5
128
330
120
100
AcDbEntity
  8
0
100
AcDbBlockBegin
  2
*D15
 70
     1
 10
0.0
 20
0.0
 30
0.0
  3
*D15
  1

  0
LINE
  5
121
330
120
100
AcDbEntity
  8
1
  6
Continuous
 62
     4
100
AcDbLine
 10
285.700175239374
 20
149.9950127899061
 30
0.0
 11
285.700175239374
 21
180.20053590882
 31
0.0
  0
LINE
  5
122
330
120
100
AcDbEntity
  8
1
  6
Continuous
 62
     4
100
AcDbLine
 10
285.700175239374
 20
109.9950127899061
 30
0.0
 11
285.700175239374
 21
149.9950127899061
 31
0.0
  0
LINE
  5
123
330
120
100
AcDbEntity
  8
1
  6
Continuous
 62
     4
100
AcDbLine
 10
266.42152791795
 20
149.9950127899061
 30
0.0
 11
287.700175239374
 21
149.9950127899061
 31
0.0
  0
LINE
  5
124
330
120
100
AcDbEntity
  8
1
  6
Continuous
 62
     4
100
AcDbLine
 10
266.42152791795
 20
109.9950127899061
 30
0.0
 11
287.700175239374
 21
109.9950127899061
 31
0.0
  0
SOLID
  5
125
330
120
100
AcDbEntity
  8
1
 62
     4
100
AcDbTrace
 10
284.7786077562623
 20
116.9950127899061
 30
0.0
 11
286.6217427224857
 21
116.9950127899061
 31
0.0
 12
285.700175239374
 22
109.9950127899061
 32
0.0
 13
285.700175239374
 23
109.9950127899061
 33
0.0
  0
SOLID
  5
126
330
120
100
AcDbEntity
  8
1
 62
     4
100
AcDbTrace
 10
286.6217427224857
 20
142.9950127899061
 30
0.0
 11
284.7786077562623
 21
142.9950127899061
 31
0.0
 12
285.700175239374
 22
149.9950127899061
 32
0.0
 13
285.700175239374
 23
149.9950127899061
 33
0.0
  0
MTEXT
  5
127
330
120
100
AcDbEntity
  8
1
 62
     1
100
AcDbMText
 10
283.700175239374
 20
158.22053590882
 30
0.0
 40
7.0
 41
0.0
 71
     7
 72
     1
  1
\C1;DN\C1;40
  7
CONVERTER_11
 11
0.0
 21
1.0
 31
0.0
 73
     1
 44
0.60024009603842
  0
ENDBLK
  5
129
330
120
100
AcDbEntity
  8
0
100
AcDbBlockEnd
  0
BLOCK
  5
134
330
12C
100
AcDbEntity
  8
0
100
AcDbBlockBegin
  2
*D16
 70
     1
 10
0.0
 20
0.0
 30
0.0
  3
*D16
  1

  0
LINE
  5
12D
330
12C
100
AcDbEntity
  8
1
  6
Continuous
 62
     4
100
AcDbLine
 10
-40.00000000000001
 20
357.565916723557
 30
0.0
 11
269.92152791795
 21
357.565916723557
 31
0.0
  0
LINE
  5
12E
330
12C
100
AcDbEntity
  8
1
  6
Continuous
 62
     4
100
AcDbLine
 10
-40.00000000000001
 20
328.149922943729
 30
0.0
 11
-40.00000000000001
 21
359.565916723557
 31
0.0
  0
LINE
  5
12F
330
12C
100
AcDbEntity
  8
1
  6
Continuous
 62
     4
100
AcDbLine
 10
269.92152791795
 20
149.0571906163972
 30
0.0
 11
269.92152791795
 21
359.565916723557
 31
0.0
  0
LINE
  5
130
330
12C
100
AcDbEntity
  8
1
  6
Continuous
 62
     4
100
AcDbLine
 10
-40.00000000000001
 20
308.0504302138638
 30
0.0
 11
-40.00000000000001
 21
318.330490736827
 31
0.0
  0
SOLID
  5
131
330
12C
100
AcDbEntity
  8
1
 62
     4
100
AcDbTrace
 10
-33.00000000000001
 20
358.4874842066687
 30
0.0
 11
-33.00000000000001
 21
356.6443492404453
 31
0.0
 12
-40.00000000000001
 22
357.565916723557
 32
0.0
 13
-40.00000000000001
 23
357.565916723557
 33
0.0
  0
SOLID
  5
132
330
12C
100
AcDbEntity
  8
1
 62
     4
100
AcDbTrace
 10
262.92152791795
 20
356.6443492404453
 30
0.0
 11
262.92152791795
 21
358.4874842066687
 31
0.0
 12
269.92152791795
 22
357.565916723557
 32
0.0
 13
269.92152791795
 23
357.565916723557
 33
0.0
  0
MTEXT
  5
133
330
12C
100
AcDbEntity
  8
1
 62
     1
100
AcDbMText
 10
104.9667999666119
 20
359.565916723557
 30
0.0
 40
7.0
 41
0.0
 71
     7
 72
     1
  1
310
  7
CONVERTER_11
 11
0.9999999999970619
 21
2.424068405545306E-6
 31
0.0
 73
     1
 44
0.60024009603842
  0
ENDBLK
  5
135
330
12C
100
AcDbEntity
  8
0
100
AcDbBlockEnd
  0
BLOCK
  5
140
330
138
100
AcDbEntity
  8
0
100
AcDbBlockBegin
  2
*D17
 70
     1
 10
0.0
 20
0.0
 30
0.0
  3
*D17
  1

  0
LINE
  5
139
330
138
100
AcDbEntity
  8
1
  6
Continuous
 62
     4
100
AcDbLine
 10
-40.0
 20
343.063576966535
 30
0.0
 11
49.92152791795003
 21
343.063576966535
 31
0.0
  0
LINE
  5
13A
330
138
100
AcDbEntity
  8
1
  6
Continuous
 62
     4
100
AcDbLine
 10
-40.0
 20
328.024032787231
 30
0.0
 11
-40.0
 21
345.063576966535
 31
0.0
  0
LINE
  5
13B
330
138
100
AcDbEntity
  8
1
  6
Continuous
 62
     4
100
AcDbLine
 10
49.92152791795003
 20
135.4568262139055
 30
0.0
 11
49.92152791795003
 21
345.063576966535
 31
0.0
  0
LINE
  5
13C
330
138
100
AcDbEntity
  8
1
  6
Continuous
 62
     4
100
AcDbLine
 10
-40.0
 20
308.0504302138638
 30
0.0
 11
-40.0
 21
318.330490736827
 31
0.0
  0
SOLID
  5
13D
330
138
100
AcDbEntity
  8
1
 62
     4
100
AcDbTrace
 10
-33.0
 20
343.9851444496467
 30
0.0
 11
-33.0
 21
342.1420094834232
 31
0.0
 12
-40.0
 22
343.063576966535
 32
0.0
 13
-40.0
 23
343.063576966535
 33
0.0
  0
SOLID
  5
13E
330
138
100
AcDbEntity
  8
1
 62
     4
100
AcDbTrace
 10
42.92152791795003
 20
342.1420094834232
 30
0.0
 11
42.92152791795003
 21
343.9851444496467
 31
0.0
 12
49.92152791795003
 22
343.063576966535
 32
0.0
 13
49.92152791795003
 23
343.063576966535
 33
0.0
  0
MTEXT
  5
13F
330
138
100
AcDbEntity
  8
1
 62
     1
100
AcDbMText
 10
-4.72206899376511
 20
345.063576966535
 30
0.0
 40
7.0
 41
0.0
 71
     7
 72
     1
  1
90
  7
CONVERTER_11
 11
0.9999999999970619
 21
2.424068405545306E-6
 31
0.0
 73
     1
 44
0.60024009603842
  0
ENDBLK
  5
141
330
138
100
AcDbEntity
  8
0
100
AcDbBlockEnd
  0
BLOCK
  5
14C
330
144
100
AcDbEntity
  8
0
100
AcDbBlockBegin
  2
*D18
 70
     1
 10
0.0
 20
0.0
 30
0.0
  3
*D18
  1

  0
LINE
  5
145
330
144
100
AcDbEntity
  8
1
  6
Continuous
 62
     4
100
AcDbLine
 10
-64.00000000000001
 20
323.5504302138638
 30
0.0
 11
-15.99999999999999
 21
323.5504302138638
 31
0.0
  0
LINE
  5
146
330
144
100
AcDbEntity
  8
1
  6
Continuous
 62
     4
100
AcDbLine
 10
-15.99999999999999
 20
323.5504302138638
 30
0.0
 11
9.08268872383674
 21
323.5504302138638
 31
0.0
  0
LINE
  5
147
330
144
100
AcDbEntity
  8
1
  6
Continuous
 62
     4
100
AcDbLine
 10
-64.00000000000001
 20
313.5504302138638
 30
0.0
 11
-64.00000000000001
 21
325.5504302138638
 31
0.0
  0
LINE
  5
148
330
144
100
AcDbEntity
  8
1
  6
Continuous
 62
     4
100
AcDbLine
 10
-15.99999999999999
 20
313.5504302138638
 30
0.0
 11
-15.99999999999999
 21
325.5504302138638
 31
0.0
  0
SOLID
  5
149
330
144
100
AcDbEntity
  8
1
 62
     4
100
AcDbTrace
 10
-22.99999999999999
 20
322.6288627307521
 30
0.0
 11
-22.99999999999999
 21
324.4719976969756
 31
0.0
 12
-15.99999999999999
 22
323.5504302138638
 32
0.0
 13
-15.99999999999999
 23
323.5504302138638
 33
0.0
  0
SOLID
  5
14A
330
144
100
AcDbEntity
  8
1
 62
     4
100
AcDbTrace
 10
-57.00000000000001
 20
324.4719976969756
 30
0.0
 11
-57.00000000000001
 21
322.6288627307521
 31
0.0
 12
-64.00000000000001
 22
323.5504302138638
 32
0.0
 13
-64.00000000000001
 23
323.5504302138638
 33
0.0
  0
MTEXT
  5
14B
330
144
100
AcDbEntity
  8
1
 62
     1
100
AcDbMText
 10
-9.81731127616326
 20
325.5504302138638
 30
0.0
 40
7.0
 41
0.0
 71
     7
 72
     1
  1
6/4"
  7
CONVERTER_11
 11
0.9999999999970619
 21
2.424068405545306E-6
 31
0.0
 73
     1
 44
0.60024009603842
  0
ENDBLK
  5
14D
330
144
100
AcDbEntity
  8
0
100
AcDbBlockEnd
  0
BLOCK
  5
158
330
150
100
AcDbEntity
  8
0
100
AcDbBlockBegin
  2
*D19
 70
     1
 10
0.0
 20
0.0
 30
0.0
  3
*D19
  1

  0
LINE
  5
151
330
150
100
AcDbEntity
  8
1
  6
Continuous
 62
     4
100
AcDbLine
 10
-60.0
 20
133.062986056066
 30
0.0
 11
-20.0
 21
133.062986056066
 31
0.0
  0
LINE
  5
152
330
150
100
AcDbEntity
  8
1
  6
Continuous
 62
     4
100
AcDbLine
 10
-60.0
 20
133.062986056066
 30
0.0
 11
-111.780924248525
 21
133.062986056066
 31
0.0
  0
LINE
  5
153
330
150
100
AcDbEntity
  8
1
  6
Continuous
 62
     4
100
AcDbLine
 10
-60.0
 20
117.7535898384861
 30
0.0
 11
-60.0
 21
135.062986056066
 31
0.0
  0
LINE
  5
154
330
150
100
AcDbEntity
  8
1
  6
Continuous
 62
     4
100
AcDbLine
 10
-20.0
 20
117.7535898384861
 30
0.0
 11
-20.0
 21
135.062986056066
 31
0.0
  0
SOLID
  5
155
330
150
100
AcDbEntity
  8
1
 62
     4
100
AcDbTrace
 10
-27.0
 20
132.1414185729542
 30
0.0
 11
-27.0
 21
133.9845535391778
 31
0.0
 12
-20.0
 22
133.062986056066
 32
0.0
 13
-20.0
 23
133.062986056066
 33
0.0
  0
SOLID
  5
156
330
150
100
AcDbEntity
  8
1
 62
     4
100
AcDbTrace
 10
-53.0
 20
133.9845535391778
 30
0.0
 11
-53.0
 21
132.1414185729542
 31
0.0
 12
-60.0
 22
133.062986056066
 32
0.0
 13
-60.0
 23
133.062986056066
 33
0.0
  0
MTEXT
  5
157
330
150
100
AcDbEntity
  8
1
 62
     1
100
AcDbMText
 10
-107.8609242484912
 20
135.0629582277607
 30
0.0
 40
7.0
 41
0.0
 71
     7
 72
     1
  1
\C1;DN\C1;40
  7
CONVERTER_11
 11
0.9999999999970619
 21
2.424068405545306E-6
 31
0.0
 73
     1
 44
0.60024009603842
  0
ENDBLK
  5
159
330
150
100
AcDbEntity
  8
0
100
AcDbBlockEnd
  0
BLOCK
  5
2A7
330
29E
100
AcDbEntity
  8
0
100
AcDbBlockBegin
  2
*D20
 70
     1
 10
0.0
 20
0.0
 30
0.0
  3
*D20
  1

  0
LINE
  5
29F
330
29E
100
AcDbEntity
  8
1
  6
Continuous
 62
     4
100
AcDbLine
 10
-132.4670601506852
 20
219.8382833519638
 30
0.0
 11
-103.3864230429738
 21
212.0461501235694
 31
0.0
  0
LINE
  5
2A0
330
29E
100
AcDbEntity
  8
1
  6
Continuous
 62
     4
100
AcDbLine
 10
-148.9153970783503
 20
224.245601948567
 30
0.0
 11
-132.4670601506852
 21
219.8382833519638
 31
0.0
  0
LINE
  5
2A1
330
29E
100
AcDbEntity
  8
1
  6
Continuous
 62
     4
100
AcDbLine
 10
-162.4383586463971
 20
227.8690685800025
 30
0.0
 11
-148.9153970783503
 21
224.245601948567
 31
0.0
  0
LINE
  5
2A2
330
29E
100
AcDbEntity
  8
1
  6
Continuous
 62
     4
100
AcDbLine
 10
-128.731409527691
 20
233.7799212763034
 30
0.0
 11
-132.9846982408903
 21
217.9064316993856
 31
0.0
  0
LINE
  5
2A3
330
29E
100
AcDbEntity
  8
1
  6
Continuous
 62
     4
100
AcDbLine
 10
-145.1797464553561
 20
238.1872398729066
 30
0.0
 11
-149.4330351685553
 21
222.3137502959888
 31
0.0
  0
SOLID
  5
2A4
330
29E
100
AcDbEntity
  8
1
 62
     4
100
AcDbTrace
 10
-155.9153970783502
 20
225.1671694316789
 30
0.0
 11
-155.4383586463971
 21
226.9475010968906
 31
0.0
 12
-148.9153970783503
 22
224.245601948567
 32
0.0
 13
-148.9153970783503
 23
224.245601948567
 33
0.0
  0
SOLID
  5
2A5
330
29E
100
AcDbEntity
  8
1
 62
     4
100
AcDbTrace
 10
-125.4670601506852
 20
218.9167158688519
 30
0.0
 11
-125.9440985826383
 21
217.1363842036401
 31
0.0
 12
-132.4670601506852
 22
219.8382833519638
 32
0.0
 13
-132.4670601506852
 23
219.8382833519638
 33
0.0
  0
MTEXT
  5
2A6
330
29E
100
AcDbEntity
  8
1
 62
     1
100
AcDbMText
 10
-121.124783069632
 20
218.8696817285855
 30
0.0
 40
7.0
 41
0.0
 71
     7
 72
     1
  1
3/4"
  7
CONVERTER_11
 11
0.9659258262890639
 21
-0.2588190451025371
 31
0.0
 73
     1
 44
0.60024009603842
  0
ENDBLK
  5
2A8
330
29E
100
AcDbEntity
  8
0
100
AcDbBlockEnd
  0
ENDSEC
  0
SECTION
  2
ENTITIES
  0
INSERT
  5
73
330
1F
100
AcDbEntity
  8
0
100
AcDbBlockReference
  2
HL_100_40_Röhrensifon
 10
70.57667393817593
 20
183.2829583617785
 30
0.0
  0
INSERT
  5
74
330
1F
100
AcDbEntity
  8
0
100
AcDbBlockReference
  2
Holländermutter_2_
 10
49.62394165668826
 20
65.49939528025601
 30
0.0
  0
INSERT
  5
75
330
1F
100
AcDbEntity
  8
0
100
AcDbBlockReference
  2
Holländermutter_6_4__2
 10
-40.00000000000918
 20
109.2535898384861
 30
0.0
  0
INSERT
  5
76
330
1F
100
AcDbEntity
  8
0
100
AcDbBlockReference
  2
Rckans1
 10
-120.2068289804523
 20
257.8735321891256
 30
0.0
  0
ENDSEC
  0
SECTION
  2
OBJECTS
  0
DICTIONARY
  5
C
330
0
100
AcDbDictionary
281
     1
  3
ACAD_GROUP
350
D
  3
ACAD_LAYOUT
350
1A
  3
ACAD_MATERIAL
350
3B
  3
ACAD_MLEADERSTYLE
350
2AD
  3
ACAD_MLINESTYLE
350
17
  3
ACAD_PLOTSETTINGS
350
19
  3
ACAD_PLOTSTYLENAME
350
E
  3
ACAD_VISUALSTYLE
350
2A
  3
AcDbVariableDictionary
350
2AB
  0
DICTIONARY
  5
D
102
{ACAD_REACTORS
330
C
102
}
330
C
100
AcDbDictionary
281
     1
  0
DICTIONARY
  5
1A
102
{ACAD_REACTORS
330
C
102
}
330
C
100
AcDbDictionary
281
     1
  3
Layout1
350
1E
  3
Layout2
350
26
  3
Model
350
22
  0
DICTIONARY
  5
3B
102
{ACAD_REACTORS
330
C
102
}
330
C
100
AcDbDictionary
281
     1
  3
ByBlock
350
3D
  3
ByLayer
350
3C
  3
Global
350
3E
  0
DICTIONARY
  5
2AD
102
{ACAD_REACTORS
330
C
102
}
330
C
100
AcDbDictionary
281
     1
  0
DICTIONARY
  5
17
102
{ACAD_REACTORS
330
C
102
}
330
C
100
AcDbDictionary
281
     1
  3
Standard
350
18
  0
DICTIONARY
  5
19
102
{ACAD_REACTORS
330
C
102
}
330
C
100
AcDbDictionary
281
     1
  0
ACDBDICTIONARYWDFLT
  5
E
102
{ACAD_REACTORS
330
C
102
}
330
C
100
AcDbDictionary
281
     1
  3
Normal
350
F
100
AcDbDictionaryWithDefault
340
F
  0
DICTIONARY
  5
2A
102
{ACAD_REACTORS
330
C
102
}
330
C
100
AcDbDictionary
281
     1
  3
2dWireframe
350
2F
  3
3D Hidden
350
31
  3
3dWireframe
350
30
  3
Basic
350
32
  3
Brighten
350
36
  3
ColorChange
350
3A
  3
Conceptual
350
34
  3
Dim
350
35
  3
Facepattern
350
39
  3
Flat
350
2B
  3
FlatWithEdges
350
2C
  3
Gouraud
350
2D
  3
GouraudWithEdges
350
2E
  3
Linepattern
350
38
  3
Realistic
350
33
  3
Thicken
350
37
  0
DICTIONARY
  5
2AB
102
{ACAD_REACTORS
330
C
102
}
330
C
100
AcDbDictionary
281
     1
  3
DIMASSOC
350
2AE
  3
HIDETEXT
350
2AF
  0
LAYOUT
  5
1E
102
{ACAD_REACTORS
330
1A
102
}
330
1A
100
AcDbPlotSettings
  1

  2
none_device
  4

  6

 40
0.0
 41
0.0
 42
0.0
 43
0.0
 44
0.0
 45
0.0
 46
0.0
 47
0.0
 48
0.0
 49
0.0
140
0.0
141
0.0
142
1.0
143
1.0
 70
   688
 72
     0
 73
     0
 74
     5
  7

 75
    16
147
1.0
148
0.0
149
0.0
100
AcDbLayout
  1
Layout1
 70
     1
 71
     1
 10
0.0
 20
0.0
 11
12.0
 21
9.0
 12
0.0
 22
0.0
 32
0.0
 14
1.00000000000000E+20
 24
1.00000000000000E+20
 34
1.00000000000000E+20
 15
-1.00000000000000E+20
 25
-1.00000000000000E+20
 35
-1.00000000000000E+20
146
0.0
 13
0.0
 23
0.0
 33
0.0
 16
1.0
 26
0.0
 36
0.0
 17
0.0
 27
1.0
 37
0.0
 76
     0
330
1B
  0
LAYOUT
  5
26
102
{ACAD_REACTORS
330
1A
102
}
330
1A
100
AcDbPlotSettings
  1

  2
none_device
  4

  6

 40
0.0
 41
0.0
 42
0.0
 43
0.0
 44
0.0
 45
0.0
 46
0.0
 47
0.0
 48
0.0
 49
0.0
140
0.0
141
0.0
142
1.0
143
1.0
 70
   688
 72
     0
 73
     0
 74
     5
  7

 75
    16
147
1.0
148
0.0
149
0.0
100
AcDbLayout
  1
Layout2
 70
     1
 71
     2
 10
0.0
 20
0.0
 11
0.0
 21
0.0
 12
0.0
 22
0.0
 32
0.0
 14
0.0
 24
0.0
 34
0.0
 15
0.0
 25
0.0
 35
0.0
146
0.0
 13
0.0
 23
0.0
 33
0.0
 16
1.0
 26
0.0
 36
0.0
 17
0.0
 27
1.0
 37
0.0
 76
     0
330
23
  0
LAYOUT
  5
22
102
{ACAD_REACTORS
330
1A
102
}
330
1A
100
AcDbPlotSettings
  1

  2
none_device
  4

  6

 40
0.0
 41
0.0
 42
0.0
 43
0.0
 44
0.0
 45
0.0
 46
0.0
 47
0.0
 48
0.0
 49
0.0
140
0.0
141
0.0
142
1.0
143
1.0
 70
  1712
 72
     0
 73
     0
 74
     0
  7

 75
     0
147
1.0
148
0.0
149
0.0
100
AcDbLayout
  1
Model
 70
     1
 71
     0
 10
0.0
 20
0.0
 11
12.0
 21
9.0
 12
0.0
 22
0.0
 32
0.0
 14
-162.4383586463972
 24
0.0
 34
0.0
 15
303.591706522749
 25
366.565916723557
 35
0.0
146
0.0
 13
0.0
 23
0.0
 33
0.0
 16
1.0
 26
0.0
 36
0.0
 17
0.0
 27
1.0
 37
0.0
 76
     0
330
1F
331
29
  0
MATERIAL
  5
3D
102
{ACAD_REACTORS
330
3B
102
}
102
{ACAD_XDICTIONARY
360
2D2
102
}
330
3B
100
AcDbMaterial
  1
ByBlock
  0
MATERIAL
  5
3C
102
{ACAD_REACTORS
330
3B
102
}
102
{ACAD_XDICTIONARY
360
2D0
102
}
330
3B
100
AcDbMaterial
  1
ByLayer
  0
MATERIAL
  5
3E
102
{ACAD_REACTORS
330
3B
102
}
102
{ACAD_XDICTIONARY
360
2D4
102
}
330
3B
100
AcDbMaterial
  1
Global
  0
MLINESTYLE
  5
18
102
{ACAD_REACTORS
330
17
102
}
330
17
100
AcDbMlineStyle
  2
Standard
 70
     0
  3

 62
   256
 51
90.0
 52
90.0
 71
     2
 49
0.5
 62
   256
  6
BYLAYER
 49
-0.5
 62
   256
  6
BYLAYER
  0
ACDBPLACEHOLDER
  5
F
102
{ACAD_REACTORS
330
E
102
}
330
E
  0
VISUALSTYLE
  5
2F
102
{ACAD_REACTORS
330
2A
102
}
102
{ACAD_XDICTIONARY
360
2B8
102
}
330
2A
100
AcDbVisualStyle
  2
2dWireframe
 70
     4
 71
     0
 72
     2
 73
     0
 90
        0
 40
-0.6
 41
-30.0
 62
     5
 63
     7
 74
     1
 91
        4
 64
     7
 65
   257
 75
     1
175
     1
 42
1.0
 92
        0
 66
   257
 43
1.0
 76
     1
 77
     6
 78
     2
 67
     7
 79
     5
170
     0
171
     0
290
     0
174
     0
 93
        1
 44
0.0
173
     0
291
     0
 45
0.0
1001
ACAD
1000
AcDbSavedByObjectVersion
1070
     0
  0
VISUALSTYLE
  5
31
102
{ACAD_REACTORS
330
2A
102
}
102
{ACAD_XDICTIONARY
360
2BC
102
}
330
2A
100
AcDbVisualStyle
  2
3D Hidden
 70
     6
 71
     1
 72
     2
 73
     2
 90
        0
 40
-0.6
 41
-30.0
 62
     5
 63
     7
 74
     2
 91
        2
 64
     7
 65
   257
 75
     2
175
     1
 42
40.0
 92
        0
 66
   257
 43
1.0
 76
     1
 77
     6
 78
     2
 67
     7
 79
     3
170
     0
171
     0
290
     0
174
     0
 93
        1
 44
0.0
173
     0
291
     0
 45
0.0
1001
ACAD
1000
AcDbSavedByObjectVersion
1070
     0
  0
VISUALSTYLE
  5
30
102
{ACAD_REACTORS
330
2A
102
}
102
{ACAD_XDICTIONARY
360
2BA
102
}
330
2A
100
AcDbVisualStyle
  2
3dWireframe
 70
     5
 71
     0
 72
     2
 73
     0
 90
        0
 40
-0.6
 41
-30.0
 62
     5
 63
     7
 74
     1
 91
        4
 64
     7
 65
   257
 75
     1
175
     1
 42
1.0
 92
        0
 66
   257
 43
1.0
 76
     1
 77
     6
 78
     2
 67
     7
 79
     5
170
     0
171
     0
290
     0
174
     0
 93
        1
 44
0.0
173
     0
291
     0
 45
0.0
1001
ACAD
1000
AcDbSavedByObjectVersion
1070
     0
  0
VISUALSTYLE
  5
32
102
{ACAD_REACTORS
330
2A
102
}
102
{ACAD_XDICTIONARY
360
2BE
102
}
330
2A
100
AcDbVisualStyle
  2
Basic
 70
     7
 71
     1
 72
     0
 73
     1
 90
        0
 40
-0.6
 41
-30.0
 62
     5
 63
     7
 74
     0
 91
        4
 64
     7
 65
   257
 75
     1
175
     1
 42
1.0
 92
        8
 66
     7
 43
1.0
 76
     1
 77
     6
 78
     2
 67
     7
 79
     5
170
     0
171
     0
290
     0
174
     0
 93
        1
 44
0.0
173
     0
291
     1
 45
0.0
1001
ACAD
1000
AcDbSavedByObjectVersion
1070
     0
  0
VISUALSTYLE
  5
36
102
{ACAD_REACTORS
330
2A
102
}
102
{ACAD_XDICTIONARY
360
2C6
102
}
330
2A
100
AcDbVisualStyle
  2
Brighten
 70
    12
 71
     2
 72
     2
 73
     0
 90
        0
 40
-0.6
 41
-30.0
 62
     5
 63
     7
 74
     1
 91
        4
 64
     7
 65
   257
 75
     1
175
     1
 42
1.0
 92
        8
 66
     7
 43
1.0
 76
     1
 77
     6
 78
     2
 67
     7
 79
     5
170
     0
171
     0
290
     0
174
     0
 93
        1
 44
50.0
173
     0
291
     1
 45
0.0
1001
ACAD
1000
AcDbSavedByObjectVersion
1070
     0
  0
VISUALSTYLE
  5
3A
102
{ACAD_REACTORS
330
2A
102
}
102
{ACAD_XDICTIONARY
360
2CE
102
}
330
2A
100
AcDbVisualStyle
  2
ColorChange
 70
    16
 71
     2
 72
     2
 73
     3
 90
        0
 40
-0.6
 41
-30.0
 62
     5
 63
     8
 74
     1
 91
        4
 64
     7
 65
   257
 75
     1
175
     1
 42
1.0
 92
        8
 66
     8
 43
1.0
 76
     1
 77
     6
 78
     2
 67
     7
 79
     5
170
     0
171
     0
290
     0
174
     0
 93
        1
 44
0.0
173
     0
291
     1
 45
0.0
1001
ACAD
1000
AcDbSavedByObjectVersion
1070
     0
  0
VISUALSTYLE
  5
34
102
{ACAD_REACTORS
330
2A
102
}
102
{ACAD_XDICTIONARY
360
2C2
102
}
330
2A
100
AcDbVisualStyle
  2
Conceptual
 70
     9
 71
     3
 72
     2
 73
     0
 90
        0
 40
-0.6
 41
-30.0
 62
     5
 63
     7
 74
     2
 91
        2
 64
     7
 65
   257
 75
     1
175
     1
 42
40.0
 92
        8
 66
     7
 43
1.0
 76
     1
 77
     6
 78
     2
 67
     7
 79
     3
170
     0
171
     0
290
     0
174
     0
 93
        1
 44
0.0
173
     0
291
     0
 45
0.0
1001
ACAD
1000
AcDbSavedByObjectVersion
1070
     0
  0
VISUALSTYLE
  5
35
102
{ACAD_REACTORS
330
2A
102
}
102
{ACAD_XDICTIONARY
360
2C4
102
}
330
2A
100
AcDbVisualStyle
  2
Dim
 70
    11
 71
     2
 72
     2
 73
     0
 90
        0
 40
-0.6
 41
-30.0
 62
     5
 63
     7
 74
     1
 91
        4
 64
     7
 65
   257
 75
     1
175
     1
 42
1.0
 92
        8
 66
     7
 43
1.0
 76
     1
 77
     6
 78
     2
 67
     7
 79
     5
170
     0
171
     0
290
     0
174
     0
 93
        1
 44
-50.0
173
     0
291
     1
 45
0.0
1001
ACAD
1000
AcDbSavedByObjectVersion
1070
     0
  0
VISUALSTYLE
  5
39
102
{ACAD_REACTORS
330
2A
102
}
102
{ACAD_XDICTIONARY
360
2CC
102
}
330
2A
100
AcDbVisualStyle
  2
Facepattern
 70
    15
 71
     2
 72
     2
 73
     0
 90
        0
 40
-0.6
 41
-30.0
 62
     5
 63
     7
 74
     1
 91
        4
 64
     7
 65
   257
 75
     1
175
     1
 42
1.0
 92
        8
 66
     7
 43
1.0
 76
     1
 77
     6
 78
     2
 67
     7
 79
     5
170
     0
171
     0
290
     0
174
     0
 93
        1
 44
0.0
173
     0
291
     1
 45
0.0
1001
ACAD
1000
AcDbSavedByObjectVersion
1070
     0
  0
VISUALSTYLE
  5
2B
102
{ACAD_REACTORS
330
2A
102
}
102
{ACAD_XDICTIONARY
360
2B0
102
}
330
2A
100
AcDbVisualStyle
  2
Flat
 70
     0
 71
     2
 72
     1
 73
     1
 90
        2
 40
-0.6
 41
30.0
 62
     5
 63
     7
 74
     0
 91
        4
 64
     7
 65
   257
 75
     1
175
     1
 42
1.0
 92
        8
 66
     7
 43
1.0
 76
     1
 77
     6
 78
     2
 67
     7
 79
     5
170
     0
171
     0
290
     0
174
     0
 93
       13
 44
0.0
173
     0
291
     1
 45
0.0
1001
ACAD
1000
AcDbSavedByObjectVersion
1070
     0
  0
VISUALSTYLE
  5
2C
102
{ACAD_REACTORS
330
2A
102
}
102
{ACAD_XDICTIONARY
360
2B2
102
}
330
2A
100
AcDbVisualStyle
  2
FlatWithEdges
 70
     1
 71
     2
 72
     1
 73
     1
 90
        2
 40
-0.6
 41
30.0
 62
     5
 63
     7
 74
     1
 91
        4
 64
     7
 65
   257
 75
     1
175
     1
 42
1.0
 92
        0
 66
   257
 43
1.0
 76
     1
 77
     6
 78
     2
 67
     7
 79
     5
170
     0
171
     0
290
     0
174
     0
 93
       13
 44
0.0
173
     0
291
     1
 45
0.0
1001
ACAD
1000
AcDbSavedByObjectVersion
1070
     0
  0
VISUALSTYLE
  5
2D
102
{ACAD_REACTORS
330
2A
102
}
102
{ACAD_XDICTIONARY
360
2B4
102
}
330
2A
100
AcDbVisualStyle
  2
Gouraud
 70
     2
 71
     2
 72
     2
 73
     1
 90
        2
 40
-0.6
 41
30.0
 62
     5
 63
     7
 74
     0
 91
        4
 64
     7
 65
   257
 75
     1
175
     1
 42
1.0
 92
        0
 66
     7
 43
1.0
 76
     1
 77
     6
 78
     2
 67
     7
 79
     5
170
     0
171
     0
290
     0
174
     0
 93
       13
 44
0.0
173
     0
291
     1
 45
0.0
1001
ACAD
1000
AcDbSavedByObjectVersion
1070
     0
  0
VISUALSTYLE
  5
2E
102
{ACAD_REACTORS
330
2A
102
}
102
{ACAD_XDICTIONARY
360
2B6
102
}
330
2A
100
AcDbVisualStyle
  2
GouraudWithEdges
 70
     3
 71
     2
 72
     2
 73
     1
 90
        2
 40
-0.6
 41
30.0
 62
     5
 63
     7
 74
     1
 91
        4
 64
     7
 65
   257
 75
     1
175
     1
 42
1.0
 92
        0
 66
   257
 43
1.0
 76
     1
 77
     6
 78
     2
 67
     7
 79
     5
170
     0
171
     0
290
     0
174
     0
 93
       13
 44
0.0
173
     0
291
     1
 45
0.0
1001
ACAD
1000
AcDbSavedByObjectVersion
1070
     0
  0
VISUALSTYLE
  5
38
102
{ACAD_REACTORS
330
2A
102
}
102
{ACAD_XDICTIONARY
360
2CA
102
}
330
2A
100
AcDbVisualStyle
  2
Linepattern
 70
    14
 71
     2
 72
     2
 73
     0
 90
        0
 40
-0.6
 41
-30.0
 62
     5
 63
     7
 74
     1
 91
        4
 64
     7
 65
   257
 75
     7
175
     7
 42
1.0
 92
        8
 66
     7
 43
1.0
 76
     1
 77
     6
 78
     2
 67
     7
 79
     5
170
     0
171
     0
290
     0
174
     0
 93
        1
 44
0.0
173
     0
291
     1
 45
0.0
1001
ACAD
1000
AcDbSavedByObjectVersion
1070
     0
  0
VISUALSTYLE
  5
33
102
{ACAD_REACTORS
330
2A
102
}
102
{ACAD_XDICTIONARY
360
2C0
102
}
330
2A
100
AcDbVisualStyle
  2
Realistic
 70
     8
 71
     2
 72
     2
 73
     0
 90
        0
 40
-0.6
 41
-30.0
 62
     5
 63
     7
 74
     1
 91
        0
 64
     7
 65
   257
 75
     1
175
     1
 42
1.0
 92
        8
 66
     8
 43
1.0
 76
     1
 77
     6
 78
     2
 67
     7
 79
     5
170
     0
171
     0
290
     0
174
     0
 93
       13
 44
0.0
173
     0
291
     0
 45
0.0
1001
ACAD
1000
AcDbSavedByObjectVersion
1070
     0
  0
VISUALSTYLE
  5
37
102
{ACAD_REACTORS
330
2A
102
}
102
{ACAD_XDICTIONARY
360
2C8
102
}
330
2A
100
AcDbVisualStyle
  2
Thicken
 70
    13
 71
     2
 72
     2
 73
     0
 90
        0
 40
-0.6
 41
-30.0
 62
     5
 63
     7
 74
     1
 91
        4
 64
     7
 65
   257
 75
     1
175
     1
 42
1.0
 92
       12
 66
     7
 43
1.0
 76
     1
 77
     6
 78
     2
 67
     7
 79
     5
170
     0
171
     0
290
     0
174
     0
 93
        1
 44
0.0
173
     0
291
     1
 45
0.0
1001
ACAD
1000
AcDbSavedByObjectVersion
1070
     0
  0
DICTIONARYVAR
  5
2AE
102
{ACAD_REACTORS
330
2AB
102
}
330
2AB
100
DictionaryVariables
280
     0
  1
2
  0
DICTIONARYVAR
  5
2AF
102
{ACAD_REACTORS
330
2AB
102
}
330
2AB
100
DictionaryVariables
280
     0
  1
1
  0
DICTIONARY
  5
2D2
330
3D
100
AcDbDictionary
280
     1
281
     1
  3
ACAD_XREC_ROUNDTRIP
360
2D3
  0
DICTIONARY
  5
2D0
330
3C
100
AcDbDictionary
280
     1
281
     1
  3
ACAD_XREC_ROUNDTRIP
360
2D1
  0
DICTIONARY
  5
2D4
330
3E
100
AcDbDictionary
280
     1
281
     1
  3
ACAD_XREC_ROUNDTRIP
360
2D5
  0
DICTIONARY
  5
2B8
330
2F
100
AcDbDictionary
280
     1
281
     1
  3
ACAD_XREC_ROUNDTRIP
360
2B9
  0
DICTIONARY
  5
2BC
330
31
100
AcDbDictionary
280
     1
281
     1
  3
ACAD_XREC_ROUNDTRIP
360
2BD
  0
DICTIONARY
  5
2BA
330
30
100
AcDbDictionary
280
     1
281
     1
  3
ACAD_XREC_ROUNDTRIP
360
2BB
  0
DICTIONARY
  5
2BE
330
32
100
AcDbDictionary
280
     1
281
     1
  3
ACAD_XREC_ROUNDTRIP
360
2BF
  0
DICTIONARY
  5
2C6
330
36
100
AcDbDictionary
280
     1
281
     1
  3
ACAD_XREC_ROUNDTRIP
360
2C7
  0
DICTIONARY
  5
2CE
330
3A
100
AcDbDictionary
280
     1
281
     1
  3
ACAD_XREC_ROUNDTRIP
360
2CF
  0
DICTIONARY
  5
2C2
330
34
100
AcDbDictionary
280
     1
281
     1
  3
ACAD_XREC_ROUNDTRIP
360
2C3
  0
DICTIONARY
  5
2C4
330
35
100
AcDbDictionary
280
     1
281
     1
  3
ACAD_XREC_ROUNDTRIP
360
2C5
  0
DICTIONARY
  5
2CC
330
39
100
AcDbDictionary
280
     1
281
     1
  3
ACAD_XREC_ROUNDTRIP
360
2CD
  0
DICTIONARY
  5
2B0
330
2B
100
AcDbDictionary
280
     1
281
     1
  3
ACAD_XREC_ROUNDTRIP
360
2B1
  0
DICTIONARY
  5
2B2
330
2C
100
AcDbDictionary
280
     1
281
     1
  3
ACAD_XREC_ROUNDTRIP
360
2B3
  0
DICTIONARY
  5
2B4
330
2D
100
AcDbDictionary
280
     1
281
     1
  3
ACAD_XREC_ROUNDTRIP
360
2B5
  0
DICTIONARY
  5
2B6
330
2E
100
AcDbDictionary
280
     1
281
     1
  3
ACAD_XREC_ROUNDTRIP
360
2B7
  0
DICTIONARY
  5
2CA
330
38
100
AcDbDictionary
280
     1
281
     1
  3
ACAD_XREC_ROUNDTRIP
360
2CB
  0
DICTIONARY
  5
2C0
330
33
100
AcDbDictionary
280
     1
281
     1
  3
ACAD_XREC_ROUNDTRIP
360
2C1
  0
DICTIONARY
  5
2C8
330
37
100
AcDbDictionary
280
     1
281
     1
  3
ACAD_XREC_ROUNDTRIP
360
2C9
  0
XRECORD
  5
2D3
102
{ACAD_REACTORS
330
2D2
102
}
330
2D2
100
AcDbXrecord
280
     1
102
MATERIAL
148
0.0
149
0.0
149
0.0
 93
        0
 94
      127
282
     0
 72
     1
 77
     1
171
     1
175
     1
179
     1
273
     0
  0
XRECORD
  5
2D1
102
{ACAD_REACTORS
330
2D0
102
}
330
2D0
100
AcDbXrecord
280
     1
102
MATERIAL
148
0.0
149
0.0
149
0.0
 93
        0
 94
      127
282
     0
 72
     1
 77
     1
171
     1
175
     1
179
     1
273
     0
  0
XRECORD
  5
2D5
102
{ACAD_REACTORS
330
2D4
102
}
330
2D4
100
AcDbXrecord
280
     1
102
MATERIAL
148
0.0
149
0.0
149
0.0
 93
        0
 94
      127
282
     0
 72
     1
 77
     1
171
     1
175
     1
179
     1
273
     0
  0
XRECORD
  5
2B9
102
{ACAD_REACTORS
330
2B8
102
}
330
2B8
100
AcDbXrecord
280
     1
102
RTVSPropertyOp0
 70
     1
102
RTVSPropertyOp1
 70
     1
102
RTVSPropertyOp2
 70
     1
102
RTVSPropertyOp3
 70
     1
102
RTVSPropertyOp4
 70
     1
102
RTVSPropertyOp5
 70
     1
102
RTVSPropertyOp6
 70
     1
102
RTVSPropertyOp7
 70
     1
102
RTVSPropertyOp8
 70
     1
102
RTVSPropertyOp9
 70
     1
102
RTVSPropertyOp10
 70
     1
102
RTVSPropertyOp11
 70
     1
102
RTVSPropertyOp12
 70
     1
102
RTVSPropertyOp13
 70
     1
102
RTVSPropertyOp14
 70
     1
102
RTVSPropertyOp15
 70
     1
102
RTVSPropertyOp16
 70
     1
102
RTVSPropertyOp17
 70
     1
102
RTVSPropertyOp18
 70
     1
102
RTVSPropertyOp19
 70
     1
102
RTVSPropertyOp20
 70
     1
102
RTVSPropertyOp21
 70
     1
102
RTVSPropertyOp22
 70
     1
102
RTVSPropertyOp23
 70
     1
102
RTVSPropertyOp24
 70
     1
102
RTVSPropertyOp25
 70
     1
102
RTVSPropertyOp26
 70
     1
102
RTVSPropertyOp27
 70
     1
102
RTVSPropertyOp28
 70
     1
102
RTVSPropertyOp29
 70
     1
102
RTVSPropertyOp30
 70
     1
102
RTVSPropertyOp31
 70
     1
102
RTVSPropertyOp32
 70
     1
  0
XRECORD
  5
2BD
102
{ACAD_REACTORS
330
2BC
102
}
330
2BC
100
AcDbXrecord
280
     1
102
RTVSPropertyOp0
 70
     1
102
RTVSPropertyOp1
 70
     1
102
RTVSPropertyOp2
 70
     1
102
RTVSPropertyOp3
 70
     1
102
RTVSPropertyOp4
 70
     1
102
RTVSPropertyOp5
 70
     1
102
RTVSPropertyOp6
 70
     1
102
RTVSPropertyOp7
 70
     1
102
RTVSPropertyOp8
 70
     1
102
RTVSPropertyOp9
 70
     1
102
RTVSPropertyOp10
 70
     1
102
RTVSPropertyOp11
 70
     1
102
RTVSPropertyOp12
 70
     1
102
RTVSPropertyOp13
 70
     1
102
RTVSPropertyOp14
 70
     1
102
RTVSPropertyOp15
 70
     1
102
RTVSPropertyOp16
 70
     1
102
RTVSPropertyOp17
 70
     1
102
RTVSPropertyOp18
 70
     1
102
RTVSPropertyOp19
 70
     1
102
RTVSPropertyOp20
 70
     1
102
RTVSPropertyOp21
 70
     1
102
RTVSPropertyOp22
 70
     1
102
RTVSPropertyOp23
 70
     1
102
RTVSPropertyOp24
 70
     1
102
RTVSPropertyOp25
 70
     1
102
RTVSPropertyOp26
 70
     1
102
RTVSPropertyOp27
 70
     1
102
RTVSPropertyOp28
 70
     1
102
RTVSPropertyOp29
 70
     1
102
RTVSPropertyOp30
 70
     1
102
RTVSPropertyOp31
 70
     1
102
RTVSPropertyOp32
 70
     1
  0
XRECORD
  5
2BB
102
{ACAD_REACTORS
330
2BA
102
}
330
2BA
100
AcDbXrecord
280
     1
102
RTVSPropertyOp0
 70
     1
102
RTVSPropertyOp1
 70
     1
102
RTVSPropertyOp2
 70
     1
102
RTVSPropertyOp3
 70
     1
102
RTVSPropertyOp4
 70
     1
102
RTVSPropertyOp5
 70
     1
102
RTVSPropertyOp6
 70
     1
102
RTVSPropertyOp7
 70
     1
102
RTVSPropertyOp8
 70
     1
102
RTVSPropertyOp9
 70
     1
102
RTVSPropertyOp10
 70
     1
102
RTVSPropertyOp11
 70
     1
102
RTVSPropertyOp12
 70
     1
102
RTVSPropertyOp13
 70
     1
102
RTVSPropertyOp14
 70
     1
102
RTVSPropertyOp15
 70
     1
102
RTVSPropertyOp16
 70
     1
102
RTVSPropertyOp17
 70
     1
102
RTVSPropertyOp18
 70
     1
102
RTVSPropertyOp19
 70
     1
102
RTVSPropertyOp20
 70
     1
102
RTVSPropertyOp21
 70
     1
102
RTVSPropertyOp22
 70
     1
102
RTVSPropertyOp23
 70
     1
102
RTVSPropertyOp24
 70
     1
102
RTVSPropertyOp25
 70
     1
102
RTVSPropertyOp26
 70
     1
102
RTVSPropertyOp27
 70
     1
102
RTVSPropertyOp28
 70
     1
102
RTVSPropertyOp29
 70
     1
102
RTVSPropertyOp30
 70
     1
102
RTVSPropertyOp31
 70
     1
102
RTVSPropertyOp32
 70
     1
  0
XRECORD
  5
2BF
102
{ACAD_REACTORS
330
2BE
102
}
330
2BE
100
AcDbXrecord
280
     1
102
RTVSPropertyOp0
 70
     1
102
RTVSPropertyOp1
 70
     1
102
RTVSPropertyOp2
 70
     1
102
RTVSPropertyOp3
 70
     1
102
RTVSPropertyOp4
 70
     1
102
RTVSPropertyOp5
 70
     1
102
RTVSPropertyOp6
 70
     1
102
RTVSPropertyOp7
 70
     1
102
RTVSPropertyOp8
 70
     1
102
RTVSPropertyOp9
 70
     1
102
RTVSPropertyOp10
 70
     1
102
RTVSPropertyOp11
 70
     1
102
RTVSPropertyOp12
 70
     1
102
RTVSPropertyOp13
 70
     1
102
RTVSPropertyOp14
 70
     1
102
RTVSPropertyOp15
 70
     1
102
RTVSPropertyOp16
 70
     1
102
RTVSPropertyOp17
 70
     1
102
RTVSPropertyOp18
 70
     1
102
RTVSPropertyOp19
 70
     1
102
RTVSPropertyOp20
 70
     1
102
RTVSPropertyOp21
 70
     1
102
RTVSPropertyOp22
 70
     1
102
RTVSPropertyOp23
 70
     1
102
RTVSPropertyOp24
 70
     1
102
RTVSPropertyOp25
 70
     1
102
RTVSPropertyOp26
 70
     1
102
RTVSPropertyOp27
 70
     1
102
RTVSPropertyOp28
 70
     1
102
RTVSPropertyOp29
 70
     1
102
RTVSPropertyOp30
 70
     1
102
RTVSPropertyOp31
 70
     1
102
RTVSPropertyOp32
 70
     1
  0
XRECORD
  5
2C7
102
{ACAD_REACTORS
330
2C6
102
}
330
2C6
100
AcDbXrecord
280
     1
102
RTVSPropertyOp0
 70
     1
102
RTVSPropertyOp1
 70
     1
102
RTVSPropertyOp2
 70
     1
102
RTVSPropertyOp3
 70
     1
102
RTVSPropertyOp4
 70
     1
102
RTVSPropertyOp5
 70
     1
102
RTVSPropertyOp6
 70
     1
102
RTVSPropertyOp7
 70
     1
102
RTVSPropertyOp8
 70
     1
102
RTVSPropertyOp9
 70
     1
102
RTVSPropertyOp10
 70
     1
102
RTVSPropertyOp11
 70
     1
102
RTVSPropertyOp12
 70
     1
102
RTVSPropertyOp13
 70
     1
102
RTVSPropertyOp14
 70
     1
102
RTVSPropertyOp15
 70
     1
102
RTVSPropertyOp16
 70
     1
102
RTVSPropertyOp17
 70
     1
102
RTVSPropertyOp18
 70
     1
102
RTVSPropertyOp19
 70
     1
102
RTVSPropertyOp20
 70
     1
102
RTVSPropertyOp21
 70
     1
102
RTVSPropertyOp22
 70
     1
102
RTVSPropertyOp23
 70
     1
102
RTVSPropertyOp24
 70
     1
102
RTVSPropertyOp25
 70
     1
102
RTVSPropertyOp26
 70
     1
102
RTVSPropertyOp27
 70
     1
102
RTVSPropertyOp28
 70
     1
102
RTVSPropertyOp29
 70
     1
102
RTVSPropertyOp30
 70
     1
102
RTVSPropertyOp31
 70
     1
102
RTVSPropertyOp32
 70
     1
  0
XRECORD
  5
2CF
102
{ACAD_REACTORS
330
2CE
102
}
330
2CE
100
AcDbXrecord
280
     1
102
RTVSPropertyOp0
 70
     1
102
RTVSPropertyOp1
 70
     1
102
RTVSPropertyOp2
 70
     1
102
RTVSPropertyOp3
 70
     1
102
RTVSPropertyOp4
 70
     1
102
RTVSPropertyOp5
 70
     1
102
RTVSPropertyOp6
 70
     1
102
RTVSPropertyOp7
 70
     1
102
RTVSPropertyOp8
 70
     1
102
RTVSPropertyOp9
 70
     1
102
RTVSPropertyOp10
 70
     1
102
RTVSPropertyOp11
 70
     1
102
RTVSPropertyOp12
 70
     1
102
RTVSPropertyOp13
 70
     1
102
RTVSPropertyOp14
 70
     1
102
RTVSPropertyOp15
 70
     1
102
RTVSPropertyOp16
 70
     1
102
RTVSPropertyOp17
 70
     1
102
RTVSPropertyOp18
 70
     1
102
RTVSPropertyOp19
 70
     1
102
RTVSPropertyOp20
 70
     1
102
RTVSPropertyOp21
 70
     1
102
RTVSPropertyOp22
 70
     1
102
RTVSPropertyOp23
 70
     1
102
RTVSPropertyOp24
 70
     1
102
RTVSPropertyOp25
 70
     1
102
RTVSPropertyOp26
 70
     1
102
RTVSPropertyOp27
 70
     1
102
RTVSPropertyOp28
 70
     1
102
RTVSPropertyOp29
 70
     1
102
RTVSPropertyOp30
 70
     1
102
RTVSPropertyOp31
 70
     1
102
RTVSPropertyOp32
 70
     1
  0
XRECORD
  5
2C3
102
{ACAD_REACTORS
330
2C2
102
}
330
2C2
100
AcDbXrecord
280
     1
102
RTVSPropertyOp0
 70
     1
102
RTVSPropertyOp1
 70
     1
102
RTVSPropertyOp2
 70
     1
102
RTVSPropertyOp3
 70
     1
102
RTVSPropertyOp4
 70
     1
102
RTVSPropertyOp5
 70
     1
102
RTVSPropertyOp6
 70
     1
102
RTVSPropertyOp7
 70
     1
102
RTVSPropertyOp8
 70
     1
102
RTVSPropertyOp9
 70
     1
102
RTVSPropertyOp10
 70
     1
102
RTVSPropertyOp11
 70
     1
102
RTVSPropertyOp12
 70
     1
102
RTVSPropertyOp13
 70
     1
102
RTVSPropertyOp14
 70
     1
102
RTVSPropertyOp15
 70
     1
102
RTVSPropertyOp16
 70
     1
102
RTVSPropertyOp17
 70
     1
102
RTVSPropertyOp18
 70
     1
102
RTVSPropertyOp19
 70
     1
102
RTVSPropertyOp20
 70
     1
102
RTVSPropertyOp21
 70
     1
102
RTVSPropertyOp22
 70
     1
102
RTVSPropertyOp23
 70
     1
102
RTVSPropertyOp24
 70
     1
102
RTVSPropertyOp25
 70
     1
102
RTVSPropertyOp26
 70
     1
102
RTVSPropertyOp27
 70
     1
102
RTVSPropertyOp28
 70
     1
102
RTVSPropertyOp29
 70
     1
102
RTVSPropertyOp30
 70
     1
102
RTVSPropertyOp31
 70
     1
102
RTVSPropertyOp32
 70
     1
  0
XRECORD
  5
2C5
102
{ACAD_REACTORS
330
2C4
102
}
330
2C4
100
AcDbXrecord
280
     1
102
RTVSPropertyOp0
 70
     1
102
RTVSPropertyOp1
 70
     1
102
RTVSPropertyOp2
 70
     1
102
RTVSPropertyOp3
 70
     1
102
RTVSPropertyOp4
 70
     1
102
RTVSPropertyOp5
 70
     1
102
RTVSPropertyOp6
 70
     1
102
RTVSPropertyOp7
 70
     1
102
RTVSPropertyOp8
 70
     1
102
RTVSPropertyOp9
 70
     1
102
RTVSPropertyOp10
 70
     1
102
RTVSPropertyOp11
 70
     1
102
RTVSPropertyOp12
 70
     1
102
RTVSPropertyOp13
 70
     1
102
RTVSPropertyOp14
 70
     1
102
RTVSPropertyOp15
 70
     1
102
RTVSPropertyOp16
 70
     1
102
RTVSPropertyOp17
 70
     1
102
RTVSPropertyOp18
 70
     1
102
RTVSPropertyOp19
 70
     1
102
RTVSPropertyOp20
 70
     1
102
RTVSPropertyOp21
 70
     1
102
RTVSPropertyOp22
 70
     1
102
RTVSPropertyOp23
 70
     1
102
RTVSPropertyOp24
 70
     1
102
RTVSPropertyOp25
 70
     1
102
RTVSPropertyOp26
 70
     1
102
RTVSPropertyOp27
 70
     1
102
RTVSPropertyOp28
 70
     1
102
RTVSPropertyOp29
 70
     1
102
RTVSPropertyOp30
 70
     1
102
RTVSPropertyOp31
 70
     1
102
RTVSPropertyOp32
 70
     1
  0
XRECORD
  5
2CD
102
{ACAD_REACTORS
330
2CC
102
}
330
2CC
100
AcDbXrecord
280
     1
102
RTVSPropertyOp0
 70
     1
102
RTVSPropertyOp1
 70
     1
102
RTVSPropertyOp2
 70
     1
102
RTVSPropertyOp3
 70
     1
102
RTVSPropertyOp4
 70
     1
102
RTVSPropertyOp5
 70
     1
102
RTVSPropertyOp6
 70
     1
102
RTVSPropertyOp7
 70
     1
102
RTVSPropertyOp8
 70
     1
102
RTVSPropertyOp9
 70
     1
102
RTVSPropertyOp10
 70
     1
102
RTVSPropertyOp11
 70
     1
102
RTVSPropertyOp12
 70
     1
102
RTVSPropertyOp13
 70
     1
102
RTVSPropertyOp14
 70
     1
102
RTVSPropertyOp15
 70
     1
102
RTVSPropertyOp16
 70
     1
102
RTVSPropertyOp17
 70
     1
102
RTVSPropertyOp18
 70
     1
102
RTVSPropertyOp19
 70
     1
102
RTVSPropertyOp20
 70
     1
102
RTVSPropertyOp21
 70
     1
102
RTVSPropertyOp22
 70
     1
102
RTVSPropertyOp23
 70
     1
102
RTVSPropertyOp24
 70
     1
102
RTVSPropertyOp25
 70
     1
102
RTVSPropertyOp26
 70
     1
102
RTVSPropertyOp27
 70
     1
102
RTVSPropertyOp28
 70
     1
102
RTVSPropertyOp29
 70
     1
102
RTVSPropertyOp30
 70
     1
102
RTVSPropertyOp31
 70
     1
102
RTVSPropertyOp32
 70
     1
  0
XRECORD
  5
2B1
102
{ACAD_REACTORS
330
2B0
102
}
330
2B0
100
AcDbXrecord
280
     1
102
RTVSPropertyOp0
 70
     1
102
RTVSPropertyOp1
 70
     1
102
RTVSPropertyOp2
 70
     1
102
RTVSPropertyOp3
 70
     1
102
RTVSPropertyOp4
 70
     1
102
RTVSPropertyOp5
 70
     1
102
RTVSPropertyOp6
 70
     1
102
RTVSPropertyOp7
 70
     1
102
RTVSPropertyOp8
 70
     1
102
RTVSPropertyOp9
 70
     1
102
RTVSPropertyOp10
 70
     1
102
RTVSPropertyOp11
 70
     1
102
RTVSPropertyOp12
 70
     1
102
RTVSPropertyOp13
 70
     1
102
RTVSPropertyOp14
 70
     1
102
RTVSPropertyOp15
 70
     1
102
RTVSPropertyOp16
 70
     1
102
RTVSPropertyOp17
 70
     1
102
RTVSPropertyOp18
 70
     1
102
RTVSPropertyOp19
 70
     1
102
RTVSPropertyOp20
 70
     1
102
RTVSPropertyOp21
 70
     1
102
RTVSPropertyOp22
 70
     1
102
RTVSPropertyOp23
 70
     1
102
RTVSPropertyOp24
 70
     1
102
RTVSPropertyOp25
 70
     1
102
RTVSPropertyOp26
 70
     1
102
RTVSPropertyOp27
 70
     1
102
RTVSPropertyOp28
 70
     1
102
RTVSPropertyOp29
 70
     1
102
RTVSPropertyOp30
 70
     1
102
RTVSPropertyOp31
 70
     1
102
RTVSPropertyOp32
 70
     1
  0
XRECORD
  5
2B3
102
{ACAD_REACTORS
330
2B2
102
}
330
2B2
100
AcDbXrecord
280
     1
102
RTVSPropertyOp0
 70
     1
102
RTVSPropertyOp1
 70
     1
102
RTVSPropertyOp2
 70
     1
102
RTVSPropertyOp3
 70
     1
102
RTVSPropertyOp4
 70
     1
102
RTVSPropertyOp5
 70
     1
102
RTVSPropertyOp6
 70
     1
102
RTVSPropertyOp7
 70
     1
102
RTVSPropertyOp8
 70
     1
102
RTVSPropertyOp9
 70
     1
102
RTVSPropertyOp10
 70
     1
102
RTVSPropertyOp11
 70
     1
102
RTVSPropertyOp12
 70
     1
102
RTVSPropertyOp13
 70
     1
102
RTVSPropertyOp14
 70
     1
102
RTVSPropertyOp15
 70
     1
102
RTVSPropertyOp16
 70
     1
102
RTVSPropertyOp17
 70
     1
102
RTVSPropertyOp18
 70
     1
102
RTVSPropertyOp19
 70
     1
102
RTVSPropertyOp20
 70
     1
102
RTVSPropertyOp21
 70
     1
102
RTVSPropertyOp22
 70
     1
102
RTVSPropertyOp23
 70
     1
102
RTVSPropertyOp24
 70
     1
102
RTVSPropertyOp25
 70
     1
102
RTVSPropertyOp26
 70
     1
102
RTVSPropertyOp27
 70
     1
102
RTVSPropertyOp28
 70
     1
102
RTVSPropertyOp29
 70
     1
102
RTVSPropertyOp30
 70
     1
102
RTVSPropertyOp31
 70
     1
102
RTVSPropertyOp32
 70
     1
  0
XRECORD
  5
2B5
102
{ACAD_REACTORS
330
2B4
102
}
330
2B4
100
AcDbXrecord
280
     1
102
RTVSPropertyOp0
 70
     1
102
RTVSPropertyOp1
 70
     1
102
RTVSPropertyOp2
 70
     1
102
RTVSPropertyOp3
 70
     1
102
RTVSPropertyOp4
 70
     1
102
RTVSPropertyOp5
 70
     1
102
RTVSPropertyOp6
 70
     1
102
RTVSPropertyOp7
 70
     1
102
RTVSPropertyOp8
 70
     1
102
RTVSPropertyOp9
 70
     1
102
RTVSPropertyOp10
 70
     1
102
RTVSPropertyOp11
 70
     1
102
RTVSPropertyOp12
 70
     1
102
RTVSPropertyOp13
 70
     1
102
RTVSPropertyOp14
 70
     1
102
RTVSPropertyOp15
 70
     1
102
RTVSPropertyOp16
 70
     1
102
RTVSPropertyOp17
 70
     1
102
RTVSPropertyOp18
 70
     1
102
RTVSPropertyOp19
 70
     1
102
RTVSPropertyOp20
 70
     1
102
RTVSPropertyOp21
 70
     1
102
RTVSPropertyOp22
 70
     1
102
RTVSPropertyOp23
 70
     1
102
RTVSPropertyOp24
 70
     1
102
RTVSPropertyOp25
 70
     1
102
RTVSPropertyOp26
 70
     1
102
RTVSPropertyOp27
 70
     1
102
RTVSPropertyOp28
 70
     1
102
RTVSPropertyOp29
 70
     1
102
RTVSPropertyOp30
 70
     1
102
RTVSPropertyOp31
 70
     1
102
RTVSPropertyOp32
 70
     1
  0
XRECORD
  5
2B7
102
{ACAD_REACTORS
330
2B6
102
}
330
2B6
100
AcDbXrecord
280
     1
102
RTVSPropertyOp0
 70
     1
102
RTVSPropertyOp1
 70
     1
102
RTVSPropertyOp2
 70
     1
102
RTVSPropertyOp3
 70
     1
102
RTVSPropertyOp4
 70
     1
102
RTVSPropertyOp5
 70
     1
102
RTVSPropertyOp6
 70
     1
102
RTVSPropertyOp7
 70
     1
102
RTVSPropertyOp8
 70
     1
102
RTVSPropertyOp9
 70
     1
102
RTVSPropertyOp10
 70
     1
102
RTVSPropertyOp11
 70
     1
102
RTVSPropertyOp12
 70
     1
102
RTVSPropertyOp13
 70
     1
102
RTVSPropertyOp14
 70
     1
102
RTVSPropertyOp15
 70
     1
102
RTVSPropertyOp16
 70
     1
102
RTVSPropertyOp17
 70
     1
102
RTVSPropertyOp18
 70
     1
102
RTVSPropertyOp19
 70
     1
102
RTVSPropertyOp20
 70
     1
102
RTVSPropertyOp21
 70
     1
102
RTVSPropertyOp22
 70
     1
102
RTVSPropertyOp23
 70
     1
102
RTVSPropertyOp24
 70
     1
102
RTVSPropertyOp25
 70
     1
102
RTVSPropertyOp26
 70
     1
102
RTVSPropertyOp27
 70
     1
102
RTVSPropertyOp28
 70
     1
102
RTVSPropertyOp29
 70
     1
102
RTVSPropertyOp30
 70
     1
102
RTVSPropertyOp31
 70
     1
102
RTVSPropertyOp32
 70
     1
  0
XRECORD
  5
2CB
102
{ACAD_REACTORS
330
2CA
102
}
330
2CA
100
AcDbXrecord
280
     1
102
RTVSPropertyOp0
 70
     1
102
RTVSPropertyOp1
 70
     1
102
RTVSPropertyOp2
 70
     1
102
RTVSPropertyOp3
 70
     1
102
RTVSPropertyOp4
 70
     1
102
RTVSPropertyOp5
 70
     1
102
RTVSPropertyOp6
 70
     1
102
RTVSPropertyOp7
 70
     1
102
RTVSPropertyOp8
 70
     1
102
RTVSPropertyOp9
 70
     1
102
RTVSPropertyOp10
 70
     1
102
RTVSPropertyOp11
 70
     1
102
RTVSPropertyOp12
 70
     1
102
RTVSPropertyOp13
 70
     1
102
RTVSPropertyOp14
 70
     1
102
RTVSPropertyOp15
 70
     1
102
RTVSPropertyOp16
 70
     1
102
RTVSPropertyOp17
 70
     1
102
RTVSPropertyOp18
 70
     1
102
RTVSPropertyOp19
 70
     1
102
RTVSPropertyOp20
 70
     1
102
RTVSPropertyOp21
 70
     1
102
RTVSPropertyOp22
 70
     1
102
RTVSPropertyOp23
 70
     1
102
RTVSPropertyOp24
 70
     1
102
RTVSPropertyOp25
 70
     1
102
RTVSPropertyOp26
 70
     1
102
RTVSPropertyOp27
 70
     1
102
RTVSPropertyOp28
 70
     1
102
RTVSPropertyOp29
 70
     1
102
RTVSPropertyOp30
 70
     1
102
RTVSPropertyOp31
 70
     1
102
RTVSPropertyOp32
 70
     1
  0
XRECORD
  5
2C1
102
{ACAD_REACTORS
330
2C0
102
}
330
2C0
100
AcDbXrecord
280
     1
102
RTVSPropertyOp0
 70
     1
102
RTVSPropertyOp1
 70
     1
102
RTVSPropertyOp2
 70
     1
102
RTVSPropertyOp3
 70
     1
102
RTVSPropertyOp4
 70
     1
102
RTVSPropertyOp5
 70
     1
102
RTVSPropertyOp6
 70
     1
102
RTVSPropertyOp7
 70
     1
102
RTVSPropertyOp8
 70
     1
102
RTVSPropertyOp9
 70
     1
102
RTVSPropertyOp10
 70
     1
102
RTVSPropertyOp11
 70
     1
102
RTVSPropertyOp12
 70
     1
102
RTVSPropertyOp13
 70
     1
102
RTVSPropertyOp14
 70
     1
102
RTVSPropertyOp15
 70
     1
102
RTVSPropertyOp16
 70
     1
102
RTVSPropertyOp17
 70
     1
102
RTVSPropertyOp18
 70
     1
102
RTVSPropertyOp19
 70
     1
102
RTVSPropertyOp20
 70
     1
102
RTVSPropertyOp21
 70
     1
102
RTVSPropertyOp22
 70
     1
102
RTVSPropertyOp23
 70
     1
102
RTVSPropertyOp24
 70
     1
102
RTVSPropertyOp25
 70
     1
102
RTVSPropertyOp26
 70
     1
102
RTVSPropertyOp27
 70
     1
102
RTVSPropertyOp28
 70
     1
102
RTVSPropertyOp29
 70
     1
102
RTVSPropertyOp30
 70
     1
102
RTVSPropertyOp31
 70
     1
102
RTVSPropertyOp32
 70
     1
  0
XRECORD
  5
2C9
102
{ACAD_REACTORS
330
2C8
102
}
330
2C8
100
AcDbXrecord
280
     1
102
RTVSPropertyOp0
 70
     1
102
RTVSPropertyOp1
 70
     1
102
RTVSPropertyOp2
 70
     1
102
RTVSPropertyOp3
 70
     1
102
RTVSPropertyOp4
 70
     1
102
RTVSPropertyOp5
 70
     1
102
RTVSPropertyOp6
 70
     1
102
RTVSPropertyOp7
 70
     1
102
RTVSPropertyOp8
 70
     1
102
RTVSPropertyOp9
 70
     1
102
RTVSPropertyOp10
 70
     1
102
RTVSPropertyOp11
 70
     1
102
RTVSPropertyOp12
 70
     1
102
RTVSPropertyOp13
 70
     1
102
RTVSPropertyOp14
 70
     1
102
RTVSPropertyOp15
 70
     1
102
RTVSPropertyOp16
 70
     1
102
RTVSPropertyOp17
 70
     1
102
RTVSPropertyOp18
 70
     1
102
RTVSPropertyOp19
 70
     1
102
RTVSPropertyOp20
 70
     1
102
RTVSPropertyOp21
 70
     1
102
RTVSPropertyOp22
 70
     1
102
RTVSPropertyOp23
 70
     1
102
RTVSPropertyOp24
 70
     1
102
RTVSPropertyOp25
 70
     1
102
RTVSPropertyOp26
 70
     1
102
RTVSPropertyOp27
 70
     1
102
RTVSPropertyOp28
 70
     1
102
RTVSPropertyOp29
 70
     1
102
RTVSPropertyOp30
 70
     1
102
RTVSPropertyOp31
 70
     1
102
RTVSPropertyOp32
 70
     1
  0
ENDSEC
  0
EOF
