  0
SECTION
  2
HEADER
  9
$ACADVER
  1
AC1015
  9
$ACADMAINTVER
 70
     6
  9
$DWGCODEPAGE
  3
ANSI_1252
  9
$INSBASE
 10
0.0
 20
0.0
 30
0.0
  9
$EXTMIN
 10
-453.7192328949631
 20
-423.4972471483895
 30
0.0
  9
$EXTMAX
 10
59.94004595892841
 20
176.3946744776434
 30
0.0
  9
$LIMMIN
 10
0.0
 20
0.0
  9
$LIMMAX
 10
12.0
 20
9.0
  9
$ORTHOMODE
 70
     0
  9
$REGENMODE
 70
     1
  9
$FILLMODE
 70
     1
  9
$QTEXTMODE
 70
     0
  9
$MIRRTEXT
 70
     1
  9
$LTSCALE
 40
1.0
  9
$ATTMODE
 70
     1
  9
$TEXTSIZE
 40
0.2
  9
$TRACEWID
 40
0.05
  9
$TEXTSTYLE
  7
Standard
  9
$CLAYER
  8
0
  9
$CELTYPE
  6
ByLayer
  9
$CECOLOR
 62
   256
  9
$CELTSCALE
 40
1.0
  9
$DISPSILH
 70
     0
  9
$DIMSCALE
 40
1.0
  9
$DIMASZ
 40
0.18
  9
$DIMEXO
 40
0.0625
  9
$DIMDLI
 40
0.38
  9
$DIMRND
 40
0.0
  9
$DIMDLE
 40
0.0
  9
$DIMEXE
 40
0.18
  9
$DIMTP
 40
0.0
  9
$DIMTM
 40
0.0
  9
$DIMTXT
 40
0.18
  9
$DIMCEN
 40
0.09
  9
$DIMTSZ
 40
0.0
  9
$DIMTOL
 70
     0
  9
$DIMLIM
 70
     0
  9
$DIMTIH
 70
     1
  9
$DIMTOH
 70
     1
  9
$DIMSE1
 70
     0
  9
$DIMSE2
 70
     0
  9
$DIMTAD
 70
     0
  9
$DIMZIN
 70
     0
  9
$DIMBLK
  1

  9
$DIMASO
 70
     1
  9
$DIMSHO
 70
     1
  9
$DIMPOST
  1

  9
$DIMAPOST
  1

  9
$DIMALT
 70
     0
  9
$DIMALTD
 70
     2
  9
$DIMALTF
 40
25.4
  9
$DIMLFAC
 40
1.0
  9
$DIMTOFL
 70
     0
  9
$DIMTVP
 40
0.0
  9
$DIMTIX
 70
     0
  9
$DIMSOXD
 70
     0
  9
$DIMSAH
 70
     0
  9
$DIMBLK1
  1

  9
$DIMBLK2
  1

  9
$DIMSTYLE
  2
Standard
  9
$DIMCLRD
 70
     0
  9
$DIMCLRE
 70
     0
  9
$DIMCLRT
 70
     0
  9
$DIMTFAC
 40
1.0
  9
$DIMGAP
 40
0.09
  9
$DIMJUST
 70
     0
  9
$DIMSD1
 70
     0
  9
$DIMSD2
 70
     0
  9
$DIMTOLJ
 70
     1
  9
$DIMTZIN
 70
     0
  9
$DIMALTZ
 70
     0
  9
$DIMALTTZ
 70
     0
  9
$DIMUPT
 70
     0
  9
$DIMDEC
 70
     4
  9
$DIMTDEC
 70
     4
  9
$DIMALTU
 70
     2
  9
$DIMALTTD
 70
     2
  9
$DIMTXSTY
  7
Standard
  9
$DIMAUNIT
 70
     0
  9
$DIMADEC
 70
     0
  9
$DIMALTRND
 40
0.0
  9
$DIMAZIN
 70
     0
  9
$DIMDSEP
 70
    46
  9
$DIMATFIT
 70
     3
  9
$DIMFRAC
 70
     0
  9
$DIMLDRBLK
  1

  9
$DIMLUNIT
 70
     2
  9
$DIMLWD
 70
    -2
  9
$DIMLWE
 70
    -2
  9
$DIMTMOVE
 70
     0
  9
$LUNITS
 70
     2
  9
$LUPREC
 70
     4
  9
$SKETCHINC
 40
0.1
  9
$FILLETRAD
 40
0.5
  9
$AUNITS
 70
     0
  9
$AUPREC
 70
     0
  9
$MENU
  1
.
  9
$ELEVATION
 40
0.0
  9
$PELEVATION
 40
0.0
  9
$THICKNESS
 40
0.0
  9
$LIMCHECK
 70
     0
  9
$CHAMFERA
 40
0.5
  9
$CHAMFERB
 40
0.5
  9
$CHAMFERC
 40
1.0
  9
$CHAMFERD
 40
0.0
  9
$SKPOLY
 70
     0
  9
$TDCREATE
 40
2456966.61776162
  9
$TDUCREATE
 40
2456966.576094954
  9
$TDUPDATE
 40
2456966.617761979
  9
$TDUUPDATE
 40
2456966.576095312
  9
$TDINDWG
 40
0.0000000116
  9
$TDUSRTIMER
 40
0.0000000116
  9
$USRTIMER
 70
     1
  9
$ANGBASE
 50
0.0
  9
$ANGDIR
 70
     0
  9
$PDMODE
 70
     0
  9
$PDSIZE
 40
0.0
  9
$PLINEWID
 40
0.0
  9
$SPLFRAME
 70
     0
  9
$SPLINETYPE
 70
     6
  9
$SPLINESEGS
 70
     8
  9
$HANDSEED
  5
3A6
  9
$SURFTAB1
 70
     6
  9
$SURFTAB2
 70
     6
  9
$SURFTYPE
 70
     6
  9
$SURFU
 70
     6
  9
$SURFV
 70
     6
  9
$UCSBASE
  2

  9
$UCSNAME
  2

  9
$UCSORG
 10
0.0
 20
0.0
 30
0.0
  9
$UCSXDIR
 10
1.0
 20
0.0
 30
0.0
  9
$UCSYDIR
 10
0.0
 20
1.0
 30
0.0
  9
$UCSORTHOREF
  2

  9
$UCSORTHOVIEW
 70
     0
  9
$UCSORGTOP
 10
0.0
 20
0.0
 30
0.0
  9
$UCSORGBOTTOM
 10
0.0
 20
0.0
 30
0.0
  9
$UCSORGLEFT
 10
0.0
 20
0.0
 30
0.0
  9
$UCSORGRIGHT
 10
0.0
 20
0.0
 30
0.0
  9
$UCSORGFRONT
 10
0.0
 20
0.0
 30
0.0
  9
$UCSORGBACK
 10
0.0
 20
0.0
 30
0.0
  9
$PUCSBASE
  2

  9
$PUCSNAME
  2

  9
$PUCSORG
 10
0.0
 20
0.0
 30
0.0
  9
$PUCSXDIR
 10
1.0
 20
0.0
 30
0.0
  9
$PUCSYDIR
 10
0.0
 20
1.0
 30
0.0
  9
$PUCSORTHOREF
  2

  9
$PUCSORTHOVIEW
 70
     0
  9
$PUCSORGTOP
 10
0.0
 20
0.0
 30
0.0
  9
$PUCSORGBOTTOM
 10
0.0
 20
0.0
 30
0.0
  9
$PUCSORGLEFT
 10
0.0
 20
0.0
 30
0.0
  9
$PUCSORGRIGHT
 10
0.0
 20
0.0
 30
0.0
  9
$PUCSORGFRONT
 10
0.0
 20
0.0
 30
0.0
  9
$PUCSORGBACK
 10
0.0
 20
0.0
 30
0.0
  9
$USERI1
 70
     0
  9
$USERI2
 70
     0
  9
$USERI3
 70
     0
  9
$USERI4
 70
     0
  9
$USERI5
 70
     0
  9
$USERR1
 40
18.1
  9
$USERR2
 40
0.0
  9
$USERR3
 40
0.0
  9
$USERR4
 40
0.0
  9
$USERR5
 40
0.0
  9
$WORLDVIEW
 70
     1
  9
$SHADEDGE
 70
     3
  9
$SHADEDIF
 70
    70
  9
$TILEMODE
 70
     1
  9
$MAXACTVP
 70
    64
  9
$PINSBASE
 10
0.0
 20
0.0
 30
0.0
  9
$PLIMCHECK
 70
     0
  9
$PEXTMIN
 10
1.00000000000000E+20
 20
1.00000000000000E+20
 30
1.00000000000000E+20
  9
$PEXTMAX
 10
-1.00000000000000E+20
 20
-1.00000000000000E+20
 30
-1.00000000000000E+20
  9
$PLIMMIN
 10
0.0
 20
0.0
  9
$PLIMMAX
 10
12.0
 20
9.0
  9
$UNITMODE
 70
     0
  9
$VISRETAIN
 70
     1
  9
$PLINEGEN
 70
     0
  9
$PSLTSCALE
 70
     1
  9
$TREEDEPTH
 70
  3020
  9
$CMLSTYLE
  2
Standard
  9
$CMLJUST
 70
     0
  9
$CMLSCALE
 40
1.0
  9
$PROXYGRAPHICS
 70
     1
  9
$MEASUREMENT
 70
     1
  9
$CELWEIGHT
370
    -1
  9
$ENDCAPS
280
     0
  9
$JOINSTYLE
280
     0
  9
$LWDISPLAY
290
     0
  9
$INSUNITS
 70
     1
  9
$HYPERLINKBASE
  1

  9
$STYLESHEET
  1

  9
$XEDIT
290
     1
  9
$CEPSNTYPE
380
     0
  9
$PSTYLEMODE
290
     1
  9
$FINGERPRINTGUID
  2
{82A16E35-9606-4BA8-A80D-3276D7BD5BBE}
  9
$VERSIONGUID
  2
{FAEB1C32-E019-11D5-929B-00C0DF256EC4}
  9
$EXTNAMES
290
     1
  9
$PSVPSCALE
 40
0.0
  9
$OLESTARTUP
290
     0
  0
ENDSEC
  0
SECTION
  2
CLASSES
  0
CLASS
  1
ACDBDICTIONARYWDFLT
  2
AcDbDictionaryWithDefault
  3
ObjectDBX Classes
 90
        0
280
     0
281
     0
  0
CLASS
  1
VISUALSTYLE
  2
AcDbVisualStyle
  3
ObjectDBX Classes
 90
     4095
280
     0
281
     0
  0
CLASS
  1
MATERIAL
  2
AcDbMaterial
  3
ObjectDBX Classes
 90
     1153
280
     0
281
     0
  0
CLASS
  1
DICTIONARYVAR
  2
AcDbDictionaryVar
  3
ObjectDBX Classes
 90
        0
280
     0
281
     0
  0
CLASS
  1
ACDBPLACEHOLDER
  2
AcDbPlaceHolder
  3
ObjectDBX Classes
 90
        0
280
     0
281
     0
  0
CLASS
  1
LAYOUT
  2
AcDbLayout
  3
ObjectDBX Classes
 90
        0
280
     0
281
     0
  0
ENDSEC
  0
SECTION
  2
TABLES
  0
TABLE
  2
VPORT
  5
8
330
0
100
AcDbSymbolTable
 70
     1
  0
VPORT
  5
29
330
8
100
AcDbSymbolTableRecord
100
AcDbViewportTableRecord
  2
*Active
 70
     0
 10
0.0
 20
0.0
 11
1.0
 21
1.0
 12
-196.8895934680174
 22
-123.551286335373
 13
0.0
 23
0.0
 14
0.5
 24
0.5
 15
0.5
 25
0.5
 16
0.0
 26
0.0
 36
1.0
 17
0.0
 27
0.0
 37
0.0
 40
659.8811137886362
 41
1.60267857142857
 42
50.0
 43
0.0
 44
0.0
 50
0.0
 51
0.0
 71
     0
 72
   100
 73
     1
 74
     3
 75
     0
 76
     0
 77
     0
 78
     0
281
     0
 65
     1
110
0.0
120
0.0
130
0.0
111
1.0
121
0.0
131
0.0
112
0.0
122
1.0
132
0.0
 79
     0
146
0.0
  0
ENDTAB
  0
TABLE
  2
LTYPE
  5
5
330
0
100
AcDbSymbolTable
 70
     8
  0
LTYPE
  5
14
330
5
100
AcDbSymbolTableRecord
100
AcDbLinetypeTableRecord
  2
ByBlock
 70
     0
  3

 72
    65
 73
     0
 40
0.0
  0
LTYPE
  5
15
330
5
100
AcDbSymbolTableRecord
100
AcDbLinetypeTableRecord
  2
ByLayer
 70
     0
  3

 72
    65
 73
     0
 40
0.0
  0
LTYPE
  5
16
330
5
100
AcDbSymbolTableRecord
100
AcDbLinetypeTableRecord
  2
Continuous
 70
     0
  3
Solid line
 72
    65
 73
     0
 40
0.0
  0
LTYPE
  5
3F
330
5
100
AcDbSymbolTableRecord
100
AcDbLinetypeTableRecord
  2
DASHED
 70
     0
  3
Dashed
 72
    65
 73
     2
 40
15.0
 49
7.0
 74
     0
 49
-8.0
 74
     0
  0
LTYPE
  5
40
330
5
100
AcDbSymbolTableRecord
100
AcDbLinetypeTableRecord
  2
DOTTED
 70
     0
  3
Dotted
 72
    65
 73
     2
 40
1.0
 49
0.0
 74
     0
 49
-1.0
 74
     0
  0
LTYPE
  5
41
330
5
100
AcDbSymbolTableRecord
100
AcDbLinetypeTableRecord
  2
DOT_CENTER
 70
     0
  3
Dot_Center
 72
    65
 73
     4
 40
14.0
 49
12.0
 74
     0
 49
-1.0
 74
     0
 49
0.0
 74
     0
 49
-1.0
 74
     0
  0
LTYPE
  5
42
330
5
100
AcDbSymbolTableRecord
100
AcDbLinetypeTableRecord
  2
LONG_DASHED
 70
     0
  3
Long_Dashed
 72
    65
 73
     2
 40
15.0
 49
10.0
 74
     0
 49
-5.0
 74
     0
  0
LTYPE
  5
43
330
5
100
AcDbSymbolTableRecord
100
AcDbLinetypeTableRecord
  2
DASH_CENTER
 70
     0
  3
Dash_Center
 72
    65
 73
     4
 40
14.0
 49
11.0
 74
     0
 49
-1.0
 74
     0
 49
1.0
 74
     0
 49
-1.0
 74
     0
  0
LTYPE
  5
44
330
5
100
AcDbSymbolTableRecord
100
AcDbLinetypeTableRecord
  2
PHANTOM
 70
     0
  3
Phantom
 72
    65
 73
     6
 40
13.0
 49
10.0
 74
     0
 49
-1.0
 74
     0
 49
0.0
 74
     0
 49
-1.0
 74
     0
 49
0.0
 74
     0
 49
-1.0
 74
     0
  0
LTYPE
  5
45
330
5
100
AcDbSymbolTableRecord
100
AcDbLinetypeTableRecord
  2
CENTER_DASH_DASH
 70
     0
  3
Center_Dash_Dash
 72
    65
 73
     6
 40
14.0
 49
9.0
 74
     0
 49
-1.0
 74
     0
 49
1.0
 74
     0
 49
-1.0
 74
     0
 49
1.0
 74
     0
 49
-1.0
 74
     0
  0
ENDTAB
  0
TABLE
  2
LAYER
  5
2
330
0
100
AcDbSymbolTable
 70
     2
  0
LAYER
  5
10
330
2
100
AcDbSymbolTableRecord
100
AcDbLayerTableRecord
  2
0
 70
     0
 62
     7
  6
Continuous
370
    -3
390
F
  0
LAYER
  5
46
330
2
100
AcDbSymbolTableRecord
100
AcDbLayerTableRecord
  2
1
 70
     0
 62
     7
  6
Continuous
370
    -3
390
F
  0
ENDTAB
  0
TABLE
  2
STYLE
  5
3
330
0
100
AcDbSymbolTable
 70
     2
  0
STYLE
  5
11
330
3
100
AcDbSymbolTableRecord
100
AcDbTextStyleTableRecord
  2
Standard
 70
     0
 40
0.0
 41
1.0
 50
0.0
 71
     0
 42
0.2
  3
txt
  4

  0
STYLE
  5
188
330
3
100
AcDbSymbolTableRecord
100
AcDbTextStyleTableRecord
  2
CONVERTER_11
 70
     0
 40
0.0
 41
0.9
 50
0.0
 71
     0
 42
0.2
  3
txt.shx
  4

  0
ENDTAB
  0
TABLE
  2
VIEW
  5
6
330
0
100
AcDbSymbolTable
 70
     0
  0
ENDTAB
  0
TABLE
  2
UCS
  5
7
330
0
100
AcDbSymbolTable
 70
     0
  0
ENDTAB
  0
TABLE
  2
APPID
  5
9
330
0
100
AcDbSymbolTable
 70
     1
  0
APPID
  5
12
330
9
100
AcDbSymbolTableRecord
100
AcDbRegAppTableRecord
  2
ACAD
 70
     0
  0
ENDTAB
  0
TABLE
  2
DIMSTYLE
  5
A
330
0
100
AcDbSymbolTable
 70
    10
100
AcDbDimStyleTable
  0
DIMSTYLE
105
27
330
A
100
AcDbSymbolTableRecord
100
AcDbDimStyleTableRecord
  2
Standard
 70
     0
178
     0
340
11
  0
DIMSTYLE
105
18C
102
{ACAD_REACTORS
330
18D
102
}
330
A
100
AcDbSymbolTableRecord
100
AcDbDimStyleTableRecord
  2
ME10_DIM_10
 70
     0
  3
R<>
 41
10.0
 42
0.0
 44
2.0
 73
     0
 74
     0
 77
     1
 78
     8
140
10.0
147
2.0
172
     1
173
     1
174
     1
175
     1
176
     4
177
     4
271
     2
178
     1
271
     2
340
188
  0
DIMSTYLE
105
197
102
{ACAD_REACTORS
330
198
102
}
330
A
100
AcDbSymbolTableRecord
100
AcDbDimStyleTableRecord
  2
ME10_DIM_11
 70
     0
  3
95-<>
 41
10.0
 42
0.0
 44
2.0
 73
     0
 74
     0
 77
     1
 78
     8
140
10.0
147
2.0
172
     1
173
     1
174
     1
175
     1
176
     4
177
     4
271
     2
178
     1
271
     2
340
188
  0
DIMSTYLE
105
1A3
102
{ACAD_REACTORS
330
1A4
102
}
330
A
100
AcDbSymbolTableRecord
100
AcDbDimStyleTableRecord
  2
ME10_DIM_12
 70
     0
  3
DN<>
 41
10.0
 42
0.0
 44
2.0
 73
     0
 74
     0
 77
     1
 78
     8
140
10.0
147
2.0
172
     1
173
     1
174
     1
175
     1
176
     4
177
     4
271
     2
178
     1
271
     2
340
188
  0
DIMSTYLE
105
1AE
102
{ACAD_REACTORS
330
1AF
102
}
330
A
100
AcDbSymbolTableRecord
100
AcDbDimStyleTableRecord
  2
ME10_DIM_13
 70
     0
 41
10.0
 42
0.0
 44
2.0
 73
     0
 74
     0
 77
     1
 78
     8
140
10.0
147
2.0
172
     1
173
     1
174
     1
175
     1
176
     4
177
     4
271
     0
178
     1
271
     0
340
188
  0
DIMSTYLE
105
1B9
102
{ACAD_REACTORS
330
1BA
102
}
330
A
100
AcDbSymbolTableRecord
100
AcDbDimStyleTableRecord
  2
ME10_DIM_14
 70
     0
 41
10.0
 42
0.0
 44
2.0
 73
     0
 74
     0
 77
     1
 78
     8
140
10.0
147
2.0
172
     1
173
     1
174
     1
175
     1
176
     4
177
     4
271
     2
178
     1
271
     2
340
188
  0
DIMSTYLE
105
1C4
102
{ACAD_REACTORS
330
1C5
102
}
330
A
100
AcDbSymbolTableRecord
100
AcDbDimStyleTableRecord
  2
ME10_DIM_15
 70
     0
  3
120-<>
 41
10.0
 42
0.0
 44
2.0
 73
     0
 74
     0
 77
     1
 78
     8
140
10.0
147
2.0
172
     1
173
     1
174
     1
175
     1
176
     4
177
     4
271
     2
178
     1
271
     2
340
188
  0
DIMSTYLE
105
1CF
102
{ACAD_REACTORS
330
1D0
102
}
330
A
100
AcDbSymbolTableRecord
100
AcDbDimStyleTableRecord
  2
ME10_DIM_16
 70
     0
 41
10.0
 42
0.0
 44
2.0
 73
     0
 74
     0
 77
     1
 78
     8
140
10.0
147
2.0
172
     1
173
     1
174
     1
175
     1
176
     4
177
     4
271
     2
178
     1
271
     2
340
188
  0
DIMSTYLE
105
1DC
102
{ACAD_REACTORS
330
1DD
102
}
330
A
100
AcDbSymbolTableRecord
100
AcDbDimStyleTableRecord
  2
ME10_DIM_17
 70
     0
 41
10.0
 42
0.0
 44
2.0
 73
     0
 74
     0
 77
     1
 78
     8
140
10.0
147
2.0
172
     1
173
     1
174
     1
175
     1
176
     4
177
     4
271
     2
178
     1
271
     2
340
188
  0
DIMSTYLE
105
1E7
102
{ACAD_REACTORS
330
1E8
102
}
330
A
100
AcDbSymbolTableRecord
100
AcDbDimStyleTableRecord
  2
ME10_DIM_18
 70
     0
 41
10.0
 42
0.0
 44
2.0
 73
     0
 74
     0
 77
     1
 78
     8
140
10.0
147
2.0
172
     1
173
     1
174
     1
175
     1
176
     4
177
     4
271
     2
178
     1
271
     2
340
188
  0
ENDTAB
  0
TABLE
  2
BLOCK_RECORD
  5
1
330
0
100
AcDbSymbolTable
 70
    28
  0
BLOCK_RECORD
  5
1F
330
1
100
AcDbSymbolTableRecord
100
AcDbBlockTableRecord
  2
*Model_Space
340
22
  0
BLOCK_RECORD
  5
1B
330
1
100
AcDbSymbolTableRecord
100
AcDbBlockTableRecord
  2
*Paper_Space
340
1E
  0
BLOCK_RECORD
  5
23
330
1
100
AcDbSymbolTableRecord
100
AcDbBlockTableRecord
  2
*Paper_Space0
340
26
  0
BLOCK_RECORD
  5
47
330
1
100
AcDbSymbolTableRecord
100
AcDbBlockTableRecord
  2
HL19_ABS_10003_ABS
340
0
102
{BLKREFS
331
4B
102
}
  0
BLOCK_RECORD
  5
4A
330
1
100
AcDbSymbolTableRecord
100
AcDbBlockTableRecord
  2
HL19
340
0
102
{BLKREFS
331
62
102
}
  0
BLOCK_RECORD
  5
4E
330
1
100
AcDbSymbolTableRecord
100
AcDbBlockTableRecord
  2
HL_100_Krümmer
340
0
102
{BLKREFS
331
63
102
}
  0
BLOCK_RECORD
  5
51
330
1
100
AcDbSymbolTableRecord
100
AcDbBlockTableRecord
  2
Knie_DN40_6_4_kurz_025U_2E
340
0
102
{BLKREFS
331
55
102
}
  0
BLOCK_RECORD
  5
54
330
1
100
AcDbSymbolTableRecord
100
AcDbBlockTableRecord
  2
HL_126_2
340
0
102
{BLKREFS
331
64
102
}
  0
BLOCK_RECORD
  5
58
330
1
100
AcDbSymbolTableRecord
100
AcDbBlockTableRecord
  2
Pfeife_DN40_6_4_abgesetzt
340
0
102
{BLKREFS
331
65
102
}
  0
BLOCK_RECORD
  5
5B
330
1
100
AcDbSymbolTableRecord
100
AcDbBlockTableRecord
  2
Holländermutter_6_4__1
340
0
102
{BLKREFS
331
66
102
}
  0
BLOCK_RECORD
  5
5E
330
1
100
AcDbSymbolTableRecord
100
AcDbBlockTableRecord
  2
HL_100_Abgangsbogen_DN50
340
0
102
{BLKREFS
331
67
102
}
  0
BLOCK_RECORD
  5
61
330
1
100
AcDbSymbolTableRecord
100
AcDbBlockTableRecord
  2
HL_126_50_Spültischsifon
340
0
102
{BLKREFS
331
86
102
}
  0
BLOCK_RECORD
  5
6A
330
1
100
AcDbSymbolTableRecord
100
AcDbBlockTableRecord
  2
Holländermutter_6_4__2
340
0
102
{BLKREFS
331
87
102
}
  0
BLOCK_RECORD
  5
6D
330
1
100
AcDbSymbolTableRecord
100
AcDbBlockTableRecord
  2
Holländermutter_2_
340
0
102
{BLKREFS
331
88
102
}
  0
BLOCK_RECORD
  5
70
330
1
100
AcDbSymbolTableRecord
100
AcDbBlockTableRecord
  2
Holländermutter_6_4__3
340
0
102
{BLKREFS
331
74
102
}
  0
BLOCK_RECORD
  5
73
330
1
100
AcDbSymbolTableRecord
100
AcDbBlockTableRecord
  2
Bgr_Ersatzteil
340
0
102
{BLKREFS
331
89
102
}
  0
BLOCK_RECORD
  5
77
330
1
100
AcDbSymbolTableRecord
100
AcDbBlockTableRecord
  2
HL_13_Tauchrohr_Artikel
340
0
102
{BLKREFS
331
8A
102
}
  0
BLOCK_RECORD
  5
7A
330
1
100
AcDbSymbolTableRecord
100
AcDbBlockTableRecord
  2
Holländermutter_6_4__4
340
0
102
{BLKREFS
331
8B
102
}
  0
BLOCK_RECORD
  5
7D
330
1
100
AcDbSymbolTableRecord
100
AcDbBlockTableRecord
  2
Holländermutter_1
340
0
102
{BLKREFS
331
8C
102
}
  0
BLOCK_RECORD
  5
80
330
1
100
AcDbSymbolTableRecord
100
AcDbBlockTableRecord
  2
Dichtstopfen
340
0
102
{BLKREFS
331
8D
102
}
  0
BLOCK_RECORD
  5
83
330
1
100
AcDbSymbolTableRecord
100
AcDbBlockTableRecord
  2
Rckans1
340
0
102
{BLKREFS
331
8E
102
}
  0
BLOCK_RECORD
  5
181
330
1
100
AcDbSymbolTableRecord
100
AcDbBlockTableRecord
  2
*D19
340
0
  0
BLOCK_RECORD
  5
18E
330
1
100
AcDbSymbolTableRecord
100
AcDbBlockTableRecord
  2
*D20
340
0
  0
BLOCK_RECORD
  5
199
330
1
100
AcDbSymbolTableRecord
100
AcDbBlockTableRecord
  2
*D21
340
0
  0
BLOCK_RECORD
  5
1A5
330
1
100
AcDbSymbolTableRecord
100
AcDbBlockTableRecord
  2
*D22
340
0
  0
BLOCK_RECORD
  5
1B0
330
1
100
AcDbSymbolTableRecord
100
AcDbBlockTableRecord
  2
*D23
340
0
  0
BLOCK_RECORD
  5
1BB
330
1
100
AcDbSymbolTableRecord
100
AcDbBlockTableRecord
  2
*D24
340
0
  0
BLOCK_RECORD
  5
1C6
330
1
100
AcDbSymbolTableRecord
100
AcDbBlockTableRecord
  2
*D25
340
0
  0
BLOCK_RECORD
  5
1D1
330
1
100
AcDbSymbolTableRecord
100
AcDbBlockTableRecord
  2
*D26
340
0
  0
BLOCK_RECORD
  5
1DE
330
1
100
AcDbSymbolTableRecord
100
AcDbBlockTableRecord
  2
*D27
340
0
  0
ENDTAB
  0
ENDSEC
  0
SECTION
  2
BLOCKS
  0
BLOCK
  5
20
330
1F
100
AcDbEntity
  8
0
100
AcDbBlockBegin
  2
*Model_Space
 70
     0
 10
0.0
 20
0.0
 30
0.0
  3
*Model_Space
  1

  0
ENDBLK
  5
21
330
1F
100
AcDbEntity
  8
0
100
AcDbBlockEnd
  0
BLOCK
  5
1C
330
1B
100
AcDbEntity
 67
     1
  8
0
100
AcDbBlockBegin
  2
*Paper_Space
 70
     0
 10
0.0
 20
0.0
 30
0.0
  3
*Paper_Space
  1

  0
ENDBLK
  5
1D
330
1B
100
AcDbEntity
 67
     1
  8
0
100
AcDbBlockEnd
  0
BLOCK
  5
24
330
23
100
AcDbEntity
  8
0
100
AcDbBlockBegin
  2
*Paper_Space0
 70
     0
 10
0.0
 20
0.0
 30
0.0
  3
*Paper_Space0
  1

  0
ENDBLK
  5
25
330
23
100
AcDbEntity
  8
0
100
AcDbBlockEnd
  0
BLOCK
  5
48
330
47
100
AcDbEntity
  8
0
100
AcDbBlockBegin
  2
HL19_ABS_10003_ABS
 70
     0
 10
-397.0814509299937
 20
-95.35018548189748
 30
0.0
  3
HL19_ABS_10003_ABS
  1

  0
LINE
  5
8F
330
47
100
AcDbEntity
  8
1
  6
DOT_CENTER
 62
     2
100
AcDbLine
 10
-421.4586217364674
 20
-126.4483426166511
 30
0.0
 11
-412.7105380120025
 21
-93.80004968808026
 31
0.0
  0
LINE
  5
90
330
47
100
AcDbEntity
  8
1
  6
DOT_CENTER
 62
     2
100
AcDbLine
 10
-408.9058980489958
 20
-79.60094004163096
 30
0.0
 11
-412.5811284894514
 21
-93.31708677493577
 31
0.0
  0
LINE
  5
91
330
47
100
AcDbEntity
  8
1
  6
DOT_CENTER
 62
     2
100
AcDbLine
 10
-367.3271211558146
 20
-80.90681601853635
 30
0.0
 11
-369.6253984708476
 21
-80.2909944679904
 31
0.0
  0
LINE
  5
92
330
47
100
AcDbEntity
  8
1
  6
DOT_CENTER
 62
     2
100
AcDbLine
 10
-397.2708217707759
 20
-72.88342562035862
 30
0.0
 11
-384.5972487783284
 21
-76.27929926890164
 31
0.0
  0
LINE
  5
93
330
47
100
AcDbEntity
  8
0
  6
Continuous
 62
     7
100
AcDbLine
 10
-407.2697812277127
 20
-109.234124510181
 30
0.0
 11
-403.8970872385406
 21
-103.4085399682314
 31
0.0
  0
LINE
  5
94
330
47
100
AcDbEntity
  8
0
  6
Continuous
 62
     7
100
AcDbLine
 10
-411.2468012497411
 20
-122.1447136425322
 30
0.0
 11
-408.5985516302857
 21
-116.1250148167557
 31
0.0
  0
LINE
  5
95
330
47
100
AcDbEntity
  8
0
  6
Continuous
 62
     7
100
AcDbLine
 10
-425.1394090140606
 20
-104.4459721757846
 30
0.0
 11
-407.2697812277127
 21
-109.234124510181
 31
0.0
  0
LINE
  5
96
330
47
100
AcDbEntity
  8
0
  6
Continuous
 62
     7
100
AcDbLine
 10
-409.3229960000026
 20
-115.9309005329288
 30
0.0
 11
-406.3038554014236
 21
-109.4929435552835
 31
0.0
  0
LINE
  5
97
330
47
100
AcDbEntity
  8
0
  6
Continuous
 62
     7
100
AcDbLine
 10
-422.3697962748935
 20
-91.21185923705525
 30
0.0
 11
-403.051279749112
 21
-96.38824013910539
 31
0.0
  0
LINE
  5
98
330
47
100
AcDbEntity
  8
0
  6
Continuous
 62
     7
100
AcDbLine
 10
-403.051279749112
 20
-96.38824013910539
 30
0.0
 11
-401.3609095531062
 21
-96.84117346803475
 31
0.0
  0
LINE
  5
99
330
47
100
AcDbEntity
  8
0
  6
Continuous
 62
     7
100
AcDbLine
 10
-405.3459759779742
 20
-103.0203114005776
 30
0.0
 11
-401.3609095531062
 21
-96.84117346803475
 31
0.0
  0
LINE
  5
9A
330
47
100
AcDbEntity
  8
0
  6
Continuous
 62
     3
100
AcDbLine
 10
-421.7574238391977
 20
-90.85830584646197
 30
0.0
 11
-403.4048331397053
 21
-95.77586770340957
 31
0.0
  0
LINE
  5
9B
330
47
100
AcDbEntity
  8
0
  6
Continuous
 62
     7
100
AcDbLine
 10
-427.4341052429226
 20
-111.0780434372568
 30
0.0
 11
-426.7096608732059
 21
-111.2721577210837
 31
0.0
  0
LINE
  5
9C
330
47
100
AcDbEntity
  8
0
  6
Continuous
 62
     7
100
AcDbLine
 10
-426.7096608732059
 20
-111.2721577210837
 30
0.0
 11
-409.3229960000026
 21
-115.9309005329288
 31
0.0
  0
LINE
  5
9D
330
47
100
AcDbEntity
  8
0
  6
Continuous
 62
     7
100
AcDbLine
 10
-409.3229960000026
 20
-115.9309005329288
 30
0.0
 11
-408.5985516302857
 21
-116.1250148167557
 31
0.0
  0
LINE
  5
9E
330
47
100
AcDbEntity
  8
0
  6
Continuous
 62
     7
100
AcDbLine
 10
-407.2697812277127
 20
-109.234124510181
 30
0.0
 11
-406.3038554014236
 21
-109.4929435552835
 31
0.0
  0
LINE
  5
9F
330
47
100
AcDbEntity
  8
0
  6
Continuous
 62
     7
100
AcDbLine
 10
-423.6985666774665
 20
-98.10274954362995
 30
0.0
 11
-405.3459759779742
 21
-103.0203114005776
 31
0.0
  0
LINE
  5
A0
330
47
100
AcDbEntity
  8
0
  6
Continuous
 62
     7
100
AcDbLine
 10
-405.3459759779742
 20
-103.0203114005776
 30
0.0
 11
-403.8970872385406
 21
-103.4085399682314
 31
0.0
  0
LINE
  5
A1
330
47
100
AcDbEntity
  8
0
  6
Continuous
 62
     7
100
AcDbLine
 10
-428.1505032097999
 20
-117.6153803532383
 30
0.0
 11
-427.4341052429226
 21
-111.0780434372568
 31
0.0
  0
LINE
  5
A2
330
47
100
AcDbEntity
  8
0
  6
Continuous
 62
     7
100
AcDbLine
 10
-428.3919846663721
 20
-117.5506755919627
 30
0.0
 11
-428.1505032097999
 21
-117.6153803532383
 31
0.0
  0
LINE
  5
A3
330
47
100
AcDbEntity
  8
0
  6
Continuous
 62
     7
100
AcDbLine
 10
-428.1505032097999
 20
-117.6153803532383
 30
0.0
 11
-411.2468012497411
 21
-122.1447136425322
 31
0.0
  0
LINE
  5
A4
330
47
100
AcDbEntity
  8
0
  6
Continuous
 62
     7
100
AcDbLine
 10
-411.2468012497411
 20
-122.1447136425322
 30
0.0
 11
-411.0053197931688
 21
-122.2094184038078
 31
0.0
  0
LINE
  5
A5
330
47
100
AcDbEntity
  8
0
  6
Continuous
 62
     7
100
AcDbLine
 10
-429.6827902003003
 20
-124.2446833183496
 30
0.0
 11
-428.3919846663721
 21
-117.5506755919627
 31
0.0
  0
LINE
  5
A6
330
47
100
AcDbEntity
  8
0
  6
Continuous
 62
     7
100
AcDbLine
 10
-428.7030654336356
 20
-124.5071997783821
 30
0.0
 11
-414.2141780392995
 21
-128.3894854549197
 31
0.0
  0
LINE
  5
A7
330
47
100
AcDbEntity
  8
0
  6
Continuous
 62
     7
100
AcDbLine
 10
-429.6827902003003
 20
-124.2446833183496
 30
0.0
 11
-428.7030654336356
 21
-124.5071997783821
 31
0.0
  0
LINE
  5
A8
330
47
100
AcDbEntity
  8
0
  6
Continuous
 62
     7
100
AcDbLine
 10
-414.2141780392995
 20
-128.3894854549197
 30
0.0
 11
-413.234453272635
 21
-128.6520019149523
 31
0.0
  0
LINE
  5
A9
330
47
100
AcDbEntity
  8
0
  6
Continuous
 62
     7
100
AcDbLine
 10
-413.234453272635
 20
-128.6520019149523
 30
0.0
 11
-411.0053197931688
 21
-122.2094184038078
 31
0.0
  0
LINE
  5
AA
330
47
100
AcDbEntity
  8
0
  6
Continuous
 62
     7
100
AcDbLine
 10
-425.1394090140606
 20
-104.4459721757846
 30
0.0
 11
-425.1474554169001
 21
-97.7145209759762
 31
0.0
  0
LINE
  5
AB
330
47
100
AcDbEntity
  8
0
  6
Continuous
 62
     7
100
AcDbLine
 10
-423.6985666774665
 20
-98.10274954362995
 30
0.0
 11
-424.0601664708994
 21
-90.75892590812583
 31
0.0
  0
LINE
  5
AC
330
47
100
AcDbEntity
  8
0
  6
Continuous
 62
     7
100
AcDbLine
 10
-418.0821933987421
 20
-77.14215911315716
 30
0.0
 11
-421.7574238391977
 21
-90.85830584646197
 31
0.0
  0
LINE
  5
AD
330
47
100
AcDbEntity
  8
0
  6
Continuous
 62
     7
100
AcDbLine
 10
-418.0821933987421
 20
-77.14215911315716
 30
0.0
 11
-416.9175076957808
 21
-72.79549289485635
 31
0.0
  0
LINE
  5
AE
330
47
100
AcDbEntity
  8
0
  6
Continuous
 62
     3
100
AcDbLine
 10
-418.0495990620738
 20
-77.15089273934524
 30
0.0
 11
-418.0821933987421
 21
-77.14215911315716
 31
0.0
  0
LINE
  5
AF
330
47
100
AcDbEntity
  8
0
  6
Continuous
 62
     7
100
AcDbLine
 10
-424.0601664708994
 20
-90.75892590812583
 30
0.0
 11
-422.3697962748935
 21
-91.21185923705525
 31
0.0
  0
LINE
  5
B0
330
47
100
AcDbEntity
  8
0
  6
Continuous
 62
     7
100
AcDbLine
 10
-425.1474554169001
 20
-97.7145209759762
 30
0.0
 11
-423.6985666774665
 21
-98.10274954362995
 31
0.0
  0
LINE
  5
B1
330
47
100
AcDbEntity
  8
0
  6
Continuous
 62
     7
100
AcDbLine
 10
-426.7096608732059
 20
-111.2721577210837
 30
0.0
 11
-426.1053348403496
 21
-104.1871531306821
 31
0.0
  0
LINE
  5
B2
330
47
100
AcDbEntity
  8
0
  6
Continuous
 62
     7
100
AcDbLine
 10
-426.1053348403496
 20
-104.1871531306821
 30
0.0
 11
-425.1394090140606
 21
-104.4459721757846
 31
0.0
  0
LINE
  5
B3
330
47
100
AcDbEntity
  8
0
  6
Continuous
 62
     7
100
AcDbLine
 10
-364.480111659687
 20
-70.28163192935642
 30
0.0
 11
-364.7483538618012
 21
-69.81702280656054
 31
0.0
  0
LINE
  5
B4
330
47
100
AcDbEntity
  8
0
  6
Continuous
 62
     7
100
AcDbLine
 10
-364.480111659687
 20
-70.28163192935642
 30
0.0
 11
-370.1741306519422
 21
-91.53200010771621
 31
0.0
  0
LINE
  5
B5
330
47
100
AcDbEntity
  8
0
  6
Continuous
 62
     7
100
AcDbLine
 10
-399.7296026992497
 20
-82.05972097010482
 30
0.0
 11
-387.0560297068022
 21
-85.45559461864781
 31
0.0
  0
LINE
  5
B6
330
47
100
AcDbEntity
  8
0
  6
Continuous
 62
     7
100
AcDbLine
 10
-370.1741306519422
 20
-91.53200010771621
 30
0.0
 11
-370.6387397747381
 21
-91.80024230983042
 31
0.0
  0
LINE
  5
B7
330
47
100
AcDbEntity
  8
0
  6
Continuous
 62
     7
100
AcDbLine
 10
-399.7296026992497
 20
-82.05972097010482
 30
0.0
 11
-403.4048331397053
 21
-95.77586770340957
 31
0.0
  0
LINE
  5
B8
330
47
100
AcDbEntity
  8
0
  6
Continuous
 62
     7
100
AcDbLine
 10
-394.8120408423021
 20
-63.70713027061242
 30
0.0
 11
-382.1384678498546
 21
-67.10300391915541
 31
0.0
  0
LINE
  5
B9
330
47
100
AcDbEntity
  8
0
  6
Continuous
 62
     7
100
AcDbLine
 10
-394.8120408423021
 20
-63.70713027061242
 30
0.0
 11
-399.1587070606029
 21
-62.54244456765116
 31
0.0
  0
LINE
  5
BA
330
47
100
AcDbEntity
  8
0
  6
Continuous
 62
     3
100
AcDbLine
 10
-394.8207744684901
 20
-63.73972460728066
 30
0.0
 11
-394.8120408423021
 21
-63.70713027061242
 31
0.0
  0
LINE
  5
BB
330
47
100
AcDbEntity
  8
0
  6
Continuous
 62
     3
100
AcDbLine
 10
-399.7296026992497
 20
-82.05972097010482
 30
0.0
 11
-394.8207744684901
 21
-63.73972460728066
 31
0.0
  0
LINE
  5
BC
330
47
100
AcDbEntity
  8
0
  6
Continuous
 62
     3
100
AcDbLine
 10
-399.7296026992497
 20
-82.05972097010482
 30
0.0
 11
-418.0495990620738
 21
-77.15089273934524
 31
0.0
  0
ARC
  5
BD
330
47
100
AcDbEntity
  8
0
  6
Continuous
 62
     7
100
AcDbCircle
 10
-399.7296026992497
 20
-82.05972097010482
 30
0.0
 40
19.00000000000002
100
AcDbArc
 50
75.00000000000094
 51
165.0000000000008
  0
ARC
  5
BE
330
47
100
AcDbEntity
  8
0
  6
Continuous
 62
     7
100
AcDbCircle
 10
-402.9218702265607
 20
-95.90527722596084
 30
0.0
 40
0.5000000000000702
100
AcDbArc
 50
165.000000000001
 51
254.9999999999993
  0
ARC
  5
BF
330
47
100
AcDbEntity
  8
0
  6
Continuous
 62
     7
100
AcDbCircle
 10
-422.2403867523422
 20
-90.7288963239107
 30
0.0
 40
0.5000000000000152
100
AcDbArc
 50
254.9999999999993
 51
344.9999999999976
  0
ARC
  5
C0
330
47
100
AcDbEntity
  8
0
  6
Continuous
 62
     3
100
AcDbCircle
 10
-399.7296026992497
 20
-82.05972097010482
 30
0.0
 40
18.96625585963116
100
AcDbArc
 50
75.0000000000006
 51
165.0000000000007
  0
ARC
  5
C1
330
47
100
AcDbEntity
  8
0
  6
Continuous
 62
     7
100
AcDbCircle
 10
-402.9115832145892
 20
-76.54836904884269
 30
0.0
 40
14.49999999999997
100
AcDbArc
 50
75.00000000000108
 51
165.0000000000009
  0
ARC
  5
C2
330
47
100
AcDbEntity
  8
0
  6
Continuous
 62
     3
100
AcDbCircle
 10
-406.4471171205221
 20
-70.4246446918848
 30
0.0
 40
1.543712436559568
100
AcDbArc
 50
17.77577707086449
 51
222.2242229291884
  0
ARC
  5
C3
330
47
100
AcDbEntity
  8
0
  6
Continuous
 62
     3
100
AcDbCircle
 10
-406.4471171205221
 20
-70.4246446918848
 30
0.0
 40
1.248270110646782
100
AcDbArc
 50
342.3915449066002
 51
257.6084550934021
  0
ARC
  5
C4
330
47
100
AcDbEntity
  8
0
  6
Continuous
 62
     7
100
AcDbCircle
 10
-399.7296026992497
 20
-82.05972097010482
 30
0.0
 40
12.54138126514928
100
AcDbArc
 50
116.1523389503296
 51
123.8476610496718
  0
SPLINE
  5
C5
330
47
100
AcDbEntity
  8
0
  6
Continuous
 62
     7
100
AcDbSpline
210
0.0
220
0.0
230
1.0
 70
     8
 71
     3
 72
    39
 73
    35
 74
    33
 42
0.000000001
 43
0.0000000001
 44
0.00000001
 40
0.0
 40
0.0
 40
0.0
 40
0.0
 40
0.1177780265595727
 40
0.222255052837829
 40
0.3321237506740696
 40
0.4420271691150801
 40
0.6583162300858924
 40
0.8744988184189604
 40
1.075473671947055
 40
1.276107302124905
 40
1.382657404056751
 40
1.477979307854195
 40
1.586291329373769
 40
1.682967782486759
 40
1.847099949043699
 40
2.010887696227276
 40
2.164669111040542
 40
2.34991160405927
 40
2.516372850420283
 40
2.656543559203914
 40
2.825844903446777
 40
2.968160554728836
 40
3.276648930834616
 40
3.585585405743989
 40
3.91897634667725
 40
4.253699939441043
 40
4.656889969852203
 40
5.061814371535589
 40
5.175544521162013
 40
5.276771486303937
 40
5.390698334713322
 40
5.492065070682806
 40
5.711951743565484
 40
5.931619272746723
 40
5.931619272746723
 40
5.931619272746723
 40
5.931619272746723
 10
-404.9771037596044
 20
-69.95336048303392
 30
0.0
 10
-404.987109590299
 20
-69.91537940450746
 30
0.0
 10
-405.005991274636
 20
-69.8437065589835
 30
0.0
 10
-405.0434757193351
 20
-69.73941306029124
 30
0.0
 10
-405.0861748426024
 20
-69.64004874159708
 30
0.0
 10
-405.1526093496859
 20
-69.51065422509372
 30
0.0
 10
-405.2510327350885
 20
-69.35832778356668
 30
0.0
 10
-405.3884182860999
 20
-69.19717916861048
 30
0.0
 10
-405.541241895807
 20
-69.05839646468402
 30
0.0
 10
-405.6800731169986
 20
-68.96053869054083
 30
0.0
 10
-405.7966283610024
 20
-68.89391625072577
 30
0.0
 10
-405.8894719238679
 20
-68.8482783338639
 30
0.0
 10
-405.9819923962624
 20
-68.80984919309165
 30
0.0
 10
-406.0984602061078
 20
-68.76997723666943
 30
0.0
 10
-406.235912334983
 20
-68.73513082778189
 30
0.0
 10
-406.3950790845862
 20
-68.71189105800177
 30
0.0
 10
-406.5627733626911
 20
-68.70445617397314
 30
0.0
 10
-406.7313362052969
 20
-68.7152430091817
 30
0.0
 10
-406.8930458247002
 20
-68.74417037467033
 30
0.0
 10
-407.0458762449843
 20
-68.7874634913718
 30
0.0
 10
-407.186240378309
 20
-68.84294809020327
 30
0.0
 10
-407.3700073324607
 20
-68.938064050065
 30
0.0
 10
-407.5770036426156
 20
-69.08720970223548
 30
0.0
 10
-407.7934330113293
 20
-69.32152275250496
 30
0.0
 10
-407.9619122363621
 20
-69.60320517100627
 30
0.0
 10
-408.0773733241554
 20
-69.94385704435815
 30
0.0
 10
-408.1142419231583
 20
-70.32704310749168
 30
0.0
 10
-408.0664689584659
 20
-70.63419702829985
 30
0.0
 10
-408.0028389836814
 20
-70.8308827804327
 30
0.0
 10
-407.9623016934945
 20
-70.9328172245929
 30
0.0
 10
-407.916951814716
 20
-71.02819613944651
 30
0.0
 10
-407.8459889685415
 20
-71.15473301153911
 30
0.0
 10
-407.743689464616
 20
-71.30431152553072
 30
0.0
 10
-407.6413914223976
 20
-71.40950232670754
 30
0.0
 10
-407.5902678982472
 20
-71.46207150191759
 30
0.0
 11
-404.9771037596044
 21
-69.95336048303392
 31
0.0
 11
-405.0088630780367
 21
-69.83994526768682
 31
0.0
 11
-405.0438257638489
 21
-69.74149192890837
 31
0.0
 11
-405.0873053193284
 21
-69.64059267646684
 31
0.0
 11
-405.1374795080773
 21
-69.54281071372367
 31
0.0
 11
-405.2548833082462
 21
-69.36115910823325
 31
0.0
 11
-405.3951319449267
 21
-69.19664396747044
 31
0.0
 11
-405.5439244536385
 21
-69.06154518432841
 31
0.0
 11
-405.7079222729614
 21
-68.94596590885544
 31
0.0
 11
-405.8004277165114
 21
-68.8930918399301
 31
0.0
 11
-405.8859748611978
 21
-68.85104482572535
 31
0.0
 11
-405.9860031915279
 21
-68.80950174966343
 31
0.0
 11
-406.0774697872993
 21
-68.77819362818826
 31
0.0
 11
-406.2365744197157
 21
-68.73788129608809
 31
0.0
 11
-406.3986462054752
 21
-68.71423467967116
 31
0.0
 11
-406.5522774993124
 21
-68.70744136172422
 31
0.0
 11
-406.7371400447929
 21
-68.71929971776268
 31
0.0
 11
-406.9009983336921
 21
-68.74862219702896
 31
0.0
 11
-407.035859635867
 21
-68.78683550416957
 31
0.0
 11
-407.1933056244656
 21
-68.84907460710912
 31
0.0
 11
-407.3196889998478
 21
-68.91450385971683
 31
0.0
 11
-407.5699715541132
 21
-69.09484720325175
 31
0.0
 11
-407.7796662642055
 21
-69.32171693331969
 31
0.0
 11
-407.950925363422
 21
-69.60775861002116
 31
0.0
 11
-408.0585284977639
 21
-69.92471515184036
 31
0.0
 11
-408.0972714849255
 21
-70.32603943730598
 31
0.0
 11
-408.035310765515
 21
-70.72619520813242
 31
0.0
 11
-408.0003154881018
 21
-70.83440739574166
 31
0.0
 11
-407.9629136234803
 21
-70.92847119879059
 31
0.0
 11
-407.9139592361954
 21
-71.03134391057613
 31
0.0
 11
-407.8644820978648
 21
-71.11981553327342
 31
0.0
 11
-407.7388509712341
 21
-71.30027874200601
 31
0.0
 11
-407.5902678982472
 21
-71.46207150191759
 31
0.0
  0
SPLINE
  5
C6
330
47
100
AcDbEntity
  8
0
  6
Continuous
 62
     7
100
AcDbSpline
210
0.0
220
0.0
230
1.0
 70
     8
 71
     3
 72
    23
 73
    19
 74
    17
 42
0.000000001
 43
0.0000000001
 44
0.00000001
 40
0.0
 40
0.0
 40
0.0
 40
0.0
 40
0.0532060288348517
 40
0.1140263690514079
 40
0.1753878423401931
 40
0.2298825586279698
 40
0.2920047638696066
 40
0.3467937544916858
 40
0.4097533404947724
 40
0.4645423758508088
 40
0.5192264740646909
 40
0.5841403144896045
 40
0.6381155931322157
 40
0.7044580693736836
 40
0.8139844563235743
 40
0.9044735229128067
 40
0.9288551504923368
 40
0.947657316494206
 40
0.947657316494206
 40
0.947657316494206
 40
0.947657316494206
 10
-404.9771037596044
 20
-69.95336048303392
 30
0.0
 10
-404.9732661157097
 20
-69.97068163764409
 30
0.0
 10
-404.9650416367101
 20
-70.00780277898417
 30
0.0
 10
-404.9572672745895
 20
-70.0658198954011
 30
0.0
 10
-404.9532835193717
 20
-70.12461576368504
 30
0.0
 10
-404.953224625334
 20
-70.18398016623411
 30
0.0
 10
-404.9568457756956
 20
-70.24104648599625
 30
0.0
 10
-404.9644668783748
 20
-70.3005508845763
 30
0.0
 10
-404.9754074892984
 20
-70.3570609050884
 30
0.0
 10
-404.9899158454072
 20
-70.41271146276289
 30
0.0
 10
-405.0079195994501
 20
-70.46801737356203
 30
0.0
 10
-405.0294525412506
 20
-70.52177720643579
 30
0.0
 10
-405.0562781080379
 20
-70.57743415413131
 30
0.0
 10
-405.0945027139892
 20
-70.64391865693189
 30
0.0
 10
-405.147458249152
 20
-70.715633040766
 30
0.0
 10
-405.2020851482586
 20
-70.76758217674241
 30
0.0
 10
-405.2390374264908
 20
-70.79263325622574
 30
0.0
 10
-405.2517836984654
 20
-70.79933962858146
 30
0.0
 10
-405.2573334115459
 20
-70.80225956843105
 30
0.0
 11
-404.9771037596044
 21
-69.95336048303392
 31
0.0
 11
-404.9662810410974
 21
-70.00545414570709
 31
0.0
 11
-404.9579506099487
 21
-70.06570128097212
 31
0.0
 11
-404.953850732907
 21
-70.1269256335439
 31
0.0
 11
-404.9537735598585
 21
-70.1814202953222
 31
0.0
 11
-404.9577019429845
 21
-70.24341816803611
 31
0.0
 11
-404.964657082659
 21
-70.2977639088702
 31
0.0
 11
-404.9766234194108
 21
-70.35957585169862
 31
0.0
 11
-404.9904484429939
 21
-70.4125919542505
 31
0.0
 11
-405.0073839664025
 21
-70.46458751802055
 31
0.0
 11
-405.0315455234833
 21
-70.52483721380878
 31
0.0
 11
-405.0550072991837
 21
-70.5734466345415
 31
0.0
 11
-405.0881344673787
 21
-70.63092632548137
 31
0.0
 11
-405.1539195412472
 21
-70.71849546053674
 31
0.0
 11
-405.2205305430895
 21
-70.77974287129996
 31
0.0
 11
-405.2408375616932
 21
-70.7932368938356
 31
0.0
 11
-405.2573334115459
 21
-70.80225956843105
 31
0.0
  0
SPLINE
  5
C7
330
47
100
AcDbEntity
  8
0
  6
Continuous
 62
     7
100
AcDbSpline
210
0.0
220
0.0
230
1.0
 70
     8
 71
     3
 72
    21
 73
    17
 74
    15
 42
0.000000001
 43
0.0000000001
 44
0.00000001
 40
0.0
 40
0.0
 40
0.0
 40
0.0
 40
0.0208496131650721
 40
0.0432556775422468
 40
0.1337853821848917
 40
0.243359283906685
 40
0.3095998264002849
 40
0.3635189041938596
 40
0.4181846365934037
 40
0.48271918909538
 40
0.5376795434520394
 40
0.6008671714239218
 40
0.6554326231480306
 40
0.7172689452345226
 40
0.8328919387196408
 40
0.947530331855999
 40
0.947530331855999
 40
0.947530331855999
 40
0.947530331855999
 10
-406.7149848990741
 20
-71.64383504714016
 30
0.0
 10
-406.7208762649385
 20
-71.64753087917029
 30
0.0
 10
-406.7330988020856
 20
-71.65519842930291
 30
0.0
 10
-406.7733565692757
 20
-71.67455553930013
 30
0.0
 10
-406.845056614342
 20
-71.69570270563447
 30
0.0
 10
-406.9336382092803
 20
-71.70568517251323
 30
0.0
 10
-407.0102899180271
 20
-71.70553676541985
 30
0.0
 10
-407.0684432539238
 20
-71.70119590109496
 30
0.0
 10
-407.1256454220566
 20
-71.69332357031666
 30
0.0
 10
-407.1825563207436
 20
-71.6816033523807
 30
0.0
 10
-407.2413061521628
 20
-71.66545680634583
 30
0.0
 10
-407.295769550519
 20
-71.6466598099267
 30
0.0
 10
-407.351044342005
 20
-71.62356430629424
 30
0.0
 10
-407.4203211181319
 20
-71.58913999289994
 30
0.0
 10
-407.5037376837666
 20
-71.53802334883892
 30
0.0
 10
-407.5615068367206
 20
-71.48731651332753
 30
0.0
 10
-407.5902678982472
 20
-71.46207150191759
 30
0.0
 11
-406.7149848990741
 21
-71.64383504714016
 31
0.0
 11
-406.7328433997343
 21
-71.65459518832249
 31
0.0
 11
-406.7529520603558
 21
-71.66447817389178
 31
0.0
 11
-406.8393438424638
 21
-71.69153528166414
 31
0.0
 11
-406.948123347698
 21
-71.70470567012302
 31
0.0
 11
-407.0143638630796
 21
-71.70464569346407
 31
0.0
 11
-407.0681355552377
 21
-71.70066171517504
 31
0.0
 11
-407.1222931160141
 21
-71.69322525596151
 31
0.0
 11
-407.1855044726823
 21
-71.68022399123731
 31
0.0
 11
-407.2385003748809
 21
-71.66566119870282
 31
0.0
 11
-407.2982322901869
 21
-71.64505113668133
 31
0.0
 11
-407.3485709297569
 21
-71.62399383615848
 31
0.0
 11
-407.4039817225149
 21
-71.59654616302936
 31
0.0
 11
-407.5020046717698
 21
-71.53522587742894
 31
0.0
 11
-407.5902678982472
 21
-71.46207150191759
 31
0.0
  0
ENDBLK
  5
49
330
47
100
AcDbEntity
  8
0
100
AcDbBlockEnd
  0
BLOCK
  5
4C
330
4A
100
AcDbEntity
  8
0
100
AcDbBlockBegin
  2
HL19
 70
     0
 10
-396.7248624521503
 20
-94.77044183431484
 30
0.0
  3
HL19
  1

  0
INSERT
  5
4B
330
4A
100
AcDbEntity
  8
0
100
AcDbBlockReference
  2
HL19_ABS_10003_ABS
 10
-397.0814509299937
 20
-95.35018548189748
 30
0.0
  0
ENDBLK
  5
4D
330
4A
100
AcDbEntity
  8
0
100
AcDbBlockEnd
  0
BLOCK
  5
4F
330
4E
100
AcDbEntity
  8
0
100
AcDbBlockBegin
  2
HL_100_Krümmer
 70
     0
 10
-278.0406500962947
 20
-224.9507251706854
 30
0.0
  3
HL_100_Krümmer
  1

  0
LINE
  5
C8
330
4E
100
AcDbEntity
  8
1
  6
DOT_CENTER
 62
     2
100
AcDbLine
 10
-298.6783763439373
 20
-399.9984743914527
 30
0.0
 11
-292.6783763439374
 21
-399.9984743914527
 31
0.0
  0
LINE
  5
C9
330
4E
100
AcDbEntity
  8
1
  6
PHANTOM
 62
     2
100
AcDbLine
 10
-324.9999999999964
 20
-49.89810360128941
 30
0.0
 11
-324.9999999999964
 21
-367.0668061346934
 31
0.0
  0
LINE
  5
CA
330
4E
100
AcDbEntity
  8
1
  6
Continuous
 62
     7
100
AcDbLine
 10
-301.3999999999963
 20
-300.0633467400815
 30
0.0
 11
-301.3999999999963
 21
-300.4033467400815
 31
0.0
  0
LINE
  5
CB
330
4E
100
AcDbEntity
  8
1
  6
Continuous
 62
     7
100
AcDbLine
 10
-348.5999999999965
 20
-300.4033467400815
 30
0.0
 11
-348.5999999999965
 21
-300.0633467400815
 31
0.0
  0
LINE
  5
CC
330
4E
100
AcDbEntity
  8
1
  6
Continuous
 62
     7
100
AcDbLine
 10
-347.1999999999964
 20
-301.5033467400815
 30
0.0
 11
-347.1999999999964
 21
-367.0668061346934
 31
0.0
  0
LINE
  5
CD
330
4E
100
AcDbEntity
  8
1
  6
Continuous
 62
     7
100
AcDbLine
 10
-347.1999999999964
 20
-301.5033467400815
 30
0.0
 11
-347.4999999999964
 21
-301.5033467400815
 31
0.0
  0
LINE
  5
CE
330
4E
100
AcDbEntity
  8
1
  6
Continuous
 62
     7
100
AcDbLine
 10
-302.7999999999963
 20
-301.5033467400815
 30
0.0
 11
-302.7999999999963
 21
-349.9389788188655
 31
0.0
  0
LINE
  5
CF
330
4E
100
AcDbEntity
  8
1
  6
Continuous
 62
     2
100
AcDbLine
 10
-302.4999999999964
 20
-301.5033467400815
 30
0.0
 11
-302.4999999999964
 21
-300.0633467400815
 31
0.0
  0
LINE
  5
D0
330
4E
100
AcDbEntity
  8
1
  6
Continuous
 62
     7
100
AcDbLine
 10
-302.4999999999964
 20
-301.5033467400815
 30
0.0
 11
-302.7999999999963
 21
-301.5033467400815
 31
0.0
  0
LINE
  5
D1
330
4E
100
AcDbEntity
  8
1
  6
Continuous
 62
     7
100
AcDbLine
 10
-302.4999999999964
 20
-301.5033467400815
 30
0.0
 11
-301.3999999999963
 21
-300.4033467400815
 31
0.0
  0
LINE
  5
D2
330
4E
100
AcDbEntity
  8
1
  6
Continuous
 62
     7
100
AcDbLine
 10
-347.4999999999964
 20
-301.5033467400815
 30
0.0
 11
-348.5999999999965
 21
-300.4033467400815
 31
0.0
  0
LINE
  5
D3
330
4E
100
AcDbEntity
  8
1
  6
Continuous
 62
     2
100
AcDbLine
 10
-347.4999999999964
 20
-300.0633467400815
 30
0.0
 11
-347.4999999999964
 21
-301.5033467400815
 31
0.0
  0
LINE
  5
D4
330
4E
100
AcDbEntity
  8
1
  6
Continuous
 62
     7
100
AcDbLine
 10
-347.1999999999964
 20
-301.5033467400815
 30
0.0
 11
-302.7999999999963
 21
-301.5033467400815
 31
0.0
  0
LINE
  5
D5
330
4E
100
AcDbEntity
  8
1
  6
Continuous
 62
     7
100
AcDbLine
 10
-347.1999999999964
 20
-367.0668061346934
 30
0.0
 11
-302.7999999999963
 21
-349.9389788188655
 31
0.0
  0
LINE
  5
D6
330
4E
100
AcDbEntity
  8
1
  6
Continuous
 62
     7
100
AcDbLine
 10
-262.8571902140764
 20
-346.2121293954444
 30
0.0
 11
-221.1744474765523
 21
-364.5693981542856
 31
0.0
  0
LINE
  5
D7
330
4E
100
AcDbEntity
  8
1
  6
Continuous
 62
     7
100
AcDbLine
 10
-329.1499999999976
 20
-308.4033467400795
 30
0.0
 11
-327.6499999999976
 21
-308.4033467400795
 31
0.0
  0
LINE
  5
D8
330
4E
100
AcDbEntity
  8
1
  6
Continuous
 62
     7
100
AcDbLine
 10
-326.8999999999976
 20
-307.6533467400795
 30
0.0
 11
-326.8999999999976
 21
-305.7533467400815
 31
0.0
  0
LINE
  5
D9
330
4E
100
AcDbEntity
  8
1
  6
Continuous
 62
     7
100
AcDbLine
 10
-327.6499999999976
 20
-309.6033467400805
 30
0.0
 11
-329.1499999999976
 21
-309.6033467400805
 31
0.0
  0
LINE
  5
DA
330
4E
100
AcDbEntity
  8
1
  6
Continuous
 62
     7
100
AcDbLine
 10
-329.8999999999976
 20
-310.3533467400805
 30
0.0
 11
-329.8999999999976
 21
-312.2533467400815
 31
0.0
  0
LINE
  5
DB
330
4E
100
AcDbEntity
  8
1
  6
Continuous
 62
     7
100
AcDbLine
 10
-323.5999999999985
 20
-311.0033467400815
 30
0.0
 11
-323.5999999999985
 21
-305.7533467400815
 31
0.0
  0
LINE
  5
DC
330
4E
100
AcDbEntity
  8
1
  6
Continuous
 62
     7
100
AcDbLine
 10
-323.5999999999985
 20
-312.2533467400815
 30
0.0
 11
-323.5999999999985
 21
-311.0033467400815
 31
0.0
  0
LINE
  5
DD
330
4E
100
AcDbEntity
  8
1
  6
Continuous
 62
     7
100
AcDbLine
 10
-322.8499999999985
 20
-313.0033467400815
 30
0.0
 11
-318.8499999999985
 21
-313.0033467400815
 31
0.0
  0
LINE
  5
DE
330
4E
100
AcDbEntity
  8
1
  6
Continuous
 62
     7
100
AcDbLine
 10
-318.8499999999985
 20
-311.5033467400815
 30
0.0
 11
-321.3499999999985
 21
-311.5033467400815
 31
0.0
  0
LINE
  5
DF
330
4E
100
AcDbEntity
  8
1
  6
Continuous
 62
     7
100
AcDbLine
 10
-331.3999999999976
 20
-312.2533467400815
 30
0.0
 11
-331.3999999999976
 21
-305.7533467400815
 31
0.0
  0
LINE
  5
E0
330
4E
100
AcDbEntity
  8
1
  6
Continuous
 62
     7
100
AcDbLine
 10
-326.8999999999976
 20
-312.2533467400815
 30
0.0
 11
-326.8999999999976
 21
-310.3533467400805
 31
0.0
  0
LINE
  5
E1
330
4E
100
AcDbEntity
  8
1
  6
Continuous
 62
     7
100
AcDbLine
 10
-325.3999999999976
 20
-305.7533467400815
 30
0.0
 11
-325.3999999999976
 21
-312.2533467400815
 31
0.0
  0
LINE
  5
E2
330
4E
100
AcDbEntity
  8
1
  6
Continuous
 62
     7
100
AcDbLine
 10
-329.8999999999976
 20
-305.7533467400815
 30
0.0
 11
-329.8999999999976
 21
-307.6533467400795
 31
0.0
  0
LINE
  5
E3
330
4E
100
AcDbEntity
  8
1
  6
Continuous
 62
     7
100
AcDbLine
 10
-322.0999999999985
 20
-305.7533467400815
 30
0.0
 11
-322.0999999999985
 21
-310.7533467400815
 31
0.0
  0
ARC
  5
E4
330
4E
100
AcDbEntity
  8
1
  6
PHANTOM
 62
     2
100
AcDbCircle
 10
-284.9999999999964
 20
-324.8033467400814
 30
0.0
 40
53.00000000000011
100
AcDbArc
 50
213.9415371031615
 51
343.3663660010594
  0
ARC
  5
E5
330
4E
100
AcDbEntity
  8
1
  6
Continuous
 62
     7
100
AcDbCircle
 10
-284.9999999999964
 20
-324.8033467400814
 30
0.0
 40
75.2000000000001
100
AcDbArc
 50
270.0
 51
328.0753269346665
  0
ARC
  5
E6
330
4E
100
AcDbEntity
  8
1
  6
Continuous
 62
     7
100
AcDbCircle
 10
-284.9999999999964
 20
-324.8033467400814
 30
0.0
 40
30.79999999999996
100
AcDbArc
 50
234.6954750044148
 51
315.9655829486392
  0
ARC
  5
E7
330
4E
100
AcDbEntity
  8
1
  6
Continuous
 62
     7
100
AcDbCircle
 10
-235.1092056961677
 20
-339.7083339501755
 30
0.0
 40
28.49999999999998
100
AcDbArc
 50
184.210543314481
 51
193.1913184341605
  0
ARC
  5
E8
330
4E
100
AcDbEntity
  8
1
  6
Continuous
 62
     7
100
AcDbCircle
 10
-284.9999999999964
 20
-324.8033467400814
 30
0.0
 40
75.20000000000012
100
AcDbArc
 50
214.1952000799881
 51
270.0
  0
ARC
  5
E9
330
4E
100
AcDbEntity
  8
1
  6
Continuous
 62
     7
100
AcDbCircle
 10
-235.1092056961677
 20
-339.7083339501755
 30
0.0
 40
28.50000000000042
100
AcDbArc
 50
299.2708613933625
 51
345.7894566855206
  0
ARC
  5
EA
330
4E
100
AcDbEntity
  8
1
  6
Continuous
 62
     7
100
AcDbCircle
 10
-321.3499999999985
 20
-310.7533467400815
 30
0.0
 40
0.75
100
AcDbArc
 50
180.0
 51
270.0
  0
ARC
  5
EB
330
4E
100
AcDbEntity
  8
1
  6
Continuous
 62
     7
100
AcDbCircle
 10
-327.6499999999976
 20
-307.6533467400795
 30
0.0
 40
0.75
100
AcDbArc
 50
270.0
 51
0.0
  0
ARC
  5
EC
330
4E
100
AcDbEntity
  8
1
  6
Continuous
 62
     7
100
AcDbCircle
 10
-327.6499999999976
 20
-310.3533467400805
 30
0.0
 40
0.75
100
AcDbArc
 50
0.0
 51
90.0
  0
ARC
  5
ED
330
4E
100
AcDbEntity
  8
1
  6
Continuous
 62
     7
100
AcDbCircle
 10
-329.1499999999976
 20
-310.3533467400805
 30
0.0
 40
0.75
100
AcDbArc
 50
90.0
 51
180.0
  0
ARC
  5
EE
330
4E
100
AcDbEntity
  8
1
  6
Continuous
 62
     7
100
AcDbCircle
 10
-329.1499999999976
 20
-307.6533467400795
 30
0.0
 40
0.75
100
AcDbArc
 50
180.0
 51
270.0
  0
ARC
  5
EF
330
4E
100
AcDbEntity
  8
1
  6
Continuous
 62
     7
100
AcDbCircle
 10
-318.8499999999985
 20
-312.2533467400815
 30
0.0
 40
0.75
100
AcDbArc
 50
270.0
 51
0.0
  0
ARC
  5
F0
330
4E
100
AcDbEntity
  8
1
  6
Continuous
 62
     7
100
AcDbCircle
 10
-318.8499999999985
 20
-312.2533467400815
 30
0.0
 40
0.75
100
AcDbArc
 50
0.0
 51
90.0
  0
ARC
  5
F1
330
4E
100
AcDbEntity
  8
1
  6
Continuous
 62
     7
100
AcDbCircle
 10
-322.8499999999985
 20
-305.7533467400815
 30
0.0
 40
0.75
100
AcDbArc
 50
0.0
 51
90.0
  0
ARC
  5
F2
330
4E
100
AcDbEntity
  8
1
  6
Continuous
 62
     7
100
AcDbCircle
 10
-322.8499999999985
 20
-305.7533467400815
 30
0.0
 40
0.75
100
AcDbArc
 50
90.0
 51
180.0
  0
ARC
  5
F3
330
4E
100
AcDbEntity
  8
1
  6
Continuous
 62
     7
100
AcDbCircle
 10
-322.8499999999985
 20
-312.2533467400815
 30
0.0
 40
0.75
100
AcDbArc
 50
180.0
 51
270.0
  0
ARC
  5
F4
330
4E
100
AcDbEntity
  8
1
  6
Continuous
 62
     7
100
AcDbCircle
 10
-330.6499999999976
 20
-305.7533467400815
 30
0.0
 40
0.75
100
AcDbArc
 50
90.0
 51
180.0
  0
ARC
  5
F5
330
4E
100
AcDbEntity
  8
1
  6
Continuous
 62
     7
100
AcDbCircle
 10
-330.6499999999976
 20
-305.7533467400815
 30
0.0
 40
0.75
100
AcDbArc
 50
0.0
 51
90.0
  0
ARC
  5
F6
330
4E
100
AcDbEntity
  8
1
  6
Continuous
 62
     7
100
AcDbCircle
 10
-326.1499999999976
 20
-305.7533467400815
 30
0.0
 40
0.75
100
AcDbArc
 50
90.0
 51
180.0
  0
ARC
  5
F7
330
4E
100
AcDbEntity
  8
1
  6
Continuous
 62
     7
100
AcDbCircle
 10
-326.1499999999976
 20
-305.7533467400815
 30
0.0
 40
0.75
100
AcDbArc
 50
0.0
 51
90.0
  0
ARC
  5
F8
330
4E
100
AcDbEntity
  8
1
  6
Continuous
 62
     7
100
AcDbCircle
 10
-326.1499999999976
 20
-312.2533467400815
 30
0.0
 40
0.75
100
AcDbArc
 50
270.0
 51
0.0
  0
ARC
  5
F9
330
4E
100
AcDbEntity
  8
1
  6
Continuous
 62
     7
100
AcDbCircle
 10
-326.1499999999976
 20
-312.2533467400815
 30
0.0
 40
0.75
100
AcDbArc
 50
180.0
 51
270.0
  0
ARC
  5
FA
330
4E
100
AcDbEntity
  8
1
  6
Continuous
 62
     7
100
AcDbCircle
 10
-330.6499999999976
 20
-312.2533467400815
 30
0.0
 40
0.75
100
AcDbArc
 50
270.0
 51
0.0
  0
ARC
  5
FB
330
4E
100
AcDbEntity
  8
1
  6
Continuous
 62
     7
100
AcDbCircle
 10
-330.6499999999976
 20
-312.2533467400815
 30
0.0
 40
0.75
100
AcDbArc
 50
180.0
 51
270.0
  0
ENDBLK
  5
50
330
4E
100
AcDbEntity
  8
0
100
AcDbBlockEnd
  0
BLOCK
  5
52
330
51
100
AcDbEntity
  8
0
100
AcDbBlockBegin
  2
Knie_DN40_6_4_kurz_025U_2E
 70
     0
 10
22586.45126283264
 20
34891.72280579537
 30
0.0
  3
Knie_DN40_6_4_kurz_025U_2E
  1

  0
LINE
  5
FC
330
51
100
AcDbEntity
  8
1
  6
Continuous
 62
     7
100
AcDbLine
 10
22828.59914836433
 20
32584.10506884179
 30
0.0
 11
22828.59914836433
 21
32631.9050688418
 31
0.0
  0
LINE
  5
FD
330
51
100
AcDbEntity
  8
1
  6
Continuous
 62
     7
100
AcDbLine
 10
22789.00218285288
 20
32584.25673489161
 30
0.0
 11
22792.80459782268
 21
32582.06140958525
 31
0.0
  0
LINE
  5
FE
330
51
100
AcDbEntity
  8
1
  6
Continuous
 62
     7
100
AcDbLine
 10
22745.10218285291
 20
32582.06140958525
 30
0.0
 11
22792.80459782268
 21
32582.06140958525
 31
0.0
  0
LINE
  5
FF
330
51
100
AcDbEntity
  8
1
  6
Continuous
 62
     2
100
AcDbLine
 10
22746.40218285289
 20
32582.31019773473
 30
0.0
 11
22746.40218285289
 21
32578.25506884179
 31
0.0
  0
LINE
  5
100
330
51
100
AcDbEntity
  8
1
  6
Continuous
 62
     2
100
AcDbLine
 10
22791.60218285289
 20
32578.25506884179
 30
0.0
 11
22791.60218285289
 21
32582.31019773473
 31
0.0
  0
LINE
  5
101
330
51
100
AcDbEntity
  8
1
  6
PHANTOM
 62
     2
100
AcDbLine
 10
22769.00218285288
 20
32614.46207095923
 30
0.0
 11
22769.00218285288
 21
32566.18118817313
 31
0.0
  0
LINE
  5
102
330
51
100
AcDbEntity
  8
1
  6
Continuous
 62
     7
100
AcDbLine
 10
22745.10218285291
 20
32582.00506884179
 30
0.0
 11
22749.00218285288
 21
32584.25673489161
 31
0.0
  0
LINE
  5
103
330
51
100
AcDbEntity
  8
1
  6
Continuous
 62
     7
100
AcDbLine
 10
22749.00218285288
 20
32584.25673489161
 30
0.0
 11
22789.00218285288
 21
32584.25673489161
 31
0.0
  0
LINE
  5
104
330
51
100
AcDbEntity
  8
1
  6
Continuous
 62
     7
100
AcDbLine
 10
22765.66765907374
 20
32611.33959262095
 30
0.0
 11
22789.00218285288
 21
32588.00506884179
 31
0.0
  0
LINE
  5
105
330
51
100
AcDbEntity
  8
1
  6
Continuous
 62
     7
100
AcDbLine
 10
22827.50218285286
 20
32630.00506884179
 30
0.0
 11
22827.50218285286
 21
32586.00506884179
 31
0.0
  0
LINE
  5
106
330
51
100
AcDbEntity
  8
1
  6
Continuous
 62
     7
100
AcDbLine
 10
22793.00218285288
 20
32586.00506884179
 30
0.0
 11
22793.00218285288
 21
32630.00506884179
 31
0.0
  0
LINE
  5
107
330
51
100
AcDbEntity
  8
1
  6
Continuous
 62
     7
100
AcDbLine
 10
22791.00218285288
 20
32628.00506884179
 30
0.0
 11
22791.00218285288
 21
32588.00506884179
 31
0.0
  0
LINE
  5
108
330
51
100
AcDbEntity
  8
1
  6
PHANTOM
 62
     2
100
AcDbLine
 10
22763.53270506006
 20
32608.00506884179
 30
0.0
 11
22827.50218285286
 21
32608.00506884179
 31
0.0
  0
LINE
  5
109
330
51
100
AcDbEntity
  8
1
  6
Continuous
 62
     7
100
AcDbLine
 10
22787.00218285288
 20
32583.10203435325
 30
0.0
 11
22787.00218285288
 21
32583.10203435323
 31
0.0
  0
LINE
  5
10A
330
51
100
AcDbEntity
  8
1
  6
Continuous
 62
     7
100
AcDbLine
 10
22749.00218285288
 20
32584.25673489161
 30
0.0
 11
22749.00218285288
 21
32584.25673489165
 31
0.0
  0
LINE
  5
10B
330
51
100
AcDbEntity
  8
1
  6
Continuous
 62
     7
100
AcDbLine
 10
22745.10218285291
 20
32582.00506884179
 30
0.0
 11
22745.10218285291
 21
32578.25506884179
 31
0.0
  0
LINE
  5
10C
330
51
100
AcDbEntity
  8
1
  6
Continuous
 62
     7
100
AcDbLine
 10
22792.80459782268
 20
32582.06140958525
 30
0.0
 11
22792.90218285289
 21
32582.00506884179
 31
0.0
  0
LINE
  5
10D
330
51
100
AcDbEntity
  8
1
  6
Continuous
 62
     7
100
AcDbLine
 10
22792.9021828529
 20
32578.25506884179
 30
0.0
 11
22792.90218285289
 21
32582.00506884179
 31
0.0
  0
LINE
  5
10E
330
51
100
AcDbEntity
  8
1
  6
Continuous
 62
     7
100
AcDbLine
 10
22789.00218285288
 20
32588.00506884179
 30
0.0
 11
22789.00218285288
 21
32584.25673489161
 31
0.0
  0
LINE
  5
10F
330
51
100
AcDbEntity
  8
1
  6
Continuous
 62
     7
100
AcDbLine
 10
22749.00218285288
 20
32608.00506884179
 30
0.0
 11
22749.00218285288
 21
32584.25673489165
 31
0.0
  0
LINE
  5
110
330
51
100
AcDbEntity
  8
1
  6
Continuous
 62
     7
100
AcDbLine
 10
22769.00218285288
 20
32628.00506884179
 30
0.0
 11
22791.00218285288
 21
32628.00506884179
 31
0.0
  0
LINE
  5
111
330
51
100
AcDbEntity
  8
1
  6
Continuous
 62
     7
100
AcDbLine
 10
22791.00218285288
 20
32588.00506884179
 30
0.0
 11
22793.00218285288
 21
32586.00506884179
 31
0.0
  0
LINE
  5
112
330
51
100
AcDbEntity
  8
1
  6
Continuous
 62
     7
100
AcDbLine
 10
22793.00218285288
 20
32630.00506884179
 30
0.0
 11
22827.50218285286
 21
32630.00506884179
 31
0.0
  0
LINE
  5
113
330
51
100
AcDbEntity
  8
1
  6
Continuous
 62
     7
100
AcDbLine
 10
22793.00218285288
 20
32630.00506884179
 30
0.0
 11
22791.00218285288
 21
32628.00506884179
 31
0.0
  0
LINE
  5
114
330
51
100
AcDbEntity
  8
1
  6
Continuous
 62
     7
100
AcDbLine
 10
22829.00218285288
 20
32631.9050688418
 30
0.0
 11
22828.59914836433
 21
32631.9050688418
 31
0.0
  0
LINE
  5
115
330
51
100
AcDbEntity
  8
1
  6
Continuous
 62
     2
100
AcDbLine
 10
22829.00218285288
 20
32630.7050688418
 30
0.0
 11
22828.09045618155
 21
32630.7050688418
 31
0.0
  0
LINE
  5
116
330
51
100
AcDbEntity
  8
1
  6
Continuous
 62
     2
100
AcDbLine
 10
22829.00218285288
 20
32585.30506884179
 30
0.0
 11
22827.90632804131
 21
32585.30506884179
 31
0.0
  0
LINE
  5
117
330
51
100
AcDbEntity
  8
1
  6
Continuous
 62
     7
100
AcDbLine
 10
22827.90632804131
 20
32585.30506884179
 30
0.0
 11
22828.59914836433
 21
32584.10506884179
 31
0.0
  0
LINE
  5
118
330
51
100
AcDbEntity
  8
1
  6
Continuous
 62
     7
100
AcDbLine
 10
22829.00218285288
 20
32584.10506884179
 30
0.0
 11
22828.59914836433
 21
32584.10506884179
 31
0.0
  0
LINE
  5
119
330
51
100
AcDbEntity
  8
1
  6
Continuous
 62
     7
100
AcDbLine
 10
22827.73312296054
 20
32585.60506884179
 30
0.0
 11
22827.90632804131
 21
32585.30506884179
 31
0.0
  0
LINE
  5
11A
330
51
100
AcDbEntity
  8
1
  6
Continuous
 62
     7
100
AcDbLine
 10
22827.73312296054
 20
32630.4050688418
 30
0.0
 11
22827.50218285286
 21
32630.00506884179
 31
0.0
  0
LINE
  5
11B
330
51
100
AcDbEntity
  8
1
  6
Continuous
 62
     7
100
AcDbLine
 10
22828.59914836433
 20
32631.9050688418
 30
0.0
 11
22827.73312296054
 21
32630.4050688418
 31
0.0
  0
LINE
  5
11C
330
51
100
AcDbEntity
  8
1
  6
Continuous
 62
     7
100
AcDbLine
 10
22793.00218285288
 20
32586.00506884179
 30
0.0
 11
22827.50218285286
 21
32586.00506884179
 31
0.0
  0
LINE
  5
11D
330
51
100
AcDbEntity
  8
1
  6
Continuous
 62
     7
100
AcDbLine
 10
22827.50218285286
 20
32586.00506884179
 30
0.0
 11
22827.73312296054
 21
32585.60506884179
 31
0.0
  0
LINE
  5
11E
330
51
100
AcDbEntity
  8
1
  6
Continuous
 62
     7
100
AcDbLine
 10
22789.00218285288
 20
32588.00506884179
 30
0.0
 11
22791.00218285288
 21
32588.00506884179
 31
0.0
  0
LINE
  5
11F
330
51
100
AcDbEntity
  8
1
  6
Continuous
 62
     7
100
AcDbLine
 10
22791.83060997764
 20
32626.00506884179
 30
0.0
 11
22791.83060997764
 21
32626.00506884179
 31
0.0
  0
ARC
  5
120
330
51
100
AcDbEntity
  8
1
  6
Continuous
 62
     7
100
AcDbCircle
 10
22769.00218285288
 20
32608.00506884179
 30
0.0
 40
20.0
100
AcDbArc
 50
90.0
 51
180.0
  0
ENDBLK
  5
53
330
51
100
AcDbEntity
  8
0
100
AcDbBlockEnd
  0
BLOCK
  5
56
330
54
100
AcDbEntity
  8
0
100
AcDbBlockBegin
  2
HL_126_2
 70
     0
 10
-298.4499999999844
 20
-28.65718611056901
 30
0.0
  3
HL_126_2
  1

  0
INSERT
  5
55
330
54
100
AcDbEntity
  8
0
100
AcDbBlockReference
  2
Knie_DN40_6_4_kurz_025U_2E
 10
-507.5509200202396
 20
2261.719403003408
 30
0.0
  0
ENDBLK
  5
57
330
54
100
AcDbEntity
  8
0
100
AcDbBlockEnd
  0
BLOCK
  5
59
330
58
100
AcDbEntity
  8
0
100
AcDbBlockBegin
  2
Pfeife_DN40_6_4_abgesetzt
 70
     0
 10
23049.92157287526
 20
34718.4315001279
 30
0.0
  3
Pfeife_DN40_6_4_abgesetzt
  1

  0
LINE
  5
121
330
58
100
AcDbEntity
  8
1
  6
DOT_CENTER
 62
     2
100
AcDbLine
 10
23432.12860435671
 20
32576.78938207904
 30
0.0
 11
23438.12860435671
 21
32576.78938207904
 31
0.0
  0
LINE
  5
122
330
58
100
AcDbEntity
  8
1
  6
PHANTOM
 62
     2
100
AcDbLine
 10
23401.75
 20
32587.72331362635
 30
0.0
 11
23401.75
 21
32550.97468314055
 31
0.0
  0
LINE
  5
123
330
58
100
AcDbEntity
  8
1
  6
PHANTOM
 62
     2
100
AcDbLine
 10
23401.75
 20
32554.78938207904
 30
0.0
 11
23139.25
 21
32554.78938207904
 31
0.0
  0
LINE
  5
124
330
58
100
AcDbEntity
  8
1
  6
Continuous
 62
     7
100
AcDbLine
 10
23153.05526077911
 20
32574.78938207904
 30
0.0
 11
23359.40786437626
 21
32574.78938207904
 31
0.0
  0
LINE
  5
125
330
58
100
AcDbEntity
  8
1
  6
Continuous
 62
     7
100
AcDbLine
 10
23401.75
 20
32534.78938207904
 30
0.0
 11
23153.75
 21
32534.78938207904
 31
0.0
  0
LINE
  5
126
330
58
100
AcDbEntity
  8
1
  6
Continuous
 62
     7
100
AcDbLine
 10
23421.75
 20
32567.28938207904
 30
0.0
 11
23421.75
 21
32554.78938207904
 31
0.0
  0
LINE
  5
127
330
58
100
AcDbEntity
  8
1
  6
Continuous
 62
     7
100
AcDbLine
 10
23375.54999999997
 20
32562.78938207904
 30
0.0
 11
23366.47893218813
 21
32571.8604498909
 31
0.0
  0
LINE
  5
128
330
58
100
AcDbEntity
  8
1
  6
Continuous
 62
     7
100
AcDbLine
 10
23375.54999999997
 20
32562.78938207904
 30
0.0
 11
23381.75
 21
32562.78938207904
 31
0.0
  0
LINE
  5
129
330
58
100
AcDbEntity
  8
1
  6
Continuous
 62
     7
100
AcDbLine
 10
23381.75
 20
32567.28938207904
 30
0.0
 11
23381.75
 21
32562.78938207904
 31
0.0
  0
LINE
  5
12A
330
58
100
AcDbEntity
  8
1
  6
Continuous
 62
     7
100
AcDbLine
 10
23381.75
 20
32562.78938207904
 30
0.0
 11
23401.75
 21
32554.78938207904
 31
0.0
  0
LINE
  5
12B
330
58
100
AcDbEntity
  8
1
  6
Continuous
 62
     7
100
AcDbLine
 10
23153.75
 20
32574.78938207904
 30
0.0
 11
23153.05526077911
 21
32574.78938207904
 31
0.0
  0
ARC
  5
12C
330
58
100
AcDbEntity
  8
1
  6
Continuous
 62
     7
100
AcDbCircle
 10
23401.75
 20
32554.78938207904
 30
0.0
 40
20.0
100
AcDbArc
 50
270.0
 51
0.0
  0
ARC
  5
12D
330
58
100
AcDbEntity
  8
1
  6
Continuous
 62
     7
100
AcDbCircle
 10
23359.40786437626
 20
32564.78938207904
 30
0.0
 40
9.999999999999115
100
AcDbArc
 50
44.99999999995578
 51
90.0
  0
ENDBLK
  5
5A
330
58
100
AcDbEntity
  8
0
100
AcDbBlockEnd
  0
BLOCK
  5
5C
330
5B
100
AcDbEntity
  8
0
100
AcDbBlockBegin
  2
Holländermutter_6_4__1
 70
     0
 10
0.00000000001578
 20
0.50000000001249
 30
0.0
  3
Holländermutter_6_4__1
  1

  0
LINE
  5
12E
330
5B
100
AcDbEntity
  8
1
  6
DOT_CENTER
 62
     2
100
AcDbLine
 10
22.00000000000659
 20
8.50000000001249
 30
0.0
 11
22.00000000000659
 21
10.50000000001249
 31
0.0
  0
LINE
  5
12F
330
5B
100
AcDbEntity
  8
1
  6
DOT_CENTER
 62
     2
100
AcDbLine
 10
-21.99999999999341
 20
10.50000000001249
 30
0.0
 11
-21.99999999999341
 21
8.50000000001249
 31
0.0
  0
LINE
  5
130
330
5B
100
AcDbEntity
  8
0
  6
Continuous
 62
     7
100
AcDbLine
 10
26.11649281481641
 20
-9.49999999998751
 30
0.0
 11
-26.11649281480345
 21
-9.49999999998751
 31
0.0
  0
LINE
  5
131
330
5B
100
AcDbEntity
  8
0
  6
Continuous
 62
     7
100
AcDbLine
 10
28.50000000000659
 20
-7.49999999998751
 30
0.0
 11
26.11649281481641
 21
-9.49999999998751
 31
0.0
  0
LINE
  5
132
330
5B
100
AcDbEntity
  8
0
  6
Continuous
 62
     7
100
AcDbLine
 10
-28.49999999997522
 20
-7.50000000002344
 30
0.0
 11
-28.49999999999341
 21
5.00000000001249
 31
0.0
  0
LINE
  5
133
330
5B
100
AcDbEntity
  8
0
  6
Continuous
 62
     7
100
AcDbLine
 10
28.50000000000659
 20
-7.49999999998751
 30
0.0
 11
28.50000000000659
 21
5.00000000001249
 31
0.0
  0
LINE
  5
134
330
5B
100
AcDbEntity
  8
0
  6
Continuous
 62
     7
100
AcDbLine
 10
27.52442052345509
 20
5.00000000001249
 30
0.0
 11
28.50000000000659
 21
5.00000000001249
 31
0.0
  0
LINE
  5
135
330
5B
100
AcDbEntity
  8
0
  6
Continuous
 62
     7
100
AcDbLine
 10
-27.5244205234419
 20
5.00000000001249
 30
0.0
 11
-28.49999999999341
 21
5.00000000001249
 31
0.0
  0
LINE
  5
136
330
5B
100
AcDbEntity
  8
0
  6
Continuous
 62
     7
100
AcDbLine
 10
-28.49999999997522
 20
-7.50000000002344
 30
0.0
 11
-26.11649281480345
 21
-9.49999999998751
 31
0.0
  0
LINE
  5
137
330
5B
100
AcDbEntity
  8
0
  6
Continuous
 62
     7
100
AcDbLine
 10
27.52442052345509
 20
5.00000000001249
 30
0.0
 11
26.42442052345291
 21
5.00000000001249
 31
0.0
  0
LINE
  5
138
330
5B
100
AcDbEntity
  8
0
  6
Continuous
 62
     7
100
AcDbLine
 10
-20.8769179627277
 20
-6.49999999998751
 30
0.0
 11
-20.8769179627277
 21
-5.49999999998751
 31
0.0
  0
LINE
  5
139
330
5B
100
AcDbEntity
  8
0
  6
Continuous
 62
     7
100
AcDbLine
 10
-20.8769179627277
 20
-8.25771736330968
 30
0.0
 11
-20.8769179627277
 21
-6.49999999998751
 31
0.0
  0
LINE
  5
13A
330
5B
100
AcDbEntity
  8
0
  6
Continuous
 62
     7
100
AcDbLine
 10
-1.99999999999341
 20
-9.17819926234258
 30
0.0
 11
-17.27067337867356
 21
-9.17819926234258
 31
0.0
  0
LINE
  5
13B
330
5B
100
AcDbEntity
  8
0
  6
Continuous
 62
     7
100
AcDbLine
 10
17.27067337869016
 20
-9.17819926234258
 30
0.0
 11
2.00000000000659
 21
-9.17819926234258
 31
0.0
  0
LINE
  5
13C
330
5B
100
AcDbEntity
  8
0
  6
Continuous
 62
     7
100
AcDbLine
 10
17.27067337869016
 20
-9.17819926234258
 30
0.0
 11
17.27067337869016
 21
5.00000000001249
 31
0.0
  0
LINE
  5
13D
330
5B
100
AcDbEntity
  8
0
  6
Continuous
 62
     7
100
AcDbLine
 10
-1.99999999999341
 20
-9.17819926234258
 30
0.0
 11
-1.99999999999341
 21
-8.25771736330968
 31
0.0
  0
LINE
  5
13E
330
5B
100
AcDbEntity
  8
0
  6
Continuous
 62
     7
100
AcDbLine
 10
-17.27067337867356
 20
-9.17819926234258
 30
0.0
 11
-17.27067337867356
 21
5.00000000001249
 31
0.0
  0
LINE
  5
13F
330
5B
100
AcDbEntity
  8
0
  6
Continuous
 62
     7
100
AcDbLine
 10
-1.99999999999341
 20
-8.25771736330968
 30
0.0
 11
-1.99999999999341
 21
5.00000000001249
 31
0.0
  0
LINE
  5
140
330
5B
100
AcDbEntity
  8
0
  6
Continuous
 62
     7
100
AcDbLine
 10
20.87691796274089
 20
-8.25771736330968
 30
0.0
 11
20.87691796274089
 21
-6.49999999998751
 31
0.0
  0
LINE
  5
141
330
5B
100
AcDbEntity
  8
0
  6
Continuous
 62
     7
100
AcDbLine
 10
18.048490837994
 20
-8.25771736330968
 30
0.0
 11
18.048490837994
 21
5.00000000001249
 31
0.0
  0
LINE
  5
142
330
5B
100
AcDbEntity
  8
0
  6
Continuous
 62
     7
100
AcDbLine
 10
-18.04849083799218
 20
-8.25771736336061
 30
0.0
 11
-18.04849083798126
 21
5.00000000001249
 31
0.0
  0
LINE
  5
143
330
5B
100
AcDbEntity
  8
0
  6
Continuous
 62
     7
100
AcDbLine
 10
2.00000000000659
 20
-8.25771736330968
 30
0.0
 11
2.00000000000659
 21
5.00000000001249
 31
0.0
  0
LINE
  5
144
330
5B
100
AcDbEntity
  8
0
  6
Continuous
 62
     7
100
AcDbLine
 10
-20.15254326380887
 20
-7.49999999998751
 30
0.0
 11
-20.15254326380887
 21
5.00000000001249
 31
0.0
  0
LINE
  5
145
330
5B
100
AcDbEntity
  8
0
  6
Continuous
 62
     7
100
AcDbLine
 10
20.15254326382205
 20
-7.49999999998751
 30
0.0
 11
20.15254326382205
 21
5.00000000001249
 31
0.0
  0
LINE
  5
146
330
5B
100
AcDbEntity
  8
0
  6
Continuous
 62
     7
100
AcDbLine
 10
0.00000000000659
 20
-7.49999999998751
 30
0.0
 11
0.00000000000659
 21
5.00000000001249
 31
0.0
  0
LINE
  5
147
330
5B
100
AcDbEntity
  8
0
  6
Continuous
 62
     7
100
AcDbLine
 10
20.87691796274089
 20
-6.49999999998751
 30
0.0
 11
20.87691796274089
 21
5.00000000001249
 31
0.0
  0
LINE
  5
148
330
5B
100
AcDbEntity
  8
0
  6
Continuous
 62
     7
100
AcDbLine
 10
-20.8769179627277
 20
-5.49999999998751
 30
0.0
 11
-20.8769179627277
 21
5.00000000001249
 31
0.0
  0
LINE
  5
149
330
5B
100
AcDbEntity
  8
0
  6
Continuous
 62
     7
100
AcDbLine
 10
-20.15254326380887
 20
5.00000000001249
 30
0.0
 11
-20.8769179627277
 21
5.00000000001249
 31
0.0
  0
LINE
  5
14A
330
5B
100
AcDbEntity
  8
0
  6
Continuous
 62
     7
100
AcDbLine
 10
-17.27067337867356
 20
5.00000000001249
 30
0.0
 11
-18.04849083798126
 21
5.00000000001249
 31
0.0
  0
LINE
  5
14B
330
5B
100
AcDbEntity
  8
0
  6
Continuous
 62
     7
100
AcDbLine
 10
-1.99999999999341
 20
5.00000000001249
 30
0.0
 11
-17.27067337867356
 21
5.00000000001249
 31
0.0
  0
LINE
  5
14C
330
5B
100
AcDbEntity
  8
0
  6
Continuous
 62
     7
100
AcDbLine
 10
20.87691796274089
 20
5.00000000001249
 30
0.0
 11
20.15254326382205
 21
5.00000000001249
 31
0.0
  0
LINE
  5
14D
330
5B
100
AcDbEntity
  8
0
  6
Continuous
 62
     7
100
AcDbLine
 10
20.15254326382205
 20
5.00000000001249
 30
0.0
 11
20.09910050343319
 21
5.00000000001249
 31
0.0
  0
LINE
  5
14E
330
5B
100
AcDbEntity
  8
0
  6
Continuous
 62
     7
100
AcDbLine
 10
2.00000000000659
 20
5.00000000001249
 30
0.0
 11
0.00000000000659
 21
5.00000000001249
 31
0.0
  0
LINE
  5
14F
330
5B
100
AcDbEntity
  8
0
  6
Continuous
 62
     7
100
AcDbLine
 10
18.048490837994
 20
5.00000000001249
 30
0.0
 11
17.27067337869016
 21
5.00000000001249
 31
0.0
  0
LINE
  5
150
330
5B
100
AcDbEntity
  8
0
  6
Continuous
 62
     7
100
AcDbLine
 10
18.048490837994
 20
5.00000000001249
 30
0.0
 11
20.09910050343319
 21
5.00000000001249
 31
0.0
  0
LINE
  5
151
330
5B
100
AcDbEntity
  8
0
  6
Continuous
 62
     7
100
AcDbLine
 10
-1.99999999999341
 20
5.00000000001249
 30
0.0
 11
0.00000000000659
 21
5.00000000001249
 31
0.0
  0
LINE
  5
152
330
5B
100
AcDbEntity
  8
0
  6
Continuous
 62
     7
100
AcDbLine
 10
-20.15254326380887
 20
5.00000000001249
 30
0.0
 11
-20.09910050342
 21
5.00000000001249
 31
0.0
  0
LINE
  5
153
330
5B
100
AcDbEntity
  8
0
  6
Continuous
 62
     7
100
AcDbLine
 10
26.42442052345291
 20
-9.17819926234258
 30
0.0
 11
20.09910050343319
 21
-9.17819926234258
 31
0.0
  0
LINE
  5
154
330
5B
100
AcDbEntity
  8
0
  6
Continuous
 62
     7
100
AcDbLine
 10
26.42442052345291
 20
-9.17819926234258
 30
0.0
 11
26.42442052345291
 21
5.00000000001249
 31
0.0
  0
LINE
  5
155
330
5B
100
AcDbEntity
  8
0
  6
Continuous
 62
     7
100
AcDbLine
 10
26.42442052345291
 20
5.00000000001249
 30
0.0
 11
20.87691796274089
 21
5.00000000001249
 31
0.0
  0
LINE
  5
156
330
5B
100
AcDbEntity
  8
0
  6
Continuous
 62
     7
100
AcDbLine
 10
27.52442052345509
 20
-8.25771736330968
 30
0.0
 11
27.52442052345509
 21
5.00000000001249
 31
0.0
  0
LINE
  5
157
330
5B
100
AcDbEntity
  8
0
  6
Continuous
 62
     7
100
AcDbLine
 10
-28.49999999999341
 20
7.50000000001249
 30
0.0
 11
28.50000000000659
 21
7.50000000001249
 31
0.0
  0
LINE
  5
158
330
5B
100
AcDbEntity
  8
0
  6
Continuous
 62
     7
100
AcDbLine
 10
28.50000000000659
 20
5.00000000001249
 30
0.0
 11
28.50000000000659
 21
7.50000000001249
 31
0.0
  0
LINE
  5
159
330
5B
100
AcDbEntity
  8
0
  6
Continuous
 62
     7
100
AcDbLine
 10
-28.49999999999341
 20
5.00000000001249
 30
0.0
 11
-28.49999999999341
 21
7.50000000001249
 31
0.0
  0
LINE
  5
15A
330
5B
100
AcDbEntity
  8
0
  6
Continuous
 62
     7
100
AcDbLine
 10
-26.42442052343972
 20
-9.17819926234258
 30
0.0
 11
-26.42442052343972
 21
5.00000000001249
 31
0.0
  0
LINE
  5
15B
330
5B
100
AcDbEntity
  8
0
  6
Continuous
 62
     7
100
AcDbLine
 10
2.00000000000659
 20
-9.17819926234258
 30
0.0
 11
2.00000000000659
 21
-8.25771736330968
 31
0.0
  0
LINE
  5
15C
330
5B
100
AcDbEntity
  8
0
  6
Continuous
 62
     7
100
AcDbLine
 10
-26.42442052343972
 20
-9.17819926234258
 30
0.0
 11
-20.09910050342
 21
-9.17819926234258
 31
0.0
  0
LINE
  5
15D
330
5B
100
AcDbEntity
  8
0
  6
Continuous
 62
     7
100
AcDbLine
 10
-27.5244205234419
 20
-8.25771736330968
 30
0.0
 11
-27.5244205234419
 21
5.00000000001249
 31
0.0
  0
LINE
  5
15E
330
5B
100
AcDbEntity
  8
0
  6
Continuous
 62
     7
100
AcDbLine
 10
-27.5244205234419
 20
5.00000000001249
 30
0.0
 11
-26.42442052343972
 21
5.00000000001249
 31
0.0
  0
LINE
  5
15F
330
5B
100
AcDbEntity
  8
0
  6
Continuous
 62
     7
100
AcDbLine
 10
17.27067337869016
 20
5.00000000001249
 30
0.0
 11
2.00000000000659
 21
5.00000000001249
 31
0.0
  0
LINE
  5
160
330
5B
100
AcDbEntity
  8
0
  6
Continuous
 62
     7
100
AcDbLine
 10
-26.42442052343972
 20
5.00000000001249
 30
0.0
 11
-20.8769179627277
 21
5.00000000001249
 31
0.0
  0
LINE
  5
161
330
5B
100
AcDbEntity
  8
0
  6
Continuous
 62
     7
100
AcDbLine
 10
-20.09910050342
 20
5.00000000001249
 30
0.0
 11
-18.04849083798126
 21
5.00000000001249
 31
0.0
  0
LINE
  5
162
330
5B
100
AcDbEntity
  8
1
  6
PHANTOM
 62
     2
100
AcDbLine
 10
0.00000000000659
 20
5.00000000001249
 30
0.0
 11
0.00000000000659
 21
7.50000000001249
 31
0.0
  0
SPLINE
  5
163
330
5B
100
AcDbEntity
  8
0
  6
Continuous
 62
     7
100
AcDbSpline
210
0.0
220
0.0
230
1.0
 70
     8
 71
     3
 72
    11
 73
     7
 74
     5
 42
0.000000001
 43
0.0000000001
 44
0.00000001
 40
0.0
 40
0.0
 40
0.0
 40
0.0
 40
0.3158789477961748
 40
0.6240832434648949
 40
0.9336075373334596
 40
1.235572027457594
 40
1.235572027457594
 40
1.235572027457594
 40
1.235572027457594
 10
28.50000000000659
 20
-7.499999999987507
 30
0.0
 10
28.41900125411376
 20
-7.567279624212226
 30
0.0
 10
28.25897171307085
 20
-7.700204223211079
 30
0.0
 10
28.01491638494571
 20
-7.893330451478455
 30
0.0
 10
27.77130955332262
 20
-8.079492017287862
 30
0.0
 10
27.60603577934614
 20
-8.198800587178862
 30
0.0
 10
27.52442052345509
 20
-8.257717363309677
 30
0.0
 11
28.50000000000659
 21
-7.499999999987507
 31
0.0
 11
28.25620632311688
 21
-7.700858539287156
 31
0.0
 11
28.01472826913528
 21
-7.892374171630546
 31
0.0
 11
27.76846068243754
 21
-8.079877676588309
 31
0.0
 11
27.52442052345509
 21
-8.257717363309677
 31
0.0
  0
SPLINE
  5
164
330
5B
100
AcDbEntity
  8
0
  6
Continuous
 62
     7
100
AcDbSpline
210
0.0
220
0.0
230
1.0
 70
     8
 71
     3
 72
    11
 73
     7
 74
     5
 42
0.000000001
 43
0.0000000001
 44
0.00000001
 40
0.0
 40
0.0
 40
0.0
 40
0.0
 40
0.2532283968018743
 40
0.5152040065318135
 40
0.7778363652525269
 40
1.048535546975994
 40
1.048535546975994
 40
1.048535546975994
 40
1.048535546975994
 10
-20.8769179627277
 20
-8.257717363309677
 30
0.0
 10
-20.81639550896359
 20
-8.198873218240227
 30
0.0
 10
-20.69325999821539
 20
-8.079152276925745
 30
0.0
 10
-20.5125665008141
 20
-7.893168385586023
 30
0.0
 10
-20.33116111358366
 20
-7.699825177544655
 30
0.0
 10
-20.21267989970215
 20
-7.567276676442514
 30
0.0
 10
-20.15254326380887
 20
-7.499999999987507
 30
0.0
 11
-20.8769179627277
 21
-8.257717363309677
 31
0.0
 11
-20.69618460302794
 21
-8.08034748507346
 31
0.0
 11
-20.51326955957916
 21
-7.892802005006397
 31
0.0
 11
-20.33376954988922
 21
-7.701084758855715
 31
0.0
 11
-20.15254326380887
 21
-7.499999999987507
 31
0.0
  0
SPLINE
  5
165
330
5B
100
AcDbEntity
  8
0
  6
Continuous
 62
     7
100
AcDbSpline
210
0.0
220
0.0
230
1.0
 70
     8
 71
     3
 72
    11
 73
     7
 74
     5
 42
0.000000001
 43
0.0000000001
 44
0.00000001
 40
0.0
 40
0.0
 40
0.0
 40
0.0
 40
0.5373994098884061
 40
1.069443421120882
 40
1.607942799014409
 40
2.13896765657653
 40
2.13896765657653
 40
2.13896765657653
 40
2.13896765657653
 10
0.0000000000065938
 20
-7.499999999987507
 30
0.0
 10
-0.1660278880745338
 20
-7.567264003683425
 30
0.0
 10
-0.4964291359234498
 20
-7.701121684670397
 30
0.0
 10
-0.9964825293236866
 20
-7.894104975372903
 30
0.0
 10
-1.496754386632707
 20
-8.080533408061502
 30
0.0
 10
-1.833034841594881
 20
-8.198931864337508
 30
0.0
 10
-1.999999999993406
 20
-8.257717363309677
 30
0.0
 11
0.0000000000065938
 21
-7.499999999987507
 31
0.0
 11
-0.4986352671428449
 21
-7.700402086207374
 31
0.0
 11
-0.9948383386333717
 21
-7.892374328663447
 31
0.0
 11
-1.499646830788834
 21
-8.079857571633353
 31
0.0
 11
-1.999999999993406
 21
-8.257717363309677
 31
0.0
  0
SPLINE
  5
166
330
5B
100
AcDbEntity
  8
0
  6
Continuous
 62
     7
100
AcDbSpline
210
0.0
220
0.0
230
1.0
 70
     8
 71
     3
 72
    11
 73
     7
 74
     5
 42
0.000000001
 43
0.0000000001
 44
0.00000001
 40
0.0
 40
0.0
 40
0.0
 40
0.0
 40
0.5642569841861743
 40
1.117752099907131
 40
1.680943573996667
 40
2.236567026744773
 40
2.236567026744773
 40
2.236567026744773
 40
2.236567026744773
 10
20.15254326382205
 20
-7.499999999987507
 30
0.0
 10
19.9770192347085
 20
-7.567591352611953
 30
0.0
 10
19.62931887721387
 20
-7.701484898615425
 30
0.0
 10
19.10325871888537
 20
-7.894444952468804
 30
0.0
 10
18.57779140402731
 20
-8.080576970298775
 30
0.0
 10
18.22412692846627
 20
-8.198937446377716
 30
0.0
 10
18.048490837994
 20
-8.257717363309677
 30
0.0
 11
20.15254326382205
 21
-7.499999999987507
 31
0.0
 11
19.6254344725709
 21
-7.701351102412344
 31
0.0
 11
19.10594725395936
 21
-7.892374328663447
 31
0.0
 11
18.57487762808762
 21
-8.07985683216624
 31
0.0
 11
18.048490837994
 21
-8.257717363309677
 31
0.0
  0
SPLINE
  5
167
330
5B
100
AcDbEntity
  8
0
  6
Continuous
 62
     7
100
AcDbSpline
210
0.0
220
0.0
230
1.0
 70
     8
 71
     3
 72
    11
 73
     7
 74
     5
 42
0.000000001
 43
0.0000000001
 44
0.00000001
 40
0.0
 40
0.0
 40
0.0
 40
0.0
 40
0.2712732238835828
 40
0.5327401942681207
 40
0.7946573268783799
 40
1.048535542549478
 40
1.048535542549478
 40
1.048535542549478
 40
1.048535542549478
 10
20.15254326382205
 20
-7.499999999987507
 30
0.0
 10
20.21280799831797
 20
-7.567418854461281
 30
0.0
 10
20.33115896894516
 20
-7.699819429840601
 30
0.0
 10
20.51241573184785
 20
-7.893004794166011
 30
0.0
 10
20.69296614909932
 20
-8.07886091128868
 30
0.0
 10
20.81624112115911
 20
-8.198721243018488
 30
0.0
 10
20.87691796274089
 20
-8.257717363309677
 30
0.0
 11
20.15254326382205
 21
-7.499999999987507
 31
0.0
 11
20.33415785977482
 21
-7.701507569481192
 31
0.0
 11
20.51286112483581
 21
-7.892374328663447
 31
0.0
 11
20.69572587485914
 21
-8.079887175353019
 31
0.0
 11
20.87691796274089
 21
-8.257717363309677
 31
0.0
  0
SPLINE
  5
168
330
5B
100
AcDbEntity
  8
0
  6
Continuous
 62
     7
100
AcDbSpline
210
0.0
220
0.0
230
1.0
 70
     8
 71
     3
 72
    11
 73
     7
 74
     5
 42
0.000000001
 43
0.0000000001
 44
0.00000001
 40
0.0
 40
0.0
 40
0.0
 40
0.0
 40
0.5401144726115183
 40
1.069443422464165
 40
1.607110367596581
 40
2.138967657364975
 40
2.138967657364975
 40
2.138967657364975
 40
2.138967657364975
 10
0.0000000000065938
 20
-7.499999999987507
 30
0.0
 10
0.1668677818429456
 20
-7.567601250063493
 30
0.0
 10
0.4972711754748572
 20
-7.701453809914007
 30
0.0
 10
0.9970718974906951
 20
-7.894320659603531
 30
0.0
 10
1.496493592878019
 20
-8.080438491486262
 30
0.0
 10
1.832773419932454
 20
-8.198838794205468
 30
0.0
 10
2.000000000006594
 20
-8.257717363309677
 30
0.0
 11
0.0000000000065938
 21
-7.499999999987507
 31
0.0
 11
0.501161042301419
 21
-7.701398245433905
 31
0.0
 11
0.9948383386465594
 21
-7.892374328663447
 31
0.0
 11
1.49886445535435
 21
-8.079573200773222
 31
0.0
 11
2.000000000006594
 21
-8.257717363309677
 31
0.0
  0
SPLINE
  5
169
330
5B
100
AcDbEntity
  8
0
  6
Continuous
 62
     7
100
AcDbSpline
210
0.0
220
0.0
230
1.0
 70
     8
 71
     3
 72
    11
 73
     7
 74
     5
 42
0.000000001
 43
0.0000000001
 44
0.00000001
 40
0.0
 40
0.0
 40
0.0
 40
0.0
 40
0.2998864799385386
 40
0.6025485779361979
 40
0.9017237172669057
 40
1.205108678842463
 40
1.205108678842463
 40
1.205108678842463
 40
1.205108678842463
 10
20.09910050343319
 20
-9.178199262342575
 30
0.0
 10
20.16362307513261
 20
-9.101849598488858
 30
0.0
 10
20.29326539973767
 20
-8.94844360198631
 30
0.0
 10
20.48726886188647
 20
-8.718861960095648
 30
0.0
 10
20.68201958337809
 20
-8.488385005851312
 30
0.0
 10
20.81164995000821
 20
-8.334963876030686
 30
0.0
 10
20.87691796274089
 20
-8.257717363309677
 30
0.0
 11
20.09910050343319
 21
-9.178199262342575
 31
0.0
 11
20.29266682788389
 21
-8.949149095591576
 31
0.0
 11
20.48801816644777
 21
-8.717973404642416
 31
0.0
 11
20.68111259638468
 21
-8.489455779236733
 31
0.0
 11
20.87691796274089
 21
-8.257717363309677
 31
0.0
  0
SPLINE
  5
16A
330
5B
100
AcDbEntity
  8
0
  6
Continuous
 62
     7
100
AcDbSpline
210
0.0
220
0.0
230
1.0
 70
     8
 71
     3
 72
    11
 73
     7
 74
     5
 42
0.000000001
 43
0.0000000001
 44
0.00000001
 40
0.0
 40
0.0
 40
0.0
 40
0.0
 40
0.3024286829093194
 40
0.6025600718402322
 40
0.9055648577535675
 40
1.205108678810605
 40
1.205108678810605
 40
1.205108678810605
 40
1.205108678810605
 10
-18.04849083799218
 20
-8.257717363360607
 30
0.0
 10
-17.98342855357197
 20
-8.334720394017246
 30
0.0
 10
-17.85379819624495
 20
-8.488141519014182
 30
0.0
 10
-17.6589737643738
 20
-8.718705725198168
 30
0.0
 10
-17.46476455771948
 20
-8.948530835456301
 30
0.0
 10
-17.33512222564624
 20
-9.101936838318661
 30
0.0
 10
-17.27067337867356
 20
-9.178199262342575
 30
0.0
 11
-18.04849083799218
 21
-8.257717363360607
 31
0.0
 11
-17.85330266577995
 21
-8.488725340873899
 31
0.0
 11
-17.65959106042737
 21
-8.717973382465297
 31
0.0
 11
-17.4640185324236
 21
-8.94941081802138
 31
0.0
 11
-17.27067337867356
 21
-9.178199262342575
 31
0.0
  0
SPLINE
  5
16B
330
5B
100
AcDbEntity
  8
0
  6
Continuous
 62
     7
100
AcDbSpline
210
0.0
220
0.0
230
1.0
 70
     8
 71
     3
 72
    11
 73
     7
 74
     5
 42
0.000000001
 43
0.0000000001
 44
0.00000001
 40
0.0
 40
0.0
 40
0.0
 40
0.0
 40
0.2994287919469621
 40
0.6025485779338551
 40
0.9027839839231191
 40
1.205108678839969
 40
1.205108678839969
 40
1.205108678839969
 40
1.205108678839969
 10
17.27067337869016
 20
-9.178199262342575
 30
0.0
 10
17.33509747659231
 20
-9.101966124355798
 30
0.0
 10
17.46473980283413
 20
-8.948560129237563
 30
0.0
 10
17.65897138341973
 20
-8.718708544309091
 30
0.0
 10
17.85382056174061
 20
-8.488115049860511
 30
0.0
 10
17.98345092496572
 20
-8.334693917163072
 30
0.0
 10
18.048490837994
 20
-8.257717363309677
 30
0.0
 11
17.27067337869016
 21
-9.178199262342575
 31
0.0
 11
17.46394428638473
 21
-8.949498677109785
 31
0.0
 11
17.65959104170111
 21
-8.717973404642416
 31
0.0
 11
17.8533697809535
 21
-8.488645911254778
 31
0.0
 11
18.048490837994
 21
-8.257717363309677
 31
0.0
  0
SPLINE
  5
16C
330
5B
100
AcDbEntity
  8
0
  6
Continuous
 62
     7
100
AcDbSpline
210
0.0
220
0.0
230
1.0
 70
     8
 71
     3
 72
    11
 73
     7
 74
     5
 42
0.000000001
 43
0.0000000001
 44
0.00000001
 40
0.0
 40
0.0
 40
0.0
 40
0.0
 40
0.302361364907215
 40
0.6025600718720858
 40
0.9059830063443166
 40
1.205108678842459
 40
1.205108678842459
 40
1.205108678842459
 40
1.205108678842459
 10
-20.8769179627277
 20
-8.257717363309677
 30
0.0
 10
-20.81187016072162
 20
-8.334703253855674
 30
0.0
 10
-20.68223980361266
 20
-8.48812437905074
 30
0.0
 10
-20.48732541148359
 20
-8.71879504994561
 30
0.0
 10
-20.29310171731429
 20
-8.94863729601812
 30
0.0
 10
-20.16345938371142
 20
-9.102043297587736
 30
0.0
 10
-20.09910050342
 20
-9.178199262342575
 30
0.0
 11
-20.8769179627277
 21
-8.257717363309677
 31
0.0
 11
-20.68177323841914
 21
-8.488673921049786
 31
0.0
 11
-20.48801818517381
 21
-8.717973382465297
 31
0.0
 11
-20.29217576130836
 21
-8.949730199362712
 31
0.0
 11
-20.09910050342
 21
-9.178199262342575
 31
0.0
  0
SPLINE
  5
16D
330
5B
100
AcDbEntity
  8
0
  6
Continuous
 62
     7
100
AcDbSpline
210
0.0
220
0.0
230
1.0
 70
     8
 71
     3
 72
    11
 73
     7
 74
     5
 42
0.000000001
 43
0.0000000001
 44
0.00000001
 40
0.0
 40
0.0
 40
0.0
 40
0.0
 40
0.3572711679016393
 40
0.717162281082095
 40
1.074171569536454
 40
1.434324554759882
 40
1.434324554759882
 40
1.434324554759882
 40
1.434324554759882
 10
26.42442052345291
 20
-9.178199262342575
 30
0.0
 10
26.51575595903186
 20
-9.101777020596462
 30
0.0
 10
26.69909660267064
 20
-8.948372105060523
 30
0.0
 10
26.97369735184158
 20
-8.71859094873979
 30
0.0
 10
27.24902938535876
 20
-8.488186849537346
 30
0.0
 10
27.43235560911148
 20
-8.334764705685714
 30
0.0
 10
27.52442052345509
 20
-8.257717363309677
 30
0.0
 11
26.42442052345291
 21
-9.178199262342575
 31
0.0
 11
26.6984254390733
 21
-8.948930874574511
 31
0.0
 11
26.97443315713394
 21
-8.717973404642416
 31
0.0
 11
27.24822446195981
 21
-8.488857814940117
 31
0.0
 11
27.52442052345509
 21
-8.257717363309677
 31
0.0
  0
SPLINE
  5
16E
330
5B
100
AcDbEntity
  8
0
  6
Continuous
 62
     7
100
AcDbSpline
210
0.0
220
0.0
230
1.0
 70
     8
 71
     3
 72
    11
 73
     7
 74
     5
 42
0.000000001
 43
0.0000000001
 44
0.00000001
 40
0.0
 40
0.0
 40
0.0
 40
0.0
 40
0.356522148858844
 40
0.7171622810821019
 40
1.074239850857537
 40
1.434324554759883
 40
1.434324554759883
 40
1.434324554759883
 40
1.434324554759883
 10
-26.42442052343972
 20
-9.178199262342575
 30
0.0
 10
-26.51556447541854
 20
-9.101937241209866
 30
0.0
 10
-26.69890512135864
 20
-8.948532328424498
 30
0.0
 10
-26.97352333225622
 20
-8.7187365732731
 30
0.0
 10
-27.24904684015497
 20
-8.488172242440625
 30
0.0
 10
-27.43237306374608
 20
-8.334750098395874
 30
0.0
 10
-27.5244205234419
 20
-8.257717363309677
 30
0.0
 11
-26.42442052343972
 21
-9.178199262342575
 31
0.0
 11
-26.69785099455416
 21
-8.949411543937128
 31
0.0
 11
-26.97443315712076
 21
-8.717973404642416
 31
0.0
 11
-27.24827682647341
 21
-8.488813993767803
 31
0.0
 11
-27.5244205234419
 21
-8.257717363309677
 31
0.0
  0
SPLINE
  5
16F
330
5B
100
AcDbEntity
  8
0
  6
Continuous
 62
     7
100
AcDbSpline
210
0.0
220
0.0
230
1.0
 70
     8
 71
     3
 72
    11
 73
     7
 74
     5
 42
0.000000001
 43
0.0000000001
 44
0.00000001
 40
0.0
 40
0.0
 40
0.0
 40
0.0
 40
0.5543188591684528
 40
1.117553862962221
 40
1.673979122166564
 40
2.236567028802538
 40
2.236567028802538
 40
2.236567028802538
 40
2.236567028802538
 10
-18.04849083799218
 20
-8.257717363360607
 30
0.0
 10
-18.22371502830697
 20
-8.199076968296698
 30
0.0
 10
-18.57698186173675
 20
-8.080852940989871
 30
0.0
 10
-19.10297953715991
 20
-7.894551934318451
 30
0.0
 10
-19.62944752704369
 20
-7.701440340487125
 30
0.0
 10
-19.97753901497742
 20
-7.567392860986819
 30
0.0
 10
-20.15254326380887
 20
-7.499999999987507
 30
0.0
 11
-18.04849083799218
 21
-8.257717363360607
 31
0.0
 11
-18.57364451522588
 21
-8.080282831779938
 31
0.0
 11
-19.10476089536019
 21
-7.892802005006397
 31
0.0
 11
-19.62699736967466
 21
-7.700765200932168
 31
0.0
 11
-20.15254326380887
 21
-7.499999999987507
 31
0.0
  0
SPLINE
  5
170
330
5B
100
AcDbEntity
  8
0
  6
Continuous
 62
     7
100
AcDbSpline
210
0.0
220
0.0
230
1.0
 70
     8
 71
     3
 72
    11
 73
     7
 74
     5
 42
0.000000001
 43
0.0000000001
 44
0.00000001
 40
0.0
 40
0.0
 40
0.0
 40
0.0
 40
0.3152989234478089
 40
0.6240834980414776
 40
0.9336077907776439
 40
1.235572026219986
 40
1.235572026219986
 40
1.235572026219986
 40
1.235572026219986
 10
-28.49999999997522
 20
-7.500000000023437
 30
0.0
 10
-28.41915052973196
 20
-7.567156715253794
 30
0.0
 10
-28.25912199985914
 20
-7.700082618282047
 30
0.0
 10
-28.01506995119663
 20
-7.893213245007956
 30
0.0
 10
-27.77130940051733
 20
-8.079492095041909
 30
0.0
 10
-27.60603570560006
 20
-8.198800629647446
 30
0.0
 10
-27.5244205234419
 20
-8.257717363309677
 30
0.0
 11
-28.49999999997522
 21
-7.500000000023437
 31
0.0
 11
-28.2566573723137
 21
-7.700493832173564
 31
0.0
 11
-28.0147280671597
 21
-7.892374328663447
 31
0.0
 11
-27.76846047818921
 21
-8.079877828766667
 31
0.0
 11
-27.5244205234419
 21
-8.257717363309677
 31
0.0
  0
ENDBLK
  5
5D
330
5B
100
AcDbEntity
  8
0
100
AcDbBlockEnd
  0
BLOCK
  5
5F
330
5E
100
AcDbEntity
  8
0
100
AcDbBlockBegin
  2
HL_100_Abgangsbogen_DN50
 70
     0
 10
-12199.467288877
 20
-14567.21717571441
 30
0.0
  3
HL_100_Abgangsbogen_DN50
  1

  0
LINE
  5
171
330
5E
100
AcDbEntity
  8
1
  6
PHANTOM
 62
     2
100
AcDbLine
 10
-11794.8931275465
 20
-16929.59348718136
 30
0.0
 11
-11575.0
 21
-16929.59348718136
 31
0.0
  0
LINE
  5
172
330
5E
100
AcDbEntity
  8
1
  6
PHANTOM
 62
     2
100
AcDbLine
 10
-11786.5
 20
-16974.98402498061
 30
0.0
 11
-11786.5
 21
-16923.40839153943
 31
0.0
  0
LINE
  5
173
330
5E
100
AcDbEntity
  8
1
  6
Continuous
 62
     7
100
AcDbLine
 10
-11766.5
 20
-16954.59348718136
 30
0.0
 11
-11780.49739809783
 21
-16940.19608908353
 31
0.0
  0
LINE
  5
174
330
5E
100
AcDbEntity
  8
1
  6
Continuous
 62
     7
100
AcDbLine
 10
-11806.5
 20
-16973.13763451741
 30
0.0
 11
-11766.5
 21
-16973.13763451741
 31
0.0
  0
LINE
  5
175
330
5E
100
AcDbEntity
  8
1
  6
Continuous
 62
     7
100
AcDbLine
 10
-11575.0
 20
-16954.59348718136
 30
0.0
 11
-11575.0
 21
-16904.59348718136
 31
0.0
  0
LINE
  5
176
330
5E
100
AcDbEntity
  8
1
  6
Continuous
 62
     7
100
AcDbLine
 10
-11575.0
 20
-16904.59348718136
 30
0.0
 11
-11571.5
 21
-16905.53130935487
 31
0.0
  0
LINE
  5
177
330
5E
100
AcDbEntity
  8
1
  6
Continuous
 62
     7
100
AcDbLine
 10
-11575.0
 20
-16954.59348718136
 30
0.0
 11
-11571.5
 21
-16953.65566500785
 31
0.0
  0
LINE
  5
178
330
5E
100
AcDbEntity
  8
1
  6
Continuous
 62
     7
100
AcDbLine
 10
-11571.5
 20
-16905.53130935487
 30
0.0
 11
-11571.5
 21
-16953.65566500785
 31
0.0
  0
LINE
  5
179
330
5E
100
AcDbEntity
  8
1
  6
Continuous
 62
     7
100
AcDbLine
 10
-11756.49999999957
 20
-16904.59348718136
 30
0.0
 11
-11575.0
 21
-16904.59348718136
 31
0.0
  0
LINE
  5
17A
330
5E
100
AcDbEntity
  8
1
  6
Continuous
 62
     7
100
AcDbLine
 10
-11765.0
 20
-16954.59348718136
 30
0.0
 11
-11575.0
 21
-16954.59348718136
 31
0.0
  0
LINE
  5
17B
330
5E
100
AcDbEntity
  8
1
  6
Continuous
 62
     7
100
AcDbLine
 10
-11766.5
 20
-16973.13763451741
 30
0.0
 11
-11766.5
 21
-16956.09348718136
 31
0.0
  0
LINE
  5
17C
330
5E
100
AcDbEntity
  8
1
  6
Continuous
 62
     7
100
AcDbLine
 10
-11806.5
 20
-16973.13763451741
 30
0.0
 11
-11806.5
 21
-16954.59348718179
 31
0.0
  0
ARC
  5
17D
330
5E
100
AcDbEntity
  8
1
  6
Continuous
 62
     7
100
AcDbCircle
 10
-11786.1
 20
-16990.36348718136
 30
0.0
 40
26.70000000000114
100
AcDbArc
 50
139.8221006672423
 51
142.198018862142
  0
ARC
  5
17E
330
5E
100
AcDbEntity
  8
1
  6
Continuous
 62
     7
100
AcDbCircle
 10
-11786.9
 20
-16990.36348718136
 30
0.0
 40
26.70000000000174
100
AcDbArc
 50
27.98016610945201
 51
40.17789933275768
  0
ARC
  5
17F
330
5E
100
AcDbEntity
  8
1
  6
Continuous
 62
     7
100
AcDbCircle
 10
-11756.49999999957
 20
-16954.59348718179
 30
0.0
 40
50.00000000043292
100
AcDbArc
 50
90.0
 51
180.0
  0
ARC
  5
180
330
5E
100
AcDbEntity
  8
1
  6
Continuous
 62
     7
100
AcDbCircle
 10
-11765.0
 20
-16956.09348718136
 30
0.0
 40
1.5
100
AcDbArc
 50
90.0
 51
180.0
  0
ENDBLK
  5
60
330
5E
100
AcDbEntity
  8
0
100
AcDbBlockEnd
  0
BLOCK
  5
68
330
61
100
AcDbEntity
  8
0
100
AcDbBlockBegin
  2
HL_126_50_Spültischsifon
 70
     0
 10
-196.8895934680173
 20
-123.551286335373
 30
0.0
  3
HL_126_50_Spültischsifon
  1

  0
INSERT
  5
62
330
61
100
AcDbEntity
  8
0
100
AcDbBlockReference
  2
HL19
 10
-396.7248624521503
 20
-94.77044183431484
 30
0.0
  0
INSERT
  5
63
330
61
100
AcDbEntity
  8
1
100
AcDbBlockReference
  2
HL_100_Krümmer
 10
-278.0406500962947
 20
-224.9507251706854
 30
0.0
  0
INSERT
  5
64
330
61
100
AcDbEntity
  8
0
100
AcDbBlockReference
  2
HL_126_2
 10
-298.4499999999844
 20
-28.65718611056901
 30
0.0
  0
INSERT
  5
65
330
61
100
AcDbEntity
  8
0
100
AcDbBlockReference
  2
Pfeife_DN40_6_4_abgesetzt
 10
-351.8284271247394
 20
2141.642118048861
 30
0.0
  0
INSERT
  5
66
330
61
100
AcDbEntity
  8
0
100
AcDbBlockReference
  2
Holländermutter_6_4__1
 10
0.00000000001578
 20
0.50000000001249
 30
0.0
  0
INSERT
  5
67
330
61
100
AcDbEntity
  8
1
100
AcDbBlockReference
  2
HL_100_Abgangsbogen_DN50
 10
-648.0457609590503
 20
2082.377837075499
 30
0.0
  0
DIMENSION
  5
18D
330
61
100
AcDbEntity
  8
1
100
AcDbDimension
  2
*D19
 10
-21.9999999999934
 20
44.3436426126929
 30
0.0
 11
-78.34265368027934
 21
51.3436426126929
 31
0.0
 70
    32
  1
R6/4"
 71
     5
 42
-1.0
 53
180.0
  3
ME10_DIM_10
100
AcDbAlignedDimension
 13
22.00000000000659
 23
10.50000000001249
 33
0.0
 14
-21.99999999999341
 24
10.50000000001249
 34
0.0
 50
180.0
100
AcDbRotatedDimension
  0
DIMENSION
  5
198
330
61
100
AcDbEntity
  8
1
100
AcDbDimension
  2
*D20
 10
57.94004595892841
 20
-279.9984743914501
 30
0.0
 11
50.94004595892841
 21
-147.2316556675831
 31
0.0
 70
    32
  1
<>
 71
     5
 42
-1.0
 53
90.00000000000001
  3
ME10_DIM_11
100
AcDbAlignedDimension
 13
30.37860435670882
 23
0.0
 33
0.0
 14
-23.57847208205021
 24
-279.9984743914501
 34
0.0
 50
90.00000000000001
100
AcDbRotatedDimension
  0
DIMENSION
  5
1A4
330
61
100
AcDbEntity
  8
1
100
AcDbDimension
  2
*D21
 10
4.77950719891294
 20
-254.9984743914502
 30
0.0
 11
-2.22049280108706
 21
-227.9819077188477
 31
0.0
 70
    32
  1
<>
 71
     5
 42
-1.0
 53
90.0
  3
ME10_DIM_12
100
AcDbAlignedDimension
 13
-23.57847208205021
 23
-304.9984743914501
 33
0.0
 14
-23.57847208205021
 24
-254.9984743914501
 34
0.0
 50
90.0
100
AcDbRotatedDimension
  0
DIMENSION
  5
1AF
330
61
100
AcDbEntity
  8
1
100
AcDbDimension
  2
*D22
 10
-235.0784720820502
 20
-421.4971067071099
 30
0.0
 11
-275.9799559844244
 21
-414.4971067071099
 31
0.0
 70
    32
  1
<>
 71
     5
 42
-1.0
 53
0.00013888888889
  3
ME10_DIM_13
100
AcDbAlignedDimension
 13
-324.9999999999964
 23
-367.0668061346934
 33
0.0
 14
-235.0784720820502
 24
-325.3890121907025
 34
0.0
100
AcDbRotatedDimension
  0
DIMENSION
  5
1BA
330
61
100
AcDbEntity
  8
1
100
AcDbDimension
  2
*D23
 10
-373.400528030564
 20
-399.9984743914526
 30
0.0
 11
-380.400528030564
 21
-345.7453272902002
 31
0.0
 70
    32
  1
<>
 71
     5
 42
-1.0
 53
90.0
  3
ME10_DIM_14
100
AcDbAlignedDimension
 13
-243.4715996285504
 23
-279.9984743914501
 33
0.0
 14
-298.6783763439373
 24
-399.9984743914527
 34
0.0
 50
90.0
100
AcDbRotatedDimension
  0
DIMENSION
  5
1C5
330
61
100
AcDbEntity
  8
1
100
AcDbDimension
  2
*D24
 10
-325.0
 20
61.77516428150609
 30
0.0
 11
-162.375027293286
 21
68.7751642815061
 31
0.0
 70
    32
  1
<>
 71
     5
 42
-1.0
 53
0.00013888888889
  3
ME10_DIM_15
100
AcDbAlignedDimension
 13
0.0
 23
10.93393154730802
 33
0.0
 14
-325.0
 24
-15.54133183273007
 34
0.0
100
AcDbRotatedDimension
  0
DIMENSION
  5
1D0
330
61
100
AcDbEntity
  8
1
100
AcDbDimension
  2
*D25
 10
43.80533933681841
 20
0.0
 30
0.0
 11
36.80533933681841
 21
-21.53760693304618
 31
0.0
 70
    32
  1
<>
 71
     5
 42
-1.0
 53
90.0
  3
ME10_DIM_16
100
AcDbAlignedDimension
 13
0.0
 23
-42.0
 33
0.0
 14
30.37860435670882
 24
0.0
 34
0.0
 50
90.0
100
AcDbRotatedDimension
  0
DIMENSION
  5
1DD
330
61
100
AcDbEntity
  8
1
100
AcDbDimension
  2
*D26
 10
-434.4007163691816
 20
-141.8522234869747
 30
0.0
 11
-388.7690505350564
 21
-146.8322582336442
 31
0.0
 70
    33
  1
3/4"
 71
     5
 42
-1.0
 53
-14.99999999999926
  3
ME10_DIM_17
100
AcDbAlignedDimension
 13
-413.234453272635
 23
-128.6520019149523
 33
0.0
 14
-429.6827902003003
 24
-124.2446833183496
 34
0.0
  0
DIMENSION
  5
1E8
330
61
100
AcDbEntity
  8
1
100
AcDbDimension
  2
*D27
 10
-235.0784720820502
 20
-421.4972471483895
 30
0.0
 11
-124.691607412768
 21
-414.4972471483895
 31
0.0
 70
    32
  1
<>
 71
     5
 42
-1.0
 53
0.00013888888889
  3
ME10_DIM_18
100
AcDbAlignedDimension
 13
-20.07847208205021
 23
-304.0606522179405
 33
0.0
 14
-235.0784720820502
 24
-325.3890121907025
 34
0.0
100
AcDbRotatedDimension
  0
ENDBLK
  5
69
330
61
100
AcDbEntity
  8
0
100
AcDbBlockEnd
  0
BLOCK
  5
6B
330
6A
100
AcDbEntity
  8
0
100
AcDbBlockBegin
  2
Holländermutter_6_4__2
 70
     0
 10
-325.0000000000056
 20
-291.5633467400815
 30
0.0
  3
Holländermutter_6_4__2
  1

  0
LINE
  5
1E9
330
6A
100
AcDbEntity
  8
1
  6
PHANTOM
 62
     2
100
AcDbLine
 10
-324.9999999999964
 20
-297.5633467400815
 30
0.0
 11
-324.9999999999964
 21
-300.0633467400815
 31
0.0
  0
LINE
  5
1EA
330
6A
100
AcDbEntity
  8
0
  6
Continuous
 62
     7
100
AcDbLine
 10
-304.9008994965698
 20
-297.5633467400815
 30
0.0
 11
-306.9515091620087
 21
-297.5633467400815
 31
0.0
  0
LINE
  5
1EB
330
6A
100
AcDbEntity
  8
0
  6
Continuous
 62
     7
100
AcDbLine
 10
-298.5755794765501
 20
-297.5633467400815
 30
0.0
 11
-304.1230820372621
 21
-297.5633467400815
 31
0.0
  0
LINE
  5
1EC
330
6A
100
AcDbEntity
  8
0
  6
Continuous
 62
     7
100
AcDbLine
 10
-342.2706733786799
 20
-297.5633467400815
 30
0.0
 11
-326.9999999999964
 21
-297.5633467400815
 31
0.0
  0
LINE
  5
1ED
330
6A
100
AcDbEntity
  8
0
  6
Continuous
 62
     7
100
AcDbLine
 10
-297.4755794765479
 20
-297.5633467400815
 30
0.0
 11
-298.5755794765501
 21
-297.5633467400815
 31
0.0
  0
LINE
  5
1EE
330
6A
100
AcDbEntity
  8
0
  6
Continuous
 62
     7
100
AcDbLine
 10
-297.4755794765479
 20
-284.3056293767604
 30
0.0
 11
-297.4755794765479
 21
-297.5633467400815
 31
0.0
  0
LINE
  5
1EF
330
6A
100
AcDbEntity
  8
0
  6
Continuous
 62
     7
100
AcDbLine
 10
-298.5755794765501
 20
-283.3851474777275
 30
0.0
 11
-304.9008994965698
 21
-283.3851474777275
 31
0.0
  0
LINE
  5
1F0
330
6A
100
AcDbEntity
  8
0
  6
Continuous
 62
     7
100
AcDbLine
 10
-326.9999999999964
 20
-283.3851474777275
 30
0.0
 11
-326.9999999999964
 21
-284.3056293767604
 31
0.0
  0
LINE
  5
1F1
330
6A
100
AcDbEntity
  8
0
  6
Continuous
 62
     7
100
AcDbLine
 10
-298.5755794765501
 20
-283.3851474777275
 30
0.0
 11
-298.5755794765501
 21
-297.5633467400815
 31
0.0
  0
LINE
  5
1F2
330
6A
100
AcDbEntity
  8
0
  6
Continuous
 62
     7
100
AcDbLine
 10
-296.4999999999964
 20
-297.5633467400815
 30
0.0
 11
-296.4999999999964
 21
-300.0633467400815
 31
0.0
  0
LINE
  5
1F3
330
6A
100
AcDbEntity
  8
0
  6
Continuous
 62
     7
100
AcDbLine
 10
-353.4999999999964
 20
-297.5633467400815
 30
0.0
 11
-353.4999999999964
 21
-300.0633467400815
 31
0.0
  0
LINE
  5
1F4
330
6A
100
AcDbEntity
  8
0
  6
Continuous
 62
     7
100
AcDbLine
 10
-296.4999999999964
 20
-300.0633467400815
 30
0.0
 11
-353.4999999999964
 21
-300.0633467400815
 31
0.0
  0
LINE
  5
1F5
330
6A
100
AcDbEntity
  8
0
  6
Continuous
 62
     7
100
AcDbLine
 10
-352.5244205234449
 20
-284.3056293767604
 30
0.0
 11
-352.5244205234449
 21
-297.5633467400815
 31
0.0
  0
LINE
  5
1F6
330
6A
100
AcDbEntity
  8
0
  6
Continuous
 62
     7
100
AcDbLine
 10
-351.4244205234427
 20
-297.5633467400815
 30
0.0
 11
-345.8769179627307
 21
-297.5633467400815
 31
0.0
  0
LINE
  5
1F7
330
6A
100
AcDbEntity
  8
0
  6
Continuous
 62
     7
100
AcDbLine
 10
-351.4244205234427
 20
-283.3851474777275
 30
0.0
 11
-351.4244205234427
 21
-297.5633467400815
 31
0.0
  0
LINE
  5
1F8
330
6A
100
AcDbEntity
  8
0
  6
Continuous
 62
     7
100
AcDbLine
 10
-351.4244205234427
 20
-283.3851474777275
 30
0.0
 11
-345.099100503423
 21
-283.3851474777275
 31
0.0
  0
LINE
  5
1F9
330
6A
100
AcDbEntity
  8
0
  6
Continuous
 62
     7
100
AcDbLine
 10
-304.8474567361809
 20
-297.5633467400815
 30
0.0
 11
-304.9008994965698
 21
-297.5633467400815
 31
0.0
  0
LINE
  5
1FA
330
6A
100
AcDbEntity
  8
0
  6
Continuous
 62
     7
100
AcDbLine
 10
-322.9999999999964
 20
-297.5633467400815
 30
0.0
 11
-324.9999999999964
 21
-297.5633467400815
 31
0.0
  0
LINE
  5
1FB
330
6A
100
AcDbEntity
  8
0
  6
Continuous
 62
     7
100
AcDbLine
 10
-343.048490837984
 20
-297.5633467400815
 30
0.0
 11
-345.099100503423
 21
-297.5633467400815
 31
0.0
  0
LINE
  5
1FC
330
6A
100
AcDbEntity
  8
0
  6
Continuous
 62
     7
100
AcDbLine
 10
-343.048490837984
 20
-297.5633467400815
 30
0.0
 11
-342.2706733786799
 21
-297.5633467400815
 31
0.0
  0
LINE
  5
1FD
330
6A
100
AcDbEntity
  8
0
  6
Continuous
 62
     7
100
AcDbLine
 10
-326.9999999999964
 20
-297.5633467400815
 30
0.0
 11
-324.9999999999964
 21
-297.5633467400815
 31
0.0
  0
LINE
  5
1FE
330
6A
100
AcDbEntity
  8
0
  6
Continuous
 62
     7
100
AcDbLine
 10
-345.1525432638118
 20
-297.5633467400815
 30
0.0
 11
-345.099100503423
 21
-297.5633467400815
 31
0.0
  0
LINE
  5
1FF
330
6A
100
AcDbEntity
  8
0
  6
Continuous
 62
     7
100
AcDbLine
 10
-345.8769179627307
 20
-297.5633467400815
 30
0.0
 11
-345.1525432638118
 21
-297.5633467400815
 31
0.0
  0
LINE
  5
200
330
6A
100
AcDbEntity
  8
0
  6
Continuous
 62
     7
100
AcDbLine
 10
-322.9999999999964
 20
-297.5633467400815
 30
0.0
 11
-307.7293266213164
 21
-297.5633467400815
 31
0.0
  0
LINE
  5
201
330
6A
100
AcDbEntity
  8
0
  6
Continuous
 62
     7
100
AcDbLine
 10
-307.7293266213164
 20
-297.5633467400815
 30
0.0
 11
-306.9515091620087
 21
-297.5633467400815
 31
0.0
  0
LINE
  5
202
330
6A
100
AcDbEntity
  8
0
  6
Continuous
 62
     7
100
AcDbLine
 10
-304.8474567361809
 20
-297.5633467400815
 30
0.0
 11
-304.1230820372621
 21
-297.5633467400815
 31
0.0
  0
LINE
  5
203
330
6A
100
AcDbEntity
  8
0
  6
Continuous
 62
     7
100
AcDbLine
 10
-304.1230820372621
 20
-287.0633467400815
 30
0.0
 11
-304.1230820372621
 21
-297.5633467400815
 31
0.0
  0
LINE
  5
204
330
6A
100
AcDbEntity
  8
0
  6
Continuous
 62
     7
100
AcDbLine
 10
-345.8769179627307
 20
-286.0633467400815
 30
0.0
 11
-345.8769179627307
 21
-297.5633467400815
 31
0.0
  0
LINE
  5
205
330
6A
100
AcDbEntity
  8
0
  6
Continuous
 62
     7
100
AcDbLine
 10
-324.9999999999964
 20
-285.0633467400815
 30
0.0
 11
-324.9999999999964
 21
-297.5633467400815
 31
0.0
  0
LINE
  5
206
330
6A
100
AcDbEntity
  8
0
  6
Continuous
 62
     7
100
AcDbLine
 10
-345.1525432638118
 20
-285.0633467400815
 30
0.0
 11
-345.1525432638118
 21
-297.5633467400815
 31
0.0
  0
LINE
  5
207
330
6A
100
AcDbEntity
  8
0
  6
Continuous
 62
     7
100
AcDbLine
 10
-304.8474567361809
 20
-285.0633467400815
 30
0.0
 11
-304.8474567361809
 21
-297.5633467400815
 31
0.0
  0
LINE
  5
208
330
6A
100
AcDbEntity
  8
0
  6
Continuous
 62
     7
100
AcDbLine
 10
-326.9999999999964
 20
-284.3056293767604
 30
0.0
 11
-326.9999999999964
 21
-297.5633467400815
 31
0.0
  0
LINE
  5
209
330
6A
100
AcDbEntity
  8
0
  6
Continuous
 62
     7
100
AcDbLine
 10
-306.9515091619978
 20
-284.3056293767095
 30
0.0
 11
-306.9515091620087
 21
-297.5633467400815
 31
0.0
  0
LINE
  5
20A
330
6A
100
AcDbEntity
  8
0
  6
Continuous
 62
     7
100
AcDbLine
 10
-343.048490837984
 20
-284.3056293767604
 30
0.0
 11
-343.048490837984
 21
-297.5633467400815
 31
0.0
  0
LINE
  5
20B
330
6A
100
AcDbEntity
  8
0
  6
Continuous
 62
     7
100
AcDbLine
 10
-345.8769179627307
 20
-284.3056293767604
 30
0.0
 11
-345.8769179627307
 21
-286.0633467400815
 31
0.0
  0
LINE
  5
20C
330
6A
100
AcDbEntity
  8
0
  6
Continuous
 62
     7
100
AcDbLine
 10
-322.9999999999964
 20
-284.3056293767604
 30
0.0
 11
-322.9999999999964
 21
-297.5633467400815
 31
0.0
  0
LINE
  5
20D
330
6A
100
AcDbEntity
  8
0
  6
Continuous
 62
     7
100
AcDbLine
 10
-307.7293266213164
 20
-283.3851474777275
 30
0.0
 11
-307.7293266213164
 21
-297.5633467400815
 31
0.0
  0
LINE
  5
20E
330
6A
100
AcDbEntity
  8
0
  6
Continuous
 62
     7
100
AcDbLine
 10
-322.9999999999964
 20
-283.3851474777275
 30
0.0
 11
-322.9999999999964
 21
-284.3056293767604
 31
0.0
  0
LINE
  5
20F
330
6A
100
AcDbEntity
  8
0
  6
Continuous
 62
     7
100
AcDbLine
 10
-342.2706733786799
 20
-283.3851474777275
 30
0.0
 11
-342.2706733786799
 21
-297.5633467400815
 31
0.0
  0
LINE
  5
210
330
6A
100
AcDbEntity
  8
0
  6
Continuous
 62
     7
100
AcDbLine
 10
-342.2706733786799
 20
-283.3851474777275
 30
0.0
 11
-326.9999999999964
 21
-283.3851474777275
 31
0.0
  0
LINE
  5
211
330
6A
100
AcDbEntity
  8
0
  6
Continuous
 62
     7
100
AcDbLine
 10
-322.9999999999964
 20
-283.3851474777275
 30
0.0
 11
-307.7293266213164
 21
-283.3851474777275
 31
0.0
  0
LINE
  5
212
330
6A
100
AcDbEntity
  8
0
  6
Continuous
 62
     7
100
AcDbLine
 10
-304.1230820372621
 20
-284.3056293767604
 30
0.0
 11
-304.1230820372621
 21
-286.0633467400815
 31
0.0
  0
LINE
  5
213
330
6A
100
AcDbEntity
  8
0
  6
Continuous
 62
     7
100
AcDbLine
 10
-304.1230820372621
 20
-286.0633467400815
 30
0.0
 11
-304.1230820372621
 21
-287.0633467400815
 31
0.0
  0
LINE
  5
214
330
6A
100
AcDbEntity
  8
0
  6
Continuous
 62
     7
100
AcDbLine
 10
-352.5244205234449
 20
-297.5633467400815
 30
0.0
 11
-351.4244205234427
 21
-297.5633467400815
 31
0.0
  0
LINE
  5
215
330
6A
100
AcDbEntity
  8
0
  6
Continuous
 62
     7
100
AcDbLine
 10
-296.5000000000146
 20
-285.0633467400455
 30
0.0
 11
-298.8835071851864
 21
-283.0633467400815
 31
0.0
  0
LINE
  5
216
330
6A
100
AcDbEntity
  8
0
  6
Continuous
 62
     7
100
AcDbLine
 10
-297.4755794765479
 20
-297.5633467400815
 30
0.0
 11
-296.4999999999964
 21
-297.5633467400815
 31
0.0
  0
LINE
  5
217
330
6A
100
AcDbEntity
  8
0
  6
Continuous
 62
     7
100
AcDbLine
 10
-352.5244205234449
 20
-297.5633467400815
 30
0.0
 11
-353.4999999999964
 21
-297.5633467400815
 31
0.0
  0
LINE
  5
218
330
6A
100
AcDbEntity
  8
0
  6
Continuous
 62
     7
100
AcDbLine
 10
-353.4999999999964
 20
-285.0633467400815
 30
0.0
 11
-353.4999999999964
 21
-297.5633467400815
 31
0.0
  0
LINE
  5
219
330
6A
100
AcDbEntity
  8
0
  6
Continuous
 62
     7
100
AcDbLine
 10
-296.5000000000146
 20
-285.0633467400455
 30
0.0
 11
-296.4999999999964
 21
-297.5633467400815
 31
0.0
  0
LINE
  5
21A
330
6A
100
AcDbEntity
  8
0
  6
Continuous
 62
     7
100
AcDbLine
 10
-353.4999999999964
 20
-285.0633467400815
 30
0.0
 11
-351.1164928148064
 21
-283.0633467400815
 31
0.0
  0
LINE
  5
21B
330
6A
100
AcDbEntity
  8
0
  6
Continuous
 62
     7
100
AcDbLine
 10
-351.1164928148064
 20
-283.0633467400815
 30
0.0
 11
-298.8835071851864
 21
-283.0633467400815
 31
0.0
  0
SPLINE
  5
21C
330
6A
100
AcDbEntity
  8
0
  6
Continuous
 62
     7
100
AcDbSpline
210
0.0
220
0.0
230
1.0
 70
     8
 71
     3
 72
    11
 73
     7
 74
     5
 42
0.000000001
 43
0.0000000001
 44
0.00000001
 40
0.0
 40
0.0
 40
0.0
 40
0.0
 40
0.3152989234476298
 40
0.6240834980414478
 40
0.9336077907776243
 40
1.23557202621931
 40
1.23557202621931
 40
1.23557202621931
 40
1.23557202621931
 10
-296.5000000000146
 20
-285.0633467400455
 30
0.0
 10
-296.5808494702579
 20
-284.9961900248153
 30
0.0
 10
-296.7408780001309
 20
-284.8632641217873
 30
0.0
 10
-296.984930048793
 20
-284.670133495061
 30
0.0
 10
-297.2286905994722
 20
-284.483854645027
 30
0.0
 10
-297.3939642943897
 20
-284.3645461104222
 30
0.0
 10
-297.4755794765479
 20
-284.3056293767604
 30
0.0
 11
-296.5000000000146
 21
-285.0633467400455
 31
0.0
 11
-296.7433426276762
 21
-284.8628529078958
 31
0.0
 11
-296.9852719328301
 21
-284.6709724114055
 31
0.0
 11
-297.2315395218006
 21
-284.4834689113023
 31
0.0
 11
-297.4755794765479
 21
-284.3056293767604
 31
0.0
  0
SPLINE
  5
21D
330
6A
100
AcDbEntity
  8
0
  6
Continuous
 62
     7
100
AcDbSpline
210
0.0
220
0.0
230
1.0
 70
     8
 71
     3
 72
    11
 73
     7
 74
     5
 42
0.000000001
 43
0.0000000001
 44
0.00000001
 40
0.0
 40
0.0
 40
0.0
 40
0.0
 40
0.5543188591683017
 40
1.117553862962083
 40
1.673979122166362
 40
2.236567028802406
 40
2.236567028802406
 40
2.236567028802406
 40
2.236567028802406
 10
-306.9515091619978
 20
-284.3056293767095
 30
0.0
 10
-306.776284971683
 20
-284.364269771773
 30
0.0
 10
-306.4230181382529
 20
-284.4824937990792
 30
0.0
 10
-305.89702046283
 20
-284.6687948057506
 30
0.0
 10
-305.3705524729461
 20
-284.8619063995817
 30
0.0
 10
-305.0224609850123
 20
-284.9959538790822
 30
0.0
 10
-304.8474567361809
 20
-285.0633467400815
 30
0.0
 11
-306.9515091619978
 21
-284.3056293767095
 31
0.0
 11
-306.426355484764
 21
-284.4830639082893
 31
0.0
 11
-305.8952391046296
 21
-284.6705447350626
 31
0.0
 11
-305.3730026303152
 21
-284.8625815391367
 31
0.0
 11
-304.8474567361809
 21
-285.0633467400815
 31
0.0
  0
SPLINE
  5
21E
330
6A
100
AcDbEntity
  8
0
  6
Continuous
 62
     7
100
AcDbSpline
210
0.0
220
0.0
230
1.0
 70
     8
 71
     3
 72
    11
 73
     7
 74
     5
 42
0.000000001
 43
0.0000000001
 44
0.00000001
 40
0.0
 40
0.0
 40
0.0
 40
0.0
 40
0.3565221488581684
 40
0.7171622810813454
 40
1.074239850857073
 40
1.434324554759882
 40
1.434324554759882
 40
1.434324554759882
 40
1.434324554759882
 10
-298.5755794765501
 20
-283.3851474777275
 30
0.0
 10
-298.4844355245713
 20
-283.4614094988598
 30
0.0
 10
-298.301094878631
 20
-283.6148144116447
 30
0.0
 10
-298.0264766677334
 20
-283.8446101667958
 30
0.0
 10
-297.7509531598348
 20
-284.0751744976288
 30
0.0
 10
-297.5676269362439
 20
-284.2285966416741
 30
0.0
 10
-297.4755794765479
 20
-284.3056293767604
 30
0.0
 11
-298.5755794765501
 21
-283.3851474777275
 31
0.0
 11
-298.3021490054357
 21
-283.6139351961319
 31
0.0
 11
-298.025566842869
 21
-283.8453733354265
 31
0.0
 11
-297.7517231735165
 21
-284.0745327463017
 31
0.0
 11
-297.4755794765479
 21
-284.3056293767604
 31
0.0
  0
SPLINE
  5
21F
330
6A
100
AcDbEntity
  8
0
  6
Continuous
 62
     7
100
AcDbSpline
210
0.0
220
0.0
230
1.0
 70
     8
 71
     3
 72
    11
 73
     7
 74
     5
 42
0.000000001
 43
0.0000000001
 44
0.00000001
 40
0.0
 40
0.0
 40
0.0
 40
0.0
 40
0.3572711679013427
 40
0.7171622810813005
 40
1.074171569536138
 40
1.434324554759925
 40
1.434324554759925
 40
1.434324554759925
 40
1.434324554759925
 10
-351.4244205234427
 20
-283.3851474777275
 30
0.0
 10
-351.5157559590218
 20
-283.4615697194736
 30
0.0
 10
-351.6990966026603
 20
-283.614974635009
 30
0.0
 10
-351.9736973518317
 20
-283.8447557913291
 30
0.0
 10
-352.2490293853484
 20
-284.0751598905321
 30
0.0
 10
-352.4323556091014
 20
-284.2285820343843
 30
0.0
 10
-352.5244205234449
 20
-284.3056293767604
 30
0.0
 11
-351.4244205234427
 21
-283.3851474777275
 31
0.0
 11
-351.6984254390632
 21
-283.614415865495
 31
0.0
 11
-351.9744331571237
 21
-283.8453733354265
 31
0.0
 11
-352.2482244619496
 21
-284.0744889251294
 31
0.0
 11
-352.5244205234449
 21
-284.3056293767604
 31
0.0
  0
SPLINE
  5
220
330
6A
100
AcDbEntity
  8
0
  6
Continuous
 62
     7
100
AcDbSpline
210
0.0
220
0.0
230
1.0
 70
     8
 71
     3
 72
    11
 73
     7
 74
     5
 42
0.000000001
 43
0.0000000001
 44
0.00000001
 40
0.0
 40
0.0
 40
0.0
 40
0.0
 40
0.3023613649079189
 40
0.6025600718721906
 40
0.9059830063446702
 40
1.205108678842455
 40
1.205108678842455
 40
1.205108678842455
 40
1.205108678842455
 10
-304.1230820372621
 20
-284.3056293767604
 30
0.0
 10
-304.1881298392681
 20
-284.228643486214
 30
0.0
 10
-304.3177601963768
 20
-284.0752223610186
 30
0.0
 10
-304.5126745885066
 20
-283.8445516901243
 30
0.0
 10
-304.7068982826754
 20
-283.6147094440517
 30
0.0
 10
-304.8365406162783
 20
-283.4613034424822
 30
0.0
 10
-304.9008994965698
 20
-283.3851474777275
 30
0.0
 11
-304.1230820372621
 21
-284.3056293767604
 31
0.0
 11
-304.3182267615707
 21
-284.0746728190194
 31
0.0
 11
-304.511981814816
 21
-283.8453733576046
 31
0.0
 11
-304.7078242386815
 21
-283.613616540707
 31
0.0
 11
-304.9008994965698
 21
-283.3851474777275
 31
0.0
  0
SPLINE
  5
221
330
6A
100
AcDbEntity
  8
0
  6
Continuous
 62
     7
100
AcDbSpline
210
0.0
220
0.0
230
1.0
 70
     8
 71
     3
 72
    11
 73
     7
 74
     5
 42
0.000000001
 43
0.0000000001
 44
0.00000001
 40
0.0
 40
0.0
 40
0.0
 40
0.0
 40
0.2994287919463118
 40
0.6025485779329969
 40
0.9027839839228643
 40
1.205108678840144
 40
1.205108678840144
 40
1.205108678840144
 40
1.205108678840144
 10
-342.2706733786799
 20
-283.3851474777275
 30
0.0
 10
-342.3350974765821
 20
-283.4613806157139
 30
0.0
 10
-342.464739802824
 20
-283.6147866108315
 30
0.0
 10
-342.6589713834098
 20
-283.84463819576
 30
0.0
 10
-342.8538205617305
 20
-284.075231690209
 30
0.0
 10
-342.9834509249558
 20
-284.2286528229068
 30
0.0
 10
-343.048490837984
 20
-284.3056293767604
 30
0.0
 11
-342.2706733786799
 21
-283.3851474777275
 31
0.0
 11
-342.4639442863746
 21
-283.6138480629594
 31
0.0
 11
-342.6595910416909
 21
-283.8453733354265
 31
0.0
 11
-342.8533697809435
 21
-284.0747008288147
 31
0.0
 11
-343.048490837984
 21
-284.3056293767604
 31
0.0
  0
SPLINE
  5
222
330
6A
100
AcDbEntity
  8
0
  6
Continuous
 62
     7
100
AcDbSpline
210
0.0
220
0.0
230
1.0
 70
     8
 71
     3
 72
    11
 73
     7
 74
     5
 42
0.000000001
 43
0.0000000001
 44
0.00000001
 40
0.0
 40
0.0
 40
0.0
 40
0.0
 40
0.3024286829097907
 40
0.602560071840331
 40
0.9055648577538129
 40
1.205108678810559
 40
1.205108678810559
 40
1.205108678810559
 40
1.205108678810559
 10
-306.9515091619978
 20
-284.3056293767095
 30
0.0
 10
-307.0165714464179
 20
-284.2286263460526
 30
0.0
 10
-307.1462018037444
 20
-284.0752052210551
 30
0.0
 10
-307.3410262356165
 20
-283.8446410148719
 30
0.0
 10
-307.53523544227
 20
-283.6148159046132
 30
0.0
 10
-307.6648777743437
 20
-283.4614099017513
 30
0.0
 10
-307.7293266213164
 20
-283.3851474777275
 30
0.0
 11
-306.9515091619978
 21
-284.3056293767095
 31
0.0
 11
-307.1466973342099
 21
-284.0746213991954
 31
0.0
 11
-307.3404089395626
 21
-283.8453733576046
 31
0.0
 11
-307.5359814675662
 21
-283.6139359220483
 31
0.0
 11
-307.7293266213164
 21
-283.3851474777275
 31
0.0
  0
SPLINE
  5
223
330
6A
100
AcDbEntity
  8
0
  6
Continuous
 62
     7
100
AcDbSpline
210
0.0
220
0.0
230
1.0
 70
     8
 71
     3
 72
    11
 73
     7
 74
     5
 42
0.000000001
 43
0.0000000001
 44
0.00000001
 40
0.0
 40
0.0
 40
0.0
 40
0.0
 40
0.2998864799381439
 40
0.6025485779352342
 40
0.9017237172661976
 40
1.205108678842457
 40
1.205108678842457
 40
1.205108678842457
 40
1.205108678842457
 10
-345.099100503423
 20
-283.3851474777275
 30
0.0
 10
-345.1636230751224
 20
-283.4614971415812
 30
0.0
 10
-345.2932653997274
 20
-283.6149031380833
 30
0.0
 10
-345.4872688618765
 20
-283.8444847799734
 30
0.0
 10
-345.6820195833682
 20
-284.0749617342178
 30
0.0
 10
-345.8116499499981
 20
-284.228382864039
 30
0.0
 10
-345.8769179627307
 20
-284.3056293767604
 30
0.0
 11
-345.099100503423
 21
-283.3851474777275
 31
0.0
 11
-345.2926668278737
 21
-283.6141976444781
 31
0.0
 11
-345.4880181664375
 21
-283.8453733354265
 31
0.0
 11
-345.6811125963745
 21
-284.0738909608324
 31
0.0
 11
-345.8769179627307
 21
-284.3056293767604
 31
0.0
  0
SPLINE
  5
224
330
6A
100
AcDbEntity
  8
0
  6
Continuous
 62
     7
100
AcDbSpline
210
0.0
220
0.0
230
1.0
 70
     8
 71
     3
 72
    11
 73
     7
 74
     5
 42
0.000000001
 43
0.0000000001
 44
0.00000001
 40
0.0
 40
0.0
 40
0.0
 40
0.0
 40
0.5401144726114563
 40
1.069443422464123
 40
1.607110367596304
 40
2.138967657364603
 40
2.138967657364603
 40
2.138967657364603
 40
2.138967657364603
 10
-324.9999999999964
 20
-285.0633467400815
 30
0.0
 10
-325.1668677818328
 20
-284.9957454900056
 30
0.0
 10
-325.4972711754647
 20
-284.8618929301551
 30
0.0
 10
-325.9970718974803
 20
-284.6690260804652
 30
0.0
 10
-326.496493592868
 20
-284.4829082485838
 30
0.0
 10
-326.8327734199223
 20
-284.3645079458647
 30
0.0
 10
-326.9999999999964
 20
-284.3056293767604
 30
0.0
 11
-324.9999999999964
 21
-285.0633467400815
 31
0.0
 11
-325.5011610422912
 21
-284.8619484946352
 31
0.0
 11
-325.9948383386363
 21
-284.6709724114055
 31
0.0
 11
-326.4988644553442
 21
-284.4837735392966
 31
0.0
 11
-326.9999999999964
 21
-284.3056293767604
 31
0.0
  0
SPLINE
  5
225
330
6A
100
AcDbEntity
  8
0
  6
Continuous
 62
     7
100
AcDbSpline
210
0.0
220
0.0
230
1.0
 70
     8
 71
     3
 72
    11
 73
     7
 74
     5
 42
0.000000001
 43
0.0000000001
 44
0.00000001
 40
0.0
 40
0.0
 40
0.0
 40
0.0
 40
0.2712732238830941
 40
0.5327401942681366
 40
0.7946573268783078
 40
1.04853554254875
 40
1.04853554254875
 40
1.04853554254875
 40
1.04853554254875
 10
-345.1525432638118
 20
-285.0633467400815
 30
0.0
 10
-345.2128079983079
 20
-284.9959278856081
 30
0.0
 10
-345.3311589689354
 20
-284.8635273102292
 30
0.0
 10
-345.5124157318373
 20
-284.6703419459029
 30
0.0
 10
-345.6929661490888
 20
-284.4844858287804
 30
0.0
 10
-345.816241121149
 20
-284.3646254970513
 30
0.0
 10
-345.8769179627307
 20
-284.3056293767604
 30
0.0
 11
-345.1525432638118
 21
-285.0633467400815
 31
0.0
 11
-345.3341578597647
 21
-284.8618391705886
 31
0.0
 11
-345.5128611248256
 21
-284.6709724114055
 31
0.0
 11
-345.6957258748489
 21
-284.4834595647161
 31
0.0
 11
-345.8769179627307
 21
-284.3056293767604
 31
0.0
  0
SPLINE
  5
226
330
6A
100
AcDbEntity
  8
0
  6
Continuous
 62
     7
100
AcDbSpline
210
0.0
220
0.0
230
1.0
 70
     8
 71
     3
 72
    11
 73
     7
 74
     5
 42
0.000000001
 43
0.0000000001
 44
0.00000001
 40
0.0
 40
0.0
 40
0.0
 40
0.0
 40
0.5642569841861005
 40
1.117752099907149
 40
1.680943573996507
 40
2.23656702674422
 40
2.23656702674422
 40
2.23656702674422
 40
2.23656702674422
 10
-345.1525432638118
 20
-285.0633467400815
 30
0.0
 10
-344.9770192346983
 20
-284.995755387457
 30
0.0
 10
-344.6293188772037
 20
-284.8618618414535
 30
0.0
 10
-344.1032587188752
 20
-284.6689017876001
 30
0.0
 10
-343.5777914040173
 20
-284.4827697697702
 30
0.0
 10
-343.2241269284562
 20
-284.364409293692
 30
0.0
 10
-343.048490837984
 20
-284.3056293767604
 30
0.0
 11
-345.1525432638118
 21
-285.0633467400815
 31
0.0
 11
-344.6254344725608
 21
-284.8619956376566
 31
0.0
 11
-344.1059472539491
 21
-284.6709724114055
 31
0.0
 11
-343.5748776280775
 21
-284.4834899079029
 31
0.0
 11
-343.048490837984
 21
-284.3056293767604
 31
0.0
  0
SPLINE
  5
227
330
6A
100
AcDbEntity
  8
0
  6
Continuous
 62
     7
100
AcDbSpline
210
0.0
220
0.0
230
1.0
 70
     8
 71
     3
 72
    11
 73
     7
 74
     5
 42
0.000000001
 43
0.0000000001
 44
0.00000001
 40
0.0
 40
0.0
 40
0.0
 40
0.0
 40
0.5373994098884591
 40
1.069443421120937
 40
1.60794279901417
 40
2.138967656576159
 40
2.138967656576159
 40
2.138967656576159
 40
2.138967656576159
 10
-324.9999999999964
 20
-285.0633467400815
 30
0.0
 10
-324.8339721119153
 20
-284.9960827363856
 30
0.0
 10
-324.5035708640664
 20
-284.8622250553987
 30
0.0
 10
-324.0035174706663
 20
-284.6692417646959
 30
0.0
 10
-323.503245613357
 20
-284.4828133320084
 30
0.0
 10
-323.166965158395
 20
-284.3644148757326
 30
0.0
 10
-322.9999999999964
 20
-284.3056293767604
 30
0.0
 11
-324.9999999999964
 21
-285.0633467400815
 31
0.0
 11
-324.5013647328469
 21
-284.8629446538616
 31
0.0
 11
-324.0051616613564
 21
-284.6709724114055
 31
0.0
 11
-323.5003531692009
 21
-284.4834891684364
 31
0.0
 11
-322.9999999999964
 21
-284.3056293767604
 31
0.0
  0
SPLINE
  5
228
330
6A
100
AcDbEntity
  8
0
  6
Continuous
 62
     7
100
AcDbSpline
210
0.0
220
0.0
230
1.0
 70
     8
 71
     3
 72
    11
 73
     7
 74
     5
 42
0.000000001
 43
0.0000000001
 44
0.00000001
 40
0.0
 40
0.0
 40
0.0
 40
0.0
 40
0.253228396801496
 40
0.5152040065310213
 40
0.7778363652515513
 40
1.048535546975201
 40
1.048535546975201
 40
1.048535546975201
 40
1.048535546975201
 10
-304.1230820372621
 20
-284.3056293767604
 30
0.0
 10
-304.1836044910263
 20
-284.3644735218296
 30
0.0
 10
-304.3067400017746
 20
-284.4841944631437
 30
0.0
 10
-304.4874334991757
 20
-284.6701783544829
 30
0.0
 10
-304.6688388864062
 20
-284.8635215625243
 30
0.0
 10
-304.7873201002877
 20
-284.9960700636264
 30
0.0
 10
-304.8474567361809
 20
-285.0633467400815
 30
0.0
 11
-304.1230820372621
 21
-284.3056293767604
 31
0.0
 11
-304.303815396962
 21
-284.482999254996
 31
0.0
 11
-304.4867304404106
 21
-284.6705447350626
 31
0.0
 11
-304.6662304501005
 21
-284.8622619812131
 31
0.0
 11
-304.8474567361809
 21
-285.0633467400815
 31
0.0
  0
SPLINE
  5
229
330
6A
100
AcDbEntity
  8
0
  6
Continuous
 62
     7
100
AcDbSpline
210
0.0
220
0.0
230
1.0
 70
     8
 71
     3
 72
    11
 73
     7
 74
     5
 42
0.000000001
 43
0.0000000001
 44
0.00000001
 40
0.0
 40
0.0
 40
0.0
 40
0.0
 40
0.3158789477958562
 40
0.6240832434643466
 40
0.9336075373330972
 40
1.23557202745692
 40
1.23557202745692
 40
1.23557202745692
 40
1.23557202745692
 10
-353.4999999999964
 20
-285.0633467400815
 30
0.0
 10
-353.4190012541035
 20
-284.996067115857
 30
0.0
 10
-353.2589717130607
 20
-284.8631425168585
 30
0.0
 10
-353.0149163849351
 20
-284.6700162885917
 30
0.0
 10
-352.7713095533126
 20
-284.4838547227818
 30
0.0
 10
-352.606035779336
 20
-284.3645461528911
 30
0.0
 10
-352.5244205234449
 20
-284.3056293767604
 30
0.0
 11
-353.4999999999964
 21
-285.0633467400815
 31
0.0
 11
-353.2562063231067
 21
-284.8624882007824
 31
0.0
 11
-353.014728269125
 21
-284.6709725684395
 31
0.0
 11
-352.7684606824272
 21
-284.4834690634814
 31
0.0
 11
-352.5244205234449
 21
-284.3056293767604
 31
0.0
  0
ENDBLK
  5
6C
330
6A
100
AcDbEntity
  8
0
100
AcDbBlockEnd
  0
BLOCK
  5
6E
330
6D
100
AcDbEntity
  8
0
100
AcDbBlockBegin
  2
Holländermutter_2_
 70
     0
 10
-235.3760583433081
 20
-336.5039514598255
 30
0.0
  3
Holländermutter_2_
  1

  0
LINE
  5
22A
330
6D
100
AcDbEntity
  8
1
  6
PHANTOM
 62
     2
100
AcDbLine
 10
-233.5940194635545
 20
-324.3896760629845
 30
0.0
 11
-235.7230711664886
 21
-348.7248483828054
 31
0.0
  0
LINE
  5
22B
330
6D
100
AcDbEntity
  8
0
  6
Continuous
 62
     7
100
AcDbLine
 10
-201.3747049940672
 20
-346.2274768704046
 30
0.0
 11
-201.6361722223103
 21
-349.2160609646796
 31
0.0
  0
LINE
  5
22C
330
6D
100
AcDbEntity
  8
0
  6
Continuous
 62
     7
100
AcDbLine
 10
-203.0682359808232
 20
-346.0793121077335
 30
0.0
 11
-201.3747049940672
 21
-346.2274768704046
 31
0.0
  0
LINE
  5
22D
330
6D
100
AcDbEntity
  8
0
  6
Continuous
 62
     7
100
AcDbLine
 10
-267.42241347755
 20
-340.4490511262345
 30
0.0
 11
-267.2833241272685
 21
-340.4612198676015
 31
0.0
  0
LINE
  5
22E
330
6D
100
AcDbEntity
  8
0
  6
Continuous
 62
     7
100
AcDbLine
 10
-269.115944464306
 20
-340.3008863635634
 30
0.0
 11
-267.42241347755
 21
-340.4490511262345
 31
0.0
  0
LINE
  5
22F
330
6D
100
AcDbEntity
  8
0
  6
Continuous
 62
     7
100
AcDbLine
 10
-267.2833241272685
 20
-340.4612198676015
 30
0.0
 11
-266.4828200124935
 21
-340.5312549027505
 31
0.0
  0
LINE
  5
230
330
6D
100
AcDbEntity
  8
0
  6
Continuous
 62
     7
100
AcDbLine
 10
-266.3507576798686
 20
-329.8019365980205
 30
0.0
 11
-266.4898470301501
 21
-329.7897678566535
 31
0.0
  0
LINE
  5
231
330
6D
100
AcDbEntity
  8
0
  6
Continuous
 62
     7
100
AcDbLine
 10
-265.6231666774786
 20
-329.0625366923775
 30
0.0
 11
-266.4898470301501
 21
-329.7897678566535
 31
0.0
  0
LINE
  5
232
330
6D
100
AcDbEntity
  8
0
  6
Continuous
 62
     7
100
AcDbLine
 10
-266.3507576798686
 20
-329.8019365980205
 30
0.0
 11
-267.2833241272685
 21
-340.4612198676015
 31
0.0
  0
LINE
  5
233
330
6D
100
AcDbEntity
  8
0
  6
Continuous
 62
     7
100
AcDbLine
 10
-266.4898470301501
 20
-329.7897678566535
 30
0.0
 11
-267.42241347755
 21
-340.4490511262345
 31
0.0
  0
LINE
  5
234
330
6D
100
AcDbEntity
  8
0
  6
Continuous
 62
     7
100
AcDbLine
 10
-206.9138368798932
 20
-345.7428656246195
 30
0.0
 11
-206.1616090703305
 21
-345.8086770303455
 31
0.0
  0
LINE
  5
235
330
6D
100
AcDbEntity
  8
0
  6
Continuous
 62
     7
100
AcDbLine
 10
-206.1616090703305
 20
-345.8086770303455
 30
0.0
 11
-204.1172971498008
 21
-345.9875311481025
 31
0.0
  0
LINE
  5
236
330
6D
100
AcDbEntity
  8
0
  6
Continuous
 62
     7
100
AcDbLine
 10
-213.2370398767605
 20
-345.1896570452204
 30
0.0
 11
-212.6238181479432
 21
-345.2433069947205
 31
0.0
  0
LINE
  5
237
330
6D
100
AcDbEntity
  8
0
  6
Continuous
 62
     7
100
AcDbLine
 10
-212.6238181479432
 20
-345.2433069947205
 30
0.0
 11
-208.7817684953303
 21
-345.5794427840276
 31
0.0
  0
LINE
  5
238
330
6D
100
AcDbEntity
  8
0
  6
Continuous
 62
     7
100
AcDbLine
 10
-222.2147668345217
 20
-344.4042077121855
 30
0.0
 11
-221.814514777134
 21
-344.4392252297595
 31
0.0
  0
LINE
  5
239
330
6D
100
AcDbEntity
  8
0
  6
Continuous
 62
     7
100
AcDbLine
 10
-221.814514777134
 20
-344.4392252297595
 30
0.0
 11
-216.6381352831571
 21
-344.8920997535906
 31
0.0
  0
LINE
  5
23A
330
6D
100
AcDbEntity
  8
0
  6
Continuous
 62
     7
100
AcDbLine
 10
-232.7641713849323
 20
-343.4812544070755
 30
0.0
 11
-232.6251653041868
 21
-343.4934158633025
 31
0.0
  0
LINE
  5
23B
330
6D
100
AcDbEntity
  8
0
  6
Continuous
 62
     7
100
AcDbLine
 10
-232.6251653041868
 20
-343.4934158633025
 30
0.0
 11
-226.7388037310443
 21
-344.0084057703666
 31
0.0
  0
LINE
  5
23C
330
6D
100
AcDbEntity
  8
0
  6
Continuous
 62
     7
100
AcDbLine
 10
-248.2758826238515
 20
-342.1241555217825
 30
0.0
 11
-243.7518457273289
 21
-342.5199574636014
 31
0.0
  0
LINE
  5
23D
330
6D
100
AcDbEntity
  8
0
  6
Continuous
 62
     7
100
AcDbLine
 10
-243.7518457273289
 20
-342.5199574636014
 30
0.0
 11
-237.8654841541863
 21
-343.0349473706655
 31
0.0
  0
LINE
  5
23E
330
6D
100
AcDbEntity
  8
0
  6
Continuous
 62
     7
100
AcDbLine
 10
-257.2536095816126
 20
-341.3387061887474
 30
0.0
 11
-253.852514175216
 21
-341.6362634803774
 31
0.0
  0
LINE
  5
23F
330
6D
100
AcDbEntity
  8
0
  6
Continuous
 62
     7
100
AcDbLine
 10
-253.852514175216
 20
-341.6362634803774
 30
0.0
 11
-248.6761346812391
 21
-342.0891380042085
 31
0.0
  0
LINE
  5
240
330
6D
100
AcDbEntity
  8
0
  6
Continuous
 62
     7
100
AcDbLine
 10
-261.7088809630428
 20
-340.9489204499404
 30
0.0
 11
-257.8668313104301
 21
-341.2850562392484
 31
0.0
  0
LINE
  5
241
330
6D
100
AcDbEntity
  8
0
  6
Continuous
 62
     7
100
AcDbLine
 10
-266.4828200124935
 20
-340.5312549027505
 30
0.0
 11
-266.3733523085724
 21
-340.5408320858655
 31
0.0
  0
LINE
  5
242
330
6D
100
AcDbEntity
  8
0
  6
Continuous
 62
     7
100
AcDbLine
 10
-263.57681257848
 20
-340.7854976093485
 30
0.0
 11
-261.7088809630428
 21
-340.9489204499404
 31
0.0
  0
LINE
  5
243
330
6D
100
AcDbEntity
  8
0
  6
Continuous
 62
     7
100
AcDbLine
 10
-216.6381352831571
 20
-344.8920997535906
 30
0.0
 11
-213.2370398767605
 21
-345.1896570452204
 31
0.0
  0
LINE
  5
244
330
6D
100
AcDbEntity
  8
0
  6
Continuous
 62
     7
100
AcDbLine
 10
-226.7388037310443
 20
-344.0084057703666
 30
0.0
 11
-222.2147668345217
 21
-344.4042077121855
 31
0.0
  0
LINE
  5
245
330
6D
100
AcDbEntity
  8
0
  6
Continuous
 62
     7
100
AcDbLine
 10
-208.7817684953303
 20
-345.5794427840276
 30
0.0
 11
-206.9138368798932
 21
-345.7428656246195
 31
0.0
  0
LINE
  5
246
330
6D
100
AcDbEntity
  8
0
  6
Continuous
 62
     7
100
AcDbLine
 10
-237.7264780734409
 20
-343.0471088268925
 30
0.0
 11
-232.7641713849323
 21
-343.4812544070755
 31
0.0
  0
LINE
  5
247
330
6D
100
AcDbEntity
  8
0
  6
Continuous
 62
     7
100
AcDbLine
 10
-237.8654841541863
 20
-343.0349473706655
 30
0.0
 11
-237.7264780734409
 21
-343.0471088268925
 31
0.0
  0
LINE
  5
248
330
6D
100
AcDbEntity
  8
0
  6
Continuous
 62
     7
100
AcDbLine
 10
-204.1172971498008
 20
-345.9875311481025
 30
0.0
 11
-204.0078294458797
 21
-345.9971083312175
 31
0.0
  0
LINE
  5
249
330
6D
100
AcDbEntity
  8
0
  6
Continuous
 62
     7
100
AcDbLine
 10
-248.6761346812391
 20
-342.0891380042085
 30
0.0
 11
-248.2758826238515
 21
-342.1241555217825
 31
0.0
  0
LINE
  5
24A
330
6D
100
AcDbEntity
  8
0
  6
Continuous
 62
     7
100
AcDbLine
 10
-264.3290403880426
 20
-340.7196862036225
 30
0.0
 11
-263.57681257848
 21
-340.7854976093485
 31
0.0
  0
LINE
  5
24B
330
6D
100
AcDbEntity
  8
0
  6
Continuous
 62
     7
100
AcDbLine
 10
-257.8668313104301
 20
-341.2850562392484
 30
0.0
 11
-257.2536095816126
 21
-341.3387061887474
 31
0.0
  0
LINE
  5
24C
330
6D
100
AcDbEntity
  8
0
  6
Continuous
 62
     7
100
AcDbLine
 10
-266.3733523085724
 20
-340.5408320858655
 30
0.0
 11
-264.3290403880426
 21
-340.7196862036225
 31
0.0
  0
LINE
  5
24D
330
6D
100
AcDbEntity
  8
0
  6
Continuous
 62
     7
100
AcDbLine
 10
-205.2290426229306
 20
-335.1493937607635
 30
0.0
 11
-206.1616090703305
 21
-345.8086770303455
 31
0.0
  0
LINE
  5
24E
330
6D
100
AcDbEntity
  8
0
  6
Continuous
 62
     7
100
AcDbLine
 10
-203.1847307024009
 20
-335.3282478785215
 30
0.0
 11
-204.1172971498008
 21
-345.9875311481025
 31
0.0
  0
LINE
  5
24F
330
6D
100
AcDbEntity
  8
0
  6
Continuous
 62
     7
100
AcDbLine
 10
-211.691251700543
 20
-334.5840237251384
 30
0.0
 11
-212.6238181479432
 21
-345.2433069947205
 31
0.0
  0
LINE
  5
250
330
6D
100
AcDbEntity
  8
0
  6
Continuous
 62
     7
100
AcDbLine
 10
-207.8492020479305
 20
-334.9201595144454
 30
0.0
 11
-208.7817684953303
 21
-345.5794427840276
 31
0.0
  0
LINE
  5
251
330
6D
100
AcDbEntity
  8
0
  6
Continuous
 62
     7
100
AcDbLine
 10
-220.8819483297341
 20
-333.7799419601785
 30
0.0
 11
-221.814514777134
 21
-344.4392252297595
 31
0.0
  0
LINE
  5
252
330
6D
100
AcDbEntity
  8
0
  6
Continuous
 62
     7
100
AcDbLine
 10
-215.7055688357573
 20
-334.2328164840096
 30
0.0
 11
-216.6381352831571
 21
-344.8920997535906
 31
0.0
  0
LINE
  5
253
330
6D
100
AcDbEntity
  8
0
  6
Continuous
 62
     7
100
AcDbLine
 10
-231.6925988567868
 20
-332.8341325937206
 30
0.0
 11
-232.6251653041868
 21
-343.4934158633025
 31
0.0
  0
LINE
  5
254
330
6D
100
AcDbEntity
  8
0
  6
Continuous
 62
     7
100
AcDbLine
 10
-225.8062372836442
 20
-333.3491225007856
 30
0.0
 11
-226.7388037310443
 21
-344.0084057703666
 31
0.0
  0
LINE
  5
255
330
6D
100
AcDbEntity
  8
0
  6
Continuous
 62
     7
100
AcDbLine
 10
-242.8192792799289
 20
-331.8606741940195
 30
0.0
 11
-243.7518457273289
 21
-342.5199574636014
 31
0.0
  0
LINE
  5
256
330
6D
100
AcDbEntity
  8
0
  6
Continuous
 62
     7
100
AcDbLine
 10
-236.9329177067864
 20
-332.3756641010845
 30
0.0
 11
-237.8654841541863
 21
-343.0349473706655
 31
0.0
  0
LINE
  5
257
330
6D
100
AcDbEntity
  8
0
  6
Continuous
 62
     7
100
AcDbLine
 10
-252.919947727816
 20
-330.9769802107955
 30
0.0
 11
-253.852514175216
 21
-341.6362634803774
 31
0.0
  0
LINE
  5
258
330
6D
100
AcDbEntity
  8
0
  6
Continuous
 62
     7
100
AcDbLine
 10
-247.7435682338391
 20
-331.4298547346265
 30
0.0
 11
-248.6761346812391
 21
-342.0891380042085
 31
0.0
  0
LINE
  5
259
330
6D
100
AcDbEntity
  8
0
  6
Continuous
 62
     7
100
AcDbLine
 10
-247.2735915822514
 20
-330.6679164937245
 30
0.0
 11
-252.4499710762304
 21
-330.2150419698964
 31
0.0
  0
LINE
  5
25A
330
6D
100
AcDbEntity
  8
0
  6
Continuous
 62
     7
100
AcDbLine
 10
-262.574521536882
 20
-329.3292585812935
 30
0.0
 11
-264.6188334574115
 21
-329.1504044635364
 31
0.0
  0
LINE
  5
25B
330
6D
100
AcDbEntity
  8
0
  6
Continuous
 62
     7
100
AcDbLine
 10
-236.7241870318428
 20
-331.5908697988375
 30
0.0
 11
-242.6105486049844
 21
-331.0758798917695
 31
0.0
  0
LINE
  5
25C
330
6D
100
AcDbEntity
  8
0
  6
Continuous
 62
     7
100
AcDbLine
 10
-265.4805289708916
 20
-329.0750158746925
 30
0.0
 11
-265.6231666774786
 21
-329.0625366923775
 31
0.0
  0
LINE
  5
25D
330
6D
100
AcDbEntity
  8
0
  6
Continuous
 62
     7
100
AcDbLine
 10
-265.3616994492356
 20
-326.0739525981025
 30
0.0
 11
-265.6231666774786
 21
-329.0625366923775
 31
0.0
  0
LINE
  5
25E
330
6D
100
AcDbEntity
  8
0
  6
Continuous
 62
     7
100
AcDbLine
 10
-202.6014334694557
 20
-331.5647643912045
 30
0.0
 11
-265.3616994492356
 21
-326.0739525981025
 31
0.0
  0
LINE
  5
25F
330
6D
100
AcDbEntity
  8
0
  6
Continuous
 62
     7
100
AcDbLine
 10
-202.6014334694557
 20
-331.5647643912045
 30
0.0
 11
-202.8629006976985
 21
-334.5533484854804
 31
0.0
  0
LINE
  5
260
330
6D
100
AcDbEntity
  8
0
  6
Continuous
 62
     7
100
AcDbLine
 10
-202.8629006976985
 20
-334.5533484854804
 30
0.0
 11
-203.0055384042815
 21
-334.5408693031624
 31
0.0
  0
LINE
  5
261
330
6D
100
AcDbEntity
  8
0
  6
Continuous
 62
     7
100
AcDbLine
 10
-225.875518770192
 20
-332.5400052860816
 30
0.0
 11
-231.761880343334
 21
-332.0250153790204
 31
0.0
  0
LINE
  5
262
330
6D
100
AcDbEntity
  8
0
  6
Continuous
 62
     7
100
AcDbLine
 10
-203.8672339177656
 20
-334.4654807143215
 30
0.0
 11
-205.9115458382953
 21
-334.2866265965644
 31
0.0
  0
LINE
  5
263
330
6D
100
AcDbEntity
  8
0
  6
Continuous
 62
     7
100
AcDbLine
 10
-216.0360962989466
 20
-333.4008432079615
 30
0.0
 11
-221.212475792925
 21
-332.9479686841266
 31
0.0
  0
LINE
  5
264
330
6D
100
AcDbEntity
  8
0
  6
Continuous
 62
     7
100
AcDbLine
 10
-208.3926991825518
 20
-334.0695538064694
 30
0.0
 11
-212.2347488351622
 21
-333.7334180171656
 31
0.0
  0
LINE
  5
265
330
6D
100
AcDbEntity
  8
0
  6
Continuous
 62
     7
100
AcDbLine
 10
-203.1847307024009
 20
-335.3282478785215
 30
0.0
 11
-205.2290426229306
 21
-335.1493937607635
 31
0.0
  0
LINE
  5
266
330
6D
100
AcDbEntity
  8
0
  6
Continuous
 62
     7
100
AcDbLine
 10
-207.8492020479305
 20
-334.9201595144454
 30
0.0
 11
-211.691251700543
 21
-334.5840237251384
 31
0.0
  0
LINE
  5
267
330
6D
100
AcDbEntity
  8
0
  6
Continuous
 62
     7
100
AcDbLine
 10
-215.7055688357573
 20
-334.2328164840096
 30
0.0
 11
-220.8819483297341
 21
-333.7799419601785
 31
0.0
  0
LINE
  5
268
330
6D
100
AcDbEntity
  8
0
  6
Continuous
 62
     7
100
AcDbLine
 10
-225.8062372836442
 20
-333.3491225007856
 30
0.0
 11
-231.6925988567868
 21
-332.8341325937206
 31
0.0
  0
LINE
  5
269
330
6D
100
AcDbEntity
  8
0
  6
Continuous
 62
     7
100
AcDbLine
 10
-236.9329177067864
 20
-332.3756641010845
 30
0.0
 11
-242.8192792799289
 21
-331.8606741940195
 31
0.0
  0
LINE
  5
26A
330
6D
100
AcDbEntity
  8
0
  6
Continuous
 62
     7
100
AcDbLine
 10
-247.7435682338391
 20
-331.4298547346265
 30
0.0
 11
-252.919947727816
 21
-330.9769802107955
 31
0.0
  0
LINE
  5
26B
330
6D
100
AcDbEntity
  8
0
  6
Continuous
 62
     7
100
AcDbLine
 10
-256.9342648630302
 20
-330.6257729696665
 30
0.0
 11
-260.7763145156428
 21
-330.2896371803594
 31
0.0
  0
LINE
  5
26C
330
6D
100
AcDbEntity
  8
0
  6
Continuous
 62
     7
100
AcDbLine
 10
-263.3964739406426
 20
-330.0604029340415
 30
0.0
 11
-265.4407858611723
 21
-329.8815488162836
 31
0.0
  0
LINE
  5
26D
330
6D
100
AcDbEntity
  8
0
  6
Continuous
 62
     7
100
AcDbLine
 10
-256.9342648630302
 20
-330.6257729696665
 30
0.0
 11
-257.8668313104301
 21
-341.2850562392484
 31
0.0
  0
LINE
  5
26E
330
6D
100
AcDbEntity
  8
0
  6
Continuous
 62
     7
100
AcDbLine
 10
-265.4407858611723
 20
-329.8815488162836
 30
0.0
 11
-266.3733523085724
 21
-340.5408320858655
 31
0.0
  0
LINE
  5
26F
330
6D
100
AcDbEntity
  8
0
  6
Continuous
 62
     7
100
AcDbLine
 10
-260.7763145156428
 20
-330.2896371803594
 30
0.0
 11
-261.7088809630428
 21
-340.9489204499404
 31
0.0
  0
LINE
  5
270
330
6D
100
AcDbEntity
  8
0
  6
Continuous
 62
     7
100
AcDbLine
 10
-212.2347488351622
 20
-333.7334180171656
 30
0.0
 11
-213.2370398767605
 21
-345.1896570452204
 31
0.0
  0
LINE
  5
271
330
6D
100
AcDbEntity
  8
0
  6
Continuous
 62
     7
100
AcDbLine
 10
-221.212475792925
 20
-332.9479686841266
 30
0.0
 11
-222.2147668345217
 21
-344.4042077121855
 31
0.0
  0
LINE
  5
272
330
6D
100
AcDbEntity
  8
0
  6
Continuous
 62
     7
100
AcDbLine
 10
-205.9115458382953
 20
-334.2866265965644
 30
0.0
 11
-206.9138368798932
 21
-345.7428656246195
 31
0.0
  0
LINE
  5
273
330
6D
100
AcDbEntity
  8
0
  6
Continuous
 62
     7
100
AcDbLine
 10
-231.761880343334
 20
-332.0250153790204
 30
0.0
 11
-232.7641713849323
 21
-343.4812544070755
 31
0.0
  0
LINE
  5
274
330
6D
100
AcDbEntity
  8
0
  6
Continuous
 62
     7
100
AcDbLine
 10
-236.7241870318428
 20
-331.5908697988375
 30
0.0
 11
-237.7264780734409
 21
-343.0471088268925
 31
0.0
  0
LINE
  5
275
330
6D
100
AcDbEntity
  8
0
  6
Continuous
 62
     7
100
AcDbLine
 10
-203.0055384042815
 20
-334.5408693031624
 30
0.0
 11
-204.0078294458797
 21
-345.9971083312175
 31
0.0
  0
LINE
  5
276
330
6D
100
AcDbEntity
  8
0
  6
Continuous
 62
     7
100
AcDbLine
 10
-247.2735915822514
 20
-330.6679164937245
 30
0.0
 11
-248.2758826238515
 21
-342.1241555217825
 31
0.0
  0
LINE
  5
277
330
6D
100
AcDbEntity
  8
0
  6
Continuous
 62
     7
100
AcDbLine
 10
-265.4805289708916
 20
-329.0750158746925
 30
0.0
 11
-266.4828200124935
 21
-340.5312549027505
 31
0.0
  0
LINE
  5
278
330
6D
100
AcDbEntity
  8
0
  6
Continuous
 62
     7
100
AcDbLine
 10
-262.574521536882
 20
-329.3292585812935
 30
0.0
 11
-263.57681257848
 21
-340.7854976093485
 31
0.0
  0
LINE
  5
279
330
6D
100
AcDbEntity
  8
0
  6
Continuous
 62
     7
100
AcDbLine
 10
-256.2513185400117
 20
-329.8824671606894
 30
0.0
 11
-257.2536095816126
 21
-341.3387061887474
 31
0.0
  0
LINE
  5
27A
330
6D
100
AcDbEntity
  8
0
  6
Continuous
 62
     7
100
AcDbLine
 10
-263.3964739406426
 20
-330.0604029340415
 30
0.0
 11
-264.3290403880426
 21
-340.7196862036225
 31
0.0
  0
LINE
  5
27B
330
6D
100
AcDbEntity
  8
0
  6
Continuous
 62
     7
100
AcDbLine
 10
-269.115944464306
 20
-340.3008863635634
 30
0.0
 11
-269.3774116925489
 21
-343.2894704578384
 31
0.0
  0
LINE
  5
27C
330
6D
100
AcDbEntity
  8
0
  6
Continuous
 62
     7
100
AcDbLine
 10
-269.3774116925489
 20
-343.2894704578384
 30
0.0
 11
-201.6361722223103
 21
-349.2160609646796
 31
0.0
  0
LINE
  5
27D
330
6D
100
AcDbEntity
  8
0
  6
Continuous
 62
     7
100
AcDbLine
 10
-204.0078294458797
 20
-345.9971083312175
 30
0.0
 11
-203.2073253311046
 21
-346.0671433663665
 31
0.0
  0
LINE
  5
27E
330
6D
100
AcDbEntity
  8
0
  6
Continuous
 62
     7
100
AcDbLine
 10
-203.2073253311046
 20
-346.0671433663665
 30
0.0
 11
-203.0682359808232
 21
-346.0793121077335
 31
0.0
  0
LINE
  5
27F
330
6D
100
AcDbEntity
  8
0
  6
Continuous
 62
     7
100
AcDbLine
 10
-204.8740308578158
 20
-328.8563882891064
 30
0.0
 11
-262.6533233471371
 21
-323.8013552097425
 31
0.0
  0
LINE
  5
280
330
6D
100
AcDbEntity
  8
0
  6
Continuous
 62
     7
100
AcDbLine
 10
-202.8629006976985
 20
-334.5533484854804
 30
0.0
 11
-202.1356695334232
 21
-335.4200288381514
 31
0.0
  0
LINE
  5
281
330
6D
100
AcDbEntity
  8
0
  6
Continuous
 62
     7
100
AcDbLine
 10
-202.1356695334232
 20
-335.4200288381514
 30
0.0
 11
-202.2747588837046
 21
-335.4078600967845
 31
0.0
  0
LINE
  5
282
330
6D
100
AcDbEntity
  8
0
  6
Continuous
 62
     7
100
AcDbLine
 10
-202.2747588837046
 20
-335.4078600967845
 30
0.0
 11
-203.2073253311046
 21
-346.0671433663665
 31
0.0
  0
LINE
  5
283
330
6D
100
AcDbEntity
  8
0
  6
Continuous
 62
     7
100
AcDbLine
 10
-202.1356695334232
 20
-335.4200288381514
 30
0.0
 11
-203.0682359808232
 21
-346.0793121077335
 31
0.0
  0
LINE
  5
284
330
6D
100
AcDbEntity
  8
0
  6
Continuous
 62
     7
100
AcDbLine
 10
-256.2513185400117
 20
-329.8824671606894
 30
0.0
 11
-260.0933681926244
 21
-329.5463313713814
 31
0.0
  0
ARC
  5
285
330
6D
100
AcDbEntity
  8
0
  6
Continuous
 62
     7
100
AcDbCircle
 10
-262.8712127040062
 20
-326.2918419549714
 30
0.0
 40
2.499999999999544
100
AcDbArc
 50
84.99999999999929
 51
175.0000000000054
  0
ARC
  5
286
330
6D
100
AcDbEntity
  8
0
  6
Continuous
 62
     7
100
AcDbCircle
 10
-205.0919202146849
 20
-331.3468750343354
 30
0.0
 40
2.499999999999822
100
AcDbArc
 50
355.0000000000012
 51
85.00000000000017
  0
SPLINE
  5
287
330
6D
100
AcDbEntity
  8
0
  6
Continuous
 62
     7
100
AcDbSpline
210
0.0
220
0.0
230
1.0
 70
     8
 71
     3
 72
    11
 73
     7
 74
     5
 42
0.000000001
 43
0.0000000001
 44
0.00000001
 40
0.0
 40
0.0
 40
0.0
 40
0.0
 40
0.2828196565168527
 40
0.5669461542307807
 40
0.84935512611566
 40
1.133892298760168
 40
1.133892298760168
 40
1.133892298760168
 40
1.133892298760168
 10
-265.4805289708916
 20
-329.0750158746925
 30
0.0
 10
-265.5528837939374
 20
-329.135449469436
 30
0.0
 10
-265.697927764529
 20
-329.2565959194695
 30
0.0
 10
-265.9152148343354
 20
-329.4380961778625
 30
0.0
 10
-266.1329369236389
 20
-329.6199686817617
 30
0.0
 10
-266.2779692903126
 20
-329.7411290183208
 30
0.0
 10
-266.3507576798686
 20
-329.8019365980205
 30
0.0
 11
-265.4805289708916
 21
-329.0750158746925
 31
0.0
 11
-265.6975923318835
 21
-329.2563179856214
 31
0.0
 11
-265.9156534974597
 21
-329.4384640664766
 31
0.0
 11
-266.1323914367391
 21
-329.6195151451207
 31
0.0
 11
-266.3507576798686
 21
-329.8019365980205
 31
0.0
  0
SPLINE
  5
288
330
6D
100
AcDbEntity
  8
0
  6
Continuous
 62
     7
100
AcDbSpline
210
0.0
220
0.0
230
1.0
 70
     8
 71
     3
 72
    11
 73
     7
 74
     5
 42
0.000000001
 43
0.0000000001
 44
0.00000001
 40
0.0
 40
0.0
 40
0.0
 40
0.0
 40
0.2508586252626334
 40
0.5047039633575003
 40
0.7564271155280855
 40
1.009415279611339
 40
1.009415279611339
 40
1.009415279611339
 40
1.009415279611339
 10
-208.3926991825518
 20
-334.0695538064694
 30
0.0
 10
-208.3476728093043
 20
-334.1400155228574
 30
0.0
 10
-208.2570839932843
 20
-334.2817778781385
 30
0.0
 10
-208.121321156444
 20
-334.4942495888033
 30
0.0
 10
-207.9851810714202
 20
-334.7073226313855
 30
0.0
 10
-207.8946040591579
 20
-334.8490954372855
 30
0.0
 10
-207.8492020479305
 20
-334.9201595144454
 30
0.0
 11
-208.3926991825518
 21
-334.0695538064694
 31
0.0
 11
-208.2576213064362
 21
-334.2809397503087
 31
0.0
 11
-208.1209410933645
 21
-334.4948462135755
 31
0.0
 11
-207.985409293536
 21
-334.7069680572741
 31
0.0
 11
-207.8492020479305
 21
-334.9201595144454
 31
0.0
  0
SPLINE
  5
289
330
6D
100
AcDbEntity
  8
0
  6
Continuous
 62
     7
100
AcDbSpline
210
0.0
220
0.0
230
1.0
 70
     8
 71
     3
 72
    11
 73
     7
 74
     5
 42
0.000000001
 43
0.0000000001
 44
0.00000001
 40
0.0
 40
0.0
 40
0.0
 40
0.0
 40
0.2244639081383342
 40
0.447620067705314
 40
0.673711703722073
 40
0.8952250758839236
 40
0.8952250758839236
 40
0.8952250758839236
 40
0.8952250758839236
 10
-220.8819483297341
 20
-333.7799419601785
 30
0.0
 10
-220.9095705691033
 20
-333.7104060756844
 30
0.0
 10
-220.964654131905
 20
-333.5717394350544
 30
0.0
 10
-221.0475661117563
 20
-333.3630349943309
 30
0.0
 10
-221.1301190028872
 20
-333.1552461790632
 30
0.0
 10
-221.1852113597157
 20
-333.0165884336218
 30
0.0
 10
-221.212475792925
 20
-332.9479686841266
 30
0.0
 11
-220.8819483297341
 21
-333.7799419601785
 31
0.0
 11
-220.9648160323224
 21
-333.5713346977821
 31
0.0
 11
-221.0472055062342
 21
-333.3639446157114
 31
0.0
 11
-221.1306834932569
 21
-333.1538283299088
 31
0.0
 11
-221.212475792925
 21
-332.9479686841266
 31
0.0
  0
SPLINE
  5
28A
330
6D
100
AcDbEntity
  8
0
  6
Continuous
 62
     7
100
AcDbSpline
210
0.0
220
0.0
230
1.0
 70
     8
 71
     3
 72
    11
 73
     7
 74
     5
 42
0.000000001
 43
0.0000000001
 44
0.00000001
 40
0.0
 40
0.0
 40
0.0
 40
0.0
 40
0.2030113826767629
 40
0.4060282374854639
 40
0.6090504576439586
 40
0.8120779467403897
 40
0.8120779467403897
 40
0.8120779467403897
 40
0.8120779467403897
 10
-225.875518770192
 20
-332.5400052860816
 30
0.0
 10
-225.8697444395265
 20
-332.6074289346244
 30
0.0
 10
-225.8581956374951
 20
-332.7422780503811
 30
0.0
 10
-225.8408746924488
 20
-332.9445546277408
 30
0.0
 10
-225.8235549456947
 20
-333.1468366961572
 30
0.0
 10
-225.8120098826159
 20
-333.2816933155124
 30
0.0
 10
-225.8062372836442
 20
-333.3491225007856
 30
0.0
 11
-225.875518770192
 21
-332.5400052860816
 31
0.0
 11
-225.8581961978993
 21
-332.7422762676522
 31
0.0
 11
-225.8408751111188
 21
-332.9445528685955
 31
0.0
 11
-225.8235554821551
 21
-333.1468349793485
 31
0.0
 11
-225.8062372836442
 21
-333.3491225007856
 31
0.0
  0
SPLINE
  5
28B
330
6D
100
AcDbEntity
  8
0
  6
Continuous
 62
     7
100
AcDbSpline
210
0.0
220
0.0
230
1.0
 70
     8
 71
     3
 72
    11
 73
     7
 74
     5
 42
0.000000001
 43
0.0000000001
 44
0.00000001
 40
0.0
 40
0.0
 40
0.0
 40
0.0
 40
0.203027489095791
 40
0.4060497092552528
 40
0.609066564063166
 40
0.8120779467393439
 40
0.8120779467393439
 40
0.8120779467393439
 40
0.8120779467393439
 10
-242.8192792799289
 20
-331.8606741940195
 30
0.0
 10
-242.8018854245624
 20
-331.7952718108752
 30
0.0
 10
-242.7670981507357
 20
-331.6644687457539
 30
0.0
 10
-242.7149156172973
 20
-331.4682673389436
 30
0.0
 10
-242.6627328572829
 20
-331.2720715478498
 30
0.0
 10
-242.6279432042932
 20
-331.1412765215933
 30
0.0
 10
-242.6105486049844
 20
-331.0758798917695
 30
0.0
 11
-242.8192792799289
 21
-331.8606741940195
 31
0.0
 11
-242.767097324305
 21
-331.6644671481832
 31
0.0
 11
-242.7149148995153
 21
-331.4682656792244
 31
0.0
 11
-242.6627319958249
 21
-331.2720698895179
 31
0.0
 11
-242.6105486049844
 21
-331.0758798917695
 31
0.0
  0
SPLINE
  5
28C
330
6D
100
AcDbEntity
  8
0
  6
Continuous
 62
     7
100
AcDbSpline
210
0.0
220
0.0
230
1.0
 70
     8
 71
     3
 72
    11
 73
     7
 74
     5
 42
0.000000001
 43
0.0000000001
 44
0.00000001
 40
0.0
 40
0.0
 40
0.0
 40
0.0
 40
0.2238804524114523
 40
0.4476050081778631
 40
0.6707725060788194
 40
0.8952250758830278
 40
0.8952250758830278
 40
0.8952250758830278
 40
0.8952250758830278
 10
-247.2735915822514
 20
-330.6679164937245
 30
0.0
 10
-247.312771748608
 20
-330.7314308735969
 30
0.0
 10
-247.3911047858885
 20
-330.8584154136881
 30
0.0
 10
-247.5084876247038
 20
-331.0487155209395
 30
0.0
 10
-247.6259669137555
 20
-331.2391802022242
 30
0.0
 10
-247.7042928428001
 20
-331.3661750247716
 30
0.0
 10
-247.7435682338391
 20
-331.4298547346265
 30
0.0
 11
-247.2735915822514
 21
-330.6679164937245
 31
0.0
 11
-247.3911311442077
 21
-330.858460211404
 31
0.0
 11
-247.5085845043999
 21
-331.0488739321085
 31
0.0
 11
-247.6257411590922
 21
-331.2388161611698
 31
0.0
 11
-247.7435682338391
 21
-331.4298547346265
 31
0.0
  0
SPLINE
  5
28D
330
6D
100
AcDbEntity
  8
0
  6
Continuous
 62
     7
100
AcDbSpline
210
0.0
220
0.0
230
1.0
 70
     8
 71
     3
 72
    11
 73
     7
 74
     5
 42
0.000000001
 43
0.0000000001
 44
0.00000001
 40
0.0
 40
0.0
 40
0.0
 40
0.0
 40
0.2761042276330508
 40
0.5500413636048729
 40
0.8264853202725304
 40
1.100080824203691
 40
1.100080824203691
 40
1.100080824203691
 40
1.100080824203691
 10
-265.4407858611723
 20
-329.8815488162836
 30
0.0
 10
-265.3720227462347
 20
-329.8203766995923
 30
0.0
 10
-265.2350362155455
 20
-329.6985126061629
 30
0.0
 10
-265.0291955398911
 20
-329.5154083459235
 30
0.0
 10
-264.8239752938595
 20
-329.3328648084969
 30
0.0
 10
-264.6869775859075
 20
-329.2110142349768
 30
0.0
 10
-264.6188334574115
 20
-329.1504044635364
 30
0.0
 11
-265.4407858611723
 21
-329.8815488162836
 31
0.0
 11
-265.23449543705
 21
-329.69803367949
 31
0.0
 11
-265.0298191588549
 21
-329.5159645288665
 31
0.0
 11
-264.8232647370843
 21
-329.3322350210969
 31
0.0
 11
-264.6188334574115
 21
-329.1504044635364
 31
0.0
  0
SPLINE
  5
28E
330
6D
100
AcDbEntity
  8
0
  6
Continuous
 62
     7
100
AcDbSpline
210
0.0
220
0.0
230
1.0
 70
     8
 71
     3
 72
    11
 73
     7
 74
     5
 42
0.000000001
 43
0.0000000001
 44
0.00000001
 40
0.0
 40
0.0
 40
0.0
 40
0.0
 40
0.2522496124573624
 40
0.5047039633578456
 40
0.7560618762811446
 40
1.009415279611689
 40
1.009415279611689
 40
1.009415279611689
 40
1.009415279611689
 10
-256.2513185400117
 20
-329.8824671606894
 30
0.0
 10
-256.3082101266513
 20
-329.9443810734327
 30
0.0
 10
-256.4220394649499
 20
-330.0682591615085
 30
0.0
 10
-256.5925526995381
 20
-330.2538383427009
 30
0.0
 10
-256.7633105613127
 20
-330.4396924137316
 30
0.0
 10
-256.8771300957159
 20
-330.5635828380243
 30
0.0
 10
-256.9342648630302
 20
-330.6257729696665
 30
0.0
 11
-256.2513185400117
 21
-329.8824671606894
 31
0.0
 11
-256.4219922000789
 21
-330.0682099095229
 31
0.0
 11
-256.5927992646568
 21
-330.2541081235515
 31
0.0
 11
-256.7628594986111
 21
-330.4392035508766
 31
0.0
 11
-256.9342648630302
 21
-330.6257729696665
 31
0.0
  0
SPLINE
  5
28F
330
6D
100
AcDbEntity
  8
0
  6
Continuous
 62
     7
100
AcDbSpline
210
0.0
220
0.0
230
1.0
 70
     8
 71
     3
 72
    11
 73
     7
 74
     5
 42
0.000000001
 43
0.0000000001
 44
0.00000001
 40
0.0
 40
0.0
 40
0.0
 40
0.0
 40
0.2249202220705974
 40
0.4476200677050608
 40
0.6729149690955504
 40
0.8952250758794579
 40
0.8952250758794579
 40
0.8952250758794579
 40
0.8952250758794579
 10
-252.919947727816
 20
-330.9769802107955
 30
0.0
 10
-252.8805905048289
 20
-330.9131678232052
 30
0.0
 10
-252.802264574333
 20
-330.7861730015533
 30
0.0
 10
-252.684510484973
 20
-330.5952628057725
 30
0.0
 10
-252.5672094694525
 20
-330.4050953815954
 30
0.0
 10
-252.4888764270493
 20
-330.2781108446657
 30
0.0
 10
-252.4499710762304
 20
-330.2150419698964
 30
0.0
 11
-252.919947727816
 21
-330.9769802107955
 31
0.0
 11
-252.8018751531808
 21
-330.7855436066276
 31
0.0
 11
-252.684963998377
 21
-330.5959994082775
 31
0.0
 11
-252.5666862057247
 21
-330.4042491635373
 31
0.0
 11
-252.4499710762304
 21
-330.2150419698964
 31
0.0
  0
SPLINE
  5
290
330
6D
100
AcDbEntity
  8
0
  6
Continuous
 62
     7
100
AcDbSpline
210
0.0
220
0.0
230
1.0
 70
     8
 71
     3
 72
    11
 73
     7
 74
     5
 42
0.000000001
 43
0.0000000001
 44
0.00000001
 40
0.0
 40
0.0
 40
0.0
 40
0.0
 40
0.2030113826731241
 40
0.4060282374809751
 40
0.609050457639624
 40
0.8120779467361986
 40
0.8120779467361986
 40
0.8120779467361986
 40
0.8120779467361986
 10
-236.7241870318428
 20
-331.5908697988375
 30
0.0
 10
-236.7415816311514
 20
-331.6562664286603
 30
0.0
 10
-236.7763712841409
 20
-331.7870614549158
 30
0.0
 10
-236.8285540441548
 20
-331.9832572460083
 30
0.0
 10
-236.8807365775934
 20
-332.1794586528185
 30
0.0
 10
-236.9155238514198
 20
-332.3102617179399
 30
0.0
 10
-236.9329177067864
 20
-332.3756641010845
 30
0.0
 11
-236.7241870318428
 21
-331.5908697988375
 31
0.0
 11
-236.7763704226825
 21
-331.7870597965829
 31
0.0
 11
-236.8285533263729
 21
-331.9832555862894
 31
0.0
 11
-236.8807357511624
 21
-332.1794570552474
 31
0.0
 11
-236.9329177067864
 21
-332.3756641010845
 31
0.0
  0
SPLINE
  5
291
330
6D
100
AcDbEntity
  8
0
  6
Continuous
 62
     7
100
AcDbSpline
210
0.0
220
0.0
230
1.0
 70
     8
 71
     3
 72
    11
 73
     7
 74
     5
 42
0.000000001
 43
0.0000000001
 44
0.00000001
 40
0.0
 40
0.0
 40
0.0
 40
0.0
 40
0.2030274890959732
 40
0.4060497092549655
 40
0.6090665640627677
 40
0.8120779467366033
 40
0.8120779467366033
 40
0.8120779467366033
 40
0.8120779467366033
 10
-231.6925988567868
 20
-332.8341325937206
 30
0.0
 10
-231.6983714557584
 20
-332.7667034084475
 30
0.0
 10
-231.7099165188374
 20
-332.6318467890924
 30
0.0
 10
-231.7272362655911
 20
-332.4295647206764
 30
0.0
 10
-231.7445572106376
 20
-332.2272881433174
 30
0.0
 10
-231.7561060126687
 20
-332.0924390275621
 30
0.0
 10
-231.761880343334
 20
-332.0250153790204
 30
0.0
 11
-231.6925988567868
 21
-332.8341325937206
 31
0.0
 11
-231.7099170552976
 21
-332.631845072284
 31
0.0
 11
-231.7272366842612
 21
-332.4295629615305
 31
0.0
 11
-231.7445577710417
 21
-332.227286360588
 31
0.0
 11
-231.761880343334
 21
-332.0250153790204
 31
0.0
  0
SPLINE
  5
292
330
6D
100
AcDbEntity
  8
0
  6
Continuous
 62
     7
100
AcDbSpline
210
0.0
220
0.0
230
1.0
 70
     8
 71
     3
 72
    11
 73
     7
 74
     5
 42
0.000000001
 43
0.0000000001
 44
0.00000001
 40
0.0
 40
0.0
 40
0.0
 40
0.0
 40
0.2223072486721887
 40
0.4476050081745154
 40
0.6709199640050239
 40
0.8952250758797873
 40
0.8952250758797873
 40
0.8952250758797873
 40
0.8952250758797873
 10
-216.0360962989466
 20
-333.4008432079615
 30
0.0
 10
-216.0087341547869
 20
-333.4697088827042
 30
0.0
 10
-215.9536418007534
 20
-333.6083666292545
 30
0.0
 10
-215.8710693739703
 20
-333.8162046396859
 30
0.0
 10
-215.7882550958355
 20
-334.0246631514922
 30
0.0
 10
-215.7331715335845
 20
-334.1633297923407
 30
0.0
 10
-215.7055688357573
 20
-334.2328164840096
 30
0.0
 11
-216.0360962989466
 21
-333.4008432079615
 31
0.0
 11
-215.9540108742117
 21
-333.6074406325784
 31
0.0
 11
-215.8708260122573
 21
-333.8168191395425
 31
0.0
 11
-215.7883779122398
 21
-334.0243567995013
 31
0.0
 11
-215.7055688357573
 21
-334.2328164840096
 31
0.0
  0
SPLINE
  5
293
330
6D
100
AcDbEntity
  8
0
  6
Continuous
 62
     7
100
AcDbSpline
210
0.0
220
0.0
230
1.0
 70
     8
 71
     3
 72
    11
 73
     7
 74
     5
 42
0.000000001
 43
0.0000000001
 44
0.00000001
 40
0.0
 40
0.0
 40
0.0
 40
0.0
 40
0.253005620989446
 40
0.5047113162540532
 40
0.7571643754563623
 40
1.009415279607523
 40
1.009415279607523
 40
1.009415279607523
 40
1.009415279607523
 10
-211.691251700543
 20
-334.5840237251384
 30
0.0
 10
-211.7366568446438
 20
-334.5129547443573
 30
0.0
 10
-211.8272338569135
 20
-334.3711819384619
 30
0.0
 10
-211.9631240667139
 20
-334.1584999772679
 30
0.0
 10
-212.0988837552333
 20
-333.9460331603557
 30
0.0
 10
-212.189472565843
 20
-333.8042708016189
 30
0.0
 10
-212.2347488351622
 20
-333.7334180171656
 30
0.0
 11
-211.691251700543
 21
-334.5840237251384
 31
0.0
 11
-211.8274683450322
 21
-334.3708175572717
 31
0.0
 11
-211.9629907459774
 21
-334.1587104242685
 31
0.0
 11
-212.09892128583
 21
-333.9459771747843
 31
0.0
 11
-212.2347488351622
 21
-333.7334180171656
 31
0.0
  0
SPLINE
  5
294
330
6D
100
AcDbEntity
  8
0
  6
Continuous
 62
     7
100
AcDbSpline
210
0.0
220
0.0
230
1.0
 70
     8
 71
     3
 72
    11
 73
     7
 74
     5
 42
0.000000001
 43
0.0000000001
 44
0.00000001
 40
0.0
 40
0.0
 40
0.0
 40
0.0
 40
0.2735951363518803
 40
0.5500394605993466
 40
0.8240107588475526
 40
1.10008082420486
 40
1.10008082420486
 40
1.10008082420486
 40
1.10008082420486
 10
-203.8672339177656
 20
-334.4654807143215
 30
0.0
 10
-203.8106499040816
 20
-334.5370026947855
 30
0.0
 10
-203.6968926291853
 20
-334.680791486628
 30
0.0
 10
-203.5264814274243
 20
-334.8962068300843
 30
0.0
 10
-203.3555635796116
 20
-335.1122732797747
 30
0.0
 10
-203.2418196599955
 20
-335.2560734453103
 30
0.0
 10
-203.1847307024009
 20
-335.3282478785215
 30
0.0
 11
-203.8672339177656
 21
-334.4654807143215
 31
0.0
 11
-203.6974831816092
 21
-334.6800476880379
 31
0.0
 11
-203.525970851779
 21
-334.8968540189534
 31
0.0
 11
-203.3559988484358
 21
-335.1117255860428
 31
0.0
 11
-203.1847307024009
 21
-335.3282478785215
 31
0.0
  0
SPLINE
  5
295
330
6D
100
AcDbEntity
  8
0
  6
Continuous
 62
     7
100
AcDbSpline
210
0.0
220
0.0
230
1.0
 70
     8
 71
     3
 72
    11
 73
     7
 74
     5
 42
0.000000001
 43
0.0000000001
 44
0.00000001
 40
0.0
 40
0.0
 40
0.0
 40
0.0
 40
0.2747404906269923
 40
0.5500394605987319
 40
0.8244175636901659
 40
1.100080824204048
 40
1.100080824204048
 40
1.100080824204048
 40
1.100080824204048
 10
-262.574521536882
 20
-329.3292585812935
 30
0.0
 10
-262.6429508441132
 20
-329.3901220043619
 30
0.0
 10
-262.7799485484272
 20
-329.5119725819722
 30
0.0
 10
-262.9852786120128
 20
-329.6946138224329
 30
0.0
 10
-263.1908341188445
 20
-329.8774644199003
 30
0.0
 10
-263.3278206482082
 20
-329.9993285148199
 30
0.0
 10
-263.3964739406426
 20
-330.0604029340415
 30
0.0
 11
-262.574521536882
 21
-329.3292585812935
 31
0.0
 11
-262.7798083427315
 21
-329.5118501050129
 31
0.0
 11
-262.9855072383253
 21
-329.6948186466236
 31
0.0
 11
-263.1905129877475
 21
-329.8771808854781
 31
0.0
 11
-263.3964739406426
 21
-330.0604029340415
 31
0.0
  0
SPLINE
  5
296
330
6D
100
AcDbEntity
  8
0
  6
Continuous
 62
     7
100
AcDbSpline
210
0.0
220
0.0
230
1.0
 70
     8
 71
     3
 72
    11
 73
     7
 74
     5
 42
0.000000001
 43
0.0000000001
 44
0.00000001
 40
0.0
 40
0.0
 40
0.0
 40
0.0
 40
0.2761036337132728
 40
0.5500413636047286
 40
0.8253405607156605
 40
1.100080824204119
 40
1.100080824204119
 40
1.100080824204119
 40
1.100080824204119
 10
-205.2290426229306
 20
-335.1493937607635
 30
0.0
 10
-205.286138522215
 20
-335.0772105516319
 30
0.0
 10
-205.3998824419031
 20
-334.9334103861536
 30
0.0
 10
-205.5705634772571
 20
-334.7176433052243
 30
0.0
 10
-205.7409677248492
 20
-334.5022367278169
 30
0.0
 10
-205.8547249954707
 20
-334.3584479325924
 30
0.0
 10
-205.9115458382953
 20
-334.2866265965644
 30
0.0
 11
-205.2290426229306
 21
-335.1493937607635
 31
0.0
 11
-205.4003315944379
 21
-334.9328451408425
 31
0.0
 11
-205.5702827723087
 21
-334.7179999011964
 31
0.0
 11
-205.7410846265793
 21
-334.502091646357
 31
0.0
 11
-205.9115458382953
 21
-334.2866265965644
 31
0.0
  0
SPLINE
  5
297
330
6D
100
AcDbEntity
  8
0
  6
Continuous
 62
     7
100
AcDbSpline
210
0.0
220
0.0
230
1.0
 70
     8
 71
     3
 72
    11
 73
     7
 74
     5
 42
0.000000001
 43
0.0000000001
 44
0.00000001
 40
0.0
 40
0.0
 40
0.0
 40
0.0
 40
0.2534658019810819
 40
0.5047113162543204
 40
0.7564801997506909
 40
1.009415279612277
 40
1.009415279612277
 40
1.009415279612277
 40
1.009415279612277
 10
-260.7763145156428
 20
-330.2896371803594
 30
0.0
 10
-260.7191544006807
 20
-330.2274194586075
 30
0.0
 10
-260.6053348659502
 20
-330.1035290346152
 30
0.0
 10
-260.4347315912174
 20
-329.9178432197317
 30
0.0
 10
-260.264243712264
 20
-329.732291621311
 30
0.0
 10
-260.1504143762688
 20
-329.6084135311182
 30
0.0
 10
-260.0933681926244
 20
-329.5463313713814
 30
0.0
 11
-260.7763145156428
 21
-330.2896371803594
 31
0.0
 11
-260.6048331072113
 21
-330.1029849922224
 31
0.0
 11
-260.4348489172697
 21
-329.9179723342435
 31
0.0
 11
-260.264505637206
 21
-329.7325788671679
 31
0.0
 11
-260.0933681926244
 21
-329.5463313713814
 31
0.0
  0
SPLINE
  5
298
330
6D
100
AcDbEntity
  8
0
  6
Continuous
 62
     7
100
AcDbSpline
210
0.0
220
0.0
230
1.0
 70
     8
 71
     3
 72
    11
 73
     7
 74
     5
 42
0.000000001
 43
0.0000000001
 44
0.00000001
 40
0.0
 40
0.0
 40
0.0
 40
0.0
 40
0.2844851893745613
 40
0.5669461445287429
 40
0.8518083868098978
 40
1.133892298755108
 40
1.133892298755108
 40
1.133892298755108
 40
1.133892298755108
 10
-202.2747588837046
 20
-335.4078600967845
 30
0.0
 10
-202.3358711616965
 20
-335.335349999179
 30
0.0
 10
-202.4576608890386
 20
-335.1908457540791
 30
0.0
 10
-202.6406515180767
 20
-334.973741735172
 30
0.0
 10
-202.8231314951568
 20
-334.7572541272618
 30
0.0
 10
-202.944935064321
 20
-334.612761545103
 30
0.0
 10
-203.0055384042815
 20
-334.5408693031624
 30
0.0
 11
-202.2747588837046
 21
-335.4078600967845
 31
0.0
 11
-202.4580969986108
 21
-335.1903308835826
 31
0.0
 11
-202.6401365131744
 21
-334.9743544813434
 31
0.0
 11
-202.8237296986471
 21
-334.7565471368263
 31
0.0
 11
-203.0055384042815
 21
-334.5408693031624
 31
0.0
  0
ENDBLK
  5
6F
330
6D
100
AcDbEntity
  8
0
100
AcDbBlockEnd
  0
BLOCK
  5
71
330
70
100
AcDbEntity
  8
0
100
AcDbBlockBegin
  2
Holländermutter_6_4__3
 70
     0
 10
-325.0000000000056
 20
-60.24833395017528
 30
0.0
  3
Holländermutter_6_4__3
  1

  0
LINE
  5
299
330
70
100
AcDbEntity
  8
1
  6
PHANTOM
 62
     2
100
AcDbLine
 10
-324.9999999999964
 20
-51.74833395017528
 30
0.0
 11
-324.9999999999964
 21
-54.24833395017528
 31
0.0
  0
LINE
  5
29A
330
70
100
AcDbEntity
  8
0
  6
Continuous
 62
     7
100
AcDbLine
 10
-298.8835071851864
 20
-68.74833395017528
 30
0.0
 11
-351.1164928148064
 21
-68.74833395017528
 31
0.0
  0
LINE
  5
29B
330
70
100
AcDbEntity
  8
0
  6
Continuous
 62
     7
100
AcDbLine
 10
-351.1164928148064
 20
-68.74833395017528
 30
0.0
 11
-353.4999999999964
 21
-66.74833395017528
 31
0.0
  0
LINE
  5
29C
330
70
100
AcDbEntity
  8
0
  6
Continuous
 62
     7
100
AcDbLine
 10
-296.4999999999964
 20
-54.24833395017528
 30
0.0
 11
-296.5000000000146
 21
-66.74833395021257
 31
0.0
  0
LINE
  5
29D
330
70
100
AcDbEntity
  8
0
  6
Continuous
 62
     7
100
AcDbLine
 10
-353.4999999999964
 20
-54.24833395017528
 30
0.0
 11
-353.4999999999964
 21
-66.74833395017528
 31
0.0
  0
LINE
  5
29E
330
70
100
AcDbEntity
  8
0
  6
Continuous
 62
     7
100
AcDbLine
 10
-353.4999999999964
 20
-54.24833395017528
 30
0.0
 11
-352.5244205234449
 21
-54.24833395017528
 31
0.0
  0
LINE
  5
29F
330
70
100
AcDbEntity
  8
0
  6
Continuous
 62
     7
100
AcDbLine
 10
-296.4999999999964
 20
-54.24833395017528
 30
0.0
 11
-297.4755794765479
 21
-54.24833395017528
 31
0.0
  0
LINE
  5
2A0
330
70
100
AcDbEntity
  8
0
  6
Continuous
 62
     7
100
AcDbLine
 10
-298.8835071851864
 20
-68.74833395017528
 30
0.0
 11
-296.5000000000146
 21
-66.74833395021257
 31
0.0
  0
LINE
  5
2A1
330
70
100
AcDbEntity
  8
0
  6
Continuous
 62
     7
100
AcDbLine
 10
-351.4244205234427
 20
-54.24833395017528
 30
0.0
 11
-352.5244205234449
 21
-54.24833395017528
 31
0.0
  0
LINE
  5
2A2
330
70
100
AcDbEntity
  8
0
  6
Continuous
 62
     7
100
AcDbLine
 10
-304.1230820372621
 20
-64.74833395017528
 30
0.0
 11
-304.1230820372621
 21
-65.74833395017528
 31
0.0
  0
LINE
  5
2A3
330
70
100
AcDbEntity
  8
0
  6
Continuous
 62
     7
100
AcDbLine
 10
-304.1230820372621
 20
-65.74833395017528
 30
0.0
 11
-304.1230820372621
 21
-67.50605131349745
 31
0.0
  0
LINE
  5
2A4
330
70
100
AcDbEntity
  8
0
  6
Continuous
 62
     7
100
AcDbLine
 10
-307.7293266213164
 20
-68.42653321253034
 30
0.0
 11
-322.9999999999964
 21
-68.42653321253034
 31
0.0
  0
LINE
  5
2A5
330
70
100
AcDbEntity
  8
0
  6
Continuous
 62
     7
100
AcDbLine
 10
-326.9999999999964
 20
-68.42653321253034
 30
0.0
 11
-342.2706733786799
 21
-68.42653321253034
 31
0.0
  0
LINE
  5
2A6
330
70
100
AcDbEntity
  8
0
  6
Continuous
 62
     7
100
AcDbLine
 10
-342.2706733786799
 20
-54.24833395017528
 30
0.0
 11
-342.2706733786799
 21
-68.42653321253034
 31
0.0
  0
LINE
  5
2A7
330
70
100
AcDbEntity
  8
0
  6
Continuous
 62
     7
100
AcDbLine
 10
-322.9999999999964
 20
-67.50605131349745
 30
0.0
 11
-322.9999999999964
 21
-68.42653321253034
 31
0.0
  0
LINE
  5
2A8
330
70
100
AcDbEntity
  8
0
  6
Continuous
 62
     7
100
AcDbLine
 10
-307.7293266213164
 20
-54.24833395017528
 30
0.0
 11
-307.7293266213164
 21
-68.42653321253034
 31
0.0
  0
LINE
  5
2A9
330
70
100
AcDbEntity
  8
0
  6
Continuous
 62
     7
100
AcDbLine
 10
-322.9999999999964
 20
-54.24833395017528
 30
0.0
 11
-322.9999999999964
 21
-67.50605131349745
 31
0.0
  0
LINE
  5
2AA
330
70
100
AcDbEntity
  8
0
  6
Continuous
 62
     7
100
AcDbLine
 10
-345.8769179627307
 20
-65.74833395017528
 30
0.0
 11
-345.8769179627307
 21
-67.50605131349745
 31
0.0
  0
LINE
  5
2AB
330
70
100
AcDbEntity
  8
0
  6
Continuous
 62
     7
100
AcDbLine
 10
-343.048490837984
 20
-54.24833395017528
 30
0.0
 11
-343.048490837984
 21
-67.50605131349745
 31
0.0
  0
LINE
  5
2AC
330
70
100
AcDbEntity
  8
0
  6
Continuous
 62
     7
100
AcDbLine
 10
-306.9515091620087
 20
-54.24833395017528
 30
0.0
 11
-306.9515091619978
 21
-67.50605131354838
 31
0.0
  0
LINE
  5
2AD
330
70
100
AcDbEntity
  8
0
  6
Continuous
 62
     7
100
AcDbLine
 10
-326.9999999999964
 20
-54.24833395017528
 30
0.0
 11
-326.9999999999964
 21
-67.50605131349745
 31
0.0
  0
LINE
  5
2AE
330
70
100
AcDbEntity
  8
0
  6
Continuous
 62
     7
100
AcDbLine
 10
-304.8474567361809
 20
-54.24833395017528
 30
0.0
 11
-304.8474567361809
 21
-66.74833395017528
 31
0.0
  0
LINE
  5
2AF
330
70
100
AcDbEntity
  8
0
  6
Continuous
 62
     7
100
AcDbLine
 10
-345.1525432638118
 20
-54.24833395017528
 30
0.0
 11
-345.1525432638118
 21
-66.74833395017528
 31
0.0
  0
LINE
  5
2B0
330
70
100
AcDbEntity
  8
0
  6
Continuous
 62
     7
100
AcDbLine
 10
-324.9999999999964
 20
-54.24833395017528
 30
0.0
 11
-324.9999999999964
 21
-66.74833395017528
 31
0.0
  0
LINE
  5
2B1
330
70
100
AcDbEntity
  8
0
  6
Continuous
 62
     7
100
AcDbLine
 10
-345.8769179627307
 20
-54.24833395017528
 30
0.0
 11
-345.8769179627307
 21
-65.74833395017528
 31
0.0
  0
LINE
  5
2B2
330
70
100
AcDbEntity
  8
0
  6
Continuous
 62
     7
100
AcDbLine
 10
-304.1230820372621
 20
-54.24833395017528
 30
0.0
 11
-304.1230820372621
 21
-64.74833395017528
 31
0.0
  0
LINE
  5
2B3
330
70
100
AcDbEntity
  8
0
  6
Continuous
 62
     7
100
AcDbLine
 10
-304.1230820372621
 20
-54.24833395017528
 30
0.0
 11
-304.8474567361809
 21
-54.24833395017528
 31
0.0
  0
LINE
  5
2B4
330
70
100
AcDbEntity
  8
0
  6
Continuous
 62
     7
100
AcDbLine
 10
-306.9515091620087
 20
-54.24833395017528
 30
0.0
 11
-307.7293266213164
 21
-54.24833395017528
 31
0.0
  0
LINE
  5
2B5
330
70
100
AcDbEntity
  8
0
  6
Continuous
 62
     7
100
AcDbLine
 10
-307.7293266213164
 20
-54.24833395017528
 30
0.0
 11
-322.9999999999964
 21
-54.24833395017528
 31
0.0
  0
LINE
  5
2B6
330
70
100
AcDbEntity
  8
0
  6
Continuous
 62
     7
100
AcDbLine
 10
-345.1525432638118
 20
-54.24833395017528
 30
0.0
 11
-345.8769179627307
 21
-54.24833395017528
 31
0.0
  0
LINE
  5
2B7
330
70
100
AcDbEntity
  8
0
  6
Continuous
 62
     7
100
AcDbLine
 10
-345.099100503423
 20
-54.24833395017528
 30
0.0
 11
-345.1525432638118
 21
-54.24833395017528
 31
0.0
  0
LINE
  5
2B8
330
70
100
AcDbEntity
  8
0
  6
Continuous
 62
     7
100
AcDbLine
 10
-324.9999999999964
 20
-54.24833395017528
 30
0.0
 11
-326.9999999999964
 21
-54.24833395017528
 31
0.0
  0
LINE
  5
2B9
330
70
100
AcDbEntity
  8
0
  6
Continuous
 62
     7
100
AcDbLine
 10
-342.2706733786799
 20
-54.24833395017528
 30
0.0
 11
-343.048490837984
 21
-54.24833395017528
 31
0.0
  0
LINE
  5
2BA
330
70
100
AcDbEntity
  8
0
  6
Continuous
 62
     7
100
AcDbLine
 10
-345.099100503423
 20
-54.24833395017528
 30
0.0
 11
-343.048490837984
 21
-54.24833395017528
 31
0.0
  0
LINE
  5
2BB
330
70
100
AcDbEntity
  8
0
  6
Continuous
 62
     7
100
AcDbLine
 10
-324.9999999999964
 20
-54.24833395017528
 30
0.0
 11
-322.9999999999964
 21
-54.24833395017528
 31
0.0
  0
LINE
  5
2BC
330
70
100
AcDbEntity
  8
0
  6
Continuous
 62
     7
100
AcDbLine
 10
-304.9008994965698
 20
-54.24833395017528
 30
0.0
 11
-304.8474567361809
 21
-54.24833395017528
 31
0.0
  0
LINE
  5
2BD
330
70
100
AcDbEntity
  8
0
  6
Continuous
 62
     7
100
AcDbLine
 10
-345.099100503423
 20
-68.42653321253034
 30
0.0
 11
-351.4244205234427
 21
-68.42653321253034
 31
0.0
  0
LINE
  5
2BE
330
70
100
AcDbEntity
  8
0
  6
Continuous
 62
     7
100
AcDbLine
 10
-351.4244205234427
 20
-54.24833395017528
 30
0.0
 11
-351.4244205234427
 21
-68.42653321253034
 31
0.0
  0
LINE
  5
2BF
330
70
100
AcDbEntity
  8
0
  6
Continuous
 62
     7
100
AcDbLine
 10
-345.8769179627307
 20
-54.24833395017528
 30
0.0
 11
-351.4244205234427
 21
-54.24833395017528
 31
0.0
  0
LINE
  5
2C0
330
70
100
AcDbEntity
  8
0
  6
Continuous
 62
     7
100
AcDbLine
 10
-352.5244205234449
 20
-54.24833395017528
 30
0.0
 11
-352.5244205234449
 21
-67.50605131349745
 31
0.0
  0
LINE
  5
2C1
330
70
100
AcDbEntity
  8
0
  6
Continuous
 62
     7
100
AcDbLine
 10
-353.4999999999964
 20
-51.74833395017528
 30
0.0
 11
-296.4999999999964
 21
-51.74833395017528
 31
0.0
  0
LINE
  5
2C2
330
70
100
AcDbEntity
  8
0
  6
Continuous
 62
     7
100
AcDbLine
 10
-353.4999999999964
 20
-51.74833395017528
 30
0.0
 11
-353.4999999999964
 21
-54.24833395017528
 31
0.0
  0
LINE
  5
2C3
330
70
100
AcDbEntity
  8
0
  6
Continuous
 62
     7
100
AcDbLine
 10
-296.4999999999964
 20
-51.74833395017528
 30
0.0
 11
-296.4999999999964
 21
-54.24833395017528
 31
0.0
  0
LINE
  5
2C4
330
70
100
AcDbEntity
  8
0
  6
Continuous
 62
     7
100
AcDbLine
 10
-298.5755794765501
 20
-54.24833395017528
 30
0.0
 11
-298.5755794765501
 21
-68.42653321253034
 31
0.0
  0
LINE
  5
2C5
330
70
100
AcDbEntity
  8
0
  6
Continuous
 62
     7
100
AcDbLine
 10
-326.9999999999964
 20
-67.50605131349745
 30
0.0
 11
-326.9999999999964
 21
-68.42653321253034
 31
0.0
  0
LINE
  5
2C6
330
70
100
AcDbEntity
  8
0
  6
Continuous
 62
     7
100
AcDbLine
 10
-304.9008994965698
 20
-68.42653321253034
 30
0.0
 11
-298.5755794765501
 21
-68.42653321253034
 31
0.0
  0
LINE
  5
2C7
330
70
100
AcDbEntity
  8
0
  6
Continuous
 62
     7
100
AcDbLine
 10
-297.4755794765479
 20
-54.24833395017528
 30
0.0
 11
-297.4755794765479
 21
-67.50605131349745
 31
0.0
  0
LINE
  5
2C8
330
70
100
AcDbEntity
  8
0
  6
Continuous
 62
     7
100
AcDbLine
 10
-298.5755794765501
 20
-54.24833395017528
 30
0.0
 11
-297.4755794765479
 21
-54.24833395017528
 31
0.0
  0
LINE
  5
2C9
330
70
100
AcDbEntity
  8
0
  6
Continuous
 62
     7
100
AcDbLine
 10
-326.9999999999964
 20
-54.24833395017528
 30
0.0
 11
-342.2706733786799
 21
-54.24833395017528
 31
0.0
  0
LINE
  5
2CA
330
70
100
AcDbEntity
  8
0
  6
Continuous
 62
     7
100
AcDbLine
 10
-304.1230820372621
 20
-54.24833395017528
 30
0.0
 11
-298.5755794765501
 21
-54.24833395017528
 31
0.0
  0
LINE
  5
2CB
330
70
100
AcDbEntity
  8
0
  6
Continuous
 62
     7
100
AcDbLine
 10
-306.9515091620087
 20
-54.24833395017528
 30
0.0
 11
-304.9008994965698
 21
-54.24833395017528
 31
0.0
  0
SPLINE
  5
2CC
330
70
100
AcDbEntity
  8
0
  6
Continuous
 62
     7
100
AcDbSpline
210
0.0
220
0.0
230
1.0
 70
     8
 71
     3
 72
    11
 73
     7
 74
     5
 42
0.000000001
 43
0.0000000001
 44
0.00000001
 40
0.0
 40
0.0
 40
0.0
 40
0.0
 40
0.3158789477965429
 40
0.6240832434650156
 40
0.9336075373336457
 40
1.235572027457602
 40
1.235572027457602
 40
1.235572027457602
 40
1.235572027457602
 10
-353.4999999999964
 20
-66.74833395017528
 30
0.0
 10
-353.4190012541036
 20
-66.81561357440025
 30
0.0
 10
-353.2589717130609
 20
-66.94853817339941
 30
0.0
 10
-353.0149163849352
 20
-67.14166440166613
 30
0.0
 10
-352.7713095533124
 20
-67.32782596747583
 30
0.0
 10
-352.6060357793361
 20
-67.44713453736672
 30
0.0
 10
-352.5244205234449
 20
-67.50605131349745
 30
0.0
 11
-353.4999999999964
 21
-66.74833395017528
 31
0.0
 11
-353.2562063231067
 21
-66.94919248947544
 31
0.0
 11
-353.014728269125
 21
-67.14070812181832
 31
0.0
 11
-352.7684606824272
 21
-67.32821162677625
 31
0.0
 11
-352.5244205234449
 21
-67.50605131349745
 31
0.0
  0
SPLINE
  5
2CD
330
70
100
AcDbEntity
  8
0
  6
Continuous
 62
     7
100
AcDbSpline
210
0.0
220
0.0
230
1.0
 70
     8
 71
     3
 72
    11
 73
     7
 74
     5
 42
0.000000001
 43
0.0000000001
 44
0.00000001
 40
0.0
 40
0.0
 40
0.0
 40
0.0
 40
0.2532283968016652
 40
0.5152040065314651
 40
0.7778363652522027
 40
1.048535546975979
 40
1.048535546975979
 40
1.048535546975979
 40
1.048535546975979
 10
-304.1230820372621
 20
-67.50605131349745
 30
0.0
 10
-304.1836044910262
 20
-67.44720716842815
 30
0.0
 10
-304.3067400017747
 20
-67.327486227114
 30
0.0
 10
-304.4874334991757
 20
-67.14150233577418
 30
0.0
 10
-304.6688388864062
 20
-66.9481591277328
 30
0.0
 10
-304.7873201002876
 20
-66.81561062663042
 30
0.0
 10
-304.8474567361809
 20
-66.74833395017528
 30
0.0
 11
-304.1230820372621
 21
-67.50605131349745
 31
0.0
 11
-304.303815396962
 21
-67.32868143526163
 31
0.0
 11
-304.4867304404106
 21
-67.14113595519463
 31
0.0
 11
-304.6662304501005
 21
-66.94941870904388
 31
0.0
 11
-304.8474567361809
 21
-66.74833395017528
 31
0.0
  0
SPLINE
  5
2CE
330
70
100
AcDbEntity
  8
0
  6
Continuous
 62
     7
100
AcDbSpline
210
0.0
220
0.0
230
1.0
 70
     8
 71
     3
 72
    11
 73
     7
 74
     5
 42
0.000000001
 43
0.0000000001
 44
0.00000001
 40
0.0
 40
0.0
 40
0.0
 40
0.0
 40
0.5373994098885227
 40
1.069443421121088
 40
1.607942799014593
 40
2.138967656576544
 40
2.138967656576544
 40
2.138967656576544
 40
2.138967656576544
 10
-324.9999999999964
 20
-66.74833395017528
 30
0.0
 10
-324.8339721119153
 20
-66.81559795387126
 30
0.0
 10
-324.5035708640663
 20
-66.9494556348584
 30
0.0
 10
-324.0035174706661
 20
-67.14243892556115
 30
0.0
 10
-323.5032456133571
 20
-67.32886735824971
 30
0.0
 10
-323.1669651583949
 20
-67.44726581452542
 30
0.0
 10
-322.9999999999964
 20
-67.50605131349745
 30
0.0
 11
-324.9999999999964
 21
-66.74833395017528
 31
0.0
 11
-324.5013647328469
 21
-66.94873603639537
 31
0.0
 11
-324.0051616613564
 21
-67.14070827885168
 31
0.0
 11
-323.5003531692009
 21
-67.32819152182152
 31
0.0
 11
-322.9999999999964
 21
-67.50605131349745
 31
0.0
  0
SPLINE
  5
2CF
330
70
100
AcDbEntity
  8
0
  6
Continuous
 62
     7
100
AcDbSpline
210
0.0
220
0.0
230
1.0
 70
     8
 71
     3
 72
    11
 73
     7
 74
     5
 42
0.000000001
 43
0.0000000001
 44
0.00000001
 40
0.0
 40
0.0
 40
0.0
 40
0.0
 40
0.5642569841864605
 40
1.117752099907288
 40
1.68094357399676
 40
2.236567026744591
 40
2.236567026744591
 40
2.236567026744591
 40
2.236567026744591
 10
-345.1525432638118
 20
-66.74833395017528
 30
0.0
 10
-344.9770192346983
 20
-66.81592530280022
 30
0.0
 10
-344.6293188772041
 20
-66.94981884880471
 30
0.0
 10
-344.1032587188749
 20
-67.14277890265667
 30
0.0
 10
-343.5777914040173
 20
-67.32891092048733
 30
0.0
 10
-343.2241269284563
 20
-67.44727139656575
 30
0.0
 10
-343.048490837984
 20
-67.50605131349745
 30
0.0
 11
-345.1525432638118
 21
-66.74833395017528
 31
0.0
 11
-344.6254344725608
 21
-66.9496850526012
 31
0.0
 11
-344.1059472539491
 21
-67.14070827885168
 31
0.0
 11
-343.5748776280775
 21
-67.32819078235458
 31
0.0
 11
-343.048490837984
 21
-67.50605131349745
 31
0.0
  0
SPLINE
  5
2D0
330
70
100
AcDbEntity
  8
0
  6
Continuous
 62
     7
100
AcDbSpline
210
0.0
220
0.0
230
1.0
 70
     8
 71
     3
 72
    11
 73
     7
 74
     5
 42
0.000000001
 43
0.0000000001
 44
0.00000001
 40
0.0
 40
0.0
 40
0.0
 40
0.0
 40
0.2712732238838014
 40
0.5327401942684497
 40
0.7946573268785497
 40
1.048535542549529
 40
1.048535542549529
 40
1.048535542549529
 40
1.048535542549529
 10
-345.1525432638118
 20
-66.74833395017528
 30
0.0
 10
-345.2128079983077
 20
-66.8157528046491
 30
0.0
 10
-345.3311589689351
 20
-66.94815338002853
 30
0.0
 10
-345.5124157318374
 20
-67.14133874435424
 30
0.0
 10
-345.6929661490891
 20
-67.32719486147667
 30
0.0
 10
-345.8162411211489
 20
-67.44705519320634
 30
0.0
 10
-345.8769179627307
 20
-67.50605131349745
 30
0.0
 11
-345.1525432638118
 21
-66.74833395017528
 31
0.0
 11
-345.3341578597647
 21
-66.94984151966919
 31
0.0
 11
-345.5128611248256
 21
-67.14070827885168
 31
0.0
 11
-345.6957258748489
 21
-67.32822112554102
 31
0.0
 11
-345.8769179627307
 21
-67.50605131349745
 31
0.0
  0
SPLINE
  5
2D1
330
70
100
AcDbEntity
  8
0
  6
Continuous
 62
     7
100
AcDbSpline
210
0.0
220
0.0
230
1.0
 70
     8
 71
     3
 72
    11
 73
     7
 74
     5
 42
0.000000001
 43
0.0000000001
 44
0.00000001
 40
0.0
 40
0.0
 40
0.0
 40
0.0
 40
0.540114472611557
 40
1.06944342246427
 40
1.607110367596698
 40
2.138967657364988
 40
2.138967657364988
 40
2.138967657364988
 40
2.138967657364988
 10
-324.9999999999964
 20
-66.74833395017528
 30
0.0
 10
-325.1668677818328
 20
-66.81593520025133
 30
0.0
 10
-325.4972711754647
 20
-66.94978776010196
 30
0.0
 10
-325.9970718974804
 20
-67.14265460979189
 30
0.0
 10
-326.4964935928679
 20
-67.32877244167422
 30
0.0
 10
-326.8327734199224
 20
-67.44717274439331
 30
0.0
 10
-326.9999999999964
 20
-67.50605131349745
 30
0.0
 11
-324.9999999999964
 21
-66.74833395017528
 31
0.0
 11
-325.5011610422912
 21
-66.9497321956219
 31
0.0
 11
-325.9948383386363
 21
-67.14070827885168
 31
0.0
 11
-326.4988644553442
 21
-67.32790715096122
 31
0.0
 11
-326.9999999999964
 21
-67.50605131349745
 31
0.0
  0
SPLINE
  5
2D2
330
70
100
AcDbEntity
  8
0
  6
Continuous
 62
     7
100
AcDbSpline
210
0.0
220
0.0
230
1.0
 70
     8
 71
     3
 72
    11
 73
     7
 74
     5
 42
0.000000001
 43
0.0000000001
 44
0.00000001
 40
0.0
 40
0.0
 40
0.0
 40
0.0
 40
0.2998864799384695
 40
0.6025485779357769
 40
0.9017237172661107
 40
1.205108678842457
 40
1.205108678842457
 40
1.205108678842457
 40
1.205108678842457
 10
-345.099100503423
 20
-68.42653321253034
 30
0.0
 10
-345.1636230751225
 20
-68.35018354867665
 30
0.0
 10
-345.2932653997273
 20
-68.19677755217418
 30
0.0
 10
-345.4872688618761
 20
-67.96719591028379
 30
0.0
 10
-345.6820195833684
 20
-67.73671895604008
 30
0.0
 10
-345.8116499499981
 20
-67.58329782621891
 30
0.0
 10
-345.8769179627307
 20
-67.50605131349745
 30
0.0
 11
-345.099100503423
 21
-68.42653321253034
 31
0.0
 11
-345.2926668278737
 21
-68.1974830457794
 31
0.0
 11
-345.4880181664375
 21
-67.96630735483065
 31
0.0
 11
-345.6811125963745
 21
-67.73778972942559
 31
0.0
 11
-345.8769179627307
 21
-67.50605131349745
 31
0.0
  0
SPLINE
  5
2D3
330
70
100
AcDbEntity
  8
0
  6
Continuous
 62
     7
100
AcDbSpline
210
0.0
220
0.0
230
1.0
 70
     8
 71
     3
 72
    11
 73
     7
 74
     5
 42
0.000000001
 43
0.0000000001
 44
0.00000001
 40
0.0
 40
0.0
 40
0.0
 40
0.0
 40
0.3024286829096171
 40
0.6025600718405699
 40
0.9055648577538781
 40
1.205108678810559
 40
1.205108678810559
 40
1.205108678810559
 40
1.205108678810559
 10
-306.9515091619978
 20
-67.50605131354838
 30
0.0
 10
-307.0165714464179
 20
-67.58305434420528
 30
0.0
 10
-307.1462018037447
 20
-67.7364754692026
 30
0.0
 10
-307.3410262356163
 20
-67.96703967538625
 30
0.0
 10
-307.5352354422702
 20
-68.19686478564472
 30
0.0
 10
-307.6648777743437
 20
-68.35027078850666
 30
0.0
 10
-307.7293266213164
 20
-68.42653321253034
 30
0.0
 11
-306.9515091619978
 21
-67.50605131354838
 31
0.0
 11
-307.1466973342099
 21
-67.73705929106224
 31
0.0
 11
-307.3404089395626
 21
-67.96630733265353
 31
0.0
 11
-307.5359814675662
 21
-68.19774476820972
 31
0.0
 11
-307.7293266213164
 21
-68.42653321253034
 31
0.0
  0
SPLINE
  5
2D4
330
70
100
AcDbEntity
  8
0
  6
Continuous
 62
     7
100
AcDbSpline
210
0.0
220
0.0
230
1.0
 70
     8
 71
     3
 72
    11
 73
     7
 74
     5
 42
0.000000001
 43
0.0000000001
 44
0.00000001
 40
0.0
 40
0.0
 40
0.0
 40
0.0
 40
0.2994287919465832
 40
0.6025485779335396
 40
0.9027839839228643
 40
1.205108678840144
 40
1.205108678840144
 40
1.205108678840144
 40
1.205108678840144
 10
-342.2706733786799
 20
-68.42653321253034
 30
0.0
 10
-342.3350974765821
 20
-68.35030007454381
 30
0.0
 10
-342.4647398028242
 20
-68.1968940794259
 30
0.0
 10
-342.6589713834094
 20
-67.9670424944972
 30
0.0
 10
-342.8538205617307
 20
-67.73644900004886
 30
0.0
 10
-342.9834509249558
 20
-67.58302786735109
 30
0.0
 10
-343.048490837984
 20
-67.50605131349745
 30
0.0
 11
-342.2706733786799
 21
-68.42653321253034
 31
0.0
 11
-342.4639442863746
 21
-68.19783262729814
 31
0.0
 11
-342.6595910416909
 21
-67.96630735483065
 31
0.0
 11
-342.8533697809435
 21
-67.73697986144312
 31
0.0
 11
-343.048490837984
 21
-67.50605131349745
 31
0.0
  0
SPLINE
  5
2D5
330
70
100
AcDbEntity
  8
0
  6
Continuous
 62
     7
100
AcDbSpline
210
0.0
220
0.0
230
1.0
 70
     8
 71
     3
 72
    11
 73
     7
 74
     5
 42
0.000000001
 43
0.0000000001
 44
0.00000001
 40
0.0
 40
0.0
 40
0.0
 40
0.0
 40
0.3023613649076584
 40
0.6025600718724295
 40
0.9059830063445183
 40
1.205108678842455
 40
1.205108678842455
 40
1.205108678842455
 40
1.205108678842455
 10
-304.1230820372621
 20
-67.50605131349745
 30
0.0
 10
-304.1881298392681
 20
-67.58303720404363
 30
0.0
 10
-304.317760196377
 20
-67.73645832923901
 30
0.0
 10
-304.5126745885062
 20
-67.96712900013384
 30
0.0
 10
-304.7068982826756
 20
-68.19697124620609
 30
0.0
 10
-304.8365406162783
 20
-68.35037724777558
 30
0.0
 10
-304.9008994965698
 20
-68.42653321253034
 30
0.0
 11
-304.1230820372621
 21
-67.50605131349745
 31
0.0
 11
-304.3182267615707
 21
-67.73700787123813
 31
0.0
 11
-304.511981814816
 21
-67.96630733265353
 31
0.0
 11
-304.7078242386815
 21
-68.19806414955072
 31
0.0
 11
-304.9008994965698
 21
-68.42653321253034
 31
0.0
  0
SPLINE
  5
2D6
330
70
100
AcDbEntity
  8
0
  6
Continuous
 62
     7
100
AcDbSpline
210
0.0
220
0.0
230
1.0
 70
     8
 71
     3
 72
    11
 73
     7
 74
     5
 42
0.000000001
 43
0.0000000001
 44
0.00000001
 40
0.0
 40
0.0
 40
0.0
 40
0.0
 40
0.3572711679013245
 40
0.7171622810817838
 40
1.074171569536147
 40
1.434324554759925
 40
1.434324554759925
 40
1.434324554759925
 40
1.434324554759925
 10
-351.4244205234427
 20
-68.42653321253034
 30
0.0
 10
-351.5157559590218
 20
-68.35011097078448
 30
0.0
 10
-351.6990966026606
 20
-68.19670605524894
 30
0.0
 10
-351.9736973518312
 20
-67.96692489892791
 30
0.0
 10
-352.2490293853488
 20
-67.73652079972575
 30
0.0
 10
-352.4323556091014
 20
-67.58309865587373
 30
0.0
 10
-352.5244205234449
 20
-67.50605131349745
 30
0.0
 11
-351.4244205234427
 21
-68.42653321253034
 31
0.0
 11
-351.6984254390632
 21
-68.19726482476285
 31
0.0
 11
-351.9744331571237
 21
-67.96630735483065
 31
0.0
 11
-352.2482244619496
 21
-67.73719176512846
 31
0.0
 11
-352.5244205234449
 21
-67.50605131349745
 31
0.0
  0
SPLINE
  5
2D7
330
70
100
AcDbEntity
  8
0
  6
Continuous
 62
     7
100
AcDbSpline
210
0.0
220
0.0
230
1.0
 70
     8
 71
     3
 72
    11
 73
     7
 74
     5
 42
0.000000001
 43
0.0000000001
 44
0.00000001
 40
0.0
 40
0.0
 40
0.0
 40
0.0
 40
0.356522148858442
 40
0.7171622810818288
 40
1.074239850857228
 40
1.434324554759883
 40
1.434324554759883
 40
1.434324554759883
 40
1.434324554759883
 10
-298.5755794765501
 20
-68.42653321253034
 30
0.0
 10
-298.4844355245713
 20
-68.35027119139787
 30
0.0
 10
-298.3010948786311
 20
-68.19686627861283
 30
0.0
 10
-298.0264766677336
 20
-67.96707052346133
 30
0.0
 10
-297.7509531598349
 20
-67.73650619262878
 30
0.0
 10
-297.5676269362438
 20
-67.58308404858379
 30
0.0
 10
-297.4755794765479
 20
-67.50605131349745
 30
0.0
 11
-298.5755794765501
 21
-68.42653321253034
 31
0.0
 11
-298.3021490054357
 21
-68.19774549412547
 31
0.0
 11
-298.025566842869
 21
-67.96630735483065
 31
0.0
 11
-297.7517231735165
 21
-67.73714794395597
 31
0.0
 11
-297.4755794765479
 21
-67.50605131349745
 31
0.0
  0
SPLINE
  5
2D8
330
70
100
AcDbEntity
  8
0
  6
Continuous
 62
     7
100
AcDbSpline
210
0.0
220
0.0
230
1.0
 70
     8
 71
     3
 72
    11
 73
     7
 74
     5
 42
0.000000001
 43
0.0000000001
 44
0.00000001
 40
0.0
 40
0.0
 40
0.0
 40
0.0
 40
0.5543188591685518
 40
1.117553862962276
 40
1.673979122166379
 40
2.236567028802772
 40
2.236567028802772
 40
2.236567028802772
 40
2.236567028802772
 10
-306.9515091619978
 20
-67.50605131354838
 30
0.0
 10
-306.776284971683
 20
-67.44741091848448
 30
0.0
 10
-306.4230181382533
 20
-67.32918689117766
 30
0.0
 10
-305.89702046283
 20
-67.1428858845066
 30
0.0
 10
-305.3705524729459
 20
-66.9497742906763
 30
0.0
 10
-305.0224609850123
 20
-66.81572681117508
 30
0.0
 10
-304.8474567361809
 20
-66.74833395017528
 30
0.0
 11
-306.9515091619978
 21
-67.50605131354838
 31
0.0
 11
-306.426355484764
 21
-67.32861678196777
 31
0.0
 11
-305.8952391046296
 21
-67.14113595519463
 31
0.0
 11
-305.3730026303152
 21
-66.94909915112102
 31
0.0
 11
-304.8474567361809
 21
-66.74833395017528
 31
0.0
  0
SPLINE
  5
2D9
330
70
100
AcDbEntity
  8
0
  6
Continuous
 62
     7
100
AcDbSpline
210
0.0
220
0.0
230
1.0
 70
     8
 71
     3
 72
    11
 73
     7
 74
     5
 42
0.000000001
 43
0.0000000001
 44
0.00000001
 40
0.0
 40
0.0
 40
0.0
 40
0.0
 40
0.3152989234472503
 40
0.6240834980408653
 40
0.9336077907772053
 40
1.235572026219142
 40
1.235572026219142
 40
1.235572026219142
 40
1.235572026219142
 10
-296.5000000000146
 20
-66.74833395021257
 30
0.0
 10
-296.580849470258
 20
-66.81549066544254
 30
0.0
 10
-296.740878000131
 20
-66.94841656847017
 30
0.0
 10
-296.9849300487932
 20
-67.14154719519621
 30
0.0
 10
-297.2286905994722
 20
-67.32782604523045
 30
0.0
 10
-297.3939642943897
 20
-67.44713457983553
 30
0.0
 10
-297.4755794765479
 20
-67.50605131349745
 30
0.0
 11
-296.5000000000146
 21
-66.74833395021257
 31
0.0
 11
-296.7433426276762
 21
-66.94882778236173
 31
0.0
 11
-296.9852719328301
 21
-67.14070827885168
 31
0.0
 11
-297.2315395218006
 21
-67.32821177895516
 31
0.0
 11
-297.4755794765479
 21
-67.50605131349745
 31
0.0
  0
ENDBLK
  5
72
330
70
100
AcDbEntity
  8
0
100
AcDbBlockEnd
  0
BLOCK
  5
75
330
73
100
AcDbEntity
  8
0
100
AcDbBlockBegin
  2
Bgr_Ersatzteil
 70
     0
 10
-325.0000000000056
 20
-60.24833395017528
 30
0.0
  3
Bgr_Ersatzteil
  1

  0
INSERT
  5
74
330
73
100
AcDbEntity
  8
0
100
AcDbBlockReference
  2
Holländermutter_6_4__3
 10
-325.0000000000056
 20
-60.24833395017528
 30
0.0
  0
ENDBLK
  5
76
330
73
100
AcDbEntity
  8
0
100
AcDbBlockEnd
  0
BLOCK
  5
78
330
77
100
AcDbEntity
  8
0
100
AcDbBlockBegin
  2
HL_13_Tauchrohr_Artikel
 70
     0
 10
-354.6868924640157
 20
-174.982119138713
 30
0.0
  3
HL_13_Tauchrohr_Artikel
  1

  0
LINE
  5
2DA
330
77
100
AcDbEntity
  8
1
  6
PHANTOM
 62
     2
100
AcDbLine
 10
-404.3737849280349
 20
-70.98019237850464
 30
0.0
 11
-334.6901715247129
 21
-89.65186031560349
 31
0.0
  0
LINE
  5
2DB
330
77
100
AcDbEntity
  8
1
  6
Continuous
 62
     7
100
AcDbLine
 10
-344.9999999999964
 20
-71.87784548560354
 30
0.0
 11
-344.9999999999964
 21
-68.74833395017255
 31
0.0
  0
LINE
  5
2DC
330
77
100
AcDbEntity
  8
1
  6
Continuous
 62
     7
100
AcDbLine
 10
-371.0799973098012
 20
-94.9127404997273
 30
0.0
 11
-344.9999999999964
 21
-101.9008547174956
 31
0.0
  0
LINE
  5
2DD
330
77
100
AcDbEntity
  8
1
  6
Continuous
 62
     7
100
AcDbLine
 10
-344.9999999999964
 20
-71.87784548560354
 30
0.0
 11
-363.5742450018283
 21
-66.90089153734449
 31
0.0
  0
LINE
  5
2DE
330
77
100
AcDbEntity
  8
1
  6
Continuous
 62
     7
100
AcDbLine
 10
-304.9999999999964
 20
-68.74833395017255
 30
0.0
 11
-304.9999999999964
 21
-283.0633467400815
 31
0.0
  0
LINE
  5
2DF
330
77
100
AcDbEntity
  8
1
  6
Continuous
 62
     7
100
AcDbLine
 10
-344.9999999999964
 20
-283.0633467400815
 30
0.0
 11
-344.9999999999964
 21
-101.9008547174956
 31
0.0
  0
ARC
  5
2E0
330
77
100
AcDbEntity
  8
1
  6
Continuous
 62
     7
100
AcDbCircle
 10
-368.6358780070696
 20
-86.88935010154934
 30
0.0
 40
27.99999999999682
100
AcDbArc
 50
327.5797504596995
 51
32.42024954029971
  0
ENDBLK
  5
79
330
77
100
AcDbEntity
  8
0
100
AcDbBlockEnd
  0
BLOCK
  5
7B
330
7A
100
AcDbEntity
  8
0
100
AcDbBlockBegin
  2
Holländermutter_6_4__4
 70
     0
 10
-256.4999999999964
 20
-21.998333950162
 30
0.0
  3
Holländermutter_6_4__4
  1

  0
LINE
  5
2E1
330
7A
100
AcDbEntity
  8
0
  6
Continuous
 62
     7
100
AcDbLine
 10
-247.9999999999964
 20
4.1181588646384
 30
0.0
 11
-247.9999999999964
 21
-48.11482676498169
 31
0.0
  0
LINE
  5
2E2
330
7A
100
AcDbEntity
  8
0
  6
Continuous
 62
     7
100
AcDbLine
 10
-249.9999999999964
 20
6.50166604982836
 30
0.0
 11
-247.9999999999964
 21
4.1181588646384
 31
0.0
  0
LINE
  5
2E3
330
7A
100
AcDbEntity
  8
0
  6
Continuous
 62
     7
100
AcDbLine
 10
-249.9999999999593
 20
-50.49833395015254
 30
0.0
 11
-262.4999999999964
 21
-50.49833395017164
 31
0.0
  0
LINE
  5
2E4
330
7A
100
AcDbEntity
  8
0
  6
Continuous
 62
     7
100
AcDbLine
 10
-249.9999999999964
 20
6.50166604982836
 30
0.0
 11
-262.4999999999964
 21
6.50166604982836
 31
0.0
  0
LINE
  5
2E5
330
7A
100
AcDbEntity
  8
0
  6
Continuous
 62
     7
100
AcDbLine
 10
-262.4999999999964
 20
5.52608657327731
 30
0.0
 11
-262.4999999999964
 21
6.50166604982836
 31
0.0
  0
LINE
  5
2E6
330
7A
100
AcDbEntity
  8
0
  6
Continuous
 62
     7
100
AcDbLine
 10
-262.4999999999964
 20
-49.52275447361969
 30
0.0
 11
-262.4999999999964
 21
-50.49833395017164
 31
0.0
  0
LINE
  5
2E7
330
7A
100
AcDbEntity
  8
0
  6
Continuous
 62
     7
100
AcDbLine
 10
-249.9999999999593
 20
-50.49833395015254
 30
0.0
 11
-247.9999999999964
 21
-48.11482676498169
 31
0.0
  0
LINE
  5
2E8
330
7A
100
AcDbEntity
  8
0
  6
Continuous
 62
     7
100
AcDbLine
 10
-262.4999999999964
 20
5.52608657327731
 30
0.0
 11
-262.4999999999964
 21
4.42608657327558
 31
0.0
  0
LINE
  5
2E9
330
7A
100
AcDbEntity
  8
0
  6
Continuous
 62
     7
100
AcDbLine
 10
-250.9999999999964
 20
-42.87525191290549
 30
0.0
 11
-251.9999999999964
 21
-42.87525191290549
 31
0.0
  0
LINE
  5
2EA
330
7A
100
AcDbEntity
  8
0
  6
Continuous
 62
     7
100
AcDbLine
 10
-249.2422826366744
 20
-42.87525191290549
 30
0.0
 11
-250.9999999999964
 21
-42.87525191290549
 31
0.0
  0
LINE
  5
2EB
330
7A
100
AcDbEntity
  8
0
  6
Continuous
 62
     7
100
AcDbLine
 10
-248.3218007376413
 20
-23.99833395017163
 30
0.0
 11
-248.3218007376413
 21
-39.26900732885157
 31
0.0
  0
LINE
  5
2EC
330
7A
100
AcDbEntity
  8
0
  6
Continuous
 62
     7
100
AcDbLine
 10
-248.3218007376413
 20
-4.72766057148762
 30
0.0
 11
-248.3218007376413
 21
-19.99833395017163
 31
0.0
  0
LINE
  5
2ED
330
7A
100
AcDbEntity
  8
0
  6
Continuous
 62
     7
100
AcDbLine
 10
-248.3218007376413
 20
-4.72766057148762
 30
0.0
 11
-262.4999999999964
 21
-4.72766057148762
 31
0.0
  0
LINE
  5
2EE
330
7A
100
AcDbEntity
  8
0
  6
Continuous
 62
     7
100
AcDbLine
 10
-248.3218007376413
 20
-23.99833395017163
 30
0.0
 11
-249.2422826366744
 21
-23.99833395017163
 31
0.0
  0
LINE
  5
2EF
330
7A
100
AcDbEntity
  8
0
  6
Continuous
 62
     7
100
AcDbLine
 10
-248.3218007376413
 20
-39.26900732885157
 30
0.0
 11
-262.4999999999964
 21
-39.26900732885157
 31
0.0
  0
LINE
  5
2F0
330
7A
100
AcDbEntity
  8
0
  6
Continuous
 62
     7
100
AcDbLine
 10
-249.2422826366744
 20
-23.99833395017163
 30
0.0
 11
-262.4999999999964
 21
-23.99833395017163
 31
0.0
  0
LINE
  5
2F1
330
7A
100
AcDbEntity
  8
0
  6
Continuous
 62
     7
100
AcDbLine
 10
-249.2422826366744
 20
-1.12141598743643
 30
0.0
 11
-250.9999999999964
 21
-1.12141598743643
 31
0.0
  0
LINE
  5
2F2
330
7A
100
AcDbEntity
  8
0
  6
Continuous
 62
     7
100
AcDbLine
 10
-249.2422826366744
 20
-3.94984311218356
 30
0.0
 11
-262.4999999999964
 21
-3.94984311218356
 31
0.0
  0
LINE
  5
2F3
330
7A
100
AcDbEntity
  8
0
  6
Continuous
 62
     7
100
AcDbLine
 10
-249.2422826366235
 20
-40.04682478816928
 30
0.0
 11
-262.4999999999964
 21
-40.04682478815836
 31
0.0
  0
LINE
  5
2F4
330
7A
100
AcDbEntity
  8
0
  6
Continuous
 62
     7
100
AcDbLine
 10
-249.2422826366744
 20
-19.99833395017163
 30
0.0
 11
-262.4999999999964
 21
-19.99833395017163
 31
0.0
  0
LINE
  5
2F5
330
7A
100
AcDbEntity
  8
0
  6
Continuous
 62
     7
100
AcDbLine
 10
-249.9999999999964
 20
-42.15087721398665
 30
0.0
 11
-262.4999999999964
 21
-42.15087721398665
 31
0.0
  0
LINE
  5
2F6
330
7A
100
AcDbEntity
  8
0
  6
Continuous
 62
     7
100
AcDbLine
 10
-249.9999999999964
 20
-1.84579068635527
 30
0.0
 11
-262.4999999999964
 21
-1.84579068635527
 31
0.0
  0
LINE
  5
2F7
330
7A
100
AcDbEntity
  8
0
  6
Continuous
 62
     7
100
AcDbLine
 10
-249.9999999999964
 20
-21.99833395017163
 30
0.0
 11
-262.4999999999964
 21
-21.99833395017163
 31
0.0
  0
LINE
  5
2F8
330
7A
100
AcDbEntity
  8
0
  6
Continuous
 62
     7
100
AcDbLine
 10
-250.9999999999964
 20
-1.12141598743643
 30
0.0
 11
-262.4999999999964
 21
-1.12141598743643
 31
0.0
  0
LINE
  5
2F9
330
7A
100
AcDbEntity
  8
0
  6
Continuous
 62
     7
100
AcDbLine
 10
-251.9999999999964
 20
-42.87525191290549
 30
0.0
 11
-262.4999999999964
 21
-42.87525191290549
 31
0.0
  0
LINE
  5
2FA
330
7A
100
AcDbEntity
  8
0
  6
Continuous
 62
     7
100
AcDbLine
 10
-262.4999999999964
 20
-42.15087721398665
 30
0.0
 11
-262.4999999999964
 21
-42.87525191290549
 31
0.0
  0
LINE
  5
2FB
330
7A
100
AcDbEntity
  8
0
  6
Continuous
 62
     7
100
AcDbLine
 10
-262.4999999999964
 20
-39.26900732885157
 30
0.0
 11
-262.4999999999964
 21
-40.04682478815836
 31
0.0
  0
LINE
  5
2FC
330
7A
100
AcDbEntity
  8
0
  6
Continuous
 62
     7
100
AcDbLine
 10
-262.4999999999964
 20
-23.99833395017163
 30
0.0
 11
-262.4999999999964
 21
-39.26900732885157
 31
0.0
  0
LINE
  5
2FD
330
7A
100
AcDbEntity
  8
0
  6
Continuous
 62
     7
100
AcDbLine
 10
-262.4999999999964
 20
-1.12141598743643
 30
0.0
 11
-262.4999999999964
 21
-1.84579068635527
 31
0.0
  0
LINE
  5
2FE
330
7A
100
AcDbEntity
  8
0
  6
Continuous
 62
     7
100
AcDbLine
 10
-262.4999999999964
 20
-1.84579068635527
 30
0.0
 11
-262.4999999999964
 21
-1.89923344674459
 31
0.0
  0
LINE
  5
2FF
330
7A
100
AcDbEntity
  8
0
  6
Continuous
 62
     7
100
AcDbLine
 10
-262.4999999999964
 20
-19.99833395017163
 30
0.0
 11
-262.4999999999964
 21
-21.99833395017163
 31
0.0
  0
LINE
  5
300
330
7A
100
AcDbEntity
  8
0
  6
Continuous
 62
     7
100
AcDbLine
 10
-262.4999999999964
 20
-3.94984311218356
 30
0.0
 11
-262.4999999999964
 21
-4.72766057148762
 31
0.0
  0
LINE
  5
301
330
7A
100
AcDbEntity
  8
0
  6
Continuous
 62
     7
100
AcDbLine
 10
-262.4999999999964
 20
-3.94984311218356
 30
0.0
 11
-262.4999999999964
 21
-1.89923344674459
 31
0.0
  0
LINE
  5
302
330
7A
100
AcDbEntity
  8
0
  6
Continuous
 62
     7
100
AcDbLine
 10
-262.4999999999964
 20
-23.99833395017163
 30
0.0
 11
-262.4999999999964
 21
-21.99833395017163
 31
0.0
  0
LINE
  5
303
330
7A
100
AcDbEntity
  8
0
  6
Continuous
 62
     7
100
AcDbLine
 10
-262.4999999999964
 20
-42.15087721398665
 30
0.0
 11
-262.4999999999964
 21
-42.09743445359733
 31
0.0
  0
LINE
  5
304
330
7A
100
AcDbEntity
  8
0
  6
Continuous
 62
     7
100
AcDbLine
 10
-248.3218007376413
 20
4.42608657327558
 30
0.0
 11
-248.3218007376413
 21
-1.89923344674459
 31
0.0
  0
LINE
  5
305
330
7A
100
AcDbEntity
  8
0
  6
Continuous
 62
     7
100
AcDbLine
 10
-248.3218007376413
 20
4.42608657327558
 30
0.0
 11
-262.4999999999964
 21
4.42608657327558
 31
0.0
  0
LINE
  5
306
330
7A
100
AcDbEntity
  8
0
  6
Continuous
 62
     7
100
AcDbLine
 10
-262.4999999999964
 20
4.42608657327558
 30
0.0
 11
-262.4999999999964
 21
-1.12141598743643
 31
0.0
  0
LINE
  5
307
330
7A
100
AcDbEntity
  8
0
  6
Continuous
 62
     7
100
AcDbLine
 10
-249.2422826366744
 20
5.52608657327731
 30
0.0
 11
-262.4999999999964
 21
5.52608657327731
 31
0.0
  0
LINE
  5
308
330
7A
100
AcDbEntity
  8
0
  6
Continuous
 62
     7
100
AcDbLine
 10
-264.9999999999964
 20
-50.49833395017164
 30
0.0
 11
-264.9999999999964
 21
6.50166604982836
 31
0.0
  0
LINE
  5
309
330
7A
100
AcDbEntity
  8
0
  6
Continuous
 62
     7
100
AcDbLine
 10
-262.4999999999964
 20
6.50166604982836
 30
0.0
 11
-264.9999999999964
 21
6.50166604982836
 31
0.0
  0
LINE
  5
30A
330
7A
100
AcDbEntity
  8
0
  6
Continuous
 62
     7
100
AcDbLine
 10
-262.4999999999964
 20
-50.49833395017164
 30
0.0
 11
-264.9999999999964
 21
-50.49833395017164
 31
0.0
  0
LINE
  5
30B
330
7A
100
AcDbEntity
  8
0
  6
Continuous
 62
     7
100
AcDbLine
 10
-248.3218007376413
 20
-48.4227544736175
 30
0.0
 11
-262.4999999999964
 21
-48.4227544736175
 31
0.0
  0
LINE
  5
30C
330
7A
100
AcDbEntity
  8
0
  6
Continuous
 62
     7
100
AcDbLine
 10
-248.3218007376413
 20
-19.99833395017163
 30
0.0
 11
-249.2422826366744
 21
-19.99833395017163
 31
0.0
  0
LINE
  5
30D
330
7A
100
AcDbEntity
  8
0
  6
Continuous
 62
     7
100
AcDbLine
 10
-248.3218007376413
 20
-48.4227544736175
 30
0.0
 11
-248.3218007376413
 21
-42.09743445359733
 31
0.0
  0
LINE
  5
30E
330
7A
100
AcDbEntity
  8
0
  6
Continuous
 62
     7
100
AcDbLine
 10
-249.2422826366744
 20
-49.52275447361969
 30
0.0
 11
-262.4999999999964
 21
-49.52275447361969
 31
0.0
  0
LINE
  5
30F
330
7A
100
AcDbEntity
  8
0
  6
Continuous
 62
     7
100
AcDbLine
 10
-262.4999999999964
 20
-49.52275447361969
 30
0.0
 11
-262.4999999999964
 21
-48.4227544736175
 31
0.0
  0
LINE
  5
310
330
7A
100
AcDbEntity
  8
0
  6
Continuous
 62
     7
100
AcDbLine
 10
-262.4999999999964
 20
-4.72766057148762
 30
0.0
 11
-262.4999999999964
 21
-19.99833395017163
 31
0.0
  0
LINE
  5
311
330
7A
100
AcDbEntity
  8
0
  6
Continuous
 62
     7
100
AcDbLine
 10
-262.4999999999964
 20
-48.4227544736175
 30
0.0
 11
-262.4999999999964
 21
-42.87525191290549
 31
0.0
  0
LINE
  5
312
330
7A
100
AcDbEntity
  8
0
  6
Continuous
 62
     7
100
AcDbLine
 10
-262.4999999999964
 20
-42.09743445359733
 30
0.0
 11
-262.4999999999964
 21
-40.04682478815836
 31
0.0
  0
LINE
  5
313
330
7A
100
AcDbEntity
  8
1
  6
PHANTOM
 62
     2
100
AcDbLine
 10
-262.4999999999964
 20
-21.99833395017163
 30
0.0
 11
-264.9999999999964
 21
-21.99833395017163
 31
0.0
  0
SPLINE
  5
314
330
7A
100
AcDbEntity
  8
0
  6
Continuous
 62
     7
100
AcDbSpline
210
0.0
220
0.0
230
1.0
 70
     8
 71
     3
 72
    11
 73
     7
 74
     5
 42
0.000000001
 43
0.0000000001
 44
0.00000001
 40
0.0
 40
0.0
 40
0.0
 40
0.0
 40
0.3158789477960116
 40
0.6240832434645935
 40
0.9336075373328083
 40
1.235572027457156
 40
1.235572027457156
 40
1.235572027457156
 40
1.235572027457156
 10
-249.9999999999964
 20
6.50166604982836
 30
0.0
 10
-249.9327203757715
 20
6.420667303935775
 30
0.0
 10
-249.7997957767722
 20
6.26063776289339
 30
0.0
 10
-249.6066695485056
 20
6.016582434767831
 30
0.0
 10
-249.4205079826958
 20
5.772975603145138
 30
0.0
 10
-249.3011994128051
 20
5.607701829168511
 30
0.0
 10
-249.2422826366744
 20
5.526086573277313
 30
0.0
 11
-249.9999999999964
 21
6.50166604982836
 31
0.0
 11
-249.7991414606963
 21
6.257872372939221
 31
0.0
 11
-249.6076258283533
 21
6.016394318957497
 31
0.0
 11
-249.4201223233956
 21
5.770126732260097
 31
0.0
 11
-249.2422826366744
 21
5.526086573277313
 31
0.0
  0
SPLINE
  5
315
330
7A
100
AcDbEntity
  8
0
  6
Continuous
 62
     7
100
AcDbSpline
210
0.0
220
0.0
230
1.0
 70
     8
 71
     3
 72
    11
 73
     7
 74
     5
 42
0.000000001
 43
0.0000000001
 44
0.00000001
 40
0.0
 40
0.0
 40
0.0
 40
0.0
 40
0.2532283968016389
 40
0.5152040065319621
 40
0.7778363652521852
 40
1.048535546975897
 40
1.048535546975897
 40
1.048535546975897
 40
1.048535546975897
 10
-249.2422826366744
 20
-42.87525191290549
 30
0.0
 10
-249.3011267817438
 20
-42.81472945914141
 30
0.0
 10
-249.4208477230582
 20
-42.69159394839308
 30
0.0
 10
-249.6068316143974
 20
-42.51090045099147
 30
0.0
 10
-249.8001748224394
 20
-42.3294950637615
 30
0.0
 10
-249.9327233235412
 20
-42.21101384987999
 30
0.0
 10
-249.9999999999964
 20
-42.15087721398665
 30
0.0
 11
-249.2422826366744
 21
-42.87525191290549
 31
0.0
 11
-249.4196525149103
 21
-42.69451855320575
 31
0.0
 11
-249.6071979949774
 21
-42.51160350975649
 31
0.0
 11
-249.798915241128
 21
-42.33210350006711
 31
0.0
 11
-249.9999999999964
 21
-42.15087721398665
 31
0.0
  0
SPLINE
  5
316
330
7A
100
AcDbEntity
  8
0
  6
Continuous
 62
     7
100
AcDbSpline
210
0.0
220
0.0
230
1.0
 70
     8
 71
     3
 72
    11
 73
     7
 74
     5
 42
0.000000001
 43
0.0000000001
 44
0.00000001
 40
0.0
 40
0.0
 40
0.0
 40
0.0
 40
0.5373994098883977
 40
1.069443421120925
 40
1.607942799014325
 40
2.138967656576483
 40
2.138967656576483
 40
2.138967656576483
 40
2.138967656576483
 10
-249.9999999999964
 20
-21.99833395017163
 30
0.0
 10
-249.9327359963003
 20
-22.16436183825268
 30
0.0
 10
-249.7988783153128
 20
-22.49476308610144
 30
0.0
 10
-249.6058950246113
 20
-22.99481647950196
 30
0.0
 10
-249.419466591922
 20
-23.49508833681076
 30
0.0
 10
-249.3010681356465
 20
-23.83136879177303
 30
0.0
 10
-249.2422826366744
 20
-23.99833395017163
 30
0.0
 11
-249.9999999999964
 21
-21.99833395017163
 31
0.0
 11
-249.7995979137762
 21
-22.49696921732091
 31
0.0
 11
-249.6076256713204
 21
-22.99317228881161
 31
0.0
 11
-249.4201424283504
 21
-23.4979807809669
 31
0.0
 11
-249.2422826366744
 21
-23.99833395017163
 31
0.0
  0
SPLINE
  5
317
330
7A
100
AcDbEntity
  8
0
  6
Continuous
 62
     7
100
AcDbSpline
210
0.0
220
0.0
230
1.0
 70
     8
 71
     3
 72
    11
 73
     7
 74
     5
 42
0.000000001
 43
0.0000000001
 44
0.00000001
 40
0.0
 40
0.0
 40
0.0
 40
0.0
 40
0.5642569841864422
 40
1.1177520999076
 40
1.680943573997036
 40
2.236567026744956
 40
2.236567026744956
 40
2.236567026744956
 40
2.236567026744956
 10
-249.9999999999964
 20
-1.84579068635527
 30
0.0
 10
-249.9324086473715
 20
-2.021314715468747
 30
0.0
 10
-249.7985151013671
 20
-2.369015072963214
 30
0.0
 10
-249.6055550475157
 20
-2.895075231292542
 30
0.0
 10
-249.4194230296841
 20
-3.420542546149991
 30
0.0
 10
-249.301062553606
 20
-3.774207021711216
 30
0.0
 10
-249.2422826366744
 20
-3.949843112183556
 30
0.0
 11
-249.9999999999964
 21
-1.84579068635527
 31
0.0
 11
-249.7986488975707
 21
-2.372899477606396
 31
0.0
 11
-249.6076256713204
 21
-2.892386696218427
 31
0.0
 11
-249.4201431678171
 21
-3.423456322089874
 31
0.0
 11
-249.2422826366744
 21
-3.949843112183556
 31
0.0
  0
SPLINE
  5
318
330
7A
100
AcDbEntity
  8
0
  6
Continuous
 62
     7
100
AcDbSpline
210
0.0
220
0.0
230
1.0
 70
     8
 71
     3
 72
    11
 73
     7
 74
     5
 42
0.000000001
 43
0.0000000001
 44
0.00000001
 40
0.0
 40
0.0
 40
0.0
 40
0.0
 40
0.2712732238835214
 40
0.532740194268176
 40
0.7946573268782585
 40
1.048535542549367
 40
1.048535542549367
 40
1.048535542549367
 40
1.048535542549367
 10
-249.9999999999964
 20
-1.84579068635527
 30
0.0
 10
-249.9325811455225
 20
-1.785525951859482
 30
0.0
 10
-249.800180570143
 20
-1.667174981232515
 30
0.0
 10
-249.606995205818
 20
-1.485918218329437
 30
0.0
 10
-249.4211390886952
 20
-1.305367801078211
 30
0.0
 10
-249.3012787569655
 20
-1.182092829018304
 30
0.0
 10
-249.2422826366744
 20
-1.121415987436434
 30
0.0
 11
-249.9999999999964
 21
-1.84579068635527
 31
0.0
 11
-249.7984924305026
 21
-1.664176090402761
 31
0.0
 11
-249.6076256713204
 21
-1.485472825341516
 31
0.0
 11
-249.4201128246309
 21
-1.302608075318359
 31
0.0
 11
-249.2422826366744
 21
-1.121415987436434
 31
0.0
  0
SPLINE
  5
319
330
7A
100
AcDbEntity
  8
0
  6
Continuous
 62
     7
100
AcDbSpline
210
0.0
220
0.0
230
1.0
 70
     8
 71
     3
 72
    11
 73
     7
 74
     5
 42
0.000000001
 43
0.0000000001
 44
0.00000001
 40
0.0
 40
0.0
 40
0.0
 40
0.0
 40
0.5401144726119568
 40
1.06944342246417
 40
1.60711036759708
 40
2.138967657364915
 40
2.138967657364915
 40
2.138967657364915
 40
2.138967657364915
 10
-249.9999999999964
 20
-21.99833395017163
 30
0.0
 10
-249.9323987499205
 20
-21.83146616833509
 30
0.0
 10
-249.7985461900702
 20
-21.50106277470306
 30
0.0
 10
-249.60567934038
 20
-21.00126205268732
 30
0.0
 10
-249.4195615084977
 20
-20.50184035730001
 30
0.0
 10
-249.3011612057786
 20
-20.1655605302456
 30
0.0
 10
-249.2422826366744
 20
-19.99833395017163
 30
0.0
 11
-249.9999999999964
 21
-21.99833395017163
 31
0.0
 11
-249.7986017545501
 21
-21.4971729078763
 31
0.0
 11
-249.6076256713204
 21
-21.00349561153168
 31
0.0
 11
-249.4204267992106
 21
-20.49946949482337
 31
0.0
 11
-249.2422826366744
 21
-19.99833395017163
 31
0.0
  0
SPLINE
  5
31A
330
7A
100
AcDbEntity
  8
0
  6
Continuous
 62
     7
100
AcDbSpline
210
0.0
220
0.0
230
1.0
 70
     8
 71
     3
 72
    11
 73
     7
 74
     5
 42
0.000000001
 43
0.0000000001
 44
0.00000001
 40
0.0
 40
0.0
 40
0.0
 40
0.0
 40
0.2998864799387108
 40
0.6025485779365254
 40
0.9017237172664467
 40
1.205108678842902
 40
1.205108678842902
 40
1.205108678842902
 40
1.205108678842902
 10
-248.3218007376413
 20
-1.899233446744587
 30
0.0
 10
-248.3981504014951
 20
-1.834710875045132
 30
0.0
 10
-248.5515563979978
 20
-1.705068550440019
 30
0.0
 10
-248.7811380398879
 20
-1.511065088291086
 30
0.0
 10
-249.0116149941321
 20
-1.316314366798979
 30
0.0
 10
-249.165036123953
 20
-1.186684000169137
 30
0.0
 10
-249.2422826366744
 20
-1.121415987436434
 30
0.0
 11
-248.3218007376413
 21
-1.899233446744587
 31
0.0
 11
-248.5508509043924
 21
-1.705667122293746
 31
0.0
 11
-248.7820265953415
 21
-1.510315783729551
 31
0.0
 11
-249.0105442207464
 21
-1.317221353792902
 31
0.0
 11
-249.2422826366744
 21
-1.121415987436434
 31
0.0
  0
SPLINE
  5
31B
330
7A
100
AcDbEntity
  8
0
  6
Continuous
 62
     7
100
AcDbSpline
210
0.0
220
0.0
230
1.0
 70
     8
 71
     3
 72
    11
 73
     7
 74
     5
 42
0.000000001
 43
0.0000000001
 44
0.00000001
 40
0.0
 40
0.0
 40
0.0
 40
0.0
 40
0.3024286829095471
 40
0.6025600718406053
 40
0.9055648577536588
 40
1.205108678810187
 40
1.205108678810187
 40
1.205108678810187
 40
1.205108678810187
 10
-249.2422826366235
 20
-40.04682478816928
 30
0.0
 10
-249.1652796059666
 20
-39.98176250374926
 30
0.0
 10
-249.0118584809691
 20
-39.85213214642266
 30
0.0
 10
-248.7812942747859
 20
-39.65730771455072
 30
0.0
 10
-248.5514691645271
 20
-39.46309850789746
 30
0.0
 10
-248.3980631616649
 20
-39.3334561758242
 30
0.0
 10
-248.3218007376413
 20
-39.26900732885157
 30
0.0
 11
-249.2422826366235
 21
-40.04682478816928
 31
0.0
 11
-249.0112746591096
 21
-39.85163661595739
 31
0.0
 11
-248.7820266175183
 21
-39.65792501060447
 31
0.0
 11
-248.5505891819621
 21
-39.46235248260133
 31
0.0
 11
-248.3218007376413
 21
-39.26900732885157
 31
0.0
  0
SPLINE
  5
31C
330
7A
100
AcDbEntity
  8
0
  6
Continuous
 62
     7
100
AcDbSpline
210
0.0
220
0.0
230
1.0
 70
     8
 71
     3
 72
    11
 73
     7
 74
     5
 42
0.000000001
 43
0.0000000001
 44
0.00000001
 40
0.0
 40
0.0
 40
0.0
 40
0.0
 40
0.2994287919468055
 40
0.6025485779338826
 40
0.9027839839231435
 40
1.205108678840259
 40
1.205108678840259
 40
1.205108678840259
 40
1.205108678840259
 10
-248.3218007376413
 20
-4.727660571487617
 30
0.0
 10
-248.3980338756279
 20
-4.663236473585338
 30
0.0
 10
-248.5514398707459
 20
-4.533594147343173
 30
0.0
 10
-248.7812914556751
 20
-4.339362566758465
 30
0.0
 10
-249.0118849501227
 20
-4.144513388436218
 30
0.0
 10
-249.1653060828207
 20
-4.014883025211614
 30
0.0
 10
-249.2422826366744
 20
-3.949843112183556
 30
0.0
 11
-248.3218007376413
 21
-4.727660571487617
 31
0.0
 11
-248.5505013228737
 21
-4.534389663792879
 31
0.0
 11
-248.7820265953415
 21
-4.338742908476677
 31
0.0
 11
-249.0113540887287
 21
-4.14496416922374
 31
0.0
 11
-249.2422826366744
 21
-3.949843112183556
 31
0.0
  0
SPLINE
  5
31D
330
7A
100
AcDbEntity
  8
0
  6
Continuous
 62
     7
100
AcDbSpline
210
0.0
220
0.0
230
1.0
 70
     8
 71
     3
 72
    11
 73
     7
 74
     5
 42
0.000000001
 43
0.0000000001
 44
0.00000001
 40
0.0
 40
0.0
 40
0.0
 40
0.0
 40
0.3023613649075771
 40
0.6025600718724387
 40
0.9059830063446134
 40
1.205108678842906
 40
1.205108678842906
 40
1.205108678842906
 40
1.205108678842906
 10
-249.2422826366744
 20
-42.87525191290549
 30
0.0
 10
-249.1652967461282
 20
-42.81020411089948
 30
0.0
 10
-249.0118756209328
 20
-42.6805737537907
 30
0.0
 10
-248.781204950038
 20
-42.48565936166139
 30
0.0
 10
-248.5513627039656
 20
-42.29143566749189
 30
0.0
 10
-248.3979567023961
 20
-42.16179333388884
 30
0.0
 10
-248.3218007376413
 20
-42.09743445359733
 30
0.0
 11
-249.2422826366744
 21
-42.87525191290549
 31
0.0
 11
-249.0113260789337
 21
-42.68010718859701
 31
0.0
 11
-248.7820266175183
 21
-42.4863521353516
 31
0.0
 11
-248.5502698006211
 21
-42.290509711486
 31
0.0
 11
-248.3218007376413
 21
-42.09743445359733
 31
0.0
  0
SPLINE
  5
31E
330
7A
100
AcDbEntity
  8
0
  6
Continuous
 62
     7
100
AcDbSpline
210
0.0
220
0.0
230
1.0
 70
     8
 71
     3
 72
    11
 73
     7
 74
     5
 42
0.000000001
 43
0.0000000001
 44
0.00000001
 40
0.0
 40
0.0
 40
0.0
 40
0.0
 40
0.3572711679014947
 40
0.7171622810821376
 40
1.074171569535864
 40
1.43432455475966
 40
1.43432455475966
 40
1.43432455475966
 40
1.43432455475966
 10
-248.3218007376413
 20
4.426086573275585
 30
0.0
 10
-248.3982229793875
 20
4.517422008854441
 30
0.0
 10
-248.5516278949235
 20
4.700762652493047
 30
0.0
 10
-248.781409051244
 20
4.975363401664127
 30
0.0
 10
-249.0118131504465
 20
5.250695435181128
 30
0.0
 10
-249.1652352942982
 20
5.43402165893367
 30
0.0
 10
-249.2422826366744
 20
5.526086573277313
 30
0.0
 11
-248.3218007376413
 21
4.426086573275585
 31
0.0
 11
-248.5510691254094
 21
4.700091488895724
 31
0.0
 11
-248.7820265953415
 21
4.97609920695662
 31
0.0
 11
-249.0111421850435
 21
5.249890511781915
 31
0.0
 11
-249.2422826366744
 21
5.526086573277313
 31
0.0
  0
SPLINE
  5
31F
330
7A
100
AcDbEntity
  8
0
  6
Continuous
 62
     7
100
AcDbSpline
210
0.0
220
0.0
230
1.0
 70
     8
 71
     3
 72
    11
 73
     7
 74
     5
 42
0.000000001
 43
0.0000000001
 44
0.00000001
 40
0.0
 40
0.0
 40
0.0
 40
0.0
 40
0.3565221488584244
 40
0.717162281082139
 40
1.074239850857296
 40
1.434324554760015
 40
1.434324554760015
 40
1.434324554760015
 40
1.434324554760015
 10
-248.3218007376413
 20
-48.4227544736175
 30
0.0
 10
-248.398062758774
 20
-48.51389842559626
 30
0.0
 10
-248.5514676715591
 20
-48.69723907153644
 30
0.0
 10
-248.7812634267108
 20
-48.97185728243377
 30
0.0
 10
-249.0118277575433
 20
-49.24738079033268
 30
0.0
 10
-249.1652499015882
 20
-49.43070701392379
 30
0.0
 10
-249.2422826366744
 20
-49.52275447361969
 30
0.0
 11
-248.3218007376413
 21
-48.4227544736175
 31
0.0
 11
-248.5505884560464
 21
-48.69618494473168
 31
0.0
 11
-248.7820265953415
 21
-48.97276710729854
 31
0.0
 11
-249.011186006216
 21
-49.24661077665094
 31
0.0
 11
-249.2422826366744
 21
-49.52275447361969
 31
0.0
  0
SPLINE
  5
320
330
7A
100
AcDbEntity
  8
0
  6
Continuous
 62
     7
100
AcDbSpline
210
0.0
220
0.0
230
1.0
 70
     8
 71
     3
 72
    11
 73
     7
 74
     5
 42
0.000000001
 43
0.0000000001
 44
0.00000001
 40
0.0
 40
0.0
 40
0.0
 40
0.0
 40
0.554318859168594
 40
1.117553862962339
 40
1.673979122166614
 40
2.236567028803115
 40
2.236567028803115
 40
2.236567028803115
 40
2.236567028803115
 10
-249.2422826366235
 20
-40.04682478816928
 30
0.0
 10
-249.3009230316873
 20
-40.22204897848413
 30
0.0
 10
-249.419147058994
 20
-40.57531581191402
 30
0.0
 10
-249.6054480656655
 20
-41.10131348733718
 30
0.0
 10
-249.7985596594962
 20
-41.62778147722133
 30
0.0
 10
-249.9326071389968
 20
-41.9758729651551
 30
0.0
 10
-249.9999999999964
 20
-42.15087721398665
 30
0.0
 11
-249.2422826366235
 21
-40.04682478816928
 31
0.0
 11
-249.419717168204
 21
-40.57197846540318
 31
0.0
 11
-249.6071979949774
 21
-41.10309484553751
 31
0.0
 11
-249.7992347990513
 21
-41.62533131985204
 31
0.0
 11
-249.9999999999964
 21
-42.15087721398665
 31
0.0
  0
SPLINE
  5
321
330
7A
100
AcDbEntity
  8
0
  6
Continuous
 62
     7
100
AcDbSpline
210
0.0
220
0.0
230
1.0
 70
     8
 71
     3
 72
    11
 73
     7
 74
     5
 42
0.000000001
 43
0.0000000001
 44
0.00000001
 40
0.0
 40
0.0
 40
0.0
 40
0.0
 40
0.3152989234467216
 40
0.624083498040437
 40
0.9336077907769396
 40
1.235572026218801
 40
1.235572026218801
 40
1.235572026218801
 40
1.235572026218801
 10
-249.9999999999593
 20
-50.49833395015254
 30
0.0
 10
-249.9328432847292
 20
-50.41748447990951
 30
0.0
 10
-249.7999173817013
 20
-50.25745595003686
 30
0.0
 10
-249.6067867549759
 20
-50.0134039013742
 30
0.0
 10
-249.4205079049415
 20
-49.76964335069538
 30
0.0
 10
-249.3011993703362
 20
-49.60436965577785
 30
0.0
 10
-249.2422826366744
 20
-49.52275447361969
 30
0.0
 11
-249.9999999999593
 21
-50.49833395015254
 31
0.0
 11
-249.7995061678101
 21
-50.25499132249168
 31
0.0
 11
-249.6076256713204
 21
-50.01306201733748
 31
0.0
 11
-249.4201221712167
 21
-49.76679442836689
 31
0.0
 11
-249.2422826366744
 21
-49.52275447361969
 31
0.0
  0
ENDBLK
  5
7C
330
7A
100
AcDbEntity
  8
0
100
AcDbBlockEnd
  0
BLOCK
  5
7E
330
7D
100
AcDbEntity
  8
0
100
AcDbBlockBegin
  2
Holländermutter_1
 70
     0
 10
-375.8065586981387
 20
-79.50152344724734
 30
0.0
  3
Holländermutter_1
  1

  0
LINE
  5
322
330
7D
100
AcDbEntity
  8
1
  6
DOT_CENTER
 62
     2
100
AcDbLine
 10
-383.6313229520393
 20
-76.53811831400412
 30
0.0
 11
-380.2505825600276
 21
-77.4439849718629
 31
0.0
  0
LINE
  5
323
330
7D
100
AcDbEntity
  8
0
  6
Continuous
 62
     7
100
AcDbLine
 10
-381.8037394573134
 20
-83.24044542465992
 30
0.0
 11
-371.6615182812781
 21
-85.95804539823638
 31
0.0
  0
LINE
  5
324
330
7D
100
AcDbEntity
  8
0
  6
Continuous
 62
     7
100
AcDbLine
 10
-366.8808267790845
 20
-68.1162618167358
 30
0.0
 11
-368.4498338553785
 21
-73.9718759429004
 31
0.0
  0
LINE
  5
325
330
7D
100
AcDbEntity
  8
0
  6
Continuous
 62
     7
100
AcDbLine
 10
-366.5123480679084
 20
-66.74108054511919
 30
0.0
 11
-366.8808267790845
 21
-68.1162618167358
 31
0.0
  0
LINE
  5
326
330
7D
100
AcDbEntity
  8
0
  6
Continuous
 62
     7
100
AcDbLine
 10
-368.5552044867064
 20
-74.36512449264211
 30
0.0
 11
-369.2024947261335
 21
-76.78084455342747
 31
0.0
  0
LINE
  5
327
330
7D
100
AcDbEntity
  8
0
  6
Continuous
 62
     7
100
AcDbLine
 10
-378.6974256627418
 20
-71.64752451906583
 30
0.0
 11
-368.5552044867064
 21
-74.36512449264211
 31
0.0
  0
LINE
  5
328
330
7D
100
AcDbEntity
  8
0
  6
Continuous
 62
     7
100
AcDbLine
 10
-371.6615182812781
 20
-85.95804539823638
 30
0.0
 11
-371.7668889126061
 21
-86.35129394797809
 31
0.0
  0
LINE
  5
329
330
7D
100
AcDbEntity
  8
0
  6
Continuous
 62
     7
100
AcDbLine
 10
-369.2024947261335
 20
-76.78084455342747
 30
0.0
 11
-371.0142280418511
 21
-83.54232533745096
 31
0.0
  0
LINE
  5
32A
330
7D
100
AcDbEntity
  8
0
  6
Continuous
 62
     7
100
AcDbLine
 10
-376.2503072940882
 20
-65.60571707924151
 30
0.0
 11
-377.8193143703822
 21
-71.46133120540622
 31
0.0
  0
LINE
  5
32B
330
7D
100
AcDbEntity
  8
0
  6
Continuous
 62
     7
100
AcDbLine
 10
-376.6545692439437
 20
-64.02348057154302
 30
0.0
 11
-366.5123480679084
 21
-66.74108054511919
 31
0.0
  0
LINE
  5
32C
330
7D
100
AcDbEntity
  8
0
  6
Continuous
 62
     7
100
AcDbLine
 10
-374.7927486450207
 20
-97.64395620592643
 30
0.0
 11
-374.994423517514
 21
-98.39661707668154
 31
0.0
  0
LINE
  5
32D
330
7D
100
AcDbEntity
  8
0
  6
Continuous
 62
     7
100
AcDbLine
 10
-375.0776870499609
 20
-98.70736081019123
 30
0.0
 11
-375.194155620257
 21
-99.14202743202105
 31
0.0
  0
LINE
  5
32E
330
7D
100
AcDbEntity
  8
0
  6
Continuous
 62
     7
100
AcDbLine
 10
-374.994423517514
 20
-98.39661707668154
 30
0.0
 11
-375.0776870499609
 21
-98.70736081019123
 31
0.0
  0
LINE
  5
32F
330
7D
100
AcDbEntity
  8
0
  6
Continuous
 62
     7
100
AcDbLine
 10
-373.8868819871619
 20
-94.26321581391466
 30
0.0
 11
-374.7927486450207
 21
-97.64395620592643
 31
0.0
  0
LINE
  5
330
330
7D
100
AcDbEntity
  8
0
  6
Continuous
 62
     7
100
AcDbLine
 10
-373.7043747000762
 20
-93.58208934575924
 30
0.0
 11
-373.8868819871619
 21
-94.26321581391466
 31
0.0
  0
LINE
  5
331
330
7D
100
AcDbEntity
  8
0
  6
Continuous
 62
     7
100
AcDbLine
 10
-371.7668889126061
 20
-86.35129394797809
 30
0.0
 11
-373.3358959889001
 21
-92.20690807414269
 31
0.0
  0
LINE
  5
332
330
7D
100
AcDbEntity
  8
0
  6
Continuous
 62
     7
100
AcDbLine
 10
-373.3358959889001
 20
-92.20690807414269
 30
0.0
 11
-373.7043747000762
 21
-93.58208934575924
 31
0.0
  0
LINE
  5
333
330
7D
100
AcDbEntity
  8
0
  6
Continuous
 62
     7
100
AcDbLine
 10
-365.2222992504706
 20
-61.9265528141969
 30
0.0
 11
-365.423974122964
 21
-62.679213684952
 31
0.0
  0
LINE
  5
334
330
7D
100
AcDbEntity
  8
0
  6
Continuous
 62
     7
100
AcDbLine
 10
-365.423974122964
 20
-62.679213684952
 30
0.0
 11
-366.3298407808227
 21
-66.05995407696378
 31
0.0
  0
LINE
  5
335
330
7D
100
AcDbEntity
  8
0
  6
Continuous
 62
     7
100
AcDbLine
 10
-365.0225671477276
 20
-61.18114245885744
 30
0.0
 11
-365.1390357180237
 21
-61.6158090806872
 31
0.0
  0
LINE
  5
336
330
7D
100
AcDbEntity
  8
0
  6
Continuous
 62
     7
100
AcDbLine
 10
-365.1390357180237
 20
-61.6158090806872
 30
0.0
 11
-365.2222992504706
 21
-61.9265528141969
 31
0.0
  0
LINE
  5
337
330
7D
100
AcDbEntity
  8
0
  6
Continuous
 62
     7
100
AcDbLine
 10
-371.0142280418511
 20
-83.54232533745096
 30
0.0
 11
-371.6615182812781
 21
-85.95804539823638
 31
0.0
  0
LINE
  5
338
330
7D
100
AcDbEntity
  8
0
  6
Continuous
 62
     3
100
AcDbLine
 10
-364.4101947120318
 20
-60.8275890682641
 30
0.0
 11
-374.8406022296637
 21
-99.75439986771681
 31
0.0
  0
LINE
  5
339
330
7D
100
AcDbEntity
  8
0
  6
Continuous
 62
     7
100
AcDbLine
 10
-366.8808267790845
 20
-68.1162618167358
 30
0.0
 11
-376.2503072940882
 21
-65.60571707924151
 31
0.0
  0
LINE
  5
33A
330
7D
100
AcDbEntity
  8
0
  6
Continuous
 62
     7
100
AcDbLine
 10
-362.4783430594537
 20
-61.34522715846913
 30
0.0
 11
-372.9087505770855
 21
-100.2720379579218
 31
0.0
  0
LINE
  5
33B
330
7D
100
AcDbEntity
  8
0
  6
Continuous
 62
     7
100
AcDbLine
 10
-362.4783430594537
 20
-61.34522715846913
 30
0.0
 11
-364.4101947120318
 21
-60.8275890682641
 31
0.0
  0
LINE
  5
33C
330
7D
100
AcDbEntity
  8
0
  6
Continuous
 62
     7
100
AcDbLine
 10
-373.3358959889001
 20
-92.20690807414269
 30
0.0
 11
-382.7053765039038
 21
-89.6963633366484
 31
0.0
  0
LINE
  5
33D
330
7D
100
AcDbEntity
  8
0
  6
Continuous
 62
     7
100
AcDbLine
 10
-372.9087505770855
 20
-100.2720379579218
 30
0.0
 11
-374.8406022296637
 21
-99.75439986771681
 31
0.0
  0
LINE
  5
33E
330
7D
100
AcDbEntity
  8
0
  6
Continuous
 62
     7
100
AcDbLine
 10
-384.4471675649646
 20
-96.196816072697
 30
0.0
 11
-375.0776870499609
 21
-98.70736081019123
 31
0.0
  0
LINE
  5
33F
330
7D
100
AcDbEntity
  8
0
  6
Continuous
 62
     7
100
AcDbLine
 10
-383.2563625021656
 20
-91.75267107642043
 30
0.0
 11
-384.1622291600244
 21
-95.13341146843214
 31
0.0
  0
LINE
  5
340
330
7D
100
AcDbEntity
  8
0
  6
Continuous
 62
     7
100
AcDbLine
 10
-384.7524625339702
 20
-94.2452297641945
 30
0.0
 11
-383.8465958761114
 21
-90.86448937218273
 31
0.0
  0
LINE
  5
341
330
7D
100
AcDbEntity
  8
0
  6
Continuous
 62
     7
100
AcDbLine
 10
-373.8868819871619
 20
-94.26321581391466
 30
0.0
 11
-383.2563625021656
 21
-91.75267107642043
 31
0.0
  0
LINE
  5
342
330
7D
100
AcDbEntity
  8
0
  6
Continuous
 62
     7
100
AcDbLine
 10
-383.8465958761114
 20
-90.86448937218273
 30
0.0
 11
-373.7043747000762
 21
-93.58208934575924
 31
0.0
  0
LINE
  5
343
330
7D
100
AcDbEntity
  8
0
  6
Continuous
 62
     7
100
AcDbLine
 10
-374.994423517514
 20
-98.39661707668154
 30
0.0
 11
-384.3639040325177
 21
-95.88607233918725
 31
0.0
  0
LINE
  5
344
330
7D
100
AcDbEntity
  8
0
  6
Continuous
 62
     7
100
AcDbLine
 10
-388.3935933819258
 20
-94.31115351772468
 30
0.0
 11
-385.0128529899141
 21
-95.21702017558346
 31
0.0
  0
LINE
  5
345
330
7D
100
AcDbEntity
  8
0
  6
Continuous
 62
     7
100
AcDbLine
 10
-374.7927486450207
 20
-97.64395620592643
 30
0.0
 11
-384.1622291600244
 21
-95.13341146843214
 31
0.0
  0
LINE
  5
346
330
7D
100
AcDbEntity
  8
0
  6
Continuous
 62
     7
100
AcDbLine
 10
-385.0128529899141
 20
-95.21702017558346
 30
0.0
 11
-384.4471675649646
 21
-96.196816072697
 31
0.0
  0
LINE
  5
347
330
7D
100
AcDbEntity
  8
0
  6
Continuous
 62
     7
100
AcDbLine
 10
-385.0128529899141
 20
-95.21702017558346
 30
0.0
 11
-384.9259034308932
 21
-94.8925200036216
 31
0.0
  0
LINE
  5
348
330
7D
100
AcDbEntity
  8
0
  6
Continuous
 62
     7
100
AcDbLine
 10
-384.9259034308932
 20
-94.8925200036216
 30
0.0
 11
-384.1915774616682
 21
-95.08928205405664
 31
0.0
  0
LINE
  5
349
330
7D
100
AcDbEntity
  8
0
  6
Continuous
 62
     7
100
AcDbLine
 10
-384.3639040325177
 20
-95.88607233918725
 30
0.0
 11
-384.4471675649646
 21
-96.196816072697
 31
0.0
  0
LINE
  5
34A
330
7D
100
AcDbEntity
  8
0
  6
Continuous
 62
     7
100
AcDbLine
 10
-369.2024947261335
 20
-76.78084455342747
 30
0.0
 11
-378.5719752411372
 21
-74.27029981593324
 31
0.0
  0
LINE
  5
34B
330
7D
100
AcDbEntity
  8
0
  6
Continuous
 62
     7
100
AcDbLine
 10
-368.4498338553785
 20
-73.9718759429004
 30
0.0
 11
-368.5552044867064
 21
-74.36512449264211
 31
0.0
  0
LINE
  5
34C
330
7D
100
AcDbEntity
  8
0
  6
Continuous
 62
     7
100
AcDbLine
 10
-366.3298407808227
 20
-66.05995407696378
 30
0.0
 11
-366.5123480679084
 21
-66.74108054511919
 31
0.0
  0
LINE
  5
34D
330
7D
100
AcDbEntity
  8
0
  6
Continuous
 62
     7
100
AcDbLine
 10
-365.423974122964
 20
-62.679213684952
 30
0.0
 11
-374.7934546379677
 21
-60.16866894745778
 31
0.0
  0
LINE
  5
34E
330
7D
100
AcDbEntity
  8
0
  6
Continuous
 62
     7
100
AcDbLine
 10
-368.4498338553785
 20
-73.9718759429004
 30
0.0
 11
-377.8193143703822
 21
-71.46133120540622
 31
0.0
  0
LINE
  5
34F
330
7D
100
AcDbEntity
  8
0
  6
Continuous
 62
     7
100
AcDbLine
 10
-366.3298407808227
 20
-66.05995407696378
 30
0.0
 11
-375.6993212958265
 21
-63.54940933946955
 31
0.0
  0
LINE
  5
350
330
7D
100
AcDbEntity
  8
0
  6
Continuous
 62
     7
100
AcDbLine
 10
-365.2222992504706
 20
-61.9265528141969
 30
0.0
 11
-374.5917797654743
 21
-59.41600807670267
 31
0.0
  0
LINE
  5
351
330
7D
100
AcDbEntity
  8
0
  6
Continuous
 62
     7
100
AcDbLine
 10
-374.5085162330274
 20
-59.10526434319297
 30
0.0
 11
-365.1390357180237
 21
-61.6158090806872
 31
0.0
  0
LINE
  5
352
330
7D
100
AcDbEntity
  8
0
  6
Continuous
 62
     7
100
AcDbLine
 10
-374.5085162330274
 20
-59.10526434319297
 30
0.0
 11
-374.5917797654743
 21
-59.41600807670267
 31
0.0
  0
LINE
  5
353
330
7D
100
AcDbEntity
  8
0
  6
Continuous
 62
     7
100
AcDbLine
 10
-371.7668889126061
 20
-86.35129394797809
 30
0.0
 11
-381.1363694276099
 21
-83.8407492104838
 31
0.0
  0
LINE
  5
354
330
7D
100
AcDbEntity
  8
0
  6
Continuous
 62
     7
100
AcDbLine
 10
-371.0142280418511
 20
-83.54232533745096
 30
0.0
 11
-380.3837085568548
 21
-81.03178059995673
 31
0.0
  0
LINE
  5
355
330
7D
100
AcDbEntity
  8
0
  6
Continuous
 62
     7
100
AcDbLine
 10
-375.488312130141
 20
-59.67094976814229
 30
0.0
 11
-374.5085162330274
 21
-59.10526434319297
 31
0.0
  0
LINE
  5
356
330
7D
100
AcDbEntity
  8
0
  6
Continuous
 62
     7
100
AcDbLine
 10
-378.5719752411372
 20
-74.27029981593324
 30
0.0
 11
-380.3837085568548
 21
-81.03178059995673
 31
0.0
  0
LINE
  5
357
330
7D
100
AcDbEntity
  8
0
  6
Continuous
 62
     7
100
AcDbLine
 10
-379.3447159021688
 20
-74.06324457985119
 30
0.0
 11
-378.5719752411372
 21
-74.27029981593324
 31
0.0
  0
LINE
  5
358
330
7D
100
AcDbEntity
  8
0
  6
Continuous
 62
     7
100
AcDbLine
 10
-380.3837085568548
 20
-81.03178059995673
 30
0.0
 11
-381.1564492178864
 21
-80.82472536387462
 31
0.0
  0
LINE
  5
359
330
7D
100
AcDbEntity
  8
0
  6
Continuous
 62
     7
100
AcDbLine
 10
-381.1564492178864
 20
-80.82472536387462
 30
0.0
 11
-379.3447159021688
 21
-74.06324457985119
 31
0.0
  0
LINE
  5
35A
330
7D
100
AcDbEntity
  8
0
  6
Continuous
 62
     7
100
AcDbLine
 10
-383.3727465336074
 20
-89.09605955082458
 30
0.0
 11
-381.8037394573134
 21
-83.24044542465992
 31
0.0
  0
LINE
  5
35B
330
7D
100
AcDbEntity
  8
0
  6
Continuous
 62
     7
100
AcDbLine
 10
-378.6974256627418
 20
-71.64752451906583
 30
0.0
 11
-377.1284185864477
 21
-65.79191039290112
 31
0.0
  0
LINE
  5
35C
330
7D
100
AcDbEntity
  8
0
  6
Continuous
 62
     7
100
AcDbLine
 10
-376.6545692439437
 20
-64.02348057154302
 30
0.0
 11
-375.748702586085
 21
-60.64274017953125
 31
0.0
  0
LINE
  5
35D
330
7D
100
AcDbEntity
  8
0
  6
Continuous
 62
     7
100
AcDbLine
 10
-375.575261689162
 20
-59.99544994010421
 30
0.0
 11
-374.8409357199369
 21
-60.19221199053925
 31
0.0
  0
LINE
  5
35E
330
7D
100
AcDbEntity
  8
0
  6
Continuous
 62
     7
100
AcDbLine
 10
-374.7934546379677
 20
-60.16866894745778
 30
0.0
 11
-375.6993212958265
 21
-63.54940933946955
 31
0.0
  0
LINE
  5
35F
330
7D
100
AcDbEntity
  8
0
  6
Continuous
 62
     7
100
AcDbLine
 10
-381.1363694276099
 20
-83.8407492104838
 30
0.0
 11
-382.7053765039038
 21
-89.6963633366484
 31
0.0
  0
LINE
  5
360
330
7D
100
AcDbEntity
  8
0
  6
Continuous
 62
     3
100
AcDbLine
 10
-378.8690525221527
 20
-58.76508311028357
 30
0.0
 11
-388.3935933819258
 21
-94.31115351772468
 31
0.0
  0
LINE
  5
361
330
7D
100
AcDbEntity
  8
0
  6
Continuous
 62
     7
100
AcDbLine
 10
-375.575261689162
 20
-59.99544994010421
 30
0.0
 11
-375.488312130141
 21
-59.67094976814229
 31
0.0
  0
LINE
  5
362
330
7D
100
AcDbEntity
  8
0
  6
Continuous
 62
     7
100
AcDbLine
 10
-378.8690525221527
 20
-58.76508311028357
 30
0.0
 11
-375.488312130141
 21
-59.67094976814229
 31
0.0
  0
LINE
  5
363
330
7D
100
AcDbEntity
  8
0
  6
Continuous
 62
     7
100
AcDbLine
 10
-380.0937973935444
 20
-59.47218989147029
 30
0.0
 11
-389.1007001631124
 21
-93.08640864633293
 31
0.0
  0
ARC
  5
364
330
7D
100
AcDbEntity
  8
0
  6
Continuous
 62
     7
100
AcDbCircle
 10
-388.1347743368234
 20
-93.34522769143535
 30
0.0
 40
0.9999999999998912
100
AcDbArc
 50
165.0000000000038
 51
255.0000000000089
  0
ARC
  5
365
330
7D
100
AcDbEntity
  8
0
  6
Continuous
 62
     7
100
AcDbCircle
 10
-374.7111927071123
 20
-99.27143695457232
 30
0.0
 40
0.50000000000018
100
AcDbArc
 50
165.0000000000043
 51
254.9999999999787
  0
ARC
  5
366
330
7D
100
AcDbEntity
  8
0
  6
Continuous
 62
     7
100
AcDbCircle
 10
-364.539604234583
 20
-61.31055198140871
 30
0.0
 40
0.5000000000000554
100
AcDbArc
 50
75.00000000000725
 51
165.000000000001
  0
ARC
  5
367
330
7D
100
AcDbEntity
  8
0
  6
Continuous
 62
     7
100
AcDbCircle
 10
-379.1278715672554
 20
-59.73100893657278
 30
0.0
 40
1.000000000000185
100
AcDbArc
 50
74.99999999999152
 51
165.0000000000007
  0
SPLINE
  5
368
330
7D
100
AcDbEntity
  8
0
  6
Continuous
 62
     7
100
AcDbSpline
210
0.0
220
0.0
230
1.0
 70
     8
 71
     3
 72
    11
 73
     7
 74
     5
 42
0.000000001
 43
0.0000000001
 44
0.00000001
 40
0.0
 40
0.0
 40
0.0
 40
0.0
 40
0.225735045369248
 40
0.448869096729746
 40
0.6744398470786123
 40
0.8976343441810554
 40
0.8976343441810554
 40
0.8976343441810554
 40
0.8976343441810554
 10
-377.8193143703822
 20
-71.46133120540622
 30
0.0
 10
-377.8929269176964
 20
-71.47691982955361
 30
0.0
 10
-378.03930382106
 20
-71.50791747517651
 30
0.0
 10
-378.2592307842782
 20
-71.55453445974436
 30
0.0
 10
-378.4783231590118
 20
-71.60100482646394
 30
0.0
 10
-378.6246497668154
 20
-71.63207278588469
 30
0.0
 10
-378.6974256627418
 20
-71.64752451906583
 30
0.0
 11
-377.8193143703822
 21
-71.46133120540622
 31
0.0
 11
-378.0401505117146
 21
-71.5081041611559
 31
0.0
 11
-378.2584351923734
 21
-71.55437081293582
 31
0.0
 11
-378.4790963914087
 21
-71.60117678108075
 31
0.0
 11
-378.6974256627418
 21
-71.64752451906583
 31
0.0
  0
SPLINE
  5
369
330
7D
100
AcDbEntity
  8
0
  6
Continuous
 62
     7
100
AcDbSpline
210
0.0
220
0.0
230
1.0
 70
     8
 71
     3
 72
    11
 73
     7
 74
     5
 42
0.000000001
 43
0.0000000001
 44
0.00000001
 40
0.0
 40
0.0
 40
0.0
 40
0.0
 40
0.2255797515741408
 40
0.4488690967297244
 40
0.6744126663341277
 40
0.8976343441809324
 40
0.8976343441809324
 40
0.8976343441809324
 40
0.8976343441809324
 10
-376.2503072940882
 20
-65.60571707924151
 30
0.0
 10
-376.3238692002411
 20
-65.62129497741722
 30
0.0
 10
-376.4702461043701
 20
-65.65229261942272
 30
0.0
 10
-376.6901642066287
 20
-65.69890771412459
 30
0.0
 10
-376.9093072197877
 20
-65.74538881972231
 30
0.0
 10
-377.0556338277532
 20
-65.77645677837981
 30
0.0
 10
-377.1284185864477
 20
-65.79191039290112
 30
0.0
 11
-376.2503072940882
 21
-65.60571707924151
 31
0.0
 11
-376.470991514204
 21
-65.65245784637693
 31
0.0
 11
-376.6894281160794
 21
-65.69875668677105
 31
0.0
 11
-376.910062726407
 21
-65.74555701279797
 31
0.0
 11
-377.1284185864477
 21
-65.79191039290112
 31
0.0
  0
SPLINE
  5
36A
330
7D
100
AcDbEntity
  8
0
  6
Continuous
 62
     7
100
AcDbSpline
210
0.0
220
0.0
230
1.0
 70
     8
 71
     3
 72
    11
 73
     7
 74
     5
 42
0.000000001
 43
0.0000000001
 44
0.00000001
 40
0.0
 40
0.0
 40
0.0
 40
0.0
 40
0.2232179694158781
 40
0.4487652474512307
 40
0.6720534812136113
 40
0.8976343441810668
 40
0.8976343441810668
 40
0.8976343441810668
 40
0.8976343441810668
 10
-383.3727465336074
 20
-89.09605955082458
 30
0.0
 10
-383.3174408096855
 20
-89.14583432603202
 30
0.0
 10
-383.2062522293342
 20
-89.24590327153116
 30
0.0
 10
-383.0397096412727
 20
-89.39572834878581
 30
0.0
 10
-382.8725616062641
 20
-89.54605808280414
 30
0.0
 10
-382.7612943097822
 20
-89.64609128032323
 30
0.0
 10
-382.7053765039038
 20
-89.6963633366484
 30
0.0
 11
-383.3727465336074
 21
-89.09605955082458
 31
0.0
 11
-383.2068242585468
 21
-89.24537820508186
 31
0.0
 11
-383.0391464873142
 21
-89.3962282619741
 31
0.0
 11
-382.8731250875803
 21
-89.5455417917288
 31
0.0
 11
-382.7053765039038
 21
-89.6963633366484
 31
0.0
  0
SPLINE
  5
36B
330
7D
100
AcDbEntity
  8
0
  6
Continuous
 62
     7
100
AcDbSpline
210
0.0
220
0.0
230
1.0
 70
     8
 71
     3
 72
    11
 73
     7
 74
     5
 42
0.000000001
 43
0.0000000001
 44
0.00000001
 40
0.0
 40
0.0
 40
0.0
 40
0.0
 40
0.2651495747987149
 40
0.5331932871598952
 40
0.7984811810110178
 40
1.066415597480082
 40
1.066415597480082
 40
1.066415597480082
 40
1.066415597480082
 10
-383.8465958761114
 20
-90.86448937218273
 30
0.0
 10
-383.7977023592424
 20
-90.93811689843429
 30
0.0
 10
-383.699381634707
 20
-91.08617559537727
 30
0.0
 10
-383.5520858336915
 20
-91.30786299548637
 30
0.0
 10
-383.4042401860628
 20
-91.53029956035456
 30
0.0
 10
-383.3058178995372
 20
-91.6783023815251
 30
0.0
 10
-383.2563625021656
 20
-91.75267107642043
 30
0.0
 11
-383.8465958761114
 21
-90.86448937218273
 31
0.0
 11
-383.6999060661228
 21
-91.08536580067158
 31
0.0
 11
-383.5515714023453
 21
-91.30862407993453
 31
0.0
 11
-383.4047199185774
 21
-91.52955915714074
 31
0.0
 11
-383.2563625021656
 21
-91.75267107642043
 31
0.0
  0
SPLINE
  5
36C
330
7D
100
AcDbEntity
  8
0
  6
Continuous
 62
     7
100
AcDbSpline
210
0.0
220
0.0
230
1.0
 70
     8
 71
     3
 72
    11
 73
     7
 74
     5
 42
0.000000001
 43
0.0000000001
 44
0.00000001
 40
0.0
 40
0.0
 40
0.0
 40
0.0
 40
0.2839714124429017
 40
0.5707429353687066
 40
0.8546478952705614
 40
1.141485710262855
 40
1.141485710262855
 40
1.141485710262855
 40
1.141485710262855
 10
-384.9259034308932
 20
-94.8925200036216
 30
0.0
 10
-384.8793273016207
 20
-94.97492533065727
 30
0.0
 10
-384.7857157643538
 20
-95.14054853806127
 30
0.0
 10
-384.6454758052963
 20
-95.38852206318286
 30
0.0
 10
-384.5047247912606
 20
-95.63730424144765
 30
0.0
 10
-384.4110048215891
 20
-95.80286605359227
 30
0.0
 10
-384.3639040325177
 20
-95.88607233918725
 30
0.0
 11
-384.9259034308932
 21
-94.8925200036216
 31
0.0
 11
-384.7861645930395
 21
-95.13973007679968
 31
0.0
 11
-384.6449985966376
 21
-95.38934992341086
 31
0.0
 11
-384.5051965017115
 21
-95.63644788073191
 31
0.0
 11
-384.3639040325177
 21
-95.88607233918725
 31
0.0
  0
SPLINE
  5
36D
330
7D
100
AcDbEntity
  8
0
  6
Continuous
 62
     7
100
AcDbSpline
210
0.0
220
0.0
230
1.0
 70
     8
 71
     3
 72
    11
 73
     7
 74
     5
 42
0.000000001
 43
0.0000000001
 44
0.00000001
 40
0.0
 40
0.0
 40
0.0
 40
0.0
 40
0.2653179004677661
 40
0.533193287159877
 40
0.7984354947490614
 40
1.06641559747999
 40
1.06641559747999
 40
1.06641559747999
 40
1.06641559747999
 10
-384.7524625339702
 20
-94.2452297641945
 30
0.0
 10
-384.703537975562
 20
-94.31890403007615
 30
0.0
 10
-384.6052172463554
 20
-94.4669627239183
 30
0.0
 10
-384.4579298603277
 20
-94.68863743138212
 30
0.0
 10
-384.3101152751017
 20
-94.91102727048306
 30
0.0
 10
-384.2116929896411
 20
-95.05903009236197
 30
0.0
 10
-384.1622291600244
 20
-95.13341146843214
 30
0.0
 11
-384.7524625339702
 21
-94.2452297641945
 31
0.0
 11
-384.6056795866538
 21
-94.4662464031299
 31
0.0
 11
-384.4574380602041
 21
-94.6893644719463
 31
0.0
 11
-384.3106118698122
 21
-94.91026150339485
 31
0.0
 11
-384.1622291600244
 21
-95.13341146843214
 31
0.0
  0
SPLINE
  5
36E
330
7D
100
AcDbEntity
  8
0
  6
Continuous
 62
     7
100
AcDbSpline
210
0.0
220
0.0
230
1.0
 70
     8
 71
     3
 72
    11
 73
     7
 74
     5
 42
0.000000001
 43
0.0000000001
 44
0.00000001
 40
0.0
 40
0.0
 40
0.0
 40
0.0
 40
0.2866987054017232
 40
0.5707427748941147
 40
0.8577732734533896
 40
1.14148571026302
 40
1.14148571026302
 40
1.14148571026302
 40
1.14148571026302
 10
-374.5917797654743
 20
-59.41600807670267
 30
0.0
 10
-374.6741334302004
 20
-59.46449291209478
 30
0.0
 10
-374.8380782128834
 20
-59.56101365901795
 30
0.0
 10
-375.0844376424367
 20
-59.70613364098633
 30
0.0
 10
-375.3299157095743
 20
-59.85078859569695
 30
0.0
 10
-375.4937972782313
 20
-59.94741673960047
 30
0.0
 10
-375.575261689162
 20
-59.99544994010421
 30
0.0
 11
-374.5917797654743
 21
-59.41600807670267
 31
0.0
 11
-374.8388349947678
 21
-59.56147237252213
 31
0.0
 11
-375.083576006756
 21
-59.70563502533423
 31
0.0
 11
-375.3308623723641
 21
-59.85136065962243
 31
0.0
 11
-375.575261689162
 21
-59.99544994010421
 31
0.0
  0
SPLINE
  5
36F
330
7D
100
AcDbEntity
  8
0
  6
Continuous
 62
     7
100
AcDbSpline
210
0.0
220
0.0
230
1.0
 70
     8
 71
     3
 72
    11
 73
     7
 74
     5
 42
0.000000001
 43
0.0000000001
 44
0.00000001
 40
0.0
 40
0.0
 40
0.0
 40
0.0
 40
0.2650026194977733
 40
0.5331932871598983
 40
0.798451794644663
 40
1.066415597480063
 40
1.066415597480063
 40
1.066415597480063
 40
1.066415597480063
 10
-375.748702586085
 20
-60.64274017953125
 30
0.0
 10
-375.6695896678608
 20
-60.60344541824959
 30
0.0
 10
-375.5104120764113
 20
-60.52438318330965
 30
0.0
 10
-375.2720152506779
 20
-60.40604850700309
 30
0.0
 10
-375.0327150020335
 20
-60.28731384044573
 30
0.0
 10
-374.873477391421
 20
-60.20835077993123
 30
0.0
 10
-374.7934546379677
 20
-60.16866894745778
 30
0.0
 11
-375.748702586085
 21
-60.64274017953125
 31
0.0
 11
-375.5113588935906
 21
-60.52486583976918
 31
0.0
 11
-375.2711365431895
 21
-60.4056204767989
 31
0.0
 11
-375.0335182145452
 21
-60.2877238878479
 31
0.0
 11
-374.7934546379677
 21
-60.16866894745778
 31
0.0
  0
SPLINE
  5
370
330
7D
100
AcDbEntity
  8
0
  6
Continuous
 62
     7
100
AcDbSpline
210
0.0
220
0.0
230
1.0
 70
     8
 71
     3
 72
    11
 73
     7
 74
     5
 42
0.000000001
 43
0.0000000001
 44
0.00000001
 40
0.0
 40
0.0
 40
0.0
 40
0.0
 40
0.2232182509284426
 40
0.4487652474512349
 40
0.6718805072453674
 40
0.8976343441809889
 40
0.8976343441809889
 40
0.8976343441809889
 40
0.8976343441809889
 10
-381.8037394573134
 20
-83.24044542465992
 30
0.0
 10
-381.7484336636547
 20
-83.29022026265486
 30
0.0
 10
-381.6372450833285
 20
-83.39028920818188
 30
0.0
 10
-381.4707453599661
 20
-83.54007572300219
 30
0.0
 10
-381.3035974032555
 20
-83.69040540374996
 30
0.0
 10
-381.1923301095211
 20
-83.79043860432601
 30
0.0
 10
-381.1363694276099
 20
-83.8407492104838
 30
0.0
 11
-381.8037394573134
 21
-83.24044542465992
 31
0.0
 11
-381.6378169729838
 21
-83.38976426721442
 31
0.0
 11
-381.4701394110201
 21
-83.54061413580939
 31
0.0
 11
-381.3042466312306
 21
-83.68981200699864
 31
0.0
 11
-381.1363694276099
 21
-83.8407492104838
 31
0.0
  0
SPLINE
  5
371
330
7D
100
AcDbEntity
  8
0
  6
Continuous
 62
     7
100
AcDbSpline
210
0.0
220
0.0
230
1.0
 70
     8
 71
     3
 72
    11
 73
     7
 74
     5
 42
0.000000001
 43
0.0000000001
 44
0.00000001
 40
0.0
 40
0.0
 40
0.0
 40
0.0
 40
0.2678832079393431
 40
0.5332223103201341
 40
0.801452122003563
 40
1.066415597479956
 40
1.066415597479956
 40
1.066415597479956
 40
1.066415597479956
 10
-375.6993212958265
 20
-63.54940933946955
 30
0.0
 10
-375.7793199815312
 20
-63.58907923586896
 30
0.0
 10
-375.9385575931832
 20
-63.66804229428678
 30
0.0
 10
-376.177869533435
 20
-63.78678275367439
 30
0.0
 10
-376.4162904210378
 20
-63.90512937790352
 30
0.0
 10
-376.5754680119171
 20
-63.98419161399126
 30
0.0
 10
-376.6545692439437
 20
-64.02348057154302
 30
0.0
 11
-375.6993212958265
 21
-63.54940933946955
 31
0.0
 11
-375.9393126722641
 21
-63.66842846537758
 31
0.0
 11
-376.1770032010483
 21
-63.78636086881062
 31
0.0
 11
-376.4172606116329
 21
-63.90562363976616
 31
0.0
 11
-376.6545692439437
 21
-64.02348057154302
 31
0.0
  0
ENDBLK
  5
7F
330
7D
100
AcDbEntity
  8
0
100
AcDbBlockEnd
  0
BLOCK
  5
81
330
80
100
AcDbEntity
  8
0
100
AcDbBlockBegin
  2
Dichtstopfen
 70
     0
 10
-420.4194468329229
 20
-127.399718210117
 30
0.0
  3
Dichtstopfen
  1

  0
LINE
  5
372
330
80
100
AcDbEntity
  8
0
  6
Continuous
 62
     7
100
AcDbLine
 10
-428.7030654336356
 20
-124.5071997783821
 30
0.0
 11
-414.2141780392995
 21
-128.3894854549197
 31
0.0
  0
LINE
  5
373
330
80
100
AcDbEntity
  8
0
  6
Continuous
 62
     7
100
AcDbLine
 10
-429.6827902003003
 20
-124.2446833183496
 30
0.0
 11
-428.7030654336356
 21
-124.5071997783821
 31
0.0
  0
LINE
  5
374
330
80
100
AcDbEntity
  8
0
  6
Continuous
 62
     7
100
AcDbLine
 10
-414.2141780392995
 20
-128.3894854549197
 30
0.0
 11
-413.234453272635
 21
-128.6520019149523
 31
0.0
  0
LINE
  5
375
330
80
100
AcDbEntity
  8
0
  6
Continuous
 62
     7
100
AcDbLine
 10
-430.6349170862138
 20
-123.9895616881772
 30
0.0
 11
-429.6827902003003
 21
-124.2446833183496
 31
0.0
  0
LINE
  5
376
330
80
100
AcDbEntity
  8
0
  6
Continuous
 62
     7
100
AcDbLine
 10
-410.203976579632
 20
-130.8098747320568
 30
0.0
 11
-409.8675118209987
 21
-129.5541711578811
 31
0.0
  0
LINE
  5
377
330
80
100
AcDbEntity
  8
0
  6
Continuous
 62
     7
100
AcDbLine
 10
-413.234453272635
 20
-128.6520019149523
 30
0.0
 11
-409.8675118209987
 21
-129.5541711578811
 31
0.0
  0
LINE
  5
378
330
80
100
AcDbEntity
  8
0
  6
Continuous
 62
     7
100
AcDbLine
 10
-430.971381844847
 20
-125.2452652623529
 30
0.0
 11
-430.6349170862138
 21
-123.9895616881772
 31
0.0
  0
LINE
  5
379
330
80
100
AcDbEntity
  8
0
  6
Continuous
 62
     7
100
AcDbLine
 10
-430.971381844847
 20
-125.2452652623529
 30
0.0
 11
-410.203976579632
 21
-130.8098747320568
 31
0.0
  0
ENDBLK
  5
82
330
80
100
AcDbEntity
  8
0
100
AcDbBlockEnd
  0
BLOCK
  5
84
330
83
100
AcDbEntity
  8
0
100
AcDbBlockBegin
  2
Rckans1
 70
     0
 10
-317.9454146337007
 20
174.6446744776434
 30
0.0
  3
Rckans1
  1

  0
MTEXT
  5
37A
330
83
100
AcDbEntity
  8
1
 62
     1
100
AcDbMText
 10
-317.9454146337007
 20
176.3946744776434
 30
0.0
 40
3.5
 41
0.0
 71
     2
 72
     1
  1
 
  7
CONVERTER_11
 73
     1
 44
1.32052821128451
  0
ENDBLK
  5
85
330
83
100
AcDbEntity
  8
0
100
AcDbBlockEnd
  0
BLOCK
  5
18A
330
181
100
AcDbEntity
  8
0
100
AcDbBlockBegin
  2
*D19
 70
     1
 10
0.0
 20
0.0
 30
0.0
  3
*D19
  1

  0
LINE
  5
182
330
181
100
AcDbEntity
  8
1
  6
Continuous
 62
     4
100
AcDbLine
 10
-97.84265368027934
 20
44.3436426126929
 30
0.0
 11
-21.9999999999934
 21
44.3436426126929
 31
0.0
  0
LINE
  5
183
330
181
100
AcDbEntity
  8
1
  6
Continuous
 62
     4
100
AcDbLine
 10
-21.9999999999934
 20
44.3436426126929
 30
0.0
 11
22.00000000000657
 21
44.3436426126929
 31
0.0
  0
LINE
  5
184
330
181
100
AcDbEntity
  8
1
  6
Continuous
 62
     4
100
AcDbLine
 10
-21.9999999999934
 20
10.50000000001249
 30
0.0
 11
-21.9999999999934
 21
46.3436426126929
 31
0.0
  0
LINE
  5
185
330
181
100
AcDbEntity
  8
1
  6
Continuous
 62
     4
100
AcDbLine
 10
22.00000000000657
 20
10.50000000001249
 30
0.0
 11
22.00000000000657
 21
46.3436426126929
 31
0.0
  0
SOLID
  5
186
330
181
100
AcDbEntity
  8
1
 62
     4
100
AcDbTrace
 10
-11.9999999999934
 20
45.66016758856686
 30
0.0
 11
-11.9999999999934
 21
43.02711763681894
 31
0.0
 12
-21.9999999999934
 22
44.3436426126929
 32
0.0
 13
-21.9999999999934
 23
44.3436426126929
 33
0.0
  0
SOLID
  5
187
330
181
100
AcDbEntity
  8
1
 62
     4
100
AcDbTrace
 10
12.00000000000657
 20
43.02711763681895
 30
0.0
 11
12.00000000000657
 21
45.66016758856686
 31
0.0
 12
22.00000000000657
 22
44.3436426126929
 32
0.0
 13
22.00000000000657
 23
44.3436426126929
 33
0.0
  0
MTEXT
  5
189
330
181
100
AcDbEntity
  8
1
 62
     1
100
AcDbMText
 10
-94.04265368025524
 20
46.34362273533198
 30
0.0
 40
10.0
 41
0.0
 71
     7
 72
     1
  1
\C1;R\C1;6/4"
  7
CONVERTER_11
 11
0.9999999999970619
 21
2.424068405545306E-6
 31
0.0
 73
     1
 44
0.60024009603842
  0
ENDBLK
  5
18B
330
181
100
AcDbEntity
  8
0
100
AcDbBlockEnd
  0
BLOCK
  5
195
330
18E
100
AcDbEntity
  8
0
100
AcDbBlockBegin
  2
*D20
 70
     1
 10
0.0
 20
0.0
 30
0.0
  3
*D20
  1

  0
LINE
  5
18F
330
18E
100
AcDbEntity
  8
1
  6
Continuous
 62
     4
100
AcDbLine
 10
57.94004595892841
 20
-279.9984743914501
 30
0.0
 11
57.94004595892841
 21
0.0
 31
0.0
  0
LINE
  5
190
330
18E
100
AcDbEntity
  8
1
  6
Continuous
 62
     4
100
AcDbLine
 10
30.37860435670882
 20
0.0
 30
0.0
 11
59.94004595892841
 21
0.0
 31
0.0
  0
LINE
  5
191
330
18E
100
AcDbEntity
  8
1
  6
Continuous
 62
     4
100
AcDbLine
 10
-23.57847208205021
 20
-279.9984743914501
 30
0.0
 11
59.94004595892841
 21
-279.9984743914501
 31
0.0
  0
SOLID
  5
192
330
18E
100
AcDbEntity
  8
1
 62
     4
100
AcDbTrace
 10
56.62352098305445
 20
-269.9984743914501
 30
0.0
 11
59.25657093480237
 21
-269.9984743914501
 31
0.0
 12
57.94004595892841
 22
-279.9984743914501
 32
0.0
 13
57.94004595892841
 23
-279.9984743914501
 33
0.0
  0
SOLID
  5
193
330
18E
100
AcDbEntity
  8
1
 62
     4
100
AcDbTrace
 10
59.25657093480236
 20
-10.0
 30
0.0
 11
56.62352098305445
 21
-10.0
 31
0.0
 12
57.94004595892841
 22
0.0
 32
0.0
 13
57.94004595892841
 23
0.0
 33
0.0
  0
MTEXT
  5
194
330
18E
100
AcDbEntity
  8
1
 62
     1
100
AcDbMText
 10
55.94004595892841
 20
-169.8316556675831
 30
0.0
 40
10.0
 41
0.0
 71
     7
 72
     1
  1
\C1;95-\C1;280
  7
CONVERTER_11
 11
0.0
 21
1.0
 31
0.0
 73
     1
 44
0.60024009603842
  0
ENDBLK
  5
196
330
18E
100
AcDbEntity
  8
0
100
AcDbBlockEnd
  0
BLOCK
  5
1A1
330
199
100
AcDbEntity
  8
0
100
AcDbBlockBegin
  2
*D21
 70
     1
 10
0.0
 20
0.0
 30
0.0
  3
*D21
  1

  0
LINE
  5
19A
330
199
100
AcDbEntity
  8
1
  6
Continuous
 62
     4
100
AcDbLine
 10
4.77950719891294
 20
-254.9984743914502
 30
0.0
 11
4.77950719891294
 21
-304.9984743914502
 31
0.0
  0
LINE
  5
19B
330
199
100
AcDbEntity
  8
1
  6
Continuous
 62
     4
100
AcDbLine
 10
4.77950719891294
 20
-209.4819077188477
 30
0.0
 11
4.77950719891294
 21
-254.9984743914502
 31
0.0
  0
LINE
  5
19C
330
199
100
AcDbEntity
  8
1
  6
Continuous
 62
     4
100
AcDbLine
 10
-23.57847208205021
 20
-304.9984743914502
 30
0.0
 11
6.77950719891294
 21
-304.9984743914502
 31
0.0
  0
LINE
  5
19D
330
199
100
AcDbEntity
  8
1
  6
Continuous
 62
     4
100
AcDbLine
 10
-23.57847208205021
 20
-254.9984743914502
 30
0.0
 11
6.77950719891294
 21
-254.9984743914502
 31
0.0
  0
SOLID
  5
19E
330
199
100
AcDbEntity
  8
1
 62
     4
100
AcDbTrace
 10
6.09603217478689
 20
-264.9984743914502
 30
0.0
 11
3.46298222303898
 21
-264.9984743914502
 31
0.0
 12
4.77950719891294
 22
-254.9984743914502
 32
0.0
 13
4.77950719891294
 23
-254.9984743914502
 33
0.0
  0
SOLID
  5
19F
330
199
100
AcDbEntity
  8
1
 62
     4
100
AcDbTrace
 10
3.46298222303898
 20
-294.9984743914502
 30
0.0
 11
6.0960321747869
 21
-294.9984743914502
 31
0.0
 12
4.77950719891294
 22
-304.9984743914502
 32
0.0
 13
4.77950719891294
 23
-304.9984743914502
 33
0.0
  0
MTEXT
  5
1A0
330
199
100
AcDbEntity
  8
1
 62
     1
100
AcDbMText
 10
2.77950719891294
 20
-240.8819077188477
 30
0.0
 40
10.0
 41
0.0
 71
     7
 72
     1
  1
\C1;DN\C1;50
  7
CONVERTER_11
 11
0.0
 21
1.0
 31
0.0
 73
     1
 44
0.60024009603842
  0
ENDBLK
  5
1A2
330
199
100
AcDbEntity
  8
0
100
AcDbBlockEnd
  0
BLOCK
  5
1AC
330
1A5
100
AcDbEntity
  8
0
100
AcDbBlockBegin
  2
*D22
 70
     1
 10
0.0
 20
0.0
 30
0.0
  3
*D22
  1

  0
LINE
  5
1A6
330
1A5
100
AcDbEntity
  8
1
  6
Continuous
 62
     4
100
AcDbLine
 10
-235.0784720820502
 20
-421.4971067071099
 30
0.0
 11
-324.9999999999964
 21
-421.4971067071099
 31
0.0
  0
LINE
  5
1A7
330
1A5
100
AcDbEntity
  8
1
  6
Continuous
 62
     4
100
AcDbLine
 10
-324.9999999999964
 20
-367.0668061346934
 30
0.0
 11
-324.9999999999964
 21
-423.4971067071099
 31
0.0
  0
LINE
  5
1A8
330
1A5
100
AcDbEntity
  8
1
  6
Continuous
 62
     4
100
AcDbLine
 10
-235.0784720820502
 20
-325.3890121907025
 30
0.0
 11
-235.0784720820502
 21
-423.4971067071099
 31
0.0
  0
SOLID
  5
1A9
330
1A5
100
AcDbEntity
  8
1
 62
     4
100
AcDbTrace
 10
-245.0784720820502
 20
-422.8136316829838
 30
0.0
 11
-245.0784720820502
 21
-420.1805817312359
 31
0.0
 12
-235.0784720820502
 22
-421.4971067071099
 32
0.0
 13
-235.0784720820502
 23
-421.4971067071099
 33
0.0
  0
SOLID
  5
1AA
330
1A5
100
AcDbEntity
  8
1
 62
     4
100
AcDbTrace
 10
-314.9999999999964
 20
-420.1805817312359
 30
0.0
 11
-314.9999999999964
 21
-422.8136316829838
 31
0.0
 12
-324.9999999999964
 22
-421.4971067071099
 32
0.0
 13
-324.9999999999964
 23
-421.4971067071099
 33
0.0
  0
MTEXT
  5
1AB
330
1A5
100
AcDbEntity
  8
1
 62
     1
100
AcDbMText
 10
-283.4799559844244
 20
-419.4971067071099
 30
0.0
 40
10.0
 41
0.0
 71
     7
 72
     1
  1
90
  7
CONVERTER_11
 11
0.9999999999970619
 21
2.424068405545306E-6
 31
0.0
 73
     1
 44
0.60024009603842
  0
ENDBLK
  5
1AD
330
1A5
100
AcDbEntity
  8
0
100
AcDbBlockEnd
  0
BLOCK
  5
1B7
330
1B0
100
AcDbEntity
  8
0
100
AcDbBlockBegin
  2
*D23
 70
     1
 10
0.0
 20
0.0
 30
0.0
  3
*D23
  1

  0
LINE
  5
1B1
330
1B0
100
AcDbEntity
  8
1
  6
Continuous
 62
     4
100
AcDbLine
 10
-373.400528030564
 20
-399.9984743914526
 30
0.0
 11
-373.400528030564
 21
-279.9984743914501
 31
0.0
  0
LINE
  5
1B2
330
1B0
100
AcDbEntity
  8
1
  6
Continuous
 62
     4
100
AcDbLine
 10
-243.4715996285504
 20
-279.9984743914501
 30
0.0
 11
-375.400528030564
 21
-279.9984743914501
 31
0.0
  0
LINE
  5
1B3
330
1B0
100
AcDbEntity
  8
1
  6
Continuous
 62
     4
100
AcDbLine
 10
-298.6783763439373
 20
-399.9984743914526
 30
0.0
 11
-375.400528030564
 21
-399.9984743914526
 31
0.0
  0
SOLID
  5
1B4
330
1B0
100
AcDbEntity
  8
1
 62
     4
100
AcDbTrace
 10
-374.7170530064379
 20
-389.9984743914526
 30
0.0
 11
-372.08400305469
 21
-389.9984743914526
 31
0.0
 12
-373.400528030564
 22
-399.9984743914526
 32
0.0
 13
-373.400528030564
 23
-399.9984743914526
 33
0.0
  0
SOLID
  5
1B5
330
1B0
100
AcDbEntity
  8
1
 62
     4
100
AcDbTrace
 10
-372.08400305469
 20
-289.9984743914501
 30
0.0
 11
-374.7170530064379
 21
-289.9984743914501
 31
0.0
 12
-373.400528030564
 22
-279.9984743914501
 32
0.0
 13
-373.400528030564
 23
-279.9984743914501
 33
0.0
  0
MTEXT
  5
1B6
330
1B0
100
AcDbEntity
  8
1
 62
     1
100
AcDbMText
 10
-375.400528030564
 20
-356.2453272902002
 30
0.0
 40
10.0
 41
0.0
 71
     7
 72
     1
  1
120
  7
CONVERTER_11
 11
0.0
 21
1.0
 31
0.0
 73
     1
 44
0.60024009603842
  0
ENDBLK
  5
1B8
330
1B0
100
AcDbEntity
  8
0
100
AcDbBlockEnd
  0
BLOCK
  5
1C2
330
1BB
100
AcDbEntity
  8
0
100
AcDbBlockBegin
  2
*D24
 70
     1
 10
0.0
 20
0.0
 30
0.0
  3
*D24
  1

  0
LINE
  5
1BC
330
1BB
100
AcDbEntity
  8
1
  6
Continuous
 62
     4
100
AcDbLine
 10
-325.0
 20
61.77516428150609
 30
0.0
 11
0.0
 21
61.77516428150609
 31
0.0
  0
LINE
  5
1BD
330
1BB
100
AcDbEntity
  8
1
  6
Continuous
 62
     4
100
AcDbLine
 10
0.0
 20
10.93393154730802
 30
0.0
 11
0.0
 21
63.77516428150609
 31
0.0
  0
LINE
  5
1BE
330
1BB
100
AcDbEntity
  8
1
  6
Continuous
 62
     4
100
AcDbLine
 10
-325.0
 20
-15.54133183273007
 30
0.0
 11
-325.0
 21
63.77516428150609
 31
0.0
  0
SOLID
  5
1BF
330
1BB
100
AcDbEntity
  8
1
 62
     4
100
AcDbTrace
 10
-315.0
 20
63.09168925738005
 30
0.0
 11
-315.0
 21
60.45863930563213
 31
0.0
 12
-325.0
 22
61.77516428150609
 32
0.0
 13
-325.0
 23
61.77516428150609
 33
0.0
  0
SOLID
  5
1C0
330
1BB
100
AcDbEntity
  8
1
 62
     4
100
AcDbTrace
 10
-10.0
 20
60.45863930563214
 30
0.0
 11
-10.0
 21
63.09168925738005
 31
0.0
 12
0.0
 22
61.77516428150609
 32
0.0
 13
0.0
 23
61.77516428150609
 33
0.0
  0
MTEXT
  5
1C1
330
1BB
100
AcDbEntity
  8
1
 62
     1
100
AcDbMText
 10
-190.1750272931896
 20
63.77508477206239
 30
0.0
 40
10.0
 41
0.0
 71
     7
 72
     1
  1
\C1;120-\C1;325
  7
CONVERTER_11
 11
0.9999999999970619
 21
2.424068405545306E-6
 31
0.0
 73
     1
 44
0.60024009603842
  0
ENDBLK
  5
1C3
330
1BB
100
AcDbEntity
  8
0
100
AcDbBlockEnd
  0
BLOCK
  5
1CD
330
1C6
100
AcDbEntity
  8
0
100
AcDbBlockBegin
  2
*D25
 70
     1
 10
0.0
 20
0.0
 30
0.0
  3
*D25
  1

  0
LINE
  5
1C7
330
1C6
100
AcDbEntity
  8
1
  6
Continuous
 62
     4
100
AcDbLine
 10
43.80533933681841
 20
0.0
 30
0.0
 11
43.80533933681841
 21
-42.0
 31
0.0
  0
LINE
  5
1C8
330
1C6
100
AcDbEntity
  8
1
  6
Continuous
 62
     4
100
AcDbLine
 10
30.37860435670883
 20
0.0
 30
0.0
 11
45.80533933681841
 21
0.0
 31
0.0
  0
LINE
  5
1C9
330
1C6
100
AcDbEntity
  8
1
  6
Continuous
 62
     4
100
AcDbLine
 10
0.0
 20
-42.0
 30
0.0
 11
45.80533933681841
 21
-42.0
 31
0.0
  0
SOLID
  5
1CA
330
1C6
100
AcDbEntity
  8
1
 62
     4
100
AcDbTrace
 10
45.12186431269237
 20
-10.0
 30
0.0
 11
42.48881436094445
 21
-10.0
 31
0.0
 12
43.80533933681841
 22
0.0
 32
0.0
 13
43.80533933681841
 23
0.0
 33
0.0
  0
SOLID
  5
1CB
330
1C6
100
AcDbEntity
  8
1
 62
     4
100
AcDbTrace
 10
42.48881436094445
 20
-32.0
 30
0.0
 11
45.12186431269237
 21
-32.0
 31
0.0
 12
43.80533933681841
 22
-42.0
 32
0.0
 13
43.80533933681841
 23
-42.0
 33
0.0
  0
MTEXT
  5
1CC
330
1C6
100
AcDbEntity
  8
1
 62
     1
100
AcDbMText
 10
41.80533933681841
 20
-29.03760693304618
 30
0.0
 40
10.0
 41
0.0
 71
     7
 72
     1
  1
42
  7
CONVERTER_11
 11
0.0
 21
1.0
 31
0.0
 73
     1
 44
0.60024009603842
  0
ENDBLK
  5
1CE
330
1C6
100
AcDbEntity
  8
0
100
AcDbBlockEnd
  0
BLOCK
  5
1DA
330
1D1
100
AcDbEntity
  8
0
100
AcDbBlockBegin
  2
*D26
 70
     1
 10
0.0
 20
0.0
 30
0.0
  3
*D26
  1

  0
LINE
  5
1D2
330
1D1
100
AcDbEntity
  8
1
  6
Continuous
 62
     4
100
AcDbLine
 10
-453.7192328949631
 20
-136.6758425849245
 30
0.0
 11
-434.4007163691816
 21
-141.8522234869747
 31
0.0
  0
LINE
  5
1D3
330
1D1
100
AcDbEntity
  8
1
  6
Continuous
 62
     4
100
AcDbLine
 10
-434.4007163691816
 20
-141.8522234869747
 30
0.0
 11
-417.9523794415164
 21
-146.2595420835774
 31
0.0
  0
LINE
  5
1D4
330
1D1
100
AcDbEntity
  8
1
  6
Continuous
 62
     4
100
AcDbLine
 10
-417.9523794415164
 20
-146.2595420835774
 30
0.0
 11
-377.5407851958715
 21
-157.0877961265516
 31
0.0
  0
LINE
  5
1D5
330
1D1
100
AcDbEntity
  8
1
  6
Continuous
 62
     4
100
AcDbLine
 10
-429.6827902003002
 20
-124.2446833183496
 30
0.0
 11
-434.9183544593866
 21
-143.7840751395528
 31
0.0
  0
LINE
  5
1D6
330
1D1
100
AcDbEntity
  8
1
  6
Continuous
 62
     4
100
AcDbLine
 10
-413.234453272635
 20
-128.6520019149523
 30
0.0
 11
-418.4700175317214
 21
-148.1913937361555
 31
0.0
  0
SOLID
  5
1D7
330
1D1
100
AcDbEntity
  8
1
 62
     4
100
AcDbTrace
 10
-444.4007163691816
 20
-140.5356985111009
 30
0.0
 11
-443.7192328949631
 21
-137.9923675607984
 31
0.0
 12
-434.4007163691816
 22
-141.8522234869747
 32
0.0
 13
-434.4007163691816
 23
-141.8522234869747
 33
0.0
  0
SOLID
  5
1D8
330
1D1
100
AcDbEntity
  8
1
 62
     4
100
AcDbTrace
 10
-407.9523794415164
 20
-147.5760670594512
 30
0.0
 11
-408.6338629157349
 21
-150.1193980097537
 31
0.0
 12
-417.9523794415164
 22
-146.2595420835774
 32
0.0
 13
-417.9523794415164
 23
-146.2595420835774
 33
0.0
  0
MTEXT
  5
1D9
330
1D1
100
AcDbEntity
  8
1
 62
     1
100
AcDbMText
 10
-403.1031444154714
 20
-148.1678302562057
 30
0.0
 40
10.0
 41
0.0
 71
     7
 72
     1
  1
3/4"
  7
CONVERTER_11
 11
0.9659258262890716
 21
-0.2588190451025085
 31
0.0
 73
     1
 44
0.60024009603842
  0
ENDBLK
  5
1DB
330
1D1
100
AcDbEntity
  8
0
100
AcDbBlockEnd
  0
BLOCK
  5
1E5
330
1DE
100
AcDbEntity
  8
0
100
AcDbBlockBegin
  2
*D27
 70
     1
 10
0.0
 20
0.0
 30
0.0
  3
*D27
  1

  0
LINE
  5
1DF
330
1DE
100
AcDbEntity
  8
1
  6
Continuous
 62
     4
100
AcDbLine
 10
-235.0784720820502
 20
-421.4972471483895
 30
0.0
 11
-20.0784720820502
 21
-421.4972471483895
 31
0.0
  0
LINE
  5
1E0
330
1DE
100
AcDbEntity
  8
1
  6
Continuous
 62
     4
100
AcDbLine
 10
-20.0784720820502
 20
-304.0606522179405
 30
0.0
 11
-20.0784720820502
 21
-423.4972471483895
 31
0.0
  0
LINE
  5
1E1
330
1DE
100
AcDbEntity
  8
1
  6
Continuous
 62
     4
100
AcDbLine
 10
-235.0784720820502
 20
-325.3890121907024
 30
0.0
 11
-235.0784720820502
 21
-423.4972471483895
 31
0.0
  0
SOLID
  5
1E2
330
1DE
100
AcDbEntity
  8
1
 62
     4
100
AcDbTrace
 10
-225.0784720820502
 20
-420.1807221725155
 30
0.0
 11
-225.0784720820502
 21
-422.8137721242634
 31
0.0
 12
-235.0784720820502
 22
-421.4972471483895
 32
0.0
 13
-235.0784720820502
 23
-421.4972471483895
 33
0.0
  0
SOLID
  5
1E3
330
1DE
100
AcDbEntity
  8
1
 62
     4
100
AcDbTrace
 10
-30.0784720820502
 20
-422.8137721242634
 30
0.0
 11
-30.0784720820502
 21
-420.1807221725155
 31
0.0
 12
-20.0784720820502
 22
-421.4972471483895
 32
0.0
 13
-20.0784720820502
 23
-421.4972471483895
 33
0.0
  0
MTEXT
  5
1E4
330
1DE
100
AcDbEntity
  8
1
 62
     1
100
AcDbMText
 10
-135.191607412768
 20
-419.4972471483895
 30
0.0
 40
10.0
 41
0.0
 71
     7
 72
     1
  1
215
  7
CONVERTER_11
 11
0.9999999999970619
 21
2.424068405545306E-6
 31
0.0
 73
     1
 44
0.60024009603842
  0
ENDBLK
  5
1E6
330
1DE
100
AcDbEntity
  8
0
100
AcDbBlockEnd
  0
ENDSEC
  0
SECTION
  2
ENTITIES
  0
INSERT
  5
86
330
1F
100
AcDbEntity
  8
0
100
AcDbBlockReference
  2
HL_126_50_Spültischsifon
 10
-196.8895934680173
 20
-123.551286335373
 30
0.0
  0
INSERT
  5
87
330
1F
100
AcDbEntity
  8
0
100
AcDbBlockReference
  2
Holländermutter_6_4__2
 10
-325.0000000000056
 20
-291.5633467400815
 30
0.0
  0
INSERT
  5
88
330
1F
100
AcDbEntity
  8
0
100
AcDbBlockReference
  2
Holländermutter_2_
 10
-235.3760583433081
 20
-336.5039514598255
 30
0.0
  0
INSERT
  5
89
330
1F
100
AcDbEntity
  8
1
100
AcDbBlockReference
  2
Bgr_Ersatzteil
 10
-325.0000000000056
 20
-60.24833395017528
 30
0.0
  0
INSERT
  5
8A
330
1F
100
AcDbEntity
  8
1
100
AcDbBlockReference
  2
HL_13_Tauchrohr_Artikel
 10
-354.6868924640157
 20
-174.982119138713
 30
0.0
  0
INSERT
  5
8B
330
1F
100
AcDbEntity
  8
0
100
AcDbBlockReference
  2
Holländermutter_6_4__4
 10
-256.4999999999964
 20
-21.998333950162
 30
0.0
  0
INSERT
  5
8C
330
1F
100
AcDbEntity
  8
0
100
AcDbBlockReference
  2
Holländermutter_1
 10
-375.8065586981387
 20
-79.50152344724734
 30
0.0
  0
INSERT
  5
8D
330
1F
100
AcDbEntity
  8
0
100
AcDbBlockReference
  2
Dichtstopfen
 10
-420.4194468329229
 20
-127.399718210117
 30
0.0
  0
INSERT
  5
8E
330
1F
100
AcDbEntity
  8
0
100
AcDbBlockReference
  2
Rckans1
 10
-317.9454146337007
 20
174.6446744776434
 30
0.0
  0
ENDSEC
  0
SECTION
  2
OBJECTS
  0
DICTIONARY
  5
C
330
0
100
AcDbDictionary
281
     1
  3
ACAD_GROUP
350
D
  3
ACAD_LAYOUT
350
1A
  3
ACAD_MATERIAL
350
3B
  3
ACAD_MLEADERSTYLE
350
37D
  3
ACAD_MLINESTYLE
350
17
  3
ACAD_PLOTSETTINGS
350
19
  3
ACAD_PLOTSTYLENAME
350
E
  3
ACAD_VISUALSTYLE
350
2A
  3
AcDbVariableDictionary
350
37B
  0
DICTIONARY
  5
D
102
{ACAD_REACTORS
330
C
102
}
330
C
100
AcDbDictionary
281
     1
  0
DICTIONARY
  5
1A
102
{ACAD_REACTORS
330
C
102
}
330
C
100
AcDbDictionary
281
     1
  3
Layout1
350
1E
  3
Layout2
350
26
  3
Model
350
22
  0
DICTIONARY
  5
3B
102
{ACAD_REACTORS
330
C
102
}
330
C
100
AcDbDictionary
281
     1
  3
ByBlock
350
3D
  3
ByLayer
350
3C
  3
Global
350
3E
  0
DICTIONARY
  5
37D
102
{ACAD_REACTORS
330
C
102
}
330
C
100
AcDbDictionary
281
     1
  0
DICTIONARY
  5
17
102
{ACAD_REACTORS
330
C
102
}
330
C
100
AcDbDictionary
281
     1
  3
Standard
350
18
  0
DICTIONARY
  5
19
102
{ACAD_REACTORS
330
C
102
}
330
C
100
AcDbDictionary
281
     1
  0
ACDBDICTIONARYWDFLT
  5
E
102
{ACAD_REACTORS
330
C
102
}
330
C
100
AcDbDictionary
281
     1
  3
Normal
350
F
100
AcDbDictionaryWithDefault
340
F
  0
DICTIONARY
  5
2A
102
{ACAD_REACTORS
330
C
102
}
330
C
100
AcDbDictionary
281
     1
  3
2dWireframe
350
2F
  3
3D Hidden
350
31
  3
3dWireframe
350
30
  3
Basic
350
32
  3
Brighten
350
36
  3
ColorChange
350
3A
  3
Conceptual
350
34
  3
Dim
350
35
  3
Facepattern
350
39
  3
Flat
350
2B
  3
FlatWithEdges
350
2C
  3
Gouraud
350
2D
  3
GouraudWithEdges
350
2E
  3
Linepattern
350
38
  3
Realistic
350
33
  3
Thicken
350
37
  0
DICTIONARY
  5
37B
102
{ACAD_REACTORS
330
C
102
}
330
C
100
AcDbDictionary
281
     1
  3
DIMASSOC
350
37E
  3
HIDETEXT
350
37F
  0
LAYOUT
  5
1E
102
{ACAD_REACTORS
330
1A
102
}
330
1A
100
AcDbPlotSettings
  1

  2
none_device
  4

  6

 40
0.0
 41
0.0
 42
0.0
 43
0.0
 44
0.0
 45
0.0
 46
0.0
 47
0.0
 48
0.0
 49
0.0
140
0.0
141
0.0
142
1.0
143
1.0
 70
   688
 72
     0
 73
     0
 74
     5
  7

 75
    16
147
1.0
148
0.0
149
0.0
100
AcDbLayout
  1
Layout1
 70
     1
 71
     1
 10
0.0
 20
0.0
 11
12.0
 21
9.0
 12
0.0
 22
0.0
 32
0.0
 14
1.00000000000000E+20
 24
1.00000000000000E+20
 34
1.00000000000000E+20
 15
-1.00000000000000E+20
 25
-1.00000000000000E+20
 35
-1.00000000000000E+20
146
0.0
 13
0.0
 23
0.0
 33
0.0
 16
1.0
 26
0.0
 36
0.0
 17
0.0
 27
1.0
 37
0.0
 76
     0
330
1B
  0
LAYOUT
  5
26
102
{ACAD_REACTORS
330
1A
102
}
330
1A
100
AcDbPlotSettings
  1

  2
none_device
  4

  6

 40
0.0
 41
0.0
 42
0.0
 43
0.0
 44
0.0
 45
0.0
 46
0.0
 47
0.0
 48
0.0
 49
0.0
140
0.0
141
0.0
142
1.0
143
1.0
 70
   688
 72
     0
 73
     0
 74
     5
  7

 75
    16
147
1.0
148
0.0
149
0.0
100
AcDbLayout
  1
Layout2
 70
     1
 71
     2
 10
0.0
 20
0.0
 11
0.0
 21
0.0
 12
0.0
 22
0.0
 32
0.0
 14
0.0
 24
0.0
 34
0.0
 15
0.0
 25
0.0
 35
0.0
146
0.0
 13
0.0
 23
0.0
 33
0.0
 16
1.0
 26
0.0
 36
0.0
 17
0.0
 27
1.0
 37
0.0
 76
     0
330
23
  0
LAYOUT
  5
22
102
{ACAD_REACTORS
330
1A
102
}
330
1A
100
AcDbPlotSettings
  1

  2
none_device
  4

  6

 40
0.0
 41
0.0
 42
0.0
 43
0.0
 44
0.0
 45
0.0
 46
0.0
 47
0.0
 48
0.0
 49
0.0
140
0.0
141
0.0
142
1.0
143
1.0
 70
  1712
 72
     0
 73
     0
 74
     0
  7

 75
     0
147
1.0
148
0.0
149
0.0
100
AcDbLayout
  1
Model
 70
     1
 71
     0
 10
0.0
 20
0.0
 11
12.0
 21
9.0
 12
0.0
 22
0.0
 32
0.0
 14
-453.7192328949631
 24
-423.4972471483895
 34
0.0
 15
59.94004595892841
 25
176.3946744776434
 35
0.0
146
0.0
 13
0.0
 23
0.0
 33
0.0
 16
1.0
 26
0.0
 36
0.0
 17
0.0
 27
1.0
 37
0.0
 76
     0
330
1F
331
29
  0
MATERIAL
  5
3D
102
{ACAD_REACTORS
330
3B
102
}
102
{ACAD_XDICTIONARY
360
3A2
102
}
330
3B
100
AcDbMaterial
  1
ByBlock
  0
MATERIAL
  5
3C
102
{ACAD_REACTORS
330
3B
102
}
102
{ACAD_XDICTIONARY
360
3A0
102
}
330
3B
100
AcDbMaterial
  1
ByLayer
  0
MATERIAL
  5
3E
102
{ACAD_REACTORS
330
3B
102
}
102
{ACAD_XDICTIONARY
360
3A4
102
}
330
3B
100
AcDbMaterial
  1
Global
  0
MLINESTYLE
  5
18
102
{ACAD_REACTORS
330
17
102
}
330
17
100
AcDbMlineStyle
  2
Standard
 70
     0
  3

 62
   256
 51
90.0
 52
90.0
 71
     2
 49
0.5
 62
   256
  6
BYLAYER
 49
-0.5
 62
   256
  6
BYLAYER
  0
ACDBPLACEHOLDER
  5
F
102
{ACAD_REACTORS
330
E
102
}
330
E
  0
VISUALSTYLE
  5
2F
102
{ACAD_REACTORS
330
2A
102
}
102
{ACAD_XDICTIONARY
360
388
102
}
330
2A
100
AcDbVisualStyle
  2
2dWireframe
 70
     4
 71
     0
 72
     2
 73
     0
 90
        0
 40
-0.6
 41
-30.0
 62
     5
 63
     7
 74
     1
 91
        4
 64
     7
 65
   257
 75
     1
175
     1
 42
1.0
 92
        0
 66
   257
 43
1.0
 76
     1
 77
     6
 78
     2
 67
     7
 79
     5
170
     0
171
     0
290
     0
174
     0
 93
        1
 44
0.0
173
     0
291
     0
 45
0.0
1001
ACAD
1000
AcDbSavedByObjectVersion
1070
     0
  0
VISUALSTYLE
  5
31
102
{ACAD_REACTORS
330
2A
102
}
102
{ACAD_XDICTIONARY
360
38C
102
}
330
2A
100
AcDbVisualStyle
  2
3D Hidden
 70
     6
 71
     1
 72
     2
 73
     2
 90
        0
 40
-0.6
 41
-30.0
 62
     5
 63
     7
 74
     2
 91
        2
 64
     7
 65
   257
 75
     2
175
     1
 42
40.0
 92
        0
 66
   257
 43
1.0
 76
     1
 77
     6
 78
     2
 67
     7
 79
     3
170
     0
171
     0
290
     0
174
     0
 93
        1
 44
0.0
173
     0
291
     0
 45
0.0
1001
ACAD
1000
AcDbSavedByObjectVersion
1070
     0
  0
VISUALSTYLE
  5
30
102
{ACAD_REACTORS
330
2A
102
}
102
{ACAD_XDICTIONARY
360
38A
102
}
330
2A
100
AcDbVisualStyle
  2
3dWireframe
 70
     5
 71
     0
 72
     2
 73
     0
 90
        0
 40
-0.6
 41
-30.0
 62
     5
 63
     7
 74
     1
 91
        4
 64
     7
 65
   257
 75
     1
175
     1
 42
1.0
 92
        0
 66
   257
 43
1.0
 76
     1
 77
     6
 78
     2
 67
     7
 79
     5
170
     0
171
     0
290
     0
174
     0
 93
        1
 44
0.0
173
     0
291
     0
 45
0.0
1001
ACAD
1000
AcDbSavedByObjectVersion
1070
     0
  0
VISUALSTYLE
  5
32
102
{ACAD_REACTORS
330
2A
102
}
102
{ACAD_XDICTIONARY
360
38E
102
}
330
2A
100
AcDbVisualStyle
  2
Basic
 70
     7
 71
     1
 72
     0
 73
     1
 90
        0
 40
-0.6
 41
-30.0
 62
     5
 63
     7
 74
     0
 91
        4
 64
     7
 65
   257
 75
     1
175
     1
 42
1.0
 92
        8
 66
     7
 43
1.0
 76
     1
 77
     6
 78
     2
 67
     7
 79
     5
170
     0
171
     0
290
     0
174
     0
 93
        1
 44
0.0
173
     0
291
     1
 45
0.0
1001
ACAD
1000
AcDbSavedByObjectVersion
1070
     0
  0
VISUALSTYLE
  5
36
102
{ACAD_REACTORS
330
2A
102
}
102
{ACAD_XDICTIONARY
360
396
102
}
330
2A
100
AcDbVisualStyle
  2
Brighten
 70
    12
 71
     2
 72
     2
 73
     0
 90
        0
 40
-0.6
 41
-30.0
 62
     5
 63
     7
 74
     1
 91
        4
 64
     7
 65
   257
 75
     1
175
     1
 42
1.0
 92
        8
 66
     7
 43
1.0
 76
     1
 77
     6
 78
     2
 67
     7
 79
     5
170
     0
171
     0
290
     0
174
     0
 93
        1
 44
50.0
173
     0
291
     1
 45
0.0
1001
ACAD
1000
AcDbSavedByObjectVersion
1070
     0
  0
VISUALSTYLE
  5
3A
102
{ACAD_REACTORS
330
2A
102
}
102
{ACAD_XDICTIONARY
360
39E
102
}
330
2A
100
AcDbVisualStyle
  2
ColorChange
 70
    16
 71
     2
 72
     2
 73
     3
 90
        0
 40
-0.6
 41
-30.0
 62
     5
 63
     8
 74
     1
 91
        4
 64
     7
 65
   257
 75
     1
175
     1
 42
1.0
 92
        8
 66
     8
 43
1.0
 76
     1
 77
     6
 78
     2
 67
     7
 79
     5
170
     0
171
     0
290
     0
174
     0
 93
        1
 44
0.0
173
     0
291
     1
 45
0.0
1001
ACAD
1000
AcDbSavedByObjectVersion
1070
     0
  0
VISUALSTYLE
  5
34
102
{ACAD_REACTORS
330
2A
102
}
102
{ACAD_XDICTIONARY
360
392
102
}
330
2A
100
AcDbVisualStyle
  2
Conceptual
 70
     9
 71
     3
 72
     2
 73
     0
 90
        0
 40
-0.6
 41
-30.0
 62
     5
 63
     7
 74
     2
 91
        2
 64
     7
 65
   257
 75
     1
175
     1
 42
40.0
 92
        8
 66
     7
 43
1.0
 76
     1
 77
     6
 78
     2
 67
     7
 79
     3
170
     0
171
     0
290
     0
174
     0
 93
        1
 44
0.0
173
     0
291
     0
 45
0.0
1001
ACAD
1000
AcDbSavedByObjectVersion
1070
     0
  0
VISUALSTYLE
  5
35
102
{ACAD_REACTORS
330
2A
102
}
102
{ACAD_XDICTIONARY
360
394
102
}
330
2A
100
AcDbVisualStyle
  2
Dim
 70
    11
 71
     2
 72
     2
 73
     0
 90
        0
 40
-0.6
 41
-30.0
 62
     5
 63
     7
 74
     1
 91
        4
 64
     7
 65
   257
 75
     1
175
     1
 42
1.0
 92
        8
 66
     7
 43
1.0
 76
     1
 77
     6
 78
     2
 67
     7
 79
     5
170
     0
171
     0
290
     0
174
     0
 93
        1
 44
-50.0
173
     0
291
     1
 45
0.0
1001
ACAD
1000
AcDbSavedByObjectVersion
1070
     0
  0
VISUALSTYLE
  5
39
102
{ACAD_REACTORS
330
2A
102
}
102
{ACAD_XDICTIONARY
360
39C
102
}
330
2A
100
AcDbVisualStyle
  2
Facepattern
 70
    15
 71
     2
 72
     2
 73
     0
 90
        0
 40
-0.6
 41
-30.0
 62
     5
 63
     7
 74
     1
 91
        4
 64
     7
 65
   257
 75
     1
175
     1
 42
1.0
 92
        8
 66
     7
 43
1.0
 76
     1
 77
     6
 78
     2
 67
     7
 79
     5
170
     0
171
     0
290
     0
174
     0
 93
        1
 44
0.0
173
     0
291
     1
 45
0.0
1001
ACAD
1000
AcDbSavedByObjectVersion
1070
     0
  0
VISUALSTYLE
  5
2B
102
{ACAD_REACTORS
330
2A
102
}
102
{ACAD_XDICTIONARY
360
380
102
}
330
2A
100
AcDbVisualStyle
  2
Flat
 70
     0
 71
     2
 72
     1
 73
     1
 90
        2
 40
-0.6
 41
30.0
 62
     5
 63
     7
 74
     0
 91
        4
 64
     7
 65
   257
 75
     1
175
     1
 42
1.0
 92
        8
 66
     7
 43
1.0
 76
     1
 77
     6
 78
     2
 67
     7
 79
     5
170
     0
171
     0
290
     0
174
     0
 93
       13
 44
0.0
173
     0
291
     1
 45
0.0
1001
ACAD
1000
AcDbSavedByObjectVersion
1070
     0
  0
VISUALSTYLE
  5
2C
102
{ACAD_REACTORS
330
2A
102
}
102
{ACAD_XDICTIONARY
360
382
102
}
330
2A
100
AcDbVisualStyle
  2
FlatWithEdges
 70
     1
 71
     2
 72
     1
 73
     1
 90
        2
 40
-0.6
 41
30.0
 62
     5
 63
     7
 74
     1
 91
        4
 64
     7
 65
   257
 75
     1
175
     1
 42
1.0
 92
        0
 66
   257
 43
1.0
 76
     1
 77
     6
 78
     2
 67
     7
 79
     5
170
     0
171
     0
290
     0
174
     0
 93
       13
 44
0.0
173
     0
291
     1
 45
0.0
1001
ACAD
1000
AcDbSavedByObjectVersion
1070
     0
  0
VISUALSTYLE
  5
2D
102
{ACAD_REACTORS
330
2A
102
}
102
{ACAD_XDICTIONARY
360
384
102
}
330
2A
100
AcDbVisualStyle
  2
Gouraud
 70
     2
 71
     2
 72
     2
 73
     1
 90
        2
 40
-0.6
 41
30.0
 62
     5
 63
     7
 74
     0
 91
        4
 64
     7
 65
   257
 75
     1
175
     1
 42
1.0
 92
        0
 66
     7
 43
1.0
 76
     1
 77
     6
 78
     2
 67
     7
 79
     5
170
     0
171
     0
290
     0
174
     0
 93
       13
 44
0.0
173
     0
291
     1
 45
0.0
1001
ACAD
1000
AcDbSavedByObjectVersion
1070
     0
  0
VISUALSTYLE
  5
2E
102
{ACAD_REACTORS
330
2A
102
}
102
{ACAD_XDICTIONARY
360
386
102
}
330
2A
100
AcDbVisualStyle
  2
GouraudWithEdges
 70
     3
 71
     2
 72
     2
 73
     1
 90
        2
 40
-0.6
 41
30.0
 62
     5
 63
     7
 74
     1
 91
        4
 64
     7
 65
   257
 75
     1
175
     1
 42
1.0
 92
        0
 66
   257
 43
1.0
 76
     1
 77
     6
 78
     2
 67
     7
 79
     5
170
     0
171
     0
290
     0
174
     0
 93
       13
 44
0.0
173
     0
291
     1
 45
0.0
1001
ACAD
1000
AcDbSavedByObjectVersion
1070
     0
  0
VISUALSTYLE
  5
38
102
{ACAD_REACTORS
330
2A
102
}
102
{ACAD_XDICTIONARY
360
39A
102
}
330
2A
100
AcDbVisualStyle
  2
Linepattern
 70
    14
 71
     2
 72
     2
 73
     0
 90
        0
 40
-0.6
 41
-30.0
 62
     5
 63
     7
 74
     1
 91
        4
 64
     7
 65
   257
 75
     7
175
     7
 42
1.0
 92
        8
 66
     7
 43
1.0
 76
     1
 77
     6
 78
     2
 67
     7
 79
     5
170
     0
171
     0
290
     0
174
     0
 93
        1
 44
0.0
173
     0
291
     1
 45
0.0
1001
ACAD
1000
AcDbSavedByObjectVersion
1070
     0
  0
VISUALSTYLE
  5
33
102
{ACAD_REACTORS
330
2A
102
}
102
{ACAD_XDICTIONARY
360
390
102
}
330
2A
100
AcDbVisualStyle
  2
Realistic
 70
     8
 71
     2
 72
     2
 73
     0
 90
        0
 40
-0.6
 41
-30.0
 62
     5
 63
     7
 74
     1
 91
        0
 64
     7
 65
   257
 75
     1
175
     1
 42
1.0
 92
        8
 66
     8
 43
1.0
 76
     1
 77
     6
 78
     2
 67
     7
 79
     5
170
     0
171
     0
290
     0
174
     0
 93
       13
 44
0.0
173
     0
291
     0
 45
0.0
1001
ACAD
1000
AcDbSavedByObjectVersion
1070
     0
  0
VISUALSTYLE
  5
37
102
{ACAD_REACTORS
330
2A
102
}
102
{ACAD_XDICTIONARY
360
398
102
}
330
2A
100
AcDbVisualStyle
  2
Thicken
 70
    13
 71
     2
 72
     2
 73
     0
 90
        0
 40
-0.6
 41
-30.0
 62
     5
 63
     7
 74
     1
 91
        4
 64
     7
 65
   257
 75
     1
175
     1
 42
1.0
 92
       12
 66
     7
 43
1.0
 76
     1
 77
     6
 78
     2
 67
     7
 79
     5
170
     0
171
     0
290
     0
174
     0
 93
        1
 44
0.0
173
     0
291
     1
 45
0.0
1001
ACAD
1000
AcDbSavedByObjectVersion
1070
     0
  0
DICTIONARYVAR
  5
37E
102
{ACAD_REACTORS
330
37B
102
}
330
37B
100
DictionaryVariables
280
     0
  1
2
  0
DICTIONARYVAR
  5
37F
102
{ACAD_REACTORS
330
37B
102
}
330
37B
100
DictionaryVariables
280
     0
  1
1
  0
DICTIONARY
  5
3A2
330
3D
100
AcDbDictionary
280
     1
281
     1
  3
ACAD_XREC_ROUNDTRIP
360
3A3
  0
DICTIONARY
  5
3A0
330
3C
100
AcDbDictionary
280
     1
281
     1
  3
ACAD_XREC_ROUNDTRIP
360
3A1
  0
DICTIONARY
  5
3A4
330
3E
100
AcDbDictionary
280
     1
281
     1
  3
ACAD_XREC_ROUNDTRIP
360
3A5
  0
DICTIONARY
  5
388
330
2F
100
AcDbDictionary
280
     1
281
     1
  3
ACAD_XREC_ROUNDTRIP
360
389
  0
DICTIONARY
  5
38C
330
31
100
AcDbDictionary
280
     1
281
     1
  3
ACAD_XREC_ROUNDTRIP
360
38D
  0
DICTIONARY
  5
38A
330
30
100
AcDbDictionary
280
     1
281
     1
  3
ACAD_XREC_ROUNDTRIP
360
38B
  0
DICTIONARY
  5
38E
330
32
100
AcDbDictionary
280
     1
281
     1
  3
ACAD_XREC_ROUNDTRIP
360
38F
  0
DICTIONARY
  5
396
330
36
100
AcDbDictionary
280
     1
281
     1
  3
ACAD_XREC_ROUNDTRIP
360
397
  0
DICTIONARY
  5
39E
330
3A
100
AcDbDictionary
280
     1
281
     1
  3
ACAD_XREC_ROUNDTRIP
360
39F
  0
DICTIONARY
  5
392
330
34
100
AcDbDictionary
280
     1
281
     1
  3
ACAD_XREC_ROUNDTRIP
360
393
  0
DICTIONARY
  5
394
330
35
100
AcDbDictionary
280
     1
281
     1
  3
ACAD_XREC_ROUNDTRIP
360
395
  0
DICTIONARY
  5
39C
330
39
100
AcDbDictionary
280
     1
281
     1
  3
ACAD_XREC_ROUNDTRIP
360
39D
  0
DICTIONARY
  5
380
330
2B
100
AcDbDictionary
280
     1
281
     1
  3
ACAD_XREC_ROUNDTRIP
360
381
  0
DICTIONARY
  5
382
330
2C
100
AcDbDictionary
280
     1
281
     1
  3
ACAD_XREC_ROUNDTRIP
360
383
  0
DICTIONARY
  5
384
330
2D
100
AcDbDictionary
280
     1
281
     1
  3
ACAD_XREC_ROUNDTRIP
360
385
  0
DICTIONARY
  5
386
330
2E
100
AcDbDictionary
280
     1
281
     1
  3
ACAD_XREC_ROUNDTRIP
360
387
  0
DICTIONARY
  5
39A
330
38
100
AcDbDictionary
280
     1
281
     1
  3
ACAD_XREC_ROUNDTRIP
360
39B
  0
DICTIONARY
  5
390
330
33
100
AcDbDictionary
280
     1
281
     1
  3
ACAD_XREC_ROUNDTRIP
360
391
  0
DICTIONARY
  5
398
330
37
100
AcDbDictionary
280
     1
281
     1
  3
ACAD_XREC_ROUNDTRIP
360
399
  0
XRECORD
  5
3A3
102
{ACAD_REACTORS
330
3A2
102
}
330
3A2
100
AcDbXrecord
280
     1
102
MATERIAL
148
0.0
149
0.0
149
0.0
 93
        0
 94
      127
282
     0
 72
     1
 77
     1
171
     1
175
     1
179
     1
273
     0
  0
XRECORD
  5
3A1
102
{ACAD_REACTORS
330
3A0
102
}
330
3A0
100
AcDbXrecord
280
     1
102
MATERIAL
148
0.0
149
0.0
149
0.0
 93
        0
 94
      127
282
     0
 72
     1
 77
     1
171
     1
175
     1
179
     1
273
     0
  0
XRECORD
  5
3A5
102
{ACAD_REACTORS
330
3A4
102
}
330
3A4
100
AcDbXrecord
280
     1
102
MATERIAL
148
0.0
149
0.0
149
0.0
 93
        0
 94
      127
282
     0
 72
     1
 77
     1
171
     1
175
     1
179
     1
273
     0
  0
XRECORD
  5
389
102
{ACAD_REACTORS
330
388
102
}
330
388
100
AcDbXrecord
280
     1
102
RTVSPropertyOp0
 70
     1
102
RTVSPropertyOp1
 70
     1
102
RTVSPropertyOp2
 70
     1
102
RTVSPropertyOp3
 70
     1
102
RTVSPropertyOp4
 70
     1
102
RTVSPropertyOp5
 70
     1
102
RTVSPropertyOp6
 70
     1
102
RTVSPropertyOp7
 70
     1
102
RTVSPropertyOp8
 70
     1
102
RTVSPropertyOp9
 70
     1
102
RTVSPropertyOp10
 70
     1
102
RTVSPropertyOp11
 70
     1
102
RTVSPropertyOp12
 70
     1
102
RTVSPropertyOp13
 70
     1
102
RTVSPropertyOp14
 70
     1
102
RTVSPropertyOp15
 70
     1
102
RTVSPropertyOp16
 70
     1
102
RTVSPropertyOp17
 70
     1
102
RTVSPropertyOp18
 70
     1
102
RTVSPropertyOp19
 70
     1
102
RTVSPropertyOp20
 70
     1
102
RTVSPropertyOp21
 70
     1
102
RTVSPropertyOp22
 70
     1
102
RTVSPropertyOp23
 70
     1
102
RTVSPropertyOp24
 70
     1
102
RTVSPropertyOp25
 70
     1
102
RTVSPropertyOp26
 70
     1
102
RTVSPropertyOp27
 70
     1
102
RTVSPropertyOp28
 70
     1
102
RTVSPropertyOp29
 70
     1
102
RTVSPropertyOp30
 70
     1
102
RTVSPropertyOp31
 70
     1
102
RTVSPropertyOp32
 70
     1
  0
XRECORD
  5
38D
102
{ACAD_REACTORS
330
38C
102
}
330
38C
100
AcDbXrecord
280
     1
102
RTVSPropertyOp0
 70
     1
102
RTVSPropertyOp1
 70
     1
102
RTVSPropertyOp2
 70
     1
102
RTVSPropertyOp3
 70
     1
102
RTVSPropertyOp4
 70
     1
102
RTVSPropertyOp5
 70
     1
102
RTVSPropertyOp6
 70
     1
102
RTVSPropertyOp7
 70
     1
102
RTVSPropertyOp8
 70
     1
102
RTVSPropertyOp9
 70
     1
102
RTVSPropertyOp10
 70
     1
102
RTVSPropertyOp11
 70
     1
102
RTVSPropertyOp12
 70
     1
102
RTVSPropertyOp13
 70
     1
102
RTVSPropertyOp14
 70
     1
102
RTVSPropertyOp15
 70
     1
102
RTVSPropertyOp16
 70
     1
102
RTVSPropertyOp17
 70
     1
102
RTVSPropertyOp18
 70
     1
102
RTVSPropertyOp19
 70
     1
102
RTVSPropertyOp20
 70
     1
102
RTVSPropertyOp21
 70
     1
102
RTVSPropertyOp22
 70
     1
102
RTVSPropertyOp23
 70
     1
102
RTVSPropertyOp24
 70
     1
102
RTVSPropertyOp25
 70
     1
102
RTVSPropertyOp26
 70
     1
102
RTVSPropertyOp27
 70
     1
102
RTVSPropertyOp28
 70
     1
102
RTVSPropertyOp29
 70
     1
102
RTVSPropertyOp30
 70
     1
102
RTVSPropertyOp31
 70
     1
102
RTVSPropertyOp32
 70
     1
  0
XRECORD
  5
38B
102
{ACAD_REACTORS
330
38A
102
}
330
38A
100
AcDbXrecord
280
     1
102
RTVSPropertyOp0
 70
     1
102
RTVSPropertyOp1
 70
     1
102
RTVSPropertyOp2
 70
     1
102
RTVSPropertyOp3
 70
     1
102
RTVSPropertyOp4
 70
     1
102
RTVSPropertyOp5
 70
     1
102
RTVSPropertyOp6
 70
     1
102
RTVSPropertyOp7
 70
     1
102
RTVSPropertyOp8
 70
     1
102
RTVSPropertyOp9
 70
     1
102
RTVSPropertyOp10
 70
     1
102
RTVSPropertyOp11
 70
     1
102
RTVSPropertyOp12
 70
     1
102
RTVSPropertyOp13
 70
     1
102
RTVSPropertyOp14
 70
     1
102
RTVSPropertyOp15
 70
     1
102
RTVSPropertyOp16
 70
     1
102
RTVSPropertyOp17
 70
     1
102
RTVSPropertyOp18
 70
     1
102
RTVSPropertyOp19
 70
     1
102
RTVSPropertyOp20
 70
     1
102
RTVSPropertyOp21
 70
     1
102
RTVSPropertyOp22
 70
     1
102
RTVSPropertyOp23
 70
     1
102
RTVSPropertyOp24
 70
     1
102
RTVSPropertyOp25
 70
     1
102
RTVSPropertyOp26
 70
     1
102
RTVSPropertyOp27
 70
     1
102
RTVSPropertyOp28
 70
     1
102
RTVSPropertyOp29
 70
     1
102
RTVSPropertyOp30
 70
     1
102
RTVSPropertyOp31
 70
     1
102
RTVSPropertyOp32
 70
     1
  0
XRECORD
  5
38F
102
{ACAD_REACTORS
330
38E
102
}
330
38E
100
AcDbXrecord
280
     1
102
RTVSPropertyOp0
 70
     1
102
RTVSPropertyOp1
 70
     1
102
RTVSPropertyOp2
 70
     1
102
RTVSPropertyOp3
 70
     1
102
RTVSPropertyOp4
 70
     1
102
RTVSPropertyOp5
 70
     1
102
RTVSPropertyOp6
 70
     1
102
RTVSPropertyOp7
 70
     1
102
RTVSPropertyOp8
 70
     1
102
RTVSPropertyOp9
 70
     1
102
RTVSPropertyOp10
 70
     1
102
RTVSPropertyOp11
 70
     1
102
RTVSPropertyOp12
 70
     1
102
RTVSPropertyOp13
 70
     1
102
RTVSPropertyOp14
 70
     1
102
RTVSPropertyOp15
 70
     1
102
RTVSPropertyOp16
 70
     1
102
RTVSPropertyOp17
 70
     1
102
RTVSPropertyOp18
 70
     1
102
RTVSPropertyOp19
 70
     1
102
RTVSPropertyOp20
 70
     1
102
RTVSPropertyOp21
 70
     1
102
RTVSPropertyOp22
 70
     1
102
RTVSPropertyOp23
 70
     1
102
RTVSPropertyOp24
 70
     1
102
RTVSPropertyOp25
 70
     1
102
RTVSPropertyOp26
 70
     1
102
RTVSPropertyOp27
 70
     1
102
RTVSPropertyOp28
 70
     1
102
RTVSPropertyOp29
 70
     1
102
RTVSPropertyOp30
 70
     1
102
RTVSPropertyOp31
 70
     1
102
RTVSPropertyOp32
 70
     1
  0
XRECORD
  5
397
102
{ACAD_REACTORS
330
396
102
}
330
396
100
AcDbXrecord
280
     1
102
RTVSPropertyOp0
 70
     1
102
RTVSPropertyOp1
 70
     1
102
RTVSPropertyOp2
 70
     1
102
RTVSPropertyOp3
 70
     1
102
RTVSPropertyOp4
 70
     1
102
RTVSPropertyOp5
 70
     1
102
RTVSPropertyOp6
 70
     1
102
RTVSPropertyOp7
 70
     1
102
RTVSPropertyOp8
 70
     1
102
RTVSPropertyOp9
 70
     1
102
RTVSPropertyOp10
 70
     1
102
RTVSPropertyOp11
 70
     1
102
RTVSPropertyOp12
 70
     1
102
RTVSPropertyOp13
 70
     1
102
RTVSPropertyOp14
 70
     1
102
RTVSPropertyOp15
 70
     1
102
RTVSPropertyOp16
 70
     1
102
RTVSPropertyOp17
 70
     1
102
RTVSPropertyOp18
 70
     1
102
RTVSPropertyOp19
 70
     1
102
RTVSPropertyOp20
 70
     1
102
RTVSPropertyOp21
 70
     1
102
RTVSPropertyOp22
 70
     1
102
RTVSPropertyOp23
 70
     1
102
RTVSPropertyOp24
 70
     1
102
RTVSPropertyOp25
 70
     1
102
RTVSPropertyOp26
 70
     1
102
RTVSPropertyOp27
 70
     1
102
RTVSPropertyOp28
 70
     1
102
RTVSPropertyOp29
 70
     1
102
RTVSPropertyOp30
 70
     1
102
RTVSPropertyOp31
 70
     1
102
RTVSPropertyOp32
 70
     1
  0
XRECORD
  5
39F
102
{ACAD_REACTORS
330
39E
102
}
330
39E
100
AcDbXrecord
280
     1
102
RTVSPropertyOp0
 70
     1
102
RTVSPropertyOp1
 70
     1
102
RTVSPropertyOp2
 70
     1
102
RTVSPropertyOp3
 70
     1
102
RTVSPropertyOp4
 70
     1
102
RTVSPropertyOp5
 70
     1
102
RTVSPropertyOp6
 70
     1
102
RTVSPropertyOp7
 70
     1
102
RTVSPropertyOp8
 70
     1
102
RTVSPropertyOp9
 70
     1
102
RTVSPropertyOp10
 70
     1
102
RTVSPropertyOp11
 70
     1
102
RTVSPropertyOp12
 70
     1
102
RTVSPropertyOp13
 70
     1
102
RTVSPropertyOp14
 70
     1
102
RTVSPropertyOp15
 70
     1
102
RTVSPropertyOp16
 70
     1
102
RTVSPropertyOp17
 70
     1
102
RTVSPropertyOp18
 70
     1
102
RTVSPropertyOp19
 70
     1
102
RTVSPropertyOp20
 70
     1
102
RTVSPropertyOp21
 70
     1
102
RTVSPropertyOp22
 70
     1
102
RTVSPropertyOp23
 70
     1
102
RTVSPropertyOp24
 70
     1
102
RTVSPropertyOp25
 70
     1
102
RTVSPropertyOp26
 70
     1
102
RTVSPropertyOp27
 70
     1
102
RTVSPropertyOp28
 70
     1
102
RTVSPropertyOp29
 70
     1
102
RTVSPropertyOp30
 70
     1
102
RTVSPropertyOp31
 70
     1
102
RTVSPropertyOp32
 70
     1
  0
XRECORD
  5
393
102
{ACAD_REACTORS
330
392
102
}
330
392
100
AcDbXrecord
280
     1
102
RTVSPropertyOp0
 70
     1
102
RTVSPropertyOp1
 70
     1
102
RTVSPropertyOp2
 70
     1
102
RTVSPropertyOp3
 70
     1
102
RTVSPropertyOp4
 70
     1
102
RTVSPropertyOp5
 70
     1
102
RTVSPropertyOp6
 70
     1
102
RTVSPropertyOp7
 70
     1
102
RTVSPropertyOp8
 70
     1
102
RTVSPropertyOp9
 70
     1
102
RTVSPropertyOp10
 70
     1
102
RTVSPropertyOp11
 70
     1
102
RTVSPropertyOp12
 70
     1
102
RTVSPropertyOp13
 70
     1
102
RTVSPropertyOp14
 70
     1
102
RTVSPropertyOp15
 70
     1
102
RTVSPropertyOp16
 70
     1
102
RTVSPropertyOp17
 70
     1
102
RTVSPropertyOp18
 70
     1
102
RTVSPropertyOp19
 70
     1
102
RTVSPropertyOp20
 70
     1
102
RTVSPropertyOp21
 70
     1
102
RTVSPropertyOp22
 70
     1
102
RTVSPropertyOp23
 70
     1
102
RTVSPropertyOp24
 70
     1
102
RTVSPropertyOp25
 70
     1
102
RTVSPropertyOp26
 70
     1
102
RTVSPropertyOp27
 70
     1
102
RTVSPropertyOp28
 70
     1
102
RTVSPropertyOp29
 70
     1
102
RTVSPropertyOp30
 70
     1
102
RTVSPropertyOp31
 70
     1
102
RTVSPropertyOp32
 70
     1
  0
XRECORD
  5
395
102
{ACAD_REACTORS
330
394
102
}
330
394
100
AcDbXrecord
280
     1
102
RTVSPropertyOp0
 70
     1
102
RTVSPropertyOp1
 70
     1
102
RTVSPropertyOp2
 70
     1
102
RTVSPropertyOp3
 70
     1
102
RTVSPropertyOp4
 70
     1
102
RTVSPropertyOp5
 70
     1
102
RTVSPropertyOp6
 70
     1
102
RTVSPropertyOp7
 70
     1
102
RTVSPropertyOp8
 70
     1
102
RTVSPropertyOp9
 70
     1
102
RTVSPropertyOp10
 70
     1
102
RTVSPropertyOp11
 70
     1
102
RTVSPropertyOp12
 70
     1
102
RTVSPropertyOp13
 70
     1
102
RTVSPropertyOp14
 70
     1
102
RTVSPropertyOp15
 70
     1
102
RTVSPropertyOp16
 70
     1
102
RTVSPropertyOp17
 70
     1
102
RTVSPropertyOp18
 70
     1
102
RTVSPropertyOp19
 70
     1
102
RTVSPropertyOp20
 70
     1
102
RTVSPropertyOp21
 70
     1
102
RTVSPropertyOp22
 70
     1
102
RTVSPropertyOp23
 70
     1
102
RTVSPropertyOp24
 70
     1
102
RTVSPropertyOp25
 70
     1
102
RTVSPropertyOp26
 70
     1
102
RTVSPropertyOp27
 70
     1
102
RTVSPropertyOp28
 70
     1
102
RTVSPropertyOp29
 70
     1
102
RTVSPropertyOp30
 70
     1
102
RTVSPropertyOp31
 70
     1
102
RTVSPropertyOp32
 70
     1
  0
XRECORD
  5
39D
102
{ACAD_REACTORS
330
39C
102
}
330
39C
100
AcDbXrecord
280
     1
102
RTVSPropertyOp0
 70
     1
102
RTVSPropertyOp1
 70
     1
102
RTVSPropertyOp2
 70
     1
102
RTVSPropertyOp3
 70
     1
102
RTVSPropertyOp4
 70
     1
102
RTVSPropertyOp5
 70
     1
102
RTVSPropertyOp6
 70
     1
102
RTVSPropertyOp7
 70
     1
102
RTVSPropertyOp8
 70
     1
102
RTVSPropertyOp9
 70
     1
102
RTVSPropertyOp10
 70
     1
102
RTVSPropertyOp11
 70
     1
102
RTVSPropertyOp12
 70
     1
102
RTVSPropertyOp13
 70
     1
102
RTVSPropertyOp14
 70
     1
102
RTVSPropertyOp15
 70
     1
102
RTVSPropertyOp16
 70
     1
102
RTVSPropertyOp17
 70
     1
102
RTVSPropertyOp18
 70
     1
102
RTVSPropertyOp19
 70
     1
102
RTVSPropertyOp20
 70
     1
102
RTVSPropertyOp21
 70
     1
102
RTVSPropertyOp22
 70
     1
102
RTVSPropertyOp23
 70
     1
102
RTVSPropertyOp24
 70
     1
102
RTVSPropertyOp25
 70
     1
102
RTVSPropertyOp26
 70
     1
102
RTVSPropertyOp27
 70
     1
102
RTVSPropertyOp28
 70
     1
102
RTVSPropertyOp29
 70
     1
102
RTVSPropertyOp30
 70
     1
102
RTVSPropertyOp31
 70
     1
102
RTVSPropertyOp32
 70
     1
  0
XRECORD
  5
381
102
{ACAD_REACTORS
330
380
102
}
330
380
100
AcDbXrecord
280
     1
102
RTVSPropertyOp0
 70
     1
102
RTVSPropertyOp1
 70
     1
102
RTVSPropertyOp2
 70
     1
102
RTVSPropertyOp3
 70
     1
102
RTVSPropertyOp4
 70
     1
102
RTVSPropertyOp5
 70
     1
102
RTVSPropertyOp6
 70
     1
102
RTVSPropertyOp7
 70
     1
102
RTVSPropertyOp8
 70
     1
102
RTVSPropertyOp9
 70
     1
102
RTVSPropertyOp10
 70
     1
102
RTVSPropertyOp11
 70
     1
102
RTVSPropertyOp12
 70
     1
102
RTVSPropertyOp13
 70
     1
102
RTVSPropertyOp14
 70
     1
102
RTVSPropertyOp15
 70
     1
102
RTVSPropertyOp16
 70
     1
102
RTVSPropertyOp17
 70
     1
102
RTVSPropertyOp18
 70
     1
102
RTVSPropertyOp19
 70
     1
102
RTVSPropertyOp20
 70
     1
102
RTVSPropertyOp21
 70
     1
102
RTVSPropertyOp22
 70
     1
102
RTVSPropertyOp23
 70
     1
102
RTVSPropertyOp24
 70
     1
102
RTVSPropertyOp25
 70
     1
102
RTVSPropertyOp26
 70
     1
102
RTVSPropertyOp27
 70
     1
102
RTVSPropertyOp28
 70
     1
102
RTVSPropertyOp29
 70
     1
102
RTVSPropertyOp30
 70
     1
102
RTVSPropertyOp31
 70
     1
102
RTVSPropertyOp32
 70
     1
  0
XRECORD
  5
383
102
{ACAD_REACTORS
330
382
102
}
330
382
100
AcDbXrecord
280
     1
102
RTVSPropertyOp0
 70
     1
102
RTVSPropertyOp1
 70
     1
102
RTVSPropertyOp2
 70
     1
102
RTVSPropertyOp3
 70
     1
102
RTVSPropertyOp4
 70
     1
102
RTVSPropertyOp5
 70
     1
102
RTVSPropertyOp6
 70
     1
102
RTVSPropertyOp7
 70
     1
102
RTVSPropertyOp8
 70
     1
102
RTVSPropertyOp9
 70
     1
102
RTVSPropertyOp10
 70
     1
102
RTVSPropertyOp11
 70
     1
102
RTVSPropertyOp12
 70
     1
102
RTVSPropertyOp13
 70
     1
102
RTVSPropertyOp14
 70
     1
102
RTVSPropertyOp15
 70
     1
102
RTVSPropertyOp16
 70
     1
102
RTVSPropertyOp17
 70
     1
102
RTVSPropertyOp18
 70
     1
102
RTVSPropertyOp19
 70
     1
102
RTVSPropertyOp20
 70
     1
102
RTVSPropertyOp21
 70
     1
102
RTVSPropertyOp22
 70
     1
102
RTVSPropertyOp23
 70
     1
102
RTVSPropertyOp24
 70
     1
102
RTVSPropertyOp25
 70
     1
102
RTVSPropertyOp26
 70
     1
102
RTVSPropertyOp27
 70
     1
102
RTVSPropertyOp28
 70
     1
102
RTVSPropertyOp29
 70
     1
102
RTVSPropertyOp30
 70
     1
102
RTVSPropertyOp31
 70
     1
102
RTVSPropertyOp32
 70
     1
  0
XRECORD
  5
385
102
{ACAD_REACTORS
330
384
102
}
330
384
100
AcDbXrecord
280
     1
102
RTVSPropertyOp0
 70
     1
102
RTVSPropertyOp1
 70
     1
102
RTVSPropertyOp2
 70
     1
102
RTVSPropertyOp3
 70
     1
102
RTVSPropertyOp4
 70
     1
102
RTVSPropertyOp5
 70
     1
102
RTVSPropertyOp6
 70
     1
102
RTVSPropertyOp7
 70
     1
102
RTVSPropertyOp8
 70
     1
102
RTVSPropertyOp9
 70
     1
102
RTVSPropertyOp10
 70
     1
102
RTVSPropertyOp11
 70
     1
102
RTVSPropertyOp12
 70
     1
102
RTVSPropertyOp13
 70
     1
102
RTVSPropertyOp14
 70
     1
102
RTVSPropertyOp15
 70
     1
102
RTVSPropertyOp16
 70
     1
102
RTVSPropertyOp17
 70
     1
102
RTVSPropertyOp18
 70
     1
102
RTVSPropertyOp19
 70
     1
102
RTVSPropertyOp20
 70
     1
102
RTVSPropertyOp21
 70
     1
102
RTVSPropertyOp22
 70
     1
102
RTVSPropertyOp23
 70
     1
102
RTVSPropertyOp24
 70
     1
102
RTVSPropertyOp25
 70
     1
102
RTVSPropertyOp26
 70
     1
102
RTVSPropertyOp27
 70
     1
102
RTVSPropertyOp28
 70
     1
102
RTVSPropertyOp29
 70
     1
102
RTVSPropertyOp30
 70
     1
102
RTVSPropertyOp31
 70
     1
102
RTVSPropertyOp32
 70
     1
  0
XRECORD
  5
387
102
{ACAD_REACTORS
330
386
102
}
330
386
100
AcDbXrecord
280
     1
102
RTVSPropertyOp0
 70
     1
102
RTVSPropertyOp1
 70
     1
102
RTVSPropertyOp2
 70
     1
102
RTVSPropertyOp3
 70
     1
102
RTVSPropertyOp4
 70
     1
102
RTVSPropertyOp5
 70
     1
102
RTVSPropertyOp6
 70
     1
102
RTVSPropertyOp7
 70
     1
102
RTVSPropertyOp8
 70
     1
102
RTVSPropertyOp9
 70
     1
102
RTVSPropertyOp10
 70
     1
102
RTVSPropertyOp11
 70
     1
102
RTVSPropertyOp12
 70
     1
102
RTVSPropertyOp13
 70
     1
102
RTVSPropertyOp14
 70
     1
102
RTVSPropertyOp15
 70
     1
102
RTVSPropertyOp16
 70
     1
102
RTVSPropertyOp17
 70
     1
102
RTVSPropertyOp18
 70
     1
102
RTVSPropertyOp19
 70
     1
102
RTVSPropertyOp20
 70
     1
102
RTVSPropertyOp21
 70
     1
102
RTVSPropertyOp22
 70
     1
102
RTVSPropertyOp23
 70
     1
102
RTVSPropertyOp24
 70
     1
102
RTVSPropertyOp25
 70
     1
102
RTVSPropertyOp26
 70
     1
102
RTVSPropertyOp27
 70
     1
102
RTVSPropertyOp28
 70
     1
102
RTVSPropertyOp29
 70
     1
102
RTVSPropertyOp30
 70
     1
102
RTVSPropertyOp31
 70
     1
102
RTVSPropertyOp32
 70
     1
  0
XRECORD
  5
39B
102
{ACAD_REACTORS
330
39A
102
}
330
39A
100
AcDbXrecord
280
     1
102
RTVSPropertyOp0
 70
     1
102
RTVSPropertyOp1
 70
     1
102
RTVSPropertyOp2
 70
     1
102
RTVSPropertyOp3
 70
     1
102
RTVSPropertyOp4
 70
     1
102
RTVSPropertyOp5
 70
     1
102
RTVSPropertyOp6
 70
     1
102
RTVSPropertyOp7
 70
     1
102
RTVSPropertyOp8
 70
     1
102
RTVSPropertyOp9
 70
     1
102
RTVSPropertyOp10
 70
     1
102
RTVSPropertyOp11
 70
     1
102
RTVSPropertyOp12
 70
     1
102
RTVSPropertyOp13
 70
     1
102
RTVSPropertyOp14
 70
     1
102
RTVSPropertyOp15
 70
     1
102
RTVSPropertyOp16
 70
     1
102
RTVSPropertyOp17
 70
     1
102
RTVSPropertyOp18
 70
     1
102
RTVSPropertyOp19
 70
     1
102
RTVSPropertyOp20
 70
     1
102
RTVSPropertyOp21
 70
     1
102
RTVSPropertyOp22
 70
     1
102
RTVSPropertyOp23
 70
     1
102
RTVSPropertyOp24
 70
     1
102
RTVSPropertyOp25
 70
     1
102
RTVSPropertyOp26
 70
     1
102
RTVSPropertyOp27
 70
     1
102
RTVSPropertyOp28
 70
     1
102
RTVSPropertyOp29
 70
     1
102
RTVSPropertyOp30
 70
     1
102
RTVSPropertyOp31
 70
     1
102
RTVSPropertyOp32
 70
     1
  0
XRECORD
  5
391
102
{ACAD_REACTORS
330
390
102
}
330
390
100
AcDbXrecord
280
     1
102
RTVSPropertyOp0
 70
     1
102
RTVSPropertyOp1
 70
     1
102
RTVSPropertyOp2
 70
     1
102
RTVSPropertyOp3
 70
     1
102
RTVSPropertyOp4
 70
     1
102
RTVSPropertyOp5
 70
     1
102
RTVSPropertyOp6
 70
     1
102
RTVSPropertyOp7
 70
     1
102
RTVSPropertyOp8
 70
     1
102
RTVSPropertyOp9
 70
     1
102
RTVSPropertyOp10
 70
     1
102
RTVSPropertyOp11
 70
     1
102
RTVSPropertyOp12
 70
     1
102
RTVSPropertyOp13
 70
     1
102
RTVSPropertyOp14
 70
     1
102
RTVSPropertyOp15
 70
     1
102
RTVSPropertyOp16
 70
     1
102
RTVSPropertyOp17
 70
     1
102
RTVSPropertyOp18
 70
     1
102
RTVSPropertyOp19
 70
     1
102
RTVSPropertyOp20
 70
     1
102
RTVSPropertyOp21
 70
     1
102
RTVSPropertyOp22
 70
     1
102
RTVSPropertyOp23
 70
     1
102
RTVSPropertyOp24
 70
     1
102
RTVSPropertyOp25
 70
     1
102
RTVSPropertyOp26
 70
     1
102
RTVSPropertyOp27
 70
     1
102
RTVSPropertyOp28
 70
     1
102
RTVSPropertyOp29
 70
     1
102
RTVSPropertyOp30
 70
     1
102
RTVSPropertyOp31
 70
     1
102
RTVSPropertyOp32
 70
     1
  0
XRECORD
  5
399
102
{ACAD_REACTORS
330
398
102
}
330
398
100
AcDbXrecord
280
     1
102
RTVSPropertyOp0
 70
     1
102
RTVSPropertyOp1
 70
     1
102
RTVSPropertyOp2
 70
     1
102
RTVSPropertyOp3
 70
     1
102
RTVSPropertyOp4
 70
     1
102
RTVSPropertyOp5
 70
     1
102
RTVSPropertyOp6
 70
     1
102
RTVSPropertyOp7
 70
     1
102
RTVSPropertyOp8
 70
     1
102
RTVSPropertyOp9
 70
     1
102
RTVSPropertyOp10
 70
     1
102
RTVSPropertyOp11
 70
     1
102
RTVSPropertyOp12
 70
     1
102
RTVSPropertyOp13
 70
     1
102
RTVSPropertyOp14
 70
     1
102
RTVSPropertyOp15
 70
     1
102
RTVSPropertyOp16
 70
     1
102
RTVSPropertyOp17
 70
     1
102
RTVSPropertyOp18
 70
     1
102
RTVSPropertyOp19
 70
     1
102
RTVSPropertyOp20
 70
     1
102
RTVSPropertyOp21
 70
     1
102
RTVSPropertyOp22
 70
     1
102
RTVSPropertyOp23
 70
     1
102
RTVSPropertyOp24
 70
     1
102
RTVSPropertyOp25
 70
     1
102
RTVSPropertyOp26
 70
     1
102
RTVSPropertyOp27
 70
     1
102
RTVSPropertyOp28
 70
     1
102
RTVSPropertyOp29
 70
     1
102
RTVSPropertyOp30
 70
     1
102
RTVSPropertyOp31
 70
     1
102
RTVSPropertyOp32
 70
     1
  0
ENDSEC
  0
EOF
