  0
SECTION
  2
HEADER
  9
$ACADVER
  1
AC1015
  9
$ACADMAINTVER
 70
     6
  9
$DWGCODEPAGE
  3
ANSI_1252
  9
$INSBASE
 10
0.0
 20
0.0
 30
0.0
  9
$EXTMIN
 10
-124.3918480976856
 20
-307.115125217022
 30
0.0
  9
$EXTMAX
 10
199.866295015427
 20
22.99999999999147
 30
0.0
  9
$LIMMIN
 10
0.0
 20
0.0
  9
$LIMMAX
 10
12.0
 20
9.0
  9
$ORTHOMODE
 70
     0
  9
$REGENMODE
 70
     1
  9
$FILLMODE
 70
     1
  9
$QTEXTMODE
 70
     0
  9
$MIRRTEXT
 70
     1
  9
$LTSCALE
 40
1.0
  9
$ATTMODE
 70
     1
  9
$TEXTSIZE
 40
0.2
  9
$TRACEWID
 40
0.05
  9
$TEXTSTYLE
  7
Standard
  9
$CLAYER
  8
0
  9
$CELTYPE
  6
ByLayer
  9
$CECOLOR
 62
   256
  9
$CELTSCALE
 40
1.0
  9
$DISPSILH
 70
     0
  9
$DIMSCALE
 40
1.0
  9
$DIMASZ
 40
0.18
  9
$DIMEXO
 40
0.0625
  9
$DIMDLI
 40
0.38
  9
$DIMRND
 40
0.0
  9
$DIMDLE
 40
0.0
  9
$DIMEXE
 40
0.18
  9
$DIMTP
 40
0.0
  9
$DIMTM
 40
0.0
  9
$DIMTXT
 40
0.18
  9
$DIMCEN
 40
0.09
  9
$DIMTSZ
 40
0.0
  9
$DIMTOL
 70
     0
  9
$DIMLIM
 70
     0
  9
$DIMTIH
 70
     1
  9
$DIMTOH
 70
     1
  9
$DIMSE1
 70
     0
  9
$DIMSE2
 70
     0
  9
$DIMTAD
 70
     0
  9
$DIMZIN
 70
     0
  9
$DIMBLK
  1

  9
$DIMASO
 70
     1
  9
$DIMSHO
 70
     1
  9
$DIMPOST
  1

  9
$DIMAPOST
  1

  9
$DIMALT
 70
     0
  9
$DIMALTD
 70
     2
  9
$DIMALTF
 40
25.4
  9
$DIMLFAC
 40
1.0
  9
$DIMTOFL
 70
     0
  9
$DIMTVP
 40
0.0
  9
$DIMTIX
 70
     0
  9
$DIMSOXD
 70
     0
  9
$DIMSAH
 70
     0
  9
$DIMBLK1
  1

  9
$DIMBLK2
  1

  9
$DIMSTYLE
  2
Standard
  9
$DIMCLRD
 70
     0
  9
$DIMCLRE
 70
     0
  9
$DIMCLRT
 70
     0
  9
$DIMTFAC
 40
1.0
  9
$DIMGAP
 40
0.09
  9
$DIMJUST
 70
     0
  9
$DIMSD1
 70
     0
  9
$DIMSD2
 70
     0
  9
$DIMTOLJ
 70
     1
  9
$DIMTZIN
 70
     0
  9
$DIMALTZ
 70
     0
  9
$DIMALTTZ
 70
     0
  9
$DIMUPT
 70
     0
  9
$DIMDEC
 70
     4
  9
$DIMTDEC
 70
     4
  9
$DIMALTU
 70
     2
  9
$DIMALTTD
 70
     2
  9
$DIMTXSTY
  7
Standard
  9
$DIMAUNIT
 70
     0
  9
$DIMADEC
 70
     0
  9
$DIMALTRND
 40
0.0
  9
$DIMAZIN
 70
     0
  9
$DIMDSEP
 70
    46
  9
$DIMATFIT
 70
     3
  9
$DIMFRAC
 70
     0
  9
$DIMLDRBLK
  1

  9
$DIMLUNIT
 70
     2
  9
$DIMLWD
 70
    -2
  9
$DIMLWE
 70
    -2
  9
$DIMTMOVE
 70
     0
  9
$LUNITS
 70
     2
  9
$LUPREC
 70
     4
  9
$SKETCHINC
 40
0.1
  9
$FILLETRAD
 40
0.5
  9
$AUNITS
 70
     0
  9
$AUPREC
 70
     0
  9
$MENU
  1
.
  9
$ELEVATION
 40
0.0
  9
$PELEVATION
 40
0.0
  9
$THICKNESS
 40
0.0
  9
$LIMCHECK
 70
     0
  9
$CHAMFERA
 40
0.5
  9
$CHAMFERB
 40
0.5
  9
$CHAMFERC
 40
1.0
  9
$CHAMFERD
 40
0.0
  9
$SKPOLY
 70
     0
  9
$TDCREATE
 40
2456966.61951294
  9
$TDUCREATE
 40
2456966.577846273
  9
$TDUPDATE
 40
2456966.619513298
  9
$TDUUPDATE
 40
2456966.577846632
  9
$TDINDWG
 40
0.0000000116
  9
$TDUSRTIMER
 40
0.0000000116
  9
$USRTIMER
 70
     1
  9
$ANGBASE
 50
0.0
  9
$ANGDIR
 70
     0
  9
$PDMODE
 70
     0
  9
$PDSIZE
 40
0.0
  9
$PLINEWID
 40
0.0
  9
$SPLFRAME
 70
     0
  9
$SPLINETYPE
 70
     6
  9
$SPLINESEGS
 70
     8
  9
$HANDSEED
  5
25D
  9
$SURFTAB1
 70
     6
  9
$SURFTAB2
 70
     6
  9
$SURFTYPE
 70
     6
  9
$SURFU
 70
     6
  9
$SURFV
 70
     6
  9
$UCSBASE
  2

  9
$UCSNAME
  2

  9
$UCSORG
 10
0.0
 20
0.0
 30
0.0
  9
$UCSXDIR
 10
1.0
 20
0.0
 30
0.0
  9
$UCSYDIR
 10
0.0
 20
1.0
 30
0.0
  9
$UCSORTHOREF
  2

  9
$UCSORTHOVIEW
 70
     0
  9
$UCSORGTOP
 10
0.0
 20
0.0
 30
0.0
  9
$UCSORGBOTTOM
 10
0.0
 20
0.0
 30
0.0
  9
$UCSORGLEFT
 10
0.0
 20
0.0
 30
0.0
  9
$UCSORGRIGHT
 10
0.0
 20
0.0
 30
0.0
  9
$UCSORGFRONT
 10
0.0
 20
0.0
 30
0.0
  9
$UCSORGBACK
 10
0.0
 20
0.0
 30
0.0
  9
$PUCSBASE
  2

  9
$PUCSNAME
  2

  9
$PUCSORG
 10
0.0
 20
0.0
 30
0.0
  9
$PUCSXDIR
 10
1.0
 20
0.0
 30
0.0
  9
$PUCSYDIR
 10
0.0
 20
1.0
 30
0.0
  9
$PUCSORTHOREF
  2

  9
$PUCSORTHOVIEW
 70
     0
  9
$PUCSORGTOP
 10
0.0
 20
0.0
 30
0.0
  9
$PUCSORGBOTTOM
 10
0.0
 20
0.0
 30
0.0
  9
$PUCSORGLEFT
 10
0.0
 20
0.0
 30
0.0
  9
$PUCSORGRIGHT
 10
0.0
 20
0.0
 30
0.0
  9
$PUCSORGFRONT
 10
0.0
 20
0.0
 30
0.0
  9
$PUCSORGBACK
 10
0.0
 20
0.0
 30
0.0
  9
$USERI1
 70
     0
  9
$USERI2
 70
     0
  9
$USERI3
 70
     0
  9
$USERI4
 70
     0
  9
$USERI5
 70
     0
  9
$USERR1
 40
18.1
  9
$USERR2
 40
0.0
  9
$USERR3
 40
0.0
  9
$USERR4
 40
0.0
  9
$USERR5
 40
0.0
  9
$WORLDVIEW
 70
     1
  9
$SHADEDGE
 70
     3
  9
$SHADEDIF
 70
    70
  9
$TILEMODE
 70
     1
  9
$MAXACTVP
 70
    64
  9
$PINSBASE
 10
0.0
 20
0.0
 30
0.0
  9
$PLIMCHECK
 70
     0
  9
$PEXTMIN
 10
1.00000000000000E+20
 20
1.00000000000000E+20
 30
1.00000000000000E+20
  9
$PEXTMAX
 10
-1.00000000000000E+20
 20
-1.00000000000000E+20
 30
-1.00000000000000E+20
  9
$PLIMMIN
 10
0.0
 20
0.0
  9
$PLIMMAX
 10
12.0
 20
9.0
  9
$UNITMODE
 70
     0
  9
$VISRETAIN
 70
     1
  9
$PLINEGEN
 70
     0
  9
$PSLTSCALE
 70
     1
  9
$TREEDEPTH
 70
  3020
  9
$CMLSTYLE
  2
Standard
  9
$CMLJUST
 70
     0
  9
$CMLSCALE
 40
1.0
  9
$PROXYGRAPHICS
 70
     1
  9
$MEASUREMENT
 70
     1
  9
$CELWEIGHT
370
    -1
  9
$ENDCAPS
280
     0
  9
$JOINSTYLE
280
     0
  9
$LWDISPLAY
290
     0
  9
$INSUNITS
 70
     1
  9
$HYPERLINKBASE
  1

  9
$STYLESHEET
  1

  9
$XEDIT
290
     1
  9
$CEPSNTYPE
380
     0
  9
$PSTYLEMODE
290
     1
  9
$FINGERPRINTGUID
  2
{796EBF12-B1BC-4103-A3C5-43DFE1A6EB68}
  9
$VERSIONGUID
  2
{FAEB1C32-E019-11D5-929B-00C0DF256EC4}
  9
$EXTNAMES
290
     1
  9
$PSVPSCALE
 40
0.0
  9
$OLESTARTUP
290
     0
  0
ENDSEC
  0
SECTION
  2
CLASSES
  0
CLASS
  1
ACDBDICTIONARYWDFLT
  2
AcDbDictionaryWithDefault
  3
ObjectDBX Classes
 90
        0
280
     0
281
     0
  0
CLASS
  1
VISUALSTYLE
  2
AcDbVisualStyle
  3
ObjectDBX Classes
 90
     4095
280
     0
281
     0
  0
CLASS
  1
MATERIAL
  2
AcDbMaterial
  3
ObjectDBX Classes
 90
     1153
280
     0
281
     0
  0
CLASS
  1
DICTIONARYVAR
  2
AcDbDictionaryVar
  3
ObjectDBX Classes
 90
        0
280
     0
281
     0
  0
CLASS
  1
ACDBPLACEHOLDER
  2
AcDbPlaceHolder
  3
ObjectDBX Classes
 90
        0
280
     0
281
     0
  0
CLASS
  1
LAYOUT
  2
AcDbLayout
  3
ObjectDBX Classes
 90
        0
280
     0
281
     0
  0
ENDSEC
  0
SECTION
  2
TABLES
  0
TABLE
  2
VPORT
  5
8
330
0
100
AcDbSymbolTable
 70
     1
  0
VPORT
  5
29
330
8
100
AcDbSymbolTableRecord
100
AcDbViewportTableRecord
  2
*Active
 70
     0
 10
0.0
 20
0.0
 11
1.0
 21
1.0
 12
37.7372234588707
 22
-142.0575626085153
 13
0.0
 23
0.0
 14
0.5
 24
0.5
 15
0.5
 25
0.5
 16
0.0
 26
0.0
 36
1.0
 17
0.0
 27
0.0
 37
0.0
 40
363.1266377387149
 41
1.60267857142857
 42
50.0
 43
0.0
 44
0.0
 50
0.0
 51
0.0
 71
     0
 72
   100
 73
     1
 74
     3
 75
     0
 76
     0
 77
     0
 78
     0
281
     0
 65
     1
110
0.0
120
0.0
130
0.0
111
1.0
121
0.0
131
0.0
112
0.0
122
1.0
132
0.0
 79
     0
146
0.0
  0
ENDTAB
  0
TABLE
  2
LTYPE
  5
5
330
0
100
AcDbSymbolTable
 70
     9
  0
LTYPE
  5
14
330
5
100
AcDbSymbolTableRecord
100
AcDbLinetypeTableRecord
  2
ByBlock
 70
     0
  3

 72
    65
 73
     0
 40
0.0
  0
LTYPE
  5
15
330
5
100
AcDbSymbolTableRecord
100
AcDbLinetypeTableRecord
  2
ByLayer
 70
     0
  3

 72
    65
 73
     0
 40
0.0
  0
LTYPE
  5
16
330
5
100
AcDbSymbolTableRecord
100
AcDbLinetypeTableRecord
  2
Continuous
 70
     0
  3
Solid line
 72
    65
 73
     0
 40
0.0
  0
LTYPE
  5
3F
330
5
100
AcDbSymbolTableRecord
100
AcDbLinetypeTableRecord
  2
DASHED
 70
     0
  3
Dashed
 72
    65
 73
     2
 40
15.0
 49
7.0
 74
     0
 49
-8.0
 74
     0
  0
LTYPE
  5
40
330
5
100
AcDbSymbolTableRecord
100
AcDbLinetypeTableRecord
  2
DOTTED
 70
     0
  3
Dotted
 72
    65
 73
     2
 40
1.0
 49
0.0
 74
     0
 49
-1.0
 74
     0
  0
LTYPE
  5
41
330
5
100
AcDbSymbolTableRecord
100
AcDbLinetypeTableRecord
  2
DOT_CENTER
 70
     0
  3
Dot_Center
 72
    65
 73
     4
 40
14.0
 49
12.0
 74
     0
 49
-1.0
 74
     0
 49
0.0
 74
     0
 49
-1.0
 74
     0
  0
LTYPE
  5
42
330
5
100
AcDbSymbolTableRecord
100
AcDbLinetypeTableRecord
  2
LONG_DASHED
 70
     0
  3
Long_Dashed
 72
    65
 73
     2
 40
15.0
 49
10.0
 74
     0
 49
-5.0
 74
     0
  0
LTYPE
  5
43
330
5
100
AcDbSymbolTableRecord
100
AcDbLinetypeTableRecord
  2
DASH_CENTER
 70
     0
  3
Dash_Center
 72
    65
 73
     4
 40
14.0
 49
11.0
 74
     0
 49
-1.0
 74
     0
 49
1.0
 74
     0
 49
-1.0
 74
     0
  0
LTYPE
  5
44
330
5
100
AcDbSymbolTableRecord
100
AcDbLinetypeTableRecord
  2
PHANTOM
 70
     0
  3
Phantom
 72
    65
 73
     6
 40
13.0
 49
10.0
 74
     0
 49
-1.0
 74
     0
 49
0.0
 74
     0
 49
-1.0
 74
     0
 49
0.0
 74
     0
 49
-1.0
 74
     0
  0
LTYPE
  5
45
330
5
100
AcDbSymbolTableRecord
100
AcDbLinetypeTableRecord
  2
CENTER_DASH_DASH
 70
     0
  3
Center_Dash_Dash
 72
    65
 73
     6
 40
14.0
 49
9.0
 74
     0
 49
-1.0
 74
     0
 49
1.0
 74
     0
 49
-1.0
 74
     0
 49
1.0
 74
     0
 49
-1.0
 74
     0
  0
LTYPE
  5
46
330
5
100
AcDbSymbolTableRecord
100
AcDbLinetypeTableRecord
  2
DASHDOT_2
 70
     0
  3
DASHDOT_2
 72
    65
 73
     4
 40
9.0
 49
4.0
 74
     0
 49
-2.0
 74
     0
 49
1.0
 74
     0
 49
-2.0
 74
     0
  0
ENDTAB
  0
TABLE
  2
LAYER
  5
2
330
0
100
AcDbSymbolTable
 70
     4
  0
LAYER
  5
10
330
2
100
AcDbSymbolTableRecord
100
AcDbLayerTableRecord
  2
0
 70
     0
 62
     7
  6
Continuous
370
    -3
390
F
  0
LAYER
  5
47
330
2
100
AcDbSymbolTableRecord
100
AcDbLayerTableRecord
  2
1
 70
     0
 62
     7
  6
Continuous
370
    -3
390
F
  0
LAYER
  5
48
330
2
100
AcDbSymbolTableRecord
100
AcDbLayerTableRecord
  2
LC-001-002-----0
 70
     0
 62
     7
  6
Continuous
370
    -3
390
F
  0
LAYER
  5
49
330
2
100
AcDbSymbolTableRecord
100
AcDbLayerTableRecord
  2
LC-002-002-RND-0
 70
     0
 62
     7
  6
Continuous
370
    -3
390
F
  0
ENDTAB
  0
TABLE
  2
STYLE
  5
3
330
0
100
AcDbSymbolTable
 70
     2
  0
STYLE
  5
11
330
3
100
AcDbSymbolTableRecord
100
AcDbTextStyleTableRecord
  2
Standard
 70
     0
 40
0.0
 41
1.0
 50
0.0
 71
     0
 42
0.2
  3
txt
  4

  0
STYLE
  5
107
330
3
100
AcDbSymbolTableRecord
100
AcDbTextStyleTableRecord
  2
CONVERTER_11
 70
     0
 40
0.0
 41
0.9
 50
0.0
 71
     0
 42
0.2
  3
txt.shx
  4

  0
ENDTAB
  0
TABLE
  2
VIEW
  5
6
330
0
100
AcDbSymbolTable
 70
     0
  0
ENDTAB
  0
TABLE
  2
UCS
  5
7
330
0
100
AcDbSymbolTable
 70
     0
  0
ENDTAB
  0
TABLE
  2
APPID
  5
9
330
0
100
AcDbSymbolTable
 70
     1
  0
APPID
  5
12
330
9
100
AcDbSymbolTableRecord
100
AcDbRegAppTableRecord
  2
ACAD
 70
     0
  0
ENDTAB
  0
TABLE
  2
DIMSTYLE
  5
A
330
0
100
AcDbSymbolTable
 70
     8
100
AcDbDimStyleTable
  0
DIMSTYLE
105
27
330
A
100
AcDbSymbolTableRecord
100
AcDbDimStyleTableRecord
  2
Standard
 70
     0
178
     0
340
11
  0
DIMSTYLE
105
10B
102
{ACAD_REACTORS
330
10C
102
}
330
A
100
AcDbSymbolTableRecord
100
AcDbDimStyleTableRecord
  2
ME10_DIM_10
 70
     0
  3
-250
 41
7.0
 42
0.0
 44
2.0
 73
     0
 74
     0
 77
     1
 78
     8
140
7.0
147
2.0
172
     1
173
     1
174
     1
175
     1
176
     4
177
     4
271
     2
178
     1
271
     2
340
107
  0
DIMSTYLE
105
116
102
{ACAD_REACTORS
330
117
102
}
330
A
100
AcDbSymbolTableRecord
100
AcDbDimStyleTableRecord
  2
ME10_DIM_11
 70
     0
  3
-177
 41
7.0
 42
0.0
 44
2.0
 73
     0
 74
     0
 77
     1
 78
     8
140
7.0
147
2.0
172
     1
173
     1
174
     1
175
     1
176
     4
177
     4
271
     2
178
     1
271
     2
340
107
  0
DIMSTYLE
105
122
102
{ACAD_REACTORS
330
123
102
}
330
A
100
AcDbSymbolTableRecord
100
AcDbDimStyleTableRecord
  2
ME10_DIM_12
 70
     0
  3
DN<>
 41
7.0
 42
0.0
 44
2.0
 73
     0
 74
     0
 77
     1
 78
     8
140
7.0
147
2.0
172
     1
173
     1
174
     1
175
     1
176
     4
177
     4
271
     2
178
     1
271
     2
340
107
  0
DIMSTYLE
105
12D
102
{ACAD_REACTORS
330
12E
102
}
330
A
100
AcDbSymbolTableRecord
100
AcDbDimStyleTableRecord
  2
ME10_DIM_13
 70
     0
 41
7.0
 42
0.0
 44
2.0
 73
     0
 74
     0
 77
     1
 78
     8
140
7.0
147
2.0
172
     1
173
     1
174
     1
175
     1
176
     4
177
     4
271
     2
178
     1
271
     2
340
107
  0
DIMSTYLE
105
138
102
{ACAD_REACTORS
330
139
102
}
330
A
100
AcDbSymbolTableRecord
100
AcDbDimStyleTableRecord
  2
ME10_DIM_14
 70
     0
 41
7.0
 42
0.0
 44
2.0
 73
     0
 74
     0
 77
     1
 78
     8
140
7.0
147
2.0
172
     1
173
     1
174
     1
175
     1
176
     4
177
     4
271
     2
178
     1
271
     2
340
107
  0
DIMSTYLE
105
143
102
{ACAD_REACTORS
330
144
102
}
330
A
100
AcDbSymbolTableRecord
100
AcDbDimStyleTableRecord
  2
ME10_DIM_15
 70
     0
 41
7.0
 42
0.0
 44
2.0
 73
     0
 74
     0
 77
     1
 78
     8
140
7.0
147
2.0
172
     1
173
     1
174
     1
175
     1
176
     4
177
     4
271
     2
178
     1
271
     2
340
107
  0
DIMSTYLE
105
150
102
{ACAD_REACTORS
330
151
102
}
330
A
100
AcDbSymbolTableRecord
100
AcDbDimStyleTableRecord
  2
ME10_DIM_16
 70
     0
 41
7.0
 42
0.0
 44
2.0
 73
     0
 74
     0
 77
     1
 78
     8
140
7.0
147
2.0
172
     1
173
     1
174
     1
175
     1
176
     4
177
     4
271
     2
178
     1
271
     2
340
107
  0
ENDTAB
  0
TABLE
  2
BLOCK_RECORD
  5
1
330
0
100
AcDbSymbolTable
 70
    23
  0
BLOCK_RECORD
  5
1F
330
1
100
AcDbSymbolTableRecord
100
AcDbBlockTableRecord
  2
*Model_Space
340
22
  0
BLOCK_RECORD
  5
1B
330
1
100
AcDbSymbolTableRecord
100
AcDbBlockTableRecord
  2
*Paper_Space
340
1E
  0
BLOCK_RECORD
  5
23
330
1
100
AcDbSymbolTableRecord
100
AcDbBlockTableRecord
  2
*Paper_Space0
340
26
  0
BLOCK_RECORD
  5
4A
330
1
100
AcDbSymbolTableRecord
100
AcDbBlockTableRecord
  2
HL19_ABS_10003_ABS
340
0
102
{BLKREFS
331
4E
102
}
  0
BLOCK_RECORD
  5
4D
330
1
100
AcDbSymbolTableRecord
100
AcDbBlockTableRecord
  2
HL19
340
0
102
{BLKREFS
331
64
102
}
  0
BLOCK_RECORD
  5
51
330
1
100
AcDbSymbolTableRecord
100
AcDbBlockTableRecord
  2
HL_130_30_Flaschensifon
340
0
102
{BLKREFS
331
65
102
}
  0
BLOCK_RECORD
  5
54
330
1
100
AcDbSymbolTableRecord
100
AcDbBlockTableRecord
  2
Sifonkappe
340
0
102
{BLKREFS
331
66
102
}
  0
BLOCK_RECORD
  5
57
330
1
100
AcDbSymbolTableRecord
100
AcDbBlockTableRecord
  2
HL_133
340
0
102
{BLKREFS
331
67
102
}
  0
BLOCK_RECORD
  5
5A
330
1
100
AcDbSymbolTableRecord
100
AcDbBlockTableRecord
  2
HL_13_DN32_Tauchrohr
340
0
102
{BLKREFS
331
68
102
}
  0
BLOCK_RECORD
  5
5D
330
1
100
AcDbSymbolTableRecord
100
AcDbBlockTableRecord
  2
HL132
340
0
102
{BLKREFS
331
69
102
}
  0
BLOCK_RECORD
  5
60
330
1
100
AcDbSymbolTableRecord
100
AcDbBlockTableRecord
  2
Abgangsrohr
340
0
102
{BLKREFS
331
6A
102
}
  0
BLOCK_RECORD
  5
63
330
1
100
AcDbSymbolTableRecord
100
AcDbBlockTableRecord
  2
HL132_1_30_Flaschensifon
340
0
102
{BLKREFS
331
7F
102
}
  0
BLOCK_RECORD
  5
6D
330
1
100
AcDbSymbolTableRecord
100
AcDbBlockTableRecord
  2
Holländermutter_R_5_4__1
340
0
102
{BLKREFS
331
80
102
}
  0
BLOCK_RECORD
  5
70
330
1
100
AcDbSymbolTableRecord
100
AcDbBlockTableRecord
  2
Holländermutter_R_5_4__2
340
0
102
{BLKREFS
331
81
102
}
  0
BLOCK_RECORD
  5
73
330
1
100
AcDbSymbolTableRecord
100
AcDbBlockTableRecord
  2
Rosette
340
0
102
{BLKREFS
331
82
102
}
  0
BLOCK_RECORD
  5
76
330
1
100
AcDbSymbolTableRecord
100
AcDbBlockTableRecord
  2
Mutter5_4
340
0
102
{BLKREFS
331
83
102
}
  0
BLOCK_RECORD
  5
79
330
1
100
AcDbSymbolTableRecord
100
AcDbBlockTableRecord
  2
Holländermutter_1
340
0
102
{BLKREFS
331
84
102
}
  0
BLOCK_RECORD
  5
7C
330
1
100
AcDbSymbolTableRecord
100
AcDbBlockTableRecord
  2
Dichtstopfen
340
0
102
{BLKREFS
331
85
102
}
  0
BLOCK_RECORD
  5
101
330
1
100
AcDbSymbolTableRecord
100
AcDbBlockTableRecord
  2
*D16
340
0
  0
BLOCK_RECORD
  5
10D
330
1
100
AcDbSymbolTableRecord
100
AcDbBlockTableRecord
  2
*D17
340
0
  0
BLOCK_RECORD
  5
118
330
1
100
AcDbSymbolTableRecord
100
AcDbBlockTableRecord
  2
*D18
340
0
  0
BLOCK_RECORD
  5
124
330
1
100
AcDbSymbolTableRecord
100
AcDbBlockTableRecord
  2
*D19
340
0
  0
BLOCK_RECORD
  5
12F
330
1
100
AcDbSymbolTableRecord
100
AcDbBlockTableRecord
  2
*D20
340
0
  0
BLOCK_RECORD
  5
13A
330
1
100
AcDbSymbolTableRecord
100
AcDbBlockTableRecord
  2
*D21
340
0
  0
BLOCK_RECORD
  5
145
330
1
100
AcDbSymbolTableRecord
100
AcDbBlockTableRecord
  2
*D22
340
0
  0
ENDTAB
  0
ENDSEC
  0
SECTION
  2
BLOCKS
  0
BLOCK
  5
20
330
1F
100
AcDbEntity
  8
0
100
AcDbBlockBegin
  2
*Model_Space
 70
     0
 10
0.0
 20
0.0
 30
0.0
  3
*Model_Space
  1

  0
ENDBLK
  5
21
330
1F
100
AcDbEntity
  8
0
100
AcDbBlockEnd
  0
BLOCK
  5
1C
330
1B
100
AcDbEntity
 67
     1
  8
0
100
AcDbBlockBegin
  2
*Paper_Space
 70
     0
 10
0.0
 20
0.0
 30
0.0
  3
*Paper_Space
  1

  0
ENDBLK
  5
1D
330
1B
100
AcDbEntity
 67
     1
  8
0
100
AcDbBlockEnd
  0
BLOCK
  5
24
330
23
100
AcDbEntity
  8
0
100
AcDbBlockBegin
  2
*Paper_Space0
 70
     0
 10
0.0
 20
0.0
 30
0.0
  3
*Paper_Space0
  1

  0
ENDBLK
  5
25
330
23
100
AcDbEntity
  8
0
100
AcDbBlockEnd
  0
BLOCK
  5
4B
330
4A
100
AcDbEntity
  8
0
100
AcDbBlockBegin
  2
HL19_ABS_10003_ABS
 70
     0
 10
-82.1647449331068
 20
-45.26581218696723
 30
0.0
  3
HL19_ABS_10003_ABS
  1

  0
LINE
  5
86
330
4A
100
AcDbEntity
  8
1
  6
DOT_CENTER
 62
     2
100
AcDbLine
 10
-97.71273764449487
 20
-76.36396932172171
 30
0.0
 11
-88.9646539200321
 21
-43.71567639315035
 31
0.0
  0
LINE
  5
87
330
4A
100
AcDbEntity
  8
1
  6
DOT_CENTER
 62
     2
100
AcDbLine
 10
-85.16001395702631
 20
-29.51656674670081
 30
0.0
 11
-88.835244397481
 21
-43.23271348000586
 31
0.0
  0
LINE
  5
88
330
4A
100
AcDbEntity
  8
1
  6
DOT_CENTER
 62
     2
100
AcDbLine
 10
-73.52493767880674
 20
-22.7990523254277
 30
0.0
 11
-60.85136468635903
 21
-26.19492597396987
 31
0.0
  0
LINE
  5
89
330
4A
100
AcDbEntity
  8
0
  6
Continuous
 62
     7
100
AcDbLine
 10
-83.52389713574127
 20
-59.14975121525069
 30
0.0
 11
-80.15120314656946
 21
-53.32416667330089
 31
0.0
  0
LINE
  5
8A
330
4A
100
AcDbEntity
  8
0
  6
Continuous
 62
     7
100
AcDbLine
 10
-87.50091715776881
 20
-72.06034034760216
 30
0.0
 11
-84.85266753831382
 21
-66.04064152182553
 31
0.0
  0
LINE
  5
8B
330
4A
100
AcDbEntity
  8
0
  6
Continuous
 62
     7
100
AcDbLine
 10
-101.3935249220894
 20
-54.36159888085547
 30
0.0
 11
-83.52389713574127
 21
-59.14975121525069
 31
0.0
  0
LINE
  5
8C
330
4A
100
AcDbEntity
  8
0
  6
Continuous
 62
     7
100
AcDbLine
 10
-85.57711190803064
 20
-65.84652723799871
 30
0.0
 11
-82.55797130945217
 21
-59.40857026035313
 31
0.0
  0
LINE
  5
8D
330
4A
100
AcDbEntity
  8
0
  6
Continuous
 62
     7
100
AcDbLine
 10
-98.62391218292316
 20
-41.12748594212595
 30
0.0
 11
-79.30539565714133
 21
-46.30386684417486
 31
0.0
  0
LINE
  5
8E
330
4A
100
AcDbEntity
  8
0
  6
Continuous
 62
     7
100
AcDbLine
 10
-79.30539565714133
 20
-46.30386684417486
 30
0.0
 11
-77.61502546113553
 21
-46.7568001731041
 31
0.0
  0
LINE
  5
8F
330
4A
100
AcDbEntity
  8
0
  6
Continuous
 62
     7
100
AcDbLine
 10
-81.6000918860031
 20
-52.93593810564722
 30
0.0
 11
-77.61502546113553
 21
-46.7568001731041
 31
0.0
  0
LINE
  5
90
330
4A
100
AcDbEntity
  8
0
  6
Continuous
 62
     3
100
AcDbLine
 10
-98.0115397472274
 20
-40.77393255153263
 30
0.0
 11
-79.65894904773467
 21
-45.69149440847909
 31
0.0
  0
LINE
  5
91
330
4A
100
AcDbEntity
  8
0
  6
Continuous
 62
     7
100
AcDbLine
 10
-103.6882211509511
 20
-60.99367014232787
 30
0.0
 11
-102.9637767812342
 21
-61.18778442615471
 31
0.0
  0
LINE
  5
92
330
4A
100
AcDbEntity
  8
0
  6
Continuous
 62
     7
100
AcDbLine
 10
-102.9637767812342
 20
-61.18778442615471
 30
0.0
 11
-85.57711190803064
 21
-65.84652723799871
 31
0.0
  0
LINE
  5
93
330
4A
100
AcDbEntity
  8
0
  6
Continuous
 62
     7
100
AcDbLine
 10
-85.57711190803064
 20
-65.84652723799871
 30
0.0
 11
-84.85266753831382
 21
-66.04064152182553
 31
0.0
  0
LINE
  5
94
330
4A
100
AcDbEntity
  8
0
  6
Continuous
 62
     7
100
AcDbLine
 10
-83.52389713574127
 20
-59.14975121525069
 30
0.0
 11
-82.55797130945217
 21
-59.40857026035313
 31
0.0
  0
LINE
  5
95
330
4A
100
AcDbEntity
  8
0
  6
Continuous
 62
     7
100
AcDbLine
 10
-99.95268258549578
 20
-48.01837624870078
 30
0.0
 11
-81.6000918860031
 21
-52.93593810564722
 31
0.0
  0
LINE
  5
96
330
4A
100
AcDbEntity
  8
0
  6
Continuous
 62
     7
100
AcDbLine
 10
-81.6000918860031
 20
-52.93593810564722
 30
0.0
 11
-80.15120314656946
 21
-53.32416667330089
 31
0.0
  0
LINE
  5
97
330
4A
100
AcDbEntity
  8
0
  6
Continuous
 62
     7
100
AcDbLine
 10
-104.4046191178279
 20
-67.53100705830938
 30
0.0
 11
-103.6882211509511
 21
-60.99367014232787
 31
0.0
  0
LINE
  5
98
330
4A
100
AcDbEntity
  8
0
  6
Continuous
 62
     7
100
AcDbLine
 10
-104.6461005744001
 20
-67.46630229703378
 30
0.0
 11
-104.4046191178279
 21
-67.53100705830938
 31
0.0
  0
LINE
  5
99
330
4A
100
AcDbEntity
  8
0
  6
Continuous
 62
     7
100
AcDbLine
 10
-104.4046191178279
 20
-67.53100705830938
 30
0.0
 11
-87.50091715776881
 21
-72.06034034760216
 31
0.0
  0
LINE
  5
9A
330
4A
100
AcDbEntity
  8
0
  6
Continuous
 62
     7
100
AcDbLine
 10
-87.50091715776881
 20
-72.06034034760216
 30
0.0
 11
-87.25943570119654
 21
-72.12504510887777
 31
0.0
  0
LINE
  5
9B
330
4A
100
AcDbEntity
  8
0
  6
Continuous
 62
     7
100
AcDbLine
 10
-105.9369061083278
 20
-74.16031002342078
 30
0.0
 11
-104.6461005744001
 21
-67.46630229703378
 31
0.0
  0
LINE
  5
9C
330
4A
100
AcDbEntity
  8
0
  6
Continuous
 62
     7
100
AcDbLine
 10
-104.9571813416631
 20
-74.42282648345325
 30
0.0
 11
-90.4682939473268
 21
-78.30511215998992
 31
0.0
  0
LINE
  5
9D
330
4A
100
AcDbEntity
  8
0
  6
Continuous
 62
     7
100
AcDbLine
 10
-105.9369061083278
 20
-74.16031002342078
 30
0.0
 11
-104.9571813416631
 21
-74.42282648345325
 31
0.0
  0
LINE
  5
9E
330
4A
100
AcDbEntity
  8
0
  6
Continuous
 62
     7
100
AcDbLine
 10
-90.4682939473268
 20
-78.30511215998992
 30
0.0
 11
-89.48856918066224
 21
-78.56762862002238
 31
0.0
  0
LINE
  5
9F
330
4A
100
AcDbEntity
  8
0
  6
Continuous
 62
     7
100
AcDbLine
 10
-89.48856918066224
 20
-78.56762862002238
 30
0.0
 11
-87.25943570119654
 21
-72.12504510887777
 31
0.0
  0
LINE
  5
A0
330
4A
100
AcDbEntity
  8
0
  6
Continuous
 62
     7
100
AcDbLine
 10
-101.3935249220894
 20
-54.36159888085547
 30
0.0
 11
-101.4015713249294
 21
-47.63014768104711
 31
0.0
  0
LINE
  5
A1
330
4A
100
AcDbEntity
  8
0
  6
Continuous
 62
     7
100
AcDbLine
 10
-99.95268258549578
 20
-48.01837624870078
 30
0.0
 11
-100.3142823789291
 21
-40.67455261319666
 31
0.0
  0
LINE
  5
A2
330
4A
100
AcDbEntity
  8
0
  6
Continuous
 62
     7
100
AcDbLine
 10
-94.3363093067727
 20
-27.05778581822758
 30
0.0
 11
-98.0115397472274
 21
-40.77393255153263
 31
0.0
  0
LINE
  5
A3
330
4A
100
AcDbEntity
  8
0
  6
Continuous
 62
     7
100
AcDbLine
 10
-94.3363093067727
 20
-27.05778581822758
 30
0.0
 11
-93.1716236038117
 21
-22.71111959992668
 31
0.0
  0
LINE
  5
A4
330
4A
100
AcDbEntity
  8
0
  6
Continuous
 62
     3
100
AcDbLine
 10
-94.30371497010444
 20
-27.06651944441567
 30
0.0
 11
-94.3363093067727
 21
-27.05778581822758
 31
0.0
  0
LINE
  5
A5
330
4A
100
AcDbEntity
  8
0
  6
Continuous
 62
     7
100
AcDbLine
 10
-100.3142823789291
 20
-40.67455261319666
 30
0.0
 11
-98.62391218292316
 21
-41.12748594212595
 31
0.0
  0
LINE
  5
A6
330
4A
100
AcDbEntity
  8
0
  6
Continuous
 62
     7
100
AcDbLine
 10
-101.4015713249294
 20
-47.63014768104711
 30
0.0
 11
-99.95268258549578
 21
-48.01837624870078
 31
0.0
  0
LINE
  5
A7
330
4A
100
AcDbEntity
  8
0
  6
Continuous
 62
     7
100
AcDbLine
 10
-102.9637767812342
 20
-61.18778442615471
 30
0.0
 11
-102.3594507483785
 21
-54.10277983575303
 31
0.0
  0
LINE
  5
A8
330
4A
100
AcDbEntity
  8
0
  6
Continuous
 62
     7
100
AcDbLine
 10
-102.3594507483785
 20
-54.10277983575303
 30
0.0
 11
-101.3935249220894
 21
-54.36159888085547
 31
0.0
  0
LINE
  5
A9
330
4A
100
AcDbEntity
  8
0
  6
Continuous
 62
     7
100
AcDbLine
 10
-75.98371860727997
 20
-31.97534767517404
 30
0.0
 11
-63.31014561483227
 21
-35.37122132371621
 31
0.0
  0
LINE
  5
AA
330
4A
100
AcDbEntity
  8
0
  6
Continuous
 62
     7
100
AcDbLine
 10
-75.98371860727997
 20
-31.97534767517404
 30
0.0
 11
-79.65894904773467
 21
-45.69149440847909
 31
0.0
  0
LINE
  5
AB
330
4A
100
AcDbEntity
  8
0
  6
Continuous
 62
     7
100
AcDbLine
 10
-71.0661567503335
 20
-13.62275697568136
 30
0.0
 11
-58.3925837578858
 21
-17.01863062422353
 31
0.0
  0
LINE
  5
AC
330
4A
100
AcDbEntity
  8
0
  6
Continuous
 62
     7
100
AcDbLine
 10
-71.0661567503335
 20
-13.62275697568136
 30
0.0
 11
-75.4128229686344
 21
-12.45807127272035
 31
0.0
  0
LINE
  5
AD
330
4A
100
AcDbEntity
  8
0
  6
Continuous
 62
     3
100
AcDbLine
 10
-71.07489037652161
 20
-13.6553513123496
 30
0.0
 11
-71.0661567503335
 21
-13.62275697568136
 31
0.0
  0
LINE
  5
AE
330
4A
100
AcDbEntity
  8
0
  6
Continuous
 62
     3
100
AcDbLine
 10
-75.98371860727997
 20
-31.97534767517404
 30
0.0
 11
-71.07489037652161
 21
-13.6553513123496
 31
0.0
  0
LINE
  5
AF
330
4A
100
AcDbEntity
  8
0
  6
Continuous
 62
     3
100
AcDbLine
 10
-75.98371860727997
 20
-31.97534767517404
 30
0.0
 11
-94.30371497010444
 21
-27.06651944441567
 31
0.0
  0
ARC
  5
B0
330
4A
100
AcDbEntity
  8
0
  6
Continuous
 62
     7
100
AcDbCircle
 10
-75.98371860727997
 20
-31.97534767517404
 30
0.0
 40
19.0
100
AcDbArc
 50
75.00000000000448
 51
165.0000000000045
  0
ARC
  5
B1
330
4A
100
AcDbEntity
  8
0
  6
Continuous
 62
     7
100
AcDbCircle
 10
-79.17598613459012
 20
-45.82090393103031
 30
0.0
 40
0.5000000000000023
100
AcDbArc
 50
165.0000000000048
 51
255.0000000000058
  0
ARC
  5
B2
330
4A
100
AcDbEntity
  8
0
  6
Continuous
 62
     7
100
AcDbCircle
 10
-98.49450266037195
 20
-40.6445230289814
 30
0.0
 40
0.5000000000000006
100
AcDbArc
 50
255.0000000000056
 51
345.000000000004
  0
ARC
  5
B3
330
4A
100
AcDbEntity
  8
0
  6
Continuous
 62
     3
100
AcDbCircle
 10
-75.98371860727997
 20
-31.97534767517404
 30
0.0
 40
18.9662558596311
100
AcDbArc
 50
75.00000000000453
 51
165.0000000000045
  0
ARC
  5
B4
330
4A
100
AcDbEntity
  8
0
  6
Continuous
 62
     7
100
AcDbCircle
 10
-79.16569912261986
 20
-26.46399575391214
 30
0.0
 40
14.50000000000001
100
AcDbArc
 50
75.0000000000045
 51
165.0000000000045
  0
ENDBLK
  5
4C
330
4A
100
AcDbEntity
  8
0
100
AcDbBlockEnd
  0
BLOCK
  5
4F
330
4D
100
AcDbEntity
  8
0
100
AcDbBlockBegin
  2
HL19
 70
     0
 10
-72.97897836017991
 20
-44.68606853938376
 30
0.0
  3
HL19
  1

  0
INSERT
  5
4E
330
4D
100
AcDbEntity
  8
0
100
AcDbBlockReference
  2
HL19_ABS_10003_ABS
 10
-82.1647449331068
 20
-45.26581218696723
 30
0.0
  0
ENDBLK
  5
50
330
4D
100
AcDbEntity
  8
0
100
AcDbBlockEnd
  0
BLOCK
  5
52
330
51
100
AcDbEntity
  8
0
100
AcDbBlockBegin
  2
HL_130_30_Flaschensifon
 70
     0
 10
3.74999999999997
 20
-187.7915890000001
 30
0.0
  3
HL_130_30_Flaschensifon
  1

  0
POINT
  5
B5
330
51
100
AcDbEntity
  8
0
 62
     7
100
AcDbPoint
 10
-24.0
 20
-166.591589
 30
0.0
  0
LINE
  5
B6
330
51
100
AcDbEntity
  8
LC-001-002-----0
  6
Continuous
 62
     7
100
AcDbLine
 10
37.75
 20
-205.841589
 30
0.0
 11
39.99999999999994
 21
-205.8415890000001
 31
0.0
  0
LINE
  5
B7
330
51
100
AcDbEntity
  8
LC-001-002-----0
  6
Continuous
 62
     7
100
AcDbLine
 10
36.0
 20
-204.091589
 30
0.0
 11
37.75
 21
-205.841589
 31
0.0
  0
LINE
  5
B8
330
51
100
AcDbEntity
  8
LC-001-002-----0
  6
Continuous
 62
     7
100
AcDbLine
 10
36.0
 20
-166.591589
 30
0.0
 11
37.75
 21
-164.841589
 31
0.0
  0
LINE
  5
B9
330
51
100
AcDbEntity
  8
LC-001-002-----0
  6
Continuous
 62
     2
100
AcDbLine
 10
36.0
 20
-166.591589
 30
0.0
 11
39.99999999999994
 21
-166.591589
 31
0.0
  0
LINE
  5
BA
330
51
100
AcDbEntity
  8
LC-001-002-----0
  6
Continuous
 62
     7
100
AcDbLine
 10
37.75
 20
-164.841589
 30
0.0
 11
39.99999999999994
 21
-164.841589
 31
0.0
  0
LINE
  5
BB
330
51
100
AcDbEntity
  8
LC-001-002-----0
  6
Continuous
 62
     7
100
AcDbLine
 10
18.5
 20
-166.591589
 30
0.0
 11
20.5
 21
-164.591589
 31
0.0
  0
LINE
  5
BC
330
51
100
AcDbEntity
  8
LC-001-002-----0
  6
Continuous
 62
     7
100
AcDbLine
 10
-18.5
 20
-166.591589
 30
0.0
 11
-20.5
 21
-164.591589
 31
0.0
  0
LINE
  5
BD
330
51
100
AcDbEntity
  8
LC-001-002-----0
  6
Continuous
 62
     7
100
AcDbLine
 10
18.5
 20
-166.591589
 30
0.0
 11
36.0
 21
-166.591589
 31
0.0
  0
LINE
  5
BE
330
51
100
AcDbEntity
  8
LC-001-002-----0
  6
Continuous
 62
     7
100
AcDbLine
 10
-24.0
 20
-166.591589
 30
0.0
 11
-18.5
 21
-166.591589
 31
0.0
  0
LINE
  5
BF
330
51
100
AcDbEntity
  8
LC-001-002-----0
  6
Continuous
 62
     7
100
AcDbLine
 10
31.71938799999998
 20
-204.091589
 30
0.0
 11
36.0
 21
-204.091589
 31
0.0
  0
LINE
  5
C0
330
51
100
AcDbEntity
  8
LC-001-002-----0
  6
Continuous
 62
     2
100
AcDbLine
 10
36.0
 20
-204.091589
 30
0.0
 11
39.99999999999994
 21
-204.091589
 31
0.0
  0
LINE
  5
C1
330
51
100
AcDbEntity
  8
1
  6
Continuous
 62
     7
100
AcDbLine
 10
32.18775519999997
 20
-210.9915890000001
 30
0.0
 11
32.5
 21
-210.9915890000001
 31
0.0
  0
LINE
  5
C2
330
51
100
AcDbEntity
  8
LC-001-002-----0
  6
Continuous
 62
     7
100
AcDbLine
 10
32.18775519999997
 20
-210.9915890000001
 30
0.0
 11
31.71938799999998
 21
-204.091589
 31
0.0
  0
LINE
  5
C3
330
51
100
AcDbEntity
  8
1
  6
Continuous
 62
     7
100
AcDbLine
 10
32.5
 20
-210.9915890000001
 30
0.0
 11
32.5
 21
-212.9915890000001
 31
0.0
  0
LINE
  5
C4
330
51
100
AcDbEntity
  8
LC-001-002-----0
  6
Continuous
 62
     7
100
AcDbLine
 10
-31.70204081632653
 20
-210.9915890000001
 30
0.0
 11
-24.0
 21
-166.591589
 31
0.0
  0
LINE
  5
C5
330
51
100
AcDbEntity
  8
1
  6
Continuous
 62
     7
100
AcDbLine
 10
32.5
 20
-212.9915890000001
 30
0.0
 11
-32.5
 21
-212.9915890000001
 31
0.0
  0
LINE
  5
C6
330
51
100
AcDbEntity
  8
1
  6
Continuous
 62
     7
100
AcDbLine
 10
-32.5
 20
-212.9915890000001
 30
0.0
 11
-32.5
 21
-210.9915890000001
 31
0.0
  0
LINE
  5
C7
330
51
100
AcDbEntity
  8
1
  6
Continuous
 62
     7
100
AcDbLine
 10
-32.5
 20
-210.9915890000001
 30
0.0
 11
-31.70204081632653
 21
-210.9915890000001
 31
0.0
  0
LINE
  5
C8
330
51
100
AcDbEntity
  8
1
  6
Continuous
 62
     7
100
AcDbLine
 10
-31.70204081632653
 20
-210.9915890000001
 30
0.0
 11
32.18775519999997
 21
-210.9915890000001
 31
0.0
  0
LINE
  5
C9
330
51
100
AcDbEntity
  8
LC-001-002-----0
  6
Continuous
 62
     2
100
AcDbLine
 10
-18.5
 20
-162.5915890000001
 30
0.0
 11
-18.5
 21
-166.591589
 31
0.0
  0
LINE
  5
CA
330
51
100
AcDbEntity
  8
LC-001-002-----0
  6
Continuous
 62
     7
100
AcDbLine
 10
-20.5
 20
-162.5915890000001
 30
0.0
 11
-20.5
 21
-164.591589
 31
0.0
  0
LINE
  5
CB
330
51
100
AcDbEntity
  8
LC-001-002-----0
  6
Continuous
 62
     2
100
AcDbLine
 10
18.5
 20
-162.5915890000001
 30
0.0
 11
18.5
 21
-166.591589
 31
0.0
  0
LINE
  5
CC
330
51
100
AcDbEntity
  8
LC-001-002-----0
  6
Continuous
 62
     7
100
AcDbLine
 10
20.49999999999994
 20
-162.5915890000001
 30
0.0
 11
20.5
 21
-164.591589
 31
0.0
  0
LINE
  5
CD
330
51
100
AcDbEntity
  8
1
  6
Continuous
 62
     7
100
AcDbLine
 10
-20.5
 20
-164.591589
 30
0.0
 11
20.5
 21
-164.591589
 31
0.0
  0
LINE
  5
CE
330
51
100
AcDbEntity
  8
1
  6
Continuous
 62
     7
100
AcDbLine
 10
18.5
 20
-166.591589
 30
0.0
 11
-18.5
 21
-166.591589
 31
0.0
  0
LINE
  5
CF
330
51
100
AcDbEntity
  8
1
  6
Continuous
 62
     7
100
AcDbLine
 10
37.75
 20
-164.841589
 30
0.0
 11
37.75
 21
-205.841589
 31
0.0
  0
LINE
  5
D0
330
51
100
AcDbEntity
  8
1
  6
Continuous
 62
     7
100
AcDbLine
 10
36.0
 20
-204.091589
 30
0.0
 11
36.0
 21
-166.591589
 31
0.0
  0
ARC
  5
D1
330
51
100
AcDbEntity
  8
LC-001-002-----0
  6
Continuous
 62
     7
100
AcDbCircle
 10
45.46741899999995
 20
-182.8239130768079
 30
0.0
 40
25.29328099999983
100
AcDbArc
 50
140.0764970000012
 51
237.120222
  0
ENDBLK
  5
53
330
51
100
AcDbEntity
  8
0
100
AcDbBlockEnd
  0
BLOCK
  5
55
330
54
100
AcDbEntity
  8
0
100
AcDbBlockBegin
  2
Sifonkappe
 70
     0
 10
-0.00000000000017
 20
-248.2915890000001
 30
0.0
  3
Sifonkappe
  1

  0
POINT
  5
D2
330
54
100
AcDbEntity
  8
0
 62
     7
100
AcDbPoint
 10
-20.33213246148097
 20
-283.5915890000001
 30
0.0
  0
POINT
  5
D3
330
54
100
AcDbEntity
  8
0
 62
     7
100
AcDbPoint
 10
20.33213246148063
 20
-283.5915890000001
 30
0.0
  0
LINE
  5
D4
330
54
100
AcDbEntity
  8
1
  6
Continuous
 62
     7
100
AcDbLine
 10
-20.33213246148097
 20
-283.5915890000001
 30
0.0
 11
-0.00000000000017
 21
-283.5915890000001
 31
0.0
  0
LINE
  5
D5
330
54
100
AcDbEntity
  8
LC-001-002-----0
  6
Continuous
 62
     7
100
AcDbLine
 10
-30.32636873210885
 20
-273.9310611887496
 30
0.0
 11
-32.11148678492481
 21
-221.0915890000001
 31
0.0
  0
LINE
  5
D6
330
54
100
AcDbEntity
  8
1
  6
Continuous
 62
     7
100
AcDbLine
 10
-33.50000042656774
 20
-212.9915890000001
 30
0.0
 11
33.5000004265674
 21
-212.9915890000001
 31
0.0
  0
LINE
  5
D7
330
54
100
AcDbEntity
  8
1
  6
Continuous
 62
     7
100
AcDbLine
 10
-32.11148678492481
 20
-221.0915890000001
 30
0.0
 11
-33.50000042656774
 21
-212.9915890000001
 31
0.0
  0
LINE
  5
D8
330
54
100
AcDbEntity
  8
1
  6
Continuous
 62
     7
100
AcDbLine
 10
33.5000004265674
 20
-212.9915890000001
 30
0.0
 11
32.11148678492447
 21
-221.0915890000001
 31
0.0
  0
LINE
  5
D9
330
54
100
AcDbEntity
  8
LC-001-002-----0
  6
Continuous
 62
     7
100
AcDbLine
 10
32.11148678492447
 20
-221.0915890000001
 30
0.0
 11
30.32636873210851
 21
-273.9310611887496
 31
0.0
  0
LINE
  5
DA
330
54
100
AcDbEntity
  8
1
  6
Continuous
 62
     7
100
AcDbLine
 10
-0.00000000000017
 20
-283.5915890000001
 30
0.0
 11
20.33213246148063
 21
-283.5915890000001
 31
0.0
  0
LINE
  5
DB
330
54
100
AcDbEntity
  8
1
  6
PHANTOM
 62
     2
100
AcDbLine
 10
0.00000000000002
 20
-212.9915890000001
 30
0.0
 11
-0.00000000000017
 21
-283.5915890000001
 31
0.0
  0
LINE
  5
DC
330
54
100
AcDbEntity
  8
1
  6
Continuous
 62
     7
100
AcDbLine
 10
-32.11148678492481
 20
-221.0915890000001
 30
0.0
 11
32.11148678492447
 21
-221.0915890000001
 31
0.0
  0
LINE
  5
DD
330
54
100
AcDbEntity
  8
1
  6
Continuous
 62
     7
100
AcDbLine
 10
-30.32636873210885
 20
-273.9310611887496
 30
0.0
 11
30.32636873210851
 21
-273.9310611887496
 31
0.0
  0
ARC
  5
DE
330
54
100
AcDbEntity
  8
LC-002-002-RND-0
  6
Continuous
 62
     7
100
AcDbCircle
 10
-20.33213246148097
 20
-273.5915890000001
 30
0.0
 40
10.00000000000341
100
AcDbArc
 50
181.9454061419219
 51
270.0
  0
ARC
  5
DF
330
54
100
AcDbEntity
  8
LC-002-002-RND-0
  6
Continuous
 62
     7
100
AcDbCircle
 10
20.33213246148063
 20
-273.5915890000001
 30
0.0
 40
10.0
100
AcDbArc
 50
270.0
 51
358.0545938580781
  0
ENDBLK
  5
56
330
54
100
AcDbEntity
  8
0
100
AcDbBlockEnd
  0
BLOCK
  5
58
330
57
100
AcDbEntity
  8
0
100
AcDbBlockBegin
  2
HL_133
 70
     0
 10
0.00000042635918
 20
3.49999999999147
 30
0.0
  3
HL_133
  1

  0
LINE
  5
E0
330
57
100
AcDbEntity
  8
1
  6
Continuous
 62
     7
100
AcDbLine
 10
-23.99999957364082
 20
2.99999999999147
 30
0.0
 11
-23.99999957364082
 21
3.99999999999147
 31
0.0
  0
LINE
  5
E1
330
57
100
AcDbEntity
  8
1
  6
Continuous
 62
     7
100
AcDbLine
 10
24.00000042635918
 20
2.99999999999147
 30
0.0
 11
24.00000042635918
 21
3.99999999999147
 31
0.0
  0
ENDBLK
  5
59
330
57
100
AcDbEntity
  8
0
100
AcDbBlockEnd
  0
BLOCK
  5
5B
330
5A
100
AcDbEntity
  8
0
100
AcDbBlockBegin
  2
HL_13_DN32_Tauchrohr
 70
     0
 10
-24.65183227239925
 20
-144.7957945
 30
0.0
  3
HL_13_DN32_Tauchrohr
  1

  0
LINE
  5
E2
330
5A
100
AcDbEntity
  8
1
  6
PHANTOM
 62
     2
100
AcDbLine
 10
0.0
 20
-289.591589
 30
0.0
 11
0.0
 21
0.0
 31
0.0
  0
LINE
  5
E3
330
5A
100
AcDbEntity
  8
1
  6
Continuous
 62
     7
100
AcDbLine
 10
15.9999999999996
 20
-145.591589
 30
0.0
 11
16.0000000000008
 21
-17.50000000000865
 31
0.0
  0
LINE
  5
E4
330
5A
100
AcDbEntity
  8
1
  6
Continuous
 62
     7
100
AcDbLine
 10
-15.99999999999966
 20
-53.22431753705656
 30
0.0
 11
-15.99999999999795
 21
-145.591589
 31
0.0
  0
LINE
  5
E5
330
5A
100
AcDbEntity
  8
1
  6
Continuous
 62
     7
100
AcDbLine
 10
-15.9999999999992
 20
-17.50000000000865
 30
0.0
 11
-15.99999999999966
 21
-23.20130830516406
 31
0.0
  0
LINE
  5
E6
330
5A
100
AcDbEntity
  8
1
  6
Continuous
 62
     7
100
AcDbLine
 10
-47.70053888028667
 20
-44.73018374445497
 30
0.0
 11
-15.99999999999966
 21
-53.22431753705656
 31
0.0
  0
LINE
  5
E7
330
5A
100
AcDbEntity
  8
1
  6
Continuous
 62
     7
100
AcDbLine
 10
-15.99999999999966
 20
-23.20130830516406
 30
0.0
 11
-40.19478657231332
 21
-16.71833478207033
 31
0.0
  0
LINE
  5
E8
330
5A
100
AcDbEntity
  8
1
  6
PHANTOM
 62
     2
100
AcDbLine
 10
-65.30366454479929
 20
-25.00193582243993
 30
0.0
 11
6.26465084150834
 21
-44.17860813385096
 31
0.0
  0
LINE
  5
E9
330
5A
100
AcDbEntity
  8
1
  6
Continuous
 62
     7
100
AcDbLine
 10
-12.31349602968282
 20
-47.91728583139685
 30
0.0
 11
-15.99999999999966
 21
-53.22431753705656
 31
0.0
  0
LINE
  5
EA
330
5A
100
AcDbEntity
  8
1
  6
Continuous
 62
     7
100
AcDbLine
 10
-15.99999999999966
 20
-23.20130830516406
 30
0.0
 11
-11.24986285058196
 21
-32.58512002067813
 31
0.0
  0
ARC
  5
EB
330
5A
100
AcDbEntity
  8
1
  6
Continuous
 62
     7
100
AcDbCircle
 10
-24.63288684098609
 20
-39.35968043979507
 30
0.0
 40
14.99999999999984
100
AcDbArc
 50
325.214410202778
 51
26.84878397241606
  0
ENDBLK
  5
5C
330
5A
100
AcDbEntity
  8
0
100
AcDbBlockEnd
  0
BLOCK
  5
5E
330
5D
100
AcDbEntity
  8
0
100
AcDbBlockBegin
  2
HL132
 70
     0
 10
30.9654992945882
 20
-8.50000000000001
 30
0.0
  3
HL132
  1

  0
LINE
  5
EC
330
5D
100
AcDbEntity
  8
1
  6
Continuous
 62
     7
100
AcDbLine
 10
30.4654992945882
 20
-8.50000000000001
 30
0.0
 11
31.4654992945882
 21
-8.50000000000001
 31
0.0
  0
ENDBLK
  5
5F
330
5D
100
AcDbEntity
  8
0
100
AcDbBlockEnd
  0
BLOCK
  5
61
330
60
100
AcDbEntity
  8
0
100
AcDbBlockBegin
  2
Abgangsrohr
 70
     0
 10
94.46003349999988
 20
-185.4005895000001
 30
0.0
  3
Abgangsrohr
  1

  0
POINT
  5
ED
330
60
100
AcDbEntity
  8
0
 62
     7
100
AcDbPoint
 10
168.6209309999999
 20
-185.341589
 30
0.0
  0
POINT
  5
EE
330
60
100
AcDbEntity
  8
0
 62
     7
100
AcDbPoint
 10
168.6209309999999
 20
-201.591589
 30
0.0
  0
POINT
  5
EF
330
60
100
AcDbEntity
  8
0
 62
     7
100
AcDbPoint
 10
168.6209309999999
 20
-201.591589
 30
0.0
  0
POINT
  5
F0
330
60
100
AcDbEntity
  8
0
 62
     7
100
AcDbPoint
 10
168.6209309999999
 20
-169.091589
 30
0.0
  0
LINE
  5
F1
330
60
100
AcDbEntity
  8
LC-001-002-----0
  6
Continuous
 62
     7
100
AcDbLine
 10
56.99999999999994
 20
-201.591589
 30
0.0
 11
74.92141999999984
 21
-201.591589
 31
0.0
  0
LINE
  5
F2
330
60
100
AcDbEntity
  8
LC-001-002-----0
  6
Continuous
 62
     7
100
AcDbLine
 10
56.99999999999994
 20
-169.091589
 30
0.0
 11
74.92141999999984
 21
-169.091589
 31
0.0
  0
LINE
  5
F3
330
60
100
AcDbEntity
  8
LC-001-002-----0
  6
Continuous
 62
     7
100
AcDbLine
 10
166.9156319999999
 20
-201.591589
 30
0.0
 11
168.6209309999999
 21
-201.591589
 31
0.0
  0
LINE
  5
F4
330
60
100
AcDbEntity
  8
LC-001-002-----0
  6
Continuous
 62
     7
100
AcDbLine
 10
126.9156319999999
 20
-169.091589
 30
0.0
 11
76.42141999999984
 21
-169.091589
 31
0.0
  0
LINE
  5
F5
330
60
100
AcDbEntity
  8
LC-001-002-----0
  6
DASHDOT_2
 62
     2
100
AcDbLine
 10
168.6209309999999
 20
-185.341589
 30
0.0
 11
20.29913599999986
 21
-185.341589
 31
0.0
  0
LINE
  5
F6
330
60
100
AcDbEntity
  8
LC-001-002-----0
  6
Continuous
 62
     7
100
AcDbLine
 10
168.6209309999999
 20
-169.091589
 30
0.0
 11
166.9156319999999
 21
-169.091589
 31
0.0
  0
LINE
  5
F7
330
60
100
AcDbEntity
  8
LC-001-002-----0
  6
Continuous
 62
     7
100
AcDbLine
 10
76.42141999999984
 20
-201.591589
 30
0.0
 11
126.9156319999999
 21
-201.591589
 31
0.0
  0
LINE
  5
F8
330
60
100
AcDbEntity
  8
LC-001-002-----0
  6
DASHDOT_2
 62
     2
100
AcDbLine
 10
76.42141999999984
 20
-168.0933210000002
 30
0.0
 11
76.42141999999984
 21
-169.091589
 31
0.0
  0
LINE
  5
F9
330
60
100
AcDbEntity
  8
LC-001-002-----0
  6
DASHDOT_2
 62
     2
100
AcDbLine
 10
74.92141999999984
 20
-168.0933210000002
 30
0.0
 11
74.92141999999984
 21
-169.091589
 31
0.0
  0
LINE
  5
FA
330
60
100
AcDbEntity
  8
LC-001-002-----0
  6
Continuous
 62
     7
100
AcDbLine
 10
168.6209309999999
 20
-169.091589
 30
0.0
 11
168.6209309999999
 21
-170.591589
 31
0.0
  0
LINE
  5
FB
330
60
100
AcDbEntity
  8
LC-001-002-----0
  6
DASHDOT_2
 62
     2
100
AcDbLine
 10
74.92141999999984
 20
-169.091589
 30
0.0
 11
74.92141999999984
 21
-201.591589
 31
0.0
  0
LINE
  5
FC
330
60
100
AcDbEntity
  8
LC-001-002-----0
  6
DASHDOT_2
 62
     2
100
AcDbLine
 10
74.92141999999984
 20
-201.591589
 30
0.0
 11
74.92141999999984
 21
-202.707858
 31
0.0
  0
LINE
  5
FD
330
60
100
AcDbEntity
  8
LC-001-002-----0
  6
DASHDOT_2
 62
     2
100
AcDbLine
 10
76.42141999999984
 20
-169.091589
 30
0.0
 11
76.42141999999984
 21
-201.591589
 31
0.0
  0
LINE
  5
FE
330
60
100
AcDbEntity
  8
LC-001-002-----0
  6
DASHDOT_2
 62
     2
100
AcDbLine
 10
76.42141999999984
 20
-201.591589
 30
0.0
 11
76.42141999999984
 21
-202.707858
 31
0.0
  0
LINE
  5
FF
330
60
100
AcDbEntity
  8
LC-001-002-----0
  6
Continuous
 62
     7
100
AcDbLine
 10
168.6209309999999
 20
-200.091589
 30
0.0
 11
168.6209309999999
 21
-201.591589
 31
0.0
  0
LINE
  5
100
330
60
100
AcDbEntity
  8
LC-001-002-----0
  6
Continuous
 62
     7
100
AcDbLine
 10
168.6209309999999
 20
-170.591589
 30
0.0
 11
168.6209309999999
 21
-200.091589
 31
0.0
  0
ENDBLK
  5
62
330
60
100
AcDbEntity
  8
0
100
AcDbBlockEnd
  0
BLOCK
  5
6B
330
63
100
AcDbEntity
  8
0
100
AcDbBlockBegin
  2
HL132_1_30_Flaschensifon
 70
     0
 10
37.73722345887069
 20
-142.0575626085153
 30
0.0
  3
HL132_1_30_Flaschensifon
  1

  0
INSERT
  5
64
330
63
100
AcDbEntity
  8
0
100
AcDbBlockReference
  2
HL19
 10
-72.97897836017991
 20
-44.68606853938376
 30
0.0
  0
INSERT
  5
65
330
63
100
AcDbEntity
  8
1
100
AcDbBlockReference
  2
HL_130_30_Flaschensifon
 10
3.74999999999997
 20
-187.7915890000001
 30
0.0
  0
INSERT
  5
66
330
63
100
AcDbEntity
  8
1
100
AcDbBlockReference
  2
Sifonkappe
 10
-0.00000000000017
 20
-248.2915890000001
 30
0.0
  0
INSERT
  5
67
330
63
100
AcDbEntity
  8
0
100
AcDbBlockReference
  2
HL_133
 10
0.00000042635918
 20
3.49999999999147
 30
0.0
  0
INSERT
  5
68
330
63
100
AcDbEntity
  8
1
100
AcDbBlockReference
  2
HL_13_DN32_Tauchrohr
 10
-24.65183227239925
 20
-144.7957945
 30
0.0
  0
INSERT
  5
69
330
63
100
AcDbEntity
  8
0
100
AcDbBlockReference
  2
HL132
 10
30.9654992945882
 20
-8.50000000000001
 30
0.0
  0
INSERT
  5
6A
330
63
100
AcDbEntity
  8
1
100
AcDbBlockReference
  2
Abgangsrohr
 10
94.46003349999988
 20
-185.4005895000001
 30
0.0
  0
DIMENSION
  5
10C
330
63
100
AcDbEntity
  8
1
100
AcDbDimension
  2
*D16
 10
0.0
 20
-305.115125217022
 30
0.0
 11
72.4776574364246
 21
-299.615125217022
 31
0.0
 70
    32
  1
100-250
 71
     5
 42
-1.0
 53
0.00013888888889
  3
ME10_DIM_10
100
AcDbAlignedDimension
 13
168.6209309999999
 23
-200.091589
 33
0.0
 14
0.0
 24
-289.591589
 34
0.0
100
AcDbRotatedDimension
  0
DIMENSION
  5
117
330
63
100
AcDbEntity
  8
1
100
AcDbDimension
  2
*D17
 10
197.866295015427
 20
-185.341589
 30
0.0
 11
192.366295015427
 21
-106.283357939089
 31
0.0
 70
    32
  1
82-177
 71
     5
 42
-1.0
 53
90.0
  3
ME10_DIM_11
100
AcDbAlignedDimension
 13
31.4654992945882
 23
-8.50000000000001
 33
0.0
 14
168.6209309999999
 24
-185.341589
 34
0.0
 50
90.0
100
AcDbRotatedDimension
  0
DIMENSION
  5
123
330
63
100
AcDbEntity
  8
1
100
AcDbDimension
  2
*D18
 10
182.2210459582719
 20
-169.091589
 30
0.0
 11
176.7210459582719
 21
-151.5882391471771
 31
0.0
 70
    32
  1
DN32
 71
     5
 42
-1.0
 53
90.0
  3
ME10_DIM_12
100
AcDbAlignedDimension
 13
168.6209309999999
 23
-201.591589
 33
0.0
 14
168.6209309999999
 24
-169.091589
 34
0.0
 50
90.0
100
AcDbRotatedDimension
  0
DIMENSION
  5
12E
330
63
100
AcDbEntity
  8
1
100
AcDbDimension
  2
*D19
 10
24.00000042635918
 20
13.99999999999147
 30
0.0
 11
-2.13479363787992
 21
19.49999999999147
 31
0.0
 70
    32
  1
5/4"
 71
     5
 42
-1.0
 53
0.00013888888889
  3
ME10_DIM_13
100
AcDbAlignedDimension
 13
-23.99999957364082
 23
3.99999999999147
 33
0.0
 14
24.00000042635918
 24
3.99999999999147
 34
0.0
100
AcDbRotatedDimension
  0
DIMENSION
  5
139
330
63
100
AcDbEntity
  8
1
100
AcDbDimension
  2
*D20
 10
196.291295015427
 20
-185.341589
 30
0.0
 11
190.791295015427
 21
-233.610122437052
 31
0.0
 70
    32
  1
98
 71
     5
 42
-1.0
 53
90.0
  3
ME10_DIM_14
100
AcDbAlignedDimension
 13
20.33213246148063
 23
-283.5915890000001
 33
0.0
 14
168.6209309999999
 24
-185.341589
 34
0.0
 50
90.0
100
AcDbRotatedDimension
  0
DIMENSION
  5
144
330
63
100
AcDbEntity
  8
1
100
AcDbDimension
  2
*D21
 10
-46.1529173685173
 20
-283.5915890000001
 30
0.0
 11
-51.6529173685173
 21
-217.228703101423
 31
0.0
 70
    32
  1
<>
 71
     5
 42
-1.0
 53
90.0
  3
ME10_DIM_15
100
AcDbAlignedDimension
 13
-24.0
 23
-166.591589
 33
0.0
 14
-20.33213246148097
 24
-283.5915890000001
 34
0.0
 50
90.0
100
AcDbRotatedDimension
  0
DIMENSION
  5
151
330
63
100
AcDbEntity
  8
1
100
AcDbDimension
  2
*D22
 10
-110.8688865296384
 20
-92.56671153769271
 30
0.0
 11
-73.10401110649597
 21
-96.99176041732713
 31
0.0
 70
    33
  1
3/4"
 71
     5
 42
-1.0
 53
-14.99999999999544
  3
ME10_DIM_16
100
AcDbAlignedDimension
 13
-89.48856918066224
 23
-78.56762862002238
 33
0.0
 14
-105.9369061083278
 24
-74.16031002342078
 34
0.0
  0
ENDBLK
  5
6C
330
63
100
AcDbEntity
  8
0
100
AcDbBlockEnd
  0
BLOCK
  5
6E
330
6D
100
AcDbEntity
  8
0
100
AcDbBlockBegin
  2
Holländermutter_R_5_4__1
 70
     0
 10
-0.00000000000003
 20
-156.9247597012301
 30
0.0
  3
Holländermutter_R_5_4__1
  1

  0
LINE
  5
152
330
6D
100
AcDbEntity
  8
1
  6
PHANTOM
 62
     2
100
AcDbLine
 10
0.0
 20
-168.25793040246
 30
0.0
 11
-0.00000000000006
 21
-145.5915890000001
 31
0.0
  0
LINE
  5
153
330
6D
100
AcDbEntity
  8
LC-001-002-----0
  6
Continuous
 62
     7
100
AcDbLine
 10
23.49999999999994
 20
-162.5915890000001
 30
0.0
 11
20.49999999999994
 21
-162.5915890000001
 31
0.0
  0
LINE
  5
154
330
6D
100
AcDbEntity
  8
LC-001-002-----0
  6
Continuous
 62
     7
100
AcDbLine
 10
-19.5
 20
-145.5915890000001
 30
0.0
 11
-20.0
 21
-145.5915890000001
 31
0.0
  0
LINE
  5
155
330
6D
100
AcDbEntity
  8
LC-001-002-----0
  6
Continuous
 62
     7
100
AcDbLine
 10
-22.5
 20
-161.5915890000001
 30
0.0
 11
-22.5
 21
-148.0915890000001
 31
0.0
  0
LINE
  5
156
330
6D
100
AcDbEntity
  8
LC-001-002-----0
  6
Continuous
 62
     7
100
AcDbLine
 10
22.49999999999994
 20
-161.5915890000001
 30
0.0
 11
22.49999999999994
 21
-148.0915890000001
 31
0.0
  0
LINE
  5
157
330
6D
100
AcDbEntity
  8
LC-001-002-----0
  6
Continuous
 62
     7
100
AcDbLine
 10
23.49999999999994
 20
-161.5915890000001
 30
0.0
 11
22.49999999999994
 21
-161.5915890000001
 31
0.0
  0
LINE
  5
158
330
6D
100
AcDbEntity
  8
LC-001-002-----0
  6
Continuous
 62
     7
100
AcDbLine
 10
-23.5
 20
-162.5915890000001
 30
0.0
 11
-23.5
 21
-161.5915890000001
 31
0.0
  0
LINE
  5
159
330
6D
100
AcDbEntity
  8
LC-001-002-----0
  6
Continuous
 62
     7
100
AcDbLine
 10
23.49999999999994
 20
-162.5915890000001
 30
0.0
 11
23.49999999999994
 21
-161.5915890000001
 31
0.0
  0
LINE
  5
15A
330
6D
100
AcDbEntity
  8
LC-001-002-----0
  6
Continuous
 62
     7
100
AcDbLine
 10
22.49999999999994
 20
-161.5915890000001
 30
0.0
 11
-23.5
 21
-161.5915890000001
 31
0.0
  0
LINE
  5
15B
330
6D
100
AcDbEntity
  8
LC-001-002-----0
  6
Continuous
 62
     7
100
AcDbLine
 10
20.49999999999994
 20
-162.5915890000001
 30
0.0
 11
-23.5
 21
-162.5915890000001
 31
0.0
  0
LINE
  5
15C
330
6D
100
AcDbEntity
  8
LC-001-002-----0
  6
Continuous
 62
     7
100
AcDbLine
 10
19.49999999999994
 20
-145.5915890000001
 30
0.0
 11
19.99999999999994
 21
-145.5915890000001
 31
0.0
  0
LINE
  5
15D
330
6D
100
AcDbEntity
  8
LC-001-002-----0
  6
Continuous
 62
     7
100
AcDbLine
 10
-19.5
 20
-145.5915890000001
 30
0.0
 11
19.49999999999994
 21
-145.5915890000001
 31
0.0
  0
LINE
  5
15E
330
6D
100
AcDbEntity
  8
LC-001-002-----0
  6
Continuous
 62
     7
100
AcDbLine
 10
0.0
 20
-161.5915890000001
 30
0.0
 11
0.0
 21
-151.5915890000001
 31
0.0
  0
LINE
  5
15F
330
6D
100
AcDbEntity
  8
LC-001-002-----0
  6
Continuous
 62
     7
100
AcDbLine
 10
0.5
 20
-161.5915890000001
 30
0.0
 11
0.5
 21
-151.5915890000001
 31
0.0
  0
LINE
  5
160
330
6D
100
AcDbEntity
  8
LC-001-002-----0
  6
Continuous
 62
     7
100
AcDbLine
 10
1.0
 20
-161.5915890000001
 30
0.0
 11
1.0
 21
-151.5915890000001
 31
0.0
  0
LINE
  5
161
330
6D
100
AcDbEntity
  8
LC-001-002-----0
  6
Continuous
 62
     7
100
AcDbLine
 10
1.5
 20
-161.5915890000001
 30
0.0
 11
1.5
 21
-151.5915890000001
 31
0.0
  0
LINE
  5
162
330
6D
100
AcDbEntity
  8
LC-001-002-----0
  6
Continuous
 62
     7
100
AcDbLine
 10
2.0
 20
-161.5915890000001
 30
0.0
 11
2.0
 21
-151.5915890000001
 31
0.0
  0
LINE
  5
163
330
6D
100
AcDbEntity
  8
LC-001-002-----0
  6
Continuous
 62
     7
100
AcDbLine
 10
-0.5
 20
-161.5915890000001
 30
0.0
 11
-0.5
 21
-151.5915890000001
 31
0.0
  0
LINE
  5
164
330
6D
100
AcDbEntity
  8
LC-001-002-----0
  6
Continuous
 62
     7
100
AcDbLine
 10
-1.0
 20
-161.5915890000001
 30
0.0
 11
-1.0
 21
-151.5915890000001
 31
0.0
  0
LINE
  5
165
330
6D
100
AcDbEntity
  8
LC-001-002-----0
  6
Continuous
 62
     7
100
AcDbLine
 10
-1.5
 20
-161.5915890000001
 30
0.0
 11
-1.5
 21
-151.5915890000001
 31
0.0
  0
LINE
  5
166
330
6D
100
AcDbEntity
  8
LC-001-002-----0
  6
Continuous
 62
     7
100
AcDbLine
 10
-2.0
 20
-161.5915890000001
 30
0.0
 11
-2.0
 21
-151.5915890000001
 31
0.0
  0
LINE
  5
167
330
6D
100
AcDbEntity
  8
LC-001-002-----0
  6
Continuous
 62
     7
100
AcDbLine
 10
21.99999999999994
 20
-161.5915890000001
 30
0.0
 11
21.99999999999994
 21
-151.5915890000001
 31
0.0
  0
LINE
  5
168
330
6D
100
AcDbEntity
  8
LC-001-002-----0
  6
Continuous
 62
     7
100
AcDbLine
 10
21.49999999999994
 20
-161.5915890000001
 30
0.0
 11
21.49999999999994
 21
-151.5915890000001
 31
0.0
  0
LINE
  5
169
330
6D
100
AcDbEntity
  8
LC-001-002-----0
  6
Continuous
 62
     7
100
AcDbLine
 10
20.99999999999994
 20
-161.5915890000001
 30
0.0
 11
20.99999999999994
 21
-151.5915890000001
 31
0.0
  0
LINE
  5
16A
330
6D
100
AcDbEntity
  8
LC-001-002-----0
  6
Continuous
 62
     7
100
AcDbLine
 10
20.49999999999994
 20
-161.5915890000001
 30
0.0
 11
20.49999999999994
 21
-151.5915890000001
 31
0.0
  0
LINE
  5
16B
330
6D
100
AcDbEntity
  8
LC-001-002-----0
  6
Continuous
 62
     7
100
AcDbLine
 10
-22.0
 20
-161.5915890000001
 30
0.0
 11
-22.0
 21
-151.5915890000001
 31
0.0
  0
LINE
  5
16C
330
6D
100
AcDbEntity
  8
LC-001-002-----0
  6
Continuous
 62
     7
100
AcDbLine
 10
-21.5
 20
-161.5915890000001
 30
0.0
 11
-21.5
 21
-151.5915890000001
 31
0.0
  0
LINE
  5
16D
330
6D
100
AcDbEntity
  8
LC-001-002-----0
  6
Continuous
 62
     7
100
AcDbLine
 10
-21.0
 20
-161.5915890000001
 30
0.0
 11
-21.0
 21
-151.5915890000001
 31
0.0
  0
LINE
  5
16E
330
6D
100
AcDbEntity
  8
LC-001-002-----0
  6
Continuous
 62
     7
100
AcDbLine
 10
-20.5
 20
-161.5915890000001
 30
0.0
 11
-20.5
 21
-151.5915890000001
 31
0.0
  0
LINE
  5
16F
330
6D
100
AcDbEntity
  8
1
  6
Continuous
 62
     7
100
AcDbLine
 10
-22.5
 20
-148.0915890000001
 30
0.0
 11
22.49999999999994
 21
-148.0915890000001
 31
0.0
  0
ARC
  5
170
330
6D
100
AcDbEntity
  8
LC-002-002-RND-0
  6
Continuous
 62
     7
100
AcDbCircle
 10
-20.0
 20
-148.0915890000001
 30
0.0
 40
2.5
100
AcDbArc
 50
90.0
 51
180.0
  0
ARC
  5
171
330
6D
100
AcDbEntity
  8
LC-002-002-RND-0
  6
Continuous
 62
     7
100
AcDbCircle
 10
19.99999999999994
 20
-148.0915890000001
 30
0.0
 40
2.5
100
AcDbArc
 50
0.0
 51
90.0
  0
ENDBLK
  5
6F
330
6D
100
AcDbEntity
  8
0
100
AcDbBlockEnd
  0
BLOCK
  5
71
330
70
100
AcDbEntity
  8
0
100
AcDbBlockBegin
  2
Holländermutter_R_5_4__2
 70
     0
 10
48.49999999999994
 20
-185.3415890000001
 30
0.0
  3
Holländermutter_R_5_4__2
  1

  0
LINE
  5
172
330
70
100
AcDbEntity
  8
LC-001-002-----0
  6
Continuous
 62
     7
100
AcDbLine
 10
40.99999999999994
 20
-164.8415890000001
 30
0.0
 11
50.99999999999994
 21
-164.8415890000001
 31
0.0
  0
LINE
  5
173
330
70
100
AcDbEntity
  8
LC-001-002-----0
  6
Continuous
 62
     7
100
AcDbLine
 10
40.99999999999994
 20
-164.3415890000001
 30
0.0
 11
50.99999999999994
 21
-164.3415890000001
 31
0.0
  0
LINE
  5
174
330
70
100
AcDbEntity
  8
LC-001-002-----0
  6
Continuous
 62
     7
100
AcDbLine
 10
40.99999999999994
 20
-163.8415890000001
 30
0.0
 11
50.99999999999994
 21
-163.8415890000001
 31
0.0
  0
LINE
  5
175
330
70
100
AcDbEntity
  8
LC-001-002-----0
  6
Continuous
 62
     7
100
AcDbLine
 10
40.99999999999994
 20
-163.3415890000001
 30
0.0
 11
50.99999999999994
 21
-163.3415890000001
 31
0.0
  0
LINE
  5
176
330
70
100
AcDbEntity
  8
LC-001-002-----0
  6
Continuous
 62
     7
100
AcDbLine
 10
40.99999999999994
 20
-205.8415890000001
 30
0.0
 11
50.99999999999994
 21
-205.8415890000001
 31
0.0
  0
LINE
  5
177
330
70
100
AcDbEntity
  8
LC-001-002-----0
  6
Continuous
 62
     7
100
AcDbLine
 10
40.99999999999994
 20
-206.3415890000001
 30
0.0
 11
50.99999999999994
 21
-206.3415890000001
 31
0.0
  0
LINE
  5
178
330
70
100
AcDbEntity
  8
LC-001-002-----0
  6
Continuous
 62
     7
100
AcDbLine
 10
40.99999999999994
 20
-206.8415890000001
 30
0.0
 11
50.99999999999994
 21
-206.8415890000001
 31
0.0
  0
LINE
  5
179
330
70
100
AcDbEntity
  8
LC-001-002-----0
  6
Continuous
 62
     7
100
AcDbLine
 10
40.99999999999994
 20
-207.3415890000001
 30
0.0
 11
50.99999999999994
 21
-207.3415890000001
 31
0.0
  0
LINE
  5
17A
330
70
100
AcDbEntity
  8
LC-001-002-----0
  6
Continuous
 62
     7
100
AcDbLine
 10
40.99999999999994
 20
-183.3415890000001
 30
0.0
 11
50.99999999999994
 21
-183.3415890000001
 31
0.0
  0
LINE
  5
17B
330
70
100
AcDbEntity
  8
LC-001-002-----0
  6
Continuous
 62
     7
100
AcDbLine
 10
40.99999999999994
 20
-183.8415890000001
 30
0.0
 11
50.99999999999994
 21
-183.8415890000001
 31
0.0
  0
LINE
  5
17C
330
70
100
AcDbEntity
  8
LC-001-002-----0
  6
Continuous
 62
     7
100
AcDbLine
 10
40.99999999999994
 20
-184.3415890000001
 30
0.0
 11
50.99999999999994
 21
-184.3415890000001
 31
0.0
  0
LINE
  5
17D
330
70
100
AcDbEntity
  8
LC-001-002-----0
  6
Continuous
 62
     7
100
AcDbLine
 10
40.99999999999994
 20
-184.8415890000001
 30
0.0
 11
50.99999999999994
 21
-184.8415890000001
 31
0.0
  0
LINE
  5
17E
330
70
100
AcDbEntity
  8
LC-001-002-----0
  6
Continuous
 62
     7
100
AcDbLine
 10
40.99999999999994
 20
-187.3415890000001
 30
0.0
 11
50.99999999999994
 21
-187.3415890000001
 31
0.0
  0
LINE
  5
17F
330
70
100
AcDbEntity
  8
LC-001-002-----0
  6
Continuous
 62
     7
100
AcDbLine
 10
40.99999999999994
 20
-186.8415890000001
 30
0.0
 11
50.99999999999994
 21
-186.8415890000001
 31
0.0
  0
LINE
  5
180
330
70
100
AcDbEntity
  8
LC-001-002-----0
  6
Continuous
 62
     7
100
AcDbLine
 10
40.99999999999994
 20
-186.3415890000001
 30
0.0
 11
50.99999999999994
 21
-186.3415890000001
 31
0.0
  0
LINE
  5
181
330
70
100
AcDbEntity
  8
LC-001-002-----0
  6
Continuous
 62
     7
100
AcDbLine
 10
40.99999999999994
 20
-185.8415890000001
 30
0.0
 11
50.99999999999994
 21
-185.8415890000001
 31
0.0
  0
LINE
  5
182
330
70
100
AcDbEntity
  8
LC-001-002-----0
  6
Continuous
 62
     7
100
AcDbLine
 10
40.99999999999994
 20
-185.3415890000001
 30
0.0
 11
50.99999999999994
 21
-185.3415890000001
 31
0.0
  0
LINE
  5
183
330
70
100
AcDbEntity
  8
LC-001-002-----0
  6
Continuous
 62
     7
100
AcDbLine
 10
56.99999999999994
 20
-165.8415890000001
 30
0.0
 11
56.99999999999994
 21
-204.8415890000001
 31
0.0
  0
LINE
  5
184
330
70
100
AcDbEntity
  8
LC-001-002-----0
  6
Continuous
 62
     7
100
AcDbLine
 10
56.99999999999994
 20
-204.8415890000001
 30
0.0
 11
56.99999999999994
 21
-205.3415890000001
 31
0.0
  0
LINE
  5
185
330
70
100
AcDbEntity
  8
LC-001-002-----0
  6
Continuous
 62
     7
100
AcDbLine
 10
39.99999999999994
 20
-205.8415890000001
 30
0.0
 11
39.99999999999994
 21
-161.8415890000001
 31
0.0
  0
LINE
  5
186
330
70
100
AcDbEntity
  8
LC-001-002-----0
  6
Continuous
 62
     7
100
AcDbLine
 10
40.99999999999994
 20
-207.8415890000001
 30
0.0
 11
40.99999999999994
 21
-161.8415890000001
 31
0.0
  0
LINE
  5
187
330
70
100
AcDbEntity
  8
LC-001-002-----0
  6
Continuous
 62
     7
100
AcDbLine
 10
39.99999999999994
 20
-208.8415890000001
 30
0.0
 11
40.99999999999994
 21
-208.8415890000001
 31
0.0
  0
LINE
  5
188
330
70
100
AcDbEntity
  8
LC-001-002-----0
  6
Continuous
 62
     7
100
AcDbLine
 10
39.99999999999994
 20
-161.8415890000001
 30
0.0
 11
40.99999999999994
 21
-161.8415890000001
 31
0.0
  0
LINE
  5
189
330
70
100
AcDbEntity
  8
LC-001-002-----0
  6
Continuous
 62
     7
100
AcDbLine
 10
40.99999999999994
 20
-208.8415890000001
 30
0.0
 11
40.99999999999994
 21
-207.8415890000001
 31
0.0
  0
LINE
  5
18A
330
70
100
AcDbEntity
  8
LC-001-002-----0
  6
Continuous
 62
     7
100
AcDbLine
 10
40.99999999999994
 20
-207.8415890000001
 30
0.0
 11
54.49999999999994
 21
-207.8415890000001
 31
0.0
  0
LINE
  5
18B
330
70
100
AcDbEntity
  8
LC-001-002-----0
  6
Continuous
 62
     7
100
AcDbLine
 10
40.99999999999994
 20
-162.8415890000001
 30
0.0
 11
54.49999999999994
 21
-162.8415890000001
 31
0.0
  0
LINE
  5
18C
330
70
100
AcDbEntity
  8
LC-001-002-----0
  6
Continuous
 62
     7
100
AcDbLine
 10
56.99999999999994
 20
-165.8415890000001
 30
0.0
 11
56.99999999999994
 21
-165.3415890000001
 31
0.0
  0
LINE
  5
18D
330
70
100
AcDbEntity
  8
LC-001-002-----0
  6
Continuous
 62
     7
100
AcDbLine
 10
39.99999999999994
 20
-208.8415890000001
 30
0.0
 11
39.99999999999994
 21
-205.8415890000001
 31
0.0
  0
LINE
  5
18E
330
70
100
AcDbEntity
  8
1
  6
Continuous
 62
     7
100
AcDbLine
 10
54.49999999999994
 20
-162.8415890000001
 30
0.0
 11
54.49999999999994
 21
-207.8415890000001
 31
0.0
  0
ARC
  5
18F
330
70
100
AcDbEntity
  8
LC-002-002-RND-0
  6
Continuous
 62
     7
100
AcDbCircle
 10
54.49999999999994
 20
-205.3415890000001
 30
0.0
 40
2.5
100
AcDbArc
 50
270.0
 51
0.0
  0
ARC
  5
190
330
70
100
AcDbEntity
  8
LC-002-002-RND-0
  6
Continuous
 62
     7
100
AcDbCircle
 10
54.49999999999994
 20
-165.3415890000001
 30
0.0
 40
2.5
100
AcDbArc
 50
0.0
 51
90.0
  0
ENDBLK
  5
72
330
70
100
AcDbEntity
  8
0
100
AcDbBlockEnd
  0
BLOCK
  5
74
330
73
100
AcDbEntity
  8
0
100
AcDbBlockBegin
  2
Rosette
 70
     0
 10
146.9156319999999
 20
-185.341589
 30
0.0
  3
Rosette
  1

  0
LINE
  5
191
330
73
100
AcDbEntity
  8
1
  6
Continuous
 62
     7
100
AcDbLine
 10
133.8171713382062
 20
-213.3065905495853
 30
0.0
 11
133.8171713382062
 21
-157.3765874504147
 31
0.0
  0
LINE
  5
192
330
73
100
AcDbEntity
  8
1
  6
Continuous
 62
     7
100
AcDbLine
 10
136.9585821337418
 20
-155.1234129693508
 30
0.0
 11
136.9585821337418
 21
-215.5597650306493
 31
0.0
  0
LINE
  5
193
330
73
100
AcDbEntity
  8
1
  6
Continuous
 62
     7
100
AcDbLine
 10
146.9156319999999
 20
-217.841589
 30
0.0
 11
146.9156319999999
 21
-152.841589
 31
0.0
  0
LINE
  5
194
330
73
100
AcDbEntity
  8
1
  6
Continuous
 62
     7
100
AcDbLine
 10
126.9156319999999
 20
-202.091589
 30
0.0
 11
126.9156319999999
 21
-168.591589
 31
0.0
  0
LINE
  5
195
330
73
100
AcDbEntity
  8
LC-001-002-----0
  6
Continuous
 62
     7
100
AcDbLine
 10
146.9156319999999
 20
-217.841589
 30
0.0
 11
166.9156319999999
 21
-219.841589
 31
0.0
  0
LINE
  5
196
330
73
100
AcDbEntity
  8
LC-001-002-----0
  6
Continuous
 62
     7
100
AcDbLine
 10
126.9156319999999
 20
-202.091589
 30
0.0
 11
133.8171713382062
 21
-213.3065905495853
 31
0.0
  0
LINE
  5
197
330
73
100
AcDbEntity
  8
LC-001-002-----0
  6
Continuous
 62
     7
100
AcDbLine
 10
136.9585821337418
 20
-215.5597650306493
 30
0.0
 11
146.9156319999999
 21
-217.841589
 31
0.0
  0
LINE
  5
198
330
73
100
AcDbEntity
  8
LC-001-002-----0
  6
Continuous
 62
     7
100
AcDbLine
 10
166.9156319999999
 20
-150.841589
 30
0.0
 11
166.9156319999999
 21
-219.841589
 31
0.0
  0
LINE
  5
199
330
73
100
AcDbEntity
  8
LC-001-002-----0
  6
Continuous
 62
     7
100
AcDbLine
 10
146.9156319999999
 20
-152.841589
 30
0.0
 11
136.9585821337418
 21
-155.1234129693508
 31
0.0
  0
LINE
  5
19A
330
73
100
AcDbEntity
  8
LC-001-002-----0
  6
Continuous
 62
     7
100
AcDbLine
 10
133.8171713382062
 20
-157.3765874504147
 30
0.0
 11
126.9156319999999
 21
-168.591589
 31
0.0
  0
LINE
  5
19B
330
73
100
AcDbEntity
  8
LC-001-002-----0
  6
Continuous
 62
     7
100
AcDbLine
 10
166.9156319999999
 20
-150.841589
 30
0.0
 11
146.9156319999999
 21
-152.841589
 31
0.0
  0
ARC
  5
19C
330
73
100
AcDbEntity
  8
1
  6
Continuous
 62
     7
100
AcDbCircle
 10
138.0754629347657
 20
-210.6861034424484
 30
0.0
 40
5.000000000000004
100
AcDbArc
 50
211.6075019612055
 51
257.0925911009351
  0
ARC
  5
19D
330
73
100
AcDbEntity
  8
1
  6
Continuous
 62
     7
100
AcDbCircle
 10
138.0754629347657
 20
-159.9970745575516
 30
0.0
 40
4.99999999999998
100
AcDbArc
 50
102.9074088990651
 51
148.3924980387945
  0
ENDBLK
  5
75
330
73
100
AcDbEntity
  8
0
100
AcDbBlockEnd
  0
BLOCK
  5
77
330
76
100
AcDbEntity
  8
0
100
AcDbBlockBegin
  2
Mutter5_4
 70
     0
 10
5768.243114470308
 20
8150.571115368805
 30
0.0
  3
Mutter5_4
  1

  0
LINE
  5
19E
330
76
100
AcDbEntity
  8
1
  6
PHANTOM
 62
     2
100
AcDbLine
 10
0.00000000000909
 20
-2.5
 30
0.0
 11
0.00000000000909
 21
-15.5000000000291
 31
0.0
  0
LINE
  5
19F
330
76
100
AcDbEntity
  8
0
  6
Continuous
 62
     7
100
AcDbLine
 10
22.62294788908912
 20
-17.5
 30
0.0
 11
25.00645507428089
 21
-15.5000000000291
 31
0.0
  0
LINE
  5
1A0
330
76
100
AcDbEntity
  8
0
  6
Continuous
 62
     7
100
AcDbLine
 10
-22.62294788906911
 20
-17.5
 30
0.0
 11
22.62294788908912
 21
-17.5
 31
0.0
  0
LINE
  5
1A1
330
76
100
AcDbEntity
  8
0
  6
Continuous
 62
     7
100
AcDbLine
 10
-22.62294788906911
 20
-17.5
 30
0.0
 11
-25.00645507426088
 21
-15.5000000000291
 31
0.0
  0
LINE
  5
1A2
330
76
100
AcDbEntity
  8
0
  6
Continuous
 62
     7
100
AcDbLine
 10
23.41473894794945
 20
-2.5
 30
0.0
 11
18.27995093790923
 21
-2.5
 31
0.0
  0
LINE
  5
1A3
330
76
100
AcDbEntity
  8
0
  6
Continuous
 62
     7
100
AcDbLine
 10
25.00645507428089
 20
-2.5
 30
0.0
 11
25.00645507428089
 21
-15.5000000000291
 31
0.0
  0
LINE
  5
1A4
330
76
100
AcDbEntity
  8
0
  6
Continuous
 62
     7
100
AcDbLine
 10
23.85175453590091
 20
-2.5
 30
0.0
 11
23.85175453590091
 21
-16.39867246526956
 31
0.0
  0
LINE
  5
1A5
330
76
100
AcDbEntity
  8
0
  6
Continuous
 62
     7
100
AcDbLine
 10
25.00645507428089
 20
-2.5
 30
0.0
 11
23.85175453590091
 21
-2.5
 31
0.0
  0
LINE
  5
1A6
330
76
100
AcDbEntity
  8
0
  6
Continuous
 62
     7
100
AcDbLine
 10
23.85175453590091
 20
-2.5
 30
0.0
 11
23.41473894794945
 21
-2.5
 31
0.0
  0
LINE
  5
1A7
330
76
100
AcDbEntity
  8
0
  6
Continuous
 62
     7
100
AcDbLine
 10
25.00645507428089
 20
0.0
 30
0.0
 11
25.00645507428089
 21
-2.5
 31
0.0
  0
LINE
  5
1A8
330
76
100
AcDbEntity
  8
0
  6
Continuous
 62
     7
100
AcDbLine
 10
25.00645507428089
 20
0.0
 30
0.0
 11
-25.00645507426088
 21
0.0
 31
0.0
  0
LINE
  5
1A9
330
76
100
AcDbEntity
  8
0
  6
Continuous
 62
     7
100
AcDbLine
 10
-25.00645507426088
 20
0.0
 30
0.0
 11
-25.00645507426088
 21
-2.5
 31
0.0
  0
LINE
  5
1AA
330
76
100
AcDbEntity
  8
0
  6
Continuous
 62
     7
100
AcDbLine
 10
-18.27995093788923
 20
-2.5
 30
0.0
 11
-18.27995093788923
 21
-16.39867246527865
 31
0.0
  0
LINE
  5
1AB
330
76
100
AcDbEntity
  8
0
  6
Continuous
 62
     7
100
AcDbLine
 10
-23.8517545358809
 20
-2.5
 30
0.0
 11
-23.8517545358809
 21
-16.39867246527865
 31
0.0
  0
LINE
  5
1AC
330
76
100
AcDbEntity
  8
0
  6
Continuous
 62
     7
100
AcDbLine
 10
18.27995093790923
 20
-2.5
 30
0.0
 11
18.27995093790923
 21
-16.39867246527865
 31
0.0
  0
LINE
  5
1AD
330
76
100
AcDbEntity
  8
0
  6
Continuous
 62
     7
100
AcDbLine
 10
18.27995093790923
 20
-2.5
 30
0.0
 11
17.68223395646055
 21
-2.5
 31
0.0
  0
LINE
  5
1AE
330
76
100
AcDbEntity
  8
0
  6
Continuous
 62
     7
100
AcDbLine
 10
-23.8517545358809
 20
-2.5
 30
0.0
 11
-25.00645507426088
 21
-2.5
 31
0.0
  0
LINE
  5
1AF
330
76
100
AcDbEntity
  8
0
  6
Continuous
 62
     7
100
AcDbLine
 10
-17.68223395644054
 20
-2.5
 30
0.0
 11
-18.27995093788923
 21
-2.5
 31
0.0
  0
LINE
  5
1B0
330
76
100
AcDbEntity
  8
0
  6
Continuous
 62
     7
100
AcDbLine
 10
-18.27995093788923
 20
-2.5
 30
0.0
 11
-23.41473894792944
 21
-2.5
 31
0.0
  0
LINE
  5
1B1
330
76
100
AcDbEntity
  8
0
  6
Continuous
 62
     7
100
AcDbLine
 10
-23.41473894792944
 20
-2.5
 30
0.0
 11
-23.8517545358809
 21
-2.5
 31
0.0
  0
LINE
  5
1B2
330
76
100
AcDbEntity
  8
0
  6
Continuous
 62
     7
100
AcDbLine
 10
-25.00645507426088
 20
-2.5
 30
0.0
 11
-25.00645507426088
 21
-15.5000000000291
 31
0.0
  0
LINE
  5
1B3
330
76
100
AcDbEntity
  8
0
  6
Continuous
 62
     7
100
AcDbLine
 10
-23.41473894792944
 20
-16.76406589720864
 30
0.0
 11
-17.97093425216917
 21
-16.76406589720864
 31
0.0
  0
LINE
  5
1B4
330
76
100
AcDbEntity
  8
0
  6
Continuous
 62
     7
100
AcDbLine
 10
17.97093425218918
 20
-16.76406589720864
 30
0.0
 11
23.41473894794945
 21
-16.76406589720864
 31
0.0
  0
LINE
  5
1B5
330
76
100
AcDbEntity
  8
0
  6
Continuous
 62
     7
100
AcDbLine
 10
-23.41473894792944
 20
-16.76406589720864
 30
0.0
 11
-23.41473894792944
 21
-2.5
 31
0.0
  0
LINE
  5
1B6
330
76
100
AcDbEntity
  8
0
  6
Continuous
 62
     7
100
AcDbLine
 10
0.00000000000909
 20
-2.5
 30
0.0
 11
0.00000000000909
 21
-15.5000000000291
 31
0.0
  0
LINE
  5
1B7
330
76
100
AcDbEntity
  8
0
  6
Continuous
 62
     7
100
AcDbLine
 10
17.68223395646055
 20
-2.5
 30
0.0
 11
17.68223395646055
 21
-15.5000000000291
 31
0.0
  0
LINE
  5
1B8
330
76
100
AcDbEntity
  8
0
  6
Continuous
 62
     7
100
AcDbLine
 10
2.00000000000909
 20
-16.39867246527865
 30
0.0
 11
2.00000000000909
 21
-16.76406589722865
 31
0.0
  0
LINE
  5
1B9
330
76
100
AcDbEntity
  8
0
  6
Continuous
 62
     7
100
AcDbLine
 10
-1.99999999999091
 20
-16.76406589722865
 30
0.0
 11
-1.99999999999091
 21
-16.39867246527865
 31
0.0
  0
LINE
  5
1BA
330
76
100
AcDbEntity
  8
0
  6
Continuous
 62
     7
100
AcDbLine
 10
-15.14250712742069
 20
-16.76406589720864
 30
0.0
 11
-1.99999999999091
 21
-16.76406589722865
 31
0.0
  0
LINE
  5
1BB
330
76
100
AcDbEntity
  8
0
  6
Continuous
 62
     7
100
AcDbLine
 10
15.45152381316075
 20
-2.5
 30
0.0
 11
15.1425071274407
 21
-2.5
 31
0.0
  0
LINE
  5
1BC
330
76
100
AcDbEntity
  8
0
  6
Continuous
 62
     7
100
AcDbLine
 10
17.68223395646055
 20
-2.5
 30
0.0
 11
15.45152381316075
 21
-2.5
 31
0.0
  0
LINE
  5
1BD
330
76
100
AcDbEntity
  8
0
  6
Continuous
 62
     7
100
AcDbLine
 10
15.1425071274407
 20
-2.5
 30
0.0
 11
2.00000000000909
 21
-2.5
 31
0.0
  0
LINE
  5
1BE
330
76
100
AcDbEntity
  8
0
  6
Continuous
 62
     7
100
AcDbLine
 10
2.00000000000909
 20
-2.5
 30
0.0
 11
2.00000000000909
 21
-16.39867246527865
 31
0.0
  0
LINE
  5
1BF
330
76
100
AcDbEntity
  8
0
  6
Continuous
 62
     7
100
AcDbLine
 10
0.00000000000909
 20
-2.5
 30
0.0
 11
-1.99999999999091
 21
-2.5
 31
0.0
  0
LINE
  5
1C0
330
76
100
AcDbEntity
  8
0
  6
Continuous
 62
     7
100
AcDbLine
 10
-1.99999999999091
 20
-2.5
 30
0.0
 11
-1.99999999999091
 21
-16.39867246527865
 31
0.0
  0
LINE
  5
1C1
330
76
100
AcDbEntity
  8
0
  6
Continuous
 62
     7
100
AcDbLine
 10
2.00000000000909
 20
-2.5
 30
0.0
 11
0.00000000000909
 21
-2.5
 31
0.0
  0
LINE
  5
1C2
330
76
100
AcDbEntity
  8
0
  6
Continuous
 62
     7
100
AcDbLine
 10
-15.14250712742069
 20
-2.5
 30
0.0
 11
-15.45152381314074
 21
-2.5
 31
0.0
  0
LINE
  5
1C3
330
76
100
AcDbEntity
  8
0
  6
Continuous
 62
     7
100
AcDbLine
 10
-1.99999999999091
 20
-2.5
 30
0.0
 11
-15.14250712742069
 21
-2.5
 31
0.0
  0
LINE
  5
1C4
330
76
100
AcDbEntity
  8
0
  6
Continuous
 62
     7
100
AcDbLine
 10
-15.45152381314074
 20
-2.5
 30
0.0
 11
-17.68223395644054
 21
-2.5
 31
0.0
  0
LINE
  5
1C5
330
76
100
AcDbEntity
  8
0
  6
Continuous
 62
     7
100
AcDbLine
 10
-17.68223395644054
 20
-2.5
 30
0.0
 11
-17.68223395644054
 21
-15.5000000000291
 31
0.0
  0
LINE
  5
1C6
330
76
100
AcDbEntity
  8
0
  6
Continuous
 62
     7
100
AcDbLine
 10
-15.45152381314074
 20
-2.5
 30
0.0
 11
-15.45152381314074
 21
-16.39867246527865
 31
0.0
  0
LINE
  5
1C7
330
76
100
AcDbEntity
  8
0
  6
Continuous
 62
     7
100
AcDbLine
 10
2.00000000000909
 20
-16.76406589722865
 30
0.0
 11
15.1425071274407
 21
-16.76406589720864
 31
0.0
  0
LINE
  5
1C8
330
76
100
AcDbEntity
  8
0
  6
Continuous
 62
     7
100
AcDbLine
 10
-15.14250712742069
 20
-16.76406589720864
 30
0.0
 11
-15.14250712742069
 21
-2.5
 31
0.0
  0
LINE
  5
1C9
330
76
100
AcDbEntity
  8
0
  6
Continuous
 62
     7
100
AcDbLine
 10
15.1425071274407
 20
-16.76406589720864
 30
0.0
 11
15.1425071274407
 21
-2.5
 31
0.0
  0
LINE
  5
1CA
330
76
100
AcDbEntity
  8
0
  6
Continuous
 62
     7
100
AcDbLine
 10
23.41473894794945
 20
-16.76406589720864
 30
0.0
 11
23.41473894794945
 21
-2.5
 31
0.0
  0
LINE
  5
1CB
330
76
100
AcDbEntity
  8
0
  6
Continuous
 62
     7
100
AcDbLine
 10
15.45152381316075
 20
-2.5
 30
0.0
 11
15.45152381316075
 21
-16.39867246527865
 31
0.0
  0
SPLINE
  5
1CC
330
76
100
AcDbEntity
  8
0
  6
Continuous
 62
     7
100
AcDbSpline
210
0.0
220
0.0
230
1.0
 70
     8
 71
     3
 72
    11
 73
     7
 74
     5
 42
0.000000001
 43
0.0000000001
 44
0.00000001
 40
0.0
 40
0.0
 40
0.0
 40
0.0
 40
0.3737464505857969
 40
0.7390895745077464
 40
1.105463846701748
 40
1.463540272224066
 40
1.463540272224066
 40
1.463540272224066
 40
1.463540272224066
 10
-25.00645507426088
 20
-15.5000000000291
 30
0.0
 10
-24.91063298556802
 20
-15.57962287979648
 30
0.0
 10
-24.7211432654978
 20
-15.73707838454147
 30
0.0
 10
-24.43237369440893
 20
-15.96601848207303
 30
0.0
 10
-24.14399705961294
 20
-16.18698377109675
 30
0.0
 10
-23.94842200890071
 20
-16.32865045386608
 30
0.0
 10
-23.8517545358809
 20
-16.39867246527865
 30
0.0
 11
-25.00645507426088
 21
-15.5000000000291
 31
0.0
 11
-24.71807449752645
 21
-15.73774577250901
 31
0.0
 11
-24.4320236707008
 21
-15.96501328625891
 31
0.0
 11
-24.14081051896005
 21
-16.18733064441085
 31
0.0
 11
-23.8517545358809
 21
-16.39867246527865
 31
0.0
  0
SPLINE
  5
1CD
330
76
100
AcDbEntity
  8
0
  6
Continuous
 62
     7
100
AcDbSpline
210
0.0
220
0.0
230
1.0
 70
     8
 71
     3
 72
    11
 73
     7
 74
     5
 42
0.000000001
 43
0.0000000001
 44
0.00000001
 40
0.0
 40
0.0
 40
0.0
 40
0.0
 40
0.2593882560443961
 40
0.5283218882812547
 40
0.7992614730922754
 40
1.079524568702079
 40
1.079524568702079
 40
1.079524568702079
 40
1.079524568702079
 10
-18.27995093788923
 20
-16.39867246527865
 30
0.0
 10
-18.22968448673983
 20
-16.32831854024899
 30
0.0
 10
-18.12730181303937
 20
-16.1850216872919
 30
0.0
 10
-17.97819805510665
 20
-15.96420221321354
 30
0.0
 10
-17.82876886094533
 20
-15.7352587576468
 30
0.0
 10
-17.73162663573946
 20
-15.57929893427543
 30
0.0
 10
-17.68223395644054
 20
-15.5000000000291
 30
0.0
 11
-18.27995093788923
 21
-16.39867246527865
 31
0.0
 11
-18.13007316618314
 21
-16.18696766847802
 31
0.0
 11
-17.97915521632058
 21
-15.96437146214885
 31
0.0
 11
-17.83126182052638
 21
-15.73735647983813
 31
0.0
 11
-17.68223395644054
 21
-15.5000000000291
 31
0.0
  0
SPLINE
  5
1CE
330
76
100
AcDbEntity
  8
0
  6
Continuous
 62
     7
100
AcDbSpline
210
0.0
220
0.0
230
1.0
 70
     8
 71
     3
 72
    11
 73
     7
 74
     5
 42
0.000000001
 43
0.0000000001
 44
0.00000001
 40
0.0
 40
0.0
 40
0.0
 40
0.0
 40
0.1196368274186605
 40
0.2392729893209033
 40
0.3589084774630529
 40
0.4785432814550183
 40
0.4785432814550183
 40
0.4785432814550183
 40
0.4785432814550183
 10
-18.27995093788923
 20
-16.39867246527865
 30
0.0
 10
-18.25420017168646
 20
-16.42912288551882
 30
0.0
 10
-18.20269877107393
 20
-16.49002354692349
 30
0.0
 10
-18.12544503633952
 20
-16.58137271795616
 30
0.0
 10
-18.04819045686211
 20
-16.67272029124505
 30
0.0
 10
-17.99668627512887
 20
-16.7336174231577
 30
0.0
 10
-17.97093425216917
 20
-16.76406589720864
 30
0.0
 11
-18.27995093788923
 21
-16.39867246527865
 31
0.0
 11
-18.20269832705048
 21
-16.49002346195311
 31
0.0
 11
-18.12544468556916
 21
-16.58137271544001
 31
0.0
 11
-18.04818999860231
 21
-16.67272020234964
 31
0.0
 11
-17.97093425216917
 21
-16.76406589720864
 31
0.0
  0
SPLINE
  5
1CF
330
76
100
AcDbEntity
  8
0
  6
Continuous
 62
     7
100
AcDbSpline
210
0.0
220
0.0
230
1.0
 70
     8
 71
     3
 72
    11
 73
     7
 74
     5
 42
0.000000001
 43
0.0000000001
 44
0.00000001
 40
0.0
 40
0.0
 40
0.0
 40
0.0
 40
0.2806680072539212
 40
0.5519731591478203
 40
0.8212540187642088
 40
1.079524579098775
 40
1.079524579098775
 40
1.079524579098775
 40
1.079524579098775
 10
17.68223395646055
 20
-15.5000000000291
 30
0.0
 10
17.73169850419172
 20
-15.57941319274981
 30
0.0
 10
17.82897751535427
 20
-15.73559041104747
 30
0.0
 10
17.97861905567489
 20
-15.96484027489421
 30
0.0
 10
18.12766240497351
 20
-16.18553771122935
 30
0.0
 10
18.22989933726646
 20
-16.32862297382101
 30
0.0
 10
18.27995093790923
 20
-16.39867246527865
 30
0.0
 11
17.68223395646055
 21
-15.5000000000291
 31
0.0
 11
17.83147994696196
 21
-15.73769763282166
 31
0.0
 11
17.97958153116088
 21
-15.96501328625891
 31
0.0
 11
18.13070958769572
 21
-16.18788655069216
 31
0.0
 11
18.27995093790923
 21
-16.39867246527865
 31
0.0
  0
SPLINE
  5
1D0
330
76
100
AcDbEntity
  8
0
  6
Continuous
 62
     7
100
AcDbSpline
210
0.0
220
0.0
230
1.0
 70
     8
 71
     3
 72
    11
 73
     7
 74
     5
 42
0.000000001
 43
0.0000000001
 44
0.00000001
 40
0.0
 40
0.0
 40
0.0
 40
0.0
 40
0.1428586135750613
 40
0.2848223050070038
 40
0.4279583192409446
 40
0.5696446122941448
 40
0.5696446122941448
 40
0.5696446122941448
 40
0.5696446122941448
 10
-23.8517545358809
 20
-16.39867246527865
 30
0.0
 10
-23.81522298542323
 20
-16.42921859771978
 30
0.0
 10
-23.74238872280219
 20
-16.49011949821427
 30
0.0
 10
-23.63295011390764
 20
-16.58162362136144
 30
0.0
 10
-23.52381001770449
 20
-16.67287555791987
 30
0.0
 10
-23.45097239529964
 20
-16.7337724412501
 30
0.0
 10
-23.41473894792944
 20
-16.76406589720864
 30
0.0
 11
-23.8517545358809
 21
-16.39867246527865
 31
0.0
 11
-23.74215957077217
 21
-16.49031048738425
 31
0.0
 11
-23.63324969837049
 21
-16.58137271544001
 31
0.0
 11
-23.52343897177139
 21
-16.67318514866451
 31
0.0
 11
-23.41473894792944
 21
-16.76406589720864
 31
0.0
  0
SPLINE
  5
1D1
330
76
100
AcDbEntity
  8
0
  6
Continuous
 62
     7
100
AcDbSpline
210
0.0
220
0.0
230
1.0
 70
     8
 71
     3
 72
    11
 73
     7
 74
     5
 42
0.000000001
 43
0.0000000001
 44
0.00000001
 40
0.0
 40
0.0
 40
0.0
 40
0.0
 40
0.1196368274186559
 40
0.2392729893208987
 40
0.358908477463051
 40
0.4785432814550115
 40
0.4785432814550115
 40
0.4785432814550115
 40
0.4785432814550115
 10
18.27995093790923
 20
-16.39867246527865
 30
0.0
 10
18.25420017170647
 20
-16.42912288551882
 30
0.0
 10
18.20269877109393
 20
-16.49002354692349
 30
0.0
 10
18.12544503635952
 20
-16.58137271795615
 30
0.0
 10
18.04819045688212
 20
-16.67272029124505
 30
0.0
 10
17.99668627514888
 20
-16.7336174231577
 30
0.0
 10
17.97093425218918
 20
-16.76406589720864
 30
0.0
 11
18.27995093790923
 21
-16.39867246527865
 31
0.0
 11
18.20269832707049
 21
-16.49002346195311
 31
0.0
 11
18.12544468558917
 21
-16.58137271544001
 31
0.0
 11
18.04818999862232
 21
-16.67272020234964
 31
0.0
 11
17.97093425218918
 21
-16.76406589720864
 31
0.0
  0
SPLINE
  5
1D2
330
76
100
AcDbEntity
  8
0
  6
Continuous
 62
     7
100
AcDbSpline
210
0.0
220
0.0
230
1.0
 70
     8
 71
     3
 72
    11
 73
     7
 74
     5
 42
0.000000001
 43
0.0000000001
 44
0.00000001
 40
0.0
 40
0.0
 40
0.0
 40
0.0
 40
0.1422374675395565
 40
0.2848223780087247
 40
0.4267374548239967
 40
0.569644612299977
 40
0.569644612299977
 40
0.569644612299977
 40
0.569644612299977
 10
23.41473894794945
 20
-16.76406589720864
 30
0.0
 10
23.45111334673392
 20
-16.73365459596367
 30
0.0
 10
23.52395098628254
 20
-16.67275769638612
 30
0.0
 10
23.63307866579931
 20
-16.58151613577759
 30
0.0
 10
23.74237632724752
 20
-16.49012986265958
 30
0.0
 10
23.81521057184952
 20
-16.42922897736245
 30
0.0
 10
23.85175453590091
 20
-16.39867246526956
 30
0.0
 11
23.41473894794945
 21
-16.76406589720864
 31
0.0
 11
23.52386182333862
 21
-16.67283160958118
 31
0.0
 11
23.63324975264914
 21
-16.58137267007987
 31
0.0
 11
23.74212232976242
 21
-16.49034162603311
 31
0.0
 11
23.85175453590091
 21
-16.39867246526956
 31
0.0
  0
SPLINE
  5
1D3
330
76
100
AcDbEntity
  8
0
  6
Continuous
 62
     7
100
AcDbSpline
210
0.0
220
0.0
230
1.0
 70
     8
 71
     3
 72
    11
 73
     7
 74
     5
 42
0.000000001
 43
0.0000000001
 44
0.00000001
 40
0.0
 40
0.0
 40
0.0
 40
0.0
 40
0.6070519148726196
 40
1.20323328195369
 40
1.809542079217752
 40
2.405216578208037
 40
2.405216578208037
 40
2.405216578208037
 40
2.405216578208037
 10
-17.68223395644054
 20
-15.5000000000291
 30
0.0
 10
-17.49634303542466
 20
-15.57994810736363
 30
0.0
 10
-17.12788995745031
 20
-15.73841266844152
 30
0.0
 10
-16.56983226897819
 20
-15.96737712451569
 30
0.0
 10
-16.01261971809933
 20
-16.18831714668563
 30
0.0
 10
-15.6374493692414
 20
-16.32896882594009
 30
0.0
 10
-15.45152381314074
 20
-16.39867246527865
 30
0.0
 11
-17.68223395644054
 21
-15.5000000000291
 31
0.0
 11
-17.12389412907351
 21
-15.73826175648538
 31
0.0
 11
-16.57251770016046
 21
-15.96501328625891
 31
0.0
 11
-16.00863698275634
 21
-16.18783360481279
 31
0.0
 11
-15.45152381314074
 21
-16.39867246527865
 31
0.0
  0
SPLINE
  5
1D4
330
76
100
AcDbEntity
  8
0
  6
Continuous
 62
     7
100
AcDbSpline
210
0.0
220
0.0
230
1.0
 70
     8
 71
     3
 72
    11
 73
     7
 74
     5
 42
0.000000001
 43
0.0000000001
 44
0.00000001
 40
0.0
 40
0.0
 40
0.0
 40
0.0
 40
0.1196368274160183
 40
0.2392729893208974
 40
0.3589084774660917
 40
0.4785432814550125
 40
0.4785432814550125
 40
0.4785432814550125
 40
0.4785432814550125
 10
-15.45152381314074
 20
-16.39867246527865
 30
0.0
 10
-15.42577304693512
 20
-16.42912288551525
 30
0.0
 10
-15.37427164631572
 20
-16.49002354691411
 30
0.0
 10
-15.29701791159318
 20
-16.58137271795815
 30
0.0
 10
-15.21976333211434
 20
-16.67272029124698
 30
0.0
 10
-15.16825915038019
 20
-16.73361742315886
 30
0.0
 10
-15.14250712742069
 20
-16.76406589720864
 30
0.0
 11
-15.45152381314074
 21
-16.39867246527865
 31
0.0
 11
-15.37427120229722
 21
-16.49002346194561
 31
0.0
 11
-15.29701756082068
 21
-16.58137271544001
 31
0.0
 11
-15.21976287385315
 21
-16.67272020235305
 31
0.0
 11
-15.14250712742069
 21
-16.76406589720864
 31
0.0
  0
SPLINE
  5
1D5
330
76
100
AcDbEntity
  8
0
  6
Continuous
 62
     7
100
AcDbSpline
210
0.0
220
0.0
230
1.0
 70
     8
 71
     3
 72
    11
 73
     7
 74
     5
 42
0.000000001
 43
0.0000000001
 44
0.00000001
 40
0.0
 40
0.0
 40
0.0
 40
0.0
 40
0.5524650003347621
 40
1.096712772940064
 40
1.6500130402261
 40
2.192932603722395
 40
2.192932603722395
 40
2.192932603722395
 40
2.192932603722395
 10
0.0000000000090949
 20
-15.5000000000291
 30
0.0
 10
0.1660416946944491
 20
-15.57965242741923
 30
0.0
 10
0.4956554273813469
 20
-15.73777253821239
 30
0.0
 10
0.9957883995679077
 20
-15.96667622051594
 30
0.0
 10
1.495905576842088
 20
-16.18787973510746
 30
0.0
 10
1.833032670485089
 20
-16.32885321140152
 30
0.0
 10
2.000000000009095
 20
-16.39867246527865
 30
0.0
 11
0.0000000000090949
 21
-15.5000000000291
 31
0.0
 11
0.4988379567118947
 21
-15.73744108663481
 31
0.0
 11
0.9935178969608387
 21
-15.9643714611102
 31
0.0
 11
1.499816876226986
 21
-16.1875362646781
 31
0.0
 11
2.000000000009095
 21
-16.39867246527865
 31
0.0
  0
SPLINE
  5
1D6
330
76
100
AcDbEntity
  8
0
  6
Continuous
 62
     7
100
AcDbSpline
210
0.0
220
0.0
230
1.0
 70
     8
 71
     3
 72
    11
 73
     7
 74
     5
 42
0.000000001
 43
0.0000000001
 44
0.00000001
 40
0.0
 40
0.0
 40
0.0
 40
0.0
 40
0.5977908271812861
 40
1.203698859045019
 40
1.799024018966632
 40
2.40521657160322
 40
2.40521657160322
 40
2.40521657160322
 40
2.40521657160322
 10
15.45152381316075
 20
-16.39867246527865
 30
0.0
 10
15.6381089669051
 20
-16.32871853310483
 30
0.0
 10
16.013812847375
 20
-16.18786077327824
 30
0.0
 10
16.57128153080263
 20
-15.96678952699005
 30
0.0
 10
17.12867970629836
 20
-15.73807641170214
 30
0.0
 10
17.4966066096178
 20
-15.57983588900544
 30
0.0
 10
17.68223395646055
 20
-15.5000000000291
 30
0.0
 11
15.45152381316075
 21
-16.39867246527865
 31
0.0
 11
16.01061080650607
 21
-16.18706999121787
 31
0.0
 11
16.57410872878063
 21
-15.96437146214885
 31
0.0
 11
17.12468673436842
 21
-15.73792962423181
 31
0.0
 11
17.68223395646055
 21
-15.5000000000291
 31
0.0
  0
SPLINE
  5
1D7
330
76
100
AcDbEntity
  8
0
  6
Continuous
 62
     7
100
AcDbSpline
210
0.0
220
0.0
230
1.0
 70
     8
 71
     3
 72
    11
 73
     7
 74
     5
 42
0.000000001
 43
0.0000000001
 44
0.00000001
 40
0.0
 40
0.0
 40
0.0
 40
0.0
 40
0.5441127834188578
 40
1.096219829439777
 40
1.639306315829995
 40
2.192932603455383
 40
2.192932603455383
 40
2.192932603455383
 40
2.192932603455383
 10
-1.999999999990905
 20
-16.39867246527865
 30
0.0
 10
-1.832666314966807
 20
-16.32869827222627
 30
0.0
 10
-1.495540435828199
 20
-16.18772179113695
 30
0.0
 10
-0.9957809030587405
 20
-15.96666695551924
 30
0.0
 10
-0.4960061383354444
 20
-15.73793656114123
 30
0.0
 10
-0.1663912827606987
 20
-15.5798187145818
 30
0.0
 10
0.0000000000090949
 20
-15.5000000000291
 30
0.0
 11
-1.999999999990905
 21
-16.39867246527865
 31
0.0
 11
-1.498721268853842
 21
-16.18706349835316
 31
0.0
 11
-0.9935178969408297
 21
-15.9643714611102
 31
0.0
 11
-0.4998900227365092
 21
-15.73793282998486
 31
0.0
 11
0.0000000000090949
 21
-15.5000000000291
 31
0.0
  0
SPLINE
  5
1D8
330
76
100
AcDbEntity
  8
0
  6
Continuous
 62
     7
100
AcDbSpline
210
0.0
220
0.0
230
1.0
 70
     8
 71
     3
 72
    11
 73
     7
 74
     5
 42
0.000000001
 43
0.0000000001
 44
0.00000001
 40
0.0
 40
0.0
 40
0.0
 40
0.0
 40
0.1196348336971008
 40
0.2392703515390286
 40
0.3589064837471753
 40
0.4785432814550113
 40
0.4785432814550113
 40
0.4785432814550113
 40
0.4785432814550113
 10
15.1425071274407
 20
-16.76406589720864
 30
0.0
 10
15.1682591567928
 20
-16.73361741559588
 30
0.0
 10
15.2197633513097
 20
-16.67272026856096
 30
0.0
 10
15.29701793718664
 20
-16.58137268771379
 30
0.0
 10
15.37427166552445
 20
-16.4900235242394
 30
0.0
 10
15.42577305335218
 20
-16.42912287795604
 30
0.0
 10
15.45152381316075
 20
-16.39867246527865
 30
0.0
 11
15.1425071274407
 21
-16.76406589720864
 31
0.0
 11
15.21976289305258
 21
-16.67272017966548
 31
0.0
 11
15.29701759919954
 21
-16.58137267007987
 31
0.0
 11
15.37427122150553
 21
-16.49002343926555
 31
0.0
 11
15.45152381316075
 21
-16.39867246527865
 31
0.0
  0
SPLINE
  5
1D9
330
76
100
AcDbEntity
  8
0
  6
Continuous
 62
     7
100
AcDbSpline
210
0.0
220
0.0
230
1.0
 70
     8
 71
     3
 72
    11
 73
     7
 74
     5
 42
0.000000001
 43
0.0000000001
 44
0.00000001
 40
0.0
 40
0.0
 40
0.0
 40
0.0
 40
0.3576963356473457
 40
0.7254947817518167
 40
1.089464603370187
 40
1.463540268301605
 40
1.463540268301605
 40
1.463540268301605
 40
1.463540268301605
 10
23.85175453590091
 20
-16.39867246526956
 30
0.0
 10
23.94831971863744
 20
-16.32872524651626
 30
0.0
 10
24.14417728270842
 20
-16.18685533758113
 30
0.0
 10
24.43246179569104
 20
-15.96594980550155
 30
0.0
 10
24.72132584356003
 20
-15.73692530230435
 30
0.0
 10
24.91054834424942
 20
-15.57969275128336
 30
0.0
 10
25.00645507428089
 20
-15.5000000000291
 30
0.0
 11
23.85175453590091
 21
-16.39867246526956
 31
0.0
 11
24.14050604741829
 21
-16.18755819948274
 31
0.0
 11
24.43284724771911
 21
-15.96437146214885
 31
0.0
 11
24.71781861080921
 21
-15.73795292624049
 31
0.0
 11
25.00645507428089
 21
-15.5000000000291
 31
0.0
  0
ENDBLK
  5
78
330
76
100
AcDbEntity
  8
0
100
AcDbBlockEnd
  0
BLOCK
  5
7A
330
79
100
AcDbEntity
  8
0
100
AcDbBlockBegin
  2
Holländermutter_1
 70
     0
 10
-52.06067460616923
 20
-29.41715015231507
 30
0.0
  3
Holländermutter_1
  1

  0
LINE
  5
1DA
330
79
100
AcDbEntity
  8
1
  6
DOT_CENTER
 62
     2
100
AcDbLine
 10
-59.88543886006994
 20
-26.45374501907232
 30
0.0
 11
-56.50469846805814
 21
-27.35961167693087
 31
0.0
  0
LINE
  5
1DB
330
79
100
AcDbEntity
  8
0
  6
Continuous
 62
     7
100
AcDbLine
 10
-58.05785536534359
 20
-33.156072129728
 30
0.0
 11
-47.91563418930818
 21
-35.87367210330378
 31
0.0
  0
LINE
  5
1DC
330
79
100
AcDbEntity
  8
0
  6
Continuous
 62
     7
100
AcDbLine
 10
-43.13494268711565
 20
-18.03188852180288
 30
0.0
 11
-44.70394976340927
 21
-23.88750264796759
 31
0.0
  0
LINE
  5
1DD
330
79
100
AcDbEntity
  8
0
  6
Continuous
 62
     7
100
AcDbLine
 10
-42.7664639759397
 20
-16.65670725018624
 30
0.0
 11
-43.13494268711565
 21
-18.03188852180288
 31
0.0
  0
LINE
  5
1DE
330
79
100
AcDbEntity
  8
0
  6
Continuous
 62
     7
100
AcDbLine
 10
-44.80932039473723
 20
-24.28075119770929
 30
0.0
 11
-45.45661063416415
 21
-26.69647125849473
 31
0.0
  0
LINE
  5
1DF
330
79
100
AcDbEntity
  8
0
  6
Continuous
 62
     7
100
AcDbLine
 10
-54.95154157077269
 20
-21.56315122413371
 30
0.0
 11
-44.80932039473723
 21
-24.28075119770929
 31
0.0
  0
LINE
  5
1E0
330
79
100
AcDbEntity
  8
0
  6
Continuous
 62
     7
100
AcDbLine
 10
-47.91563418930818
 20
-35.87367210330378
 30
0.0
 11
-48.02100482063614
 21
-36.26692065304549
 31
0.0
  0
LINE
  5
1E1
330
79
100
AcDbEntity
  8
0
  6
Continuous
 62
     7
100
AcDbLine
 10
-45.45661063416415
 20
-26.69647125849473
 30
0.0
 11
-47.26834394988126
 21
-33.45795204251834
 31
0.0
  0
LINE
  5
1E2
330
79
100
AcDbEntity
  8
0
  6
Continuous
 62
     7
100
AcDbLine
 10
-52.50442320211954
 20
-15.52134378430925
 30
0.0
 11
-54.07343027841318
 21
-21.37695791047403
 31
0.0
  0
LINE
  5
1E3
330
79
100
AcDbEntity
  8
0
  6
Continuous
 62
     7
100
AcDbLine
 10
-52.90868515197516
 20
-13.93910727661077
 30
0.0
 11
-42.7664639759397
 21
-16.65670725018624
 31
0.0
  0
LINE
  5
1E4
330
79
100
AcDbEntity
  8
0
  6
Continuous
 62
     7
100
AcDbLine
 10
-51.04686455304992
 20
-47.55958291099402
 30
0.0
 11
-51.24853942554319
 21
-48.31224378174915
 31
0.0
  0
LINE
  5
1E5
330
79
100
AcDbEntity
  8
0
  6
Continuous
 62
     7
100
AcDbLine
 10
-51.33180295799014
 20
-48.62298751525887
 30
0.0
 11
-51.44827152828614
 21
-49.05765413708868
 31
0.0
  0
LINE
  5
1E6
330
79
100
AcDbEntity
  8
0
  6
Continuous
 62
     7
100
AcDbLine
 10
-51.24853942554319
 20
-48.31224378174915
 30
0.0
 11
-51.33180295799014
 21
-48.62298751525887
 31
0.0
  0
LINE
  5
1E7
330
79
100
AcDbEntity
  8
0
  6
Continuous
 62
     7
100
AcDbLine
 10
-50.14099789519136
 20
-44.17884251898221
 30
0.0
 11
-51.04686455304992
 21
-47.55958291099402
 31
0.0
  0
LINE
  5
1E8
330
79
100
AcDbEntity
  8
0
  6
Continuous
 62
     7
100
AcDbLine
 10
-49.95849060810571
 20
-43.4977160508268
 30
0.0
 11
-50.14099789519136
 21
-44.17884251898221
 31
0.0
  0
LINE
  5
1E9
330
79
100
AcDbEntity
  8
0
  6
Continuous
 62
     7
100
AcDbLine
 10
-48.02100482063614
 20
-36.26692065304549
 30
0.0
 11
-49.59001189692975
 21
-42.1225347792102
 31
0.0
  0
LINE
  5
1EA
330
79
100
AcDbEntity
  8
0
  6
Continuous
 62
     7
100
AcDbLine
 10
-49.59001189692975
 20
-42.1225347792102
 30
0.0
 11
-49.95849060810571
 21
-43.4977160508268
 31
0.0
  0
LINE
  5
1EB
330
79
100
AcDbEntity
  8
0
  6
Continuous
 62
     7
100
AcDbLine
 10
-41.47641515850222
 20
-11.8421795192639
 30
0.0
 11
-41.67809003099549
 21
-12.59484039001905
 31
0.0
  0
LINE
  5
1EC
330
79
100
AcDbEntity
  8
0
  6
Continuous
 62
     7
100
AcDbLine
 10
-41.67809003099549
 20
-12.59484039001905
 30
0.0
 11
-42.58395668885405
 21
-15.97558078203086
 31
0.0
  0
LINE
  5
1ED
330
79
100
AcDbEntity
  8
0
  6
Continuous
 62
     7
100
AcDbLine
 10
-41.27668305575926
 20
-11.0967691639244
 30
0.0
 11
-41.39315162605527
 21
-11.53143578575421
 31
0.0
  0
LINE
  5
1EE
330
79
100
AcDbEntity
  8
0
  6
Continuous
 62
     7
100
AcDbLine
 10
-41.39315162605527
 20
-11.53143578575421
 30
0.0
 11
-41.47641515850222
 21
-11.8421795192639
 31
0.0
  0
LINE
  5
1EF
330
79
100
AcDbEntity
  8
0
  6
Continuous
 62
     7
100
AcDbLine
 10
-47.26834394988126
 20
-33.45795204251834
 30
0.0
 11
-47.91563418930818
 21
-35.87367210330378
 31
0.0
  0
LINE
  5
1F0
330
79
100
AcDbEntity
  8
0
  6
Continuous
 62
     3
100
AcDbLine
 10
-40.66431062006348
 20
-10.74321577333107
 30
0.0
 11
-51.09471813769284
 21
-49.67002657278444
 31
0.0
  0
LINE
  5
1F1
330
79
100
AcDbEntity
  8
0
  6
Continuous
 62
     7
100
AcDbLine
 10
-43.13494268711565
 20
-18.03188852180288
 30
0.0
 11
-52.50442320211954
 21
-15.52134378430925
 31
0.0
  0
LINE
  5
1F2
330
79
100
AcDbEntity
  8
0
  6
Continuous
 62
     7
100
AcDbLine
 10
-38.73245896748531
 20
-11.26085386353596
 30
0.0
 11
-49.16286648511465
 21
-50.18766466298933
 31
0.0
  0
LINE
  5
1F3
330
79
100
AcDbEntity
  8
0
  6
Continuous
 62
     7
100
AcDbLine
 10
-38.73245896748531
 20
-11.26085386353596
 30
0.0
 11
-40.66431062006348
 21
-10.74321577333107
 31
0.0
  0
LINE
  5
1F4
330
79
100
AcDbEntity
  8
0
  6
Continuous
 62
     7
100
AcDbLine
 10
-49.59001189692975
 20
-42.1225347792102
 30
0.0
 11
-58.95949241193364
 21
-39.61199004171657
 31
0.0
  0
LINE
  5
1F5
330
79
100
AcDbEntity
  8
0
  6
Continuous
 62
     7
100
AcDbLine
 10
-49.16286648511465
 20
-50.18766466298933
 30
0.0
 11
-51.09471813769284
 21
-49.67002657278444
 31
0.0
  0
LINE
  5
1F6
330
79
100
AcDbEntity
  8
0
  6
Continuous
 62
     7
100
AcDbLine
 10
-60.70128347299402
 20
-46.11244277776524
 30
0.0
 11
-51.33180295799014
 21
-48.62298751525887
 31
0.0
  0
LINE
  5
1F7
330
79
100
AcDbEntity
  8
0
  6
Continuous
 62
     7
100
AcDbLine
 10
-59.51047841019525
 20
-41.66829778148858
 30
0.0
 11
-60.4163450680538
 21
-45.04903817350039
 31
0.0
  0
LINE
  5
1F8
330
79
100
AcDbEntity
  8
0
  6
Continuous
 62
     7
100
AcDbLine
 10
-61.00657844199964
 20
-44.16085646926275
 30
0.0
 11
-60.10071178414108
 21
-40.78011607725095
 31
0.0
  0
LINE
  5
1F9
330
79
100
AcDbEntity
  8
0
  6
Continuous
 62
     7
100
AcDbLine
 10
-50.14099789519136
 20
-44.17884251898221
 30
0.0
 11
-59.51047841019525
 21
-41.66829778148858
 31
0.0
  0
LINE
  5
1FA
330
79
100
AcDbEntity
  8
0
  6
Continuous
 62
     7
100
AcDbLine
 10
-60.10071178414108
 20
-40.78011607725095
 30
0.0
 11
-49.95849060810571
 21
-43.4977160508268
 31
0.0
  0
LINE
  5
1FB
330
79
100
AcDbEntity
  8
0
  6
Continuous
 62
     7
100
AcDbLine
 10
-51.24853942554319
 20
-48.31224378174915
 30
0.0
 11
-60.61801994054707
 21
-45.80169904425551
 31
0.0
  0
LINE
  5
1FC
330
79
100
AcDbEntity
  8
0
  6
Continuous
 62
     7
100
AcDbLine
 10
-64.64770928995534
 20
-44.22678022279317
 30
0.0
 11
-61.26696889794354
 21
-45.13264688065173
 31
0.0
  0
LINE
  5
1FD
330
79
100
AcDbEntity
  8
0
  6
Continuous
 62
     7
100
AcDbLine
 10
-51.04686455304992
 20
-47.55958291099402
 30
0.0
 11
-60.4163450680538
 21
-45.04903817350039
 31
0.0
  0
LINE
  5
1FE
330
79
100
AcDbEntity
  8
0
  6
Continuous
 62
     7
100
AcDbLine
 10
-61.26696889794354
 20
-45.13264688065173
 30
0.0
 11
-60.70128347299402
 21
-46.11244277776524
 31
0.0
  0
LINE
  5
1FF
330
79
100
AcDbEntity
  8
0
  6
Continuous
 62
     7
100
AcDbLine
 10
-61.26696889794354
 20
-45.13264688065173
 30
0.0
 11
-61.18001933892265
 21
-44.80814670868986
 31
0.0
  0
LINE
  5
200
330
79
100
AcDbEntity
  8
0
  6
Continuous
 62
     7
100
AcDbLine
 10
-61.18001933892265
 20
-44.80814670868986
 30
0.0
 11
-60.44569336969758
 21
-45.00490875912486
 31
0.0
  0
LINE
  5
201
330
79
100
AcDbEntity
  8
0
  6
Continuous
 62
     7
100
AcDbLine
 10
-60.61801994054707
 20
-45.80169904425551
 30
0.0
 11
-60.70128347299402
 21
-46.11244277776524
 31
0.0
  0
LINE
  5
202
330
79
100
AcDbEntity
  8
0
  6
Continuous
 62
     7
100
AcDbLine
 10
-45.45661063416415
 20
-26.69647125849473
 30
0.0
 11
-54.82609114916804
 21
-24.18592652100109
 31
0.0
  0
LINE
  5
203
330
79
100
AcDbEntity
  8
0
  6
Continuous
 62
     7
100
AcDbLine
 10
-44.70394976340927
 20
-23.88750264796759
 30
0.0
 11
-44.80932039473723
 21
-24.28075119770929
 31
0.0
  0
LINE
  5
204
330
79
100
AcDbEntity
  8
0
  6
Continuous
 62
     7
100
AcDbLine
 10
-42.58395668885405
 20
-15.97558078203086
 30
0.0
 11
-42.7664639759397
 21
-16.65670725018624
 31
0.0
  0
LINE
  5
205
330
79
100
AcDbEntity
  8
0
  6
Continuous
 62
     7
100
AcDbLine
 10
-41.67809003099549
 20
-12.59484039001905
 30
0.0
 11
-51.04757054599938
 21
-10.08429565252542
 31
0.0
  0
LINE
  5
206
330
79
100
AcDbEntity
  8
0
  6
Continuous
 62
     7
100
AcDbLine
 10
-44.70394976340927
 20
-23.88750264796759
 30
0.0
 11
-54.07343027841318
 21
-21.37695791047403
 31
0.0
  0
LINE
  5
207
330
79
100
AcDbEntity
  8
0
  6
Continuous
 62
     7
100
AcDbLine
 10
-42.58395668885405
 20
-15.97558078203086
 30
0.0
 11
-51.95343720385793
 21
-13.46503604453723
 31
0.0
  0
LINE
  5
208
330
79
100
AcDbEntity
  8
0
  6
Continuous
 62
     7
100
AcDbLine
 10
-41.47641515850222
 20
-11.8421795192639
 30
0.0
 11
-50.84589567350611
 21
-9.33163478177027
 31
0.0
  0
LINE
  5
209
330
79
100
AcDbEntity
  8
0
  6
Continuous
 62
     7
100
AcDbLine
 10
-50.76263214105916
 20
-9.02089104826057
 30
0.0
 11
-41.39315162605527
 21
-11.53143578575421
 31
0.0
  0
LINE
  5
20A
330
79
100
AcDbEntity
  8
0
  6
Continuous
 62
     7
100
AcDbLine
 10
-50.76263214105916
 20
-9.02089104826057
 30
0.0
 11
-50.84589567350611
 21
-9.33163478177027
 31
0.0
  0
LINE
  5
20B
330
79
100
AcDbEntity
  8
0
  6
Continuous
 62
     7
100
AcDbLine
 10
-48.02100482063614
 20
-36.26692065304549
 30
0.0
 11
-57.39048533564002
 21
-33.75637591555186
 31
0.0
  0
LINE
  5
20C
330
79
100
AcDbEntity
  8
0
  6
Continuous
 62
     7
100
AcDbLine
 10
-47.26834394988126
 20
-33.45795204251834
 30
0.0
 11
-56.63782446488514
 21
-30.94740730502472
 31
0.0
  0
LINE
  5
20D
330
79
100
AcDbEntity
  8
0
  6
Continuous
 62
     7
100
AcDbLine
 10
-51.7424280381727
 20
-9.58657647320998
 30
0.0
 11
-50.76263214105916
 21
-9.02089104826057
 31
0.0
  0
LINE
  5
20E
330
79
100
AcDbEntity
  8
0
  6
Continuous
 62
     7
100
AcDbLine
 10
-54.82609114916804
 20
-24.18592652100109
 30
0.0
 11
-56.63782446488514
 21
-30.94740730502472
 31
0.0
  0
LINE
  5
20F
330
79
100
AcDbEntity
  8
0
  6
Continuous
 62
     7
100
AcDbLine
 10
-55.59883181019958
 20
-23.97887128491906
 30
0.0
 11
-54.82609114916804
 21
-24.18592652100109
 31
0.0
  0
LINE
  5
210
330
79
100
AcDbEntity
  8
0
  6
Continuous
 62
     7
100
AcDbLine
 10
-56.63782446488514
 20
-30.94740730502472
 30
0.0
 11
-57.41056512591669
 21
-30.74035206894268
 31
0.0
  0
LINE
  5
211
330
79
100
AcDbEntity
  8
0
  6
Continuous
 62
     7
100
AcDbLine
 10
-57.41056512591669
 20
-30.74035206894268
 30
0.0
 11
-55.59883181019958
 21
-23.97887128491906
 31
0.0
  0
LINE
  5
212
330
79
100
AcDbEntity
  8
0
  6
Continuous
 62
     7
100
AcDbLine
 10
-59.6268624416372
 20
-39.01168625589273
 30
0.0
 11
-58.05785536534359
 21
-33.156072129728
 31
0.0
  0
LINE
  5
213
330
79
100
AcDbEntity
  8
0
  6
Continuous
 62
     7
100
AcDbLine
 10
-54.95154157077269
 20
-21.56315122413371
 30
0.0
 11
-53.38253449447905
 21
-15.70753709796892
 31
0.0
  0
LINE
  5
214
330
79
100
AcDbEntity
  8
0
  6
Continuous
 62
     7
100
AcDbLine
 10
-52.90868515197516
 20
-13.93910727661077
 30
0.0
 11
-52.00281849411661
 21
-10.55836688459895
 31
0.0
  0
LINE
  5
215
330
79
100
AcDbEntity
  8
0
  6
Continuous
 62
     7
100
AcDbLine
 10
-51.82937759719363
 20
-9.91107664517187
 30
0.0
 11
-51.09505162796856
 21
-10.10783869560687
 31
0.0
  0
LINE
  5
216
330
79
100
AcDbEntity
  8
0
  6
Continuous
 62
     7
100
AcDbLine
 10
-51.04757054599938
 20
-10.08429565252542
 30
0.0
 11
-51.95343720385793
 21
-13.46503604453723
 31
0.0
  0
LINE
  5
217
330
79
100
AcDbEntity
  8
0
  6
Continuous
 62
     7
100
AcDbLine
 10
-57.39048533564002
 20
-33.75637591555186
 30
0.0
 11
-58.95949241193364
 21
-39.61199004171657
 31
0.0
  0
LINE
  5
218
330
79
100
AcDbEntity
  8
0
  6
Continuous
 62
     3
100
AcDbLine
 10
-55.12316843018451
 20
-8.68070981535143
 30
0.0
 11
-64.64770928995534
 21
-44.22678022279317
 31
0.0
  0
LINE
  5
219
330
79
100
AcDbEntity
  8
0
  6
Continuous
 62
     7
100
AcDbLine
 10
-51.82937759719363
 20
-9.91107664517187
 30
0.0
 11
-51.7424280381727
 21
-9.58657647320998
 31
0.0
  0
LINE
  5
21A
330
79
100
AcDbEntity
  8
0
  6
Continuous
 62
     7
100
AcDbLine
 10
-55.12316843018451
 20
-8.68070981535143
 30
0.0
 11
-51.7424280381727
 21
-9.58657647320998
 31
0.0
  0
LINE
  5
21B
330
79
100
AcDbEntity
  8
0
  6
Continuous
 62
     7
100
AcDbLine
 10
-56.34791330157611
 20
-9.38781659653826
 30
0.0
 11
-65.35481607114195
 21
-43.00203535140145
 31
0.0
  0
ARC
  5
21C
330
79
100
AcDbEntity
  8
0
  6
Continuous
 62
     7
100
AcDbCircle
 10
-64.38889024485297
 20
-43.26085439650387
 30
0.0
 40
0.9999999999998894
100
AcDbArc
 50
165.0000000000043
 51
255.0000000000116
  0
ARC
  5
21D
330
79
100
AcDbEntity
  8
0
  6
Continuous
 62
     7
100
AcDbCircle
 10
-50.96530861514148
 20
-49.18706365963992
 30
0.0
 40
0.5000000000001158
100
AcDbArc
 50
165.0000000000065
 51
254.999999999989
  0
ARC
  5
21E
330
79
100
AcDbEntity
  8
0
  6
Continuous
 62
     7
100
AcDbCircle
 10
-40.7937201426146
 20
-11.22617868647565
 30
0.0
 40
0.5000000000000092
100
AcDbArc
 50
75.00000000001677
 51
165.0000000000046
  0
ARC
  5
21F
330
79
100
AcDbEntity
  8
0
  6
Continuous
 62
     7
100
AcDbCircle
 10
-55.38198747528713
 20
-9.64663564164069
 30
0.0
 40
1.000000000000208
100
AcDbArc
 50
74.99999999999736
 51
165.0000000000042
  0
SPLINE
  5
220
330
79
100
AcDbEntity
  8
0
  6
Continuous
 62
     7
100
AcDbSpline
210
0.0
220
0.0
230
1.0
 70
     8
 71
     3
 72
    11
 73
     7
 74
     5
 42
0.000000001
 43
0.0000000001
 44
0.00000001
 40
0.0
 40
0.0
 40
0.0
 40
0.0
 40
0.2257350453692338
 40
0.4488690967298028
 40
0.6744398470785575
 40
0.8976343441809673
 40
0.8976343441809673
 40
0.8976343441809673
 40
0.8976343441809673
 10
-54.07343027841318
 20
-21.37695791047403
 30
0.0
 10
-54.14704282572733
 20
-21.39254653462142
 30
0.0
 10
-54.29341972909081
 20
-21.42354418024435
 30
0.0
 10
-54.5133466923094
 20
-21.4701611648122
 30
0.0
 10
-54.73243906704273
 20
-21.51663153153183
 30
0.0
 10
-54.87876567484619
 20
-21.54769949095257
 30
0.0
 10
-54.95154157077269
 20
-21.56315122413371
 30
0.0
 11
-54.07343027841318
 21
-21.37695791047403
 31
0.0
 11
-54.29426641974555
 21
-21.42373086622374
 31
0.0
 11
-54.51255110040441
 21
-21.46999751800365
 31
0.0
 11
-54.7332122994396
 21
-21.51680348614864
 31
0.0
 11
-54.95154157077269
 21
-21.56315122413371
 31
0.0
  0
SPLINE
  5
221
330
79
100
AcDbEntity
  8
0
  6
Continuous
 62
     7
100
AcDbSpline
210
0.0
220
0.0
230
1.0
 70
     8
 71
     3
 72
    11
 73
     7
 74
     5
 42
0.000000001
 43
0.0000000001
 44
0.00000001
 40
0.0
 40
0.0
 40
0.0
 40
0.0
 40
0.2255797515741496
 40
0.4488690967297629
 40
0.6744126663341146
 40
0.8976343441809537
 40
0.8976343441809537
 40
0.8976343441809537
 40
0.8976343441809537
 10
-52.50442320211954
 20
-15.52134378430925
 30
0.0
 10
-52.57798510827242
 20
-15.53692168248496
 30
0.0
 10
-52.72436201240141
 20
-15.56791932449044
 30
0.0
 10
-52.94428011466013
 20
-15.61453441919239
 30
0.0
 10
-53.16342312781892
 20
-15.66101552479006
 30
0.0
 10
-53.30974973578454
 20
-15.6920834834476
 30
0.0
 10
-53.38253449447905
 20
-15.70753709796892
 30
0.0
 11
-52.50442320211954
 21
-15.52134378430925
 31
0.0
 11
-52.72510742223538
 21
-15.56808455144468
 31
0.0
 11
-52.94354402411076
 21
-15.61438339183883
 31
0.0
 11
-53.16417863443829
 21
-15.66118371786575
 31
0.0
 11
-53.38253449447905
 21
-15.70753709796892
 31
0.0
  0
SPLINE
  5
222
330
79
100
AcDbEntity
  8
0
  6
Continuous
 62
     7
100
AcDbSpline
210
0.0
220
0.0
230
1.0
 70
     8
 71
     3
 72
    11
 73
     7
 74
     5
 42
0.000000001
 43
0.0000000001
 44
0.00000001
 40
0.0
 40
0.0
 40
0.0
 40
0.0
 40
0.2232179694158517
 40
0.448765247451246
 40
0.6720534812135104
 40
0.897634344181013
 40
0.897634344181013
 40
0.897634344181013
 40
0.897634344181013
 10
-59.6268624416372
 20
-39.01168625589273
 30
0.0
 10
-59.57155671771528
 20
-39.06146103110016
 30
0.0
 10
-59.4603681373639
 20
-39.16152997659933
 30
0.0
 10
-59.2938255493026
 20
-39.3113550538539
 30
0.0
 10
-59.12667751429396
 20
-39.46168478787237
 30
0.0
 10
-59.015410217812
 20
-39.56171798539141
 30
0.0
 10
-58.95949241193364
 20
-39.61199004171657
 30
0.0
 11
-59.6268624416372
 21
-39.01168625589273
 31
0.0
 11
-59.46094016657655
 21
-39.16100491015001
 31
0.0
 11
-59.29326239534399
 21
-39.31185496704225
 31
0.0
 11
-59.12724099561025
 21
-39.46116849679694
 31
0.0
 11
-58.95949241193364
 21
-39.61199004171657
 31
0.0
  0
SPLINE
  5
223
330
79
100
AcDbEntity
  8
0
  6
Continuous
 62
     7
100
AcDbSpline
210
0.0
220
0.0
230
1.0
 70
     8
 71
     3
 72
    11
 73
     7
 74
     5
 42
0.000000001
 43
0.0000000001
 44
0.00000001
 40
0.0
 40
0.0
 40
0.0
 40
0.0
 40
0.2651495747987818
 40
0.5331932871598597
 40
0.7984811810110276
 40
1.066415597480044
 40
1.066415597480044
 40
1.066415597480044
 40
1.066415597480044
 10
-60.10071178414108
 20
-40.78011607725095
 30
0.0
 10
-60.05181826727211
 20
-40.85374360350252
 30
0.0
 10
-59.95349754273648
 20
-41.00180230044541
 30
0.0
 10
-59.80620174172137
 20
-41.22348970055465
 30
0.0
 10
-59.65835609409238
 20
-41.44592626542268
 30
0.0
 10
-59.55993380756686
 20
-41.59392908659328
 30
0.0
 10
-59.51047841019525
 20
-41.66829778148858
 30
0.0
 11
-60.10071178414108
 21
-40.78011607725095
 31
0.0
 11
-59.95402197415236
 21
-41.0009925057398
 31
0.0
 11
-59.80568731037499
 21
-41.22425078500272
 31
0.0
 11
-59.65883582660697
 21
-41.44518586220893
 31
0.0
 11
-59.51047841019525
 21
-41.66829778148858
 31
0.0
  0
SPLINE
  5
224
330
79
100
AcDbEntity
  8
0
  6
Continuous
 62
     7
100
AcDbSpline
210
0.0
220
0.0
230
1.0
 70
     8
 71
     3
 72
    11
 73
     7
 74
     5
 42
0.000000001
 43
0.0000000001
 44
0.00000001
 40
0.0
 40
0.0
 40
0.0
 40
0.0
 40
0.2839714124429106
 40
0.570742935368769
 40
0.8546478952705999
 40
1.141485710262905
 40
1.141485710262905
 40
1.141485710262905
 40
1.141485710262905
 10
-61.18001933892265
 20
-44.80814670868986
 30
0.0
 10
-61.13344320965005
 20
-44.89055203572554
 30
0.0
 10
-61.03983167238331
 20
-45.05617524312957
 30
0.0
 10
-60.89959171332571
 20
-45.3041487682511
 30
0.0
 10
-60.75884069929008
 20
-45.55293094651594
 30
0.0
 10
-60.66512072961843
 20
-45.71849275866055
 30
0.0
 10
-60.61801994054707
 20
-45.80169904425551
 30
0.0
 11
-61.18001933892265
 21
-44.80814670868986
 31
0.0
 11
-61.04028050106901
 21
-45.05535678186796
 31
0.0
 11
-60.89911450466698
 21
-45.30497662847915
 31
0.0
 11
-60.75931240974091
 21
-45.55207458580016
 31
0.0
 11
-60.61801994054707
 21
-45.80169904425551
 31
0.0
  0
SPLINE
  5
225
330
79
100
AcDbEntity
  8
0
  6
Continuous
 62
     7
100
AcDbSpline
210
0.0
220
0.0
230
1.0
 70
     8
 71
     3
 72
    11
 73
     7
 74
     5
 42
0.000000001
 43
0.0000000001
 44
0.00000001
 40
0.0
 40
0.0
 40
0.0
 40
0.0
 40
0.2653179004677877
 40
0.533193287159871
 40
0.7984354947490574
 40
1.066415597480046
 40
1.066415597480046
 40
1.066415597480046
 40
1.066415597480046
 10
-61.00657844199964
 20
-44.16085646926275
 30
0.0
 10
-60.95765388359153
 20
-44.23453073514441
 30
0.0
 10
-60.85933315438493
 20
-44.38258942898653
 30
0.0
 10
-60.71204576835715
 20
-44.60426413645037
 30
0.0
 10
-60.56423118313133
 20
-44.82665397555137
 30
0.0
 10
-60.4658088976705
 20
-44.97465679743023
 30
0.0
 10
-60.4163450680538
 20
-45.04903817350039
 30
0.0
 11
-61.00657844199964
 21
-44.16085646926275
 31
0.0
 11
-60.85979549468329
 21
-44.38187310819815
 31
0.0
 11
-60.71155396823355
 21
-44.60499117701454
 31
0.0
 11
-60.56472777784165
 21
-44.8258882084631
 31
0.0
 11
-60.4163450680538
 21
-45.04903817350039
 31
0.0
  0
SPLINE
  5
226
330
79
100
AcDbEntity
  8
0
  6
Continuous
 62
     7
100
AcDbSpline
210
0.0
220
0.0
230
1.0
 70
     8
 71
     3
 72
    11
 73
     7
 74
     5
 42
0.000000001
 43
0.0000000001
 44
0.00000001
 40
0.0
 40
0.0
 40
0.0
 40
0.0
 40
0.2866987054016992
 40
0.5707427748941241
 40
0.8577732734533372
 40
1.141485710262906
 40
1.141485710262906
 40
1.141485710262906
 40
1.141485710262906
 10
-50.84589567350611
 20
-9.33163478177027
 30
0.0
 10
-50.92824933823212
 20
-9.38011961716241
 30
0.0
 10
-51.09219412091518
 20
-9.476640364085593
 30
0.0
 10
-51.33855355046845
 20
-9.62176034605405
 30
0.0
 10
-51.58403161760594
 20
-9.766415300764596
 30
0.0
 10
-51.74791318626293
 20
-9.863043444668138
 30
0.0
 10
-51.82937759719363
 20
-9.911076645171875
 30
0.0
 11
-50.84589567350611
 21
-9.33163478177027
 31
0.0
 11
-51.09295090279947
 21
-9.477099077589774
 31
0.0
 11
-51.33769191478777
 21
-9.621261730401933
 31
0.0
 11
-51.58497828039579
 21
-9.766987364690095
 31
0.0
 11
-51.82937759719363
 21
-9.911076645171875
 31
0.0
  0
SPLINE
  5
227
330
79
100
AcDbEntity
  8
0
  6
Continuous
 62
     7
100
AcDbSpline
210
0.0
220
0.0
230
1.0
 70
     8
 71
     3
 72
    11
 73
     7
 74
     5
 42
0.000000001
 43
0.0000000001
 44
0.00000001
 40
0.0
 40
0.0
 40
0.0
 40
0.0
 40
0.2650026194977184
 40
0.5331932871598426
 40
0.7984517946445977
 40
1.066415597480039
 40
1.066415597480039
 40
1.066415597480039
 40
1.066415597480039
 10
-52.00281849411661
 20
-10.55836688459895
 30
0.0
 10
-51.92370557589241
 20
-10.51907212331726
 30
0.0
 10
-51.76452798444297
 20
-10.44000988837731
 30
0.0
 10
-51.52613115870956
 20
-10.32167521207073
 30
0.0
 10
-51.28683091006523
 20
-10.20294054551338
 30
0.0
 10
-51.12759329945262
 20
-10.12397748499886
 30
0.0
 10
-51.04757054599938
 20
-10.08429565252542
 30
0.0
 11
-52.00281849411661
 21
-10.55836688459895
 31
0.0
 11
-51.76547480162228
 21
-10.44049254483685
 31
0.0
 11
-51.52525245122121
 21
-10.32124718186655
 31
0.0
 11
-51.28763412257682
 21
-10.20335059291555
 31
0.0
 11
-51.04757054599938
 21
-10.08429565252542
 31
0.0
  0
SPLINE
  5
228
330
79
100
AcDbEntity
  8
0
  6
Continuous
 62
     7
100
AcDbSpline
210
0.0
220
0.0
230
1.0
 70
     8
 71
     3
 72
    11
 73
     7
 74
     5
 42
0.000000001
 43
0.0000000001
 44
0.00000001
 40
0.0
 40
0.0
 40
0.0
 40
0.0
 40
0.2232182509283919
 40
0.4487652474512106
 40
0.6718805072453495
 40
0.8976343441810386
 40
0.8976343441810386
 40
0.8976343441810386
 40
0.8976343441810386
 10
-58.05785536534359
 20
-33.156072129728
 30
0.0
 10
-58.00254957168494
 20
-33.20584696772292
 30
0.0
 10
-57.89136099135868
 20
-33.30591591324995
 30
0.0
 10
-57.72486126799641
 20
-33.45570242807027
 30
0.0
 10
-57.55771331128561
 20
-33.60603210881799
 30
0.0
 10
-57.44644601755125
 20
-33.70606530939405
 30
0.0
 10
-57.39048533564002
 20
-33.75637591555186
 30
0.0
 11
-58.05785536534359
 21
-33.156072129728
 31
0.0
 11
-57.89193288101401
 21
-33.30539097228247
 31
0.0
 11
-57.72425531905034
 21
-33.45624084087744
 31
0.0
 11
-57.55836253926083
 21
-33.60543871206666
 31
0.0
 11
-57.39048533564002
 21
-33.75637591555186
 31
0.0
  0
SPLINE
  5
229
330
79
100
AcDbEntity
  8
0
  6
Continuous
 62
     7
100
AcDbSpline
210
0.0
220
0.0
230
1.0
 70
     8
 71
     3
 72
    11
 73
     7
 74
     5
 42
0.000000001
 43
0.0000000001
 44
0.00000001
 40
0.0
 40
0.0
 40
0.0
 40
0.0
 40
0.2678832079393813
 40
0.5332223103201816
 40
0.8014521220036201
 40
1.066415597480038
 40
1.066415597480038
 40
1.066415597480038
 40
1.066415597480038
 10
-51.95343720385793
 20
-13.46503604453723
 30
0.0
 10
-52.0334358895627
 20
-13.50470594093664
 30
0.0
 10
-52.19267350121464
 20
-13.58366899935442
 30
0.0
 10
-52.43198544146649
 20
-13.70240945874217
 30
0.0
 10
-52.67040632906935
 20
-13.82075608297123
 30
0.0
 10
-52.8295839199485
 20
-13.89981831905901
 30
0.0
 10
-52.90868515197516
 20
-13.93910727661077
 30
0.0
 11
-51.95343720385793
 21
-13.46503604453723
 31
0.0
 11
-52.1934285802955
 21
-13.58405517044526
 31
0.0
 11
-52.43111910907976
 21
-13.70198757387836
 31
0.0
 11
-52.67137651966436
 21
-13.82125034483389
 31
0.0
 11
-52.90868515197516
 21
-13.93910727661077
 31
0.0
  0
ENDBLK
  5
7B
330
79
100
AcDbEntity
  8
0
100
AcDbBlockEnd
  0
BLOCK
  5
7D
330
7C
100
AcDbEntity
  8
0
100
AcDbBlockBegin
  2
Dichtstopfen
 70
     0
 10
-96.67356274095019
 20
-77.31534491518755
 30
0.0
  3
Dichtstopfen
  1

  0
LINE
  5
22A
330
7C
100
AcDbEntity
  8
0
  6
Continuous
 62
     7
100
AcDbLine
 10
-104.9571813416631
 20
-74.42282648345325
 30
0.0
 11
-90.4682939473268
 21
-78.30511215998992
 31
0.0
  0
LINE
  5
22B
330
7C
100
AcDbEntity
  8
0
  6
Continuous
 62
     7
100
AcDbLine
 10
-105.9369061083278
 20
-74.16031002342078
 30
0.0
 11
-104.9571813416631
 21
-74.42282648345325
 31
0.0
  0
LINE
  5
22C
330
7C
100
AcDbEntity
  8
0
  6
Continuous
 62
     7
100
AcDbLine
 10
-90.4682939473268
 20
-78.30511215998992
 30
0.0
 11
-89.48856918066224
 21
-78.56762862002238
 31
0.0
  0
LINE
  5
22D
330
7C
100
AcDbEntity
  8
0
  6
Continuous
 62
     7
100
AcDbLine
 10
-106.8890329942413
 20
-73.90518839324837
 30
0.0
 11
-105.9369061083278
 21
-74.16031002342078
 31
0.0
  0
LINE
  5
22E
330
7C
100
AcDbEntity
  8
0
  6
Continuous
 62
     7
100
AcDbLine
 10
-86.45809248765906
 20
-80.72550143712672
 30
0.0
 11
-86.12162772902587
 21
-79.46979786295093
 31
0.0
  0
LINE
  5
22F
330
7C
100
AcDbEntity
  8
0
  6
Continuous
 62
     7
100
AcDbLine
 10
-89.48856918066224
 20
-78.56762862002238
 30
0.0
 11
-86.12162772902587
 21
-79.46979786295093
 31
0.0
  0
LINE
  5
230
330
7C
100
AcDbEntity
  8
0
  6
Continuous
 62
     7
100
AcDbLine
 10
-107.2254977528745
 20
-75.16089196742418
 30
0.0
 11
-106.8890329942413
 21
-73.90518839324837
 31
0.0
  0
LINE
  5
231
330
7C
100
AcDbEntity
  8
0
  6
Continuous
 62
     7
100
AcDbLine
 10
-107.2254977528745
 20
-75.16089196742418
 30
0.0
 11
-86.45809248765906
 21
-80.72550143712672
 31
0.0
  0
ENDBLK
  5
7E
330
7C
100
AcDbEntity
  8
0
100
AcDbBlockEnd
  0
BLOCK
  5
109
330
101
100
AcDbEntity
  8
0
100
AcDbBlockBegin
  2
*D16
 70
     1
 10
0.0
 20
0.0
 30
0.0
  3
*D16
  1

  0
LINE
  5
102
330
101
100
AcDbEntity
  8
1
  6
Continuous
 62
     4
100
AcDbLine
 10
0.0
 20
-305.115125217022
 30
0.0
 11
168.6209309999999
 21
-305.115125217022
 31
0.0
  0
LINE
  5
103
330
101
100
AcDbEntity
  8
1
  6
Continuous
 62
     4
100
AcDbLine
 10
168.6209309999999
 20
-200.091589
 30
0.0
 11
168.6209309999999
 21
-307.115125217022
 31
0.0
  0
LINE
  5
104
330
101
100
AcDbEntity
  8
1
  6
Continuous
 62
     4
100
AcDbLine
 10
0.0
 20
-289.591589
 30
0.0
 11
0.0
 21
-307.115125217022
 31
0.0
  0
SOLID
  5
105
330
101
100
AcDbEntity
  8
1
 62
     4
100
AcDbTrace
 10
7.0
 20
-304.1935577339103
 30
0.0
 11
7.0
 21
-306.0366927001338
 31
0.0
 12
0.0
 22
-305.115125217022
 32
0.0
 13
0.0
 23
-305.115125217022
 33
0.0
  0
SOLID
  5
106
330
101
100
AcDbEntity
  8
1
 62
     4
100
AcDbTrace
 10
161.6209309999999
 20
-306.0366927001338
 30
0.0
 11
161.6209309999999
 21
-304.1935577339103
 31
0.0
 12
168.6209309999999
 22
-305.115125217022
 32
0.0
 13
168.6209309999999
 23
-305.115125217022
 33
0.0
  0
MTEXT
  5
108
330
101
100
AcDbEntity
  8
1
 62
     1
100
AcDbMText
 10
52.1776574364246
 20
-303.115125217022
 30
0.0
 40
7.0
 41
0.0
 71
     7
 72
     1
  1
\C1;100\C1;-250
  7
CONVERTER_11
 11
0.9999999999970619
 21
2.424068405545306E-6
 31
0.0
 73
     1
 44
0.60024009603842
  0
ENDBLK
  5
10A
330
101
100
AcDbEntity
  8
0
100
AcDbBlockEnd
  0
BLOCK
  5
114
330
10D
100
AcDbEntity
  8
0
100
AcDbBlockBegin
  2
*D17
 70
     1
 10
0.0
 20
0.0
 30
0.0
  3
*D17
  1

  0
LINE
  5
10E
330
10D
100
AcDbEntity
  8
1
  6
Continuous
 62
     4
100
AcDbLine
 10
197.866295015427
 20
-185.341589
 30
0.0
 11
197.866295015427
 21
-8.50000000000001
 31
0.0
  0
LINE
  5
10F
330
10D
100
AcDbEntity
  8
1
  6
Continuous
 62
     4
100
AcDbLine
 10
31.4654992945882
 20
-8.50000000000001
 30
0.0
 11
199.866295015427
 21
-8.50000000000001
 31
0.0
  0
LINE
  5
110
330
10D
100
AcDbEntity
  8
1
  6
Continuous
 62
     4
100
AcDbLine
 10
168.6209309999999
 20
-185.341589
 30
0.0
 11
199.866295015427
 21
-185.341589
 31
0.0
  0
SOLID
  5
111
330
10D
100
AcDbEntity
  8
1
 62
     4
100
AcDbTrace
 10
196.9447275323152
 20
-178.341589
 30
0.0
 11
198.7878624985388
 21
-178.341589
 31
0.0
 12
197.866295015427
 22
-185.341589
 32
0.0
 13
197.866295015427
 23
-185.341589
 33
0.0
  0
SOLID
  5
112
330
10D
100
AcDbEntity
  8
1
 62
     4
100
AcDbTrace
 10
198.7878624985388
 20
-15.50000000000001
 30
0.0
 11
196.9447275323152
 21
-15.50000000000001
 31
0.0
 12
197.866295015427
 22
-8.50000000000001
 32
0.0
 13
197.866295015427
 23
-8.50000000000001
 33
0.0
  0
MTEXT
  5
113
330
10D
100
AcDbEntity
  8
1
 62
     1
100
AcDbMText
 10
195.866295015427
 20
-123.433357939089
 30
0.0
 40
7.0
 41
0.0
 71
     7
 72
     1
  1
\C1;82\C1;-177
  7
CONVERTER_11
 11
0.0
 21
1.0
 31
0.0
 73
     1
 44
0.60024009603842
  0
ENDBLK
  5
115
330
10D
100
AcDbEntity
  8
0
100
AcDbBlockEnd
  0
BLOCK
  5
120
330
118
100
AcDbEntity
  8
0
100
AcDbBlockBegin
  2
*D18
 70
     1
 10
0.0
 20
0.0
 30
0.0
  3
*D18
  1

  0
LINE
  5
119
330
118
100
AcDbEntity
  8
1
  6
Continuous
 62
     4
100
AcDbLine
 10
182.2210459582719
 20
-169.091589
 30
0.0
 11
182.2210459582719
 21
-138.6382391471771
 31
0.0
  0
LINE
  5
11A
330
118
100
AcDbEntity
  8
1
  6
Continuous
 62
     4
100
AcDbLine
 10
182.2210459582719
 20
-201.591589
 30
0.0
 11
182.2210459582719
 21
-169.091589
 31
0.0
  0
LINE
  5
11B
330
118
100
AcDbEntity
  8
1
  6
Continuous
 62
     4
100
AcDbLine
 10
168.6209309999999
 20
-169.091589
 30
0.0
 11
184.2210459582719
 21
-169.091589
 31
0.0
  0
LINE
  5
11C
330
118
100
AcDbEntity
  8
1
  6
Continuous
 62
     4
100
AcDbLine
 10
168.6209309999999
 20
-201.591589
 30
0.0
 11
184.2210459582719
 21
-201.591589
 31
0.0
  0
SOLID
  5
11D
330
118
100
AcDbEntity
  8
1
 62
     4
100
AcDbTrace
 10
183.1426134413837
 20
-176.091589
 30
0.0
 11
181.2994784751601
 21
-176.091589
 31
0.0
 12
182.2210459582719
 22
-169.091589
 32
0.0
 13
182.2210459582719
 23
-169.091589
 33
0.0
  0
SOLID
  5
11E
330
118
100
AcDbEntity
  8
1
 62
     4
100
AcDbTrace
 10
181.2994784751601
 20
-194.591589
 30
0.0
 11
183.1426134413837
 21
-194.591589
 31
0.0
 12
182.2210459582719
 22
-201.591589
 32
0.0
 13
182.2210459582719
 23
-201.591589
 33
0.0
  0
MTEXT
  5
11F
330
118
100
AcDbEntity
  8
1
 62
     1
100
AcDbMText
 10
180.2210459582719
 20
-160.6182391471771
 30
0.0
 40
7.0
 41
0.0
 71
     7
 72
     1
  1
\C1;DN\C1;32
  7
CONVERTER_11
 11
0.0
 21
1.0
 31
0.0
 73
     1
 44
0.60024009603842
  0
ENDBLK
  5
121
330
118
100
AcDbEntity
  8
0
100
AcDbBlockEnd
  0
BLOCK
  5
12B
330
124
100
AcDbEntity
  8
0
100
AcDbBlockBegin
  2
*D19
 70
     1
 10
0.0
 20
0.0
 30
0.0
  3
*D19
  1

  0
LINE
  5
125
330
124
100
AcDbEntity
  8
1
  6
Continuous
 62
     4
100
AcDbLine
 10
-23.99999957364082
 20
13.99999999999147
 30
0.0
 11
24.00000042635918
 21
13.99999999999147
 31
0.0
  0
LINE
  5
126
330
124
100
AcDbEntity
  8
1
  6
Continuous
 62
     4
100
AcDbLine
 10
-23.99999957364082
 20
3.99999999999147
 30
0.0
 11
-23.99999957364082
 21
15.99999999999147
 31
0.0
  0
LINE
  5
127
330
124
100
AcDbEntity
  8
1
  6
Continuous
 62
     4
100
AcDbLine
 10
24.00000042635918
 20
3.99999999999147
 30
0.0
 11
24.00000042635918
 21
15.99999999999147
 31
0.0
  0
SOLID
  5
128
330
124
100
AcDbEntity
  8
1
 62
     4
100
AcDbTrace
 10
17.00000042635918
 20
13.0784325168797
 30
0.0
 11
17.00000042635918
 21
14.92156748310324
 31
0.0
 12
24.00000042635918
 22
13.99999999999147
 32
0.0
 13
24.00000042635918
 23
13.99999999999147
 33
0.0
  0
SOLID
  5
129
330
124
100
AcDbEntity
  8
1
 62
     4
100
AcDbTrace
 10
-16.99999957364082
 20
14.92156748310324
 30
0.0
 11
-16.99999957364082
 21
13.0784325168797
 31
0.0
 12
-23.99999957364082
 22
13.99999999999147
 32
0.0
 13
-23.99999957364082
 23
13.99999999999147
 33
0.0
  0
MTEXT
  5
12A
330
124
100
AcDbEntity
  8
1
 62
     1
100
AcDbMText
 10
-11.58479363787992
 20
15.99999999999147
 30
0.0
 40
7.0
 41
0.0
 71
     7
 72
     1
  1
5/4"
  7
CONVERTER_11
 11
0.9999999999970619
 21
2.424068405545306E-6
 31
0.0
 73
     1
 44
0.60024009603842
  0
ENDBLK
  5
12C
330
124
100
AcDbEntity
  8
0
100
AcDbBlockEnd
  0
BLOCK
  5
136
330
12F
100
AcDbEntity
  8
0
100
AcDbBlockBegin
  2
*D20
 70
     1
 10
0.0
 20
0.0
 30
0.0
  3
*D20
  1

  0
LINE
  5
130
330
12F
100
AcDbEntity
  8
1
  6
Continuous
 62
     4
100
AcDbLine
 10
196.291295015427
 20
-283.5915890000001
 30
0.0
 11
196.291295015427
 21
-185.341589
 31
0.0
  0
LINE
  5
131
330
12F
100
AcDbEntity
  8
1
  6
Continuous
 62
     4
100
AcDbLine
 10
20.3321324614806
 20
-283.5915890000001
 30
0.0
 11
198.291295015427
 21
-283.5915890000001
 31
0.0
  0
LINE
  5
132
330
12F
100
AcDbEntity
  8
1
  6
Continuous
 62
     4
100
AcDbLine
 10
168.6209309999999
 20
-185.341589
 30
0.0
 11
198.291295015427
 21
-185.341589
 31
0.0
  0
SOLID
  5
133
330
12F
100
AcDbEntity
  8
1
 62
     4
100
AcDbTrace
 10
197.2128624985388
 20
-192.341589
 30
0.0
 11
195.3697275323152
 21
-192.341589
 31
0.0
 12
196.291295015427
 22
-185.341589
 32
0.0
 13
196.291295015427
 23
-185.341589
 33
0.0
  0
SOLID
  5
134
330
12F
100
AcDbEntity
  8
1
 62
     4
100
AcDbTrace
 10
195.3697275323152
 20
-276.5915890000001
 30
0.0
 11
197.2128624985388
 21
-276.5915890000001
 31
0.0
 12
196.291295015427
 22
-283.5915890000001
 32
0.0
 13
196.291295015427
 23
-283.5915890000001
 33
0.0
  0
MTEXT
  5
135
330
12F
100
AcDbEntity
  8
1
 62
     1
100
AcDbMText
 10
194.291295015427
 20
-238.860122437052
 30
0.0
 40
7.0
 41
0.0
 71
     7
 72
     1
  1
98
  7
CONVERTER_11
 11
0.0
 21
1.0
 31
0.0
 73
     1
 44
0.60024009603842
  0
ENDBLK
  5
137
330
12F
100
AcDbEntity
  8
0
100
AcDbBlockEnd
  0
BLOCK
  5
141
330
13A
100
AcDbEntity
  8
0
100
AcDbBlockBegin
  2
*D21
 70
     1
 10
0.0
 20
0.0
 30
0.0
  3
*D21
  1

  0
LINE
  5
13B
330
13A
100
AcDbEntity
  8
1
  6
Continuous
 62
     4
100
AcDbLine
 10
-46.1529173685173
 20
-283.5915890000001
 30
0.0
 11
-46.1529173685173
 21
-166.591589
 31
0.0
  0
LINE
  5
13C
330
13A
100
AcDbEntity
  8
1
  6
Continuous
 62
     4
100
AcDbLine
 10
-20.33213246148097
 20
-283.5915890000001
 30
0.0
 11
-48.1529173685173
 21
-283.5915890000001
 31
0.0
  0
LINE
  5
13D
330
13A
100
AcDbEntity
  8
1
  6
Continuous
 62
     4
100
AcDbLine
 10
-24.0
 20
-166.591589
 30
0.0
 11
-48.1529173685173
 21
-166.591589
 31
0.0
  0
SOLID
  5
13E
330
13A
100
AcDbEntity
  8
1
 62
     4
100
AcDbTrace
 10
-47.07448485162907
 20
-276.5915890000001
 30
0.0
 11
-45.23134988540553
 21
-276.5915890000001
 31
0.0
 12
-46.1529173685173
 22
-283.5915890000001
 32
0.0
 13
-46.1529173685173
 23
-283.5915890000001
 33
0.0
  0
SOLID
  5
13F
330
13A
100
AcDbEntity
  8
1
 62
     4
100
AcDbTrace
 10
-45.23134988540554
 20
-173.591589
 30
0.0
 11
-47.07448485162907
 21
-173.591589
 31
0.0
 12
-46.1529173685173
 22
-166.591589
 32
0.0
 13
-46.1529173685173
 23
-166.591589
 33
0.0
  0
MTEXT
  5
140
330
13A
100
AcDbEntity
  8
1
 62
     1
100
AcDbMText
 10
-48.1529173685173
 20
-223.528703101423
 30
0.0
 40
7.0
 41
0.0
 71
     7
 72
     1
  1
117
  7
CONVERTER_11
 11
0.0
 21
1.0
 31
0.0
 73
     1
 44
0.60024009603842
  0
ENDBLK
  5
142
330
13A
100
AcDbEntity
  8
0
100
AcDbBlockEnd
  0
BLOCK
  5
14E
330
145
100
AcDbEntity
  8
0
100
AcDbBlockBegin
  2
*D22
 70
     1
 10
0.0
 20
0.0
 30
0.0
  3
*D22
  1

  0
LINE
  5
146
330
145
100
AcDbEntity
  8
1
  6
Continuous
 62
     4
100
AcDbLine
 10
-124.3918480976856
 20
-88.94324490625849
 30
0.0
 11
-110.8688865296384
 21
-92.56671153769271
 31
0.0
  0
LINE
  5
147
330
145
100
AcDbEntity
  8
1
  6
Continuous
 62
     4
100
AcDbLine
 10
-110.8688865296384
 20
-92.56671153769271
 30
0.0
 11
-94.42054960197284
 21
-96.97403013429431
 31
0.0
  0
LINE
  5
148
330
145
100
AcDbEntity
  8
1
  6
Continuous
 62
     4
100
AcDbLine
 10
-94.42054960197284
 20
-96.97403013429431
 30
0.0
 11
-65.39951679612753
 21
-104.7501924381352
 31
0.0
  0
LINE
  5
149
330
145
100
AcDbEntity
  8
1
  6
Continuous
 62
     4
100
AcDbLine
 10
-105.9369061083278
 20
-74.16031002342078
 30
0.0
 11
-111.3865246198433
 21
-94.49856319027089
 31
0.0
  0
LINE
  5
14A
330
145
100
AcDbEntity
  8
1
  6
Continuous
 62
     4
100
AcDbLine
 10
-89.48856918066224
 20
-78.56762862002238
 30
0.0
 11
-94.93818769217772
 21
-98.90588178687248
 31
0.0
  0
SOLID
  5
14B
330
145
100
AcDbEntity
  8
1
 62
     4
100
AcDbTrace
 10
-117.8688865296384
 20
-91.64514405458152
 30
0.0
 11
-117.3918480976856
 21
-89.86481238936973
 31
0.0
 12
-110.8688865296384
 22
-92.56671153769271
 32
0.0
 13
-110.8688865296384
 23
-92.56671153769271
 33
0.0
  0
SOLID
  5
14C
330
145
100
AcDbEntity
  8
1
 62
     4
100
AcDbTrace
 10
-87.42054960197277
 20
-97.8955976174055
 30
0.0
 11
-87.89758803392566
 21
-99.67592928261729
 31
0.0
 12
-94.42054960197284
 22
-96.97403013429431
 32
0.0
 13
-94.42054960197284
 23
-96.97403013429431
 33
0.0
  0
MTEXT
  5
14D
330
145
100
AcDbEntity
  8
1
 62
     1
100
AcDbMText
 10
-83.13787682278641
 20
-97.92666083312085
 30
0.0
 40
7.0
 41
0.0
 71
     7
 72
     1
  1
3/4"
  7
CONVERTER_11
 11
0.9659258262890886
 21
-0.2588190451024447
 31
0.0
 73
     1
 44
0.60024009603842
  0
ENDBLK
  5
14F
330
145
100
AcDbEntity
  8
0
100
AcDbBlockEnd
  0
ENDSEC
  0
SECTION
  2
ENTITIES
  0
INSERT
  5
7F
330
1F
100
AcDbEntity
  8
0
100
AcDbBlockReference
  2
HL132_1_30_Flaschensifon
 10
37.73722345887069
 20
-142.0575626085153
 30
0.0
  0
INSERT
  5
80
330
1F
100
AcDbEntity
  8
1
100
AcDbBlockReference
  2
Holländermutter_R_5_4__1
 10
-0.00000000000003
 20
-156.9247597012301
 30
0.0
  0
INSERT
  5
81
330
1F
100
AcDbEntity
  8
1
100
AcDbBlockReference
  2
Holländermutter_R_5_4__2
 10
48.49999999999994
 20
-185.3415890000001
 30
0.0
  0
INSERT
  5
82
330
1F
100
AcDbEntity
  8
1
100
AcDbBlockReference
  2
Rosette
 10
146.9156319999999
 20
-185.341589
 30
0.0
  0
INSERT
  5
83
330
1F
100
AcDbEntity
  8
0
100
AcDbBlockReference
  2
Mutter5_4
 10
5768.243114470308
 20
8150.571115368805
 30
0.0
  0
INSERT
  5
84
330
1F
100
AcDbEntity
  8
0
100
AcDbBlockReference
  2
Holländermutter_1
 10
-52.06067460616923
 20
-29.41715015231507
 30
0.0
  0
INSERT
  5
85
330
1F
100
AcDbEntity
  8
0
100
AcDbBlockReference
  2
Dichtstopfen
 10
-96.67356274095019
 20
-77.31534491518755
 30
0.0
  0
ENDSEC
  0
SECTION
  2
OBJECTS
  0
DICTIONARY
  5
C
330
0
100
AcDbDictionary
281
     1
  3
ACAD_GROUP
350
D
  3
ACAD_LAYOUT
350
1A
  3
ACAD_MATERIAL
350
3B
  3
ACAD_MLEADERSTYLE
350
234
  3
ACAD_MLINESTYLE
350
17
  3
ACAD_PLOTSETTINGS
350
19
  3
ACAD_PLOTSTYLENAME
350
E
  3
ACAD_VISUALSTYLE
350
2A
  3
AcDbVariableDictionary
350
232
  0
DICTIONARY
  5
D
102
{ACAD_REACTORS
330
C
102
}
330
C
100
AcDbDictionary
281
     1
  0
DICTIONARY
  5
1A
102
{ACAD_REACTORS
330
C
102
}
330
C
100
AcDbDictionary
281
     1
  3
Layout1
350
1E
  3
Layout2
350
26
  3
Model
350
22
  0
DICTIONARY
  5
3B
102
{ACAD_REACTORS
330
C
102
}
330
C
100
AcDbDictionary
281
     1
  3
ByBlock
350
3D
  3
ByLayer
350
3C
  3
Global
350
3E
  0
DICTIONARY
  5
234
102
{ACAD_REACTORS
330
C
102
}
330
C
100
AcDbDictionary
281
     1
  0
DICTIONARY
  5
17
102
{ACAD_REACTORS
330
C
102
}
330
C
100
AcDbDictionary
281
     1
  3
Standard
350
18
  0
DICTIONARY
  5
19
102
{ACAD_REACTORS
330
C
102
}
330
C
100
AcDbDictionary
281
     1
  0
ACDBDICTIONARYWDFLT
  5
E
102
{ACAD_REACTORS
330
C
102
}
330
C
100
AcDbDictionary
281
     1
  3
Normal
350
F
100
AcDbDictionaryWithDefault
340
F
  0
DICTIONARY
  5
2A
102
{ACAD_REACTORS
330
C
102
}
330
C
100
AcDbDictionary
281
     1
  3
2dWireframe
350
2F
  3
3D Hidden
350
31
  3
3dWireframe
350
30
  3
Basic
350
32
  3
Brighten
350
36
  3
ColorChange
350
3A
  3
Conceptual
350
34
  3
Dim
350
35
  3
Facepattern
350
39
  3
Flat
350
2B
  3
FlatWithEdges
350
2C
  3
Gouraud
350
2D
  3
GouraudWithEdges
350
2E
  3
Linepattern
350
38
  3
Realistic
350
33
  3
Thicken
350
37
  0
DICTIONARY
  5
232
102
{ACAD_REACTORS
330
C
102
}
330
C
100
AcDbDictionary
281
     1
  3
DIMASSOC
350
235
  3
HIDETEXT
350
236
  0
LAYOUT
  5
1E
102
{ACAD_REACTORS
330
1A
102
}
330
1A
100
AcDbPlotSettings
  1

  2
none_device
  4

  6

 40
0.0
 41
0.0
 42
0.0
 43
0.0
 44
0.0
 45
0.0
 46
0.0
 47
0.0
 48
0.0
 49
0.0
140
0.0
141
0.0
142
1.0
143
1.0
 70
   688
 72
     0
 73
     0
 74
     5
  7

 75
    16
147
1.0
148
0.0
149
0.0
100
AcDbLayout
  1
Layout1
 70
     1
 71
     1
 10
0.0
 20
0.0
 11
12.0
 21
9.0
 12
0.0
 22
0.0
 32
0.0
 14
1.00000000000000E+20
 24
1.00000000000000E+20
 34
1.00000000000000E+20
 15
-1.00000000000000E+20
 25
-1.00000000000000E+20
 35
-1.00000000000000E+20
146
0.0
 13
0.0
 23
0.0
 33
0.0
 16
1.0
 26
0.0
 36
0.0
 17
0.0
 27
1.0
 37
0.0
 76
     0
330
1B
  0
LAYOUT
  5
26
102
{ACAD_REACTORS
330
1A
102
}
330
1A
100
AcDbPlotSettings
  1

  2
none_device
  4

  6

 40
0.0
 41
0.0
 42
0.0
 43
0.0
 44
0.0
 45
0.0
 46
0.0
 47
0.0
 48
0.0
 49
0.0
140
0.0
141
0.0
142
1.0
143
1.0
 70
   688
 72
     0
 73
     0
 74
     5
  7

 75
    16
147
1.0
148
0.0
149
0.0
100
AcDbLayout
  1
Layout2
 70
     1
 71
     2
 10
0.0
 20
0.0
 11
0.0
 21
0.0
 12
0.0
 22
0.0
 32
0.0
 14
0.0
 24
0.0
 34
0.0
 15
0.0
 25
0.0
 35
0.0
146
0.0
 13
0.0
 23
0.0
 33
0.0
 16
1.0
 26
0.0
 36
0.0
 17
0.0
 27
1.0
 37
0.0
 76
     0
330
23
  0
LAYOUT
  5
22
102
{ACAD_REACTORS
330
1A
102
}
330
1A
100
AcDbPlotSettings
  1

  2
none_device
  4

  6

 40
0.0
 41
0.0
 42
0.0
 43
0.0
 44
0.0
 45
0.0
 46
0.0
 47
0.0
 48
0.0
 49
0.0
140
0.0
141
0.0
142
1.0
143
1.0
 70
  1712
 72
     0
 73
     0
 74
     0
  7

 75
     0
147
1.0
148
0.0
149
0.0
100
AcDbLayout
  1
Model
 70
     1
 71
     0
 10
0.0
 20
0.0
 11
12.0
 21
9.0
 12
0.0
 22
0.0
 32
0.0
 14
-124.3918480976856
 24
-307.115125217022
 34
0.0
 15
199.866295015427
 25
22.99999999999147
 35
0.0
146
0.0
 13
0.0
 23
0.0
 33
0.0
 16
1.0
 26
0.0
 36
0.0
 17
0.0
 27
1.0
 37
0.0
 76
     0
330
1F
331
29
  0
MATERIAL
  5
3D
102
{ACAD_REACTORS
330
3B
102
}
102
{ACAD_XDICTIONARY
360
259
102
}
330
3B
100
AcDbMaterial
  1
ByBlock
  0
MATERIAL
  5
3C
102
{ACAD_REACTORS
330
3B
102
}
102
{ACAD_XDICTIONARY
360
257
102
}
330
3B
100
AcDbMaterial
  1
ByLayer
  0
MATERIAL
  5
3E
102
{ACAD_REACTORS
330
3B
102
}
102
{ACAD_XDICTIONARY
360
25B
102
}
330
3B
100
AcDbMaterial
  1
Global
  0
MLINESTYLE
  5
18
102
{ACAD_REACTORS
330
17
102
}
330
17
100
AcDbMlineStyle
  2
Standard
 70
     0
  3

 62
   256
 51
90.0
 52
90.0
 71
     2
 49
0.5
 62
   256
  6
BYLAYER
 49
-0.5
 62
   256
  6
BYLAYER
  0
ACDBPLACEHOLDER
  5
F
102
{ACAD_REACTORS
330
E
102
}
330
E
  0
VISUALSTYLE
  5
2F
102
{ACAD_REACTORS
330
2A
102
}
102
{ACAD_XDICTIONARY
360
23F
102
}
330
2A
100
AcDbVisualStyle
  2
2dWireframe
 70
     4
 71
     0
 72
     2
 73
     0
 90
        0
 40
-0.6
 41
-30.0
 62
     5
 63
     7
 74
     1
 91
        4
 64
     7
 65
   257
 75
     1
175
     1
 42
1.0
 92
        0
 66
   257
 43
1.0
 76
     1
 77
     6
 78
     2
 67
     7
 79
     5
170
     0
171
     0
290
     0
174
     0
 93
        1
 44
0.0
173
     0
291
     0
 45
0.0
1001
ACAD
1000
AcDbSavedByObjectVersion
1070
     0
  0
VISUALSTYLE
  5
31
102
{ACAD_REACTORS
330
2A
102
}
102
{ACAD_XDICTIONARY
360
243
102
}
330
2A
100
AcDbVisualStyle
  2
3D Hidden
 70
     6
 71
     1
 72
     2
 73
     2
 90
        0
 40
-0.6
 41
-30.0
 62
     5
 63
     7
 74
     2
 91
        2
 64
     7
 65
   257
 75
     2
175
     1
 42
40.0
 92
        0
 66
   257
 43
1.0
 76
     1
 77
     6
 78
     2
 67
     7
 79
     3
170
     0
171
     0
290
     0
174
     0
 93
        1
 44
0.0
173
     0
291
     0
 45
0.0
1001
ACAD
1000
AcDbSavedByObjectVersion
1070
     0
  0
VISUALSTYLE
  5
30
102
{ACAD_REACTORS
330
2A
102
}
102
{ACAD_XDICTIONARY
360
241
102
}
330
2A
100
AcDbVisualStyle
  2
3dWireframe
 70
     5
 71
     0
 72
     2
 73
     0
 90
        0
 40
-0.6
 41
-30.0
 62
     5
 63
     7
 74
     1
 91
        4
 64
     7
 65
   257
 75
     1
175
     1
 42
1.0
 92
        0
 66
   257
 43
1.0
 76
     1
 77
     6
 78
     2
 67
     7
 79
     5
170
     0
171
     0
290
     0
174
     0
 93
        1
 44
0.0
173
     0
291
     0
 45
0.0
1001
ACAD
1000
AcDbSavedByObjectVersion
1070
     0
  0
VISUALSTYLE
  5
32
102
{ACAD_REACTORS
330
2A
102
}
102
{ACAD_XDICTIONARY
360
245
102
}
330
2A
100
AcDbVisualStyle
  2
Basic
 70
     7
 71
     1
 72
     0
 73
     1
 90
        0
 40
-0.6
 41
-30.0
 62
     5
 63
     7
 74
     0
 91
        4
 64
     7
 65
   257
 75
     1
175
     1
 42
1.0
 92
        8
 66
     7
 43
1.0
 76
     1
 77
     6
 78
     2
 67
     7
 79
     5
170
     0
171
     0
290
     0
174
     0
 93
        1
 44
0.0
173
     0
291
     1
 45
0.0
1001
ACAD
1000
AcDbSavedByObjectVersion
1070
     0
  0
VISUALSTYLE
  5
36
102
{ACAD_REACTORS
330
2A
102
}
102
{ACAD_XDICTIONARY
360
24D
102
}
330
2A
100
AcDbVisualStyle
  2
Brighten
 70
    12
 71
     2
 72
     2
 73
     0
 90
        0
 40
-0.6
 41
-30.0
 62
     5
 63
     7
 74
     1
 91
        4
 64
     7
 65
   257
 75
     1
175
     1
 42
1.0
 92
        8
 66
     7
 43
1.0
 76
     1
 77
     6
 78
     2
 67
     7
 79
     5
170
     0
171
     0
290
     0
174
     0
 93
        1
 44
50.0
173
     0
291
     1
 45
0.0
1001
ACAD
1000
AcDbSavedByObjectVersion
1070
     0
  0
VISUALSTYLE
  5
3A
102
{ACAD_REACTORS
330
2A
102
}
102
{ACAD_XDICTIONARY
360
255
102
}
330
2A
100
AcDbVisualStyle
  2
ColorChange
 70
    16
 71
     2
 72
     2
 73
     3
 90
        0
 40
-0.6
 41
-30.0
 62
     5
 63
     8
 74
     1
 91
        4
 64
     7
 65
   257
 75
     1
175
     1
 42
1.0
 92
        8
 66
     8
 43
1.0
 76
     1
 77
     6
 78
     2
 67
     7
 79
     5
170
     0
171
     0
290
     0
174
     0
 93
        1
 44
0.0
173
     0
291
     1
 45
0.0
1001
ACAD
1000
AcDbSavedByObjectVersion
1070
     0
  0
VISUALSTYLE
  5
34
102
{ACAD_REACTORS
330
2A
102
}
102
{ACAD_XDICTIONARY
360
249
102
}
330
2A
100
AcDbVisualStyle
  2
Conceptual
 70
     9
 71
     3
 72
     2
 73
     0
 90
        0
 40
-0.6
 41
-30.0
 62
     5
 63
     7
 74
     2
 91
        2
 64
     7
 65
   257
 75
     1
175
     1
 42
40.0
 92
        8
 66
     7
 43
1.0
 76
     1
 77
     6
 78
     2
 67
     7
 79
     3
170
     0
171
     0
290
     0
174
     0
 93
        1
 44
0.0
173
     0
291
     0
 45
0.0
1001
ACAD
1000
AcDbSavedByObjectVersion
1070
     0
  0
VISUALSTYLE
  5
35
102
{ACAD_REACTORS
330
2A
102
}
102
{ACAD_XDICTIONARY
360
24B
102
}
330
2A
100
AcDbVisualStyle
  2
Dim
 70
    11
 71
     2
 72
     2
 73
     0
 90
        0
 40
-0.6
 41
-30.0
 62
     5
 63
     7
 74
     1
 91
        4
 64
     7
 65
   257
 75
     1
175
     1
 42
1.0
 92
        8
 66
     7
 43
1.0
 76
     1
 77
     6
 78
     2
 67
     7
 79
     5
170
     0
171
     0
290
     0
174
     0
 93
        1
 44
-50.0
173
     0
291
     1
 45
0.0
1001
ACAD
1000
AcDbSavedByObjectVersion
1070
     0
  0
VISUALSTYLE
  5
39
102
{ACAD_REACTORS
330
2A
102
}
102
{ACAD_XDICTIONARY
360
253
102
}
330
2A
100
AcDbVisualStyle
  2
Facepattern
 70
    15
 71
     2
 72
     2
 73
     0
 90
        0
 40
-0.6
 41
-30.0
 62
     5
 63
     7
 74
     1
 91
        4
 64
     7
 65
   257
 75
     1
175
     1
 42
1.0
 92
        8
 66
     7
 43
1.0
 76
     1
 77
     6
 78
     2
 67
     7
 79
     5
170
     0
171
     0
290
     0
174
     0
 93
        1
 44
0.0
173
     0
291
     1
 45
0.0
1001
ACAD
1000
AcDbSavedByObjectVersion
1070
     0
  0
VISUALSTYLE
  5
2B
102
{ACAD_REACTORS
330
2A
102
}
102
{ACAD_XDICTIONARY
360
237
102
}
330
2A
100
AcDbVisualStyle
  2
Flat
 70
     0
 71
     2
 72
     1
 73
     1
 90
        2
 40
-0.6
 41
30.0
 62
     5
 63
     7
 74
     0
 91
        4
 64
     7
 65
   257
 75
     1
175
     1
 42
1.0
 92
        8
 66
     7
 43
1.0
 76
     1
 77
     6
 78
     2
 67
     7
 79
     5
170
     0
171
     0
290
     0
174
     0
 93
       13
 44
0.0
173
     0
291
     1
 45
0.0
1001
ACAD
1000
AcDbSavedByObjectVersion
1070
     0
  0
VISUALSTYLE
  5
2C
102
{ACAD_REACTORS
330
2A
102
}
102
{ACAD_XDICTIONARY
360
239
102
}
330
2A
100
AcDbVisualStyle
  2
FlatWithEdges
 70
     1
 71
     2
 72
     1
 73
     1
 90
        2
 40
-0.6
 41
30.0
 62
     5
 63
     7
 74
     1
 91
        4
 64
     7
 65
   257
 75
     1
175
     1
 42
1.0
 92
        0
 66
   257
 43
1.0
 76
     1
 77
     6
 78
     2
 67
     7
 79
     5
170
     0
171
     0
290
     0
174
     0
 93
       13
 44
0.0
173
     0
291
     1
 45
0.0
1001
ACAD
1000
AcDbSavedByObjectVersion
1070
     0
  0
VISUALSTYLE
  5
2D
102
{ACAD_REACTORS
330
2A
102
}
102
{ACAD_XDICTIONARY
360
23B
102
}
330
2A
100
AcDbVisualStyle
  2
Gouraud
 70
     2
 71
     2
 72
     2
 73
     1
 90
        2
 40
-0.6
 41
30.0
 62
     5
 63
     7
 74
     0
 91
        4
 64
     7
 65
   257
 75
     1
175
     1
 42
1.0
 92
        0
 66
     7
 43
1.0
 76
     1
 77
     6
 78
     2
 67
     7
 79
     5
170
     0
171
     0
290
     0
174
     0
 93
       13
 44
0.0
173
     0
291
     1
 45
0.0
1001
ACAD
1000
AcDbSavedByObjectVersion
1070
     0
  0
VISUALSTYLE
  5
2E
102
{ACAD_REACTORS
330
2A
102
}
102
{ACAD_XDICTIONARY
360
23D
102
}
330
2A
100
AcDbVisualStyle
  2
GouraudWithEdges
 70
     3
 71
     2
 72
     2
 73
     1
 90
        2
 40
-0.6
 41
30.0
 62
     5
 63
     7
 74
     1
 91
        4
 64
     7
 65
   257
 75
     1
175
     1
 42
1.0
 92
        0
 66
   257
 43
1.0
 76
     1
 77
     6
 78
     2
 67
     7
 79
     5
170
     0
171
     0
290
     0
174
     0
 93
       13
 44
0.0
173
     0
291
     1
 45
0.0
1001
ACAD
1000
AcDbSavedByObjectVersion
1070
     0
  0
VISUALSTYLE
  5
38
102
{ACAD_REACTORS
330
2A
102
}
102
{ACAD_XDICTIONARY
360
251
102
}
330
2A
100
AcDbVisualStyle
  2
Linepattern
 70
    14
 71
     2
 72
     2
 73
     0
 90
        0
 40
-0.6
 41
-30.0
 62
     5
 63
     7
 74
     1
 91
        4
 64
     7
 65
   257
 75
     7
175
     7
 42
1.0
 92
        8
 66
     7
 43
1.0
 76
     1
 77
     6
 78
     2
 67
     7
 79
     5
170
     0
171
     0
290
     0
174
     0
 93
        1
 44
0.0
173
     0
291
     1
 45
0.0
1001
ACAD
1000
AcDbSavedByObjectVersion
1070
     0
  0
VISUALSTYLE
  5
33
102
{ACAD_REACTORS
330
2A
102
}
102
{ACAD_XDICTIONARY
360
247
102
}
330
2A
100
AcDbVisualStyle
  2
Realistic
 70
     8
 71
     2
 72
     2
 73
     0
 90
        0
 40
-0.6
 41
-30.0
 62
     5
 63
     7
 74
     1
 91
        0
 64
     7
 65
   257
 75
     1
175
     1
 42
1.0
 92
        8
 66
     8
 43
1.0
 76
     1
 77
     6
 78
     2
 67
     7
 79
     5
170
     0
171
     0
290
     0
174
     0
 93
       13
 44
0.0
173
     0
291
     0
 45
0.0
1001
ACAD
1000
AcDbSavedByObjectVersion
1070
     0
  0
VISUALSTYLE
  5
37
102
{ACAD_REACTORS
330
2A
102
}
102
{ACAD_XDICTIONARY
360
24F
102
}
330
2A
100
AcDbVisualStyle
  2
Thicken
 70
    13
 71
     2
 72
     2
 73
     0
 90
        0
 40
-0.6
 41
-30.0
 62
     5
 63
     7
 74
     1
 91
        4
 64
     7
 65
   257
 75
     1
175
     1
 42
1.0
 92
       12
 66
     7
 43
1.0
 76
     1
 77
     6
 78
     2
 67
     7
 79
     5
170
     0
171
     0
290
     0
174
     0
 93
        1
 44
0.0
173
     0
291
     1
 45
0.0
1001
ACAD
1000
AcDbSavedByObjectVersion
1070
     0
  0
DICTIONARYVAR
  5
235
102
{ACAD_REACTORS
330
232
102
}
330
232
100
DictionaryVariables
280
     0
  1
2
  0
DICTIONARYVAR
  5
236
102
{ACAD_REACTORS
330
232
102
}
330
232
100
DictionaryVariables
280
     0
  1
1
  0
DICTIONARY
  5
259
330
3D
100
AcDbDictionary
280
     1
281
     1
  3
ACAD_XREC_ROUNDTRIP
360
25A
  0
DICTIONARY
  5
257
330
3C
100
AcDbDictionary
280
     1
281
     1
  3
ACAD_XREC_ROUNDTRIP
360
258
  0
DICTIONARY
  5
25B
330
3E
100
AcDbDictionary
280
     1
281
     1
  3
ACAD_XREC_ROUNDTRIP
360
25C
  0
DICTIONARY
  5
23F
330
2F
100
AcDbDictionary
280
     1
281
     1
  3
ACAD_XREC_ROUNDTRIP
360
240
  0
DICTIONARY
  5
243
330
31
100
AcDbDictionary
280
     1
281
     1
  3
ACAD_XREC_ROUNDTRIP
360
244
  0
DICTIONARY
  5
241
330
30
100
AcDbDictionary
280
     1
281
     1
  3
ACAD_XREC_ROUNDTRIP
360
242
  0
DICTIONARY
  5
245
330
32
100
AcDbDictionary
280
     1
281
     1
  3
ACAD_XREC_ROUNDTRIP
360
246
  0
DICTIONARY
  5
24D
330
36
100
AcDbDictionary
280
     1
281
     1
  3
ACAD_XREC_ROUNDTRIP
360
24E
  0
DICTIONARY
  5
255
330
3A
100
AcDbDictionary
280
     1
281
     1
  3
ACAD_XREC_ROUNDTRIP
360
256
  0
DICTIONARY
  5
249
330
34
100
AcDbDictionary
280
     1
281
     1
  3
ACAD_XREC_ROUNDTRIP
360
24A
  0
DICTIONARY
  5
24B
330
35
100
AcDbDictionary
280
     1
281
     1
  3
ACAD_XREC_ROUNDTRIP
360
24C
  0
DICTIONARY
  5
253
330
39
100
AcDbDictionary
280
     1
281
     1
  3
ACAD_XREC_ROUNDTRIP
360
254
  0
DICTIONARY
  5
237
330
2B
100
AcDbDictionary
280
     1
281
     1
  3
ACAD_XREC_ROUNDTRIP
360
238
  0
DICTIONARY
  5
239
330
2C
100
AcDbDictionary
280
     1
281
     1
  3
ACAD_XREC_ROUNDTRIP
360
23A
  0
DICTIONARY
  5
23B
330
2D
100
AcDbDictionary
280
     1
281
     1
  3
ACAD_XREC_ROUNDTRIP
360
23C
  0
DICTIONARY
  5
23D
330
2E
100
AcDbDictionary
280
     1
281
     1
  3
ACAD_XREC_ROUNDTRIP
360
23E
  0
DICTIONARY
  5
251
330
38
100
AcDbDictionary
280
     1
281
     1
  3
ACAD_XREC_ROUNDTRIP
360
252
  0
DICTIONARY
  5
247
330
33
100
AcDbDictionary
280
     1
281
     1
  3
ACAD_XREC_ROUNDTRIP
360
248
  0
DICTIONARY
  5
24F
330
37
100
AcDbDictionary
280
     1
281
     1
  3
ACAD_XREC_ROUNDTRIP
360
250
  0
XRECORD
  5
25A
102
{ACAD_REACTORS
330
259
102
}
330
259
100
AcDbXrecord
280
     1
102
MATERIAL
148
0.0
149
0.0
149
0.0
 93
        0
 94
      127
282
     0
 72
     1
 77
     1
171
     1
175
     1
179
     1
273
     0
  0
XRECORD
  5
258
102
{ACAD_REACTORS
330
257
102
}
330
257
100
AcDbXrecord
280
     1
102
MATERIAL
148
0.0
149
0.0
149
0.0
 93
        0
 94
      127
282
     0
 72
     1
 77
     1
171
     1
175
     1
179
     1
273
     0
  0
XRECORD
  5
25C
102
{ACAD_REACTORS
330
25B
102
}
330
25B
100
AcDbXrecord
280
     1
102
MATERIAL
148
0.0
149
0.0
149
0.0
 93
        0
 94
      127
282
     0
 72
     1
 77
     1
171
     1
175
     1
179
     1
273
     0
  0
XRECORD
  5
240
102
{ACAD_REACTORS
330
23F
102
}
330
23F
100
AcDbXrecord
280
     1
102
RTVSPropertyOp0
 70
     1
102
RTVSPropertyOp1
 70
     1
102
RTVSPropertyOp2
 70
     1
102
RTVSPropertyOp3
 70
     1
102
RTVSPropertyOp4
 70
     1
102
RTVSPropertyOp5
 70
     1
102
RTVSPropertyOp6
 70
     1
102
RTVSPropertyOp7
 70
     1
102
RTVSPropertyOp8
 70
     1
102
RTVSPropertyOp9
 70
     1
102
RTVSPropertyOp10
 70
     1
102
RTVSPropertyOp11
 70
     1
102
RTVSPropertyOp12
 70
     1
102
RTVSPropertyOp13
 70
     1
102
RTVSPropertyOp14
 70
     1
102
RTVSPropertyOp15
 70
     1
102
RTVSPropertyOp16
 70
     1
102
RTVSPropertyOp17
 70
     1
102
RTVSPropertyOp18
 70
     1
102
RTVSPropertyOp19
 70
     1
102
RTVSPropertyOp20
 70
     1
102
RTVSPropertyOp21
 70
     1
102
RTVSPropertyOp22
 70
     1
102
RTVSPropertyOp23
 70
     1
102
RTVSPropertyOp24
 70
     1
102
RTVSPropertyOp25
 70
     1
102
RTVSPropertyOp26
 70
     1
102
RTVSPropertyOp27
 70
     1
102
RTVSPropertyOp28
 70
     1
102
RTVSPropertyOp29
 70
     1
102
RTVSPropertyOp30
 70
     1
102
RTVSPropertyOp31
 70
     1
102
RTVSPropertyOp32
 70
     1
  0
XRECORD
  5
244
102
{ACAD_REACTORS
330
243
102
}
330
243
100
AcDbXrecord
280
     1
102
RTVSPropertyOp0
 70
     1
102
RTVSPropertyOp1
 70
     1
102
RTVSPropertyOp2
 70
     1
102
RTVSPropertyOp3
 70
     1
102
RTVSPropertyOp4
 70
     1
102
RTVSPropertyOp5
 70
     1
102
RTVSPropertyOp6
 70
     1
102
RTVSPropertyOp7
 70
     1
102
RTVSPropertyOp8
 70
     1
102
RTVSPropertyOp9
 70
     1
102
RTVSPropertyOp10
 70
     1
102
RTVSPropertyOp11
 70
     1
102
RTVSPropertyOp12
 70
     1
102
RTVSPropertyOp13
 70
     1
102
RTVSPropertyOp14
 70
     1
102
RTVSPropertyOp15
 70
     1
102
RTVSPropertyOp16
 70
     1
102
RTVSPropertyOp17
 70
     1
102
RTVSPropertyOp18
 70
     1
102
RTVSPropertyOp19
 70
     1
102
RTVSPropertyOp20
 70
     1
102
RTVSPropertyOp21
 70
     1
102
RTVSPropertyOp22
 70
     1
102
RTVSPropertyOp23
 70
     1
102
RTVSPropertyOp24
 70
     1
102
RTVSPropertyOp25
 70
     1
102
RTVSPropertyOp26
 70
     1
102
RTVSPropertyOp27
 70
     1
102
RTVSPropertyOp28
 70
     1
102
RTVSPropertyOp29
 70
     1
102
RTVSPropertyOp30
 70
     1
102
RTVSPropertyOp31
 70
     1
102
RTVSPropertyOp32
 70
     1
  0
XRECORD
  5
242
102
{ACAD_REACTORS
330
241
102
}
330
241
100
AcDbXrecord
280
     1
102
RTVSPropertyOp0
 70
     1
102
RTVSPropertyOp1
 70
     1
102
RTVSPropertyOp2
 70
     1
102
RTVSPropertyOp3
 70
     1
102
RTVSPropertyOp4
 70
     1
102
RTVSPropertyOp5
 70
     1
102
RTVSPropertyOp6
 70
     1
102
RTVSPropertyOp7
 70
     1
102
RTVSPropertyOp8
 70
     1
102
RTVSPropertyOp9
 70
     1
102
RTVSPropertyOp10
 70
     1
102
RTVSPropertyOp11
 70
     1
102
RTVSPropertyOp12
 70
     1
102
RTVSPropertyOp13
 70
     1
102
RTVSPropertyOp14
 70
     1
102
RTVSPropertyOp15
 70
     1
102
RTVSPropertyOp16
 70
     1
102
RTVSPropertyOp17
 70
     1
102
RTVSPropertyOp18
 70
     1
102
RTVSPropertyOp19
 70
     1
102
RTVSPropertyOp20
 70
     1
102
RTVSPropertyOp21
 70
     1
102
RTVSPropertyOp22
 70
     1
102
RTVSPropertyOp23
 70
     1
102
RTVSPropertyOp24
 70
     1
102
RTVSPropertyOp25
 70
     1
102
RTVSPropertyOp26
 70
     1
102
RTVSPropertyOp27
 70
     1
102
RTVSPropertyOp28
 70
     1
102
RTVSPropertyOp29
 70
     1
102
RTVSPropertyOp30
 70
     1
102
RTVSPropertyOp31
 70
     1
102
RTVSPropertyOp32
 70
     1
  0
XRECORD
  5
246
102
{ACAD_REACTORS
330
245
102
}
330
245
100
AcDbXrecord
280
     1
102
RTVSPropertyOp0
 70
     1
102
RTVSPropertyOp1
 70
     1
102
RTVSPropertyOp2
 70
     1
102
RTVSPropertyOp3
 70
     1
102
RTVSPropertyOp4
 70
     1
102
RTVSPropertyOp5
 70
     1
102
RTVSPropertyOp6
 70
     1
102
RTVSPropertyOp7
 70
     1
102
RTVSPropertyOp8
 70
     1
102
RTVSPropertyOp9
 70
     1
102
RTVSPropertyOp10
 70
     1
102
RTVSPropertyOp11
 70
     1
102
RTVSPropertyOp12
 70
     1
102
RTVSPropertyOp13
 70
     1
102
RTVSPropertyOp14
 70
     1
102
RTVSPropertyOp15
 70
     1
102
RTVSPropertyOp16
 70
     1
102
RTVSPropertyOp17
 70
     1
102
RTVSPropertyOp18
 70
     1
102
RTVSPropertyOp19
 70
     1
102
RTVSPropertyOp20
 70
     1
102
RTVSPropertyOp21
 70
     1
102
RTVSPropertyOp22
 70
     1
102
RTVSPropertyOp23
 70
     1
102
RTVSPropertyOp24
 70
     1
102
RTVSPropertyOp25
 70
     1
102
RTVSPropertyOp26
 70
     1
102
RTVSPropertyOp27
 70
     1
102
RTVSPropertyOp28
 70
     1
102
RTVSPropertyOp29
 70
     1
102
RTVSPropertyOp30
 70
     1
102
RTVSPropertyOp31
 70
     1
102
RTVSPropertyOp32
 70
     1
  0
XRECORD
  5
24E
102
{ACAD_REACTORS
330
24D
102
}
330
24D
100
AcDbXrecord
280
     1
102
RTVSPropertyOp0
 70
     1
102
RTVSPropertyOp1
 70
     1
102
RTVSPropertyOp2
 70
     1
102
RTVSPropertyOp3
 70
     1
102
RTVSPropertyOp4
 70
     1
102
RTVSPropertyOp5
 70
     1
102
RTVSPropertyOp6
 70
     1
102
RTVSPropertyOp7
 70
     1
102
RTVSPropertyOp8
 70
     1
102
RTVSPropertyOp9
 70
     1
102
RTVSPropertyOp10
 70
     1
102
RTVSPropertyOp11
 70
     1
102
RTVSPropertyOp12
 70
     1
102
RTVSPropertyOp13
 70
     1
102
RTVSPropertyOp14
 70
     1
102
RTVSPropertyOp15
 70
     1
102
RTVSPropertyOp16
 70
     1
102
RTVSPropertyOp17
 70
     1
102
RTVSPropertyOp18
 70
     1
102
RTVSPropertyOp19
 70
     1
102
RTVSPropertyOp20
 70
     1
102
RTVSPropertyOp21
 70
     1
102
RTVSPropertyOp22
 70
     1
102
RTVSPropertyOp23
 70
     1
102
RTVSPropertyOp24
 70
     1
102
RTVSPropertyOp25
 70
     1
102
RTVSPropertyOp26
 70
     1
102
RTVSPropertyOp27
 70
     1
102
RTVSPropertyOp28
 70
     1
102
RTVSPropertyOp29
 70
     1
102
RTVSPropertyOp30
 70
     1
102
RTVSPropertyOp31
 70
     1
102
RTVSPropertyOp32
 70
     1
  0
XRECORD
  5
256
102
{ACAD_REACTORS
330
255
102
}
330
255
100
AcDbXrecord
280
     1
102
RTVSPropertyOp0
 70
     1
102
RTVSPropertyOp1
 70
     1
102
RTVSPropertyOp2
 70
     1
102
RTVSPropertyOp3
 70
     1
102
RTVSPropertyOp4
 70
     1
102
RTVSPropertyOp5
 70
     1
102
RTVSPropertyOp6
 70
     1
102
RTVSPropertyOp7
 70
     1
102
RTVSPropertyOp8
 70
     1
102
RTVSPropertyOp9
 70
     1
102
RTVSPropertyOp10
 70
     1
102
RTVSPropertyOp11
 70
     1
102
RTVSPropertyOp12
 70
     1
102
RTVSPropertyOp13
 70
     1
102
RTVSPropertyOp14
 70
     1
102
RTVSPropertyOp15
 70
     1
102
RTVSPropertyOp16
 70
     1
102
RTVSPropertyOp17
 70
     1
102
RTVSPropertyOp18
 70
     1
102
RTVSPropertyOp19
 70
     1
102
RTVSPropertyOp20
 70
     1
102
RTVSPropertyOp21
 70
     1
102
RTVSPropertyOp22
 70
     1
102
RTVSPropertyOp23
 70
     1
102
RTVSPropertyOp24
 70
     1
102
RTVSPropertyOp25
 70
     1
102
RTVSPropertyOp26
 70
     1
102
RTVSPropertyOp27
 70
     1
102
RTVSPropertyOp28
 70
     1
102
RTVSPropertyOp29
 70
     1
102
RTVSPropertyOp30
 70
     1
102
RTVSPropertyOp31
 70
     1
102
RTVSPropertyOp32
 70
     1
  0
XRECORD
  5
24A
102
{ACAD_REACTORS
330
249
102
}
330
249
100
AcDbXrecord
280
     1
102
RTVSPropertyOp0
 70
     1
102
RTVSPropertyOp1
 70
     1
102
RTVSPropertyOp2
 70
     1
102
RTVSPropertyOp3
 70
     1
102
RTVSPropertyOp4
 70
     1
102
RTVSPropertyOp5
 70
     1
102
RTVSPropertyOp6
 70
     1
102
RTVSPropertyOp7
 70
     1
102
RTVSPropertyOp8
 70
     1
102
RTVSPropertyOp9
 70
     1
102
RTVSPropertyOp10
 70
     1
102
RTVSPropertyOp11
 70
     1
102
RTVSPropertyOp12
 70
     1
102
RTVSPropertyOp13
 70
     1
102
RTVSPropertyOp14
 70
     1
102
RTVSPropertyOp15
 70
     1
102
RTVSPropertyOp16
 70
     1
102
RTVSPropertyOp17
 70
     1
102
RTVSPropertyOp18
 70
     1
102
RTVSPropertyOp19
 70
     1
102
RTVSPropertyOp20
 70
     1
102
RTVSPropertyOp21
 70
     1
102
RTVSPropertyOp22
 70
     1
102
RTVSPropertyOp23
 70
     1
102
RTVSPropertyOp24
 70
     1
102
RTVSPropertyOp25
 70
     1
102
RTVSPropertyOp26
 70
     1
102
RTVSPropertyOp27
 70
     1
102
RTVSPropertyOp28
 70
     1
102
RTVSPropertyOp29
 70
     1
102
RTVSPropertyOp30
 70
     1
102
RTVSPropertyOp31
 70
     1
102
RTVSPropertyOp32
 70
     1
  0
XRECORD
  5
24C
102
{ACAD_REACTORS
330
24B
102
}
330
24B
100
AcDbXrecord
280
     1
102
RTVSPropertyOp0
 70
     1
102
RTVSPropertyOp1
 70
     1
102
RTVSPropertyOp2
 70
     1
102
RTVSPropertyOp3
 70
     1
102
RTVSPropertyOp4
 70
     1
102
RTVSPropertyOp5
 70
     1
102
RTVSPropertyOp6
 70
     1
102
RTVSPropertyOp7
 70
     1
102
RTVSPropertyOp8
 70
     1
102
RTVSPropertyOp9
 70
     1
102
RTVSPropertyOp10
 70
     1
102
RTVSPropertyOp11
 70
     1
102
RTVSPropertyOp12
 70
     1
102
RTVSPropertyOp13
 70
     1
102
RTVSPropertyOp14
 70
     1
102
RTVSPropertyOp15
 70
     1
102
RTVSPropertyOp16
 70
     1
102
RTVSPropertyOp17
 70
     1
102
RTVSPropertyOp18
 70
     1
102
RTVSPropertyOp19
 70
     1
102
RTVSPropertyOp20
 70
     1
102
RTVSPropertyOp21
 70
     1
102
RTVSPropertyOp22
 70
     1
102
RTVSPropertyOp23
 70
     1
102
RTVSPropertyOp24
 70
     1
102
RTVSPropertyOp25
 70
     1
102
RTVSPropertyOp26
 70
     1
102
RTVSPropertyOp27
 70
     1
102
RTVSPropertyOp28
 70
     1
102
RTVSPropertyOp29
 70
     1
102
RTVSPropertyOp30
 70
     1
102
RTVSPropertyOp31
 70
     1
102
RTVSPropertyOp32
 70
     1
  0
XRECORD
  5
254
102
{ACAD_REACTORS
330
253
102
}
330
253
100
AcDbXrecord
280
     1
102
RTVSPropertyOp0
 70
     1
102
RTVSPropertyOp1
 70
     1
102
RTVSPropertyOp2
 70
     1
102
RTVSPropertyOp3
 70
     1
102
RTVSPropertyOp4
 70
     1
102
RTVSPropertyOp5
 70
     1
102
RTVSPropertyOp6
 70
     1
102
RTVSPropertyOp7
 70
     1
102
RTVSPropertyOp8
 70
     1
102
RTVSPropertyOp9
 70
     1
102
RTVSPropertyOp10
 70
     1
102
RTVSPropertyOp11
 70
     1
102
RTVSPropertyOp12
 70
     1
102
RTVSPropertyOp13
 70
     1
102
RTVSPropertyOp14
 70
     1
102
RTVSPropertyOp15
 70
     1
102
RTVSPropertyOp16
 70
     1
102
RTVSPropertyOp17
 70
     1
102
RTVSPropertyOp18
 70
     1
102
RTVSPropertyOp19
 70
     1
102
RTVSPropertyOp20
 70
     1
102
RTVSPropertyOp21
 70
     1
102
RTVSPropertyOp22
 70
     1
102
RTVSPropertyOp23
 70
     1
102
RTVSPropertyOp24
 70
     1
102
RTVSPropertyOp25
 70
     1
102
RTVSPropertyOp26
 70
     1
102
RTVSPropertyOp27
 70
     1
102
RTVSPropertyOp28
 70
     1
102
RTVSPropertyOp29
 70
     1
102
RTVSPropertyOp30
 70
     1
102
RTVSPropertyOp31
 70
     1
102
RTVSPropertyOp32
 70
     1
  0
XRECORD
  5
238
102
{ACAD_REACTORS
330
237
102
}
330
237
100
AcDbXrecord
280
     1
102
RTVSPropertyOp0
 70
     1
102
RTVSPropertyOp1
 70
     1
102
RTVSPropertyOp2
 70
     1
102
RTVSPropertyOp3
 70
     1
102
RTVSPropertyOp4
 70
     1
102
RTVSPropertyOp5
 70
     1
102
RTVSPropertyOp6
 70
     1
102
RTVSPropertyOp7
 70
     1
102
RTVSPropertyOp8
 70
     1
102
RTVSPropertyOp9
 70
     1
102
RTVSPropertyOp10
 70
     1
102
RTVSPropertyOp11
 70
     1
102
RTVSPropertyOp12
 70
     1
102
RTVSPropertyOp13
 70
     1
102
RTVSPropertyOp14
 70
     1
102
RTVSPropertyOp15
 70
     1
102
RTVSPropertyOp16
 70
     1
102
RTVSPropertyOp17
 70
     1
102
RTVSPropertyOp18
 70
     1
102
RTVSPropertyOp19
 70
     1
102
RTVSPropertyOp20
 70
     1
102
RTVSPropertyOp21
 70
     1
102
RTVSPropertyOp22
 70
     1
102
RTVSPropertyOp23
 70
     1
102
RTVSPropertyOp24
 70
     1
102
RTVSPropertyOp25
 70
     1
102
RTVSPropertyOp26
 70
     1
102
RTVSPropertyOp27
 70
     1
102
RTVSPropertyOp28
 70
     1
102
RTVSPropertyOp29
 70
     1
102
RTVSPropertyOp30
 70
     1
102
RTVSPropertyOp31
 70
     1
102
RTVSPropertyOp32
 70
     1
  0
XRECORD
  5
23A
102
{ACAD_REACTORS
330
239
102
}
330
239
100
AcDbXrecord
280
     1
102
RTVSPropertyOp0
 70
     1
102
RTVSPropertyOp1
 70
     1
102
RTVSPropertyOp2
 70
     1
102
RTVSPropertyOp3
 70
     1
102
RTVSPropertyOp4
 70
     1
102
RTVSPropertyOp5
 70
     1
102
RTVSPropertyOp6
 70
     1
102
RTVSPropertyOp7
 70
     1
102
RTVSPropertyOp8
 70
     1
102
RTVSPropertyOp9
 70
     1
102
RTVSPropertyOp10
 70
     1
102
RTVSPropertyOp11
 70
     1
102
RTVSPropertyOp12
 70
     1
102
RTVSPropertyOp13
 70
     1
102
RTVSPropertyOp14
 70
     1
102
RTVSPropertyOp15
 70
     1
102
RTVSPropertyOp16
 70
     1
102
RTVSPropertyOp17
 70
     1
102
RTVSPropertyOp18
 70
     1
102
RTVSPropertyOp19
 70
     1
102
RTVSPropertyOp20
 70
     1
102
RTVSPropertyOp21
 70
     1
102
RTVSPropertyOp22
 70
     1
102
RTVSPropertyOp23
 70
     1
102
RTVSPropertyOp24
 70
     1
102
RTVSPropertyOp25
 70
     1
102
RTVSPropertyOp26
 70
     1
102
RTVSPropertyOp27
 70
     1
102
RTVSPropertyOp28
 70
     1
102
RTVSPropertyOp29
 70
     1
102
RTVSPropertyOp30
 70
     1
102
RTVSPropertyOp31
 70
     1
102
RTVSPropertyOp32
 70
     1
  0
XRECORD
  5
23C
102
{ACAD_REACTORS
330
23B
102
}
330
23B
100
AcDbXrecord
280
     1
102
RTVSPropertyOp0
 70
     1
102
RTVSPropertyOp1
 70
     1
102
RTVSPropertyOp2
 70
     1
102
RTVSPropertyOp3
 70
     1
102
RTVSPropertyOp4
 70
     1
102
RTVSPropertyOp5
 70
     1
102
RTVSPropertyOp6
 70
     1
102
RTVSPropertyOp7
 70
     1
102
RTVSPropertyOp8
 70
     1
102
RTVSPropertyOp9
 70
     1
102
RTVSPropertyOp10
 70
     1
102
RTVSPropertyOp11
 70
     1
102
RTVSPropertyOp12
 70
     1
102
RTVSPropertyOp13
 70
     1
102
RTVSPropertyOp14
 70
     1
102
RTVSPropertyOp15
 70
     1
102
RTVSPropertyOp16
 70
     1
102
RTVSPropertyOp17
 70
     1
102
RTVSPropertyOp18
 70
     1
102
RTVSPropertyOp19
 70
     1
102
RTVSPropertyOp20
 70
     1
102
RTVSPropertyOp21
 70
     1
102
RTVSPropertyOp22
 70
     1
102
RTVSPropertyOp23
 70
     1
102
RTVSPropertyOp24
 70
     1
102
RTVSPropertyOp25
 70
     1
102
RTVSPropertyOp26
 70
     1
102
RTVSPropertyOp27
 70
     1
102
RTVSPropertyOp28
 70
     1
102
RTVSPropertyOp29
 70
     1
102
RTVSPropertyOp30
 70
     1
102
RTVSPropertyOp31
 70
     1
102
RTVSPropertyOp32
 70
     1
  0
XRECORD
  5
23E
102
{ACAD_REACTORS
330
23D
102
}
330
23D
100
AcDbXrecord
280
     1
102
RTVSPropertyOp0
 70
     1
102
RTVSPropertyOp1
 70
     1
102
RTVSPropertyOp2
 70
     1
102
RTVSPropertyOp3
 70
     1
102
RTVSPropertyOp4
 70
     1
102
RTVSPropertyOp5
 70
     1
102
RTVSPropertyOp6
 70
     1
102
RTVSPropertyOp7
 70
     1
102
RTVSPropertyOp8
 70
     1
102
RTVSPropertyOp9
 70
     1
102
RTVSPropertyOp10
 70
     1
102
RTVSPropertyOp11
 70
     1
102
RTVSPropertyOp12
 70
     1
102
RTVSPropertyOp13
 70
     1
102
RTVSPropertyOp14
 70
     1
102
RTVSPropertyOp15
 70
     1
102
RTVSPropertyOp16
 70
     1
102
RTVSPropertyOp17
 70
     1
102
RTVSPropertyOp18
 70
     1
102
RTVSPropertyOp19
 70
     1
102
RTVSPropertyOp20
 70
     1
102
RTVSPropertyOp21
 70
     1
102
RTVSPropertyOp22
 70
     1
102
RTVSPropertyOp23
 70
     1
102
RTVSPropertyOp24
 70
     1
102
RTVSPropertyOp25
 70
     1
102
RTVSPropertyOp26
 70
     1
102
RTVSPropertyOp27
 70
     1
102
RTVSPropertyOp28
 70
     1
102
RTVSPropertyOp29
 70
     1
102
RTVSPropertyOp30
 70
     1
102
RTVSPropertyOp31
 70
     1
102
RTVSPropertyOp32
 70
     1
  0
XRECORD
  5
252
102
{ACAD_REACTORS
330
251
102
}
330
251
100
AcDbXrecord
280
     1
102
RTVSPropertyOp0
 70
     1
102
RTVSPropertyOp1
 70
     1
102
RTVSPropertyOp2
 70
     1
102
RTVSPropertyOp3
 70
     1
102
RTVSPropertyOp4
 70
     1
102
RTVSPropertyOp5
 70
     1
102
RTVSPropertyOp6
 70
     1
102
RTVSPropertyOp7
 70
     1
102
RTVSPropertyOp8
 70
     1
102
RTVSPropertyOp9
 70
     1
102
RTVSPropertyOp10
 70
     1
102
RTVSPropertyOp11
 70
     1
102
RTVSPropertyOp12
 70
     1
102
RTVSPropertyOp13
 70
     1
102
RTVSPropertyOp14
 70
     1
102
RTVSPropertyOp15
 70
     1
102
RTVSPropertyOp16
 70
     1
102
RTVSPropertyOp17
 70
     1
102
RTVSPropertyOp18
 70
     1
102
RTVSPropertyOp19
 70
     1
102
RTVSPropertyOp20
 70
     1
102
RTVSPropertyOp21
 70
     1
102
RTVSPropertyOp22
 70
     1
102
RTVSPropertyOp23
 70
     1
102
RTVSPropertyOp24
 70
     1
102
RTVSPropertyOp25
 70
     1
102
RTVSPropertyOp26
 70
     1
102
RTVSPropertyOp27
 70
     1
102
RTVSPropertyOp28
 70
     1
102
RTVSPropertyOp29
 70
     1
102
RTVSPropertyOp30
 70
     1
102
RTVSPropertyOp31
 70
     1
102
RTVSPropertyOp32
 70
     1
  0
XRECORD
  5
248
102
{ACAD_REACTORS
330
247
102
}
330
247
100
AcDbXrecord
280
     1
102
RTVSPropertyOp0
 70
     1
102
RTVSPropertyOp1
 70
     1
102
RTVSPropertyOp2
 70
     1
102
RTVSPropertyOp3
 70
     1
102
RTVSPropertyOp4
 70
     1
102
RTVSPropertyOp5
 70
     1
102
RTVSPropertyOp6
 70
     1
102
RTVSPropertyOp7
 70
     1
102
RTVSPropertyOp8
 70
     1
102
RTVSPropertyOp9
 70
     1
102
RTVSPropertyOp10
 70
     1
102
RTVSPropertyOp11
 70
     1
102
RTVSPropertyOp12
 70
     1
102
RTVSPropertyOp13
 70
     1
102
RTVSPropertyOp14
 70
     1
102
RTVSPropertyOp15
 70
     1
102
RTVSPropertyOp16
 70
     1
102
RTVSPropertyOp17
 70
     1
102
RTVSPropertyOp18
 70
     1
102
RTVSPropertyOp19
 70
     1
102
RTVSPropertyOp20
 70
     1
102
RTVSPropertyOp21
 70
     1
102
RTVSPropertyOp22
 70
     1
102
RTVSPropertyOp23
 70
     1
102
RTVSPropertyOp24
 70
     1
102
RTVSPropertyOp25
 70
     1
102
RTVSPropertyOp26
 70
     1
102
RTVSPropertyOp27
 70
     1
102
RTVSPropertyOp28
 70
     1
102
RTVSPropertyOp29
 70
     1
102
RTVSPropertyOp30
 70
     1
102
RTVSPropertyOp31
 70
     1
102
RTVSPropertyOp32
 70
     1
  0
XRECORD
  5
250
102
{ACAD_REACTORS
330
24F
102
}
330
24F
100
AcDbXrecord
280
     1
102
RTVSPropertyOp0
 70
     1
102
RTVSPropertyOp1
 70
     1
102
RTVSPropertyOp2
 70
     1
102
RTVSPropertyOp3
 70
     1
102
RTVSPropertyOp4
 70
     1
102
RTVSPropertyOp5
 70
     1
102
RTVSPropertyOp6
 70
     1
102
RTVSPropertyOp7
 70
     1
102
RTVSPropertyOp8
 70
     1
102
RTVSPropertyOp9
 70
     1
102
RTVSPropertyOp10
 70
     1
102
RTVSPropertyOp11
 70
     1
102
RTVSPropertyOp12
 70
     1
102
RTVSPropertyOp13
 70
     1
102
RTVSPropertyOp14
 70
     1
102
RTVSPropertyOp15
 70
     1
102
RTVSPropertyOp16
 70
     1
102
RTVSPropertyOp17
 70
     1
102
RTVSPropertyOp18
 70
     1
102
RTVSPropertyOp19
 70
     1
102
RTVSPropertyOp20
 70
     1
102
RTVSPropertyOp21
 70
     1
102
RTVSPropertyOp22
 70
     1
102
RTVSPropertyOp23
 70
     1
102
RTVSPropertyOp24
 70
     1
102
RTVSPropertyOp25
 70
     1
102
RTVSPropertyOp26
 70
     1
102
RTVSPropertyOp27
 70
     1
102
RTVSPropertyOp28
 70
     1
102
RTVSPropertyOp29
 70
     1
102
RTVSPropertyOp30
 70
     1
102
RTVSPropertyOp31
 70
     1
102
RTVSPropertyOp32
 70
     1
  0
ENDSEC
  0
EOF
