  0
SECTION
  2
HEADER
  9
$ACADVER
  1
AC1015
  9
$ACADMAINTVER
 70
     6
  9
$DWGCODEPAGE
  3
ANSI_1252
  9
$INSBASE
 10
0.0
 20
0.0
 30
0.0
  9
$EXTMIN
 10
-125.5275044867085
 20
-301.08027833819
 30
0.0
  9
$EXTMAX
 10
233.7592953058169
 20
25.49999999998995
 30
0.0
  9
$LIMMIN
 10
0.0
 20
0.0
  9
$LIMMAX
 10
12.0
 20
9.0
  9
$ORTHOMODE
 70
     0
  9
$REGENMODE
 70
     1
  9
$FILLMODE
 70
     1
  9
$QTEXTMODE
 70
     0
  9
$MIRRTEXT
 70
     1
  9
$LTSCALE
 40
1.0
  9
$ATTMODE
 70
     1
  9
$TEXTSIZE
 40
0.2
  9
$TRACEWID
 40
0.05
  9
$TEXTSTYLE
  7
Standard
  9
$CLAYER
  8
0
  9
$CELTYPE
  6
ByLayer
  9
$CECOLOR
 62
   256
  9
$CELTSCALE
 40
1.0
  9
$DISPSILH
 70
     0
  9
$DIMSCALE
 40
1.0
  9
$DIMASZ
 40
0.18
  9
$DIMEXO
 40
0.0625
  9
$DIMDLI
 40
0.38
  9
$DIMRND
 40
0.0
  9
$DIMDLE
 40
0.0
  9
$DIMEXE
 40
0.18
  9
$DIMTP
 40
0.0
  9
$DIMTM
 40
0.0
  9
$DIMTXT
 40
0.18
  9
$DIMCEN
 40
0.09
  9
$DIMTSZ
 40
0.0
  9
$DIMTOL
 70
     0
  9
$DIMLIM
 70
     0
  9
$DIMTIH
 70
     1
  9
$DIMTOH
 70
     1
  9
$DIMSE1
 70
     0
  9
$DIMSE2
 70
     0
  9
$DIMTAD
 70
     0
  9
$DIMZIN
 70
     0
  9
$DIMBLK
  1

  9
$DIMASO
 70
     1
  9
$DIMSHO
 70
     1
  9
$DIMPOST
  1

  9
$DIMAPOST
  1

  9
$DIMALT
 70
     0
  9
$DIMALTD
 70
     2
  9
$DIMALTF
 40
25.4
  9
$DIMLFAC
 40
1.0
  9
$DIMTOFL
 70
     0
  9
$DIMTVP
 40
0.0
  9
$DIMTIX
 70
     0
  9
$DIMSOXD
 70
     0
  9
$DIMSAH
 70
     0
  9
$DIMBLK1
  1

  9
$DIMBLK2
  1

  9
$DIMSTYLE
  2
Standard
  9
$DIMCLRD
 70
     0
  9
$DIMCLRE
 70
     0
  9
$DIMCLRT
 70
     0
  9
$DIMTFAC
 40
1.0
  9
$DIMGAP
 40
0.09
  9
$DIMJUST
 70
     0
  9
$DIMSD1
 70
     0
  9
$DIMSD2
 70
     0
  9
$DIMTOLJ
 70
     1
  9
$DIMTZIN
 70
     0
  9
$DIMALTZ
 70
     0
  9
$DIMALTTZ
 70
     0
  9
$DIMUPT
 70
     0
  9
$DIMDEC
 70
     4
  9
$DIMTDEC
 70
     4
  9
$DIMALTU
 70
     2
  9
$DIMALTTD
 70
     2
  9
$DIMTXSTY
  7
Standard
  9
$DIMAUNIT
 70
     0
  9
$DIMADEC
 70
     0
  9
$DIMALTRND
 40
0.0
  9
$DIMAZIN
 70
     0
  9
$DIMDSEP
 70
    46
  9
$DIMATFIT
 70
     3
  9
$DIMFRAC
 70
     0
  9
$DIMLDRBLK
  1

  9
$DIMLUNIT
 70
     2
  9
$DIMLWD
 70
    -2
  9
$DIMLWE
 70
    -2
  9
$DIMTMOVE
 70
     0
  9
$LUNITS
 70
     2
  9
$LUPREC
 70
     4
  9
$SKETCHINC
 40
0.1
  9
$FILLETRAD
 40
0.5
  9
$AUNITS
 70
     0
  9
$AUPREC
 70
     0
  9
$MENU
  1
.
  9
$ELEVATION
 40
0.0
  9
$PELEVATION
 40
0.0
  9
$THICKNESS
 40
0.0
  9
$LIMCHECK
 70
     0
  9
$CHAMFERA
 40
0.5
  9
$CHAMFERB
 40
0.5
  9
$CHAMFERC
 40
1.0
  9
$CHAMFERD
 40
0.0
  9
$SKPOLY
 70
     0
  9
$TDCREATE
 40
2456966.619585706
  9
$TDUCREATE
 40
2456966.577919039
  9
$TDUPDATE
 40
2456966.619585891
  9
$TDUUPDATE
 40
2456966.577919225
  9
$TDINDWG
 40
0.0000000116
  9
$TDUSRTIMER
 40
0.0000000116
  9
$USRTIMER
 70
     1
  9
$ANGBASE
 50
0.0
  9
$ANGDIR
 70
     0
  9
$PDMODE
 70
     0
  9
$PDSIZE
 40
0.0
  9
$PLINEWID
 40
0.0
  9
$SPLFRAME
 70
     0
  9
$SPLINETYPE
 70
     6
  9
$SPLINESEGS
 70
     8
  9
$HANDSEED
  5
255
  9
$SURFTAB1
 70
     6
  9
$SURFTAB2
 70
     6
  9
$SURFTYPE
 70
     6
  9
$SURFU
 70
     6
  9
$SURFV
 70
     6
  9
$UCSBASE
  2

  9
$UCSNAME
  2

  9
$UCSORG
 10
0.0
 20
0.0
 30
0.0
  9
$UCSXDIR
 10
1.0
 20
0.0
 30
0.0
  9
$UCSYDIR
 10
0.0
 20
1.0
 30
0.0
  9
$UCSORTHOREF
  2

  9
$UCSORTHOVIEW
 70
     0
  9
$UCSORGTOP
 10
0.0
 20
0.0
 30
0.0
  9
$UCSORGBOTTOM
 10
0.0
 20
0.0
 30
0.0
  9
$UCSORGLEFT
 10
0.0
 20
0.0
 30
0.0
  9
$UCSORGRIGHT
 10
0.0
 20
0.0
 30
0.0
  9
$UCSORGFRONT
 10
0.0
 20
0.0
 30
0.0
  9
$UCSORGBACK
 10
0.0
 20
0.0
 30
0.0
  9
$PUCSBASE
  2

  9
$PUCSNAME
  2

  9
$PUCSORG
 10
0.0
 20
0.0
 30
0.0
  9
$PUCSXDIR
 10
1.0
 20
0.0
 30
0.0
  9
$PUCSYDIR
 10
0.0
 20
1.0
 30
0.0
  9
$PUCSORTHOREF
  2

  9
$PUCSORTHOVIEW
 70
     0
  9
$PUCSORGTOP
 10
0.0
 20
0.0
 30
0.0
  9
$PUCSORGBOTTOM
 10
0.0
 20
0.0
 30
0.0
  9
$PUCSORGLEFT
 10
0.0
 20
0.0
 30
0.0
  9
$PUCSORGRIGHT
 10
0.0
 20
0.0
 30
0.0
  9
$PUCSORGFRONT
 10
0.0
 20
0.0
 30
0.0
  9
$PUCSORGBACK
 10
0.0
 20
0.0
 30
0.0
  9
$USERI1
 70
     0
  9
$USERI2
 70
     0
  9
$USERI3
 70
     0
  9
$USERI4
 70
     0
  9
$USERI5
 70
     0
  9
$USERR1
 40
18.1
  9
$USERR2
 40
0.0
  9
$USERR3
 40
0.0
  9
$USERR4
 40
0.0
  9
$USERR5
 40
0.0
  9
$WORLDVIEW
 70
     1
  9
$SHADEDGE
 70
     3
  9
$SHADEDIF
 70
    70
  9
$TILEMODE
 70
     1
  9
$MAXACTVP
 70
    64
  9
$PINSBASE
 10
0.0
 20
0.0
 30
0.0
  9
$PLIMCHECK
 70
     0
  9
$PEXTMIN
 10
1.00000000000000E+20
 20
1.00000000000000E+20
 30
1.00000000000000E+20
  9
$PEXTMAX
 10
-1.00000000000000E+20
 20
-1.00000000000000E+20
 30
-1.00000000000000E+20
  9
$PLIMMIN
 10
0.0
 20
0.0
  9
$PLIMMAX
 10
12.0
 20
9.0
  9
$UNITMODE
 70
     0
  9
$VISRETAIN
 70
     1
  9
$PLINEGEN
 70
     0
  9
$PSLTSCALE
 70
     1
  9
$TREEDEPTH
 70
  3020
  9
$CMLSTYLE
  2
Standard
  9
$CMLJUST
 70
     0
  9
$CMLSCALE
 40
1.0
  9
$PROXYGRAPHICS
 70
     1
  9
$MEASUREMENT
 70
     1
  9
$CELWEIGHT
370
    -1
  9
$ENDCAPS
280
     0
  9
$JOINSTYLE
280
     0
  9
$LWDISPLAY
290
     0
  9
$INSUNITS
 70
     1
  9
$HYPERLINKBASE
  1

  9
$STYLESHEET
  1

  9
$XEDIT
290
     1
  9
$CEPSNTYPE
380
     0
  9
$PSTYLEMODE
290
     1
  9
$FINGERPRINTGUID
  2
{A386414B-B0EF-478B-9776-420C1B1D8157}
  9
$VERSIONGUID
  2
{FAEB1C32-E019-11D5-929B-00C0DF256EC4}
  9
$EXTNAMES
290
     1
  9
$PSVPSCALE
 40
0.0
  9
$OLESTARTUP
290
     0
  0
ENDSEC
  0
SECTION
  2
CLASSES
  0
CLASS
  1
ACDBDICTIONARYWDFLT
  2
AcDbDictionaryWithDefault
  3
ObjectDBX Classes
 90
        0
280
     0
281
     0
  0
CLASS
  1
VISUALSTYLE
  2
AcDbVisualStyle
  3
ObjectDBX Classes
 90
     4095
280
     0
281
     0
  0
CLASS
  1
MATERIAL
  2
AcDbMaterial
  3
ObjectDBX Classes
 90
     1153
280
     0
281
     0
  0
CLASS
  1
DICTIONARYVAR
  2
AcDbDictionaryVar
  3
ObjectDBX Classes
 90
        0
280
     0
281
     0
  0
CLASS
  1
ACDBPLACEHOLDER
  2
AcDbPlaceHolder
  3
ObjectDBX Classes
 90
        0
280
     0
281
     0
  0
CLASS
  1
LAYOUT
  2
AcDbLayout
  3
ObjectDBX Classes
 90
        0
280
     0
281
     0
  0
ENDSEC
  0
SECTION
  2
TABLES
  0
TABLE
  2
VPORT
  5
8
330
0
100
AcDbSymbolTable
 70
     1
  0
VPORT
  5
29
330
8
100
AcDbSymbolTableRecord
100
AcDbViewportTableRecord
  2
*Active
 70
     0
 10
0.0
 20
0.0
 11
1.0
 21
1.0
 12
54.1158954095542
 22
-137.7901391691
 13
0.0
 23
0.0
 14
0.5
 24
0.5
 15
0.5
 25
0.5
 16
0.0
 26
0.0
 36
1.0
 17
0.0
 27
0.0
 37
0.0
 40
359.238306171998
 41
1.60267857142857
 42
50.0
 43
0.0
 44
0.0
 50
0.0
 51
0.0
 71
     0
 72
   100
 73
     1
 74
     3
 75
     0
 76
     0
 77
     0
 78
     0
281
     0
 65
     1
110
0.0
120
0.0
130
0.0
111
1.0
121
0.0
131
0.0
112
0.0
122
1.0
132
0.0
 79
     0
146
0.0
  0
ENDTAB
  0
TABLE
  2
LTYPE
  5
5
330
0
100
AcDbSymbolTable
 70
     8
  0
LTYPE
  5
14
330
5
100
AcDbSymbolTableRecord
100
AcDbLinetypeTableRecord
  2
ByBlock
 70
     0
  3

 72
    65
 73
     0
 40
0.0
  0
LTYPE
  5
15
330
5
100
AcDbSymbolTableRecord
100
AcDbLinetypeTableRecord
  2
ByLayer
 70
     0
  3

 72
    65
 73
     0
 40
0.0
  0
LTYPE
  5
16
330
5
100
AcDbSymbolTableRecord
100
AcDbLinetypeTableRecord
  2
Continuous
 70
     0
  3
Solid line
 72
    65
 73
     0
 40
0.0
  0
LTYPE
  5
3F
330
5
100
AcDbSymbolTableRecord
100
AcDbLinetypeTableRecord
  2
DASHED
 70
     0
  3
Dashed
 72
    65
 73
     2
 40
15.0
 49
7.0
 74
     0
 49
-8.0
 74
     0
  0
LTYPE
  5
40
330
5
100
AcDbSymbolTableRecord
100
AcDbLinetypeTableRecord
  2
DOTTED
 70
     0
  3
Dotted
 72
    65
 73
     2
 40
1.0
 49
0.0
 74
     0
 49
-1.0
 74
     0
  0
LTYPE
  5
41
330
5
100
AcDbSymbolTableRecord
100
AcDbLinetypeTableRecord
  2
DOT_CENTER
 70
     0
  3
Dot_Center
 72
    65
 73
     4
 40
14.0
 49
12.0
 74
     0
 49
-1.0
 74
     0
 49
0.0
 74
     0
 49
-1.0
 74
     0
  0
LTYPE
  5
42
330
5
100
AcDbSymbolTableRecord
100
AcDbLinetypeTableRecord
  2
LONG_DASHED
 70
     0
  3
Long_Dashed
 72
    65
 73
     2
 40
15.0
 49
10.0
 74
     0
 49
-5.0
 74
     0
  0
LTYPE
  5
43
330
5
100
AcDbSymbolTableRecord
100
AcDbLinetypeTableRecord
  2
DASH_CENTER
 70
     0
  3
Dash_Center
 72
    65
 73
     4
 40
14.0
 49
11.0
 74
     0
 49
-1.0
 74
     0
 49
1.0
 74
     0
 49
-1.0
 74
     0
  0
LTYPE
  5
44
330
5
100
AcDbSymbolTableRecord
100
AcDbLinetypeTableRecord
  2
PHANTOM
 70
     0
  3
Phantom
 72
    65
 73
     6
 40
13.0
 49
10.0
 74
     0
 49
-1.0
 74
     0
 49
0.0
 74
     0
 49
-1.0
 74
     0
 49
0.0
 74
     0
 49
-1.0
 74
     0
  0
LTYPE
  5
45
330
5
100
AcDbSymbolTableRecord
100
AcDbLinetypeTableRecord
  2
CENTER_DASH_DASH
 70
     0
  3
Center_Dash_Dash
 72
    65
 73
     6
 40
14.0
 49
9.0
 74
     0
 49
-1.0
 74
     0
 49
1.0
 74
     0
 49
-1.0
 74
     0
 49
1.0
 74
     0
 49
-1.0
 74
     0
  0
ENDTAB
  0
TABLE
  2
LAYER
  5
2
330
0
100
AcDbSymbolTable
 70
     4
  0
LAYER
  5
10
330
2
100
AcDbSymbolTableRecord
100
AcDbLayerTableRecord
  2
0
 70
     0
 62
     7
  6
Continuous
370
    -3
390
F
  0
LAYER
  5
46
330
2
100
AcDbSymbolTableRecord
100
AcDbLayerTableRecord
  2
1
 70
     0
 62
     7
  6
Continuous
370
    -3
390
F
  0
LAYER
  5
47
330
2
100
AcDbSymbolTableRecord
100
AcDbLayerTableRecord
  2
LC-001-002-----0
 70
     0
 62
     7
  6
Continuous
370
    -3
390
F
  0
LAYER
  5
48
330
2
100
AcDbSymbolTableRecord
100
AcDbLayerTableRecord
  2
LC-002-002-RND-0
 70
     0
 62
     7
  6
Continuous
370
    -3
390
F
  0
ENDTAB
  0
TABLE
  2
STYLE
  5
3
330
0
100
AcDbSymbolTable
 70
     2
  0
STYLE
  5
11
330
3
100
AcDbSymbolTableRecord
100
AcDbTextStyleTableRecord
  2
Standard
 70
     0
 40
0.0
 41
1.0
 50
0.0
 71
     0
 42
0.2
  3
txt
  4

  0
STYLE
  5
138
330
3
100
AcDbSymbolTableRecord
100
AcDbTextStyleTableRecord
  2
CONVERTER_11
 70
     0
 40
0.0
 41
0.9
 50
0.0
 71
     0
 42
0.2
  3
txt.shx
  4

  0
ENDTAB
  0
TABLE
  2
VIEW
  5
6
330
0
100
AcDbSymbolTable
 70
     0
  0
ENDTAB
  0
TABLE
  2
UCS
  5
7
330
0
100
AcDbSymbolTable
 70
     0
  0
ENDTAB
  0
TABLE
  2
APPID
  5
9
330
0
100
AcDbSymbolTable
 70
     1
  0
APPID
  5
12
330
9
100
AcDbSymbolTableRecord
100
AcDbRegAppTableRecord
  2
ACAD
 70
     0
  0
ENDTAB
  0
TABLE
  2
DIMSTYLE
  5
A
330
0
100
AcDbSymbolTable
 70
     8
100
AcDbDimStyleTable
  0
DIMSTYLE
105
27
330
A
100
AcDbSymbolTableRecord
100
AcDbDimStyleTableRecord
  2
Standard
 70
     0
178
     0
340
11
  0
DIMSTYLE
105
13C
102
{ACAD_REACTORS
330
13D
102
}
330
A
100
AcDbSymbolTableRecord
100
AcDbDimStyleTableRecord
  2
ME10_DIM_10
 70
     0
  3
DN<>
 41
7.0
 42
0.0
 44
2.0
 73
     0
 74
     0
 77
     1
 78
     8
140
7.0
147
2.0
172
     1
173
     1
174
     1
175
     1
176
     4
177
     4
271
     2
178
     1
271
     2
340
138
  0
DIMSTYLE
105
147
102
{ACAD_REACTORS
330
148
102
}
330
A
100
AcDbSymbolTableRecord
100
AcDbDimStyleTableRecord
  2
ME10_DIM_11
 70
     0
 41
7.0
 42
0.0
 44
2.0
 73
     0
 74
     0
 77
     1
 78
     8
140
7.0
147
2.0
172
     1
173
     1
174
     1
175
     1
176
     4
177
     4
271
     2
178
     1
271
     2
340
138
  0
DIMSTYLE
105
152
102
{ACAD_REACTORS
330
153
102
}
330
A
100
AcDbSymbolTableRecord
100
AcDbDimStyleTableRecord
  2
ME10_DIM_12
 70
     0
  3
100-<>
 41
7.0
 42
0.0
 44
2.0
 73
     0
 74
     0
 77
     1
 78
     8
140
7.0
147
2.0
172
     1
173
     1
174
     1
175
     1
176
     4
177
     4
271
     2
178
     1
271
     2
340
138
  0
DIMSTYLE
105
15D
102
{ACAD_REACTORS
330
15E
102
}
330
A
100
AcDbSymbolTableRecord
100
AcDbDimStyleTableRecord
  2
ME10_DIM_13
 70
     0
  3
87-<>
 41
7.0
 42
0.0
 44
2.0
 73
     0
 74
     0
 77
     1
 78
     8
140
7.0
147
2.0
172
     1
173
     1
174
     1
175
     1
176
     4
177
     4
271
     2
178
     1
271
     2
340
138
  0
DIMSTYLE
105
168
102
{ACAD_REACTORS
330
169
102
}
330
A
100
AcDbSymbolTableRecord
100
AcDbDimStyleTableRecord
  2
ME10_DIM_14
 70
     0
 41
7.0
 42
0.0
 44
2.0
 73
     0
 74
     0
 77
     1
 78
     8
140
7.0
147
2.0
172
     1
173
     1
174
     1
175
     1
176
     4
177
     4
271
     2
178
     1
271
     2
340
138
  0
DIMSTYLE
105
173
102
{ACAD_REACTORS
330
174
102
}
330
A
100
AcDbSymbolTableRecord
100
AcDbDimStyleTableRecord
  2
ME10_DIM_15
 70
     0
 41
7.0
 42
0.0
 44
2.0
 73
     0
 74
     0
 77
     1
 78
     8
140
7.0
147
2.0
172
     1
173
     1
174
     1
175
     1
176
     4
177
     4
271
     2
178
     1
271
     2
340
138
  0
DIMSTYLE
105
180
102
{ACAD_REACTORS
330
181
102
}
330
A
100
AcDbSymbolTableRecord
100
AcDbDimStyleTableRecord
  2
ME10_DIM_16
 70
     0
 41
7.0
 42
0.0
 44
2.0
 73
     0
 74
     0
 77
     1
 78
     8
140
7.0
147
2.0
172
     1
173
     1
174
     1
175
     1
176
     4
177
     4
271
     2
178
     1
271
     2
340
138
  0
ENDTAB
  0
TABLE
  2
BLOCK_RECORD
  5
1
330
0
100
AcDbSymbolTable
 70
    22
  0
BLOCK_RECORD
  5
1F
330
1
100
AcDbSymbolTableRecord
100
AcDbBlockTableRecord
  2
*Model_Space
340
22
  0
BLOCK_RECORD
  5
1B
330
1
100
AcDbSymbolTableRecord
100
AcDbBlockTableRecord
  2
*Paper_Space
340
1E
  0
BLOCK_RECORD
  5
23
330
1
100
AcDbSymbolTableRecord
100
AcDbBlockTableRecord
  2
*Paper_Space0
340
26
  0
BLOCK_RECORD
  5
49
330
1
100
AcDbSymbolTableRecord
100
AcDbBlockTableRecord
  2
HL19_ABS_10003_ABS
340
0
102
{BLKREFS
331
4D
102
}
  0
BLOCK_RECORD
  5
4C
330
1
100
AcDbSymbolTableRecord
100
AcDbBlockTableRecord
  2
HL19
340
0
102
{BLKREFS
331
63
102
}
  0
BLOCK_RECORD
  5
50
330
1
100
AcDbSymbolTableRecord
100
AcDbBlockTableRecord
  2
Abgangsb_DN40
340
0
102
{BLKREFS
331
64
102
}
  0
BLOCK_RECORD
  5
53
330
1
100
AcDbSymbolTableRecord
100
AcDbBlockTableRecord
  2
HL_13_DN32_Tauchrohr
340
0
102
{BLKREFS
331
65
102
}
  0
BLOCK_RECORD
  5
56
330
1
100
AcDbSymbolTableRecord
100
AcDbBlockTableRecord
  2
Mutter5_4
340
0
102
{BLKREFS
331
66
102
}
  0
BLOCK_RECORD
  5
59
330
1
100
AcDbSymbolTableRecord
100
AcDbBlockTableRecord
  2
HL13_30
340
0
102
{BLKREFS
331
67
102
}
  0
BLOCK_RECORD
  5
5C
330
1
100
AcDbSymbolTableRecord
100
AcDbBlockTableRecord
  2
HL_130_30_Flaschensifon
340
0
102
{BLKREFS
331
68
102
}
  0
BLOCK_RECORD
  5
5F
330
1
100
AcDbSymbolTableRecord
100
AcDbBlockTableRecord
  2
Sifonkappe
340
0
102
{BLKREFS
331
69
102
}
  0
BLOCK_RECORD
  5
62
330
1
100
AcDbSymbolTableRecord
100
AcDbBlockTableRecord
  2
HL132_1_40
340
0
102
{BLKREFS
331
7B
102
}
  0
BLOCK_RECORD
  5
6C
330
1
100
AcDbSymbolTableRecord
100
AcDbBlockTableRecord
  2
Mutter_R5_4__1
340
0
102
{BLKREFS
331
7C
102
}
  0
BLOCK_RECORD
  5
6F
330
1
100
AcDbSymbolTableRecord
100
AcDbBlockTableRecord
  2
Mutter_R5_4__2
340
0
102
{BLKREFS
331
7D
102
}
  0
BLOCK_RECORD
  5
72
330
1
100
AcDbSymbolTableRecord
100
AcDbBlockTableRecord
  2
Rosette
340
0
102
{BLKREFS
331
7E
102
}
  0
BLOCK_RECORD
  5
75
330
1
100
AcDbSymbolTableRecord
100
AcDbBlockTableRecord
  2
Holländermutter_1
340
0
102
{BLKREFS
331
7F
102
}
  0
BLOCK_RECORD
  5
78
330
1
100
AcDbSymbolTableRecord
100
AcDbBlockTableRecord
  2
Dichtstopfen
340
0
102
{BLKREFS
331
80
102
}
  0
BLOCK_RECORD
  5
131
330
1
100
AcDbSymbolTableRecord
100
AcDbBlockTableRecord
  2
*D15
340
0
  0
BLOCK_RECORD
  5
13E
330
1
100
AcDbSymbolTableRecord
100
AcDbBlockTableRecord
  2
*D16
340
0
  0
BLOCK_RECORD
  5
149
330
1
100
AcDbSymbolTableRecord
100
AcDbBlockTableRecord
  2
*D17
340
0
  0
BLOCK_RECORD
  5
154
330
1
100
AcDbSymbolTableRecord
100
AcDbBlockTableRecord
  2
*D18
340
0
  0
BLOCK_RECORD
  5
15F
330
1
100
AcDbSymbolTableRecord
100
AcDbBlockTableRecord
  2
*D19
340
0
  0
BLOCK_RECORD
  5
16A
330
1
100
AcDbSymbolTableRecord
100
AcDbBlockTableRecord
  2
*D20
340
0
  0
BLOCK_RECORD
  5
175
330
1
100
AcDbSymbolTableRecord
100
AcDbBlockTableRecord
  2
*D21
340
0
  0
ENDTAB
  0
ENDSEC
  0
SECTION
  2
BLOCKS
  0
BLOCK
  5
20
330
1F
100
AcDbEntity
  8
0
100
AcDbBlockBegin
  2
*Model_Space
 70
     0
 10
0.0
 20
0.0
 30
0.0
  3
*Model_Space
  1

  0
ENDBLK
  5
21
330
1F
100
AcDbEntity
  8
0
100
AcDbBlockEnd
  0
BLOCK
  5
1C
330
1B
100
AcDbEntity
 67
     1
  8
0
100
AcDbBlockBegin
  2
*Paper_Space
 70
     0
 10
0.0
 20
0.0
 30
0.0
  3
*Paper_Space
  1

  0
ENDBLK
  5
1D
330
1B
100
AcDbEntity
 67
     1
  8
0
100
AcDbBlockEnd
  0
BLOCK
  5
24
330
23
100
AcDbEntity
  8
0
100
AcDbBlockBegin
  2
*Paper_Space0
 70
     0
 10
0.0
 20
0.0
 30
0.0
  3
*Paper_Space0
  1

  0
ENDBLK
  5
25
330
23
100
AcDbEntity
  8
0
100
AcDbBlockEnd
  0
BLOCK
  5
4A
330
49
100
AcDbEntity
  8
0
100
AcDbBlockBegin
  2
HL19_ABS_10003_ABS
 70
     0
 10
-82.16474493311564
 20
-42.76581218696914
 30
0.0
  3
HL19_ABS_10003_ABS
  1

  0
LINE
  5
81
330
49
100
AcDbEntity
  8
0
  6
Continuous
 62
     3
100
AcDbLine
 10
-75.98371860728906
 20
-29.47534767517578
 30
0.0
 11
-94.30371497011362
 21
-24.56651944441774
 31
0.0
  0
LINE
  5
82
330
49
100
AcDbEntity
  8
0
  6
Continuous
 62
     3
100
AcDbLine
 10
-75.98371860728906
 20
-29.47534767517578
 30
0.0
 11
-71.07489037653102
 21
-11.15535131235123
 31
0.0
  0
LINE
  5
83
330
49
100
AcDbEntity
  8
0
  6
Continuous
 62
     3
100
AcDbLine
 10
-71.07489037653102
 20
-11.15535131235123
 30
0.0
 11
-71.06615675034294
 21
-11.12275697568299
 31
0.0
  0
LINE
  5
84
330
49
100
AcDbEntity
  8
0
  6
Continuous
 62
     7
100
AcDbLine
 10
-71.06615675034294
 20
-11.12275697568299
 30
0.0
 11
-75.41282296864387
 21
-9.95807127272207
 31
0.0
  0
LINE
  5
85
330
49
100
AcDbEntity
  8
0
  6
Continuous
 62
     7
100
AcDbLine
 10
-71.06615675034294
 20
-11.12275697568299
 30
0.0
 11
-58.39258375789518
 21
-14.51863062422495
 31
0.0
  0
LINE
  5
86
330
49
100
AcDbEntity
  8
0
  6
Continuous
 62
     7
100
AcDbLine
 10
-75.98371860728906
 20
-29.47534767517578
 30
0.0
 11
-79.65894904774348
 21
-43.19149440848088
 31
0.0
  0
LINE
  5
87
330
49
100
AcDbEntity
  8
0
  6
Continuous
 62
     7
100
AcDbLine
 10
-75.98371860728906
 20
-29.47534767517578
 30
0.0
 11
-63.3101456148413
 21
-32.87122132371775
 31
0.0
  0
LINE
  5
88
330
49
100
AcDbEntity
  8
0
  6
Continuous
 62
     7
100
AcDbLine
 10
-102.3594507483872
 20
-51.6027798357552
 30
0.0
 11
-101.3935249220981
 21
-51.86159888085763
 31
0.0
  0
LINE
  5
89
330
49
100
AcDbEntity
  8
0
  6
Continuous
 62
     7
100
AcDbLine
 10
-102.9637767812428
 20
-58.6877844261569
 30
0.0
 11
-102.3594507483872
 21
-51.6027798357552
 31
0.0
  0
LINE
  5
8A
330
49
100
AcDbEntity
  8
0
  6
Continuous
 62
     7
100
AcDbLine
 10
-101.4015713249382
 20
-45.13014768104927
 30
0.0
 11
-99.95268258550459
 21
-45.51837624870291
 31
0.0
  0
LINE
  5
8B
330
49
100
AcDbEntity
  8
0
  6
Continuous
 62
     7
100
AcDbLine
 10
-100.3142823789381
 20
-38.17455261319878
 30
0.0
 11
-98.62391218293209
 21
-38.62748594212809
 31
0.0
  0
LINE
  5
8C
330
49
100
AcDbEntity
  8
0
  6
Continuous
 62
     3
100
AcDbLine
 10
-94.30371497011362
 20
-24.56651944441774
 30
0.0
 11
-94.33630930678186
 21
-24.55778581822966
 31
0.0
  0
LINE
  5
8D
330
49
100
AcDbEntity
  8
0
  6
Continuous
 62
     7
100
AcDbLine
 10
-94.33630930678186
 20
-24.55778581822966
 30
0.0
 11
-93.17162360382093
 21
-20.21111959992874
 31
0.0
  0
LINE
  5
8E
330
49
100
AcDbEntity
  8
0
  6
Continuous
 62
     7
100
AcDbLine
 10
-94.33630930678186
 20
-24.55778581822966
 30
0.0
 11
-98.01153974723633
 21
-38.27393255153476
 31
0.0
  0
LINE
  5
8F
330
49
100
AcDbEntity
  8
0
  6
Continuous
 62
     7
100
AcDbLine
 10
-99.95268258550459
 20
-45.51837624870291
 30
0.0
 11
-100.3142823789381
 21
-38.17455261319878
 31
0.0
  0
LINE
  5
90
330
49
100
AcDbEntity
  8
0
  6
Continuous
 62
     7
100
AcDbLine
 10
-101.3935249220981
 20
-51.86159888085763
 30
0.0
 11
-101.4015713249382
 21
-45.13014768104927
 31
0.0
  0
LINE
  5
91
330
49
100
AcDbEntity
  8
0
  6
Continuous
 62
     7
100
AcDbLine
 10
-89.48856918067054
 20
-76.06762862002435
 30
0.0
 11
-87.2594357012049
 21
-69.62504510887973
 31
0.0
  0
LINE
  5
92
330
49
100
AcDbEntity
  8
0
  6
Continuous
 62
     7
100
AcDbLine
 10
-90.46829394733504
 20
-75.80511215999192
 30
0.0
 11
-89.48856918067054
 21
-76.06762862002435
 31
0.0
  0
LINE
  5
93
330
49
100
AcDbEntity
  8
0
  6
Continuous
 62
     7
100
AcDbLine
 10
-105.9369061083361
 20
-71.66031002342305
 30
0.0
 11
-104.9571813416715
 21
-71.92282648345551
 31
0.0
  0
LINE
  5
94
330
49
100
AcDbEntity
  8
0
  6
Continuous
 62
     7
100
AcDbLine
 10
-104.9571813416715
 20
-71.92282648345551
 30
0.0
 11
-90.46829394733504
 21
-75.80511215999192
 31
0.0
  0
LINE
  5
95
330
49
100
AcDbEntity
  8
0
  6
Continuous
 62
     7
100
AcDbLine
 10
-105.9369061083361
 20
-71.66031002342305
 30
0.0
 11
-104.6461005744086
 21
-64.96630229703604
 31
0.0
  0
LINE
  5
96
330
49
100
AcDbEntity
  8
0
  6
Continuous
 62
     7
100
AcDbLine
 10
-87.50091715777717
 20
-69.56034034760413
 30
0.0
 11
-87.2594357012049
 21
-69.62504510887973
 31
0.0
  0
LINE
  5
97
330
49
100
AcDbEntity
  8
0
  6
Continuous
 62
     7
100
AcDbLine
 10
-104.4046191178363
 20
-65.03100705831164
 30
0.0
 11
-87.50091715777717
 21
-69.56034034760413
 31
0.0
  0
LINE
  5
98
330
49
100
AcDbEntity
  8
0
  6
Continuous
 62
     7
100
AcDbLine
 10
-104.6461005744086
 20
-64.96630229703604
 30
0.0
 11
-104.4046191178363
 21
-65.03100705831164
 31
0.0
  0
LINE
  5
99
330
49
100
AcDbEntity
  8
0
  6
Continuous
 62
     7
100
AcDbLine
 10
-104.4046191178363
 20
-65.03100705831164
 30
0.0
 11
-103.6882211509596
 21
-58.49367014233008
 31
0.0
  0
LINE
  5
9A
330
49
100
AcDbEntity
  8
0
  6
Continuous
 62
     7
100
AcDbLine
 10
-81.6000918860118
 20
-50.43593810564903
 30
0.0
 11
-80.15120314657815
 21
-50.82416667330267
 31
0.0
  0
LINE
  5
9B
330
49
100
AcDbEntity
  8
0
  6
Continuous
 62
     7
100
AcDbLine
 10
-99.95268258550459
 20
-45.51837624870291
 30
0.0
 11
-81.6000918860118
 21
-50.43593810564903
 31
0.0
  0
LINE
  5
9C
330
49
100
AcDbEntity
  8
0
  6
Continuous
 62
     7
100
AcDbLine
 10
-83.52389713574985
 20
-56.64975121525254
 30
0.0
 11
-82.55797130946075
 21
-56.90857026035496
 31
0.0
  0
LINE
  5
9D
330
49
100
AcDbEntity
  8
0
  6
Continuous
 62
     7
100
AcDbLine
 10
-85.57711190803911
 20
-63.34652723800062
 30
0.0
 11
-84.8526675383223
 21
-63.54064152182744
 31
0.0
  0
LINE
  5
9E
330
49
100
AcDbEntity
  8
0
  6
Continuous
 62
     7
100
AcDbLine
 10
-102.9637767812428
 20
-58.6877844261569
 30
0.0
 11
-85.57711190803911
 21
-63.34652723800062
 31
0.0
  0
LINE
  5
9F
330
49
100
AcDbEntity
  8
0
  6
Continuous
 62
     7
100
AcDbLine
 10
-103.6882211509596
 20
-58.49367014233008
 30
0.0
 11
-102.9637767812428
 21
-58.6877844261569
 31
0.0
  0
LINE
  5
A0
330
49
100
AcDbEntity
  8
0
  6
Continuous
 62
     3
100
AcDbLine
 10
-98.01153974723633
 20
-38.27393255153476
 30
0.0
 11
-79.65894904774348
 21
-43.19149440848088
 31
0.0
  0
LINE
  5
A1
330
49
100
AcDbEntity
  8
0
  6
Continuous
 62
     7
100
AcDbLine
 10
-81.6000918860118
 20
-50.43593810564903
 30
0.0
 11
-77.61502546114434
 21
-44.25680017310583
 31
0.0
  0
LINE
  5
A2
330
49
100
AcDbEntity
  8
0
  6
Continuous
 62
     7
100
AcDbLine
 10
-79.30539565715014
 20
-43.80386684417664
 30
0.0
 11
-77.61502546114434
 21
-44.25680017310583
 31
0.0
  0
LINE
  5
A3
330
49
100
AcDbEntity
  8
0
  6
Continuous
 62
     7
100
AcDbLine
 10
-98.62391218293209
 20
-38.62748594212809
 30
0.0
 11
-79.30539565715014
 21
-43.80386684417664
 31
0.0
  0
LINE
  5
A4
330
49
100
AcDbEntity
  8
0
  6
Continuous
 62
     7
100
AcDbLine
 10
-85.57711190803911
 20
-63.34652723800062
 30
0.0
 11
-82.55797130946075
 21
-56.90857026035496
 31
0.0
  0
LINE
  5
A5
330
49
100
AcDbEntity
  8
0
  6
Continuous
 62
     7
100
AcDbLine
 10
-101.3935249220981
 20
-51.86159888085763
 30
0.0
 11
-83.52389713574985
 21
-56.64975121525254
 31
0.0
  0
LINE
  5
A6
330
49
100
AcDbEntity
  8
0
  6
Continuous
 62
     7
100
AcDbLine
 10
-87.50091715777717
 20
-69.56034034760413
 30
0.0
 11
-84.8526675383223
 21
-63.54064152182744
 31
0.0
  0
LINE
  5
A7
330
49
100
AcDbEntity
  8
0
  6
Continuous
 62
     7
100
AcDbLine
 10
-83.52389713574985
 20
-56.64975121525254
 30
0.0
 11
-80.15120314657815
 21
-50.82416667330267
 31
0.0
  0
LINE
  5
A8
330
49
100
AcDbEntity
  8
1
  6
DOT_CENTER
 62
     2
100
AcDbLine
 10
-73.524937678816
 20
-20.29905232542939
 30
0.0
 11
-60.85136468636824
 21
-23.69492597397135
 31
0.0
  0
LINE
  5
A9
330
49
100
AcDbEntity
  8
1
  6
DOT_CENTER
 62
     2
100
AcDbLine
 10
-85.16001395703546
 20
-27.01656674670272
 30
0.0
 11
-88.83524439748987
 21
-40.73271348000782
 31
0.0
  0
LINE
  5
AA
330
49
100
AcDbEntity
  8
1
  6
DOT_CENTER
 62
     2
100
AcDbLine
 10
-97.71273764450319
 20
-73.8639693217238
 30
0.0
 11
-88.96465392004097
 21
-41.21567639315231
 31
0.0
  0
ARC
  5
AB
330
49
100
AcDbEntity
  8
0
  6
Continuous
 62
     7
100
AcDbCircle
 10
-79.16569912262906
 20
-23.96399575391394
 30
0.0
 40
14.50000000000002
100
AcDbArc
 50
75.00000000000556
 51
165.0000000000055
  0
ARC
  5
AC
330
49
100
AcDbEntity
  8
0
  6
Continuous
 62
     3
100
AcDbCircle
 10
-75.98371860728906
 20
-29.47534767517578
 30
0.0
 40
18.96625585963112
100
AcDbArc
 50
75.00000000000554
 51
165.0000000000056
  0
ARC
  5
AD
330
49
100
AcDbEntity
  8
0
  6
Continuous
 62
     7
100
AcDbCircle
 10
-98.49450266038087
 20
-38.14452302898354
 30
0.0
 40
0.5000000000000006
100
AcDbArc
 50
255.0000000000056
 51
345.0000000000048
  0
ARC
  5
AE
330
49
100
AcDbEntity
  8
0
  6
Continuous
 62
     7
100
AcDbCircle
 10
-79.17598613459893
 20
-43.32090393103209
 30
0.0
 40
0.5000000000000006
100
AcDbArc
 50
165.0000000000056
 51
255.0000000000056
  0
ARC
  5
AF
330
49
100
AcDbEntity
  8
0
  6
Continuous
 62
     7
100
AcDbCircle
 10
-75.98371860728906
 20
-29.47534767517578
 30
0.0
 40
19.00000000000002
100
AcDbArc
 50
75.00000000000554
 51
165.0000000000056
  0
ENDBLK
  5
4B
330
49
100
AcDbEntity
  8
0
100
AcDbBlockEnd
  0
BLOCK
  5
4E
330
4C
100
AcDbEntity
  8
0
100
AcDbBlockBegin
  2
HL19
 70
     0
 10
-72.97897836018879
 20
-42.1860685393854
 30
0.0
  3
HL19
  1

  0
INSERT
  5
4D
330
4C
100
AcDbEntity
  8
0
100
AcDbBlockReference
  2
HL19_ABS_10003_ABS
 10
-82.16474493311564
 20
-42.76581218696914
 30
0.0
  0
ENDBLK
  5
4F
330
4C
100
AcDbEntity
  8
0
100
AcDbBlockEnd
  0
BLOCK
  5
51
330
50
100
AcDbEntity
  8
0
100
AcDbBlockBegin
  2
Abgangsb_DN40
 70
     0
 10
110.7698716210681
 20
-186.3415890000007
 30
0.0
  3
Abgangsb_DN40
  1

  0
LINE
  5
B0
330
50
100
AcDbEntity
  8
1
  6
DOT_CENTER
 62
     2
100
AcDbLine
 10
78.85686657854859
 20
-206.0915890000007
 30
0.0
 11
78.85686657854859
 21
-208.0915890000007
 31
0.0
  0
LINE
  5
B1
330
50
100
AcDbEntity
  8
1
  6
DOT_CENTER
 62
     2
100
AcDbLine
 10
76.85686657854859
 20
-206.0915890000007
 30
0.0
 11
76.85686657854859
 21
-166.5915890000007
 31
0.0
  0
LINE
  5
B2
330
50
100
AcDbEntity
  8
1
  6
DOT_CENTER
 62
     2
100
AcDbLine
 10
76.85686657854859
 20
-166.5915890000007
 30
0.0
 11
76.85686657854859
 21
-164.5915890000007
 31
0.0
  0
LINE
  5
B3
330
50
100
AcDbEntity
  8
1
  6
DOT_CENTER
 62
     2
100
AcDbLine
 10
78.85686657854859
 20
-166.5915890000007
 30
0.0
 11
78.85686657854859
 21
-206.0915890000007
 31
0.0
  0
LINE
  5
B4
330
50
100
AcDbEntity
  8
LC-001-002-----0
  6
Continuous
 62
     7
100
AcDbLine
 10
78.85686657854859
 20
-206.0915890000007
 30
0.0
 11
157.987008695728
 21
-206.0915890000007
 31
0.0
  0
LINE
  5
B5
330
50
100
AcDbEntity
  8
LC-001-002-----0
  6
Continuous
 62
     7
100
AcDbLine
 10
78.85686657854859
 20
-166.5915890000007
 30
0.0
 11
157.987008695728
 21
-166.5915890000007
 31
0.0
  0
LINE
  5
B6
330
50
100
AcDbEntity
  8
1
  6
DOT_CENTER
 62
     2
100
AcDbLine
 10
76.85686657854859
 20
-208.0915890000007
 30
0.0
 11
76.85686657854859
 21
-206.0915890000007
 31
0.0
  0
LINE
  5
B7
330
50
100
AcDbEntity
  8
1
  6
DOT_CENTER
 62
     2
100
AcDbLine
 10
78.85686657854859
 20
-164.5915890000007
 30
0.0
 11
78.85686657854859
 21
-166.5915890000007
 31
0.0
  0
LINE
  5
B8
330
50
100
AcDbEntity
  8
LC-001-002-----0
  6
Continuous
 62
     7
100
AcDbLine
 10
199.9999999999908
 20
-166.5915890000007
 30
0.0
 11
199.9999999999908
 21
-206.0915890000007
 31
0.0
  0
LINE
  5
B9
330
50
100
AcDbEntity
  8
LC-001-002-----0
  6
Continuous
 62
     7
100
AcDbLine
 10
56.49999999999085
 20
-166.5915890000007
 30
0.0
 11
76.85686657854859
 21
-166.5915890000007
 31
0.0
  0
LINE
  5
BA
330
50
100
AcDbEntity
  8
LC-001-002-----0
  6
Continuous
 62
     7
100
AcDbLine
 10
56.49999999999085
 20
-206.0915890000007
 30
0.0
 11
76.85686657854859
 21
-206.0915890000007
 31
0.0
  0
LINE
  5
BB
330
50
100
AcDbEntity
  8
1
  6
Continuous
 62
     7
100
AcDbLine
 10
198.2947009999907
 20
-206.0915890000007
 30
0.0
 11
199.9999999999908
 21
-206.0915890000007
 31
0.0
  0
LINE
  5
BC
330
50
100
AcDbEntity
  8
1
  6
Continuous
 62
     7
100
AcDbLine
 10
198.2947009999907
 20
-166.5915890000007
 30
0.0
 11
199.9999999999908
 21
-166.5915890000007
 31
0.0
  0
LINE
  5
BD
330
50
100
AcDbEntity
  8
1
  6
PHANTOM
 62
     2
100
AcDbLine
 10
14.15204579452529
 20
-186.3415890000007
 30
0.0
 11
207.3876974476109
 21
-186.3415890000007
 31
0.0
  0
ENDBLK
  5
52
330
50
100
AcDbEntity
  8
0
100
AcDbBlockEnd
  0
BLOCK
  5
54
330
53
100
AcDbEntity
  8
0
100
AcDbBlockBegin
  2
HL_13_DN32_Tauchrohr
 70
     0
 10
-24.65183227240846
 20
-71.5000000000055
 30
0.0
  3
HL_13_DN32_Tauchrohr
  1

  0
LINE
  5
BE
330
53
100
AcDbEntity
  8
1
  6
Continuous
 62
     7
100
AcDbLine
 10
-16.00000000000887
 20
-50.7243175370577
 30
0.0
 11
-16.00000000000671
 21
-143.000000000003
 31
0.0
  0
LINE
  5
BF
330
53
100
AcDbEntity
  8
1
  6
Continuous
 62
     7
100
AcDbLine
 10
-16.00000000000841
 20
-15.00000000000979
 30
0.0
 11
-16.00000000000887
 21
-20.70130830516521
 31
0.0
  0
LINE
  5
C0
330
53
100
AcDbEntity
  8
1
  6
Continuous
 62
     7
100
AcDbLine
 10
-47.70053888029588
 20
-42.23018374445611
 30
0.0
 11
-16.00000000000887
 21
-50.7243175370577
 31
0.0
  0
LINE
  5
C1
330
53
100
AcDbEntity
  8
1
  6
Continuous
 62
     7
100
AcDbLine
 10
-16.00000000000887
 20
-20.70130830516521
 30
0.0
 11
-40.19478657232241
 21
-14.21833478207147
 31
0.0
  0
LINE
  5
C2
330
53
100
AcDbEntity
  8
1
  6
PHANTOM
 62
     2
100
AcDbLine
 10
-65.3036645448085
 20
-22.50193582244107
 30
0.0
 11
6.26465084149913
 21
-41.67860813385211
 31
0.0
  0
LINE
  5
C3
330
53
100
AcDbEntity
  8
1
  6
Continuous
 62
     7
100
AcDbLine
 10
-12.31349602969192
 20
-45.41728583139799
 30
0.0
 11
-16.00000000000887
 21
-50.7243175370577
 31
0.0
  0
LINE
  5
C4
330
53
100
AcDbEntity
  8
1
  6
Continuous
 62
     7
100
AcDbLine
 10
-16.00000000000887
 20
-20.70130830516521
 30
0.0
 11
-11.24986285059117
 21
-30.08512002067927
 31
0.0
  0
LINE
  5
C5
330
53
100
AcDbEntity
  8
1
  6
Continuous
 62
     7
100
AcDbLine
 10
15.99999999999022
 20
-143.000000000003
 30
0.0
 11
15.99999999999159
 21
-15.00000000000979
 31
0.0
  0
LINE
  5
C6
330
53
100
AcDbEntity
  8
1
  6
Continuous
 62
     7
100
AcDbLine
 10
-16.00000000000671
 20
-143.000000000003
 30
0.0
 11
-16.00000000000671
 21
-143.000000000011
 31
0.0
  0
LINE
  5
C7
330
53
100
AcDbEntity
  8
1
  6
PHANTOM
 62
     2
100
AcDbLine
 10
-0.00000000000823
 20
0.0
 30
0.0
 11
-0.00000000000824
 21
-143.000000000011
 31
0.0
  0
ARC
  5
C8
330
53
100
AcDbEntity
  8
1
  6
Continuous
 62
     7
100
AcDbCircle
 10
-24.6328868409953
 20
-36.85968043979622
 30
0.0
 40
14.99999999999993
100
AcDbArc
 50
325.2144102027783
 51
26.8487839724161
  0
ENDBLK
  5
55
330
53
100
AcDbEntity
  8
0
100
AcDbBlockEnd
  0
BLOCK
  5
57
330
56
100
AcDbEntity
  8
0
100
AcDbBlockBegin
  2
Mutter5_4
 70
     0
 10
-10927.93268967663
 20
-16961.37498741344
 30
0.0
  3
Mutter5_4
  1

  0
LINE
  5
C9
330
56
100
AcDbEntity
  8
1
  6
PHANTOM
 62
     2
100
AcDbLine
 10
-11561.5
 20
-16318.64223073761
 30
0.0
 11
-11561.5
 21
-16331.64223073764
 31
0.0
  0
LINE
  5
CA
330
56
100
AcDbEntity
  8
0
  6
Continuous
 62
     7
100
AcDbLine
 10
-11538.87705211092
 20
-16333.64223073761
 30
0.0
 11
-11536.49354492573
 21
-16331.64223073764
 31
0.0
  0
LINE
  5
CB
330
56
100
AcDbEntity
  8
0
  6
Continuous
 62
     7
100
AcDbLine
 10
-11584.12294788908
 20
-16333.64223073761
 30
0.0
 11
-11538.87705211092
 21
-16333.64223073761
 31
0.0
  0
LINE
  5
CC
330
56
100
AcDbEntity
  8
0
  6
Continuous
 62
     7
100
AcDbLine
 10
-11584.12294788908
 20
-16333.64223073761
 30
0.0
 11
-11586.50645507427
 21
-16331.64223073764
 31
0.0
  0
LINE
  5
CD
330
56
100
AcDbEntity
  8
0
  6
Continuous
 62
     7
100
AcDbLine
 10
-11538.08526105206
 20
-16318.64223073761
 30
0.0
 11
-11543.2200490621
 21
-16318.64223073761
 31
0.0
  0
LINE
  5
CE
330
56
100
AcDbEntity
  8
0
  6
Continuous
 62
     7
100
AcDbLine
 10
-11536.49354492573
 20
-16318.64223073761
 30
0.0
 11
-11536.49354492573
 21
-16331.64223073764
 31
0.0
  0
LINE
  5
CF
330
56
100
AcDbEntity
  8
0
  6
Continuous
 62
     7
100
AcDbLine
 10
-11537.64824546411
 20
-16318.64223073761
 30
0.0
 11
-11537.64824546411
 21
-16332.54090320288
 31
0.0
  0
LINE
  5
D0
330
56
100
AcDbEntity
  8
0
  6
Continuous
 62
     7
100
AcDbLine
 10
-11536.49354492573
 20
-16318.64223073761
 30
0.0
 11
-11537.64824546411
 21
-16318.64223073761
 31
0.0
  0
LINE
  5
D1
330
56
100
AcDbEntity
  8
0
  6
Continuous
 62
     7
100
AcDbLine
 10
-11537.64824546411
 20
-16318.64223073761
 30
0.0
 11
-11538.08526105206
 21
-16318.64223073761
 31
0.0
  0
LINE
  5
D2
330
56
100
AcDbEntity
  8
0
  6
Continuous
 62
     7
100
AcDbLine
 10
-11536.49354492573
 20
-16316.14223073761
 30
0.0
 11
-11536.49354492573
 21
-16318.64223073761
 31
0.0
  0
LINE
  5
D3
330
56
100
AcDbEntity
  8
0
  6
Continuous
 62
     7
100
AcDbLine
 10
-11536.49354492573
 20
-16316.14223073761
 30
0.0
 11
-11586.50645507427
 21
-16316.14223073761
 31
0.0
  0
LINE
  5
D4
330
56
100
AcDbEntity
  8
0
  6
Continuous
 62
     7
100
AcDbLine
 10
-11586.50645507427
 20
-16316.14223073761
 30
0.0
 11
-11586.50645507427
 21
-16318.64223073761
 31
0.0
  0
LINE
  5
D5
330
56
100
AcDbEntity
  8
0
  6
Continuous
 62
     7
100
AcDbLine
 10
-11579.7799509379
 20
-16318.64223073761
 30
0.0
 11
-11579.7799509379
 21
-16332.54090320289
 31
0.0
  0
LINE
  5
D6
330
56
100
AcDbEntity
  8
0
  6
Continuous
 62
     7
100
AcDbLine
 10
-11585.35175453589
 20
-16318.64223073761
 30
0.0
 11
-11585.35175453589
 21
-16332.54090320289
 31
0.0
  0
LINE
  5
D7
330
56
100
AcDbEntity
  8
0
  6
Continuous
 62
     7
100
AcDbLine
 10
-11543.2200490621
 20
-16318.64223073761
 30
0.0
 11
-11543.2200490621
 21
-16332.54090320289
 31
0.0
  0
LINE
  5
D8
330
56
100
AcDbEntity
  8
0
  6
Continuous
 62
     7
100
AcDbLine
 10
-11543.2200490621
 20
-16318.64223073761
 30
0.0
 11
-11543.81776604355
 21
-16318.64223073761
 31
0.0
  0
LINE
  5
D9
330
56
100
AcDbEntity
  8
0
  6
Continuous
 62
     7
100
AcDbLine
 10
-11585.35175453589
 20
-16318.64223073761
 30
0.0
 11
-11586.50645507427
 21
-16318.64223073761
 31
0.0
  0
LINE
  5
DA
330
56
100
AcDbEntity
  8
0
  6
Continuous
 62
     7
100
AcDbLine
 10
-11579.18223395645
 20
-16318.64223073761
 30
0.0
 11
-11579.7799509379
 21
-16318.64223073761
 31
0.0
  0
LINE
  5
DB
330
56
100
AcDbEntity
  8
0
  6
Continuous
 62
     7
100
AcDbLine
 10
-11579.7799509379
 20
-16318.64223073761
 30
0.0
 11
-11584.91473894794
 21
-16318.64223073761
 31
0.0
  0
LINE
  5
DC
330
56
100
AcDbEntity
  8
0
  6
Continuous
 62
     7
100
AcDbLine
 10
-11584.91473894794
 20
-16318.64223073761
 30
0.0
 11
-11585.35175453589
 21
-16318.64223073761
 31
0.0
  0
LINE
  5
DD
330
56
100
AcDbEntity
  8
0
  6
Continuous
 62
     7
100
AcDbLine
 10
-11586.50645507427
 20
-16318.64223073761
 30
0.0
 11
-11586.50645507427
 21
-16331.64223073764
 31
0.0
  0
LINE
  5
DE
330
56
100
AcDbEntity
  8
0
  6
Continuous
 62
     7
100
AcDbLine
 10
-11584.91473894794
 20
-16332.90629663482
 30
0.0
 11
-11579.47093425218
 21
-16332.90629663482
 31
0.0
  0
LINE
  5
DF
330
56
100
AcDbEntity
  8
0
  6
Continuous
 62
     7
100
AcDbLine
 10
-11543.52906574782
 20
-16332.90629663482
 30
0.0
 11
-11538.08526105206
 21
-16332.90629663482
 31
0.0
  0
LINE
  5
E0
330
56
100
AcDbEntity
  8
0
  6
Continuous
 62
     7
100
AcDbLine
 10
-11584.91473894794
 20
-16332.90629663482
 30
0.0
 11
-11584.91473894794
 21
-16318.64223073761
 31
0.0
  0
LINE
  5
E1
330
56
100
AcDbEntity
  8
0
  6
Continuous
 62
     7
100
AcDbLine
 10
-11561.5
 20
-16318.64223073761
 30
0.0
 11
-11561.5
 21
-16331.64223073764
 31
0.0
  0
LINE
  5
E2
330
56
100
AcDbEntity
  8
0
  6
Continuous
 62
     7
100
AcDbLine
 10
-11543.81776604355
 20
-16318.64223073761
 30
0.0
 11
-11543.81776604355
 21
-16331.64223073764
 31
0.0
  0
LINE
  5
E3
330
56
100
AcDbEntity
  8
0
  6
Continuous
 62
     7
100
AcDbLine
 10
-11559.5
 20
-16332.54090320289
 30
0.0
 11
-11559.5
 21
-16332.90629663484
 31
0.0
  0
LINE
  5
E4
330
56
100
AcDbEntity
  8
0
  6
Continuous
 62
     7
100
AcDbLine
 10
-11563.5
 20
-16332.90629663484
 30
0.0
 11
-11563.5
 21
-16332.54090320289
 31
0.0
  0
LINE
  5
E5
330
56
100
AcDbEntity
  8
0
  6
Continuous
 62
     7
100
AcDbLine
 10
-11576.64250712743
 20
-16332.90629663482
 30
0.0
 11
-11563.5
 21
-16332.90629663484
 31
0.0
  0
LINE
  5
E6
330
56
100
AcDbEntity
  8
0
  6
Continuous
 62
     7
100
AcDbLine
 10
-11546.04847618685
 20
-16318.64223073761
 30
0.0
 11
-11546.35749287257
 21
-16318.64223073761
 31
0.0
  0
LINE
  5
E7
330
56
100
AcDbEntity
  8
0
  6
Continuous
 62
     7
100
AcDbLine
 10
-11543.81776604355
 20
-16318.64223073761
 30
0.0
 11
-11546.04847618685
 21
-16318.64223073761
 31
0.0
  0
LINE
  5
E8
330
56
100
AcDbEntity
  8
0
  6
Continuous
 62
     7
100
AcDbLine
 10
-11546.35749287257
 20
-16318.64223073761
 30
0.0
 11
-11559.5
 21
-16318.64223073761
 31
0.0
  0
LINE
  5
E9
330
56
100
AcDbEntity
  8
0
  6
Continuous
 62
     7
100
AcDbLine
 10
-11559.5
 20
-16318.64223073761
 30
0.0
 11
-11559.5
 21
-16332.54090320289
 31
0.0
  0
LINE
  5
EA
330
56
100
AcDbEntity
  8
0
  6
Continuous
 62
     7
100
AcDbLine
 10
-11561.5
 20
-16318.64223073761
 30
0.0
 11
-11563.5
 21
-16318.64223073761
 31
0.0
  0
LINE
  5
EB
330
56
100
AcDbEntity
  8
0
  6
Continuous
 62
     7
100
AcDbLine
 10
-11563.5
 20
-16318.64223073761
 30
0.0
 11
-11563.5
 21
-16332.54090320289
 31
0.0
  0
LINE
  5
EC
330
56
100
AcDbEntity
  8
0
  6
Continuous
 62
     7
100
AcDbLine
 10
-11559.5
 20
-16318.64223073761
 30
0.0
 11
-11561.5
 21
-16318.64223073761
 31
0.0
  0
LINE
  5
ED
330
56
100
AcDbEntity
  8
0
  6
Continuous
 62
     7
100
AcDbLine
 10
-11576.64250712743
 20
-16318.64223073761
 30
0.0
 11
-11576.95152381315
 21
-16318.64223073761
 31
0.0
  0
LINE
  5
EE
330
56
100
AcDbEntity
  8
0
  6
Continuous
 62
     7
100
AcDbLine
 10
-11563.5
 20
-16318.64223073761
 30
0.0
 11
-11576.64250712743
 21
-16318.64223073761
 31
0.0
  0
LINE
  5
EF
330
56
100
AcDbEntity
  8
0
  6
Continuous
 62
     7
100
AcDbLine
 10
-11576.95152381315
 20
-16318.64223073761
 30
0.0
 11
-11579.18223395645
 21
-16318.64223073761
 31
0.0
  0
LINE
  5
F0
330
56
100
AcDbEntity
  8
0
  6
Continuous
 62
     7
100
AcDbLine
 10
-11579.18223395645
 20
-16318.64223073761
 30
0.0
 11
-11579.18223395645
 21
-16331.64223073764
 31
0.0
  0
LINE
  5
F1
330
56
100
AcDbEntity
  8
0
  6
Continuous
 62
     7
100
AcDbLine
 10
-11576.95152381315
 20
-16318.64223073761
 30
0.0
 11
-11576.95152381315
 21
-16332.54090320289
 31
0.0
  0
LINE
  5
F2
330
56
100
AcDbEntity
  8
0
  6
Continuous
 62
     7
100
AcDbLine
 10
-11559.5
 20
-16332.90629663484
 30
0.0
 11
-11546.35749287257
 21
-16332.90629663482
 31
0.0
  0
LINE
  5
F3
330
56
100
AcDbEntity
  8
0
  6
Continuous
 62
     7
100
AcDbLine
 10
-11576.64250712743
 20
-16332.90629663482
 30
0.0
 11
-11576.64250712743
 21
-16318.64223073761
 31
0.0
  0
LINE
  5
F4
330
56
100
AcDbEntity
  8
0
  6
Continuous
 62
     7
100
AcDbLine
 10
-11546.35749287257
 20
-16332.90629663482
 30
0.0
 11
-11546.35749287257
 21
-16318.64223073761
 31
0.0
  0
LINE
  5
F5
330
56
100
AcDbEntity
  8
0
  6
Continuous
 62
     7
100
AcDbLine
 10
-11538.08526105206
 20
-16332.90629663482
 30
0.0
 11
-11538.08526105206
 21
-16318.64223073761
 31
0.0
  0
LINE
  5
F6
330
56
100
AcDbEntity
  8
0
  6
Continuous
 62
     7
100
AcDbLine
 10
-11546.04847618685
 20
-16318.64223073761
 30
0.0
 11
-11546.04847618685
 21
-16332.54090320289
 31
0.0
  0
LINE
  5
F7
330
56
100
AcDbEntity
  8
1
  6
Continuous
 62
     7
100
AcDbLine
 10
-11533.36740072715
 20
-16324.64223073761
 30
0.0
 11
-11534.36740072715
 21
-16324.64223073761
 31
0.0
  0
SPLINE
  5
F8
330
56
100
AcDbEntity
  8
0
  6
Continuous
 62
     7
100
AcDbSpline
210
0.0
220
0.0
230
1.0
 70
     8
 71
     3
 72
    11
 73
     7
 74
     5
 42
0.000000001
 43
0.0000000001
 44
0.00000001
 40
0.0
 40
0.0
 40
0.0
 40
0.0
 40
0.3737464505841551
 40
0.7390895745079269
 40
1.105463846701123
 40
1.463540272223972
 40
1.463540272223972
 40
1.463540272223972
 40
1.463540272223972
 10
-11586.50645507427
 20
-16331.64223073764
 30
0.0
 10
-11586.41063298557
 20
-16331.7218536174
 30
0.0
 10
-11586.2211432655
 20
-16331.87930912215
 30
0.0
 10
-11585.93237369442
 20
-16332.10824921969
 30
0.0
 10
-11585.64399705962
 20
-16332.32921450871
 30
0.0
 10
-11585.44842200891
 20
-16332.47088119148
 30
0.0
 10
-11585.35175453589
 20
-16332.54090320289
 30
0.0
 11
-11586.50645507427
 21
-16331.64223073764
 31
0.0
 11
-11586.21807449753
 21
-16331.87997651012
 31
0.0
 11
-11585.93202367071
 21
-16332.10724402387
 31
0.0
 11
-11585.64081051897
 21
-16332.32956138202
 31
0.0
 11
-11585.35175453589
 21
-16332.54090320289
 31
0.0
  0
SPLINE
  5
F9
330
56
100
AcDbEntity
  8
0
  6
Continuous
 62
     7
100
AcDbSpline
210
0.0
220
0.0
230
1.0
 70
     8
 71
     3
 72
    11
 73
     7
 74
     5
 42
0.000000001
 43
0.0000000001
 44
0.00000001
 40
0.0
 40
0.0
 40
0.0
 40
0.0
 40
0.2593882560453639
 40
0.5283218882823371
 40
0.7992614730935008
 40
1.07952456870314
 40
1.07952456870314
 40
1.07952456870314
 40
1.07952456870314
 10
-11579.7799509379
 20
-16332.54090320289
 30
0.0
 10
-11579.72968448675
 20
-16332.47054927786
 30
0.0
 10
-11579.62730181305
 20
-16332.32725242491
 30
0.0
 10
-11579.47819805512
 20
-16332.10643295082
 30
0.0
 10
-11579.32876886095
 20
-16331.87748949526
 30
0.0
 10
-11579.23162663575
 20
-16331.72152967189
 30
0.0
 10
-11579.18223395645
 20
-16331.64223073764
 30
0.0
 11
-11579.7799509379
 21
-16332.54090320289
 31
0.0
 11
-11579.63007316619
 21
-16332.32919840609
 31
0.0
 11
-11579.47915521633
 21
-16332.10660219976
 31
0.0
 11
-11579.33126182053
 21
-16331.87958721745
 31
0.0
 11
-11579.18223395645
 21
-16331.64223073764
 31
0.0
  0
SPLINE
  5
FA
330
56
100
AcDbEntity
  8
0
  6
Continuous
 62
     7
100
AcDbSpline
210
0.0
220
0.0
230
1.0
 70
     8
 71
     3
 72
    11
 73
     7
 74
     5
 42
0.000000001
 43
0.0000000001
 44
0.00000001
 40
0.0
 40
0.0
 40
0.0
 40
0.0
 40
0.1196368274203749
 40
0.2392729893212944
 40
0.3589084774625979
 40
0.4785432814550137
 40
0.4785432814550137
 40
0.4785432814550137
 40
0.4785432814550137
 10
-11579.7799509379
 20
-16332.54090320289
 30
0.0
 10
-11579.7542001717
 20
-16332.57135362313
 30
0.0
 10
-11579.70269877108
 20
-16332.63225428453
 30
0.0
 10
-11579.62544503635
 20
-16332.72360345556
 30
0.0
 10
-11579.54819045687
 20
-16332.81495102885
 30
0.0
 10
-11579.49668627514
 20
-16332.87584816077
 30
0.0
 10
-11579.47093425218
 20
-16332.90629663482
 30
0.0
 11
-11579.7799509379
 21
-16332.54090320289
 31
0.0
 11
-11579.70269832706
 21
-16332.63225419957
 31
0.0
 11
-11579.62544468558
 21
-16332.72360345305
 31
0.0
 11
-11579.54818999861
 21
-16332.81495093996
 31
0.0
 11
-11579.47093425218
 21
-16332.90629663482
 31
0.0
  0
SPLINE
  5
FB
330
56
100
AcDbEntity
  8
0
  6
Continuous
 62
     7
100
AcDbSpline
210
0.0
220
0.0
230
1.0
 70
     8
 71
     3
 72
    11
 73
     7
 74
     5
 42
0.000000001
 43
0.0000000001
 44
0.00000001
 40
0.0
 40
0.0
 40
0.0
 40
0.0
 40
0.2806680072536198
 40
0.5519731591485454
 40
0.8212540187651116
 40
1.079524579099782
 40
1.079524579099782
 40
1.079524579099782
 40
1.079524579099782
 10
-11543.81776604355
 20
-16331.64223073764
 30
0.0
 10
-11543.76830149582
 20
-16331.72164393036
 30
0.0
 10
-11543.67102248465
 20
-16331.87782114866
 30
0.0
 10
-11543.52138094434
 20
-16332.10707101251
 30
0.0
 10
-11543.37233759504
 20
-16332.32776844884
 30
0.0
 10
-11543.27010066274
 20
-16332.47085371143
 30
0.0
 10
-11543.2200490621
 20
-16332.54090320289
 30
0.0
 11
-11543.81776604355
 21
-16331.64223073764
 31
0.0
 11
-11543.66852005305
 21
-16331.87992837043
 31
0.0
 11
-11543.52041846885
 21
-16332.10724402387
 31
0.0
 11
-11543.36929041231
 21
-16332.3301172883
 31
0.0
 11
-11543.2200490621
 21
-16332.54090320289
 31
0.0
  0
SPLINE
  5
FC
330
56
100
AcDbEntity
  8
0
  6
Continuous
 62
     7
100
AcDbSpline
210
0.0
220
0.0
230
1.0
 70
     8
 71
     3
 72
    11
 73
     7
 74
     5
 42
0.000000001
 43
0.0000000001
 44
0.00000001
 40
0.0
 40
0.0
 40
0.0
 40
0.0
 40
0.1428586135722672
 40
0.2848223050060005
 40
0.4279583192392721
 40
0.5696446122927521
 40
0.5696446122927521
 40
0.5696446122927521
 40
0.5696446122927521
 10
-11585.35175453589
 20
-16332.54090320289
 30
0.0
 10
-11585.31522298543
 20
-16332.57144933533
 30
0.0
 10
-11585.24238872282
 20
-16332.63235023583
 30
0.0
 10
-11585.13295011391
 20
-16332.72385435897
 30
0.0
 10
-11585.02381001772
 20
-16332.81510629553
 30
0.0
 10
-11584.95097239531
 20
-16332.87600317886
 30
0.0
 10
-11584.91473894794
 20
-16332.90629663482
 30
0.0
 11
-11585.35175453589
 21
-16332.54090320289
 31
0.0
 11
-11585.24215957078
 21
-16332.63254122499
 31
0.0
 11
-11585.13324969838
 21
-16332.72360345305
 31
0.0
 11
-11585.02343897178
 21
-16332.81541588628
 31
0.0
 11
-11584.91473894794
 21
-16332.90629663482
 31
0.0
  0
SPLINE
  5
FD
330
56
100
AcDbEntity
  8
0
  6
Continuous
 62
     7
100
AcDbSpline
210
0.0
220
0.0
230
1.0
 70
     8
 71
     3
 72
    11
 73
     7
 74
     5
 42
0.000000001
 43
0.0000000001
 44
0.00000001
 40
0.0
 40
0.0
 40
0.0
 40
0.0
 40
0.1196368274203749
 40
0.2392729893212944
 40
0.3589084774625979
 40
0.4785432814550137
 40
0.4785432814550137
 40
0.4785432814550137
 40
0.4785432814550137
 10
-11543.2200490621
 20
-16332.54090320289
 30
0.0
 10
-11543.2457998283
 20
-16332.57135362313
 30
0.0
 10
-11543.29730122891
 20
-16332.63225428453
 30
0.0
 10
-11543.37455496365
 20
-16332.72360345556
 30
0.0
 10
-11543.45180954313
 20
-16332.81495102885
 30
0.0
 10
-11543.50331372486
 20
-16332.87584816077
 30
0.0
 10
-11543.52906574782
 20
-16332.90629663482
 30
0.0
 11
-11543.2200490621
 21
-16332.54090320289
 31
0.0
 11
-11543.29730167294
 21
-16332.63225419957
 31
0.0
 11
-11543.37455531442
 21
-16332.72360345305
 31
0.0
 11
-11543.45181000139
 21
-16332.81495093996
 31
0.0
 11
-11543.52906574782
 21
-16332.90629663482
 31
0.0
  0
SPLINE
  5
FE
330
56
100
AcDbEntity
  8
0
  6
Continuous
 62
     7
100
AcDbSpline
210
0.0
220
0.0
230
1.0
 70
     8
 71
     3
 72
    11
 73
     7
 74
     5
 42
0.000000001
 43
0.0000000001
 44
0.00000001
 40
0.0
 40
0.0
 40
0.0
 40
0.0
 40
0.1422374675371669
 40
0.2848223780097257
 40
0.4267374548226019
 40
0.5696446122985865
 40
0.5696446122985865
 40
0.5696446122985865
 40
0.5696446122985865
 10
-11538.08526105206
 20
-16332.90629663482
 30
0.0
 10
-11538.04888665328
 20
-16332.87588533357
 30
0.0
 10
-11537.97604901373
 20
-16332.814988434
 30
0.0
 10
-11537.86692133421
 20
-16332.72374687339
 30
0.0
 10
-11537.75762367277
 20
-16332.63236060027
 30
0.0
 10
-11537.68478942816
 20
-16332.57145971497
 30
0.0
 10
-11537.64824546411
 20
-16332.54090320288
 30
0.0
 11
-11538.08526105206
 21
-16332.90629663482
 31
0.0
 11
-11537.97613817667
 21
-16332.81506234719
 31
0.0
 11
-11537.86675024736
 21
-16332.72360340769
 31
0.0
 11
-11537.75787767025
 21
-16332.63257236365
 31
0.0
 11
-11537.64824546411
 21
-16332.54090320288
 31
0.0
  0
SPLINE
  5
FF
330
56
100
AcDbEntity
  8
0
  6
Continuous
 62
     7
100
AcDbSpline
210
0.0
220
0.0
230
1.0
 70
     8
 71
     3
 72
    11
 73
     7
 74
     5
 42
0.000000001
 43
0.0000000001
 44
0.00000001
 40
0.0
 40
0.0
 40
0.0
 40
0.0
 40
0.6070519148706742
 40
1.203233281954022
 40
1.809542079217922
 40
2.405216578207998
 40
2.405216578207998
 40
2.405216578207998
 40
2.405216578207998
 10
-11579.18223395645
 20
-16331.64223073764
 30
0.0
 10
-11578.99634303543
 20
-16331.72217884497
 30
0.0
 10
-11578.62788995746
 20
-16331.88064340605
 30
0.0
 10
-11578.06983226898
 20
-16332.10960786212
 30
0.0
 10
-11577.51261971811
 20
-16332.3305478843
 30
0.0
 10
-11577.13744936925
 20
-16332.47119956355
 30
0.0
 10
-11576.95152381315
 20
-16332.54090320289
 30
0.0
 11
-11579.18223395645
 21
-16331.64223073764
 31
0.0
 11
-11578.62389412908
 21
-16331.88049249409
 31
0.0
 11
-11578.07251770017
 21
-16332.10724402387
 31
0.0
 11
-11577.50863698277
 21
-16332.33006434242
 31
0.0
 11
-11576.95152381315
 21
-16332.54090320289
 31
0.0
  0
SPLINE
  5
100
330
56
100
AcDbEntity
  8
0
  6
Continuous
 62
     7
100
AcDbSpline
210
0.0
220
0.0
230
1.0
 70
     8
 71
     3
 72
    11
 73
     7
 74
     5
 42
0.000000001
 43
0.0000000001
 44
0.00000001
 40
0.0
 40
0.0
 40
0.0
 40
0.0
 40
0.1196368274141762
 40
0.2392729893212942
 40
0.3589084774653755
 40
0.4785432814550136
 40
0.4785432814550136
 40
0.4785432814550136
 40
0.4785432814550136
 10
-11576.95152381315
 20
-16332.54090320289
 30
0.0
 10
-11576.92577304694
 20
-16332.57135362313
 30
0.0
 10
-11576.87427164632
 20
-16332.63225428452
 30
0.0
 10
-11576.79701791161
 20
-16332.72360345557
 30
0.0
 10
-11576.71976333212
 20
-16332.81495102886
 30
0.0
 10
-11576.66825915039
 20
-16332.87584816077
 30
0.0
 10
-11576.64250712743
 20
-16332.90629663482
 30
0.0
 11
-11576.95152381315
 21
-16332.54090320289
 31
0.0
 11
-11576.8742712023
 21
-16332.63225419955
 31
0.0
 11
-11576.79701756083
 21
-16332.72360345305
 31
0.0
 11
-11576.71976287386
 21
-16332.81495093996
 31
0.0
 11
-11576.64250712743
 21
-16332.90629663482
 31
0.0
  0
SPLINE
  5
101
330
56
100
AcDbEntity
  8
0
  6
Continuous
 62
     7
100
AcDbSpline
210
0.0
220
0.0
230
1.0
 70
     8
 71
     3
 72
    11
 73
     7
 74
     5
 42
0.000000001
 43
0.0000000001
 44
0.00000001
 40
0.0
 40
0.0
 40
0.0
 40
0.0
 40
0.5524650003332618
 40
1.096712772939273
 40
1.650013040225576
 40
2.192932603722427
 40
2.192932603722427
 40
2.192932603722427
 40
2.192932603722427
 10
-11561.5
 20
-16331.64223073764
 30
0.0
 10
-11561.33395830531
 20
-16331.72188316503
 30
0.0
 10
-11561.00434457263
 20
-16331.88000327582
 30
0.0
 10
-11560.50421160044
 20
-16332.10890695813
 30
0.0
 10
-11560.00409442317
 20
-16332.33011047272
 30
0.0
 10
-11559.66696732953
 20
-16332.47108394902
 30
0.0
 10
-11559.5
 20
-16332.54090320289
 30
0.0
 11
-11561.5
 21
-16331.64223073764
 31
0.0
 11
-11561.0011620433
 21
-16331.87967182424
 31
0.0
 11
-11560.50648210305
 21
-16332.10660219872
 31
0.0
 11
-11560.00018312378
 21
-16332.32976700229
 31
0.0
 11
-11559.5
 21
-16332.54090320289
 31
0.0
  0
SPLINE
  5
102
330
56
100
AcDbEntity
  8
0
  6
Continuous
 62
     7
100
AcDbSpline
210
0.0
220
0.0
230
1.0
 70
     8
 71
     3
 72
    11
 73
     7
 74
     5
 42
0.000000001
 43
0.0000000001
 44
0.00000001
 40
0.0
 40
0.0
 40
0.0
 40
0.0
 40
0.5977908271832498
 40
1.203698859044339
 40
1.799024018969593
 40
2.405216571603193
 40
2.405216571603193
 40
2.405216571603193
 40
2.405216571603193
 10
-11546.04847618685
 20
-16332.54090320289
 30
0.0
 10
-11545.8618910331
 20
-16332.47094927071
 30
0.0
 10
-11545.48618715264
 20
-16332.33009151088
 30
0.0
 10
-11544.92871846921
 20
-16332.10902026461
 30
0.0
 10
-11544.37132029371
 20
-16331.88030714931
 30
0.0
 10
-11544.00339339039
 20
-16331.72206662661
 30
0.0
 10
-11543.81776604355
 20
-16331.64223073764
 30
0.0
 11
-11546.04847618685
 21
-16332.54090320289
 31
0.0
 11
-11545.4893891935
 21
-16332.32930072883
 31
0.0
 11
-11544.92589127123
 21
-16332.10660219976
 31
0.0
 11
-11544.37531326564
 21
-16331.88016036184
 31
0.0
 11
-11543.81776604355
 21
-16331.64223073764
 31
0.0
  0
SPLINE
  5
103
330
56
100
AcDbEntity
  8
0
  6
Continuous
 62
     7
100
AcDbSpline
210
0.0
220
0.0
230
1.0
 70
     8
 71
     3
 72
    11
 73
     7
 74
     5
 42
0.000000001
 43
0.0000000001
 44
0.00000001
 40
0.0
 40
0.0
 40
0.0
 40
0.0
 40
0.5441127834163714
 40
1.096219829438785
 40
1.639306315828494
 40
2.192932603455367
 40
2.192932603455367
 40
2.192932603455367
 40
2.192932603455367
 10
-11563.5
 20
-16332.54090320289
 30
0.0
 10
-11563.33266631498
 20
-16332.47092900984
 30
0.0
 10
-11562.99554043584
 20
-16332.32995252875
 30
0.0
 10
-11562.49578090307
 20
-16332.10889769313
 30
0.0
 10
-11561.99600613835
 20
-16331.88016729875
 30
0.0
 10
-11561.66639128277
 20
-16331.72204945219
 30
0.0
 10
-11561.5
 20
-16331.64223073764
 30
0.0
 11
-11563.5
 21
-16332.54090320289
 31
0.0
 11
-11562.99872126886
 21
-16332.32929423596
 31
0.0
 11
-11562.49351789695
 21
-16332.10660219872
 31
0.0
 11
-11561.99989002275
 21
-16331.8801635676
 31
0.0
 11
-11561.5
 21
-16331.64223073764
 31
0.0
  0
SPLINE
  5
104
330
56
100
AcDbEntity
  8
0
  6
Continuous
 62
     7
100
AcDbSpline
210
0.0
220
0.0
230
1.0
 70
     8
 71
     3
 72
    11
 73
     7
 74
     5
 42
0.000000001
 43
0.0000000001
 44
0.00000001
 40
0.0
 40
0.0
 40
0.0
 40
0.0
 40
0.119634833700907
 40
0.2392703515398049
 40
0.358906483748257
 40
0.4785432814550136
 40
0.4785432814550136
 40
0.4785432814550136
 40
0.4785432814550136
 10
-11546.35749287257
 20
-16332.90629663482
 30
0.0
 10
-11546.33174084322
 20
-16332.87584815321
 30
0.0
 10
-11546.2802366487
 20
-16332.81495100617
 30
0.0
 10
-11546.20298206282
 20
-16332.72360342533
 30
0.0
 10
-11546.12572833449
 20
-16332.63225426185
 30
0.0
 10
-11546.07422694666
 20
-16332.57135361556
 30
0.0
 10
-11546.04847618685
 20
-16332.54090320289
 30
0.0
 11
-11546.35749287257
 21
-16332.90629663482
 31
0.0
 11
-11546.28023710696
 21
-16332.81495091727
 31
0.0
 11
-11546.20298240081
 21
-16332.72360340769
 31
0.0
 11
-11546.1257287785
 21
-16332.63225417687
 31
0.0
 11
-11546.04847618685
 21
-16332.54090320289
 31
0.0
  0
SPLINE
  5
105
330
56
100
AcDbEntity
  8
0
  6
Continuous
 62
     7
100
AcDbSpline
210
0.0
220
0.0
230
1.0
 70
     8
 71
     3
 72
    11
 73
     7
 74
     5
 42
0.000000001
 43
0.0000000001
 44
0.00000001
 40
0.0
 40
0.0
 40
0.0
 40
0.0
 40
0.3576963356480002
 40
0.7254947817530735
 40
1.089464603374681
 40
1.463540268301641
 40
1.463540268301641
 40
1.463540268301641
 40
1.463540268301641
 10
-11537.64824546411
 20
-16332.54090320288
 30
0.0
 10
-11537.55168028137
 20
-16332.47095598413
 30
0.0
 10
-11537.3558227173
 20
-16332.32908607519
 30
0.0
 10
-11537.06753820432
 20
-16332.10818054311
 30
0.0
 10
-11536.77867415645
 20
-16331.87915603991
 30
0.0
 10
-11536.58945165576
 20
-16331.72192348889
 30
0.0
 10
-11536.49354492573
 20
-16331.64223073764
 30
0.0
 11
-11537.64824546411
 21
-16332.54090320288
 31
0.0
 11
-11537.35949395259
 21
-16332.32978893709
 31
0.0
 11
-11537.06715275229
 21
-16332.10660219976
 31
0.0
 11
-11536.7821813892
 21
-16331.88018366385
 31
0.0
 11
-11536.49354492573
 21
-16331.64223073764
 31
0.0
  0
ENDBLK
  5
58
330
56
100
AcDbEntity
  8
0
100
AcDbBlockEnd
  0
BLOCK
  5
5A
330
59
100
AcDbEntity
  8
0
100
AcDbBlockBegin
  2
HL13_30
 70
     0
 10
0.00000042634997
 20
5.99999999999032
 30
0.0
  3
HL13_30
  1

  0
LINE
  5
106
330
59
100
AcDbEntity
  8
1
  6
Continuous
 62
     7
100
AcDbLine
 10
-23.99999957365003
 20
5.49999999999032
 30
0.0
 11
-23.99999957365003
 21
6.49999999999032
 31
0.0
  0
LINE
  5
107
330
59
100
AcDbEntity
  8
1
  6
Continuous
 62
     7
100
AcDbLine
 10
24.00000042634997
 20
5.49999999999032
 30
0.0
 11
24.00000042634997
 21
6.49999999999032
 31
0.0
  0
ENDBLK
  5
5B
330
59
100
AcDbEntity
  8
0
100
AcDbBlockEnd
  0
BLOCK
  5
5D
330
5C
100
AcDbEntity
  8
0
100
AcDbBlockBegin
  2
HL_130_30_Flaschensifon
 70
     0
 10
3.56249999999088
 20
-185.2915890000008
 30
0.0
  3
HL_130_30_Flaschensifon
  1

  0
POINT
  5
108
330
5C
100
AcDbEntity
  8
0
 62
     7
100
AcDbPoint
 10
-24.00000000000909
 20
-164.0915890000007
 30
0.0
  0
LINE
  5
109
330
5C
100
AcDbEntity
  8
1
  6
Continuous
 62
     7
100
AcDbLine
 10
-32.50000000000909
 20
-208.4915890000008
 30
0.0
 11
-31.70204081633563
 21
-208.4915890000008
 31
0.0
  0
LINE
  5
10A
330
5C
100
AcDbEntity
  8
1
  6
Continuous
 62
     7
100
AcDbLine
 10
-32.50000000000909
 20
-210.4915890000008
 30
0.0
 11
-32.50000000000909
 21
-208.4915890000008
 31
0.0
  0
LINE
  5
10B
330
5C
100
AcDbEntity
  8
1
  6
Continuous
 62
     7
100
AcDbLine
 10
32.04897973332424
 20
-210.4915890000008
 30
0.0
 11
-32.50000000000909
 21
-210.4915890000008
 31
0.0
  0
LINE
  5
10C
330
5C
100
AcDbEntity
  8
LC-001-002-----0
  6
Continuous
 62
     7
100
AcDbLine
 10
-31.70204081633563
 20
-208.4915890000008
 30
0.0
 11
-24.00000000000909
 21
-164.0915890000007
 31
0.0
  0
LINE
  5
10D
330
5C
100
AcDbEntity
  8
LC-001-002-----0
  6
Continuous
 62
     7
100
AcDbLine
 10
31.71938799999089
 20
-208.5915890000007
 30
0.0
 11
36.99999999999091
 21
-208.5915890000007
 31
0.0
  0
LINE
  5
10E
330
5C
100
AcDbEntity
  8
LC-001-002-----0
  6
Continuous
 62
     7
100
AcDbLine
 10
-24.00000000000909
 20
-164.0915890000007
 30
0.0
 11
-18.50000000000909
 21
-164.0915890000007
 31
0.0
  0
LINE
  5
10F
330
5C
100
AcDbEntity
  8
LC-001-002-----0
  6
Continuous
 62
     7
100
AcDbLine
 10
18.49999999999091
 20
-164.0915890000007
 30
0.0
 11
36.99999999999091
 21
-164.0915890000007
 31
0.0
  0
LINE
  5
110
330
5C
100
AcDbEntity
  8
LC-001-002-----0
  6
Continuous
 62
     7
100
AcDbLine
 10
-18.50000000000909
 20
-164.0915890000007
 30
0.0
 11
-20.50000000000909
 21
-162.0915890000007
 31
0.0
  0
LINE
  5
111
330
5C
100
AcDbEntity
  8
LC-001-002-----0
  6
Continuous
 62
     7
100
AcDbLine
 10
18.49999999999091
 20
-164.0915890000007
 30
0.0
 11
20.49999999999091
 21
-162.0915890000007
 31
0.0
  0
LINE
  5
112
330
5C
100
AcDbEntity
  8
LC-001-002-----0
  6
Continuous
 62
     7
100
AcDbLine
 10
36.99999999999091
 20
-164.0915890000007
 30
0.0
 11
38.74999999999091
 21
-162.3415890000007
 31
0.0
  0
LINE
  5
113
330
5C
100
AcDbEntity
  8
LC-001-002-----0
  6
Continuous
 62
     7
100
AcDbLine
 10
36.99999999999091
 20
-208.5915890000007
 30
0.0
 11
38.74999999999091
 21
-210.3415890000007
 31
0.0
  0
LINE
  5
114
330
5C
100
AcDbEntity
  8
1
  6
Continuous
 62
     7
100
AcDbLine
 10
31.71938799999089
 20
-208.5915890000007
 30
0.0
 11
32.04897973332424
 21
-210.4915890000008
 31
0.0
  0
LINE
  5
115
330
5C
100
AcDbEntity
  8
1
  6
Continuous
 62
     7
100
AcDbLine
 10
-31.70204081633563
 20
-208.4915890000008
 30
0.0
 11
31.71938799999089
 21
-208.4915890000008
 31
0.0
  0
LINE
  5
116
330
5C
100
AcDbEntity
  8
LC-001-002-----0
  6
Continuous
 62
     2
100
AcDbLine
 10
-18.50000000000909
 20
-160.0915890000007
 30
0.0
 11
-18.50000000000909
 21
-162.0915890000007
 31
0.0
  0
LINE
  5
117
330
5C
100
AcDbEntity
  8
LC-001-002-----0
  6
Continuous
 62
     7
100
AcDbLine
 10
-20.50000000000909
 20
-160.0915890000007
 30
0.0
 11
-20.50000000000909
 21
-162.0915890000007
 31
0.0
  0
LINE
  5
118
330
5C
100
AcDbEntity
  8
LC-001-002-----0
  6
Continuous
 62
     2
100
AcDbLine
 10
18.49999999999091
 20
-160.0915890000007
 30
0.0
 11
18.49999999999091
 21
-164.0915890000007
 31
0.0
  0
LINE
  5
119
330
5C
100
AcDbEntity
  8
LC-001-002-----0
  6
Continuous
 62
     7
100
AcDbLine
 10
20.49999999999091
 20
-160.0915890000007
 30
0.0
 11
20.49999999999091
 21
-162.0915890000007
 31
0.0
  0
LINE
  5
11A
330
5C
100
AcDbEntity
  8
1
  6
Continuous
 62
     7
100
AcDbLine
 10
-18.50000000000909
 20
-164.0915890000007
 30
0.0
 11
18.49999999999091
 21
-164.0915890000007
 31
0.0
  0
LINE
  5
11B
330
5C
100
AcDbEntity
  8
1
  6
Continuous
 62
     7
100
AcDbLine
 10
20.49999999999091
 20
-162.0915890000007
 30
0.0
 11
-20.50000000000909
 21
-162.0915890000007
 31
0.0
  0
LINE
  5
11C
330
5C
100
AcDbEntity
  8
LC-001-002-----0
  6
Continuous
 62
     2
100
AcDbLine
 10
-18.50000000000909
 20
-162.0915890000007
 30
0.0
 11
-18.50000000000909
 21
-164.0915890000007
 31
0.0
  0
LINE
  5
11D
330
5C
100
AcDbEntity
  8
1
  6
Continuous
 62
     7
100
AcDbLine
 10
38.74999999999091
 20
-162.3415890000007
 30
0.0
 11
39.62499999999085
 21
-162.3415890000007
 31
0.0
  0
LINE
  5
11E
330
5C
100
AcDbEntity
  8
1
  6
Continuous
 62
     7
100
AcDbLine
 10
38.74999999999091
 20
-210.3415890000007
 30
0.0
 11
39.62499999999085
 21
-210.3415890000007
 31
0.0
  0
LINE
  5
11F
330
5C
100
AcDbEntity
  8
1
  6
Continuous
 62
     7
100
AcDbLine
 10
38.74999999999091
 20
-162.3415890000007
 30
0.0
 11
38.74999999999091
 21
-210.3415890000007
 31
0.0
  0
LINE
  5
120
330
5C
100
AcDbEntity
  8
1
  6
Continuous
 62
     7
100
AcDbLine
 10
36.99999999999091
 20
-208.5915890000007
 30
0.0
 11
36.99999999999091
 21
-164.0915890000007
 31
0.0
  0
LINE
  5
121
330
5C
100
AcDbEntity
  8
1
  6
Continuous
 62
     2
100
AcDbLine
 10
36.99999999999091
 20
-164.0915890000007
 30
0.0
 11
39.62499999999085
 21
-164.0915890000007
 31
0.0
  0
LINE
  5
122
330
5C
100
AcDbEntity
  8
1
  6
Continuous
 62
     2
100
AcDbLine
 10
36.99999999999091
 20
-208.5915890000007
 30
0.0
 11
39.62499999999085
 21
-208.5915890000007
 31
0.0
  0
ENDBLK
  5
5E
330
5C
100
AcDbEntity
  8
0
100
AcDbBlockEnd
  0
BLOCK
  5
60
330
5F
100
AcDbEntity
  8
0
100
AcDbBlockBegin
  2
Sifonkappe
 70
     0
 10
-0.00000000000927
 20
-219.8415890000008
 30
0.0
  3
Sifonkappe
  1

  0
POINT
  5
123
330
5F
100
AcDbEntity
  8
0
 62
     7
100
AcDbPoint
 10
20.33213246147153
 20
-281.0915890000009
 30
0.0
  0
POINT
  5
124
330
5F
100
AcDbEntity
  8
0
 62
     7
100
AcDbPoint
 10
-20.33213246149006
 20
-281.0915890000009
 30
0.0
  0
LINE
  5
125
330
5F
100
AcDbEntity
  8
1
  6
PHANTOM
 62
     2
100
AcDbLine
 10
-0.00000000000893
 20
-158.5915890000007
 30
0.0
 11
-0.00000000000927
 21
-281.0915890000009
 31
0.0
  0
LINE
  5
126
330
5F
100
AcDbEntity
  8
1
  6
Continuous
 62
     7
100
AcDbLine
 10
-0.00000000000927
 20
-281.0915890000009
 30
0.0
 11
20.33213246147153
 21
-281.0915890000009
 31
0.0
  0
LINE
  5
127
330
5F
100
AcDbEntity
  8
LC-001-002-----0
  6
Continuous
 62
     7
100
AcDbLine
 10
32.11148678491537
 20
-218.5915890000008
 30
0.0
 11
30.32636873209941
 21
-271.4310611887503
 31
0.0
  0
LINE
  5
128
330
5F
100
AcDbEntity
  8
1
  6
Continuous
 62
     7
100
AcDbLine
 10
-33.50000042657683
 20
-210.4915890000008
 30
0.0
 11
33.5000004265583
 21
-210.4915890000008
 31
0.0
  0
LINE
  5
129
330
5F
100
AcDbEntity
  8
1
  6
Continuous
 62
     7
100
AcDbLine
 10
33.5000004265583
 20
-210.4915890000008
 30
0.0
 11
32.11148678491537
 21
-218.5915890000008
 31
0.0
  0
LINE
  5
12A
330
5F
100
AcDbEntity
  8
1
  6
Continuous
 62
     7
100
AcDbLine
 10
-32.1114867849339
 20
-218.5915890000008
 30
0.0
 11
-33.50000042657683
 21
-210.4915890000008
 31
0.0
  0
LINE
  5
12B
330
5F
100
AcDbEntity
  8
LC-001-002-----0
  6
Continuous
 62
     7
100
AcDbLine
 10
-30.32636873211794
 20
-271.4310611887503
 30
0.0
 11
-32.1114867849339
 21
-218.5915890000008
 31
0.0
  0
LINE
  5
12C
330
5F
100
AcDbEntity
  8
1
  6
Continuous
 62
     7
100
AcDbLine
 10
-20.33213246149006
 20
-281.0915890000009
 30
0.0
 11
-0.00000000000927
 21
-281.0915890000009
 31
0.0
  0
LINE
  5
12D
330
5F
100
AcDbEntity
  8
1
  6
Continuous
 62
     7
100
AcDbLine
 10
-32.1114867849339
 20
-218.5915890000008
 30
0.0
 11
32.11148678491537
 21
-218.5915890000008
 31
0.0
  0
LINE
  5
12E
330
5F
100
AcDbEntity
  8
1
  6
Continuous
 62
     7
100
AcDbLine
 10
-30.32636873211794
 20
-271.4310611887503
 30
0.0
 11
30.32636873209941
 21
-271.4310611887503
 31
0.0
  0
ARC
  5
12F
330
5F
100
AcDbEntity
  8
LC-002-002-RND-0
  6
Continuous
 62
     7
100
AcDbCircle
 10
20.33213246147153
 20
-271.0915890000008
 30
0.0
 40
10.00000000000011
100
AcDbArc
 50
270.0
 51
358.0545938580781
  0
ARC
  5
130
330
5F
100
AcDbEntity
  8
LC-002-002-RND-0
  6
Continuous
 62
     7
100
AcDbCircle
 10
-20.33213246149006
 20
-271.0915890000008
 30
0.0
 40
10.00000000000341
100
AcDbArc
 50
181.9454061419219
 51
270.0
  0
ENDBLK
  5
61
330
5F
100
AcDbEntity
  8
0
100
AcDbBlockEnd
  0
BLOCK
  5
6A
330
62
100
AcDbEntity
  8
0
100
AcDbBlockBegin
  2
HL132_1_40
 70
     0
 10
54.11589540955418
 20
-137.7901391691
 30
0.0
  3
HL132_1_40
  1

  0
INSERT
  5
63
330
62
100
AcDbEntity
  8
0
100
AcDbBlockReference
  2
HL19
 10
-72.97897836018879
 20
-42.1860685393854
 30
0.0
  0
INSERT
  5
64
330
62
100
AcDbEntity
  8
1
100
AcDbBlockReference
  2
Abgangsb_DN40
 10
110.7698716210681
 20
-186.3415890000007
 30
0.0
  0
INSERT
  5
65
330
62
100
AcDbEntity
  8
1
100
AcDbBlockReference
  2
HL_13_DN32_Tauchrohr
 10
-24.65183227240846
 20
-71.5000000000055
 30
0.0
  0
INSERT
  5
66
330
62
100
AcDbEntity
  8
0
100
AcDbBlockReference
  2
Mutter5_4
 10
633.5673103233694
 20
-642.7327566758304
 30
0.0
  0
INSERT
  5
67
330
62
100
AcDbEntity
  8
0
100
AcDbBlockReference
  2
HL13_30
 10
0.00000042634997
 20
5.99999999999032
 30
0.0
  0
INSERT
  5
68
330
62
100
AcDbEntity
  8
1
100
AcDbBlockReference
  2
HL_130_30_Flaschensifon
 10
3.56249999999088
 20
-185.2915890000008
 30
0.0
  0
INSERT
  5
69
330
62
100
AcDbEntity
  8
1
100
AcDbBlockReference
  2
Sifonkappe
 10
-0.00000000000927
 20
-219.8415890000008
 30
0.0
  0
DIMENSION
  5
13D
330
62
100
AcDbEntity
  8
1
100
AcDbDimension
  2
*D15
 10
216.9839432588238
 20
-206.0915890000007
 30
0.0
 11
211.4839432588238
 21
-146.0273934025007
 31
0.0
 70
    32
  1
DN40
 71
     5
 42
-1.0
 53
90.0
  3
ME10_DIM_10
100
AcDbAlignedDimension
 13
199.9999999999908
 23
-166.5915890000007
 33
0.0
 14
199.9999999999908
 24
-206.0915890000007
 34
0.0
 50
90.0
100
AcDbRotatedDimension
  0
DIMENSION
  5
148
330
62
100
AcDbEntity
  8
1
100
AcDbDimension
  2
*D16
 10
24.00000042634997
 20
16.49999999998995
 30
0.0
 11
-0.80531025058986
 21
21.99999999998995
 31
0.0
 70
    32
  1
5/4"
 71
     5
 42
-1.0
 53
0.00013888888889
  3
ME10_DIM_11
100
AcDbAlignedDimension
 13
-23.99999957365003
 23
5.49999999999032
 33
0.0
 14
24.00000042634997
 24
6.49999999999032
 34
0.0
100
AcDbRotatedDimension
  0
DIMENSION
  5
153
330
62
100
AcDbEntity
  8
1
100
AcDbDimension
  2
*D17
 10
-0.00000000000931
 20
-299.08027833819
 30
0.0
 11
112.509536752772
 21
-293.58027833819
 31
0.0
 70
    32
  1
<>
 71
     5
 42
-1.0
 53
0.00013888888889
  3
ME10_DIM_12
100
AcDbAlignedDimension
 13
199.9999999999908
 23
-206.0915890000007
 33
0.0
 14
-0.00000000000927
 24
-281.0915890000009
 34
0.0
100
AcDbRotatedDimension
  0
DIMENSION
  5
15E
330
62
100
AcDbEntity
  8
1
100
AcDbDimension
  2
*D18
 10
231.7592953058169
 20
-186.3415890000007
 30
0.0
 11
226.2592953058169
 21
-72.14590208670712
 31
0.0
 70
    32
  1
87-180
 71
     5
 42
-1.0
 53
89.99999999999983
  3
ME10_DIM_13
100
AcDbAlignedDimension
 13
28.13259927285071
 23
-6.0
 33
0.0
 14
207.3876974476109
 24
-186.3415890000007
 34
0.0
 50
89.99999999999983
100
AcDbRotatedDimension
  0
DIMENSION
  5
169
330
62
100
AcDbEntity
  8
1
100
AcDbDimension
  2
*D19
 10
231.7592953058169
 20
-186.3415890000007
 30
0.0
 11
226.2592953058169
 21
-237.5390495149711
 31
0.0
 70
    32
  1
95
 71
     5
 42
-1.0
 53
89.99999999999983
  3
ME10_DIM_14
100
AcDbAlignedDimension
 13
20.33213246147153
 23
-281.0915890000009
 33
0.0
 14
207.3876974476109
 24
-186.3415890000007
 34
0.0
 50
89.99999999999983
100
AcDbRotatedDimension
  0
DIMENSION
  5
174
330
62
100
AcDbEntity
  8
1
100
AcDbDimension
  2
*D20
 10
-45.02148573800339
 20
-281.0915890000008
 30
0.0
 11
-50.52148573800339
 21
-221.3799489041631
 31
0.0
 70
    32
  1
<>
 71
     5
 42
-1.0
 53
89.99999999999983
  3
ME10_DIM_15
100
AcDbAlignedDimension
 13
-24.00000000000909
 23
-164.0915890000007
 33
0.0
 14
-20.33213246149006
 24
-281.0915890000009
 34
0.0
 50
89.99999999999983
100
AcDbRotatedDimension
  0
DIMENSION
  5
181
330
62
100
AcDbEntity
  8
1
100
AcDbDimension
  2
*D21
 10
-112.0045429186612
 20
-94.30503888144023
 30
0.0
 11
-70.74374561733815
 21
-99.6668172051344
 31
0.0
 70
    33
  1
3/4"
 71
     5
 42
-1.0
 53
-14.99999999999447
  3
ME10_DIM_16
100
AcDbAlignedDimension
 13
-89.48856918067054
 23
-76.06762862002435
 33
0.0
 14
-105.9369061083361
 24
-71.66031002342305
 34
0.0
  0
ENDBLK
  5
6B
330
62
100
AcDbEntity
  8
0
100
AcDbBlockEnd
  0
BLOCK
  5
6D
330
6C
100
AcDbEntity
  8
0
100
AcDbBlockBegin
  2
Mutter_R5_4__1
 70
     0
 10
-0.00000000000904
 20
-153.5915890000007
 30
0.0
  3
Mutter_R5_4__1
  1

  0
LINE
  5
182
330
6C
100
AcDbEntity
  8
1
  6
PHANTOM
 62
     2
100
AcDbLine
 10
-0.00000000000904
 20
-164.0915890000007
 30
0.0
 11
-0.00000000000904
 21
-143.0915890000007
 31
0.0
  0
LINE
  5
183
330
6C
100
AcDbEntity
  8
1
  6
Continuous
 62
     7
100
AcDbLine
 10
-2.00000000000904
 20
-158.5915890000007
 30
0.0
 11
-0.00000000000904
 21
-158.5915890000007
 31
0.0
  0
LINE
  5
184
330
6C
100
AcDbEntity
  8
1
  6
Continuous
 62
     7
100
AcDbLine
 10
-4.00000000000904
 20
-158.5915890000007
 30
0.0
 11
-2.00000000000904
 21
-158.5915890000007
 31
0.0
  0
LINE
  5
185
330
6C
100
AcDbEntity
  8
1
  6
Continuous
 62
     7
100
AcDbLine
 10
-0.00000000000904
 20
-158.5915890000007
 30
0.0
 11
22.49999999999096
 21
-158.5915890000007
 31
0.0
  0
LINE
  5
186
330
6C
100
AcDbEntity
  8
LC-001-002-----0
  6
Continuous
 62
     7
100
AcDbLine
 10
23.99999999999096
 20
-160.0915890000007
 30
0.0
 11
-21.00000000000904
 21
-160.0915890000007
 31
0.0
  0
LINE
  5
187
330
6C
100
AcDbEntity
  8
LC-001-002-----0
  6
Continuous
 62
     7
100
AcDbLine
 10
23.99999999999096
 20
-158.5915890000007
 30
0.0
 11
22.49999999999096
 21
-158.5915890000007
 31
0.0
  0
LINE
  5
188
330
6C
100
AcDbEntity
  8
LC-001-002-----0
  6
Continuous
 62
     7
100
AcDbLine
 10
23.99999999999096
 20
-158.5915890000007
 30
0.0
 11
23.99999999999096
 21
-160.0915890000007
 31
0.0
  0
LINE
  5
189
330
6C
100
AcDbEntity
  8
1
  6
Continuous
 62
     7
100
AcDbLine
 10
-22.50000000000904
 20
-158.5915890000007
 30
0.0
 11
-4.00000000000904
 21
-158.5915890000007
 31
0.0
  0
LINE
  5
18A
330
6C
100
AcDbEntity
  8
LC-001-002-----0
  6
Continuous
 62
     7
100
AcDbLine
 10
-21.00000000000904
 20
-160.0915890000007
 30
0.0
 11
-24.00000000000904
 21
-160.0915890000007
 31
0.0
  0
LINE
  5
18B
330
6C
100
AcDbEntity
  8
LC-001-002-----0
  6
Continuous
 62
     7
100
AcDbLine
 10
-22.50000000000904
 20
-158.5915890000007
 30
0.0
 11
-24.00000000000904
 21
-158.5915890000007
 31
0.0
  0
LINE
  5
18C
330
6C
100
AcDbEntity
  8
LC-001-002-----0
  6
Continuous
 62
     7
100
AcDbLine
 10
-24.00000000000904
 20
-160.0915890000007
 30
0.0
 11
-24.00000000000904
 21
-158.5915890000007
 31
0.0
  0
LINE
  5
18D
330
6C
100
AcDbEntity
  8
1
  6
Continuous
 62
     7
100
AcDbLine
 10
-13.00000000000904
 20
-147.0915890000007
 30
0.0
 11
-13.00000000000904
 21
-158.5915890000007
 31
0.0
  0
LINE
  5
18E
330
6C
100
AcDbEntity
  8
1
  6
Continuous
 62
     7
100
AcDbLine
 10
-14.00000000000904
 20
-147.0915890000007
 30
0.0
 11
-14.00000000000904
 21
-158.5915890000007
 31
0.0
  0
LINE
  5
18F
330
6C
100
AcDbEntity
  8
1
  6
Continuous
 62
     7
100
AcDbLine
 10
-17.00000000000904
 20
-158.5915890000007
 30
0.0
 11
-17.00000000000904
 21
-147.0915890000007
 31
0.0
  0
LINE
  5
190
330
6C
100
AcDbEntity
  8
1
  6
Continuous
 62
     7
100
AcDbLine
 10
-18.00000000000904
 20
-158.5915890000007
 30
0.0
 11
-18.00000000000904
 21
-147.0915890000007
 31
0.0
  0
LINE
  5
191
330
6C
100
AcDbEntity
  8
1
  6
Continuous
 62
     7
100
AcDbLine
 10
12.99999999999096
 20
-158.5915890000007
 30
0.0
 11
12.99999999999096
 21
-147.0915890000007
 31
0.0
  0
LINE
  5
192
330
6C
100
AcDbEntity
  8
1
  6
Continuous
 62
     7
100
AcDbLine
 10
13.99999999999096
 20
-158.5915890000007
 30
0.0
 11
13.99999999999096
 21
-147.0915890000007
 31
0.0
  0
LINE
  5
193
330
6C
100
AcDbEntity
  8
1
  6
Continuous
 62
     7
100
AcDbLine
 10
16.99999999999096
 20
-147.0915890000007
 30
0.0
 11
16.99999999999096
 21
-158.5915890000007
 31
0.0
  0
LINE
  5
194
330
6C
100
AcDbEntity
  8
1
  6
Continuous
 62
     7
100
AcDbLine
 10
17.99999999999096
 20
-147.0915890000007
 30
0.0
 11
17.99999999999096
 21
-158.5915890000007
 31
0.0
  0
LINE
  5
195
330
6C
100
AcDbEntity
  8
1
  6
Continuous
 62
     7
100
AcDbLine
 10
3.99999999999096
 20
-147.0915890000007
 30
0.0
 11
3.99999999999096
 21
-158.5915890000007
 31
0.0
  0
LINE
  5
196
330
6C
100
AcDbEntity
  8
1
  6
Continuous
 62
     7
100
AcDbLine
 10
1.99999999999096
 20
-147.0915890000007
 30
0.0
 11
1.99999999999096
 21
-158.5915890000007
 31
0.0
  0
LINE
  5
197
330
6C
100
AcDbEntity
  8
1
  6
Continuous
 62
     7
100
AcDbLine
 10
-2.00000000000904
 20
-158.5915890000007
 30
0.0
 11
-2.00000000000904
 21
-147.0915890000007
 31
0.0
  0
LINE
  5
198
330
6C
100
AcDbEntity
  8
1
  6
Continuous
 62
     7
100
AcDbLine
 10
-4.00000000000904
 20
-158.5915890000007
 30
0.0
 11
-4.00000000000904
 21
-147.0915890000007
 31
0.0
  0
LINE
  5
199
330
6C
100
AcDbEntity
  8
1
  6
Continuous
 62
     7
100
AcDbLine
 10
19.99999999999096
 20
-145.5915890000007
 30
0.0
 11
-20.00000000000904
 21
-145.5915890000007
 31
0.0
  0
LINE
  5
19A
330
6C
100
AcDbEntity
  8
1
  6
Continuous
 62
     7
100
AcDbLine
 10
-0.00000000000904
 20
-143.0915890000007
 30
0.0
 11
16.74999999999096
 21
-143.0915890000007
 31
0.0
  0
LINE
  5
19B
330
6C
100
AcDbEntity
  8
1
  6
Continuous
 62
     7
100
AcDbLine
 10
16.74999999999096
 20
-143.0915890000007
 30
0.0
 11
19.49999999999096
 21
-143.0915890000007
 31
0.0
  0
LINE
  5
19C
330
6C
100
AcDbEntity
  8
LC-001-002-----0
  6
Continuous
 62
     7
100
AcDbLine
 10
19.99999999999096
 20
-143.0915890000007
 30
0.0
 11
19.49999999999096
 21
-143.0915890000007
 31
0.0
  0
LINE
  5
19D
330
6C
100
AcDbEntity
  8
1
  6
Continuous
 62
     7
100
AcDbLine
 10
-16.75000000000904
 20
-143.0915890000007
 30
0.0
 11
-0.00000000000904
 21
-143.0915890000007
 31
0.0
  0
LINE
  5
19E
330
6C
100
AcDbEntity
  8
1
  6
Continuous
 62
     7
100
AcDbLine
 10
-19.50000000000904
 20
-143.0915890000007
 30
0.0
 11
-16.75000000000904
 21
-143.0915890000007
 31
0.0
  0
LINE
  5
19F
330
6C
100
AcDbEntity
  8
LC-001-002-----0
  6
Continuous
 62
     7
100
AcDbLine
 10
-22.50000000000904
 20
-158.5915890000007
 30
0.0
 11
-22.50000000000904
 21
-145.5915890000007
 31
0.0
  0
LINE
  5
1A0
330
6C
100
AcDbEntity
  8
LC-001-002-----0
  6
Continuous
 62
     7
100
AcDbLine
 10
-19.50000000000904
 20
-143.0915890000007
 30
0.0
 11
-20.00000000000904
 21
-143.0915890000007
 31
0.0
  0
LINE
  5
1A1
330
6C
100
AcDbEntity
  8
LC-001-002-----0
  6
Continuous
 62
     7
100
AcDbLine
 10
22.49999999999096
 20
-145.5915890000007
 30
0.0
 11
22.49999999999096
 21
-158.5915890000007
 31
0.0
  0
ARC
  5
1A2
330
6C
100
AcDbEntity
  8
LC-002-002-RND-0
  6
Continuous
 62
     7
100
AcDbCircle
 10
19.99999999999096
 20
-145.5915890000007
 30
0.0
 40
2.5
100
AcDbArc
 50
0.0
 51
90.0
  0
ARC
  5
1A3
330
6C
100
AcDbEntity
  8
LC-002-002-RND-0
  6
Continuous
 62
     7
100
AcDbCircle
 10
-20.00000000000904
 20
-145.5915890000007
 30
0.0
 40
2.5
100
AcDbArc
 50
90.0
 51
180.0
  0
ENDBLK
  5
6E
330
6C
100
AcDbEntity
  8
0
100
AcDbBlockEnd
  0
BLOCK
  5
70
330
6F
100
AcDbEntity
  8
0
100
AcDbBlockBegin
  2
Mutter_R5_4__2
 70
     0
 10
48.12499999999085
 20
-186.3415890000007
 30
0.0
  3
Mutter_R5_4__2
  1

  0
LINE
  5
1A4
330
6F
100
AcDbEntity
  8
LC-001-002-----0
  6
Continuous
 62
     7
100
AcDbLine
 10
54.12499999999085
 20
-208.8415890000007
 30
0.0
 11
41.12499999999085
 21
-208.8415890000007
 31
0.0
  0
LINE
  5
1A5
330
6F
100
AcDbEntity
  8
LC-001-002-----0
  6
Continuous
 62
     7
100
AcDbLine
 10
56.62499999999085
 20
-166.8415890000007
 30
0.0
 11
56.62499999999085
 21
-166.3415890000007
 31
0.0
  0
LINE
  5
1A6
330
6F
100
AcDbEntity
  8
LC-001-002-----0
  6
Continuous
 62
     7
100
AcDbLine
 10
41.12499999999085
 20
-163.8415890000007
 30
0.0
 11
54.12499999999085
 21
-163.8415890000007
 31
0.0
  0
LINE
  5
1A7
330
6F
100
AcDbEntity
  8
1
  6
Continuous
 62
     7
100
AcDbLine
 10
56.62499999999085
 20
-166.8415890000007
 30
0.0
 11
56.62499999999085
 21
-169.5915890000007
 31
0.0
  0
LINE
  5
1A8
330
6F
100
AcDbEntity
  8
1
  6
Continuous
 62
     7
100
AcDbLine
 10
56.62499999999085
 20
-169.5915890000007
 30
0.0
 11
56.62499999999085
 21
-186.3415890000007
 31
0.0
  0
LINE
  5
1A9
330
6F
100
AcDbEntity
  8
LC-001-002-----0
  6
Continuous
 62
     7
100
AcDbLine
 10
56.62499999999085
 20
-206.3415890000008
 30
0.0
 11
56.62499999999085
 21
-205.8415890000007
 31
0.0
  0
LINE
  5
1AA
330
6F
100
AcDbEntity
  8
1
  6
Continuous
 62
     7
100
AcDbLine
 10
56.62499999999085
 20
-203.0915890000008
 30
0.0
 11
56.62499999999085
 21
-205.8415890000007
 31
0.0
  0
LINE
  5
1AB
330
6F
100
AcDbEntity
  8
1
  6
Continuous
 62
     7
100
AcDbLine
 10
56.62499999999085
 20
-186.3415890000007
 30
0.0
 11
56.62499999999085
 21
-203.0915890000008
 31
0.0
  0
LINE
  5
1AC
330
6F
100
AcDbEntity
  8
1
  6
Continuous
 62
     7
100
AcDbLine
 10
54.12499999999085
 20
-206.3415890000007
 30
0.0
 11
54.12499999999085
 21
-166.3415890000007
 31
0.0
  0
LINE
  5
1AD
330
6F
100
AcDbEntity
  8
1
  6
Continuous
 62
     7
100
AcDbLine
 10
41.12499999999085
 20
-182.3415890000007
 30
0.0
 11
52.62499999999085
 21
-182.3415890000007
 31
0.0
  0
LINE
  5
1AE
330
6F
100
AcDbEntity
  8
1
  6
Continuous
 62
     7
100
AcDbLine
 10
41.12499999999085
 20
-184.3415890000007
 30
0.0
 11
52.62499999999085
 21
-184.3415890000007
 31
0.0
  0
LINE
  5
1AF
330
6F
100
AcDbEntity
  8
1
  6
Continuous
 62
     7
100
AcDbLine
 10
52.62499999999085
 20
-188.3415890000007
 30
0.0
 11
41.12499999999085
 21
-188.3415890000007
 31
0.0
  0
LINE
  5
1B0
330
6F
100
AcDbEntity
  8
1
  6
Continuous
 62
     7
100
AcDbLine
 10
52.62499999999085
 20
-190.3415890000007
 30
0.0
 11
41.12499999999085
 21
-190.3415890000007
 31
0.0
  0
LINE
  5
1B1
330
6F
100
AcDbEntity
  8
1
  6
Continuous
 62
     7
100
AcDbLine
 10
52.62499999999085
 20
-204.3415890000007
 30
0.0
 11
41.12499999999085
 21
-204.3415890000007
 31
0.0
  0
LINE
  5
1B2
330
6F
100
AcDbEntity
  8
1
  6
Continuous
 62
     7
100
AcDbLine
 10
52.62499999999085
 20
-203.3415890000007
 30
0.0
 11
41.12499999999085
 21
-203.3415890000007
 31
0.0
  0
LINE
  5
1B3
330
6F
100
AcDbEntity
  8
1
  6
Continuous
 62
     7
100
AcDbLine
 10
41.12499999999085
 20
-200.3415890000007
 30
0.0
 11
52.62499999999085
 21
-200.3415890000007
 31
0.0
  0
LINE
  5
1B4
330
6F
100
AcDbEntity
  8
1
  6
Continuous
 62
     7
100
AcDbLine
 10
41.12499999999085
 20
-199.3415890000007
 30
0.0
 11
52.62499999999085
 21
-199.3415890000007
 31
0.0
  0
LINE
  5
1B5
330
6F
100
AcDbEntity
  8
1
  6
Continuous
 62
     7
100
AcDbLine
 10
41.12499999999085
 20
-168.3415890000008
 30
0.0
 11
52.62499999999085
 21
-168.3415890000008
 31
0.0
  0
LINE
  5
1B6
330
6F
100
AcDbEntity
  8
1
  6
Continuous
 62
     7
100
AcDbLine
 10
41.12499999999085
 20
-169.3415890000008
 30
0.0
 11
52.62499999999085
 21
-169.3415890000008
 31
0.0
  0
LINE
  5
1B7
330
6F
100
AcDbEntity
  8
1
  6
Continuous
 62
     7
100
AcDbLine
 10
52.62499999999085
 20
-172.3415890000008
 30
0.0
 11
41.12499999999085
 21
-172.3415890000008
 31
0.0
  0
LINE
  5
1B8
330
6F
100
AcDbEntity
  8
1
  6
Continuous
 62
     7
100
AcDbLine
 10
52.62499999999085
 20
-173.3415890000008
 30
0.0
 11
41.12499999999085
 21
-173.3415890000008
 31
0.0
  0
LINE
  5
1B9
330
6F
100
AcDbEntity
  8
LC-001-002-----0
  6
Continuous
 62
     7
100
AcDbLine
 10
39.62499999999085
 20
-162.3415890000007
 30
0.0
 11
41.12499999999085
 21
-162.3415890000007
 31
0.0
  0
LINE
  5
1BA
330
6F
100
AcDbEntity
  8
LC-001-002-----0
  6
Continuous
 62
     7
100
AcDbLine
 10
41.12499999999085
 20
-163.8415890000007
 30
0.0
 11
41.12499999999085
 21
-162.3415890000007
 31
0.0
  0
LINE
  5
1BB
330
6F
100
AcDbEntity
  8
LC-001-002-----0
  6
Continuous
 62
     7
100
AcDbLine
 10
39.62499999999085
 20
-165.3415890000007
 30
0.0
 11
39.62499999999085
 21
-162.3415890000007
 31
0.0
  0
LINE
  5
1BC
330
6F
100
AcDbEntity
  8
1
  6
Continuous
 62
     7
100
AcDbLine
 10
41.12499999999085
 20
-163.8415890000007
 30
0.0
 11
41.12499999999085
 21
-182.3415890000007
 31
0.0
  0
LINE
  5
1BD
330
6F
100
AcDbEntity
  8
LC-001-002-----0
  6
Continuous
 62
     7
100
AcDbLine
 10
41.12499999999085
 20
-210.3415890000008
 30
0.0
 11
39.62499999999085
 21
-210.3415890000008
 31
0.0
  0
LINE
  5
1BE
330
6F
100
AcDbEntity
  8
LC-001-002-----0
  6
Continuous
 62
     7
100
AcDbLine
 10
41.12499999999085
 20
-210.3415890000008
 30
0.0
 11
41.12499999999085
 21
-208.8415890000007
 31
0.0
  0
LINE
  5
1BF
330
6F
100
AcDbEntity
  8
LC-001-002-----0
  6
Continuous
 62
     7
100
AcDbLine
 10
39.62499999999085
 20
-210.3415890000008
 30
0.0
 11
39.62499999999085
 21
-165.3415890000007
 31
0.0
  0
LINE
  5
1C0
330
6F
100
AcDbEntity
  8
1
  6
Continuous
 62
     7
100
AcDbLine
 10
41.12499999999085
 20
-186.3415890000007
 30
0.0
 11
41.12499999999085
 21
-208.8415890000007
 31
0.0
  0
LINE
  5
1C1
330
6F
100
AcDbEntity
  8
1
  6
Continuous
 62
     7
100
AcDbLine
 10
41.12499999999085
 20
-182.3415890000007
 30
0.0
 11
41.12499999999085
 21
-184.3415890000007
 31
0.0
  0
LINE
  5
1C2
330
6F
100
AcDbEntity
  8
1
  6
Continuous
 62
     7
100
AcDbLine
 10
41.12499999999085
 20
-184.3415890000007
 30
0.0
 11
41.12499999999085
 21
-186.3415890000007
 31
0.0
  0
ARC
  5
1C3
330
6F
100
AcDbEntity
  8
LC-002-002-RND-0
  6
Continuous
 62
     7
100
AcDbCircle
 10
54.12499999999085
 20
-166.3415890000007
 30
0.0
 40
2.5
100
AcDbArc
 50
0.0
 51
90.0
  0
ARC
  5
1C4
330
6F
100
AcDbEntity
  8
LC-002-002-RND-0
  6
Continuous
 62
     7
100
AcDbCircle
 10
54.12499999999085
 20
-206.3415890000007
 30
0.0
 40
2.5
100
AcDbArc
 50
270.0
 51
359.9999999999981
  0
ENDBLK
  5
71
330
6F
100
AcDbEntity
  8
0
100
AcDbBlockEnd
  0
BLOCK
  5
73
330
72
100
AcDbEntity
  8
0
100
AcDbBlockBegin
  2
Rosette
 70
     0
 10
178.1408548478594
 20
-186.3415890000007
 30
0.0
  3
Rosette
  1

  0
LINE
  5
1C5
330
72
100
AcDbEntity
  8
LC-001-002-----0
  6
Continuous
 62
     7
100
AcDbLine
 10
168.3376509999908
 20
-220.0597650000007
 30
0.0
 11
178.2947009999907
 21
-222.3415890000007
 31
0.0
  0
LINE
  5
1C6
330
72
100
AcDbEntity
  8
LC-001-002-----0
  6
Continuous
 62
     7
100
AcDbLine
 10
157.9870087231637
 20
-166.5915890000007
 30
0.0
 11
165.1962399999908
 21
-154.8765870000007
 31
0.0
  0
LINE
  5
1C7
330
72
100
AcDbEntity
  8
LC-001-002-----0
  6
Continuous
 62
     7
100
AcDbLine
 10
157.987008695728
 20
-206.0915890000007
 30
0.0
 11
165.1962399999908
 21
-217.8065900000007
 31
0.0
  0
LINE
  5
1C8
330
72
100
AcDbEntity
  8
LC-001-002-----0
  6
Continuous
 62
     7
100
AcDbLine
 10
168.3376509999908
 20
-152.6234130000007
 30
0.0
 11
178.2947009999907
 21
-150.3415890000007
 31
0.0
  0
LINE
  5
1C9
330
72
100
AcDbEntity
  8
LC-001-002-----0
  6
Continuous
 62
     7
100
AcDbLine
 10
178.2947009999907
 20
-150.3415890000007
 30
0.0
 11
198.2947009999907
 21
-148.3415890000007
 31
0.0
  0
LINE
  5
1CA
330
72
100
AcDbEntity
  8
LC-001-002-----0
  6
Continuous
 62
     7
100
AcDbLine
 10
178.2947009999907
 20
-222.3415890000007
 30
0.0
 11
198.2947009999907
 21
-224.3415890000007
 31
0.0
  0
LINE
  5
1CB
330
72
100
AcDbEntity
  8
LC-001-002-----0
  6
Continuous
 62
     7
100
AcDbLine
 10
198.2947009999907
 20
-148.3415890000007
 30
0.0
 11
198.2947009999907
 21
-224.3415890000007
 31
0.0
  0
LINE
  5
1CC
330
72
100
AcDbEntity
  8
1
  6
Continuous
 62
     7
100
AcDbLine
 10
157.987008695728
 20
-206.0915890000007
 30
0.0
 11
157.987008695728
 21
-166.5915890000007
 31
0.0
  0
LINE
  5
1CD
330
72
100
AcDbEntity
  8
LC-001-002-----0
  6
Continuous
 62
     7
100
AcDbLine
 10
157.987008695728
 20
-166.5915890000007
 30
0.0
 11
157.9870087231637
 21
-166.5915890000007
 31
0.0
  0
LINE
  5
1CE
330
72
100
AcDbEntity
  8
1
  6
Continuous
 62
     7
100
AcDbLine
 10
178.2947009999907
 20
-222.3415890000007
 30
0.0
 11
178.2947009999907
 21
-150.3415890000007
 31
0.0
  0
LINE
  5
1CF
330
72
100
AcDbEntity
  8
1
  6
Continuous
 62
     7
100
AcDbLine
 10
167.2303118605498
 20
-154.2669801743947
 30
0.0
 11
167.2303118605498
 21
-218.2669801743948
 31
0.0
  0
ARC
  5
1D0
330
72
100
AcDbEntity
  8
LC-002-002-RND-0
  6
Continuous
 62
     7
100
AcDbCircle
 10
169.4545319999908
 20
-157.4970740000007
 30
0.0
 40
5.000000000000058
100
AcDbArc
 50
102.907409000001
 51
148.3924980000002
  0
ARC
  5
1D1
330
72
100
AcDbEntity
  8
LC-002-002-RND-0
  6
Continuous
 62
     7
100
AcDbCircle
 10
169.4545319999908
 20
-215.1861030000008
 30
0.0
 40
5.000000000000064
100
AcDbArc
 50
211.6075019999987
 51
257.0925909999989
  0
ENDBLK
  5
74
330
72
100
AcDbEntity
  8
0
100
AcDbBlockEnd
  0
BLOCK
  5
76
330
75
100
AcDbEntity
  8
0
100
AcDbBlockBegin
  2
Holländermutter_1
 70
     0
 10
-52.06067460617844
 20
-26.91715015231637
 30
0.0
  3
Holländermutter_1
  1

  0
LINE
  5
1D2
330
75
100
AcDbEntity
  8
0
  6
Continuous
 62
     7
100
AcDbLine
 10
-56.34791330158561
 20
-6.88781659653966
 30
0.0
 11
-65.35481607115082
 21
-40.50203535140298
 31
0.0
  0
LINE
  5
1D3
330
75
100
AcDbEntity
  8
0
  6
Continuous
 62
     7
100
AcDbLine
 10
-55.12316843019403
 20
-6.18070981535277
 30
0.0
 11
-51.7424280381822
 21
-7.08657647321127
 31
0.0
  0
LINE
  5
1D4
330
75
100
AcDbEntity
  8
0
  6
Continuous
 62
     7
100
AcDbLine
 10
-51.82937759720312
 20
-7.41107664517318
 30
0.0
 11
-51.7424280381822
 21
-7.08657647321127
 31
0.0
  0
LINE
  5
1D5
330
75
100
AcDbEntity
  8
0
  6
Continuous
 62
     3
100
AcDbLine
 10
-55.12316843019403
 20
-6.18070981535277
 30
0.0
 11
-64.64770928996421
 21
-41.72678022279473
 31
0.0
  0
LINE
  5
1D6
330
75
100
AcDbEntity
  8
0
  6
Continuous
 62
     7
100
AcDbLine
 10
-57.39048533564909
 20
-31.25637591555324
 30
0.0
 11
-58.95949241194262
 21
-37.111990041718
 31
0.0
  0
LINE
  5
1D7
330
75
100
AcDbEntity
  8
0
  6
Continuous
 62
     7
100
AcDbLine
 10
-51.04757054600884
 20
-7.58429565252669
 30
0.0
 11
-51.95343720386734
 21
-10.96503604453852
 31
0.0
  0
LINE
  5
1D8
330
75
100
AcDbEntity
  8
0
  6
Continuous
 62
     7
100
AcDbLine
 10
-51.82937759720312
 20
-7.41107664517318
 30
0.0
 11
-51.09505162797808
 21
-7.60783869560817
 31
0.0
  0
LINE
  5
1D9
330
75
100
AcDbEntity
  8
0
  6
Continuous
 62
     7
100
AcDbLine
 10
-52.90868515198457
 20
-11.43910727661211
 30
0.0
 11
-52.00281849412608
 21
-8.05836688460028
 31
0.0
  0
LINE
  5
1DA
330
75
100
AcDbEntity
  8
0
  6
Continuous
 62
     7
100
AcDbLine
 10
-54.95154157078196
 20
-19.06315122413508
 30
0.0
 11
-53.38253449448843
 21
-13.20753709797026
 31
0.0
  0
LINE
  5
1DB
330
75
100
AcDbEntity
  8
0
  6
Continuous
 62
     7
100
AcDbLine
 10
-59.62686244164615
 20
-36.51168625589418
 30
0.0
 11
-58.05785536535262
 21
-30.65607212972941
 31
0.0
  0
LINE
  5
1DC
330
75
100
AcDbEntity
  8
0
  6
Continuous
 62
     7
100
AcDbLine
 10
-57.41056512592581
 20
-28.24035206894411
 30
0.0
 11
-55.59883181020882
 21
-21.47887128492044
 31
0.0
  0
LINE
  5
1DD
330
75
100
AcDbEntity
  8
0
  6
Continuous
 62
     7
100
AcDbLine
 10
-56.63782446489427
 20
-28.4474073050261
 30
0.0
 11
-57.41056512592581
 21
-28.24035206894411
 31
0.0
  0
LINE
  5
1DE
330
75
100
AcDbEntity
  8
0
  6
Continuous
 62
     7
100
AcDbLine
 10
-55.59883181020882
 20
-21.47887128492044
 30
0.0
 11
-54.82609114917727
 21
-21.68592652100244
 31
0.0
  0
LINE
  5
1DF
330
75
100
AcDbEntity
  8
0
  6
Continuous
 62
     7
100
AcDbLine
 10
-54.82609114917727
 20
-21.68592652100244
 30
0.0
 11
-56.63782446489427
 21
-28.4474073050261
 31
0.0
  0
LINE
  5
1E0
330
75
100
AcDbEntity
  8
0
  6
Continuous
 62
     7
100
AcDbLine
 10
-51.7424280381822
 20
-7.08657647321127
 30
0.0
 11
-50.76263214106865
 21
-6.52089104826183
 31
0.0
  0
LINE
  5
1E1
330
75
100
AcDbEntity
  8
0
  6
Continuous
 62
     7
100
AcDbLine
 10
-47.26834394989032
 20
-30.95795204251959
 30
0.0
 11
-56.63782446489427
 21
-28.4474073050261
 31
0.0
  0
LINE
  5
1E2
330
75
100
AcDbEntity
  8
0
  6
Continuous
 62
     7
100
AcDbLine
 10
-48.0210048206452
 20
-33.76692065304673
 30
0.0
 11
-57.39048533564909
 21
-31.25637591555324
 31
0.0
  0
LINE
  5
1E3
330
75
100
AcDbEntity
  8
0
  6
Continuous
 62
     7
100
AcDbLine
 10
-50.76263214106865
 20
-6.52089104826183
 30
0.0
 11
-50.8458956735156
 21
-6.83163478177153
 31
0.0
  0
LINE
  5
1E4
330
75
100
AcDbEntity
  8
0
  6
Continuous
 62
     7
100
AcDbLine
 10
-50.76263214106865
 20
-6.52089104826183
 30
0.0
 11
-41.39315162606476
 21
-9.03143578575532
 31
0.0
  0
LINE
  5
1E5
330
75
100
AcDbEntity
  8
0
  6
Continuous
 62
     7
100
AcDbLine
 10
-41.47641515851166
 20
-9.34217951926502
 30
0.0
 11
-50.8458956735156
 21
-6.83163478177153
 31
0.0
  0
LINE
  5
1E6
330
75
100
AcDbEntity
  8
0
  6
Continuous
 62
     7
100
AcDbLine
 10
-42.58395668886345
 20
-13.47558078203201
 30
0.0
 11
-51.95343720386734
 21
-10.96503604453852
 31
0.0
  0
LINE
  5
1E7
330
75
100
AcDbEntity
  8
0
  6
Continuous
 62
     7
100
AcDbLine
 10
-44.70394976341851
 20
-21.3875026479688
 30
0.0
 11
-54.07343027842245
 21
-18.87695791047537
 31
0.0
  0
LINE
  5
1E8
330
75
100
AcDbEntity
  8
0
  6
Continuous
 62
     7
100
AcDbLine
 10
-41.67809003100496
 20
-10.09484039002018
 30
0.0
 11
-51.04757054600884
 21
-7.58429565252669
 31
0.0
  0
LINE
  5
1E9
330
75
100
AcDbEntity
  8
0
  6
Continuous
 62
     7
100
AcDbLine
 10
-42.58395668886345
 20
-13.47558078203201
 30
0.0
 11
-42.76646397594908
 21
-14.15670725018737
 31
0.0
  0
LINE
  5
1EA
330
75
100
AcDbEntity
  8
0
  6
Continuous
 62
     7
100
AcDbLine
 10
-44.70394976341851
 20
-21.3875026479688
 30
0.0
 11
-44.80932039474646
 21
-21.78075119771046
 31
0.0
  0
LINE
  5
1EB
330
75
100
AcDbEntity
  8
0
  6
Continuous
 62
     7
100
AcDbLine
 10
-45.45661063417333
 20
-24.19647125849593
 30
0.0
 11
-54.82609114917727
 21
-21.68592652100244
 31
0.0
  0
LINE
  5
1EC
330
75
100
AcDbEntity
  8
0
  6
Continuous
 62
     7
100
AcDbLine
 10
-60.61801994055594
 20
-43.30169904425696
 30
0.0
 11
-60.70128347300283
 21
-43.61244277776666
 31
0.0
  0
LINE
  5
1ED
330
75
100
AcDbEntity
  8
0
  6
Continuous
 62
     7
100
AcDbLine
 10
-61.18001933893152
 20
-42.30814670869131
 30
0.0
 11
-60.44569336970642
 21
-42.50490875912624
 31
0.0
  0
LINE
  5
1EE
330
75
100
AcDbEntity
  8
0
  6
Continuous
 62
     7
100
AcDbLine
 10
-61.26696889795238
 20
-42.63264688065323
 30
0.0
 11
-61.18001933893152
 21
-42.30814670869131
 31
0.0
  0
LINE
  5
1EF
330
75
100
AcDbEntity
  8
0
  6
Continuous
 62
     7
100
AcDbLine
 10
-61.26696889795238
 20
-42.63264688065323
 30
0.0
 11
-60.70128347300283
 21
-43.61244277776666
 31
0.0
  0
LINE
  5
1F0
330
75
100
AcDbEntity
  8
0
  6
Continuous
 62
     7
100
AcDbLine
 10
-51.04686455305875
 20
-45.05958291099535
 30
0.0
 11
-60.41634506806264
 21
-42.54903817350186
 31
0.0
  0
LINE
  5
1F1
330
75
100
AcDbEntity
  8
0
  6
Continuous
 62
     7
100
AcDbLine
 10
-64.64770928996421
 20
-41.72678022279473
 30
0.0
 11
-61.26696889795238
 21
-42.63264688065323
 31
0.0
  0
LINE
  5
1F2
330
75
100
AcDbEntity
  8
0
  6
Continuous
 62
     7
100
AcDbLine
 10
-51.248539425552
 20
-45.81224378175045
 30
0.0
 11
-60.61801994055594
 21
-43.30169904425696
 31
0.0
  0
LINE
  5
1F3
330
75
100
AcDbEntity
  8
0
  6
Continuous
 62
     7
100
AcDbLine
 10
-60.10071178415001
 20
-38.28011607725239
 30
0.0
 11
-49.95849060811463
 21
-40.9977160508281
 31
0.0
  0
LINE
  5
1F4
330
75
100
AcDbEntity
  8
0
  6
Continuous
 62
     7
100
AcDbLine
 10
-50.14099789520026
 20
-41.67884251898352
 30
0.0
 11
-59.51047841020414
 21
-39.16829778149003
 31
0.0
  0
LINE
  5
1F5
330
75
100
AcDbEntity
  8
0
  6
Continuous
 62
     7
100
AcDbLine
 10
-61.0065784420085
 20
-41.66085646926422
 30
0.0
 11
-60.10071178415001
 21
-38.28011607725239
 31
0.0
  0
LINE
  5
1F6
330
75
100
AcDbEntity
  8
0
  6
Continuous
 62
     7
100
AcDbLine
 10
-59.51047841020414
 20
-39.16829778149003
 30
0.0
 11
-60.41634506806264
 21
-42.54903817350186
 31
0.0
  0
LINE
  5
1F7
330
75
100
AcDbEntity
  8
0
  6
Continuous
 62
     7
100
AcDbLine
 10
-60.70128347300283
 20
-43.61244277776666
 30
0.0
 11
-51.33180295799895
 21
-46.12298751526015
 31
0.0
  0
LINE
  5
1F8
330
75
100
AcDbEntity
  8
0
  6
Continuous
 62
     7
100
AcDbLine
 10
-49.1628664851234
 20
-47.68766466299059
 30
0.0
 11
-51.09471813770159
 21
-47.17002657278573
 31
0.0
  0
LINE
  5
1F9
330
75
100
AcDbEntity
  8
0
  6
Continuous
 62
     7
100
AcDbLine
 10
-49.59001189693868
 20
-39.62253477921149
 30
0.0
 11
-58.95949241194262
 21
-37.111990041718
 31
0.0
  0
LINE
  5
1FA
330
75
100
AcDbEntity
  8
0
  6
Continuous
 62
     7
100
AcDbLine
 10
-38.73245896749478
 20
-8.76085386353702
 30
0.0
 11
-40.66431062007297
 21
-8.24321577333217
 31
0.0
  0
LINE
  5
1FB
330
75
100
AcDbEntity
  8
0
  6
Continuous
 62
     7
100
AcDbLine
 10
-38.73245896749478
 20
-8.76085386353702
 30
0.0
 11
-49.1628664851234
 21
-47.68766466299059
 31
0.0
  0
LINE
  5
1FC
330
75
100
AcDbEntity
  8
0
  6
Continuous
 62
     7
100
AcDbLine
 10
-43.13494268712498
 20
-15.53188852180404
 30
0.0
 11
-52.50442320212892
 21
-13.02134378431055
 31
0.0
  0
LINE
  5
1FD
330
75
100
AcDbEntity
  8
0
  6
Continuous
 62
     3
100
AcDbLine
 10
-40.66431062007297
 20
-8.24321577333217
 30
0.0
 11
-51.09471813770159
 21
-47.17002657278573
 31
0.0
  0
LINE
  5
1FE
330
75
100
AcDbEntity
  8
0
  6
Continuous
 62
     7
100
AcDbLine
 10
-47.26834394989032
 20
-30.95795204251959
 30
0.0
 11
-47.91563418931719
 21
-33.37367210330501
 31
0.0
  0
LINE
  5
1FF
330
75
100
AcDbEntity
  8
0
  6
Continuous
 62
     7
100
AcDbLine
 10
-41.39315162606476
 20
-9.03143578575532
 30
0.0
 11
-41.47641515851166
 21
-9.34217951926502
 31
0.0
  0
LINE
  5
200
330
75
100
AcDbEntity
  8
0
  6
Continuous
 62
     7
100
AcDbLine
 10
-41.27668305576873
 20
-8.5967691639255
 30
0.0
 11
-41.39315162606476
 21
-9.03143578575532
 31
0.0
  0
LINE
  5
201
330
75
100
AcDbEntity
  8
0
  6
Continuous
 62
     7
100
AcDbLine
 10
-41.67809003100496
 20
-10.09484039002018
 30
0.0
 11
-42.58395668886345
 21
-13.47558078203201
 31
0.0
  0
LINE
  5
202
330
75
100
AcDbEntity
  8
0
  6
Continuous
 62
     7
100
AcDbLine
 10
-41.47641515851166
 20
-9.34217951926502
 30
0.0
 11
-41.67809003100496
 21
-10.09484039002018
 31
0.0
  0
LINE
  5
203
330
75
100
AcDbEntity
  8
0
  6
Continuous
 62
     7
100
AcDbLine
 10
-49.59001189693868
 20
-39.62253477921149
 30
0.0
 11
-49.95849060811463
 21
-40.9977160508281
 31
0.0
  0
LINE
  5
204
330
75
100
AcDbEntity
  8
0
  6
Continuous
 62
     7
100
AcDbLine
 10
-48.0210048206452
 20
-33.76692065304673
 30
0.0
 11
-49.59001189693868
 21
-39.62253477921149
 31
0.0
  0
LINE
  5
205
330
75
100
AcDbEntity
  8
0
  6
Continuous
 62
     7
100
AcDbLine
 10
-49.95849060811463
 20
-40.9977160508281
 30
0.0
 11
-50.14099789520026
 21
-41.67884251898352
 31
0.0
  0
LINE
  5
206
330
75
100
AcDbEntity
  8
0
  6
Continuous
 62
     7
100
AcDbLine
 10
-50.14099789520026
 20
-41.67884251898352
 30
0.0
 11
-51.04686455305875
 21
-45.05958291099535
 31
0.0
  0
LINE
  5
207
330
75
100
AcDbEntity
  8
0
  6
Continuous
 62
     7
100
AcDbLine
 10
-51.248539425552
 20
-45.81224378175045
 30
0.0
 11
-51.33180295799895
 21
-46.12298751526015
 31
0.0
  0
LINE
  5
208
330
75
100
AcDbEntity
  8
0
  6
Continuous
 62
     7
100
AcDbLine
 10
-51.33180295799895
 20
-46.12298751526015
 30
0.0
 11
-51.44827152829492
 21
-46.55765413708997
 31
0.0
  0
LINE
  5
209
330
75
100
AcDbEntity
  8
0
  6
Continuous
 62
     7
100
AcDbLine
 10
-51.04686455305875
 20
-45.05958291099535
 30
0.0
 11
-51.248539425552
 21
-45.81224378175045
 31
0.0
  0
LINE
  5
20A
330
75
100
AcDbEntity
  8
0
  6
Continuous
 62
     7
100
AcDbLine
 10
-52.90868515198457
 20
-11.43910727661211
 30
0.0
 11
-42.76646397594908
 21
-14.15670725018737
 31
0.0
  0
LINE
  5
20B
330
75
100
AcDbEntity
  8
0
  6
Continuous
 62
     7
100
AcDbLine
 10
-52.50442320212892
 20
-13.02134378431055
 30
0.0
 11
-54.07343027842245
 21
-18.87695791047537
 31
0.0
  0
LINE
  5
20C
330
75
100
AcDbEntity
  8
0
  6
Continuous
 62
     7
100
AcDbLine
 10
-45.45661063417333
 20
-24.19647125849593
 30
0.0
 11
-47.26834394989032
 21
-30.95795204251959
 31
0.0
  0
LINE
  5
20D
330
75
100
AcDbEntity
  8
0
  6
Continuous
 62
     7
100
AcDbLine
 10
-47.91563418931719
 20
-33.37367210330501
 30
0.0
 11
-48.0210048206452
 21
-33.76692065304673
 31
0.0
  0
LINE
  5
20E
330
75
100
AcDbEntity
  8
0
  6
Continuous
 62
     7
100
AcDbLine
 10
-54.95154157078196
 20
-19.06315122413508
 30
0.0
 11
-44.80932039474646
 21
-21.78075119771046
 31
0.0
  0
LINE
  5
20F
330
75
100
AcDbEntity
  8
0
  6
Continuous
 62
     7
100
AcDbLine
 10
-44.80932039474646
 20
-21.78075119771046
 30
0.0
 11
-45.45661063417333
 21
-24.19647125849593
 31
0.0
  0
LINE
  5
210
330
75
100
AcDbEntity
  8
0
  6
Continuous
 62
     7
100
AcDbLine
 10
-42.76646397594908
 20
-14.15670725018737
 30
0.0
 11
-43.13494268712498
 21
-15.53188852180404
 31
0.0
  0
LINE
  5
211
330
75
100
AcDbEntity
  8
0
  6
Continuous
 62
     7
100
AcDbLine
 10
-43.13494268712498
 20
-15.53188852180404
 30
0.0
 11
-44.70394976341851
 21
-21.3875026479688
 31
0.0
  0
LINE
  5
212
330
75
100
AcDbEntity
  8
0
  6
Continuous
 62
     7
100
AcDbLine
 10
-58.05785536535262
 20
-30.65607212972941
 30
0.0
 11
-47.91563418931719
 21
-33.37367210330501
 31
0.0
  0
LINE
  5
213
330
75
100
AcDbEntity
  8
1
  6
DOT_CENTER
 62
     2
100
AcDbLine
 10
-59.88543886007915
 20
-23.95374501907378
 30
0.0
 11
-56.50469846806732
 21
-24.85961167693228
 31
0.0
  0
ARC
  5
214
330
75
100
AcDbEntity
  8
0
  6
Continuous
 62
     7
100
AcDbCircle
 10
-55.38198747529663
 20
-7.14663564164204
 30
0.0
 40
1.000000000000212
100
AcDbArc
 50
74.99999999999824
 51
165.000000000007
  0
ARC
  5
215
330
75
100
AcDbEntity
  8
0
  6
Continuous
 62
     7
100
AcDbCircle
 10
-40.79372014262407
 20
-8.72617868647671
 30
0.0
 40
0.4999999999999711
100
AcDbArc
 50
75.00000000001813
 51
165.0000000000089
  0
ARC
  5
216
330
75
100
AcDbEntity
  8
0
  6
Continuous
 62
     7
100
AcDbCircle
 10
-50.96530861515026
 20
-46.68706365964118
 30
0.0
 40
0.5000000000001035
100
AcDbArc
 50
165.0000000000087
 51
254.999999999993
  0
ARC
  5
217
330
75
100
AcDbEntity
  8
0
  6
Continuous
 62
     7
100
AcDbCircle
 10
-64.38889024486184
 20
-40.76085439650535
 30
0.0
 40
0.9999999999998765
100
AcDbArc
 50
165.000000000007
 51
255.0000000000129
  0
SPLINE
  5
218
330
75
100
AcDbEntity
  8
0
  6
Continuous
 62
     7
100
AcDbSpline
210
0.0
220
0.0
230
1.0
 70
     8
 71
     3
 72
    11
 73
     7
 74
     5
 42
0.000000001
 43
0.0000000001
 44
0.00000001
 40
0.0
 40
0.0
 40
0.0
 40
0.0
 40
0.2678832079393828
 40
0.5332223103201865
 40
0.801452122003643
 40
1.06641559748006
 40
1.06641559748006
 40
1.06641559748006
 40
1.06641559748006
 10
-51.95343720386734
 20
-10.96503604453852
 30
0.0
 10
-52.0334358895721
 20
-11.00470594093794
 30
0.0
 10
-52.19267350122403
 20
-11.08366899935574
 30
0.0
 10
-52.43198544147597
 20
-11.20240945874336
 30
0.0
 10
-52.67040632907874
 20
-11.32075608297255
 30
0.0
 10
-52.8295839199579
 20
-11.39981831906035
 30
0.0
 10
-52.90868515198457
 20
-11.43910727661211
 30
0.0
 11
-51.95343720386734
 21
-10.96503604453852
 31
0.0
 11
-52.19342858030491
 21
-11.08405517044656
 31
0.0
 11
-52.4311191090892
 21
-11.20198757387959
 31
0.0
 11
-52.67137651967379
 21
-11.3212503448352
 31
0.0
 11
-52.90868515198457
 21
-11.43910727661211
 31
0.0
  0
SPLINE
  5
219
330
75
100
AcDbEntity
  8
0
  6
Continuous
 62
     7
100
AcDbSpline
210
0.0
220
0.0
230
1.0
 70
     8
 71
     3
 72
    11
 73
     7
 74
     5
 42
0.000000001
 43
0.0000000001
 44
0.00000001
 40
0.0
 40
0.0
 40
0.0
 40
0.0
 40
0.2232182509283708
 40
0.4487652474512079
 40
0.6718805072453342
 40
0.8976343441809955
 40
0.8976343441809955
 40
0.8976343441809955
 40
0.8976343441809955
 10
-58.05785536535262
 20
-30.65607212972941
 30
0.0
 10
-58.002549571694
 20
-30.70584696772433
 30
0.0
 10
-57.89136099136772
 20
-30.80591591325135
 30
0.0
 10
-57.7248612680055
 20
-30.95570242807172
 30
0.0
 10
-57.55771331129466
 20
-31.10603210881938
 30
0.0
 10
-57.4464460175603
 20
-31.20606530939543
 30
0.0
 10
-57.39048533564909
 20
-31.25637591555324
 30
0.0
 11
-58.05785536535262
 21
-30.65607212972941
 31
0.0
 11
-57.89193288102307
 21
-30.80539097228387
 31
0.0
 11
-57.72425531905941
 21
-30.95624084087888
 31
0.0
 11
-57.55836253926988
 21
-31.10543871206807
 31
0.0
 11
-57.39048533564909
 21
-31.25637591555324
 31
0.0
  0
SPLINE
  5
21A
330
75
100
AcDbEntity
  8
0
  6
Continuous
 62
     7
100
AcDbSpline
210
0.0
220
0.0
230
1.0
 70
     8
 71
     3
 72
    11
 73
     7
 74
     5
 42
0.000000001
 43
0.0000000001
 44
0.00000001
 40
0.0
 40
0.0
 40
0.0
 40
0.0
 40
0.2650026194977381
 40
0.5331932871598803
 40
0.7984517946446117
 40
1.066415597480069
 40
1.066415597480069
 40
1.066415597480069
 40
1.066415597480069
 10
-52.00281849412608
 20
-8.058366884600275
 30
0.0
 10
-51.9237055759019
 20
-8.019072123318576
 30
0.0
 10
-51.76452798445242
 20
-7.9400098883786
 30
0.0
 10
-51.52613115871909
 20
-7.821675212071916
 30
0.0
 10
-51.28683091007468
 20
-7.702940545514654
 30
0.0
 10
-51.1275932994621
 20
-7.623977485000131
 30
0.0
 10
-51.04757054600884
 20
-7.584295652526691
 30
0.0
 11
-52.00281849412608
 21
-8.058366884600275
 31
0.0
 11
-51.76547480163175
 21
-7.940492544838129
 31
0.0
 11
-51.5252524512307
 21
-7.821247181867761
 31
0.0
 11
-51.2876341225863
 21
-7.703350592916814
 31
0.0
 11
-51.04757054600884
 21
-7.584295652526691
 31
0.0
  0
SPLINE
  5
21B
330
75
100
AcDbEntity
  8
0
  6
Continuous
 62
     7
100
AcDbSpline
210
0.0
220
0.0
230
1.0
 70
     8
 71
     3
 72
    11
 73
     7
 74
     5
 42
0.000000001
 43
0.0000000001
 44
0.00000001
 40
0.0
 40
0.0
 40
0.0
 40
0.0
 40
0.2866987054017125
 40
0.5707427748941352
 40
0.8577732734533129
 40
1.141485710262931
 40
1.141485710262931
 40
1.141485710262931
 40
1.141485710262931
 10
-50.8458956735156
 20
-6.831634781771527
 30
0.0
 10
-50.9282493382416
 20
-6.880119617163674
 30
0.0
 10
-51.09219412092468
 20
-6.976640364086885
 30
0.0
 10
-51.33855355047787
 20
-7.121760346055389
 30
0.0
 10
-51.58403161761545
 20
-7.266415300765866
 30
0.0
 10
-51.74791318627241
 20
-7.363043444669425
 30
0.0
 10
-51.82937759720312
 20
-7.411076645173182
 30
0.0
 11
-50.8458956735156
 21
-6.831634781771527
 31
0.0
 11
-51.09295090280896
 21
-6.97709907759107
 31
0.0
 11
-51.33769191479723
 21
-7.121261730403262
 31
0.0
 11
-51.58497828040525
 21
-7.266987364691366
 31
0.0
 11
-51.82937759720312
 21
-7.411076645173182
 31
0.0
  0
SPLINE
  5
21C
330
75
100
AcDbEntity
  8
0
  6
Continuous
 62
     7
100
AcDbSpline
210
0.0
220
0.0
230
1.0
 70
     8
 71
     3
 72
    11
 73
     7
 74
     5
 42
0.000000001
 43
0.0000000001
 44
0.00000001
 40
0.0
 40
0.0
 40
0.0
 40
0.0
 40
0.2653179004677562
 40
0.533193287159873
 40
0.7984354947490495
 40
1.066415597480054
 40
1.066415597480054
 40
1.066415597480054
 40
1.066415597480054
 10
-61.0065784420085
 20
-41.66085646926422
 30
0.0
 10
-60.95765388360039
 20
-41.73453073514587
 30
0.0
 10
-60.8593331543938
 20
-41.88258942898799
 30
0.0
 10
-60.71204576836602
 20
-42.10426413645185
 30
0.0
 10
-60.56423118314015
 20
-42.3266539755528
 30
0.0
 10
-60.46580889767932
 20
-42.47465679743168
 30
0.0
 10
-60.41634506806264
 20
-42.54903817350186
 30
0.0
 11
-61.0065784420085
 21
-41.66085646926422
 31
0.0
 11
-60.85979549469216
 21
-41.88187310819959
 31
0.0
 11
-60.71155396824241
 21
-42.10499117701602
 31
0.0
 11
-60.5647277778505
 21
-42.32588820846455
 31
0.0
 11
-60.41634506806264
 21
-42.54903817350186
 31
0.0
  0
SPLINE
  5
21D
330
75
100
AcDbEntity
  8
0
  6
Continuous
 62
     7
100
AcDbSpline
210
0.0
220
0.0
230
1.0
 70
     8
 71
     3
 72
    11
 73
     7
 74
     5
 42
0.000000001
 43
0.0000000001
 44
0.00000001
 40
0.0
 40
0.0
 40
0.0
 40
0.0
 40
0.2839714124429176
 40
0.5707429353688112
 40
0.8546478952706049
 40
1.141485710262908
 40
1.141485710262908
 40
1.141485710262908
 40
1.141485710262908
 10
-61.18001933893152
 20
-42.30814670869131
 30
0.0
 10
-61.13344320965894
 20
-42.390552035727
 30
0.0
 10
-61.03983167239218
 20
-42.55617524313104
 30
0.0
 10
-60.89959171333457
 20
-42.80414876825257
 30
0.0
 10
-60.7588406992989
 20
-43.05293094651739
 30
0.0
 10
-60.6651207296273
 20
-43.21849275866199
 30
0.0
 10
-60.61801994055594
 20
-43.30169904425696
 30
0.0
 11
-61.18001933893152
 21
-42.30814670869131
 31
0.0
 11
-61.04028050107787
 21
-42.55535678186941
 31
0.0
 11
-60.89911450467582
 21
-42.80497662848063
 31
0.0
 11
-60.75931240974975
 21
-43.0520745858016
 31
0.0
 11
-60.61801994055594
 21
-43.30169904425696
 31
0.0
  0
SPLINE
  5
21E
330
75
100
AcDbEntity
  8
0
  6
Continuous
 62
     7
100
AcDbSpline
210
0.0
220
0.0
230
1.0
 70
     8
 71
     3
 72
    11
 73
     7
 74
     5
 42
0.000000001
 43
0.0000000001
 44
0.00000001
 40
0.0
 40
0.0
 40
0.0
 40
0.0
 40
0.2651495747987798
 40
0.5331932871598892
 40
0.7984811810110453
 40
1.066415597480072
 40
1.066415597480072
 40
1.066415597480072
 40
1.066415597480072
 10
-60.10071178415001
 20
-38.28011607725239
 30
0.0
 10
-60.05181826728105
 20
-38.35374360350396
 30
0.0
 10
-59.9534975427454
 20
-38.50180230044684
 30
0.0
 10
-59.80620174173033
 20
-38.72348970055614
 30
0.0
 10
-59.65835609410127
 20
-38.9459262654241
 30
0.0
 10
-59.55993380757577
 20
-39.09392908659474
 30
0.0
 10
-59.51047841020414
 20
-39.16829778149003
 30
0.0
 11
-60.10071178415001
 21
-38.28011607725239
 31
0.0
 11
-59.9540219741613
 21
-38.50099250574124
 31
0.0
 11
-59.80568731038392
 21
-38.72425078500419
 31
0.0
 11
-59.65883582661588
 21
-38.94518586221037
 31
0.0
 11
-59.51047841020414
 21
-39.16829778149003
 31
0.0
  0
SPLINE
  5
21F
330
75
100
AcDbEntity
  8
0
  6
Continuous
 62
     7
100
AcDbSpline
210
0.0
220
0.0
230
1.0
 70
     8
 71
     3
 72
    11
 73
     7
 74
     5
 42
0.000000001
 43
0.0000000001
 44
0.00000001
 40
0.0
 40
0.0
 40
0.0
 40
0.0
 40
0.2232179694158364
 40
0.4487652474512412
 40
0.6720534812134845
 40
0.8976343441809775
 40
0.8976343441809775
 40
0.8976343441809775
 40
0.8976343441809775
 10
-59.62686244164615
 20
-36.51168625589418
 30
0.0
 10
-59.57155671772424
 20
-36.56146103110162
 30
0.0
 10
-59.46036813737287
 20
-36.6615299766008
 30
0.0
 10
-59.29382554931154
 20
-36.81135505385534
 30
0.0
 10
-59.12667751430294
 20
-36.96168478787382
 30
0.0
 10
-59.01541021782099
 20
-37.06171798539286
 30
0.0
 10
-58.95949241194262
 20
-37.111990041718
 30
0.0
 11
-59.62686244164615
 21
-36.51168625589418
 31
0.0
 11
-59.46094016658552
 21
-36.66100491015146
 31
0.0
 11
-59.29326239535294
 21
-36.8118549670437
 31
0.0
 11
-59.12724099561923
 21
-36.96116849679839
 31
0.0
 11
-58.95949241194262
 21
-37.111990041718
 31
0.0
  0
SPLINE
  5
220
330
75
100
AcDbEntity
  8
0
  6
Continuous
 62
     7
100
AcDbSpline
210
0.0
220
0.0
230
1.0
 70
     8
 71
     3
 72
    11
 73
     7
 74
     5
 42
0.000000001
 43
0.0000000001
 44
0.00000001
 40
0.0
 40
0.0
 40
0.0
 40
0.0
 40
0.2255797515741565
 40
0.4488690967297615
 40
0.6744126663341383
 40
0.8976343441809618
 40
0.8976343441809618
 40
0.8976343441809618
 40
0.8976343441809618
 10
-52.50442320212892
 20
-13.02134378431055
 30
0.0
 10
-52.57798510828182
 20
-13.03692168248625
 30
0.0
 10
-52.72436201241079
 20
-13.06791932449171
 30
0.0
 10
-52.9442801146695
 20
-13.1145344191938
 30
0.0
 10
-53.16342312782832
 20
-13.16101552479134
 30
0.0
 10
-53.30974973579392
 20
-13.19208348344891
 30
0.0
 10
-53.38253449448843
 20
-13.20753709797026
 30
0.0
 11
-52.50442320212892
 21
-13.02134378431055
 31
0.0
 11
-52.72510742224476
 21
-13.06808455144598
 31
0.0
 11
-52.94354402412012
 21
-13.11438339184019
 31
0.0
 11
-53.16417863444769
 21
-13.16118371786707
 31
0.0
 11
-53.38253449448843
 21
-13.20753709797026
 31
0.0
  0
SPLINE
  5
221
330
75
100
AcDbEntity
  8
0
  6
Continuous
 62
     7
100
AcDbSpline
210
0.0
220
0.0
230
1.0
 70
     8
 71
     3
 72
    11
 73
     7
 74
     5
 42
0.000000001
 43
0.0000000001
 44
0.00000001
 40
0.0
 40
0.0
 40
0.0
 40
0.0
 40
0.2257350453692324
 40
0.4488690967298296
 40
0.6744398470785843
 40
0.897634344180974
 40
0.897634344180974
 40
0.897634344180974
 40
0.897634344180974
 10
-54.07343027842245
 20
-18.87695791047537
 30
0.0
 10
-54.14704282573661
 20
-18.89254653462276
 30
0.0
 10
-54.29341972910008
 20
-18.92354418024567
 30
0.0
 10
-54.51334669231871
 20
-18.97016116481358
 30
0.0
 10
-54.732439067052
 20
-19.01663153153319
 30
0.0
 10
-54.87876567485549
 20
-19.04769949095395
 30
0.0
 10
-54.95154157078196
 20
-19.06315122413508
 30
0.0
 11
-54.07343027842245
 21
-18.87695791047537
 31
0.0
 11
-54.29426641975483
 21
-18.92373086622507
 31
0.0
 11
-54.5125511004137
 21
-18.96999751800502
 31
0.0
 11
-54.73321229944889
 21
-19.01680348615
 31
0.0
 11
-54.95154157078196
 21
-19.06315122413508
 31
0.0
  0
ENDBLK
  5
77
330
75
100
AcDbEntity
  8
0
100
AcDbBlockEnd
  0
BLOCK
  5
79
330
78
100
AcDbEntity
  8
0
100
AcDbBlockBegin
  2
Dichtstopfen
 70
     0
 10
-96.67356274095846
 20
-74.81534491518964
 30
0.0
  3
Dichtstopfen
  1

  0
LINE
  5
222
330
78
100
AcDbEntity
  8
0
  6
Continuous
 62
     7
100
AcDbLine
 10
-107.2254977528828
 20
-72.66089196742644
 30
0.0
 11
-86.45809248766727
 21
-78.22550143712863
 31
0.0
  0
LINE
  5
223
330
78
100
AcDbEntity
  8
0
  6
Continuous
 62
     7
100
AcDbLine
 10
-107.2254977528828
 20
-72.66089196742644
 30
0.0
 11
-106.8890329942497
 21
-71.40518839325065
 31
0.0
  0
LINE
  5
224
330
78
100
AcDbEntity
  8
0
  6
Continuous
 62
     7
100
AcDbLine
 10
-89.48856918067054
 20
-76.06762862002435
 30
0.0
 11
-86.12162772903412
 21
-76.96979786295284
 31
0.0
  0
LINE
  5
225
330
78
100
AcDbEntity
  8
0
  6
Continuous
 62
     7
100
AcDbLine
 10
-86.45809248766727
 20
-78.22550143712863
 30
0.0
 11
-86.12162772903412
 21
-76.96979786295284
 31
0.0
  0
LINE
  5
226
330
78
100
AcDbEntity
  8
0
  6
Continuous
 62
     7
100
AcDbLine
 10
-106.8890329942497
 20
-71.40518839325065
 30
0.0
 11
-105.9369061083361
 21
-71.66031002342305
 31
0.0
  0
LINE
  5
227
330
78
100
AcDbEntity
  8
0
  6
Continuous
 62
     7
100
AcDbLine
 10
-90.46829394733504
 20
-75.80511215999192
 30
0.0
 11
-89.48856918067054
 21
-76.06762862002435
 31
0.0
  0
LINE
  5
228
330
78
100
AcDbEntity
  8
0
  6
Continuous
 62
     7
100
AcDbLine
 10
-105.9369061083361
 20
-71.66031002342305
 30
0.0
 11
-104.9571813416715
 21
-71.92282648345551
 31
0.0
  0
LINE
  5
229
330
78
100
AcDbEntity
  8
0
  6
Continuous
 62
     7
100
AcDbLine
 10
-104.9571813416715
 20
-71.92282648345551
 30
0.0
 11
-90.46829394733504
 21
-75.80511215999192
 31
0.0
  0
ENDBLK
  5
7A
330
78
100
AcDbEntity
  8
0
100
AcDbBlockEnd
  0
BLOCK
  5
13A
330
131
100
AcDbEntity
  8
0
100
AcDbBlockBegin
  2
*D15
 70
     1
 10
0.0
 20
0.0
 30
0.0
  3
*D15
  1

  0
LINE
  5
132
330
131
100
AcDbEntity
  8
1
  6
Continuous
 62
     4
100
AcDbLine
 10
216.9839432588238
 20
-206.0915890000007
 30
0.0
 11
216.9839432588238
 21
-166.5915890000007
 31
0.0
  0
LINE
  5
133
330
131
100
AcDbEntity
  8
1
  6
Continuous
 62
     4
100
AcDbLine
 10
216.9839432588238
 20
-166.5915890000007
 30
0.0
 11
216.9839432588238
 21
-133.0773934025007
 31
0.0
  0
LINE
  5
134
330
131
100
AcDbEntity
  8
1
  6
Continuous
 62
     4
100
AcDbLine
 10
199.9999999999908
 20
-206.0915890000007
 30
0.0
 11
218.9839432588238
 21
-206.0915890000007
 31
0.0
  0
LINE
  5
135
330
131
100
AcDbEntity
  8
1
  6
Continuous
 62
     4
100
AcDbLine
 10
199.9999999999908
 20
-166.5915890000007
 30
0.0
 11
218.9839432588238
 21
-166.5915890000007
 31
0.0
  0
SOLID
  5
136
330
131
100
AcDbEntity
  8
1
 62
     4
100
AcDbTrace
 10
216.062375775712
 20
-199.0915890000007
 30
0.0
 11
217.9055107419356
 21
-199.0915890000007
 31
0.0
 12
216.9839432588238
 22
-206.0915890000007
 32
0.0
 13
216.9839432588238
 23
-206.0915890000007
 33
0.0
  0
SOLID
  5
137
330
131
100
AcDbEntity
  8
1
 62
     4
100
AcDbTrace
 10
217.9055107419356
 20
-173.5915890000007
 30
0.0
 11
216.062375775712
 21
-173.5915890000007
 31
0.0
 12
216.9839432588238
 22
-166.5915890000007
 32
0.0
 13
216.9839432588238
 23
-166.5915890000007
 33
0.0
  0
MTEXT
  5
139
330
131
100
AcDbEntity
  8
1
 62
     1
100
AcDbMText
 10
214.9839432588238
 20
-155.0573934025007
 30
0.0
 40
7.0
 41
0.0
 71
     7
 72
     1
  1
\C1;DN\C1;40
  7
CONVERTER_11
 11
0.0
 21
1.0
 31
0.0
 73
     1
 44
0.60024009603842
  0
ENDBLK
  5
13B
330
131
100
AcDbEntity
  8
0
100
AcDbBlockEnd
  0
BLOCK
  5
145
330
13E
100
AcDbEntity
  8
0
100
AcDbBlockBegin
  2
*D16
 70
     1
 10
0.0
 20
0.0
 30
0.0
  3
*D16
  1

  0
LINE
  5
13F
330
13E
100
AcDbEntity
  8
1
  6
Continuous
 62
     4
100
AcDbLine
 10
-23.99999957365003
 20
16.49999999998995
 30
0.0
 11
24.00000042634997
 21
16.49999999998995
 31
0.0
  0
LINE
  5
140
330
13E
100
AcDbEntity
  8
1
  6
Continuous
 62
     4
100
AcDbLine
 10
-23.99999957365003
 20
5.49999999999032
 30
0.0
 11
-23.99999957365003
 21
18.49999999998995
 31
0.0
  0
LINE
  5
141
330
13E
100
AcDbEntity
  8
1
  6
Continuous
 62
     4
100
AcDbLine
 10
24.00000042634997
 20
6.49999999999032
 30
0.0
 11
24.00000042634997
 21
18.49999999998995
 31
0.0
  0
SOLID
  5
142
330
13E
100
AcDbEntity
  8
1
 62
     4
100
AcDbTrace
 10
17.00000042634997
 20
15.57843251687818
 30
0.0
 11
17.00000042634997
 21
17.42156748310172
 31
0.0
 12
24.00000042634997
 22
16.49999999998995
 32
0.0
 13
24.00000042634997
 23
16.49999999998995
 33
0.0
  0
SOLID
  5
143
330
13E
100
AcDbEntity
  8
1
 62
     4
100
AcDbTrace
 10
-16.99999957365003
 20
17.42156748310172
 30
0.0
 11
-16.99999957365003
 21
15.57843251687818
 31
0.0
 12
-23.99999957365003
 22
16.49999999998995
 32
0.0
 13
-23.99999957365003
 23
16.49999999998995
 33
0.0
  0
MTEXT
  5
144
330
13E
100
AcDbEntity
  8
1
 62
     1
100
AcDbMText
 10
-10.25531025058986
 20
18.49999999998995
 30
0.0
 40
7.0
 41
0.0
 71
     7
 72
     1
  1
5/4"
  7
CONVERTER_11
 11
0.9999999999970619
 21
2.424068405545306E-6
 31
0.0
 73
     1
 44
0.60024009603842
  0
ENDBLK
  5
146
330
13E
100
AcDbEntity
  8
0
100
AcDbBlockEnd
  0
BLOCK
  5
150
330
149
100
AcDbEntity
  8
0
100
AcDbBlockBegin
  2
*D17
 70
     1
 10
0.0
 20
0.0
 30
0.0
  3
*D17
  1

  0
LINE
  5
14A
330
149
100
AcDbEntity
  8
1
  6
Continuous
 62
     4
100
AcDbLine
 10
-0.00000000000931
 20
-299.08027833819
 30
0.0
 11
199.9999999999908
 21
-299.08027833819
 31
0.0
  0
LINE
  5
14B
330
149
100
AcDbEntity
  8
1
  6
Continuous
 62
     4
100
AcDbLine
 10
-0.00000000000931
 20
-281.0915890000009
 30
0.0
 11
-0.00000000000931
 21
-301.08027833819
 31
0.0
  0
LINE
  5
14C
330
149
100
AcDbEntity
  8
1
  6
Continuous
 62
     4
100
AcDbLine
 10
199.9999999999908
 20
-206.0915890000007
 30
0.0
 11
199.9999999999908
 21
-301.08027833819
 31
0.0
  0
SOLID
  5
14D
330
149
100
AcDbEntity
  8
1
 62
     4
100
AcDbTrace
 10
6.99999999999069
 20
-298.1587108550783
 30
0.0
 11
6.99999999999069
 21
-300.0018458213017
 31
0.0
 12
-0.00000000000931
 22
-299.08027833819
 32
0.0
 13
-0.00000000000931
 23
-299.08027833819
 33
0.0
  0
SOLID
  5
14E
330
149
100
AcDbEntity
  8
1
 62
     4
100
AcDbTrace
 10
192.9999999999908
 20
-300.0018458213017
 30
0.0
 11
192.9999999999908
 21
-298.1587108550783
 31
0.0
 12
199.9999999999908
 22
-299.08027833819
 32
0.0
 13
199.9999999999908
 23
-299.08027833819
 33
0.0
  0
MTEXT
  5
14F
330
149
100
AcDbEntity
  8
1
 62
     1
100
AcDbMText
 10
93.04953675283946
 20
-297.0803339948006
 30
0.0
 40
7.0
 41
0.0
 71
     7
 72
     1
  1
\C1;100-\C1;200
  7
CONVERTER_11
 11
0.9999999999970619
 21
2.424068405545306E-6
 31
0.0
 73
     1
 44
0.60024009603842
  0
ENDBLK
  5
151
330
149
100
AcDbEntity
  8
0
100
AcDbBlockEnd
  0
BLOCK
  5
15B
330
154
100
AcDbEntity
  8
0
100
AcDbBlockBegin
  2
*D18
 70
     1
 10
0.0
 20
0.0
 30
0.0
  3
*D18
  1

  0
LINE
  5
155
330
154
100
AcDbEntity
  8
1
  6
Continuous
 62
     4
100
AcDbLine
 10
231.7592953058169
 20
-186.3415890000007
 30
0.0
 11
231.7592953058169
 21
-6.0
 31
0.0
  0
LINE
  5
156
330
154
100
AcDbEntity
  8
1
  6
Continuous
 62
     4
100
AcDbLine
 10
207.3876974476109
 20
-186.3415890000007
 30
0.0
 11
233.7592953058169
 21
-186.3415890000007
 31
0.0
  0
LINE
  5
157
330
154
100
AcDbEntity
  8
1
  6
Continuous
 62
     4
100
AcDbLine
 10
28.13259927285068
 20
-6.0
 30
0.0
 11
233.7592953058169
 21
-6.0
 31
0.0
  0
SOLID
  5
158
330
154
100
AcDbEntity
  8
1
 62
     4
100
AcDbTrace
 10
230.8377278227051
 20
-179.3415890000007
 30
0.0
 11
232.6808627889287
 21
-179.3415890000007
 31
0.0
 12
231.7592953058169
 22
-186.3415890000007
 32
0.0
 13
231.7592953058169
 23
-186.3415890000007
 33
0.0
  0
SOLID
  5
159
330
154
100
AcDbEntity
  8
1
 62
     4
100
AcDbTrace
 10
232.6808627889287
 20
-13.0
 30
0.0
 11
230.8377278227051
 21
-13.0
 31
0.0
 12
231.7592953058169
 22
-6.0
 32
0.0
 13
231.7592953058169
 23
-6.0
 33
0.0
  0
MTEXT
  5
15A
330
154
100
AcDbEntity
  8
1
 62
     1
100
AcDbMText
 10
229.7592953058169
 20
-86.91590208670712
 30
0.0
 40
7.0
 41
0.0
 71
     7
 72
     1
  1
\C1;87-\C1;180
  7
CONVERTER_11
 11
0.0
 21
1.0
 31
0.0
 73
     1
 44
0.60024009603842
  0
ENDBLK
  5
15C
330
154
100
AcDbEntity
  8
0
100
AcDbBlockEnd
  0
BLOCK
  5
166
330
15F
100
AcDbEntity
  8
0
100
AcDbBlockBegin
  2
*D19
 70
     1
 10
0.0
 20
0.0
 30
0.0
  3
*D19
  1

  0
LINE
  5
160
330
15F
100
AcDbEntity
  8
1
  6
Continuous
 62
     4
100
AcDbLine
 10
231.7592953058169
 20
-281.0915890000008
 30
0.0
 11
231.7592953058169
 21
-186.3415890000007
 31
0.0
  0
LINE
  5
161
330
15F
100
AcDbEntity
  8
1
  6
Continuous
 62
     4
100
AcDbLine
 10
20.3321324614715
 20
-281.0915890000008
 30
0.0
 11
233.7592953058169
 21
-281.0915890000008
 31
0.0
  0
LINE
  5
162
330
15F
100
AcDbEntity
  8
1
  6
Continuous
 62
     4
100
AcDbLine
 10
207.3876974476109
 20
-186.3415890000007
 30
0.0
 11
233.7592953058169
 21
-186.3415890000007
 31
0.0
  0
SOLID
  5
163
330
15F
100
AcDbEntity
  8
1
 62
     4
100
AcDbTrace
 10
232.6808627889287
 20
-193.3415890000007
 30
0.0
 11
230.8377278227051
 21
-193.3415890000007
 31
0.0
 12
231.7592953058169
 22
-186.3415890000007
 32
0.0
 13
231.7592953058169
 23
-186.3415890000007
 33
0.0
  0
SOLID
  5
164
330
15F
100
AcDbEntity
  8
1
 62
     4
100
AcDbTrace
 10
230.8377278227051
 20
-274.0915890000008
 30
0.0
 11
232.6808627889287
 21
-274.0915890000008
 31
0.0
 12
231.7592953058169
 22
-281.0915890000008
 32
0.0
 13
231.7592953058169
 23
-281.0915890000008
 33
0.0
  0
MTEXT
  5
165
330
15F
100
AcDbEntity
  8
1
 62
     1
100
AcDbMText
 10
229.7592953058169
 20
-242.7890495149711
 30
0.0
 40
7.0
 41
0.0
 71
     7
 72
     1
  1
95
  7
CONVERTER_11
 11
0.0
 21
1.0
 31
0.0
 73
     1
 44
0.60024009603842
  0
ENDBLK
  5
167
330
15F
100
AcDbEntity
  8
0
100
AcDbBlockEnd
  0
BLOCK
  5
171
330
16A
100
AcDbEntity
  8
0
100
AcDbBlockBegin
  2
*D20
 70
     1
 10
0.0
 20
0.0
 30
0.0
  3
*D20
  1

  0
LINE
  5
16B
330
16A
100
AcDbEntity
  8
1
  6
Continuous
 62
     4
100
AcDbLine
 10
-45.02148573800339
 20
-281.0915890000008
 30
0.0
 11
-45.02148573800339
 21
-164.0915890000007
 31
0.0
  0
LINE
  5
16C
330
16A
100
AcDbEntity
  8
1
  6
Continuous
 62
     4
100
AcDbLine
 10
-20.33213246149006
 20
-281.0915890000008
 30
0.0
 11
-47.02148573800339
 21
-281.0915890000008
 31
0.0
  0
LINE
  5
16D
330
16A
100
AcDbEntity
  8
1
  6
Continuous
 62
     4
100
AcDbLine
 10
-24.00000000000909
 20
-164.0915890000007
 30
0.0
 11
-47.02148573800339
 21
-164.0915890000007
 31
0.0
  0
SOLID
  5
16E
330
16A
100
AcDbEntity
  8
1
 62
     4
100
AcDbTrace
 10
-45.94305322111516
 20
-274.0915890000008
 30
0.0
 11
-44.09991825489162
 21
-274.0915890000008
 31
0.0
 12
-45.02148573800339
 22
-281.0915890000008
 32
0.0
 13
-45.02148573800339
 23
-281.0915890000008
 33
0.0
  0
SOLID
  5
16F
330
16A
100
AcDbEntity
  8
1
 62
     4
100
AcDbTrace
 10
-44.09991825489163
 20
-171.0915890000007
 30
0.0
 11
-45.94305322111516
 21
-171.0915890000007
 31
0.0
 12
-45.02148573800339
 22
-164.0915890000007
 32
0.0
 13
-45.02148573800339
 23
-164.0915890000007
 33
0.0
  0
MTEXT
  5
170
330
16A
100
AcDbEntity
  8
1
 62
     1
100
AcDbMText
 10
-47.02148573800339
 20
-227.6799489041631
 30
0.0
 40
7.0
 41
0.0
 71
     7
 72
     1
  1
117
  7
CONVERTER_11
 11
0.0
 21
1.0
 31
0.0
 73
     1
 44
0.60024009603842
  0
ENDBLK
  5
172
330
16A
100
AcDbEntity
  8
0
100
AcDbBlockEnd
  0
BLOCK
  5
17E
330
175
100
AcDbEntity
  8
0
100
AcDbBlockBegin
  2
*D21
 70
     1
 10
0.0
 20
0.0
 30
0.0
  3
*D21
  1

  0
LINE
  5
176
330
175
100
AcDbEntity
  8
1
  6
Continuous
 62
     4
100
AcDbLine
 10
-125.5275044867085
 20
-90.68157225000624
 30
0.0
 11
-112.0045429186612
 21
-94.30503888144023
 31
0.0
  0
LINE
  5
177
330
175
100
AcDbEntity
  8
1
  6
Continuous
 62
     4
100
AcDbLine
 10
-112.0045429186612
 20
-94.30503888144023
 30
0.0
 11
-95.55620599099562
 21
-98.71235747804153
 31
0.0
  0
LINE
  5
178
330
175
100
AcDbEntity
  8
1
  6
Continuous
 62
     4
100
AcDbLine
 10
-95.55620599099562
 20
-98.71235747804153
 30
0.0
 11
-63.03925130696956
 21
-107.4252492259423
 31
0.0
  0
LINE
  5
179
330
175
100
AcDbEntity
  8
1
  6
Continuous
 62
     4
100
AcDbLine
 10
-105.9369061083361
 20
-71.66031002342305
 30
0.0
 11
-112.5221810088661
 21
-96.23689053401841
 31
0.0
  0
LINE
  5
17A
330
175
100
AcDbEntity
  8
1
  6
Continuous
 62
     4
100
AcDbLine
 10
-89.48856918067054
 20
-76.06762862002435
 30
0.0
 11
-96.07384408120048
 21
-100.6442091306197
 31
0.0
  0
SOLID
  5
17B
330
175
100
AcDbEntity
  8
1
 62
     4
100
AcDbTrace
 10
-119.0045429186613
 20
-93.38347139832914
 30
0.0
 11
-118.5275044867085
 21
-91.60313973311733
 31
0.0
 12
-112.0045429186612
 22
-94.30503888144023
 32
0.0
 13
-112.0045429186612
 23
-94.30503888144023
 33
0.0
  0
SOLID
  5
17C
330
175
100
AcDbEntity
  8
1
 62
     4
100
AcDbTrace
 10
-88.55620599099554
 20
-99.63392496115262
 30
0.0
 11
-89.0332444229484
 21
-101.4142566263644
 31
0.0
 12
-95.55620599099562
 22
-98.71235747804153
 32
0.0
 13
-95.55620599099562
 23
-98.71235747804153
 33
0.0
  0
MTEXT
  5
17D
330
175
100
AcDbEntity
  8
1
 62
     1
100
AcDbMText
 10
-80.77761133362858
 20
-100.6017176209283
 30
0.0
 40
7.0
 41
0.0
 71
     7
 72
     1
  1
3/4"
  7
CONVERTER_11
 11
0.9659258262890932
 21
-0.2588190451024277
 31
0.0
 73
     1
 44
0.60024009603842
  0
ENDBLK
  5
17F
330
175
100
AcDbEntity
  8
0
100
AcDbBlockEnd
  0
ENDSEC
  0
SECTION
  2
ENTITIES
  0
INSERT
  5
7B
330
1F
100
AcDbEntity
  8
0
100
AcDbBlockReference
  2
HL132_1_40
 10
54.11589540955418
 20
-137.7901391691
 30
0.0
  0
INSERT
  5
7C
330
1F
100
AcDbEntity
  8
1
100
AcDbBlockReference
  2
Mutter_R5_4__1
 10
-0.00000000000904
 20
-153.5915890000007
 30
0.0
  0
INSERT
  5
7D
330
1F
100
AcDbEntity
  8
1
100
AcDbBlockReference
  2
Mutter_R5_4__2
 10
48.12499999999085
 20
-186.3415890000007
 30
0.0
  0
INSERT
  5
7E
330
1F
100
AcDbEntity
  8
1
100
AcDbBlockReference
  2
Rosette
 10
178.1408548478594
 20
-186.3415890000007
 30
0.0
  0
INSERT
  5
7F
330
1F
100
AcDbEntity
  8
0
100
AcDbBlockReference
  2
Holländermutter_1
 10
-52.06067460617844
 20
-26.91715015231637
 30
0.0
  0
INSERT
  5
80
330
1F
100
AcDbEntity
  8
0
100
AcDbBlockReference
  2
Dichtstopfen
 10
-96.67356274095846
 20
-74.81534491518964
 30
0.0
  0
ENDSEC
  0
SECTION
  2
OBJECTS
  0
DICTIONARY
  5
C
330
0
100
AcDbDictionary
281
     1
  3
ACAD_GROUP
350
D
  3
ACAD_LAYOUT
350
1A
  3
ACAD_MATERIAL
350
3B
  3
ACAD_MLEADERSTYLE
350
22C
  3
ACAD_MLINESTYLE
350
17
  3
ACAD_PLOTSETTINGS
350
19
  3
ACAD_PLOTSTYLENAME
350
E
  3
ACAD_VISUALSTYLE
350
2A
  3
AcDbVariableDictionary
350
22A
  0
DICTIONARY
  5
D
102
{ACAD_REACTORS
330
C
102
}
330
C
100
AcDbDictionary
281
     1
  0
DICTIONARY
  5
1A
102
{ACAD_REACTORS
330
C
102
}
330
C
100
AcDbDictionary
281
     1
  3
Layout1
350
1E
  3
Layout2
350
26
  3
Model
350
22
  0
DICTIONARY
  5
3B
102
{ACAD_REACTORS
330
C
102
}
330
C
100
AcDbDictionary
281
     1
  3
ByBlock
350
3D
  3
ByLayer
350
3C
  3
Global
350
3E
  0
DICTIONARY
  5
22C
102
{ACAD_REACTORS
330
C
102
}
330
C
100
AcDbDictionary
281
     1
  0
DICTIONARY
  5
17
102
{ACAD_REACTORS
330
C
102
}
330
C
100
AcDbDictionary
281
     1
  3
Standard
350
18
  0
DICTIONARY
  5
19
102
{ACAD_REACTORS
330
C
102
}
330
C
100
AcDbDictionary
281
     1
  0
ACDBDICTIONARYWDFLT
  5
E
102
{ACAD_REACTORS
330
C
102
}
330
C
100
AcDbDictionary
281
     1
  3
Normal
350
F
100
AcDbDictionaryWithDefault
340
F
  0
DICTIONARY
  5
2A
102
{ACAD_REACTORS
330
C
102
}
330
C
100
AcDbDictionary
281
     1
  3
2dWireframe
350
2F
  3
3D Hidden
350
31
  3
3dWireframe
350
30
  3
Basic
350
32
  3
Brighten
350
36
  3
ColorChange
350
3A
  3
Conceptual
350
34
  3
Dim
350
35
  3
Facepattern
350
39
  3
Flat
350
2B
  3
FlatWithEdges
350
2C
  3
Gouraud
350
2D
  3
GouraudWithEdges
350
2E
  3
Linepattern
350
38
  3
Realistic
350
33
  3
Thicken
350
37
  0
DICTIONARY
  5
22A
102
{ACAD_REACTORS
330
C
102
}
330
C
100
AcDbDictionary
281
     1
  3
DIMASSOC
350
22D
  3
HIDETEXT
350
22E
  0
LAYOUT
  5
1E
102
{ACAD_REACTORS
330
1A
102
}
330
1A
100
AcDbPlotSettings
  1

  2
none_device
  4

  6

 40
0.0
 41
0.0
 42
0.0
 43
0.0
 44
0.0
 45
0.0
 46
0.0
 47
0.0
 48
0.0
 49
0.0
140
0.0
141
0.0
142
1.0
143
1.0
 70
   688
 72
     0
 73
     0
 74
     5
  7

 75
    16
147
1.0
148
0.0
149
0.0
100
AcDbLayout
  1
Layout1
 70
     1
 71
     1
 10
0.0
 20
0.0
 11
12.0
 21
9.0
 12
0.0
 22
0.0
 32
0.0
 14
1.00000000000000E+20
 24
1.00000000000000E+20
 34
1.00000000000000E+20
 15
-1.00000000000000E+20
 25
-1.00000000000000E+20
 35
-1.00000000000000E+20
146
0.0
 13
0.0
 23
0.0
 33
0.0
 16
1.0
 26
0.0
 36
0.0
 17
0.0
 27
1.0
 37
0.0
 76
     0
330
1B
  0
LAYOUT
  5
26
102
{ACAD_REACTORS
330
1A
102
}
330
1A
100
AcDbPlotSettings
  1

  2
none_device
  4

  6

 40
0.0
 41
0.0
 42
0.0
 43
0.0
 44
0.0
 45
0.0
 46
0.0
 47
0.0
 48
0.0
 49
0.0
140
0.0
141
0.0
142
1.0
143
1.0
 70
   688
 72
     0
 73
     0
 74
     5
  7

 75
    16
147
1.0
148
0.0
149
0.0
100
AcDbLayout
  1
Layout2
 70
     1
 71
     2
 10
0.0
 20
0.0
 11
0.0
 21
0.0
 12
0.0
 22
0.0
 32
0.0
 14
0.0
 24
0.0
 34
0.0
 15
0.0
 25
0.0
 35
0.0
146
0.0
 13
0.0
 23
0.0
 33
0.0
 16
1.0
 26
0.0
 36
0.0
 17
0.0
 27
1.0
 37
0.0
 76
     0
330
23
  0
LAYOUT
  5
22
102
{ACAD_REACTORS
330
1A
102
}
330
1A
100
AcDbPlotSettings
  1

  2
none_device
  4

  6

 40
0.0
 41
0.0
 42
0.0
 43
0.0
 44
0.0
 45
0.0
 46
0.0
 47
0.0
 48
0.0
 49
0.0
140
0.0
141
0.0
142
1.0
143
1.0
 70
  1712
 72
     0
 73
     0
 74
     0
  7

 75
     0
147
1.0
148
0.0
149
0.0
100
AcDbLayout
  1
Model
 70
     1
 71
     0
 10
0.0
 20
0.0
 11
12.0
 21
9.0
 12
0.0
 22
0.0
 32
0.0
 14
-125.5275044867085
 24
-301.08027833819
 34
0.0
 15
233.7592953058169
 25
25.49999999998995
 35
0.0
146
0.0
 13
0.0
 23
0.0
 33
0.0
 16
1.0
 26
0.0
 36
0.0
 17
0.0
 27
1.0
 37
0.0
 76
     0
330
1F
331
29
  0
MATERIAL
  5
3D
102
{ACAD_REACTORS
330
3B
102
}
102
{ACAD_XDICTIONARY
360
251
102
}
330
3B
100
AcDbMaterial
  1
ByBlock
  0
MATERIAL
  5
3C
102
{ACAD_REACTORS
330
3B
102
}
102
{ACAD_XDICTIONARY
360
24F
102
}
330
3B
100
AcDbMaterial
  1
ByLayer
  0
MATERIAL
  5
3E
102
{ACAD_REACTORS
330
3B
102
}
102
{ACAD_XDICTIONARY
360
253
102
}
330
3B
100
AcDbMaterial
  1
Global
  0
MLINESTYLE
  5
18
102
{ACAD_REACTORS
330
17
102
}
330
17
100
AcDbMlineStyle
  2
Standard
 70
     0
  3

 62
   256
 51
90.0
 52
90.0
 71
     2
 49
0.5
 62
   256
  6
BYLAYER
 49
-0.5
 62
   256
  6
BYLAYER
  0
ACDBPLACEHOLDER
  5
F
102
{ACAD_REACTORS
330
E
102
}
330
E
  0
VISUALSTYLE
  5
2F
102
{ACAD_REACTORS
330
2A
102
}
102
{ACAD_XDICTIONARY
360
237
102
}
330
2A
100
AcDbVisualStyle
  2
2dWireframe
 70
     4
 71
     0
 72
     2
 73
     0
 90
        0
 40
-0.6
 41
-30.0
 62
     5
 63
     7
 74
     1
 91
        4
 64
     7
 65
   257
 75
     1
175
     1
 42
1.0
 92
        0
 66
   257
 43
1.0
 76
     1
 77
     6
 78
     2
 67
     7
 79
     5
170
     0
171
     0
290
     0
174
     0
 93
        1
 44
0.0
173
     0
291
     0
 45
0.0
1001
ACAD
1000
AcDbSavedByObjectVersion
1070
     0
  0
VISUALSTYLE
  5
31
102
{ACAD_REACTORS
330
2A
102
}
102
{ACAD_XDICTIONARY
360
23B
102
}
330
2A
100
AcDbVisualStyle
  2
3D Hidden
 70
     6
 71
     1
 72
     2
 73
     2
 90
        0
 40
-0.6
 41
-30.0
 62
     5
 63
     7
 74
     2
 91
        2
 64
     7
 65
   257
 75
     2
175
     1
 42
40.0
 92
        0
 66
   257
 43
1.0
 76
     1
 77
     6
 78
     2
 67
     7
 79
     3
170
     0
171
     0
290
     0
174
     0
 93
        1
 44
0.0
173
     0
291
     0
 45
0.0
1001
ACAD
1000
AcDbSavedByObjectVersion
1070
     0
  0
VISUALSTYLE
  5
30
102
{ACAD_REACTORS
330
2A
102
}
102
{ACAD_XDICTIONARY
360
239
102
}
330
2A
100
AcDbVisualStyle
  2
3dWireframe
 70
     5
 71
     0
 72
     2
 73
     0
 90
        0
 40
-0.6
 41
-30.0
 62
     5
 63
     7
 74
     1
 91
        4
 64
     7
 65
   257
 75
     1
175
     1
 42
1.0
 92
        0
 66
   257
 43
1.0
 76
     1
 77
     6
 78
     2
 67
     7
 79
     5
170
     0
171
     0
290
     0
174
     0
 93
        1
 44
0.0
173
     0
291
     0
 45
0.0
1001
ACAD
1000
AcDbSavedByObjectVersion
1070
     0
  0
VISUALSTYLE
  5
32
102
{ACAD_REACTORS
330
2A
102
}
102
{ACAD_XDICTIONARY
360
23D
102
}
330
2A
100
AcDbVisualStyle
  2
Basic
 70
     7
 71
     1
 72
     0
 73
     1
 90
        0
 40
-0.6
 41
-30.0
 62
     5
 63
     7
 74
     0
 91
        4
 64
     7
 65
   257
 75
     1
175
     1
 42
1.0
 92
        8
 66
     7
 43
1.0
 76
     1
 77
     6
 78
     2
 67
     7
 79
     5
170
     0
171
     0
290
     0
174
     0
 93
        1
 44
0.0
173
     0
291
     1
 45
0.0
1001
ACAD
1000
AcDbSavedByObjectVersion
1070
     0
  0
VISUALSTYLE
  5
36
102
{ACAD_REACTORS
330
2A
102
}
102
{ACAD_XDICTIONARY
360
245
102
}
330
2A
100
AcDbVisualStyle
  2
Brighten
 70
    12
 71
     2
 72
     2
 73
     0
 90
        0
 40
-0.6
 41
-30.0
 62
     5
 63
     7
 74
     1
 91
        4
 64
     7
 65
   257
 75
     1
175
     1
 42
1.0
 92
        8
 66
     7
 43
1.0
 76
     1
 77
     6
 78
     2
 67
     7
 79
     5
170
     0
171
     0
290
     0
174
     0
 93
        1
 44
50.0
173
     0
291
     1
 45
0.0
1001
ACAD
1000
AcDbSavedByObjectVersion
1070
     0
  0
VISUALSTYLE
  5
3A
102
{ACAD_REACTORS
330
2A
102
}
102
{ACAD_XDICTIONARY
360
24D
102
}
330
2A
100
AcDbVisualStyle
  2
ColorChange
 70
    16
 71
     2
 72
     2
 73
     3
 90
        0
 40
-0.6
 41
-30.0
 62
     5
 63
     8
 74
     1
 91
        4
 64
     7
 65
   257
 75
     1
175
     1
 42
1.0
 92
        8
 66
     8
 43
1.0
 76
     1
 77
     6
 78
     2
 67
     7
 79
     5
170
     0
171
     0
290
     0
174
     0
 93
        1
 44
0.0
173
     0
291
     1
 45
0.0
1001
ACAD
1000
AcDbSavedByObjectVersion
1070
     0
  0
VISUALSTYLE
  5
34
102
{ACAD_REACTORS
330
2A
102
}
102
{ACAD_XDICTIONARY
360
241
102
}
330
2A
100
AcDbVisualStyle
  2
Conceptual
 70
     9
 71
     3
 72
     2
 73
     0
 90
        0
 40
-0.6
 41
-30.0
 62
     5
 63
     7
 74
     2
 91
        2
 64
     7
 65
   257
 75
     1
175
     1
 42
40.0
 92
        8
 66
     7
 43
1.0
 76
     1
 77
     6
 78
     2
 67
     7
 79
     3
170
     0
171
     0
290
     0
174
     0
 93
        1
 44
0.0
173
     0
291
     0
 45
0.0
1001
ACAD
1000
AcDbSavedByObjectVersion
1070
     0
  0
VISUALSTYLE
  5
35
102
{ACAD_REACTORS
330
2A
102
}
102
{ACAD_XDICTIONARY
360
243
102
}
330
2A
100
AcDbVisualStyle
  2
Dim
 70
    11
 71
     2
 72
     2
 73
     0
 90
        0
 40
-0.6
 41
-30.0
 62
     5
 63
     7
 74
     1
 91
        4
 64
     7
 65
   257
 75
     1
175
     1
 42
1.0
 92
        8
 66
     7
 43
1.0
 76
     1
 77
     6
 78
     2
 67
     7
 79
     5
170
     0
171
     0
290
     0
174
     0
 93
        1
 44
-50.0
173
     0
291
     1
 45
0.0
1001
ACAD
1000
AcDbSavedByObjectVersion
1070
     0
  0
VISUALSTYLE
  5
39
102
{ACAD_REACTORS
330
2A
102
}
102
{ACAD_XDICTIONARY
360
24B
102
}
330
2A
100
AcDbVisualStyle
  2
Facepattern
 70
    15
 71
     2
 72
     2
 73
     0
 90
        0
 40
-0.6
 41
-30.0
 62
     5
 63
     7
 74
     1
 91
        4
 64
     7
 65
   257
 75
     1
175
     1
 42
1.0
 92
        8
 66
     7
 43
1.0
 76
     1
 77
     6
 78
     2
 67
     7
 79
     5
170
     0
171
     0
290
     0
174
     0
 93
        1
 44
0.0
173
     0
291
     1
 45
0.0
1001
ACAD
1000
AcDbSavedByObjectVersion
1070
     0
  0
VISUALSTYLE
  5
2B
102
{ACAD_REACTORS
330
2A
102
}
102
{ACAD_XDICTIONARY
360
22F
102
}
330
2A
100
AcDbVisualStyle
  2
Flat
 70
     0
 71
     2
 72
     1
 73
     1
 90
        2
 40
-0.6
 41
30.0
 62
     5
 63
     7
 74
     0
 91
        4
 64
     7
 65
   257
 75
     1
175
     1
 42
1.0
 92
        8
 66
     7
 43
1.0
 76
     1
 77
     6
 78
     2
 67
     7
 79
     5
170
     0
171
     0
290
     0
174
     0
 93
       13
 44
0.0
173
     0
291
     1
 45
0.0
1001
ACAD
1000
AcDbSavedByObjectVersion
1070
     0
  0
VISUALSTYLE
  5
2C
102
{ACAD_REACTORS
330
2A
102
}
102
{ACAD_XDICTIONARY
360
231
102
}
330
2A
100
AcDbVisualStyle
  2
FlatWithEdges
 70
     1
 71
     2
 72
     1
 73
     1
 90
        2
 40
-0.6
 41
30.0
 62
     5
 63
     7
 74
     1
 91
        4
 64
     7
 65
   257
 75
     1
175
     1
 42
1.0
 92
        0
 66
   257
 43
1.0
 76
     1
 77
     6
 78
     2
 67
     7
 79
     5
170
     0
171
     0
290
     0
174
     0
 93
       13
 44
0.0
173
     0
291
     1
 45
0.0
1001
ACAD
1000
AcDbSavedByObjectVersion
1070
     0
  0
VISUALSTYLE
  5
2D
102
{ACAD_REACTORS
330
2A
102
}
102
{ACAD_XDICTIONARY
360
233
102
}
330
2A
100
AcDbVisualStyle
  2
Gouraud
 70
     2
 71
     2
 72
     2
 73
     1
 90
        2
 40
-0.6
 41
30.0
 62
     5
 63
     7
 74
     0
 91
        4
 64
     7
 65
   257
 75
     1
175
     1
 42
1.0
 92
        0
 66
     7
 43
1.0
 76
     1
 77
     6
 78
     2
 67
     7
 79
     5
170
     0
171
     0
290
     0
174
     0
 93
       13
 44
0.0
173
     0
291
     1
 45
0.0
1001
ACAD
1000
AcDbSavedByObjectVersion
1070
     0
  0
VISUALSTYLE
  5
2E
102
{ACAD_REACTORS
330
2A
102
}
102
{ACAD_XDICTIONARY
360
235
102
}
330
2A
100
AcDbVisualStyle
  2
GouraudWithEdges
 70
     3
 71
     2
 72
     2
 73
     1
 90
        2
 40
-0.6
 41
30.0
 62
     5
 63
     7
 74
     1
 91
        4
 64
     7
 65
   257
 75
     1
175
     1
 42
1.0
 92
        0
 66
   257
 43
1.0
 76
     1
 77
     6
 78
     2
 67
     7
 79
     5
170
     0
171
     0
290
     0
174
     0
 93
       13
 44
0.0
173
     0
291
     1
 45
0.0
1001
ACAD
1000
AcDbSavedByObjectVersion
1070
     0
  0
VISUALSTYLE
  5
38
102
{ACAD_REACTORS
330
2A
102
}
102
{ACAD_XDICTIONARY
360
249
102
}
330
2A
100
AcDbVisualStyle
  2
Linepattern
 70
    14
 71
     2
 72
     2
 73
     0
 90
        0
 40
-0.6
 41
-30.0
 62
     5
 63
     7
 74
     1
 91
        4
 64
     7
 65
   257
 75
     7
175
     7
 42
1.0
 92
        8
 66
     7
 43
1.0
 76
     1
 77
     6
 78
     2
 67
     7
 79
     5
170
     0
171
     0
290
     0
174
     0
 93
        1
 44
0.0
173
     0
291
     1
 45
0.0
1001
ACAD
1000
AcDbSavedByObjectVersion
1070
     0
  0
VISUALSTYLE
  5
33
102
{ACAD_REACTORS
330
2A
102
}
102
{ACAD_XDICTIONARY
360
23F
102
}
330
2A
100
AcDbVisualStyle
  2
Realistic
 70
     8
 71
     2
 72
     2
 73
     0
 90
        0
 40
-0.6
 41
-30.0
 62
     5
 63
     7
 74
     1
 91
        0
 64
     7
 65
   257
 75
     1
175
     1
 42
1.0
 92
        8
 66
     8
 43
1.0
 76
     1
 77
     6
 78
     2
 67
     7
 79
     5
170
     0
171
     0
290
     0
174
     0
 93
       13
 44
0.0
173
     0
291
     0
 45
0.0
1001
ACAD
1000
AcDbSavedByObjectVersion
1070
     0
  0
VISUALSTYLE
  5
37
102
{ACAD_REACTORS
330
2A
102
}
102
{ACAD_XDICTIONARY
360
247
102
}
330
2A
100
AcDbVisualStyle
  2
Thicken
 70
    13
 71
     2
 72
     2
 73
     0
 90
        0
 40
-0.6
 41
-30.0
 62
     5
 63
     7
 74
     1
 91
        4
 64
     7
 65
   257
 75
     1
175
     1
 42
1.0
 92
       12
 66
     7
 43
1.0
 76
     1
 77
     6
 78
     2
 67
     7
 79
     5
170
     0
171
     0
290
     0
174
     0
 93
        1
 44
0.0
173
     0
291
     1
 45
0.0
1001
ACAD
1000
AcDbSavedByObjectVersion
1070
     0
  0
DICTIONARYVAR
  5
22D
102
{ACAD_REACTORS
330
22A
102
}
330
22A
100
DictionaryVariables
280
     0
  1
2
  0
DICTIONARYVAR
  5
22E
102
{ACAD_REACTORS
330
22A
102
}
330
22A
100
DictionaryVariables
280
     0
  1
1
  0
DICTIONARY
  5
251
330
3D
100
AcDbDictionary
280
     1
281
     1
  3
ACAD_XREC_ROUNDTRIP
360
252
  0
DICTIONARY
  5
24F
330
3C
100
AcDbDictionary
280
     1
281
     1
  3
ACAD_XREC_ROUNDTRIP
360
250
  0
DICTIONARY
  5
253
330
3E
100
AcDbDictionary
280
     1
281
     1
  3
ACAD_XREC_ROUNDTRIP
360
254
  0
DICTIONARY
  5
237
330
2F
100
AcDbDictionary
280
     1
281
     1
  3
ACAD_XREC_ROUNDTRIP
360
238
  0
DICTIONARY
  5
23B
330
31
100
AcDbDictionary
280
     1
281
     1
  3
ACAD_XREC_ROUNDTRIP
360
23C
  0
DICTIONARY
  5
239
330
30
100
AcDbDictionary
280
     1
281
     1
  3
ACAD_XREC_ROUNDTRIP
360
23A
  0
DICTIONARY
  5
23D
330
32
100
AcDbDictionary
280
     1
281
     1
  3
ACAD_XREC_ROUNDTRIP
360
23E
  0
DICTIONARY
  5
245
330
36
100
AcDbDictionary
280
     1
281
     1
  3
ACAD_XREC_ROUNDTRIP
360
246
  0
DICTIONARY
  5
24D
330
3A
100
AcDbDictionary
280
     1
281
     1
  3
ACAD_XREC_ROUNDTRIP
360
24E
  0
DICTIONARY
  5
241
330
34
100
AcDbDictionary
280
     1
281
     1
  3
ACAD_XREC_ROUNDTRIP
360
242
  0
DICTIONARY
  5
243
330
35
100
AcDbDictionary
280
     1
281
     1
  3
ACAD_XREC_ROUNDTRIP
360
244
  0
DICTIONARY
  5
24B
330
39
100
AcDbDictionary
280
     1
281
     1
  3
ACAD_XREC_ROUNDTRIP
360
24C
  0
DICTIONARY
  5
22F
330
2B
100
AcDbDictionary
280
     1
281
     1
  3
ACAD_XREC_ROUNDTRIP
360
230
  0
DICTIONARY
  5
231
330
2C
100
AcDbDictionary
280
     1
281
     1
  3
ACAD_XREC_ROUNDTRIP
360
232
  0
DICTIONARY
  5
233
330
2D
100
AcDbDictionary
280
     1
281
     1
  3
ACAD_XREC_ROUNDTRIP
360
234
  0
DICTIONARY
  5
235
330
2E
100
AcDbDictionary
280
     1
281
     1
  3
ACAD_XREC_ROUNDTRIP
360
236
  0
DICTIONARY
  5
249
330
38
100
AcDbDictionary
280
     1
281
     1
  3
ACAD_XREC_ROUNDTRIP
360
24A
  0
DICTIONARY
  5
23F
330
33
100
AcDbDictionary
280
     1
281
     1
  3
ACAD_XREC_ROUNDTRIP
360
240
  0
DICTIONARY
  5
247
330
37
100
AcDbDictionary
280
     1
281
     1
  3
ACAD_XREC_ROUNDTRIP
360
248
  0
XRECORD
  5
252
102
{ACAD_REACTORS
330
251
102
}
330
251
100
AcDbXrecord
280
     1
102
MATERIAL
148
0.0
149
0.0
149
0.0
 93
        0
 94
      127
282
     0
 72
     1
 77
     1
171
     1
175
     1
179
     1
273
     0
  0
XRECORD
  5
250
102
{ACAD_REACTORS
330
24F
102
}
330
24F
100
AcDbXrecord
280
     1
102
MATERIAL
148
0.0
149
0.0
149
0.0
 93
        0
 94
      127
282
     0
 72
     1
 77
     1
171
     1
175
     1
179
     1
273
     0
  0
XRECORD
  5
254
102
{ACAD_REACTORS
330
253
102
}
330
253
100
AcDbXrecord
280
     1
102
MATERIAL
148
0.0
149
0.0
149
0.0
 93
        0
 94
      127
282
     0
 72
     1
 77
     1
171
     1
175
     1
179
     1
273
     0
  0
XRECORD
  5
238
102
{ACAD_REACTORS
330
237
102
}
330
237
100
AcDbXrecord
280
     1
102
RTVSPropertyOp0
 70
     1
102
RTVSPropertyOp1
 70
     1
102
RTVSPropertyOp2
 70
     1
102
RTVSPropertyOp3
 70
     1
102
RTVSPropertyOp4
 70
     1
102
RTVSPropertyOp5
 70
     1
102
RTVSPropertyOp6
 70
     1
102
RTVSPropertyOp7
 70
     1
102
RTVSPropertyOp8
 70
     1
102
RTVSPropertyOp9
 70
     1
102
RTVSPropertyOp10
 70
     1
102
RTVSPropertyOp11
 70
     1
102
RTVSPropertyOp12
 70
     1
102
RTVSPropertyOp13
 70
     1
102
RTVSPropertyOp14
 70
     1
102
RTVSPropertyOp15
 70
     1
102
RTVSPropertyOp16
 70
     1
102
RTVSPropertyOp17
 70
     1
102
RTVSPropertyOp18
 70
     1
102
RTVSPropertyOp19
 70
     1
102
RTVSPropertyOp20
 70
     1
102
RTVSPropertyOp21
 70
     1
102
RTVSPropertyOp22
 70
     1
102
RTVSPropertyOp23
 70
     1
102
RTVSPropertyOp24
 70
     1
102
RTVSPropertyOp25
 70
     1
102
RTVSPropertyOp26
 70
     1
102
RTVSPropertyOp27
 70
     1
102
RTVSPropertyOp28
 70
     1
102
RTVSPropertyOp29
 70
     1
102
RTVSPropertyOp30
 70
     1
102
RTVSPropertyOp31
 70
     1
102
RTVSPropertyOp32
 70
     1
  0
XRECORD
  5
23C
102
{ACAD_REACTORS
330
23B
102
}
330
23B
100
AcDbXrecord
280
     1
102
RTVSPropertyOp0
 70
     1
102
RTVSPropertyOp1
 70
     1
102
RTVSPropertyOp2
 70
     1
102
RTVSPropertyOp3
 70
     1
102
RTVSPropertyOp4
 70
     1
102
RTVSPropertyOp5
 70
     1
102
RTVSPropertyOp6
 70
     1
102
RTVSPropertyOp7
 70
     1
102
RTVSPropertyOp8
 70
     1
102
RTVSPropertyOp9
 70
     1
102
RTVSPropertyOp10
 70
     1
102
RTVSPropertyOp11
 70
     1
102
RTVSPropertyOp12
 70
     1
102
RTVSPropertyOp13
 70
     1
102
RTVSPropertyOp14
 70
     1
102
RTVSPropertyOp15
 70
     1
102
RTVSPropertyOp16
 70
     1
102
RTVSPropertyOp17
 70
     1
102
RTVSPropertyOp18
 70
     1
102
RTVSPropertyOp19
 70
     1
102
RTVSPropertyOp20
 70
     1
102
RTVSPropertyOp21
 70
     1
102
RTVSPropertyOp22
 70
     1
102
RTVSPropertyOp23
 70
     1
102
RTVSPropertyOp24
 70
     1
102
RTVSPropertyOp25
 70
     1
102
RTVSPropertyOp26
 70
     1
102
RTVSPropertyOp27
 70
     1
102
RTVSPropertyOp28
 70
     1
102
RTVSPropertyOp29
 70
     1
102
RTVSPropertyOp30
 70
     1
102
RTVSPropertyOp31
 70
     1
102
RTVSPropertyOp32
 70
     1
  0
XRECORD
  5
23A
102
{ACAD_REACTORS
330
239
102
}
330
239
100
AcDbXrecord
280
     1
102
RTVSPropertyOp0
 70
     1
102
RTVSPropertyOp1
 70
     1
102
RTVSPropertyOp2
 70
     1
102
RTVSPropertyOp3
 70
     1
102
RTVSPropertyOp4
 70
     1
102
RTVSPropertyOp5
 70
     1
102
RTVSPropertyOp6
 70
     1
102
RTVSPropertyOp7
 70
     1
102
RTVSPropertyOp8
 70
     1
102
RTVSPropertyOp9
 70
     1
102
RTVSPropertyOp10
 70
     1
102
RTVSPropertyOp11
 70
     1
102
RTVSPropertyOp12
 70
     1
102
RTVSPropertyOp13
 70
     1
102
RTVSPropertyOp14
 70
     1
102
RTVSPropertyOp15
 70
     1
102
RTVSPropertyOp16
 70
     1
102
RTVSPropertyOp17
 70
     1
102
RTVSPropertyOp18
 70
     1
102
RTVSPropertyOp19
 70
     1
102
RTVSPropertyOp20
 70
     1
102
RTVSPropertyOp21
 70
     1
102
RTVSPropertyOp22
 70
     1
102
RTVSPropertyOp23
 70
     1
102
RTVSPropertyOp24
 70
     1
102
RTVSPropertyOp25
 70
     1
102
RTVSPropertyOp26
 70
     1
102
RTVSPropertyOp27
 70
     1
102
RTVSPropertyOp28
 70
     1
102
RTVSPropertyOp29
 70
     1
102
RTVSPropertyOp30
 70
     1
102
RTVSPropertyOp31
 70
     1
102
RTVSPropertyOp32
 70
     1
  0
XRECORD
  5
23E
102
{ACAD_REACTORS
330
23D
102
}
330
23D
100
AcDbXrecord
280
     1
102
RTVSPropertyOp0
 70
     1
102
RTVSPropertyOp1
 70
     1
102
RTVSPropertyOp2
 70
     1
102
RTVSPropertyOp3
 70
     1
102
RTVSPropertyOp4
 70
     1
102
RTVSPropertyOp5
 70
     1
102
RTVSPropertyOp6
 70
     1
102
RTVSPropertyOp7
 70
     1
102
RTVSPropertyOp8
 70
     1
102
RTVSPropertyOp9
 70
     1
102
RTVSPropertyOp10
 70
     1
102
RTVSPropertyOp11
 70
     1
102
RTVSPropertyOp12
 70
     1
102
RTVSPropertyOp13
 70
     1
102
RTVSPropertyOp14
 70
     1
102
RTVSPropertyOp15
 70
     1
102
RTVSPropertyOp16
 70
     1
102
RTVSPropertyOp17
 70
     1
102
RTVSPropertyOp18
 70
     1
102
RTVSPropertyOp19
 70
     1
102
RTVSPropertyOp20
 70
     1
102
RTVSPropertyOp21
 70
     1
102
RTVSPropertyOp22
 70
     1
102
RTVSPropertyOp23
 70
     1
102
RTVSPropertyOp24
 70
     1
102
RTVSPropertyOp25
 70
     1
102
RTVSPropertyOp26
 70
     1
102
RTVSPropertyOp27
 70
     1
102
RTVSPropertyOp28
 70
     1
102
RTVSPropertyOp29
 70
     1
102
RTVSPropertyOp30
 70
     1
102
RTVSPropertyOp31
 70
     1
102
RTVSPropertyOp32
 70
     1
  0
XRECORD
  5
246
102
{ACAD_REACTORS
330
245
102
}
330
245
100
AcDbXrecord
280
     1
102
RTVSPropertyOp0
 70
     1
102
RTVSPropertyOp1
 70
     1
102
RTVSPropertyOp2
 70
     1
102
RTVSPropertyOp3
 70
     1
102
RTVSPropertyOp4
 70
     1
102
RTVSPropertyOp5
 70
     1
102
RTVSPropertyOp6
 70
     1
102
RTVSPropertyOp7
 70
     1
102
RTVSPropertyOp8
 70
     1
102
RTVSPropertyOp9
 70
     1
102
RTVSPropertyOp10
 70
     1
102
RTVSPropertyOp11
 70
     1
102
RTVSPropertyOp12
 70
     1
102
RTVSPropertyOp13
 70
     1
102
RTVSPropertyOp14
 70
     1
102
RTVSPropertyOp15
 70
     1
102
RTVSPropertyOp16
 70
     1
102
RTVSPropertyOp17
 70
     1
102
RTVSPropertyOp18
 70
     1
102
RTVSPropertyOp19
 70
     1
102
RTVSPropertyOp20
 70
     1
102
RTVSPropertyOp21
 70
     1
102
RTVSPropertyOp22
 70
     1
102
RTVSPropertyOp23
 70
     1
102
RTVSPropertyOp24
 70
     1
102
RTVSPropertyOp25
 70
     1
102
RTVSPropertyOp26
 70
     1
102
RTVSPropertyOp27
 70
     1
102
RTVSPropertyOp28
 70
     1
102
RTVSPropertyOp29
 70
     1
102
RTVSPropertyOp30
 70
     1
102
RTVSPropertyOp31
 70
     1
102
RTVSPropertyOp32
 70
     1
  0
XRECORD
  5
24E
102
{ACAD_REACTORS
330
24D
102
}
330
24D
100
AcDbXrecord
280
     1
102
RTVSPropertyOp0
 70
     1
102
RTVSPropertyOp1
 70
     1
102
RTVSPropertyOp2
 70
     1
102
RTVSPropertyOp3
 70
     1
102
RTVSPropertyOp4
 70
     1
102
RTVSPropertyOp5
 70
     1
102
RTVSPropertyOp6
 70
     1
102
RTVSPropertyOp7
 70
     1
102
RTVSPropertyOp8
 70
     1
102
RTVSPropertyOp9
 70
     1
102
RTVSPropertyOp10
 70
     1
102
RTVSPropertyOp11
 70
     1
102
RTVSPropertyOp12
 70
     1
102
RTVSPropertyOp13
 70
     1
102
RTVSPropertyOp14
 70
     1
102
RTVSPropertyOp15
 70
     1
102
RTVSPropertyOp16
 70
     1
102
RTVSPropertyOp17
 70
     1
102
RTVSPropertyOp18
 70
     1
102
RTVSPropertyOp19
 70
     1
102
RTVSPropertyOp20
 70
     1
102
RTVSPropertyOp21
 70
     1
102
RTVSPropertyOp22
 70
     1
102
RTVSPropertyOp23
 70
     1
102
RTVSPropertyOp24
 70
     1
102
RTVSPropertyOp25
 70
     1
102
RTVSPropertyOp26
 70
     1
102
RTVSPropertyOp27
 70
     1
102
RTVSPropertyOp28
 70
     1
102
RTVSPropertyOp29
 70
     1
102
RTVSPropertyOp30
 70
     1
102
RTVSPropertyOp31
 70
     1
102
RTVSPropertyOp32
 70
     1
  0
XRECORD
  5
242
102
{ACAD_REACTORS
330
241
102
}
330
241
100
AcDbXrecord
280
     1
102
RTVSPropertyOp0
 70
     1
102
RTVSPropertyOp1
 70
     1
102
RTVSPropertyOp2
 70
     1
102
RTVSPropertyOp3
 70
     1
102
RTVSPropertyOp4
 70
     1
102
RTVSPropertyOp5
 70
     1
102
RTVSPropertyOp6
 70
     1
102
RTVSPropertyOp7
 70
     1
102
RTVSPropertyOp8
 70
     1
102
RTVSPropertyOp9
 70
     1
102
RTVSPropertyOp10
 70
     1
102
RTVSPropertyOp11
 70
     1
102
RTVSPropertyOp12
 70
     1
102
RTVSPropertyOp13
 70
     1
102
RTVSPropertyOp14
 70
     1
102
RTVSPropertyOp15
 70
     1
102
RTVSPropertyOp16
 70
     1
102
RTVSPropertyOp17
 70
     1
102
RTVSPropertyOp18
 70
     1
102
RTVSPropertyOp19
 70
     1
102
RTVSPropertyOp20
 70
     1
102
RTVSPropertyOp21
 70
     1
102
RTVSPropertyOp22
 70
     1
102
RTVSPropertyOp23
 70
     1
102
RTVSPropertyOp24
 70
     1
102
RTVSPropertyOp25
 70
     1
102
RTVSPropertyOp26
 70
     1
102
RTVSPropertyOp27
 70
     1
102
RTVSPropertyOp28
 70
     1
102
RTVSPropertyOp29
 70
     1
102
RTVSPropertyOp30
 70
     1
102
RTVSPropertyOp31
 70
     1
102
RTVSPropertyOp32
 70
     1
  0
XRECORD
  5
244
102
{ACAD_REACTORS
330
243
102
}
330
243
100
AcDbXrecord
280
     1
102
RTVSPropertyOp0
 70
     1
102
RTVSPropertyOp1
 70
     1
102
RTVSPropertyOp2
 70
     1
102
RTVSPropertyOp3
 70
     1
102
RTVSPropertyOp4
 70
     1
102
RTVSPropertyOp5
 70
     1
102
RTVSPropertyOp6
 70
     1
102
RTVSPropertyOp7
 70
     1
102
RTVSPropertyOp8
 70
     1
102
RTVSPropertyOp9
 70
     1
102
RTVSPropertyOp10
 70
     1
102
RTVSPropertyOp11
 70
     1
102
RTVSPropertyOp12
 70
     1
102
RTVSPropertyOp13
 70
     1
102
RTVSPropertyOp14
 70
     1
102
RTVSPropertyOp15
 70
     1
102
RTVSPropertyOp16
 70
     1
102
RTVSPropertyOp17
 70
     1
102
RTVSPropertyOp18
 70
     1
102
RTVSPropertyOp19
 70
     1
102
RTVSPropertyOp20
 70
     1
102
RTVSPropertyOp21
 70
     1
102
RTVSPropertyOp22
 70
     1
102
RTVSPropertyOp23
 70
     1
102
RTVSPropertyOp24
 70
     1
102
RTVSPropertyOp25
 70
     1
102
RTVSPropertyOp26
 70
     1
102
RTVSPropertyOp27
 70
     1
102
RTVSPropertyOp28
 70
     1
102
RTVSPropertyOp29
 70
     1
102
RTVSPropertyOp30
 70
     1
102
RTVSPropertyOp31
 70
     1
102
RTVSPropertyOp32
 70
     1
  0
XRECORD
  5
24C
102
{ACAD_REACTORS
330
24B
102
}
330
24B
100
AcDbXrecord
280
     1
102
RTVSPropertyOp0
 70
     1
102
RTVSPropertyOp1
 70
     1
102
RTVSPropertyOp2
 70
     1
102
RTVSPropertyOp3
 70
     1
102
RTVSPropertyOp4
 70
     1
102
RTVSPropertyOp5
 70
     1
102
RTVSPropertyOp6
 70
     1
102
RTVSPropertyOp7
 70
     1
102
RTVSPropertyOp8
 70
     1
102
RTVSPropertyOp9
 70
     1
102
RTVSPropertyOp10
 70
     1
102
RTVSPropertyOp11
 70
     1
102
RTVSPropertyOp12
 70
     1
102
RTVSPropertyOp13
 70
     1
102
RTVSPropertyOp14
 70
     1
102
RTVSPropertyOp15
 70
     1
102
RTVSPropertyOp16
 70
     1
102
RTVSPropertyOp17
 70
     1
102
RTVSPropertyOp18
 70
     1
102
RTVSPropertyOp19
 70
     1
102
RTVSPropertyOp20
 70
     1
102
RTVSPropertyOp21
 70
     1
102
RTVSPropertyOp22
 70
     1
102
RTVSPropertyOp23
 70
     1
102
RTVSPropertyOp24
 70
     1
102
RTVSPropertyOp25
 70
     1
102
RTVSPropertyOp26
 70
     1
102
RTVSPropertyOp27
 70
     1
102
RTVSPropertyOp28
 70
     1
102
RTVSPropertyOp29
 70
     1
102
RTVSPropertyOp30
 70
     1
102
RTVSPropertyOp31
 70
     1
102
RTVSPropertyOp32
 70
     1
  0
XRECORD
  5
230
102
{ACAD_REACTORS
330
22F
102
}
330
22F
100
AcDbXrecord
280
     1
102
RTVSPropertyOp0
 70
     1
102
RTVSPropertyOp1
 70
     1
102
RTVSPropertyOp2
 70
     1
102
RTVSPropertyOp3
 70
     1
102
RTVSPropertyOp4
 70
     1
102
RTVSPropertyOp5
 70
     1
102
RTVSPropertyOp6
 70
     1
102
RTVSPropertyOp7
 70
     1
102
RTVSPropertyOp8
 70
     1
102
RTVSPropertyOp9
 70
     1
102
RTVSPropertyOp10
 70
     1
102
RTVSPropertyOp11
 70
     1
102
RTVSPropertyOp12
 70
     1
102
RTVSPropertyOp13
 70
     1
102
RTVSPropertyOp14
 70
     1
102
RTVSPropertyOp15
 70
     1
102
RTVSPropertyOp16
 70
     1
102
RTVSPropertyOp17
 70
     1
102
RTVSPropertyOp18
 70
     1
102
RTVSPropertyOp19
 70
     1
102
RTVSPropertyOp20
 70
     1
102
RTVSPropertyOp21
 70
     1
102
RTVSPropertyOp22
 70
     1
102
RTVSPropertyOp23
 70
     1
102
RTVSPropertyOp24
 70
     1
102
RTVSPropertyOp25
 70
     1
102
RTVSPropertyOp26
 70
     1
102
RTVSPropertyOp27
 70
     1
102
RTVSPropertyOp28
 70
     1
102
RTVSPropertyOp29
 70
     1
102
RTVSPropertyOp30
 70
     1
102
RTVSPropertyOp31
 70
     1
102
RTVSPropertyOp32
 70
     1
  0
XRECORD
  5
232
102
{ACAD_REACTORS
330
231
102
}
330
231
100
AcDbXrecord
280
     1
102
RTVSPropertyOp0
 70
     1
102
RTVSPropertyOp1
 70
     1
102
RTVSPropertyOp2
 70
     1
102
RTVSPropertyOp3
 70
     1
102
RTVSPropertyOp4
 70
     1
102
RTVSPropertyOp5
 70
     1
102
RTVSPropertyOp6
 70
     1
102
RTVSPropertyOp7
 70
     1
102
RTVSPropertyOp8
 70
     1
102
RTVSPropertyOp9
 70
     1
102
RTVSPropertyOp10
 70
     1
102
RTVSPropertyOp11
 70
     1
102
RTVSPropertyOp12
 70
     1
102
RTVSPropertyOp13
 70
     1
102
RTVSPropertyOp14
 70
     1
102
RTVSPropertyOp15
 70
     1
102
RTVSPropertyOp16
 70
     1
102
RTVSPropertyOp17
 70
     1
102
RTVSPropertyOp18
 70
     1
102
RTVSPropertyOp19
 70
     1
102
RTVSPropertyOp20
 70
     1
102
RTVSPropertyOp21
 70
     1
102
RTVSPropertyOp22
 70
     1
102
RTVSPropertyOp23
 70
     1
102
RTVSPropertyOp24
 70
     1
102
RTVSPropertyOp25
 70
     1
102
RTVSPropertyOp26
 70
     1
102
RTVSPropertyOp27
 70
     1
102
RTVSPropertyOp28
 70
     1
102
RTVSPropertyOp29
 70
     1
102
RTVSPropertyOp30
 70
     1
102
RTVSPropertyOp31
 70
     1
102
RTVSPropertyOp32
 70
     1
  0
XRECORD
  5
234
102
{ACAD_REACTORS
330
233
102
}
330
233
100
AcDbXrecord
280
     1
102
RTVSPropertyOp0
 70
     1
102
RTVSPropertyOp1
 70
     1
102
RTVSPropertyOp2
 70
     1
102
RTVSPropertyOp3
 70
     1
102
RTVSPropertyOp4
 70
     1
102
RTVSPropertyOp5
 70
     1
102
RTVSPropertyOp6
 70
     1
102
RTVSPropertyOp7
 70
     1
102
RTVSPropertyOp8
 70
     1
102
RTVSPropertyOp9
 70
     1
102
RTVSPropertyOp10
 70
     1
102
RTVSPropertyOp11
 70
     1
102
RTVSPropertyOp12
 70
     1
102
RTVSPropertyOp13
 70
     1
102
RTVSPropertyOp14
 70
     1
102
RTVSPropertyOp15
 70
     1
102
RTVSPropertyOp16
 70
     1
102
RTVSPropertyOp17
 70
     1
102
RTVSPropertyOp18
 70
     1
102
RTVSPropertyOp19
 70
     1
102
RTVSPropertyOp20
 70
     1
102
RTVSPropertyOp21
 70
     1
102
RTVSPropertyOp22
 70
     1
102
RTVSPropertyOp23
 70
     1
102
RTVSPropertyOp24
 70
     1
102
RTVSPropertyOp25
 70
     1
102
RTVSPropertyOp26
 70
     1
102
RTVSPropertyOp27
 70
     1
102
RTVSPropertyOp28
 70
     1
102
RTVSPropertyOp29
 70
     1
102
RTVSPropertyOp30
 70
     1
102
RTVSPropertyOp31
 70
     1
102
RTVSPropertyOp32
 70
     1
  0
XRECORD
  5
236
102
{ACAD_REACTORS
330
235
102
}
330
235
100
AcDbXrecord
280
     1
102
RTVSPropertyOp0
 70
     1
102
RTVSPropertyOp1
 70
     1
102
RTVSPropertyOp2
 70
     1
102
RTVSPropertyOp3
 70
     1
102
RTVSPropertyOp4
 70
     1
102
RTVSPropertyOp5
 70
     1
102
RTVSPropertyOp6
 70
     1
102
RTVSPropertyOp7
 70
     1
102
RTVSPropertyOp8
 70
     1
102
RTVSPropertyOp9
 70
     1
102
RTVSPropertyOp10
 70
     1
102
RTVSPropertyOp11
 70
     1
102
RTVSPropertyOp12
 70
     1
102
RTVSPropertyOp13
 70
     1
102
RTVSPropertyOp14
 70
     1
102
RTVSPropertyOp15
 70
     1
102
RTVSPropertyOp16
 70
     1
102
RTVSPropertyOp17
 70
     1
102
RTVSPropertyOp18
 70
     1
102
RTVSPropertyOp19
 70
     1
102
RTVSPropertyOp20
 70
     1
102
RTVSPropertyOp21
 70
     1
102
RTVSPropertyOp22
 70
     1
102
RTVSPropertyOp23
 70
     1
102
RTVSPropertyOp24
 70
     1
102
RTVSPropertyOp25
 70
     1
102
RTVSPropertyOp26
 70
     1
102
RTVSPropertyOp27
 70
     1
102
RTVSPropertyOp28
 70
     1
102
RTVSPropertyOp29
 70
     1
102
RTVSPropertyOp30
 70
     1
102
RTVSPropertyOp31
 70
     1
102
RTVSPropertyOp32
 70
     1
  0
XRECORD
  5
24A
102
{ACAD_REACTORS
330
249
102
}
330
249
100
AcDbXrecord
280
     1
102
RTVSPropertyOp0
 70
     1
102
RTVSPropertyOp1
 70
     1
102
RTVSPropertyOp2
 70
     1
102
RTVSPropertyOp3
 70
     1
102
RTVSPropertyOp4
 70
     1
102
RTVSPropertyOp5
 70
     1
102
RTVSPropertyOp6
 70
     1
102
RTVSPropertyOp7
 70
     1
102
RTVSPropertyOp8
 70
     1
102
RTVSPropertyOp9
 70
     1
102
RTVSPropertyOp10
 70
     1
102
RTVSPropertyOp11
 70
     1
102
RTVSPropertyOp12
 70
     1
102
RTVSPropertyOp13
 70
     1
102
RTVSPropertyOp14
 70
     1
102
RTVSPropertyOp15
 70
     1
102
RTVSPropertyOp16
 70
     1
102
RTVSPropertyOp17
 70
     1
102
RTVSPropertyOp18
 70
     1
102
RTVSPropertyOp19
 70
     1
102
RTVSPropertyOp20
 70
     1
102
RTVSPropertyOp21
 70
     1
102
RTVSPropertyOp22
 70
     1
102
RTVSPropertyOp23
 70
     1
102
RTVSPropertyOp24
 70
     1
102
RTVSPropertyOp25
 70
     1
102
RTVSPropertyOp26
 70
     1
102
RTVSPropertyOp27
 70
     1
102
RTVSPropertyOp28
 70
     1
102
RTVSPropertyOp29
 70
     1
102
RTVSPropertyOp30
 70
     1
102
RTVSPropertyOp31
 70
     1
102
RTVSPropertyOp32
 70
     1
  0
XRECORD
  5
240
102
{ACAD_REACTORS
330
23F
102
}
330
23F
100
AcDbXrecord
280
     1
102
RTVSPropertyOp0
 70
     1
102
RTVSPropertyOp1
 70
     1
102
RTVSPropertyOp2
 70
     1
102
RTVSPropertyOp3
 70
     1
102
RTVSPropertyOp4
 70
     1
102
RTVSPropertyOp5
 70
     1
102
RTVSPropertyOp6
 70
     1
102
RTVSPropertyOp7
 70
     1
102
RTVSPropertyOp8
 70
     1
102
RTVSPropertyOp9
 70
     1
102
RTVSPropertyOp10
 70
     1
102
RTVSPropertyOp11
 70
     1
102
RTVSPropertyOp12
 70
     1
102
RTVSPropertyOp13
 70
     1
102
RTVSPropertyOp14
 70
     1
102
RTVSPropertyOp15
 70
     1
102
RTVSPropertyOp16
 70
     1
102
RTVSPropertyOp17
 70
     1
102
RTVSPropertyOp18
 70
     1
102
RTVSPropertyOp19
 70
     1
102
RTVSPropertyOp20
 70
     1
102
RTVSPropertyOp21
 70
     1
102
RTVSPropertyOp22
 70
     1
102
RTVSPropertyOp23
 70
     1
102
RTVSPropertyOp24
 70
     1
102
RTVSPropertyOp25
 70
     1
102
RTVSPropertyOp26
 70
     1
102
RTVSPropertyOp27
 70
     1
102
RTVSPropertyOp28
 70
     1
102
RTVSPropertyOp29
 70
     1
102
RTVSPropertyOp30
 70
     1
102
RTVSPropertyOp31
 70
     1
102
RTVSPropertyOp32
 70
     1
  0
XRECORD
  5
248
102
{ACAD_REACTORS
330
247
102
}
330
247
100
AcDbXrecord
280
     1
102
RTVSPropertyOp0
 70
     1
102
RTVSPropertyOp1
 70
     1
102
RTVSPropertyOp2
 70
     1
102
RTVSPropertyOp3
 70
     1
102
RTVSPropertyOp4
 70
     1
102
RTVSPropertyOp5
 70
     1
102
RTVSPropertyOp6
 70
     1
102
RTVSPropertyOp7
 70
     1
102
RTVSPropertyOp8
 70
     1
102
RTVSPropertyOp9
 70
     1
102
RTVSPropertyOp10
 70
     1
102
RTVSPropertyOp11
 70
     1
102
RTVSPropertyOp12
 70
     1
102
RTVSPropertyOp13
 70
     1
102
RTVSPropertyOp14
 70
     1
102
RTVSPropertyOp15
 70
     1
102
RTVSPropertyOp16
 70
     1
102
RTVSPropertyOp17
 70
     1
102
RTVSPropertyOp18
 70
     1
102
RTVSPropertyOp19
 70
     1
102
RTVSPropertyOp20
 70
     1
102
RTVSPropertyOp21
 70
     1
102
RTVSPropertyOp22
 70
     1
102
RTVSPropertyOp23
 70
     1
102
RTVSPropertyOp24
 70
     1
102
RTVSPropertyOp25
 70
     1
102
RTVSPropertyOp26
 70
     1
102
RTVSPropertyOp27
 70
     1
102
RTVSPropertyOp28
 70
     1
102
RTVSPropertyOp29
 70
     1
102
RTVSPropertyOp30
 70
     1
102
RTVSPropertyOp31
 70
     1
102
RTVSPropertyOp32
 70
     1
  0
ENDSEC
  0
EOF
