  0
SECTION
  2
HEADER
  9
$ACADVER
  1
AC1014
  9
$ACADMAINTVER
 70
             0
  9
$DWGCODEPAGE
  3
ANSI_1252
  9
$INSBASE
 10
0.0
 20
0.0
 30
0.0
  9
$EXTMIN
 10
-37.77804569140005
 20
-199.20809112676099
 30
0.0
  9
$EXTMAX
 10
270.28481700000032
 20
71.62620643770725
 30
0.0
  9
$LIMMIN
 10
0.0
 20
0.0
  9
$LIMMAX
 10
0.0
 20
0.0
  9
$ORTHOMODE
 70
             0
  9
$REGENMODE
 70
             1
  9
$FILLMODE
 70
             1
  9
$QTEXTMODE
 70
             0
  9
$MIRRTEXT
 70
             1
  9
$DRAGMODE
 70
             2
  9
$LTSCALE
 40
1.0
  9
$OSMODE
 70
             0
  9
$ATTMODE
 70
             1
  9
$TEXTSIZE
 40
0.2
  9
$TRACEWID
 40
0.05
  9
$TEXTSTYLE
  7
STANDARD
  9
$CLAYER
  8
0
  9
$CELTYPE
  6
CONTINUOUS
  9
$CECOLOR
 62
           256
  9
$CELTSCALE
 40
1.0
  9
$DELOBJ
 70
             1
  9
$DISPSILH
 70
             0
  9
$DIMSCALE
 40
1.0
  9
$DIMASZ
 40
0.18
  9
$DIMEXO
 40
0.0625
  9
$DIMDLI
 40
0.38
  9
$DIMRND
 40
0.0
  9
$DIMDLE
 40
0.0
  9
$DIMEXE
 40
0.18
  9
$DIMTP
 40
0.0
  9
$DIMTM
 40
0.0
  9
$DIMTXT
 40
0.18
  9
$DIMCEN
 40
0.09
  9
$DIMTSZ
 40
0.0
  9
$DIMTOL
 70
             0
  9
$DIMLIM
 70
             0
  9
$DIMTIH
 70
             1
  9
$DIMTOH
 70
             1
  9
$DIMSE1
 70
             0
  9
$DIMSE2
 70
             0
  9
$DIMTAD
 70
             0
  9
$DIMZIN
 70
             0
  9
$DIMBLK
  1

  9
$DIMASO
 70
             1
  9
$DIMSHO
 70
             1
  9
$DIMPOST
  1

  9
$DIMAPOST
  1

  9
$DIMALT
 70
             0
  9
$DIMALTD
 70
             2
  9
$DIMALTF
 40
25.4
  9
$DIMLFAC
 40
1.0
  9
$DIMTOFL
 70
             0
  9
$DIMTVP
 40
0.0
  9
$DIMTIX
 70
             0
  9
$DIMSOXD
 70
             0
  9
$DIMSAH
 70
             0
  9
$DIMBLK1
  1

  9
$DIMBLK2
  1

  9
$DIMSTYLE
  2
STANDARD
  9
$DIMCLRD
 70
             0
  9
$DIMCLRE
 70
             0
  9
$DIMCLRT
 70
             0
  9
$DIMTFAC
 40
1.0
  9
$DIMGAP
 40
0.09
  9
$DIMJUST
 70
             0
  9
$DIMSD1
 70
             0
  9
$DIMSD2
 70
             0
  9
$DIMTOLJ
 70
             1
  9
$DIMTZIN
 70
             0
  9
$DIMALTZ
 70
             0
  9
$DIMALTTZ
 70
             0
  9
$DIMFIT
 70
             3
  9
$DIMUPT
 70
             0
  9
$DIMUNIT
 70
             2
  9
$DIMDEC
 70
             4
  9
$DIMTDEC
 70
             4
  9
$DIMALTU
 70
             2
  9
$DIMALTTD
 70
             2
  9
$DIMTXSTY
  7
STANDARD
  9
$DIMAUNIT
 70
             0
  9
$LUNITS
 70
             2
  9
$LUPREC
 70
             4
  9
$SKETCHINC
 40
0.1
  9
$FILLETRAD
 40
0.0
  9
$AUNITS
 70
             0
  9
$AUPREC
 70
             0
  9
$MENU
  1
acad
  9
$ELEVATION
 40
0.0
  9
$PELEVATION
 40
0.0
  9
$THICKNESS
 40
0.0
  9
$LIMCHECK
 70
             0
  9
$BLIPMODE
 70
             1
  9
$CHAMFERA
 40
0.0
  9
$CHAMFERB
 40
0.0
  9
$CHAMFERC
 40
0.0
  9
$CHAMFERD
 40
0.0
  9
$SKPOLY
 70
             0
  9
$TDCREATE
 40
0.000000000
  9
$TDUPDATE
 40
0.000000000
  9
$TDINDWG
 40
0.0000000000
  9
$TDUSRTIMER
 40
0.0000000000
  9
$USRTIMER
 70
             1
  9
$ANGBASE
 50
0.0
  9
$ANGDIR
 70
             0
  9
$PDMODE
 70
             0
  9
$PDSIZE
 40
0.0
  9
$PLINEWID
 40
0.0
  9
$COORDS
 70
             0
  9
$SPLFRAME
 70
             0
  9
$SPLINETYPE
 70
             6
  9
$SPLINESEGS
 70
             8
  9
$ATTDIA
 70
             0
  9
$ATTREQ
 70
             1
  9
$HANDLING
 70
             1
  9
$HANDSEED
  5
12E
  9
$SURFTAB1
 70
             6
  9
$SURFTAB2
 70
             6
  9
$SURFTYPE
 70
             6
  9
$SURFU
 70
             6
  9
$SURFV
 70
             6
  9
$UCSNAME
  2

  9
$UCSORG
 10
0.0
 20
0.0
 30
0.0
  9
$UCSXDIR
 10
1.0
 20
0.0
 30
0.0
  9
$UCSYDIR
 10
0.0
 20
1.0
 30
0.0
  9
$PUCSNAME
  2

  9
$PUCSORG
 10
0.0
 20
0.0
 30
0.0
  9
$PUCSXDIR
 10
1.0
 20
0.0
 30
0.0
  9
$PUCSYDIR
 10
0.0
 20
1.0
 30
0.0
  9
$USERI1
 70
             0
  9
$USERI2
 70
             0
  9
$USERI3
 70
             0
  9
$USERI4
 70
             0
  9
$USERI5
 70
             0
  9
$USERR1
 40
12.01
  9
$USERR2
 40
0.0
  9
$USERR3
 40
0.0
  9
$USERR4
 40
0.0
  9
$USERR5
 40
0.0
  9
$WORLDVIEW
 70
             1
  9
$SHADEDGE
 70
             3
  9
$SHADEDIF
 70
            70
  9
$TILEMODE
 70
             1
  9
$MAXACTVP
 70
            16
  9
$PINSBASE
 10
0.0
 20
0.0
 30
0.0
  9
$PLIMCHECK
 70
             0
  9
$PEXTMIN
 10
1.00000000000000E+20
 20
1.00000000000000E+20
 30
1.00000000000000E+20
  9
$PEXTMAX
 10
-1.00000000000000E+20
 20
-1.00000000000000E+20
 30
-1.00000000000000E+20
  9
$PLIMMIN
 10
0.0
 20
0.0
  9
$PLIMMAX
 10
12.0
 20
9.0
  9
$UNITMODE
 70
             0
  9
$VISRETAIN
 70
             0
  9
$PLINEGEN
 70
             1
  9
$PSLTSCALE
 70
             0
  9
$TREEDEPTH
 70
          3020
  9
$PICKSTYLE
 70
             1
  9
$CMLSTYLE
  2
STANDARD
  9
$CMLJUST
 70
             0
  9
$CMLSCALE
 40
1.0
  9
$PROXYGRAPHICS
 70
             0
  9
$MEASUREMENT
 70
             1
  0
ENDSEC
  0
SECTION
  2
CLASSES
  0
CLASS
  1
LWPOLYLINE
  2
AcDbPolyline
  3
"AutoCAD"
 90
        0
280
             0
281
             1
  0
CLASS
  1
IMAGE
  2
AcDbRasterImage
  3
ISM
 90
      127
280
             0
281
             1
  0
CLASS
  1
OLE2FRAME
  2
AcDbOle2Frame
  3
""
 90
        0
280
             0
281
             1
  0
CLASS
  1
HATCH
  2
AcDbHatch
  3
"ACAD_SEDONA"
 90
        0
280
             0
281
             1
  0
CLASS
  1
DICTIONARYVAR
  2
AcDbDictionaryVar
  3
"AutoCAD"
 90
        0
280
             0
281
             0
  0
CLASS
  1
RASTERVARIABLES
  2
AcDbRasterVariables
  3
ISM
 90
        0
280
             0
281
             0
  0
CLASS
  1
IMAGEDEF
  2
AcDbRasterImageDef
  3
ISM
 90
        0
280
             0
281
             0
  0
CLASS
  1
IMAGEDEF_REACTOR
  2
AcDbRasterImageDefReactor
  3
ISM
 90
        1
280
             0
281
             0
  0
CLASS
  1
IDBUFFER
  2
AcDbIdBuffer
  3
"Acad"
 90
        0
280
             0
281
             0
  0
CLASS
  1
SPATIAL_FILTER
  2
AcDbSpatialFilter
  3
"Acad"
 90
        0
280
             0
281
             0
  0
CLASS
  1
XRECORD
  2
AcDbXrecord
  3
"<Built In>"
 90
        0
280
             0
281
             0
  0
CLASS
  1
SORTENTSTABLE
  2
AcDbSortentsTable
  3
"AutoCAD"
 90
        0
280
             0
281
             0
  0
CLASS
  1
LAYER_INDEX
  2
AcDbLayerIndex
  3
"Acad"
 90
        0
280
             0
281
             0
  0
CLASS
  1
SPATIAL_INDEX
  2
AcDbSpatialIndex
  3
"Acad"
 90
        0
280
             0
281
             0
  0
CLASS
  1
OBJECT_PTR
  2
CAseDLPNTableRecord
  3
"ASE-LPNTableRecord"
 90
        1
280
             0
281
             0
  0
CLASS
  1
LAYOUT
  2
AcDbLayout
  3
"AutoCAD 2000"
 90
        0
280
             0
281
             0
  0
CLASS
  1
PLOTSETTINGS
  2
AcDbPlotSettings
  3
"AutoCAD 2000"
 90
        0
280
             0
281
             0
  0
CLASS
  1
ACDBDICTIONARYWDFLT
  2
AcDbDictionaryWithDefault
  3
"AutoCAD 2000"
 90
        0
280
             0
281
             0
  0
CLASS
  1
ACDBPLACEHOLDER
  2
AcDbPlaceHolder
  3
"AutoCAD 2000"
 90
        0
280
             0
281
             0
  0
ENDSEC
  0
SECTION
  2
TABLES
  0
TABLE
  2
VPORT
  5
7
100
AcDbSymbolTable
 70
             1
  0
VPORT
  5
15
100
AcDbSymbolTableRecord
100
AcDbViewportTableRecord
  2
*ACTIVE
 70
             0
 10
0.0
 20
0.0
 11
1.0
 21
1.0
 12
116.25338565430013
 22
-63.79094234452687
 13
0.0
 23
0.0
 14
1.0
 24
1.0
 15
0.0
 25
0.0
 16
0.0
 26
0.0
 36
1.0
 17
0.0
 27
0.0
 37
0.0
 40
297.91772732091505
 41
1.60267857142857
 42
50.0
 43
0.0
 44
0.0
 50
0.0
 51
0.0
 71
             0
 72
           100
 73
             1
 74
             1
 75
             0
 76
             0
 77
             0
 78
             0
  0
ENDTAB
  0
TABLE
  2
LTYPE
  5
4
100
AcDbSymbolTable
 70
            11
  0
LTYPE
  5
11
100
AcDbSymbolTableRecord
100
AcDbLinetypeTableRecord
  2
BYBLOCK
 70
            64
  3

 72
            65
 73
             0
 40
0.0
  0
LTYPE
  5
12
100
AcDbSymbolTableRecord
100
AcDbLinetypeTableRecord
  2
BYLAYER
 70
            64
  3

 72
            65
 73
             0
 40
0.0
  0
LTYPE
  5
13
100
AcDbSymbolTableRecord
100
AcDbLinetypeTableRecord
  2
CONTINUOUS
 70
            64
  3
Solid line
 72
            65
 73
             0
 40
0.0
  0
LTYPE
  5
1D
100
AcDbSymbolTableRecord
100
AcDbLinetypeTableRecord
  2
DASHED
 70
            64
  3
Dashed
 72
            65
 73
             2
 40
15.0
 49
7.0
 74
             0
 49
-8.0
 74
             0
  0
LTYPE
  5
1E
100
AcDbSymbolTableRecord
100
AcDbLinetypeTableRecord
  2
DOTTED
 70
            64
  3
Dotted
 72
            65
 73
             2
 40
1.0
 49
0.0
 74
             0
 49
-1.0
 74
             0
  0
LTYPE
  5
1F
100
AcDbSymbolTableRecord
100
AcDbLinetypeTableRecord
  2
DOT_CENTER
 70
            64
  3
Dot_Center
 72
            65
 73
             4
 40
14.0
 49
12.0
 74
             0
 49
-1.0
 74
             0
 49
0.0
 74
             0
 49
-1.0
 74
             0
  0
LTYPE
  5
20
100
AcDbSymbolTableRecord
100
AcDbLinetypeTableRecord
  2
LONG_DASHED
 70
            64
  3
Long_Dashed
 72
            65
 73
             2
 40
15.0
 49
10.0
 74
             0
 49
-5.0
 74
             0
  0
LTYPE
  5
21
100
AcDbSymbolTableRecord
100
AcDbLinetypeTableRecord
  2
DASH_CENTER
 70
            64
  3
Dash_Center
 72
            65
 73
             4
 40
14.0
 49
11.0
 74
             0
 49
-1.0
 74
             0
 49
1.0
 74
             0
 49
-1.0
 74
             0
  0
LTYPE
  5
22
100
AcDbSymbolTableRecord
100
AcDbLinetypeTableRecord
  2
PHANTOM
 70
            64
  3
Phantom
 72
            65
 73
             6
 40
13.0
 49
10.0
 74
             0
 49
-1.0
 74
             0
 49
0.0
 74
             0
 49
-1.0
 74
             0
 49
0.0
 74
             0
 49
-1.0
 74
             0
  0
LTYPE
  5
23
100
AcDbSymbolTableRecord
100
AcDbLinetypeTableRecord
  2
CENTER_DASH_DASH
 70
            64
  3
Center_Dash_Dash
 72
            65
 73
             6
 40
14.0
 49
9.0
 74
             0
 49
-1.0
 74
             0
 49
1.0
 74
             0
 49
-1.0
 74
             0
 49
1.0
 74
             0
 49
-1.0
 74
             0
  0
LTYPE
  5
24
100
AcDbSymbolTableRecord
100
AcDbLinetypeTableRecord
  2
DASHDOT
 70
            64
  3
DASHDOT
 72
            65
 73
             4
 40
16.0
 49
10.0
 74
             0
 49
-3.0
 74
             0
 49
0.0
 74
             0
 49
-3.0
 74
             0
  0
ENDTAB
  0
TABLE
  2
LAYER
  5
2
100
AcDbSymbolTable
 70
             5
  0
LAYER
  5
14
100
AcDbSymbolTableRecord
100
AcDbLayerTableRecord
  2
0
 70
             0
 62
             7
  6
CONTINUOUS
  0
LAYER
  5
25
100
AcDbSymbolTableRecord
100
AcDbLayerTableRecord
  2
1
 70
             0
 62
             7
  6
CONTINUOUS
  0
LAYER
  5
26
100
AcDbSymbolTableRecord
100
AcDbLayerTableRecord
  2
LC-001-002-----0
 70
             0
 62
             7
  6
CONTINUOUS
  0
LAYER
  5
27
100
AcDbSymbolTableRecord
100
AcDbLayerTableRecord
  2
LC-006-002-RND-0
 70
             0
 62
             7
  6
CONTINUOUS
  0
LAYER
  5
28
100
AcDbSymbolTableRecord
100
AcDbLayerTableRecord
  2
LC-008-006-MLN-0
 70
             0
 62
             7
  6
CONTINUOUS
  0
ENDTAB
  0
TABLE
  2
STYLE
  5
3
100
AcDbSymbolTable
 70
             2
  0
STYLE
  5
17
100
AcDbSymbolTableRecord
100
AcDbTextStyleTableRecord
  2
STANDARD
 70
             0
 40
0.0
 41
1.0
 50
0.0
 71
             0
 42
0.0
  3
txt
  4

  0
STYLE
  5
C4
100
AcDbSymbolTableRecord
100
AcDbTextStyleTableRecord
  2
CONVERTER_1
 70
             0
 40
0.0
 41
0.9
 50
0.0
 71
             0
 42
0.0
  3
txt.shx
  4

  0
ENDTAB
  0
TABLE
  2
VIEW
  5
5
100
AcDbSymbolTable
 70
             0
  0
ENDTAB
  0
TABLE
  2
UCS
  5
6
100
AcDbSymbolTable
 70
             0
  0
ENDTAB
  0
TABLE
  2
APPID
  5
8
100
AcDbSymbolTable
 70
             1
  0
APPID
  5
16
100
AcDbSymbolTableRecord
100
AcDbRegAppTableRecord
  2
ACAD
 70
             0
  0
ENDTAB
  0
TABLE
  2
DIMSTYLE
  5
9
100
AcDbSymbolTable
 70
            11
  0
DIMSTYLE
105
18
100
AcDbSymbolTableRecord
100
AcDbDimStyleTableRecord
  2
STANDARD
 70
             0
  3

  4

  5

  6

  7

 40
1.0
 41
0.18
 42
0.0625
 43
0.38
 44
0.18
 45
0.0
 46
0.0
 47
0.0
 48
0.0
 71
             0
 72
             0
 73
             1
 74
             1
 75
             0
 76
             0
 77
             0
 78
             0
140
0.18
141
0.09
142
0.0
143
25.4
144
1.0
145
0.0
146
1.0
147
0.09
170
             0
171
             2
172
             0
173
             0
174
             0
175
             0
176
             0
177
             0
178
             0
270
             2
271
             4
272
             4
273
             2
274
             2
275
             0
280
             0
281
             0
282
             0
283
             1
284
             0
285
             0
286
             0
287
             3
288
             0
340
17
  0
DIMSTYLE
105
C7
100
AcDbSymbolTableRecord
100
AcDbDimStyleTableRecord
  2
ME10_DIM_0
 70
             0
  3
DN<>
  4

  5

  6

  7

 40
1.0
 41
7.0
 42
0.0
 43
0.38
 44
2.0
 45
0.0
 46
0.0
 47
0.0
 48
0.0
 71
             0
 72
             0
 73
             0
 74
             0
 75
             0
 76
             0
 77
             1
 78
             8
140
7.0
141
0.09
142
0.0
143
25.4
144
1.0
145
0.0
146
1.0
147
0.625
170
             0
171
             2
172
             1
173
             1
174
             0
175
             0
176
             4
177
             4
178
             1
270
             2
271
             0
272
             4
273
             2
274
             2
275
             0
280
             0
281
             0
282
             0
283
             1
284
             0
285
             0
286
             0
287
             3
288
             0
340
C4
  0
DIMSTYLE
105
D2
100
AcDbSymbolTableRecord
100
AcDbDimStyleTableRecord
  2
ME10_DIM_1
 70
             0
  3

  4

  5

  6

  7

 40
1.0
 41
7.0
 42
0.0
 43
0.38
 44
2.0
 45
0.0
 46
0.0
 47
0.0
 48
0.0
 71
             0
 72
             0
 73
             0
 74
             0
 75
             0
 76
             0
 77
             1
 78
             8
140
7.0
141
0.09
142
0.0
143
25.4
144
1.0
145
0.0
146
1.0
147
0.625
170
             0
171
             2
172
             1
173
             1
174
             0
175
             0
176
             4
177
             4
178
             1
270
             2
271
             0
272
             4
273
             2
274
             2
275
             0
280
             0
281
             0
282
             0
283
             1
284
             0
285
             0
286
             0
287
             3
288
             0
340
C4
  0
DIMSTYLE
105
DE
100
AcDbSymbolTableRecord
100
AcDbDimStyleTableRecord
  2
ME10_DIM_2
 70
             0
  3
DN<>
  4

  5

  6

  7

 40
1.0
 41
7.0
 42
0.0
 43
0.38
 44
2.0
 45
0.0
 46
0.0
 47
0.0
 48
0.0
 71
             0
 72
             0
 73
             0
 74
             0
 75
             0
 76
             0
 77
             1
 78
             8
140
7.0
141
0.09
142
0.0
143
25.4
144
1.0
145
0.0
146
1.0
147
0.625
170
             0
171
             2
172
             1
173
             1
174
             0
175
             0
176
             4
177
             4
178
             1
270
             2
271
             2
272
             4
273
             2
274
             2
275
             0
280
             0
281
             0
282
             0
283
             1
284
             0
285
             0
286
             0
287
             3
288
             0
340
C4
  0
DIMSTYLE
105
E9
100
AcDbSymbolTableRecord
100
AcDbDimStyleTableRecord
  2
ME10_DIM_3
 70
             0
  3

  4

  5

  6

  7

 40
1.0
 41
7.0
 42
0.0
 43
0.38
 44
2.0
 45
0.0
 46
0.0
 47
0.0
 48
0.0
 71
             0
 72
             0
 73
             0
 74
             0
 75
             0
 76
             0
 77
             1
 78
             8
140
7.0
141
0.09
142
0.0
143
25.4
144
1.0
145
0.0
146
1.0
147
0.625
170
             0
171
             2
172
             1
173
             1
174
             0
175
             0
176
             4
177
             4
178
             1
270
             2
271
             2
272
             4
273
             2
274
             2
275
             0
280
             0
281
             0
282
             0
283
             1
284
             0
285
             0
286
             0
287
             3
288
             0
340
C4
  0
DIMSTYLE
105
F4
100
AcDbSymbolTableRecord
100
AcDbDimStyleTableRecord
  2
ME10_DIM_4
 70
             0
  3

  4

  5

  6

  7

 40
1.0
 41
7.0
 42
0.0
 43
0.38
 44
2.0
 45
0.0
 46
0.0
 47
0.0
 48
0.0
 71
             0
 72
             0
 73
             0
 74
             0
 75
             0
 76
             0
 77
             1
 78
             8
140
7.0
141
0.09
142
0.0
143
25.4
144
1.0
145
0.0
146
1.0
147
0.625
170
             0
171
             2
172
             1
173
             1
174
             0
175
             0
176
             4
177
             4
178
             1
270
             2
271
             2
272
             4
273
             2
274
             2
275
             0
280
             0
281
             0
282
             0
283
             1
284
             0
285
             0
286
             0
287
             3
288
             0
340
C4
  0
DIMSTYLE
105
FF
100
AcDbSymbolTableRecord
100
AcDbDimStyleTableRecord
  2
ME10_DIM_5
 70
             0
  3

  4

  5

  6

  7

 40
1.0
 41
7.0
 42
0.0
 43
0.38
 44
2.0
 45
0.0
 46
0.0
 47
0.0
 48
0.0
 71
             0
 72
             0
 73
             0
 74
             0
 75
             0
 76
             0
 77
             1
 78
             8
140
7.0
141
0.09
142
0.0
143
25.4
144
1.0
145
0.0
146
1.0
147
0.625
170
             0
171
             2
172
             1
173
             1
174
             0
175
             0
176
             4
177
             4
178
             1
270
             2
271
             0
272
             4
273
             2
274
             2
275
             0
280
             0
281
             0
282
             0
283
             1
284
             0
285
             0
286
             0
287
             3
288
             0
340
C4
  0
DIMSTYLE
105
10A
100
AcDbSymbolTableRecord
100
AcDbDimStyleTableRecord
  2
ME10_DIM_6
 70
             0
  3

  4

  5

  6

  7

 40
1.0
 41
7.0
 42
0.0
 43
0.38
 44
2.0
 45
0.0
 46
0.0
 47
0.0
 48
0.0
 71
             0
 72
             0
 73
             0
 74
             0
 75
             0
 76
             0
 77
             1
 78
             8
140
7.0
141
0.09
142
0.0
143
25.4
144
1.0
145
0.0
146
1.0
147
0.625
170
             0
171
             2
172
             1
173
             1
174
             0
175
             0
176
             4
177
             4
178
             1
270
             2
271
             0
272
             4
273
             2
274
             2
275
             0
280
             0
281
             0
282
             0
283
             1
284
             0
285
             0
286
             0
287
             3
288
             0
340
C4
  0
DIMSTYLE
105
115
100
AcDbSymbolTableRecord
100
AcDbDimStyleTableRecord
  2
ME10_DIM_7
 70
             0
  3

  4

  5

  6

  7

 40
1.0
 41
7.0
 42
0.0
 43
0.38
 44
2.0
 45
0.0
 46
0.0
 47
0.0
 48
0.0
 71
             0
 72
             0
 73
             0
 74
             0
 75
             0
 76
             0
 77
             1
 78
             8
140
7.0
141
0.09
142
0.0
143
25.4
144
1.0
145
0.0
146
1.0
147
0.625
170
             0
171
             2
172
             1
173
             1
174
             0
175
             0
176
             4
177
             4
178
             1
270
             2
271
             1
272
             4
273
             2
274
             2
275
             0
280
             0
281
             0
282
             0
283
             1
284
             0
285
             0
286
             0
287
             3
288
             0
340
C4
  0
DIMSTYLE
105
120
100
AcDbSymbolTableRecord
100
AcDbDimStyleTableRecord
  2
ME10_DIM_8
 70
             0
  3

  4

  5

  6

  7

 40
1.0
 41
7.0
 42
0.0
 43
0.38
 44
2.0
 45
0.0
 46
0.0
 47
0.0
 48
0.0
 71
             0
 72
             0
 73
             0
 74
             0
 75
             0
 76
             0
 77
             1
 78
             8
140
7.0
141
0.09
142
0.0
143
25.4
144
1.0
145
0.0
146
1.0
147
0.625
170
             0
171
             2
172
             1
173
             1
174
             0
175
             0
176
             4
177
             4
178
             1
270
             2
271
             2
272
             4
273
             2
274
             2
275
             0
280
             0
281
             0
282
             0
283
             1
284
             0
285
             0
286
             0
287
             3
288
             0
340
C4
  0
DIMSTYLE
105
12B
100
AcDbSymbolTableRecord
100
AcDbDimStyleTableRecord
  2
ME10_DIM_9
 70
             0
  3

  4

  5

  6

  7

 40
1.0
 41
7.0
 42
0.0
 43
0.38
 44
2.0
 45
0.0
 46
0.0
 47
0.0
 48
0.0
 71
             0
 72
             0
 73
             0
 74
             0
 75
             0
 76
             0
 77
             1
 78
             8
140
7.0
141
0.09
142
0.0
143
25.4
144
1.0
145
0.0
146
1.0
147
0.625
170
             0
171
             2
172
             1
173
             1
174
             0
175
             0
176
             4
177
             4
178
             1
270
             2
271
             0
272
             4
273
             2
274
             2
275
             0
280
             0
281
             0
282
             0
283
             1
284
             0
285
             0
286
             0
287
             3
288
             0
340
C4
  0
ENDTAB
  0
TABLE
  2
BLOCK_RECORD
  5
1
100
AcDbSymbolTable
 70
            14
  0
BLOCK_RECORD
  5
A
100
AcDbSymbolTableRecord
100
AcDbBlockTableRecord
  2
*MODEL_SPACE
  0
BLOCK_RECORD
  5
B
100
AcDbSymbolTableRecord
100
AcDbBlockTableRecord
  2
*PAPER_SPACE
  0
BLOCK_RECORD
  5
29
100
AcDbSymbolTableRecord
100
AcDbBlockTableRecord
  2
EINBAUSIFON__1
  0
BLOCK_RECORD
  5
2B
100
AcDbSymbolTableRecord
100
AcDbBlockTableRecord
  2
EINBAUSIFON__2
  0
BLOCK_RECORD
  5
2D
100
AcDbSymbolTableRecord
100
AcDbBlockTableRecord
  2
SIFONEINSATZ
  0
BLOCK_RECORD
  5
2F
100
AcDbSymbolTableRecord
100
AcDbBlockTableRecord
  2
HL_134_0_40_WE_SIFON
  0
BLOCK_RECORD
  5
BD
100
AcDbSymbolTableRecord
100
AcDbBlockTableRecord
  2
*D4
  0
BLOCK_RECORD
  5
C9
100
AcDbSymbolTableRecord
100
AcDbBlockTableRecord
  2
*D5
  0
BLOCK_RECORD
  5
D4
100
AcDbSymbolTableRecord
100
AcDbBlockTableRecord
  2
*D6
  0
BLOCK_RECORD
  5
E0
100
AcDbSymbolTableRecord
100
AcDbBlockTableRecord
  2
*D7
  0
BLOCK_RECORD
  5
EB
100
AcDbSymbolTableRecord
100
AcDbBlockTableRecord
  2
*D8
  0
BLOCK_RECORD
  5
F6
100
AcDbSymbolTableRecord
100
AcDbBlockTableRecord
  2
*D9
  0
BLOCK_RECORD
  5
101
100
AcDbSymbolTableRecord
100
AcDbBlockTableRecord
  2
*D10
  0
BLOCK_RECORD
  5
10C
100
AcDbSymbolTableRecord
100
AcDbBlockTableRecord
  2
*D11
  0
BLOCK_RECORD
  5
117
100
AcDbSymbolTableRecord
100
AcDbBlockTableRecord
  2
*D12
  0
BLOCK_RECORD
  5
122
100
AcDbSymbolTableRecord
100
AcDbBlockTableRecord
  2
*D13
  0
ENDTAB
  0
ENDSEC
  0
SECTION
  2
BLOCKS
  0
BLOCK
  5
D
100
AcDbEntity
  8
0
100
AcDbBlockBegin
  2
*MODEL_SPACE
 70
             0
 10
0.0
 20
0.0
 30
0.0
  3
*MODEL_SPACE
  1

  0
ENDBLK
  5
E
100
AcDbEntity
  8
0
100
AcDbBlockEnd
  0
BLOCK
  5
F
100
AcDbEntity
 67
             1
  8
0
100
AcDbBlockBegin
  2
*PAPER_SPACE
 70
             0
 10
0.0
 20
0.0
 30
0.0
  3
*PAPER_SPACE
  1

  0
ENDBLK
  5
10
100
AcDbEntity
 67
             1
  8
0
100
AcDbBlockEnd
  0
BLOCK
  5
2A
100
AcDbEntity
  8
0
100
AcDbBlockBegin
  2
EINBAUSIFON__1
 70
             0
 10
-295.26777079006399
 20
-186.04372993843589
 30
0.0
  3
EINBAUSIFON__1
  1

  0
ARC
  5
7A
100
AcDbEntity
  8
LC-006-002-RND-0
  6
CONTINUOUS
 62
             7
100
AcDbCircle
 10
59.42971899999986
 20
26.55189900000005
 40
3.50000000000028
100
AcDbArc
 50
81.78678929826249
 51
168.49857618644418
  0
ARC
  5
79
100
AcDbEntity
  8
LC-006-002-RND-0
  6
CONTINUOUS
 62
             7
100
AcDbCircle
 10
59.42971899999986
 20
-112.442919
 40
3.5
100
AcDbArc
 50
180.0
 51
-90.0
  0
LINE
  5
78
100
AcDbEntity
  8
LC-001-002-----0
  6
DASHDOT
 62
             2
100
AcDbLine
 10
78.99999999999994
 20
8.63687018153041
 11
78.99999999999994
 21
-110.18000000000001
  0
LINE
  5
77
100
AcDbEntity
  8
LC-001-002-----0
  6
CONTINUOUS
 62
             7
100
AcDbLine
 10
40.0
 20
37.5
 11
40.0
 21
27.24980300000004
  0
LINE
  5
76
100
AcDbEntity
  8
LC-001-002-----0
  6
CONTINUOUS
 62
             7
100
AcDbLine
 10
0.0
 20
37.5
 11
40.0
 21
37.5
  0
LINE
  5
75
100
AcDbEntity
  8
LC-001-002-----0
  6
CONTINUOUS
 62
             7
100
AcDbLine
 10
0.0
 20
37.5
 11
0.0
 21
36.5
  0
LINE
  5
74
100
AcDbEntity
  8
LC-001-002-----0
  6
DASHDOT
 62
             2
100
AcDbLine
 10
0.0
 20
0.0
 11
34.0
 21
0.0
  0
LINE
  5
73
100
AcDbEntity
  8
LC-001-002-----0
  6
CONTINUOUS
 62
             7
100
AcDbLine
 10
0.0
 20
-37.5
 11
40.0
 21
-37.5
  0
LINE
  5
72
100
AcDbEntity
  8
LC-001-002-----0
  6
CONTINUOUS
 62
             7
100
AcDbLine
 10
40.0
 20
-37.5
 11
40.0
 21
-26.74981300020227
  0
LINE
  5
71
100
AcDbEntity
  8
LC-001-002-----0
  6
DASHDOT
 62
             2
100
AcDbLine
 10
82.88273699999985
 20
-112.942919
 11
82.88273699999985
 21
-170.94291899999999
  0
LINE
  5
70
100
AcDbEntity
  8
LC-001-002-----0
  6
CONTINUOUS
 62
             7
100
AcDbLine
 10
62.83273699999995
 20
-115.942919
 11
62.83273700000001
 21
-120.700836
  0
LINE
  5
6F
100
AcDbEntity
  8
LC-001-002-----0
  6
CONTINUOUS
 62
             7
100
AcDbLine
 10
59.42971899999986
 20
-115.942919
 11
59.92971899999986
 21
-115.942919
  0
LINE
  5
6E
100
AcDbEntity
  8
LC-001-002-----0
  6
CONTINUOUS
 62
             7
100
AcDbLine
 10
40.0
 20
27.24980300000004
 11
55.99999987507539
 21
27.24977200000023
  0
LINE
  5
6D
100
AcDbEntity
  8
LC-001-002-----0
  6
CONTINUOUS
 62
             7
100
AcDbLine
 10
40.0
 20
-26.74981300020227
 11
55.92971899999986
 21
-26.74984398934134
  0
LINE
  5
6C
100
AcDbEntity
  8
LC-001-002-----0
  6
CONTINUOUS
 62
             7
100
AcDbLine
 10
81.93273699999986
 20
31.75000600000004
 11
103.9327369999999
 21
31.75000600000004
  0
LINE
  5
6B
100
AcDbEntity
  8
LC-001-002-----0
  6
DASHDOT
 62
             2
100
AcDbLine
 10
34.0
 20
0.0
 11
107.9999999999999
 21
0.0
  0
LINE
  5
6A
100
AcDbEntity
  8
LC-001-002-----0
  6
CONTINUOUS
 62
             7
100
AcDbLine
 10
103.9327369999999
 20
-115.942919
 11
102.9327369999999
 21
-115.942919
  0
LINE
  5
69
100
AcDbEntity
  8
LC-001-002-----0
  6
CONTINUOUS
 62
             7
100
AcDbLine
 10
81.93273699999986
 20
30.04949000000005
 11
81.93273699999986
 21
31.75000600000004
  0
LINE
  5
68
100
AcDbEntity
  8
1
  6
DOT_CENTER
 62
             2
100
AcDbLine
 10
-2.0
 20
16.0
 11
4.0
 21
16.0
  0
LINE
  5
67
100
AcDbEntity
  8
1
  6
DOT_CENTER
 62
             2
100
AcDbLine
 10
-2.0
 20
-16.0
 11
4.0
 21
-16.0
  0
LINE
  5
66
100
AcDbEntity
  8
LC-001-002-----0
  6
CONTINUOUS
 62
             7
100
AcDbLine
 10
0.0
 20
36.5
 11
0.0
 21
0.0
  0
LINE
  5
65
100
AcDbEntity
  8
LC-001-002-----0
  6
CONTINUOUS
 62
             7
100
AcDbLine
 10
0.0
 20
0.0
 11
0.0
 21
-37.5
  0
LINE
  5
64
100
AcDbEntity
  8
LC-001-002-----0
  6
CONTINUOUS
 62
             7
100
AcDbLine
 10
102.9327369999999
 20
-115.942919
 11
102.9327369999998
 21
-120.700836
  0
LINE
  5
63
100
AcDbEntity
  8
LC-001-002-----0
  6
CONTINUOUS
 62
             7
100
AcDbLine
 10
103.9327369999999
 20
-115.942919
 11
103.9327369999999
 21
-95.73661499999997
  0
LINE
  5
62
100
AcDbEntity
  8
LC-001-002-----0
  6
CONTINUOUS
 62
             7
100
AcDbLine
 10
59.92971899999986
 20
30.04949000000005
 11
103.9327369999999
 21
30.04949000000005
  0
LINE
  5
61
100
AcDbEntity
  8
LC-001-002-----0
  6
CONTINUOUS
 62
             7
100
AcDbLine
 10
103.9327369999999
 20
30.04949000000005
 11
103.9327369999999
 21
31.75000600000004
  0
LINE
  5
60
100
AcDbEntity
  8
LC-001-002-----0
  6
CONTINUOUS
 62
             7
100
AcDbLine
 10
55.92971899999986
 20
-26.74984398934134
 11
55.92971899999986
 21
-95.73661499999997
  0
LINE
  5
5F
100
AcDbEntity
  8
LC-001-002-----0
  6
CONTINUOUS
 62
             7
100
AcDbLine
 10
102.9327369999998
 20
-120.700836
 11
107.982737
 21
-125.75083600000001
  0
LINE
  5
5E
100
AcDbEntity
  8
LC-001-002-----0
  6
CONTINUOUS
 62
             7
100
AcDbLine
 10
62.83273700000001
 20
-120.700836
 11
57.78273699999994
 21
-125.75083600000001
  0
LINE
  5
5D
100
AcDbEntity
  8
LC-001-002-----0
  6
CONTINUOUS
 62
             7
100
AcDbLine
 10
107.982737
 20
-177.443288
 11
107.044915
 21
-180.943288
  0
LINE
  5
5C
100
AcDbEntity
  8
LC-001-002-----0
  6
CONTINUOUS
 62
             7
100
AcDbLine
 10
57.78273699999994
 20
-177.443288
 11
58.72055999999992
 21
-180.943288
  0
LINE
  5
5B
100
AcDbEntity
  8
LC-001-002-----0
  6
CONTINUOUS
 62
             7
100
AcDbLine
 10
107.982737
 20
-125.75083600000001
 11
107.982737
 21
-177.443288
  0
LINE
  5
5A
100
AcDbEntity
  8
LC-001-002-----0
  6
CONTINUOUS
 62
             7
100
AcDbLine
 10
57.78273699999994
 20
-125.75083600000001
 11
57.78273699999994
 21
-177.443288
  0
LINE
  5
59
100
AcDbEntity
  8
LC-001-002-----0
  6
DASHDOT
 62
             2
100
AcDbLine
 10
82.88273699999985
 20
-112.942919
 11
82.88273699999985
 21
-180.943288
  0
LINE
  5
58
100
AcDbEntity
  8
LC-001-002-----0
  6
CONTINUOUS
 62
             7
100
AcDbLine
 10
107.044915
 20
-180.943288
 11
59.78273699999994
 21
-180.943288
  0
LINE
  5
57
100
AcDbEntity
  8
LC-001-002-----0
  6
CONTINUOUS
 62
             7
100
AcDbLine
 10
59.78273699999994
 20
-180.943288
 11
58.72055999999992
 21
-180.943288
  0
LINE
  5
56
100
AcDbEntity
  8
1
  6
CONTINUOUS
 62
             7
100
AcDbLine
 10
40.0
 20
27.24980300000004
 11
40.0
 21
-26.74981300020227
  0
LINE
  5
55
100
AcDbEntity
  8
1
  6
CONTINUOUS
 62
             7
100
AcDbLine
 10
62.83273700000001
 20
-120.700836
 11
102.9327369999998
 21
-120.700836
  0
LINE
  5
54
100
AcDbEntity
  8
1
  6
CONTINUOUS
 62
             7
100
AcDbLine
 10
107.982737
 20
-125.75083600000001
 11
57.78273699999994
 21
-125.75083600000001
  0
LINE
  5
53
100
AcDbEntity
  8
1
  6
CONTINUOUS
 62
             7
100
AcDbLine
 10
62.83273699999995
 20
-115.942919
 11
102.9327369999999
 21
-115.942919
  0
LINE
  5
52
100
AcDbEntity
  8
1
  6
CONTINUOUS
 62
             7
100
AcDbLine
 10
55.99999987507539
 20
27.24977200000023
 11
55.99999987507539
 21
-26.74984412606339
  0
LINE
  5
51
100
AcDbEntity
  8
1
  6
CONTINUOUS
 62
             7
100
AcDbLine
 10
59.92971899999986
 20
30.01600061513809
 11
59.92971899999986
 21
-115.942919
  0
LINE
  5
50
100
AcDbEntity
  8
1
  6
CONTINUOUS
 62
             7
100
AcDbLine
 10
103.9327369999999
 20
-95.73661499999997
 11
55.92971899999986
 21
-95.73661499999997
  0
LINE
  5
4F
100
AcDbEntity
  8
LC-001-002-----0
  6
CONTINUOUS
 62
             7
100
AcDbLine
 10
103.9327369999999
 20
-95.73661499999997
 11
103.9327369999999
 21
-5.49999999999994
  0
LINE
  5
4E
100
AcDbEntity
  8
LC-001-002-----0
  6
CONTINUOUS
 62
             7
100
AcDbLine
 10
55.92971899999986
 20
-95.73661499999997
 11
55.92971899999986
 21
-112.442919
  0
LINE
  5
4D
100
AcDbEntity
  8
LC-001-002-----0
  6
CONTINUOUS
 62
             7
100
AcDbLine
 10
59.92971899999986
 20
-115.942919
 11
62.83273699999995
 21
-115.942919
  0
LINE
  5
4C
100
AcDbEntity
  8
1
  6
CONTINUOUS
 62
             7
100
AcDbLine
 10
82.93273699999986
 20
-5.00000000000022
 11
83.43273699999986
 21
-5.00000000000022
  0
LINE
  5
4B
100
AcDbEntity
  8
1
  6
CONTINUOUS
 62
             7
100
AcDbLine
 10
83.43273699999986
 20
-5.00000000000022
 11
83.43273699999986
 21
-5.49999999999994
  0
LINE
  5
4A
100
AcDbEntity
  8
1
  6
CONTINUOUS
 62
             7
100
AcDbLine
 10
83.43273699999986
 20
-5.49999999999994
 11
103.9327369999999
 21
-5.49999999999994
  0
LINE
  5
49
100
AcDbEntity
  8
LC-001-002-----0
  6
CONTINUOUS
 62
             7
100
AcDbLine
 10
103.9327369999999
 20
-5.49999999999994
 11
103.9327369999999
 21
30.04949000000005
  0
LINE
  5
48
100
AcDbEntity
  8
1
  6
CONTINUOUS
 62
             7
100
AcDbLine
 10
82.93273699999986
 20
-5.00000000000022
 11
82.93273699999986
 21
-9.99999999999994
  0
LINE
  5
47
100
AcDbEntity
  8
1
  6
CONTINUOUS
 62
             7
100
AcDbLine
 10
83.43273699999986
 20
-5.49999999999994
 11
83.43273699999986
 21
-9.99999999999994
  0
LINE
  5
46
100
AcDbEntity
  8
1
  6
CONTINUOUS
 62
             7
100
AcDbLine
 10
83.43273699999986
 20
-9.99999999999994
 11
83.43273699999986
 21
-14.49999999999994
  0
LINE
  5
45
100
AcDbEntity
  8
1
  6
CONTINUOUS
 62
             7
100
AcDbLine
 10
82.93273699999986
 20
-9.99999999999994
 11
82.93273699999986
 21
-14.99999999999966
  0
LINE
  5
44
100
AcDbEntity
  8
1
  6
CONTINUOUS
 62
             7
100
AcDbLine
 10
83.43273699999986
 20
-14.49999999999994
 11
83.43273699999986
 21
-14.99999999999966
  0
LINE
  5
43
100
AcDbEntity
  8
1
  6
CONTINUOUS
 62
             7
100
AcDbLine
 10
83.43273699999986
 20
-14.99999999999966
 11
82.93273699999986
 21
-14.99999999999966
  0
LINE
  5
42
100
AcDbEntity
  8
1
  6
CONTINUOUS
 62
             7
100
AcDbLine
 10
103.9327369999999
 20
-14.49999999999994
 11
83.43273699999986
 21
-14.49999999999994
  0
LINE
  5
41
100
AcDbEntity
  8
1
  6
PHANTOM
 62
             2
100
AcDbLine
 10
103.9327369999999
 20
-9.99999999999994
 11
81.4725548459313
 21
-9.99999999999994
  0
POINT
  5
40
100
AcDbEntity
  8
0
 62
             7
100
AcDbPoint
 10
40.0
 20
37.5
  0
POINT
  5
3F
100
AcDbEntity
  8
0
 62
             7
100
AcDbPoint
 10
103.9327369999999
 20
31.75000600000004
  0
POINT
  5
3E
100
AcDbEntity
  8
0
 62
             7
100
AcDbPoint
 10
103.9327369999999
 20
30.04949000000005
  0
POINT
  5
3D
100
AcDbEntity
  8
0
 62
             7
100
AcDbPoint
 10
103.9327369999999
 20
-115.942919
  0
POINT
  5
3C
100
AcDbEntity
  8
0
 62
             7
100
AcDbPoint
 10
0.0
 20
37.5
  0
POINT
  5
3B
100
AcDbEntity
  8
0
 62
             7
100
AcDbPoint
 10
40.0
 20
37.5
  0
POINT
  5
3A
100
AcDbEntity
  8
0
 62
             7
100
AcDbPoint
 10
0.0
 20
37.5
  0
POINT
  5
39
100
AcDbEntity
  8
0
 62
             7
100
AcDbPoint
 10
0.0
 20
-37.5
  0
POINT
  5
38
100
AcDbEntity
  8
0
 62
             7
100
AcDbPoint
 10
107.982737
 20
-177.443288
  0
POINT
  5
37
100
AcDbEntity
  8
0
 62
             7
100
AcDbPoint
 10
57.78273699999994
 20
-177.443288
  0
ENDBLK
  5
7B
100
AcDbEntity
  8
0
100
AcDbBlockEnd
  0
BLOCK
  5
2C
100
AcDbEntity
  8
0
100
AcDbBlockBegin
  2
EINBAUSIFON__2
 70
             0
 10
-117.58947943432609
 20
-170.92853199999999
 30
0.0
  3
EINBAUSIFON__2
  1

  0
CIRCLE
  5
AE
100
AcDbEntity
  8
LC-001-002-----0
  6
CONTINUOUS
 62
             7
100
AcDbCircle
 10
171.60571999999979
 20
-9.99999999999994
 40
3.0
  0
CIRCLE
  5
AD
100
AcDbEntity
  8
LC-001-002-----0
  6
CONTINUOUS
 62
             7
100
AcDbCircle
 10
171.60571999999979
 20
-9.99999999999994
 40
5.0
  0
CIRCLE
  5
AC
100
AcDbEntity
  8
LC-001-002-----0
  6
CONTINUOUS
 62
             7
100
AcDbCircle
 10
226.59572
 20
-0.06387699999999
 40
36.49999999999997
  0
CIRCLE
  5
AB
100
AcDbEntity
  8
LC-001-002-----0
  6
CONTINUOUS
 62
             7
100
AcDbCircle
 10
226.59572
 20
-0.06387699999999
 40
37.49999999999997
  0
ARC
  5
AA
100
AcDbEntity
  8
LC-001-002-----0
  6
CONTINUOUS
 62
             7
100
AcDbCircle
 10
264.60572000000002
 20
-9.99999999999994
 40
3.0000000000004
100
AcDbArc
 50
-142.99320499999695
 51
113.6936820000108
  0
ARC
  5
A9
100
AcDbEntity
  8
LC-001-002-----0
  6
CONTINUOUS
 62
             7
100
AcDbCircle
 10
264.60572000000002
 20
-9.99999999999994
 40
4.99999999999959
100
AcDbArc
 50
-129.04004799999998
 51
99.74052499999806
  0
ARC
  5
A8
100
AcDbEntity
  8
LC-001-002-----0
  6
CONTINUOUS
 62
             7
100
AcDbCircle
 10
199.60571999999979
 20
27.00000000000006
 40
4.99999999999998
100
AcDbArc
 50
32.89169300000405
 51
-123.04830899999835
  0
ARC
  5
A7
100
AcDbEntity
  8
LC-001-002-----0
  6
CONTINUOUS
 62
             7
100
AcDbCircle
 10
199.60571999999979
 20
27.00000000000006
 40
3.00000000000045
100
AcDbArc
 50
28.80437799999265
 51
-118.96099399999598
  0
ARC
  5
A6
100
AcDbEntity
  8
LC-001-002-----0
  6
CONTINUOUS
 62
             7
100
AcDbCircle
 10
235.1959709999999
 20
-29.99571899999995
 40
60.99999999999998
100
AcDbArc
 50
136.20456300000041
 51
-168.40532300000032
  0
ARC
  5
A5
100
AcDbEntity
  8
LC-001-002-----0
  6
CONTINUOUS
 62
             7
100
AcDbCircle
 10
209.049294
 20
-91.64240899999999
 40
24.55000000000037
100
AcDbArc
 50
-170.00000000000063
 51
-90.0
  0
ARC
  5
A4
100
AcDbEntity
  8
LC-006-002-RND-0
  6
CONTINUOUS
 62
             7
100
AcDbCircle
 10
252.28481699999989
 20
-77.73661499999997
 40
18.0
100
AcDbArc
 50
-90.0
 51
10.00000000000051
  0
ARC
  5
A3
100
AcDbEntity
  8
LC-006-002-RND-0
  6
CONTINUOUS
 62
             7
100
AcDbCircle
 10
249.6457199999999
 20
-97.73661499999997
 40
2.0
100
AcDbArc
 50
90.0
 51
180.0
  0
ARC
  5
A2
100
AcDbEntity
  8
LC-001-002-----0
  6
CONTINUOUS
 62
             7
100
AcDbCircle
 10
226.59572
 20
0.00000000000006
 40
30.0000000000003
100
AcDbArc
 50
178.58563500000042
 51
-158.34039299999938
  0
ARC
  5
A1
100
AcDbEntity
  8
LC-001-002-----0
  6
CONTINUOUS
 62
             7
100
AcDbCircle
 10
231.89776699999999
 20
0.93489400000004
 40
30.00000000000006
100
AcDbArc
 50
178.58563609345089
 51
-158.34039238407692
  0
LINE
  5
A0
100
AcDbEntity
  8
1
  6
PHANTOM
 62
             2
100
AcDbLine
 10
264.60572000000002
 20
-4.50000000000028
 11
264.60572000000002
 21
-15.49999999999972
  0
LINE
  5
9F
100
AcDbEntity
  8
1
  6
PHANTOM
 62
             2
100
AcDbLine
 10
270.10571999999968
 20
-9.99999999999994
 11
259.10572000000019
 21
-9.99999999999994
  0
LINE
  5
9E
100
AcDbEntity
  8
LC-001-002-----0
  6
CONTINUOUS
 62
             7
100
AcDbLine
 10
176.45958499999989
 20
-10.99999999999994
 11
177.23906099999991
 21
-10.99999999999994
  0
LINE
  5
9D
100
AcDbEntity
  8
LC-001-002-----0
  6
CONTINUOUS
 62
             7
100
AcDbLine
 10
176.50470000000001
 20
-8.99999999999994
 11
177.93311700000001
 21
-8.99999999999994
  0
LINE
  5
9C
100
AcDbEntity
  8
LC-008-006-MLN-0
  6
DASHDOT
 62
             2
100
AcDbLine
 10
214.20572000000001
 20
27.00000000000006
 11
185.00571999999991
 21
27.00000000000006
  0
LINE
  5
9B
100
AcDbEntity
  8
LC-001-002-----0
  6
CONTINUOUS
 62
             7
100
AcDbLine
 10
175.41311999999991
 20
-42.26000199999993
 11
184.87226399999989
 21
-95.90547199999998
  0
LINE
  5
9A
100
AcDbEntity
  8
LC-001-002-----0
  6
CONTINUOUS
 62
             7
100
AcDbLine
 10
246.6457199999999
 20
-116.192409
 11
246.6457199999999
 21
-120.700836
  0
LINE
  5
99
100
AcDbEntity
  8
LC-001-002-----0
  6
CONTINUOUS
 62
             7
100
AcDbLine
 10
206.54571999999979
 20
-116.192409
 11
206.5457200000001
 21
-120.700836
  0
LINE
  5
98
100
AcDbEntity
  8
LC-001-002-----0
  6
CONTINUOUS
 62
             7
100
AcDbLine
 10
252.28481699999989
 20
-95.73661499999997
 11
249.6457199999999
 21
-95.73661499999997
  0
LINE
  5
97
100
AcDbEntity
  8
LC-001-002-----0
  6
CONTINUOUS
 62
             7
100
AcDbLine
 10
175.41325499999991
 20
-42.26076699999993
 11
184.87226399999989
 21
-95.90547199999998
  0
LINE
  5
96
100
AcDbEntity
  8
LC-001-002-----0
  6
CONTINUOUS
 62
             7
100
AcDbLine
 10
209.049294
 20
-116.192409
 11
247.6457199999999
 21
-116.192409
  0
LINE
  5
95
100
AcDbEntity
  8
LC-001-002-----0
  6
CONTINUOUS
 62
             7
100
AcDbLine
 10
247.6457199999999
 20
-97.73661499999997
 11
247.6457199999999
 21
-116.192409
  0
LINE
  5
94
100
AcDbEntity
  8
LC-001-002-----0
  6
CONTINUOUS
 62
             7
100
AcDbLine
 10
204.01597685814571
 20
-10.13785536434472
 11
198.71392999999989
 21
-11.07274899999999
  0
LINE
  5
93
100
AcDbEntity
  8
LC-001-002-----0
  6
CONTINUOUS
 62
             7
100
AcDbLine
 10
201.90690700157151
 20
1.67537800027702
 11
196.60485999999989
 21
0.74048399999998
  0
LINE
  5
92
100
AcDbEntity
  8
LC-001-002-----0
  6
DASHDOT
 62
             2
100
AcDbLine
 10
194.15959799999999
 20
0.00000000000006
 11
259.03184299999992
 21
0.00000000000006
  0
LINE
  5
91
100
AcDbEntity
  8
LC-001-002-----0
  6
CONTINUOUS
 62
             7
100
AcDbLine
 10
270.01135599999992
 20
-74.61094799999995
 11
259.90435899999989
 21
-17.291315
  0
LINE
  5
90
100
AcDbEntity
  8
LC-001-002-----0
  6
DASHDOT
 62
             2
100
AcDbLine
 10
226.59572
 20
37.43612300000001
 11
226.59572
 21
-180.943288
  0
LINE
  5
8F
100
AcDbEntity
  8
1
  6
PHANTOM
 62
             2
100
AcDbLine
 10
177.10571999999979
 20
-9.99999999999994
 11
166.10571999999979
 21
-9.99999999999994
  0
LINE
  5
8E
100
AcDbEntity
  8
1
  6
PHANTOM
 62
             2
100
AcDbLine
 10
171.60571999999979
 20
-4.49999999999994
 11
171.60571999999979
 21
-15.49999999999994
  0
LINE
  5
8D
100
AcDbEntity
  8
1
  6
PHANTOM
 62
             2
100
AcDbLine
 10
205.10571999999999
 20
27.00000000000006
 11
194.10571999999979
 21
27.00000000000006
  0
LINE
  5
8C
100
AcDbEntity
  8
1
  6
PHANTOM
 62
             2
100
AcDbLine
 10
199.60571999999979
 20
32.50000000000006
 11
199.60571999999979
 21
21.49999999999994
  0
LINE
  5
8B
100
AcDbEntity
  8
1
  6
CONTINUOUS
 62
             7
100
AcDbLine
 10
206.5457200000001
 20
-120.700836
 11
201.49572000000009
 21
-125.75083600000001
  0
LINE
  5
8A
100
AcDbEntity
  8
1
  6
CONTINUOUS
 62
             7
100
AcDbLine
 10
201.49572000000009
 20
-125.75083600000001
 11
201.49572000000009
 21
-177.443288
  0
LINE
  5
89
100
AcDbEntity
  8
1
  6
CONTINUOUS
 62
             7
100
AcDbLine
 10
201.49572000000009
 20
-177.443288
 11
202.43354299999999
 21
-180.943288
  0
LINE
  5
88
100
AcDbEntity
  8
1
  6
CONTINUOUS
 62
             7
100
AcDbLine
 10
202.43354299999999
 20
-180.943288
 11
250.7578980000001
 21
-180.943288
  0
LINE
  5
87
100
AcDbEntity
  8
1
  6
CONTINUOUS
 62
             7
100
AcDbLine
 10
250.7578980000001
 20
-180.943288
 11
251.69572000000011
 21
-177.443288
  0
LINE
  5
86
100
AcDbEntity
  8
1
  6
CONTINUOUS
 62
             7
100
AcDbLine
 10
251.69572000000011
 20
-177.443288
 11
251.69572000000011
 21
-125.75083600000001
  0
LINE
  5
85
100
AcDbEntity
  8
1
  6
CONTINUOUS
 62
             7
100
AcDbLine
 10
251.69572000000011
 20
-125.75083600000001
 11
246.6457199999999
 21
-120.700836
  0
LINE
  5
84
100
AcDbEntity
  8
1
  6
CONTINUOUS
 62
             7
100
AcDbLine
 10
201.49572000000009
 20
-125.75083600000001
 11
251.69572000000011
 21
-125.75083600000001
  0
LINE
  5
83
100
AcDbEntity
  8
1
  6
CONTINUOUS
 62
             7
100
AcDbLine
 10
251.69572000000011
 20
-177.443288
 11
201.49572000000009
 21
-177.443288
  0
LINE
  5
82
100
AcDbEntity
  8
1
  6
CONTINUOUS
 62
             7
100
AcDbLine
 10
206.5457200000001
 20
-120.700836
 11
246.6457199999999
 21
-120.700836
  0
POINT
  5
81
100
AcDbEntity
  8
0
 62
             7
100
AcDbPoint
 10
199.60571999999979
 20
32.00000000000006
  0
POINT
  5
80
100
AcDbEntity
  8
0
 62
             7
100
AcDbPoint
 10
226.60571999999999
 20
29.80000000000001
  0
POINT
  5
7F
100
AcDbEntity
  8
0
 62
             7
100
AcDbPoint
 10
194.60571999999979
 20
27.00000000000006
  0
POINT
  5
7E
100
AcDbEntity
  8
0
 62
             7
100
AcDbPoint
 10
166.60571999999979
 20
-9.99999999999994
  0
POINT
  5
7D
100
AcDbEntity
  8
0
 62
             7
100
AcDbPoint
 10
264.60572000000002
 20
-9.99999999999994
  0
POINT
  5
7C
100
AcDbEntity
  8
0
 62
             7
100
AcDbPoint
 10
171.60571999999979
 20
-9.99999999999994
  0
ENDBLK
  5
AF
100
AcDbEntity
  8
0
100
AcDbBlockEnd
  0
BLOCK
  5
2E
100
AcDbEntity
  8
0
100
AcDbBlockBegin
  2
SIFONEINSATZ
 70
             0
 10
-61.42026470000012
 20
-78.11612299999996
 30
0.0
  3
SIFONEINSATZ
  1

  0
CIRCLE
  5
B9
100
AcDbEntity
  8
LC-001-002-----0
  6
CONTINUOUS
 62
             7
100
AcDbCircle
 10
226.59572
 20
0.00000000000006
 40
24.75
  0
CIRCLE
  5
B8
100
AcDbEntity
  8
LC-001-002-----0
  6
CONTINUOUS
 62
             7
100
AcDbCircle
 10
226.60571999999999
 20
0.06387700000005
 40
16.50000300000002
  0
ARC
  5
B7
100
AcDbEntity
  8
1
  6
CONTINUOUS
 62
             7
100
AcDbCircle
 10
226.59572
 20
0.00000000000006
 40
28.56387699999999
100
AcDbArc
 50
0.0
 51
177.87439593916611
  0
ARC
  5
B6
100
AcDbEntity
  8
1
  6
CONTINUOUS
 62
             7
100
AcDbCircle
 10
226.59572
 20
0.00000000000006
 40
28.56387700000007
100
AcDbArc
 50
-157.87439307428127
 51
0.0
  0
LINE
  5
B5
100
AcDbEntity
  8
LC-001-002-----0
  6
CONTINUOUS
 62
             7
100
AcDbLine
 10
201.90690699999999
 20
1.73925500000007
 11
198.05149726578469
 21
1.05944219787676
  0
LINE
  5
B4
100
AcDbEntity
  8
LC-001-002-----0
  6
CONTINUOUS
 62
             7
100
AcDbLine
 10
203.99068500000001
 20
-10.07843799999995
 11
200.1352756408821
 21
-10.7582504892365
  0
LINE
  5
B3
100
AcDbEntity
  8
LC-001-002-----0
  6
CONTINUOUS
 62
             7
100
AcDbLine
 10
210.43668099999999
 20
-3.22432599999991
 11
214.12908999999999
 21
-21.38096399999995
  0
LINE
  5
B2
100
AcDbEntity
  8
LC-001-002-----0
  6
CONTINUOUS
 62
             7
100
AcDbLine
 10
242.92720999999989
 20
2.48443100000009
 11
245.63999499999991
 21
-15.80753399999992
  0
LINE
  5
B1
100
AcDbEntity
  8
1
  6
PHANTOM
 62
             2
100
AcDbLine
 10
258.01598469999999
 20
0.00000000000006
 11
195.17545529999981
 21
0.00000000000006
  0
LINE
  5
B0
100
AcDbEntity
  8
1
  6
PHANTOM
 62
             2
100
AcDbLine
 10
226.59572
 20
31.42026470000013
 11
226.59572
 21
-31.42026469999999
  0
ENDBLK
  5
BA
100
AcDbEntity
  8
0
100
AcDbBlockEnd
  0
BLOCK
  5
30
100
AcDbEntity
  8
0
100
AcDbBlockBegin
  2
HL_134_0_40_WE_SIFON
 70
             0
 10
-122.4533114999999
 20
-71.65776700000001
 30
0.0
  3
HL_134_0_40_WE_SIFON
  1

  0
INSERT
  5
31
100
AcDbEntity
  8
1
100
AcDbBlockReference
  2
EINBAUSIFON__1
 10
-295.26777079006399
 20
-186.04372993843589
  0
INSERT
  5
32
100
AcDbEntity
  8
1
100
AcDbBlockReference
  2
EINBAUSIFON__2
 10
-117.58947943432609
 20
-170.92853199999999
  0
INSERT
  5
33
100
AcDbEntity
  8
1
100
AcDbBlockReference
  2
SIFONEINSATZ
 10
-61.42026470000012
 20
-78.11612299999996
  0
ENDBLK
  5
BB
100
AcDbEntity
  8
0
100
AcDbBlockEnd
  0
BLOCK
  5
BE
100
AcDbEntity
  8
0
100
AcDbBlockBegin
  2
*D4
 70
             1
 10
0.0
 20
0.0
 30
0.0
  3
*D4
  1

  0
LINE
  5
BF
100
AcDbEntity
  8
0
  6
CONTINUOUS
 62
             4
100
AcDbLine
 10
57.78273699999994
 20
-197.20809112676099
 11
107.98273699999999
 21
-197.20809112676099
  0
LINE
  5
C0
100
AcDbEntity
  8
0
  6
CONTINUOUS
 62
             4
100
AcDbLine
 10
107.98273699999999
 20
-177.443288
 11
107.98273699999999
 21
-199.20809112676099
  0
LINE
  5
C1
100
AcDbEntity
  8
0
  6
CONTINUOUS
 62
             4
100
AcDbLine
 10
57.78273699999994
 20
-177.443288
 11
57.78273699999994
 21
-199.20809112676099
  0
SOLID
  5
C2
100
AcDbEntity
  8
0
 62
             4
100
AcDbTrace
 10
64.78273699999994
 20
-196.28652364364922
 11
64.78273699999994
 21
-198.12965860987276
 12
57.78273699999994
 22
-197.20809112676099
 13
57.78273699999994
 23
-197.20809112676099
  0
SOLID
  5
C3
100
AcDbEntity
  8
0
 62
             4
100
AcDbTrace
 10
100.98273699999999
 20
-198.12965860987276
 11
100.98273699999999
 21
-196.28652364364922
 12
107.98273699999999
 22
-197.20809112676099
 13
107.98273699999999
 23
-197.20809112676099
  0
MTEXT
  5
C5
100
AcDbEntity
  8
0
 62
             1
100
AcDbMText
 10
75.12102895934868
 20
-195.20811895506628
 30
0.0
 40
7.0
 41
0.0
 71
             7
 72
             1
  1
\C1;DN\C1;50
  7
CONVERTER_1
 11
0.99999999999706
 21
0.00000242406841
 31
0.0
  0
ENDBLK
  5
C6
100
AcDbEntity
  8
0
100
AcDbBlockEnd
  0
BLOCK
  5
CA
100
AcDbEntity
  8
0
100
AcDbBlockBegin
  2
*D5
 70
             1
 10
0.0
 20
0.0
 30
0.0
  3
*D5
  1

  0
LINE
  5
CB
100
AcDbEntity
  8
0
  6
CONTINUOUS
 62
             4
100
AcDbLine
 10
-28.77804569140005
 20
-125.75083599999999
 11
-28.77804569140005
 21
0.0
  0
LINE
  5
CC
100
AcDbEntity
  8
0
  6
CONTINUOUS
 62
             4
100
AcDbLine
 10
0.0
 20
0.0
 11
-30.77804569140005
 21
0.0
  0
LINE
  5
CD
100
AcDbEntity
  8
0
  6
CONTINUOUS
 62
             4
100
AcDbLine
 10
57.78273699999994
 20
-125.75083599999999
 11
-30.77804569140005
 21
-125.75083599999999
  0
SOLID
  5
CE
100
AcDbEntity
  8
0
 62
             4
100
AcDbTrace
 10
-27.85647820828828
 20
-7.0
 11
-29.69961317451183
 21
-7.0
 12
-28.77804569140005
 22
0.0
 13
-28.77804569140005
 23
0.0
  0
SOLID
  5
CF
100
AcDbEntity
  8
0
 62
             4
100
AcDbTrace
 10
-29.69961317451183
 20
-118.75083599999999
 11
-27.85647820828828
 21
-118.75083599999999
 12
-28.77804569140005
 22
-125.75083599999999
 13
-28.77804569140005
 23
-125.75083599999999
  0
MTEXT
  5
D0
100
AcDbEntity
  8
0
 62
             1
100
AcDbMText
 10
-30.77804569140005
 20
-69.57613030603218
 30
0.0
 40
7.0
 41
0.0
 71
             7
 72
             1
  1
126
  7
CONVERTER_1
 11
0.0
 21
1.0
 31
0.0
  0
ENDBLK
  5
D1
100
AcDbEntity
  8
0
100
AcDbBlockEnd
  0
BLOCK
  5
D5
100
AcDbEntity
  8
0
100
AcDbBlockBegin
  2
*D6
 70
             1
 10
0.0
 20
0.0
 30
0.0
  3
*D6
  1

  0
LINE
  5
D6
100
AcDbEntity
  8
0
  6
CONTINUOUS
 62
             4
100
AcDbLine
 10
-12.0
 20
-16.0
 11
-12.0
 21
-44.98966202713331
  0
LINE
  5
D7
100
AcDbEntity
  8
0
  6
CONTINUOUS
 62
             4
100
AcDbLine
 10
-12.0
 20
16.0
 11
-12.0
 21
-16.0
  0
LINE
  5
D8
100
AcDbEntity
  8
0
  6
CONTINUOUS
 62
             4
100
AcDbLine
 10
-2.0
 20
-16.0
 11
-14.0
 21
-16.0
  0
LINE
  5
D9
100
AcDbEntity
  8
0
  6
CONTINUOUS
 62
             4
100
AcDbLine
 10
-2.0
 20
16.0
 11
-14.0
 21
16.0
  0
SOLID
  5
DA
100
AcDbEntity
  8
0
 62
             4
100
AcDbTrace
 10
-11.07843251688823
 20
9.0
 11
-12.92156748311177
 21
9.0
 12
-12.0
 22
16.0
 13
-12.0
 23
16.0
  0
SOLID
  5
DB
100
AcDbEntity
  8
0
 62
             4
100
AcDbTrace
 10
-12.92156748311177
 20
-9.0
 11
-11.07843251688823
 21
-9.0
 12
-12.0
 22
-16.0
 13
-12.0
 23
-16.0
  0
MTEXT
  5
DC
100
AcDbEntity
  8
0
 62
             1
100
AcDbMText
 10
-14.0
 20
-41.0696620271333
 30
0.0
 40
7.0
 41
0.0
 71
             7
 72
             1
  1
\C1;DN\C1;32\C1;
  7
CONVERTER_1
 11
0.0
 21
1.0
 31
0.0
  0
ENDBLK
  5
DD
100
AcDbEntity
  8
0
100
AcDbBlockEnd
  0
BLOCK
  5
E1
100
AcDbEntity
  8
0
100
AcDbBlockBegin
  2
*D7
 70
             1
 10
0.0
 20
0.0
 30
0.0
  3
*D7
  1

  0
LINE
  5
E2
100
AcDbEntity
  8
0
  6
CONTINUOUS
 62
             4
100
AcDbLine
 10
0.0
 20
47.5
 11
40.0
 21
47.5
  0
LINE
  5
E3
100
AcDbEntity
  8
0
  6
CONTINUOUS
 62
             4
100
AcDbLine
 10
40.0
 20
37.5
 11
40.0
 21
49.5
  0
LINE
  5
E4
100
AcDbEntity
  8
0
  6
CONTINUOUS
 62
             4
100
AcDbLine
 10
0.0
 20
37.5
 11
0.0
 21
49.5
  0
SOLID
  5
E5
100
AcDbEntity
  8
0
 62
             4
100
AcDbTrace
 10
7.0
 20
48.42156748311177
 11
7.0
 21
46.57843251688823
 12
0.0
 22
47.5
 13
0.0
 23
47.5
  0
SOLID
  5
E6
100
AcDbEntity
  8
0
 62
             4
100
AcDbTrace
 10
33.0
 20
46.57843251688823
 11
33.0
 21
48.42156748311177
 12
40.0
 22
47.5
 13
40.0
 23
47.5
  0
MTEXT
  5
E7
100
AcDbEntity
  8
0
 62
             1
100
AcDbMText
 10
15.657009725477
 20
49.5
 30
0.0
 40
7.0
 41
0.0
 71
             7
 72
             1
  1
40
  7
CONVERTER_1
 11
0.99999999999706
 21
0.00000242406841
 31
0.0
  0
ENDBLK
  5
E8
100
AcDbEntity
  8
0
100
AcDbBlockEnd
  0
BLOCK
  5
EC
100
AcDbEntity
  8
0
100
AcDbBlockBegin
  2
*D8
 70
             1
 10
0.0
 20
0.0
 30
0.0
  3
*D8
  1

  0
LINE
  5
ED
100
AcDbEntity
  8
0
  6
CONTINUOUS
 62
             4
100
AcDbLine
 10
40.0
 20
47.5
 11
103.93273699999986
 21
47.5
  0
LINE
  5
EE
100
AcDbEntity
  8
0
  6
CONTINUOUS
 62
             4
100
AcDbLine
 10
103.93273699999986
 20
31.75000600000004
 11
103.93273699999986
 21
49.5
  0
LINE
  5
EF
100
AcDbEntity
  8
0
  6
CONTINUOUS
 62
             4
100
AcDbLine
 10
40.0
 20
27.24980300000004
 11
40.0
 21
49.5
  0
SOLID
  5
F0
100
AcDbEntity
  8
0
 62
             4
100
AcDbTrace
 10
96.93273699999986
 20
46.57843251688823
 11
96.93273699999986
 21
48.42156748311177
 12
103.93273699999986
 22
47.5
 13
103.93273699999986
 23
47.5
  0
SOLID
  5
F1
100
AcDbEntity
  8
0
 62
             4
100
AcDbTrace
 10
47.0
 20
48.42156748311177
 11
47.0
 21
46.57843251688823
 12
40.0
 22
47.5
 13
40.0
 23
47.5
  0
MTEXT
  5
F2
100
AcDbEntity
  8
0
 62
             1
100
AcDbMText
 10
63.24735604408795
 20
49.5
 30
0.0
 40
7.0
 41
0.0
 71
             7
 72
             1
  1
64
  7
CONVERTER_1
 11
0.99999999999706
 21
0.00000242406841
 31
0.0
  0
ENDBLK
  5
F3
100
AcDbEntity
  8
0
100
AcDbBlockEnd
  0
BLOCK
  5
F7
100
AcDbEntity
  8
0
100
AcDbBlockBegin
  2
*D9
 70
             1
 10
0.0
 20
0.0
 30
0.0
  3
*D9
  1

  0
LINE
  5
F8
100
AcDbEntity
  8
0
  6
CONTINUOUS
 62
             4
100
AcDbLine
 10
161.60571999999979
 20
-180.943288
 11
161.60571999999979
 21
-9.99999999999994
  0
LINE
  5
F9
100
AcDbEntity
  8
0
  6
CONTINUOUS
 62
             4
100
AcDbLine
 10
171.60571999999979
 20
-9.99999999999994
 11
159.60571999999979
 21
-9.99999999999994
  0
LINE
  5
FA
100
AcDbEntity
  8
0
  6
CONTINUOUS
 62
             4
100
AcDbLine
 10
202.43354299999999
 20
-180.943288
 11
159.60571999999979
 21
-180.943288
  0
SOLID
  5
FB
100
AcDbEntity
  8
0
 62
             4
100
AcDbTrace
 10
160.68415251688802
 20
-173.943288
 11
162.52728748311156
 21
-173.943288
 12
161.60571999999979
 22
-180.943288
 13
161.60571999999979
 23
-180.943288
  0
SOLID
  5
FC
100
AcDbEntity
  8
0
 62
             4
100
AcDbTrace
 10
162.52728748311156
 20
-16.99999999999994
 11
160.68415251688802
 21
-16.99999999999994
 12
161.60571999999979
 22
-9.99999999999994
 13
161.60571999999979
 23
-9.99999999999994
  0
MTEXT
  5
FD
100
AcDbEntity
  8
0
 62
             1
100
AcDbMText
 10
159.60571999999979
 20
-105.810601668833
 30
0.0
 40
7.0
 41
0.0
 71
             7
 72
             1
  1
171
  7
CONVERTER_1
 11
0.0
 21
1.0
 31
0.0
  0
ENDBLK
  5
FE
100
AcDbEntity
  8
0
100
AcDbBlockEnd
  0
BLOCK
  5
102
100
AcDbEntity
  8
0
100
AcDbBlockBegin
  2
*D10
 70
             1
 10
0.0
 20
0.0
 30
0.0
  3
*D10
  1

  0
LINE
  5
103
100
AcDbEntity
  8
0
  6
CONTINUOUS
 62
             4
100
AcDbLine
 10
146.76217249824001
 20
-180.943288
 11
146.76217249824001
 21
27.00000000000006
  0
LINE
  5
104
100
AcDbEntity
  8
0
  6
CONTINUOUS
 62
             4
100
AcDbLine
 10
185.00572
 20
27.00000000000006
 11
144.76217249824001
 21
27.00000000000006
  0
LINE
  5
105
100
AcDbEntity
  8
0
  6
CONTINUOUS
 62
             4
100
AcDbLine
 10
202.4335430000001
 20
-180.943288
 11
144.76217249824001
 21
-180.943288
  0
SOLID
  5
106
100
AcDbEntity
  8
0
 62
             4
100
AcDbTrace
 10
145.84060501512823
 20
-173.943288
 11
147.68373998135178
 21
-173.943288
 12
146.76217249824001
 22
-180.943288
 13
146.76217249824001
 23
-180.943288
  0
SOLID
  5
107
100
AcDbEntity
  8
0
 62
             4
100
AcDbTrace
 10
147.68373998135178
 20
20.00000000000006
 11
145.84060501512823
 21
20.00000000000006
 12
146.76217249824001
 22
27.00000000000006
 13
146.76217249824001
 23
27.00000000000006
  0
MTEXT
  5
108
100
AcDbEntity
  8
0
 62
             1
100
AcDbMText
 10
144.76217249824001
 20
-75.95804790904901
 30
0.0
 40
7.0
 41
0.0
 71
             7
 72
             1
  1
208
  7
CONVERTER_1
 11
0.0
 21
1.0
 31
0.0
  0
ENDBLK
  5
109
100
AcDbEntity
  8
0
100
AcDbBlockEnd
  0
BLOCK
  5
10D
100
AcDbEntity
  8
0
100
AcDbBlockBegin
  2
*D11
 70
             1
 10
0.0
 20
0.0
 30
0.0
  3
*D11
  1

  0
LINE
  5
10E
100
AcDbEntity
  8
0
  6
CONTINUOUS
 62
             4
100
AcDbLine
 10
199.60571999999993
 20
47.43612300000001
 11
226.59572000000003
 21
47.43612300000001
  0
LINE
  5
10F
100
AcDbEntity
  8
0
  6
CONTINUOUS
 62
             4
100
AcDbLine
 10
226.59572000000003
 20
37.43612300000001
 11
226.59572000000003
 21
49.43612300000001
  0
LINE
  5
110
100
AcDbEntity
  8
0
  6
CONTINUOUS
 62
             4
100
AcDbLine
 10
199.60571999999993
 20
32.50000000000006
 11
199.60571999999993
 21
49.43612300000001
  0
SOLID
  5
111
100
AcDbEntity
  8
0
 62
             4
100
AcDbTrace
 10
219.59572000000003
 20
46.51455551688824
 11
219.59572000000003
 21
48.35769048311178
 12
226.59572000000003
 22
47.43612300000001
 13
226.59572000000003
 23
47.43612300000001
  0
SOLID
  5
112
100
AcDbEntity
  8
0
 62
             4
100
AcDbTrace
 10
206.60571999999993
 20
48.35769048311178
 11
206.60571999999993
 21
46.51455551688824
 12
199.60571999999993
 22
47.43612300000001
 13
199.60571999999993
 23
47.43612300000001
  0
MTEXT
  5
113
100
AcDbEntity
  8
0
 62
             1
100
AcDbMText
 10
207.56371540694391
 20
49.43612300000001
 30
0.0
 40
7.0
 41
0.0
 71
             7
 72
             1
  1
27
  7
CONVERTER_1
 11
0.99999999999706
 21
0.00000242406841
 31
0.0
  0
ENDBLK
  5
114
100
AcDbEntity
  8
0
100
AcDbBlockEnd
  0
BLOCK
  5
118
100
AcDbEntity
  8
0
100
AcDbBlockBegin
  2
*D12
 70
             1
 10
0.0
 20
0.0
 30
0.0
  3
*D12
  1

  0
LINE
  5
119
100
AcDbEntity
  8
0
  6
CONTINUOUS
 62
             4
100
AcDbLine
 10
171.60571999999979
 20
62.62620643770725
 11
264.60572000000002
 21
62.62620643770725
  0
LINE
  5
11A
100
AcDbEntity
  8
0
  6
CONTINUOUS
 62
             4
100
AcDbLine
 10
171.60571999999979
 20
-4.49999999999994
 11
171.60571999999979
 21
64.62620643770725
  0
LINE
  5
11B
100
AcDbEntity
  8
0
  6
CONTINUOUS
 62
             4
100
AcDbLine
 10
264.60572000000002
 20
-4.50000000000028
 11
264.60572000000002
 21
64.62620643770725
  0
SOLID
  5
11C
100
AcDbEntity
  8
0
 62
             4
100
AcDbTrace
 10
257.60572000000002
 20
61.70463895459548
 11
257.60572000000002
 21
63.54777392081903
 12
264.60572000000002
 22
62.62620643770725
 13
264.60572000000002
 23
62.62620643770725
  0
SOLID
  5
11D
100
AcDbEntity
  8
0
 62
             4
100
AcDbTrace
 10
178.60571999999979
 20
63.54777392081903
 11
178.60571999999979
 21
61.70463895459548
 12
171.60571999999979
 22
62.62620643770725
 13
171.60571999999979
 23
62.62620643770725
  0
MTEXT
  5
11E
100
AcDbEntity
  8
0
 62
             1
100
AcDbMText
 10
211.82456036068399
 20
64.62620643770725
 30
0.0
 40
7.0
 41
0.0
 71
             7
 72
             1
  1
93
  7
CONVERTER_1
 11
0.99999999999706
 21
0.00000242406841
 31
0.0
  0
ENDBLK
  5
11F
100
AcDbEntity
  8
0
100
AcDbBlockEnd
  0
BLOCK
  5
123
100
AcDbEntity
  8
0
100
AcDbBlockBegin
  2
*D13
 70
             1
 10
0.0
 20
0.0
 30
0.0
  3
*D13
  1

  0
LINE
  5
124
100
AcDbEntity
  8
0
  6
CONTINUOUS
 62
             4
100
AcDbLine
 10
-28.77804569140005
 20
-180.943288
 11
-28.77804569140005
 21
-125.75083599999999
  0
LINE
  5
125
100
AcDbEntity
  8
0
  6
CONTINUOUS
 62
             4
100
AcDbLine
 10
57.78273699999994
 20
-125.75083599999999
 11
-30.77804569140005
 21
-125.75083599999999
  0
LINE
  5
126
100
AcDbEntity
  8
0
  6
CONTINUOUS
 62
             4
100
AcDbLine
 10
58.72055999999992
 20
-180.943288
 11
-30.77804569140005
 21
-180.943288
  0
SOLID
  5
127
100
AcDbEntity
  8
0
 62
             4
100
AcDbTrace
 10
-29.69961317451183
 20
-173.943288
 11
-27.85647820828828
 21
-173.943288
 12
-28.77804569140005
 22
-180.943288
 13
-28.77804569140005
 23
-180.943288
  0
SOLID
  5
128
100
AcDbEntity
  8
0
 62
             4
100
AcDbTrace
 10
-27.85647820828828
 20
-132.75083599999999
 11
-29.69961317451183
 21
-132.75083599999999
 12
-28.77804569140005
 22
-125.75083599999999
 13
-28.77804569140005
 23
-125.75083599999999
  0
MTEXT
  5
129
100
AcDbEntity
  8
0
 62
             1
100
AcDbMText
 10
-30.77804569140005
 20
-156.60529740893799
 30
0.0
 40
7.0
 41
0.0
 71
             7
 72
             1
  1
55
  7
CONVERTER_1
 11
0.0
 21
1.0
 31
0.0
  0
ENDBLK
  5
12A
100
AcDbEntity
  8
0
100
AcDbBlockEnd
  0
ENDSEC
  0
SECTION
  2
ENTITIES
  0
DIMENSION
  5
12C
100
AcDbEntity
  8
1
100
AcDbDimension
  2
*D13
 10
-28.77804569140005
 20
-180.943288
 11
-34.27804569140005
 21
-151.35529740893799
 31
0.0
 53
-90.00000000000003
  1
<>
  3
ME10_DIM_9
100
AcDbAlignedDimension
 13
57.78273699999994
 23
-125.75083600000001
 14
58.72055999999992
 24
-180.943288
 50
-90.00000000000003
100
AcDbRotatedDimension
  0
DIMENSION
  5
121
100
AcDbEntity
  8
1
100
AcDbDimension
  2
*D12
 10
264.60572000000002
 20
62.62620643770725
 11
217.07456036068399
 21
68.12620643770725
 31
0.0
 53
0.00013888888889
  1
<>
  3
ME10_DIM_8
100
AcDbAlignedDimension
 13
171.60571999999979
 23
-4.49999999999994
 14
264.60572000000002
 24
-4.50000000000028
100
AcDbRotatedDimension
  0
DIMENSION
  5
116
100
AcDbEntity
  8
1
100
AcDbDimension
  2
*D11
 10
226.59572000000003
 20
47.43612300000001
 11
212.81371540694391
 21
52.93612300000001
 31
0.0
 53
0.00013888888889
  1
<>
  3
ME10_DIM_7
100
AcDbAlignedDimension
 13
199.60571999999979
 23
32.50000000000006
 14
226.59572
 24
37.43612300000001
100
AcDbRotatedDimension
  0
DIMENSION
  5
10B
100
AcDbEntity
  8
1
100
AcDbDimension
  2
*D10
 10
146.76217249824001
 20
-180.943288
 11
141.26217249824001
 21
-67.55804790904901
 31
0.0
 53
90.00000000000003
  1
<>
  3
ME10_DIM_6
100
AcDbAlignedDimension
 13
185.00571999999991
 23
27.00000000000006
 14
202.43354299999999
 24
-180.943288
 50
90.00000000000003
100
AcDbRotatedDimension
  0
DIMENSION
  5
100
100
AcDbEntity
  8
1
100
AcDbDimension
  2
*D9
 10
161.60571999999979
 20
-180.943288
 11
156.10571999999979
 21
-99.510601668833
 31
0.0
 53
-90.00000000000003
  1
<>
  3
ME10_DIM_5
100
AcDbAlignedDimension
 13
171.60571999999979
 23
-9.99999999999994
 14
202.43354299999999
 24
-180.943288
 50
-90.00000000000003
100
AcDbRotatedDimension
  0
DIMENSION
  5
F5
100
AcDbEntity
  8
1
100
AcDbDimension
  2
*D8
 10
103.93273699999986
 20
47.5
 11
68.49735604408795
 21
53.0
 31
0.0
 53
0.00013888888889
  1
64
  3
ME10_DIM_4
100
AcDbAlignedDimension
 13
40.0
 23
27.24980300000004
 14
103.9327369999999
 24
31.75000600000004
100
AcDbRotatedDimension
  0
DIMENSION
  5
EA
100
AcDbEntity
  8
1
100
AcDbDimension
  2
*D7
 10
0.0
 20
47.5
 11
20.907009725477
 21
53.0
 31
0.0
 53
180.0
  1
<>
  3
ME10_DIM_3
100
AcDbAlignedDimension
 13
40.0
 23
37.5
 14
0.0
 24
37.5
 50
180.0
100
AcDbRotatedDimension
  0
DIMENSION
  5
DF
100
AcDbEntity
  8
1
100
AcDbDimension
  2
*D6
 10
-12.0
 20
16.0
 11
-17.5
 21
-32.0396620271333
 31
0.0
 53
90.00000000000003
  1
<>
  3
ME10_DIM_2
100
AcDbAlignedDimension
 13
-2.0
 23
-16.0
 14
-2.0
 24
16.0
 50
90.00000000000003
100
AcDbRotatedDimension
  0
DIMENSION
  5
D3
100
AcDbEntity
  8
1
100
AcDbDimension
  2
*D5
 10
-28.77804569140005
 20
0.0
 11
-34.27804569140005
 21
-62.22613030603219
 31
0.0
 53
90.00000000000003
  1
<>
  3
ME10_DIM_1
100
AcDbAlignedDimension
 13
57.78273699999994
 23
-125.75083600000001
 14
0.0
 24
0.0
 50
90.00000000000003
100
AcDbRotatedDimension
  0
DIMENSION
  5
C8
100
AcDbEntity
  8
1
100
AcDbDimension
  2
*D4
 10
57.78273699999994
 20
-197.20809112676099
 11
84.15102895931494
 21
-191.70809112676099
 31
0.0
 53
0.00013888888889
  1
<>
  3
ME10_DIM_0
100
AcDbAlignedDimension
 13
107.982737
 23
-177.443288
 14
57.78273699999994
 24
-177.443288
100
AcDbRotatedDimension
  0
INSERT
  5
36
100
AcDbEntity
  8
0
100
AcDbBlockReference
  2
HL_134_0_40_WE_SIFON
 10
-122.4533114999999
 20
-71.65776700000001
  0
ENDSEC
  0
SECTION
  2
OBJECTS
  0
DICTIONARY
  5
19
100
AcDbDictionary
  3
ACAD_GROUP
350
1A
  3
ACAD_MLINESTYLE
350
1B
  0
DICTIONARY
  5
1A
102
{ACAD_REACTORS
330
19
102
}
100
AcDbDictionary
  0
DICTIONARY
  5
1B
102
{ACAD_REACTORS
330
19
102
}
100
AcDbDictionary
  3
STANDARD
350
1C
  0
MLINESTYLE
  5
1C
102
{ACAD_REACTORS
330
1B
102
}
100
AcDbMlineStyle
  2
STANDARD
 70
             0
  3

 62
             0
 51
90.0
 52
90.0
 71
             2
 49
0.5
 62
           256
  6
BYLAYER
 49
-0.5
 62
           256
  6
BYLAYER
  0
ENDSEC
  0
EOF
