  0
SECTION
  2
HEADER
  9
$ACADVER
  1
AC1014
  9
$ACADMAINTVER
 70
             0
  9
$DWGCODEPAGE
  3
ANSI_1252
  9
$INSBASE
 10
0.0
 20
0.0
 30
0.0
  9
$EXTMIN
 10
-365.51777079006399
 20
-186.10760693843591
 30
0.0
  9
$EXTMAX
 10
150.08225147127499
 20
81.71296890473511
 30
0.0
  9
$LIMMIN
 10
0.0
 20
0.0
  9
$LIMMAX
 10
0.0
 20
0.0
  9
$ORTHOMODE
 70
             0
  9
$REGENMODE
 70
             1
  9
$FILLMODE
 70
             1
  9
$QTEXTMODE
 70
             0
  9
$MIRRTEXT
 70
             1
  9
$DRAGMODE
 70
             2
  9
$LTSCALE
 40
1.0
  9
$OSMODE
 70
             0
  9
$ATTMODE
 70
             1
  9
$TEXTSIZE
 40
0.2
  9
$TRACEWID
 40
0.05
  9
$TEXTSTYLE
  7
STANDARD
  9
$CLAYER
  8
0
  9
$CELTYPE
  6
CONTINUOUS
  9
$CECOLOR
 62
           256
  9
$CELTSCALE
 40
1.0
  9
$DELOBJ
 70
             1
  9
$DISPSILH
 70
             0
  9
$DIMSCALE
 40
1.0
  9
$DIMASZ
 40
0.18
  9
$DIMEXO
 40
0.0625
  9
$DIMDLI
 40
0.38
  9
$DIMRND
 40
0.0
  9
$DIMDLE
 40
0.0
  9
$DIMEXE
 40
0.18
  9
$DIMTP
 40
0.0
  9
$DIMTM
 40
0.0
  9
$DIMTXT
 40
0.18
  9
$DIMCEN
 40
0.09
  9
$DIMTSZ
 40
0.0
  9
$DIMTOL
 70
             0
  9
$DIMLIM
 70
             0
  9
$DIMTIH
 70
             1
  9
$DIMTOH
 70
             1
  9
$DIMSE1
 70
             0
  9
$DIMSE2
 70
             0
  9
$DIMTAD
 70
             0
  9
$DIMZIN
 70
             0
  9
$DIMBLK
  1

  9
$DIMASO
 70
             1
  9
$DIMSHO
 70
             1
  9
$DIMPOST
  1

  9
$DIMAPOST
  1

  9
$DIMALT
 70
             0
  9
$DIMALTD
 70
             2
  9
$DIMALTF
 40
25.4
  9
$DIMLFAC
 40
1.0
  9
$DIMTOFL
 70
             0
  9
$DIMTVP
 40
0.0
  9
$DIMTIX
 70
             0
  9
$DIMSOXD
 70
             0
  9
$DIMSAH
 70
             0
  9
$DIMBLK1
  1

  9
$DIMBLK2
  1

  9
$DIMSTYLE
  2
STANDARD
  9
$DIMCLRD
 70
             0
  9
$DIMCLRE
 70
             0
  9
$DIMCLRT
 70
             0
  9
$DIMTFAC
 40
1.0
  9
$DIMGAP
 40
0.09
  9
$DIMJUST
 70
             0
  9
$DIMSD1
 70
             0
  9
$DIMSD2
 70
             0
  9
$DIMTOLJ
 70
             1
  9
$DIMTZIN
 70
             0
  9
$DIMALTZ
 70
             0
  9
$DIMALTTZ
 70
             0
  9
$DIMFIT
 70
             3
  9
$DIMUPT
 70
             0
  9
$DIMUNIT
 70
             2
  9
$DIMDEC
 70
             4
  9
$DIMTDEC
 70
             4
  9
$DIMALTU
 70
             2
  9
$DIMALTTD
 70
             2
  9
$DIMTXSTY
  7
STANDARD
  9
$DIMAUNIT
 70
             0
  9
$LUNITS
 70
             2
  9
$LUPREC
 70
             4
  9
$SKETCHINC
 40
0.1
  9
$FILLETRAD
 40
0.0
  9
$AUNITS
 70
             0
  9
$AUPREC
 70
             0
  9
$MENU
  1
acad
  9
$ELEVATION
 40
0.0
  9
$PELEVATION
 40
0.0
  9
$THICKNESS
 40
0.0
  9
$LIMCHECK
 70
             0
  9
$BLIPMODE
 70
             1
  9
$CHAMFERA
 40
0.0
  9
$CHAMFERB
 40
0.0
  9
$CHAMFERC
 40
0.0
  9
$CHAMFERD
 40
0.0
  9
$SKPOLY
 70
             0
  9
$TDCREATE
 40
0.000000000
  9
$TDUPDATE
 40
0.000000000
  9
$TDINDWG
 40
0.0000000000
  9
$TDUSRTIMER
 40
0.0000000000
  9
$USRTIMER
 70
             1
  9
$ANGBASE
 50
0.0
  9
$ANGDIR
 70
             0
  9
$PDMODE
 70
             0
  9
$PDSIZE
 40
0.0
  9
$PLINEWID
 40
0.0
  9
$COORDS
 70
             0
  9
$SPLFRAME
 70
             0
  9
$SPLINETYPE
 70
             6
  9
$SPLINESEGS
 70
             8
  9
$ATTDIA
 70
             0
  9
$ATTREQ
 70
             1
  9
$HANDLING
 70
             1
  9
$HANDSEED
  5
2F6
  9
$SURFTAB1
 70
             6
  9
$SURFTAB2
 70
             6
  9
$SURFTYPE
 70
             6
  9
$SURFU
 70
             6
  9
$SURFV
 70
             6
  9
$UCSNAME
  2

  9
$UCSORG
 10
0.0
 20
0.0
 30
0.0
  9
$UCSXDIR
 10
1.0
 20
0.0
 30
0.0
  9
$UCSYDIR
 10
0.0
 20
1.0
 30
0.0
  9
$PUCSNAME
  2

  9
$PUCSORG
 10
0.0
 20
0.0
 30
0.0
  9
$PUCSXDIR
 10
1.0
 20
0.0
 30
0.0
  9
$PUCSYDIR
 10
0.0
 20
1.0
 30
0.0
  9
$USERI1
 70
             0
  9
$USERI2
 70
             0
  9
$USERI3
 70
             0
  9
$USERI4
 70
             0
  9
$USERI5
 70
             0
  9
$USERR1
 40
12.01
  9
$USERR2
 40
0.0
  9
$USERR3
 40
0.0
  9
$USERR4
 40
0.0
  9
$USERR5
 40
0.0
  9
$WORLDVIEW
 70
             1
  9
$SHADEDGE
 70
             3
  9
$SHADEDIF
 70
            70
  9
$TILEMODE
 70
             1
  9
$MAXACTVP
 70
            16
  9
$PINSBASE
 10
0.0
 20
0.0
 30
0.0
  9
$PLIMCHECK
 70
             0
  9
$PEXTMIN
 10
1.00000000000000E+20
 20
1.00000000000000E+20
 30
1.00000000000000E+20
  9
$PEXTMAX
 10
-1.00000000000000E+20
 20
-1.00000000000000E+20
 30
-1.00000000000000E+20
  9
$PLIMMIN
 10
0.0
 20
0.0
  9
$PLIMMAX
 10
12.0
 20
9.0
  9
$UNITMODE
 70
             0
  9
$VISRETAIN
 70
             0
  9
$PLINEGEN
 70
             1
  9
$PSLTSCALE
 70
             0
  9
$TREEDEPTH
 70
          3020
  9
$PICKSTYLE
 70
             1
  9
$CMLSTYLE
  2
STANDARD
  9
$CMLJUST
 70
             0
  9
$CMLSCALE
 40
1.0
  9
$PROXYGRAPHICS
 70
             0
  9
$MEASUREMENT
 70
             1
  0
ENDSEC
  0
SECTION
  2
CLASSES
  0
CLASS
  1
LWPOLYLINE
  2
AcDbPolyline
  3
"AutoCAD"
 90
        0
280
             0
281
             1
  0
CLASS
  1
IMAGE
  2
AcDbRasterImage
  3
ISM
 90
      127
280
             0
281
             1
  0
CLASS
  1
OLE2FRAME
  2
AcDbOle2Frame
  3
""
 90
        0
280
             0
281
             1
  0
CLASS
  1
HATCH
  2
AcDbHatch
  3
"ACAD_SEDONA"
 90
        0
280
             0
281
             1
  0
CLASS
  1
DICTIONARYVAR
  2
AcDbDictionaryVar
  3
"AutoCAD"
 90
        0
280
             0
281
             0
  0
CLASS
  1
RASTERVARIABLES
  2
AcDbRasterVariables
  3
ISM
 90
        0
280
             0
281
             0
  0
CLASS
  1
IMAGEDEF
  2
AcDbRasterImageDef
  3
ISM
 90
        0
280
             0
281
             0
  0
CLASS
  1
IMAGEDEF_REACTOR
  2
AcDbRasterImageDefReactor
  3
ISM
 90
        1
280
             0
281
             0
  0
CLASS
  1
IDBUFFER
  2
AcDbIdBuffer
  3
"Acad"
 90
        0
280
             0
281
             0
  0
CLASS
  1
SPATIAL_FILTER
  2
AcDbSpatialFilter
  3
"Acad"
 90
        0
280
             0
281
             0
  0
CLASS
  1
XRECORD
  2
AcDbXrecord
  3
"<Built In>"
 90
        0
280
             0
281
             0
  0
CLASS
  1
SORTENTSTABLE
  2
AcDbSortentsTable
  3
"AutoCAD"
 90
        0
280
             0
281
             0
  0
CLASS
  1
LAYER_INDEX
  2
AcDbLayerIndex
  3
"Acad"
 90
        0
280
             0
281
             0
  0
CLASS
  1
SPATIAL_INDEX
  2
AcDbSpatialIndex
  3
"Acad"
 90
        0
280
             0
281
             0
  0
CLASS
  1
OBJECT_PTR
  2
CAseDLPNTableRecord
  3
"ASE-LPNTableRecord"
 90
        1
280
             0
281
             0
  0
CLASS
  1
LAYOUT
  2
AcDbLayout
  3
"AutoCAD 2000"
 90
        0
280
             0
281
             0
  0
CLASS
  1
PLOTSETTINGS
  2
AcDbPlotSettings
  3
"AutoCAD 2000"
 90
        0
280
             0
281
             0
  0
CLASS
  1
ACDBDICTIONARYWDFLT
  2
AcDbDictionaryWithDefault
  3
"AutoCAD 2000"
 90
        0
280
             0
281
             0
  0
CLASS
  1
ACDBPLACEHOLDER
  2
AcDbPlaceHolder
  3
"AutoCAD 2000"
 90
        0
280
             0
281
             0
  0
ENDSEC
  0
SECTION
  2
TABLES
  0
TABLE
  2
VPORT
  5
7
100
AcDbSymbolTable
 70
             1
  0
VPORT
  5
15
100
AcDbSymbolTableRecord
100
AcDbViewportTableRecord
  2
*ACTIVE
 70
             0
 10
0.0
 20
0.0
 11
1.0
 21
1.0
 12
-107.7177596593945
 22
-52.1973190168504
 13
0.0
 23
0.0
 14
1.0
 24
1.0
 15
0.0
 25
0.0
 16
0.0
 26
0.0
 36
1.0
 17
0.0
 27
0.0
 37
0.0
 40
353.88257795318657
 41
1.60267857142857
 42
50.0
 43
0.0
 44
0.0
 50
0.0
 51
0.0
 71
             0
 72
           100
 73
             1
 74
             1
 75
             0
 76
             0
 77
             0
 78
             0
  0
ENDTAB
  0
TABLE
  2
LTYPE
  5
4
100
AcDbSymbolTable
 70
            11
  0
LTYPE
  5
11
100
AcDbSymbolTableRecord
100
AcDbLinetypeTableRecord
  2
BYBLOCK
 70
            64
  3

 72
            65
 73
             0
 40
0.0
  0
LTYPE
  5
12
100
AcDbSymbolTableRecord
100
AcDbLinetypeTableRecord
  2
BYLAYER
 70
            64
  3

 72
            65
 73
             0
 40
0.0
  0
LTYPE
  5
13
100
AcDbSymbolTableRecord
100
AcDbLinetypeTableRecord
  2
CONTINUOUS
 70
            64
  3
Solid line
 72
            65
 73
             0
 40
0.0
  0
LTYPE
  5
1D
100
AcDbSymbolTableRecord
100
AcDbLinetypeTableRecord
  2
DASHED
 70
            64
  3
Dashed
 72
            65
 73
             2
 40
15.0
 49
7.0
 74
             0
 49
-8.0
 74
             0
  0
LTYPE
  5
1E
100
AcDbSymbolTableRecord
100
AcDbLinetypeTableRecord
  2
DOTTED
 70
            64
  3
Dotted
 72
            65
 73
             2
 40
1.0
 49
0.0
 74
             0
 49
-1.0
 74
             0
  0
LTYPE
  5
1F
100
AcDbSymbolTableRecord
100
AcDbLinetypeTableRecord
  2
DOT_CENTER
 70
            64
  3
Dot_Center
 72
            65
 73
             4
 40
14.0
 49
12.0
 74
             0
 49
-1.0
 74
             0
 49
0.0
 74
             0
 49
-1.0
 74
             0
  0
LTYPE
  5
20
100
AcDbSymbolTableRecord
100
AcDbLinetypeTableRecord
  2
LONG_DASHED
 70
            64
  3
Long_Dashed
 72
            65
 73
             2
 40
15.0
 49
10.0
 74
             0
 49
-5.0
 74
             0
  0
LTYPE
  5
21
100
AcDbSymbolTableRecord
100
AcDbLinetypeTableRecord
  2
DASH_CENTER
 70
            64
  3
Dash_Center
 72
            65
 73
             4
 40
14.0
 49
11.0
 74
             0
 49
-1.0
 74
             0
 49
1.0
 74
             0
 49
-1.0
 74
             0
  0
LTYPE
  5
22
100
AcDbSymbolTableRecord
100
AcDbLinetypeTableRecord
  2
PHANTOM
 70
            64
  3
Phantom
 72
            65
 73
             6
 40
13.0
 49
10.0
 74
             0
 49
-1.0
 74
             0
 49
0.0
 74
             0
 49
-1.0
 74
             0
 49
0.0
 74
             0
 49
-1.0
 74
             0
  0
LTYPE
  5
23
100
AcDbSymbolTableRecord
100
AcDbLinetypeTableRecord
  2
CENTER_DASH_DASH
 70
            64
  3
Center_Dash_Dash
 72
            65
 73
             6
 40
14.0
 49
9.0
 74
             0
 49
-1.0
 74
             0
 49
1.0
 74
             0
 49
-1.0
 74
             0
 49
1.0
 74
             0
 49
-1.0
 74
             0
  0
LTYPE
  5
24
100
AcDbSymbolTableRecord
100
AcDbLinetypeTableRecord
  2
DASHDOT
 70
            64
  3
DASHDOT
 72
            65
 73
             4
 40
16.0
 49
10.0
 74
             0
 49
-3.0
 74
             0
 49
0.0
 74
             0
 49
-3.0
 74
             0
  0
ENDTAB
  0
TABLE
  2
LAYER
  5
2
100
AcDbSymbolTable
 70
             5
  0
LAYER
  5
14
100
AcDbSymbolTableRecord
100
AcDbLayerTableRecord
  2
0
 70
             0
 62
             7
  6
CONTINUOUS
  0
LAYER
  5
25
100
AcDbSymbolTableRecord
100
AcDbLayerTableRecord
  2
1
 70
             0
 62
             7
  6
CONTINUOUS
  0
LAYER
  5
26
100
AcDbSymbolTableRecord
100
AcDbLayerTableRecord
  2
LC-001-002-----0
 70
             0
 62
             7
  6
CONTINUOUS
  0
LAYER
  5
27
100
AcDbSymbolTableRecord
100
AcDbLayerTableRecord
  2
LC-006-002-RND-0
 70
             0
 62
             7
  6
CONTINUOUS
  0
LAYER
  5
28
100
AcDbSymbolTableRecord
100
AcDbLayerTableRecord
  2
LC-008-006-MLN-0
 70
             0
 62
             7
  6
CONTINUOUS
  0
ENDTAB
  0
TABLE
  2
STYLE
  5
3
100
AcDbSymbolTable
 70
             3
  0
STYLE
  5
17
100
AcDbSymbolTableRecord
100
AcDbTextStyleTableRecord
  2
STANDARD
 70
             0
 40
0.0
 41
1.0
 50
0.0
 71
             0
 42
0.0
  3
txt
  4

  0
STYLE
  5
1A2
100
AcDbSymbolTableRecord
100
AcDbTextStyleTableRecord
  2
CONVERTER_1
 70
             0
 40
0.0
 41
0.95
 50
0.0
 71
             0
 42
0.0
  3
complex.shx
  4

  0
STYLE
  5
251
100
AcDbSymbolTableRecord
100
AcDbTextStyleTableRecord
  2
CONVERTER_2
 70
             0
 40
0.0
 41
0.9
 50
0.0
 71
             0
 42
0.0
  3
txt.shx
  4

  0
ENDTAB
  0
TABLE
  2
VIEW
  5
5
100
AcDbSymbolTable
 70
             0
  0
ENDTAB
  0
TABLE
  2
UCS
  5
6
100
AcDbSymbolTable
 70
             0
  0
ENDTAB
  0
TABLE
  2
APPID
  5
8
100
AcDbSymbolTable
 70
             1
  0
APPID
  5
16
100
AcDbSymbolTableRecord
100
AcDbRegAppTableRecord
  2
ACAD
 70
             0
  0
ENDTAB
  0
TABLE
  2
DIMSTYLE
  5
9
100
AcDbSymbolTable
 70
            16
  0
DIMSTYLE
105
18
100
AcDbSymbolTableRecord
100
AcDbDimStyleTableRecord
  2
STANDARD
 70
             0
  3

  4

  5

  6

  7

 40
1.0
 41
0.18
 42
0.0625
 43
0.38
 44
0.18
 45
0.0
 46
0.0
 47
0.0
 48
0.0
 71
             0
 72
             0
 73
             1
 74
             1
 75
             0
 76
             0
 77
             0
 78
             0
140
0.18
141
0.09
142
0.0
143
25.4
144
1.0
145
0.0
146
1.0
147
0.09
170
             0
171
             2
172
             0
173
             0
174
             0
175
             0
176
             0
177
             0
178
             0
270
             2
271
             4
272
             4
273
             2
274
             2
275
             0
280
             0
281
             0
282
             0
283
             1
284
             0
285
             0
286
             0
287
             3
288
             0
340
17
  0
DIMSTYLE
105
254
100
AcDbSymbolTableRecord
100
AcDbDimStyleTableRecord
  2
ME10_DIM_0
 70
             0
  3

  4

  5

  6

  7

 40
1.0
 41
7.0
 42
0.0
 43
0.38
 44
2.0
 45
0.0
 46
0.0
 47
0.0
 48
0.0
 71
             0
 72
             0
 73
             0
 74
             0
 75
             0
 76
             0
 77
             1
 78
             8
140
7.0
141
0.09
142
0.0
143
25.4
144
1.0
145
0.0
146
1.0
147
0.625
170
             0
171
             2
172
             1
173
             1
174
             0
175
             0
176
             4
177
             4
178
             1
270
             2
271
             2
272
             4
273
             2
274
             2
275
             0
280
             0
281
             0
282
             0
283
             1
284
             0
285
             0
286
             0
287
             3
288
             0
340
251
  0
DIMSTYLE
105
25F
100
AcDbSymbolTableRecord
100
AcDbDimStyleTableRecord
  2
ME10_DIM_1
 70
             0
  3

  4

  5

  6

  7

 40
1.0
 41
7.0
 42
0.0
 43
0.38
 44
2.0
 45
0.0
 46
0.0
 47
0.0
 48
0.0
 71
             0
 72
             0
 73
             0
 74
             0
 75
             0
 76
             0
 77
             1
 78
             8
140
7.0
141
0.09
142
0.0
143
25.4
144
1.0
145
0.0
146
1.0
147
0.625
170
             0
171
             2
172
             1
173
             1
174
             0
175
             0
176
             4
177
             4
178
             1
270
             2
271
             2
272
             4
273
             2
274
             2
275
             0
280
             0
281
             0
282
             0
283
             1
284
             0
285
             0
286
             0
287
             3
288
             0
340
251
  0
DIMSTYLE
105
26A
100
AcDbSymbolTableRecord
100
AcDbDimStyleTableRecord
  2
ME10_DIM_2
 70
             0
  3

  4

  5

  6

  7

 40
1.0
 41
7.0
 42
0.0
 43
0.38
 44
2.0
 45
0.0
 46
0.0
 47
0.0
 48
0.0
 71
             0
 72
             0
 73
             0
 74
             0
 75
             0
 76
             0
 77
             1
 78
             8
140
7.0
141
0.09
142
0.0
143
25.4
144
1.0
145
0.0
146
1.0
147
0.625
170
             0
171
             2
172
             1
173
             1
174
             0
175
             0
176
             4
177
             4
178
             1
270
             2
271
             2
272
             4
273
             2
274
             2
275
             0
280
             0
281
             0
282
             0
283
             1
284
             0
285
             0
286
             0
287
             3
288
             0
340
251
  0
DIMSTYLE
105
275
100
AcDbSymbolTableRecord
100
AcDbDimStyleTableRecord
  2
ME10_DIM_3
 70
             0
  3

  4

  5

  6

  7

 40
1.0
 41
7.0
 42
0.0
 43
0.38
 44
2.0
 45
0.0
 46
0.0
 47
0.0
 48
0.0
 71
             0
 72
             0
 73
             0
 74
             0
 75
             0
 76
             0
 77
             1
 78
             8
140
7.0
141
0.09
142
0.0
143
25.4
144
1.0
145
0.0
146
1.0
147
0.625
170
             0
171
             2
172
             1
173
             1
174
             0
175
             0
176
             4
177
             4
178
             1
270
             2
271
             2
272
             4
273
             2
274
             2
275
             0
280
             0
281
             0
282
             0
283
             1
284
             0
285
             0
286
             0
287
             3
288
             0
340
251
  0
DIMSTYLE
105
281
100
AcDbSymbolTableRecord
100
AcDbDimStyleTableRecord
  2
ME10_DIM_4
 70
             0
  3

  4

  5

  6

  7

 40
1.0
 41
7.0
 42
0.0
 43
0.38
 44
2.0
 45
0.0
 46
0.0
 47
0.0
 48
0.0
 71
             0
 72
             0
 73
             0
 74
             0
 75
             0
 76
             0
 77
             1
 78
             8
140
7.0
141
0.09
142
0.0
143
25.4
144
1.0
145
0.0
146
1.0
147
0.625
170
             0
171
             2
172
             1
173
             1
174
             0
175
             0
176
             4
177
             4
178
             1
270
             2
271
             2
272
             4
273
             2
274
             2
275
             0
280
             0
281
             0
282
             0
283
             1
284
             0
285
             0
286
             0
287
             3
288
             0
340
251
  0
DIMSTYLE
105
28C
100
AcDbSymbolTableRecord
100
AcDbDimStyleTableRecord
  2
ME10_DIM_5
 70
             0
  3

  4

  5

  6

  7

 40
1.0
 41
7.0
 42
0.0
 43
0.38
 44
2.0
 45
0.0
 46
0.0
 47
0.0
 48
0.0
 71
             0
 72
             0
 73
             0
 74
             0
 75
             0
 76
             0
 77
             1
 78
             8
140
7.0
141
0.09
142
0.0
143
25.4
144
1.0
145
0.0
146
1.0
147
0.625
170
             0
171
             2
172
             1
173
             1
174
             0
175
             0
176
             4
177
             4
178
             1
270
             2
271
             2
272
             4
273
             2
274
             2
275
             0
280
             0
281
             0
282
             0
283
             1
284
             0
285
             0
286
             0
287
             3
288
             0
340
251
  0
DIMSTYLE
105
298
100
AcDbSymbolTableRecord
100
AcDbDimStyleTableRecord
  2
ME10_DIM_6
 70
             0
  3

  4

  5

  6

  7

 40
1.0
 41
7.0
 42
0.0
 43
0.38
 44
2.0
 45
0.0
 46
0.0
 47
0.0
 48
0.0
 71
             0
 72
             0
 73
             0
 74
             0
 75
             0
 76
             0
 77
             1
 78
             8
140
7.0
141
0.09
142
0.0
143
25.4
144
1.0
145
0.0
146
1.0
147
0.625
170
             0
171
             2
172
             1
173
             1
174
             0
175
             0
176
             4
177
             4
178
             1
270
             2
271
             2
272
             4
273
             2
274
             2
275
             0
280
             0
281
             0
282
             0
283
             1
284
             0
285
             0
286
             0
287
             3
288
             0
340
251
  0
DIMSTYLE
105
2A3
100
AcDbSymbolTableRecord
100
AcDbDimStyleTableRecord
  2
ME10_DIM_7
 70
             0
  3
DN<>
  4

  5

  6

  7

 40
1.0
 41
7.0
 42
0.0
 43
0.38
 44
2.0
 45
0.0
 46
0.0
 47
0.0
 48
0.0
 71
             0
 72
             0
 73
             0
 74
             0
 75
             0
 76
             0
 77
             1
 78
             8
140
7.0
141
0.09
142
0.0
143
25.4
144
1.0
145
0.0
146
1.0
147
0.625
170
             0
171
             2
172
             1
173
             1
174
             0
175
             0
176
             4
177
             4
178
             1
270
             2
271
             2
272
             4
273
             2
274
             2
275
             0
280
             0
281
             0
282
             0
283
             1
284
             0
285
             0
286
             0
287
             3
288
             0
340
251
  0
DIMSTYLE
105
2AE
100
AcDbSymbolTableRecord
100
AcDbDimStyleTableRecord
  2
ME10_DIM_8
 70
             0
  3

  4

  5

  6

  7

 40
1.0
 41
7.0
 42
0.0
 43
0.38
 44
2.0
 45
0.0
 46
0.0
 47
0.0
 48
0.0
 71
             0
 72
             0
 73
             0
 74
             0
 75
             0
 76
             0
 77
             1
 78
             8
140
7.0
141
0.09
142
0.0
143
25.4
144
1.0
145
0.0
146
1.0
147
0.625
170
             0
171
             2
172
             1
173
             1
174
             0
175
             0
176
             4
177
             4
178
             1
270
             2
271
             2
272
             4
273
             2
274
             2
275
             0
280
             0
281
             0
282
             0
283
             1
284
             0
285
             0
286
             0
287
             3
288
             0
340
251
  0
DIMSTYLE
105
2B9
100
AcDbSymbolTableRecord
100
AcDbDimStyleTableRecord
  2
ME10_DIM_9
 70
             0
  3

  4

  5

  6

  7

 40
1.0
 41
7.0
 42
0.0
 43
0.38
 44
2.0
 45
0.0
 46
0.0
 47
0.0
 48
0.0
 71
             0
 72
             0
 73
             0
 74
             0
 75
             0
 76
             0
 77
             1
 78
             8
140
7.0
141
0.09
142
0.0
143
25.4
144
1.0
145
0.0
146
1.0
147
0.625
170
             0
171
             2
172
             1
173
             1
174
             0
175
             0
176
             4
177
             4
178
             1
270
             2
271
             0
272
             4
273
             2
274
             2
275
             0
280
             0
281
             0
282
             0
283
             1
284
             0
285
             0
286
             0
287
             3
288
             0
340
251
  0
DIMSTYLE
105
2C5
100
AcDbSymbolTableRecord
100
AcDbDimStyleTableRecord
  2
ME10_DIM_10
 70
             0
  3
DN<>
  4

  5

  6

  7

 40
1.0
 41
7.0
 42
0.0
 43
0.38
 44
2.0
 45
0.0
 46
0.0
 47
0.0
 48
0.0
 71
             0
 72
             0
 73
             0
 74
             0
 75
             0
 76
             0
 77
             1
 78
             8
140
7.0
141
0.09
142
0.0
143
25.4
144
1.0
145
0.0
146
1.0
147
0.625
170
             0
171
             2
172
             1
173
             1
174
             0
175
             0
176
             4
177
             4
178
             1
270
             2
271
             2
272
             4
273
             2
274
             2
275
             0
280
             0
281
             0
282
             0
283
             1
284
             0
285
             0
286
             0
287
             3
288
             0
340
251
  0
DIMSTYLE
105
2D0
100
AcDbSymbolTableRecord
100
AcDbDimStyleTableRecord
  2
ME10_DIM_11
 70
             0
  3

  4

  5

  6

  7

 40
1.0
 41
7.0
 42
0.0
 43
0.38
 44
2.0
 45
0.0
 46
0.0
 47
0.0
 48
0.0
 71
             0
 72
             0
 73
             0
 74
             0
 75
             0
 76
             0
 77
             1
 78
             8
140
7.0
141
0.09
142
0.0
143
25.4
144
1.0
145
0.0
146
1.0
147
0.625
170
             0
171
             2
172
             1
173
             1
174
             0
175
             0
176
             4
177
             4
178
             1
270
             2
271
             2
272
             4
273
             2
274
             2
275
             0
280
             0
281
             0
282
             0
283
             1
284
             0
285
             0
286
             0
287
             3
288
             0
340
251
  0
DIMSTYLE
105
2DB
100
AcDbSymbolTableRecord
100
AcDbDimStyleTableRecord
  2
ME10_DIM_12
 70
             0
  3

  4

  5

  6

  7

 40
1.0
 41
7.0
 42
0.0
 43
0.38
 44
2.0
 45
0.0
 46
0.0
 47
0.0
 48
0.0
 71
             0
 72
             0
 73
             0
 74
             0
 75
             0
 76
             0
 77
             1
 78
             8
140
7.0
141
0.09
142
0.0
143
25.4
144
1.0
145
0.0
146
1.0
147
0.625
170
             0
171
             2
172
             1
173
             1
174
             0
175
             0
176
             4
177
             4
178
             1
270
             2
271
             2
272
             4
273
             2
274
             2
275
             0
280
             0
281
             0
282
             0
283
             1
284
             0
285
             0
286
             0
287
             3
288
             0
340
251
  0
DIMSTYLE
105
2E8
100
AcDbSymbolTableRecord
100
AcDbDimStyleTableRecord
  2
ME10_DIM_13
 70
             0
  3

  4

  5

  6

  7

 40
1.0
 41
7.0
 42
0.0
 43
0.38
 44
2.0
 45
0.0
 46
0.0
 47
0.0
 48
0.0
 71
             0
 72
             0
 73
             0
 74
             0
 75
             0
 76
             0
 77
             1
 78
             8
140
7.0
141
0.09
142
0.0
143
25.4
144
1.0
145
0.0
146
1.0
147
0.625
170
             0
171
             2
172
             1
173
             1
174
             0
175
             0
176
             4
177
             4
178
             1
270
             2
271
             2
272
             4
273
             2
274
             2
275
             0
280
             0
281
             0
282
             0
283
             1
284
             0
285
             0
286
             0
287
             3
288
             0
340
251
  0
DIMSTYLE
105
2F3
100
AcDbSymbolTableRecord
100
AcDbDimStyleTableRecord
  2
ME10_DIM_14
 70
             0
  3

  4

  5

  6

  7

 40
1.0
 41
7.0
 42
0.0
 43
0.38
 44
2.0
 45
0.0
 46
0.0
 47
0.0
 48
0.0
 71
             0
 72
             0
 73
             0
 74
             0
 75
             0
 76
             0
 77
             1
 78
             8
140
7.0
141
0.09
142
0.0
143
25.4
144
1.0
145
0.0
146
1.0
147
0.625
170
             0
171
             2
172
             1
173
             1
174
             0
175
             0
176
             4
177
             4
178
             1
270
             2
271
             2
272
             4
273
             2
274
             2
275
             0
280
             0
281
             0
282
             0
283
             1
284
             0
285
             0
286
             0
287
             3
288
             0
340
251
  0
ENDTAB
  0
TABLE
  2
BLOCK_RECORD
  5
1
100
AcDbSymbolTable
 70
            20
  0
BLOCK_RECORD
  5
A
100
AcDbSymbolTableRecord
100
AcDbBlockTableRecord
  2
*MODEL_SPACE
  0
BLOCK_RECORD
  5
B
100
AcDbSymbolTableRecord
100
AcDbBlockTableRecord
  2
*PAPER_SPACE
  0
BLOCK_RECORD
  5
29
100
AcDbSymbolTableRecord
100
AcDbBlockTableRecord
  2
HL_44_MONTAGEPLATTE__1
  0
BLOCK_RECORD
  5
2B
100
AcDbSymbolTableRecord
100
AcDbBlockTableRecord
  2
SIFONEINSATZ
  0
BLOCK_RECORD
  5
2D
100
AcDbSymbolTableRecord
100
AcDbBlockTableRecord
  2
EINBAUSIFON__2
  0
BLOCK_RECORD
  5
2F
100
AcDbSymbolTableRecord
100
AcDbBlockTableRecord
  2
EINBAUSIFON__3
  0
BLOCK_RECORD
  5
31
100
AcDbSymbolTableRecord
100
AcDbBlockTableRecord
  2
HL_44_MONTAGEPLATTE__4
  0
BLOCK_RECORD
  5
24A
100
AcDbSymbolTableRecord
100
AcDbBlockTableRecord
  2
*D5
  0
BLOCK_RECORD
  5
256
100
AcDbSymbolTableRecord
100
AcDbBlockTableRecord
  2
*D6
  0
BLOCK_RECORD
  5
261
100
AcDbSymbolTableRecord
100
AcDbBlockTableRecord
  2
*D7
  0
BLOCK_RECORD
  5
26C
100
AcDbSymbolTableRecord
100
AcDbBlockTableRecord
  2
*D8
  0
BLOCK_RECORD
  5
277
100
AcDbSymbolTableRecord
100
AcDbBlockTableRecord
  2
*D9
  0
BLOCK_RECORD
  5
283
100
AcDbSymbolTableRecord
100
AcDbBlockTableRecord
  2
*D10
  0
BLOCK_RECORD
  5
28E
100
AcDbSymbolTableRecord
100
AcDbBlockTableRecord
  2
*D11
  0
BLOCK_RECORD
  5
29A
100
AcDbSymbolTableRecord
100
AcDbBlockTableRecord
  2
*D12
  0
BLOCK_RECORD
  5
2A5
100
AcDbSymbolTableRecord
100
AcDbBlockTableRecord
  2
*D13
  0
BLOCK_RECORD
  5
2B0
100
AcDbSymbolTableRecord
100
AcDbBlockTableRecord
  2
*D14
  0
BLOCK_RECORD
  5
2BB
100
AcDbSymbolTableRecord
100
AcDbBlockTableRecord
  2
*D15
  0
BLOCK_RECORD
  5
2C7
100
AcDbSymbolTableRecord
100
AcDbBlockTableRecord
  2
*D16
  0
BLOCK_RECORD
  5
2D2
100
AcDbSymbolTableRecord
100
AcDbBlockTableRecord
  2
*D17
  0
BLOCK_RECORD
  5
2DD
100
AcDbSymbolTableRecord
100
AcDbBlockTableRecord
  2
*D18
  0
BLOCK_RECORD
  5
2EA
100
AcDbSymbolTableRecord
100
AcDbBlockTableRecord
  2
*D19
  0
ENDTAB
  0
ENDSEC
  0
SECTION
  2
BLOCKS
  0
BLOCK
  5
D
100
AcDbEntity
  8
0
100
AcDbBlockBegin
  2
*MODEL_SPACE
 70
             0
 10
0.0
 20
0.0
 30
0.0
  3
*MODEL_SPACE
  1

  0
ENDBLK
  5
E
100
AcDbEntity
  8
0
100
AcDbBlockEnd
  0
BLOCK
  5
F
100
AcDbEntity
 67
             1
  8
0
100
AcDbBlockBegin
  2
*PAPER_SPACE
 70
             0
 10
0.0
 20
0.0
 30
0.0
  3
*PAPER_SPACE
  1

  0
ENDBLK
  5
10
100
AcDbEntity
 67
             1
  8
0
100
AcDbBlockEnd
  0
BLOCK
  5
2A
100
AcDbEntity
  8
0
100
AcDbBlockBegin
  2
HL_44_MONTAGEPLATTE__1
 70
             0
 10
0.0
 20
-300.90312435330998
 30
0.0
  3
HL_44_MONTAGEPLATTE__1
  1

  0
TEXT
  5
1A3
100
AcDbEntity
  8
1
 62
             1
100
AcDbText
 10
91.00907250546385
 20
20.26746103485948
 40
6.0
  1
HL
 41
0.95
  7
CONVERTER_1
100
AcDbText
  0
ARC
  5
1A1
100
AcDbEntity
  8
1
  6
DASHED
 62
             7
100
AcDbCircle
 10
38.00999999999993
 20
-72.43612300001092
 40
6.0
100
AcDbArc
 50
-90.0
 51
-24.35780340597245
  0
ARC
  5
1A0
100
AcDbEntity
  8
1
  6
CONTINUOUS
 62
             7
100
AcDbCircle
 10
38.00999999999993
 20
-72.43612300001092
 40
6.00000000000001
100
AcDbArc
 50
-24.35780340597245
 51
0.0
  0
ARC
  5
19F
100
AcDbEntity
  8
1
  6
DASHED
 62
             7
100
AcDbCircle
 10
-37.99000000000007
 20
-72.43612300001092
 40
6.0
100
AcDbArc
 50
180.0
 51
-90.0
  0
ARC
  5
19E
100
AcDbEntity
  8
1
  6
CONTINUOUS
 62
             7
100
AcDbCircle
 10
49.00999999999993
 20
-30.43612300001092
 40
5.0
100
AcDbArc
 50
90.0
 51
180.0
  0
ARC
  5
19D
100
AcDbEntity
  8
1
  6
DASHED
 62
             7
100
AcDbCircle
 10
-48.99000000000007
 20
-30.43612300001092
 40
5.0
100
AcDbArc
 50
0.0
 51
90.0
  0
ARC
  5
19C
100
AcDbEntity
  8
1
  6
CONTINUOUS
 62
             7
100
AcDbCircle
 10
122.50999999999991
 20
8.56387699998908
 40
9.61769203083567
100
AcDbArc
 50
8.97262661489641
 51
98.9726266148964
  0
ARC
  5
19B
100
AcDbEntity
  8
1
  6
CONTINUOUS
 62
             7
100
AcDbCircle
 10
124.00999999999991
 20
-3.93612300001092
 40
8.0
100
AcDbArc
 50
-90.0
 51
0.0
  0
ARC
  5
19A
100
AcDbEntity
  8
1
  6
CONTINUOUS
 62
             7
100
AcDbCircle
 10
113.00999999999991
 20
-16.93612300001092
 40
5.0
100
AcDbArc
 50
90.0
 51
180.0
  0
ARC
  5
199
100
AcDbEntity
  8
1
  6
CONTINUOUS
 62
             7
100
AcDbCircle
 10
113.00999999999991
 20
23.06387699998908
 40
5.0
100
AcDbArc
 50
180.0
 51
-90.0
  0
ARC
  5
198
100
AcDbEntity
  8
1
  6
CONTINUOUS
 62
             7
100
AcDbCircle
 10
-112.99000000000009
 20
-16.93612300001092
 40
5.0
100
AcDbArc
 50
0.0
 51
90.0
  0
ARC
  5
197
100
AcDbEntity
  8
1
  6
CONTINUOUS
 62
             7
100
AcDbCircle
 10
-112.99000000000009
 20
23.06387699998908
 40
5.0
100
AcDbArc
 50
-90.0
 51
0.0
  0
ARC
  5
196
100
AcDbEntity
  8
1
  6
CONTINUOUS
 62
             7
100
AcDbCircle
 10
-99.99000000000007
 20
23.56387699998908
 40
8.0
100
AcDbArc
 50
90.0
 51
180.0
  0
ARC
  5
195
100
AcDbEntity
  8
1
  6
CONTINUOUS
 62
             7
100
AcDbCircle
 10
100.00999999999991
 20
23.56387699998908
 40
8.0
100
AcDbArc
 50
0.0
 51
90.0
  0
ARC
  5
194
100
AcDbEntity
  8
1
  6
CONTINUOUS
 62
             7
100
AcDbCircle
 10
100.00999999999991
 20
-17.43612300001092
 40
8.0
100
AcDbArc
 50
-90.0
 51
0.0
  0
ARC
  5
193
100
AcDbEntity
  8
1
  6
CONTINUOUS
 62
             7
100
AcDbCircle
 10
-99.99000000000007
 20
-17.43612300001092
 40
8.00000000000003
100
AcDbArc
 50
180.0
 51
-90.0
  0
ARC
  5
192
100
AcDbEntity
  8
1
  6
CONTINUOUS
 62
             7
100
AcDbCircle
 10
-123.99000000000009
 20
-3.93612300001092
 40
8.0
100
AcDbArc
 50
180.0
 51
-90.0
  0
ARC
  5
191
100
AcDbEntity
  8
1
  6
CONTINUOUS
 62
             7
100
AcDbCircle
 10
-123.99000000000009
 20
10.06387699998908
 40
8.0
100
AcDbArc
 50
90.0
 51
180.0
  0
CIRCLE
  5
190
100
AcDbEntity
  8
1
  6
DASHED
 62
             7
100
AcDbCircle
 10
-26.99000000000007
 20
-34.93612300000001
 40
1.5
  0
CIRCLE
  5
18F
100
AcDbEntity
  8
1
  6
CONTINUOUS
 62
             7
100
AcDbCircle
 10
-69.99000000000007
 20
3.06387699998908
 40
1.5
  0
CIRCLE
  5
18E
100
AcDbEntity
  8
1
  6
CONTINUOUS
 62
             7
100
AcDbCircle
 10
-79.99000000000007
 20
3.06387699998908
 40
1.5
  0
CIRCLE
  5
18D
100
AcDbEntity
  8
1
  6
CONTINUOUS
 62
             7
100
AcDbCircle
 10
-56.49000000000007
 20
3.06387699998908
 40
1.5
  0
CIRCLE
  5
18C
100
AcDbEntity
  8
1
  6
CONTINUOUS
 62
             7
100
AcDbCircle
 10
-96.49000000000007
 20
3.06387699998908
 40
1.5
  0
CIRCLE
  5
18B
100
AcDbEntity
  8
1
  6
CONTINUOUS
 62
             7
100
AcDbCircle
 10
-67.49000000000007
 20
12.06387699998908
 40
1.5
  0
CIRCLE
  5
18A
100
AcDbEntity
  8
1
  6
CONTINUOUS
 62
             7
100
AcDbCircle
 10
-42.49000000000007
 20
12.06387699998908
 40
1.5
  0
CIRCLE
  5
189
100
AcDbEntity
  8
1
  6
CONTINUOUS
 62
             7
100
AcDbCircle
 10
-93.99000000000007
 20
12.06387699998908
 40
1.5
  0
CIRCLE
  5
188
100
AcDbEntity
  8
1
  6
CONTINUOUS
 62
             7
100
AcDbCircle
 10
-67.49000000000007
 20
-5.93612300001092
 40
1.5
  0
CIRCLE
  5
187
100
AcDbEntity
  8
1
  6
CONTINUOUS
 62
             7
100
AcDbCircle
 10
-93.99000000000007
 20
-5.93612300001092
 40
1.5
  0
CIRCLE
  5
186
100
AcDbEntity
  8
1
  6
CONTINUOUS
 62
             7
100
AcDbCircle
 10
67.50999999999993
 20
12.06387699998908
 40
1.5
  0
CIRCLE
  5
185
100
AcDbEntity
  8
1
  6
CONTINUOUS
 62
             7
100
AcDbCircle
 10
42.50999999999993
 20
12.06387699998908
 40
1.5
  0
CIRCLE
  5
184
100
AcDbEntity
  8
1
  6
CONTINUOUS
 62
             7
100
AcDbCircle
 10
77.50999999999993
 20
12.06387699998908
 40
1.5
  0
CIRCLE
  5
183
100
AcDbEntity
  8
1
  6
CONTINUOUS
 62
             7
100
AcDbCircle
 10
94.00999999999993
 20
12.06387699998908
 40
1.5
  0
CIRCLE
  5
182
100
AcDbEntity
  8
1
  6
CONTINUOUS
 62
             7
100
AcDbCircle
 10
76.50999999999993
 20
-18.93612300001092
 40
1.5
  0
CIRCLE
  5
181
100
AcDbEntity
  8
1
  6
CONTINUOUS
 62
             7
100
AcDbCircle
 10
60.00999999999993
 20
-18.93612300001092
 40
1.5
  0
CIRCLE
  5
180
100
AcDbEntity
  8
1
  6
CONTINUOUS
 62
             7
100
AcDbCircle
 10
50.00999999999993
 20
-18.93612300001092
 40
1.5
  0
CIRCLE
  5
17F
100
AcDbEntity
  8
1
  6
CONTINUOUS
 62
             7
100
AcDbCircle
 10
40.00999999999993
 20
-18.93612300001092
 40
1.5
  0
CIRCLE
  5
17E
100
AcDbEntity
  8
1
  6
CONTINUOUS
 62
             7
100
AcDbCircle
 10
59.00999999999993
 20
-5.93612300001092
 40
1.5
  0
CIRCLE
  5
17D
100
AcDbEntity
  8
1
  6
CONTINUOUS
 62
             7
100
AcDbCircle
 10
67.50999999999993
 20
-5.93612300001092
 40
1.5
  0
CIRCLE
  5
17C
100
AcDbEntity
  8
1
  6
CONTINUOUS
 62
             7
100
AcDbCircle
 10
42.50999999999993
 20
-5.93612300001092
 40
1.5
  0
CIRCLE
  5
17B
100
AcDbEntity
  8
1
  6
CONTINUOUS
 62
             7
100
AcDbCircle
 10
77.50999999999993
 20
-5.93612300001092
 40
1.5
  0
CIRCLE
  5
17A
100
AcDbEntity
  8
1
  6
CONTINUOUS
 62
             7
100
AcDbCircle
 10
59.00999999999993
 20
-5.93612300001092
 40
1.5
  0
CIRCLE
  5
179
100
AcDbEntity
  8
1
  6
CONTINUOUS
 62
             7
100
AcDbCircle
 10
94.00999999999993
 20
-5.93612300001092
 40
1.5
  0
CIRCLE
  5
178
100
AcDbEntity
  8
1
  6
CONTINUOUS
 62
             7
100
AcDbCircle
 10
76.50999999999993
 20
25.06387699998908
 40
1.5
  0
CIRCLE
  5
177
100
AcDbEntity
  8
1
  6
CONTINUOUS
 62
             7
100
AcDbCircle
 10
60.00999999999993
 20
25.06387699998908
 40
1.5
  0
CIRCLE
  5
176
100
AcDbEntity
  8
1
  6
CONTINUOUS
 62
             7
100
AcDbCircle
 10
50.00999999999993
 20
25.06387699998908
 40
1.5
  0
CIRCLE
  5
175
100
AcDbEntity
  8
1
  6
CONTINUOUS
 62
             7
100
AcDbCircle
 10
40.00999999999993
 20
25.06387699998908
 40
1.5
  0
CIRCLE
  5
174
100
AcDbEntity
  8
1
  6
CONTINUOUS
 62
             7
100
AcDbCircle
 10
63.50999999999992
 20
8.06387699998908
 40
1.50000000000001
  0
CIRCLE
  5
173
100
AcDbEntity
  8
1
  6
CONTINUOUS
 62
             7
100
AcDbCircle
 10
73.50999999999993
 20
8.06387699998908
 40
1.5
  0
CIRCLE
  5
172
100
AcDbEntity
  8
1
  6
CONTINUOUS
 62
             7
100
AcDbCircle
 10
83.50999999999993
 20
8.06387699998908
 40
1.5
  0
CIRCLE
  5
171
100
AcDbEntity
  8
1
  6
CONTINUOUS
 62
             7
100
AcDbCircle
 10
53.00999999999993
 20
8.06387699998908
 40
1.5
  0
CIRCLE
  5
170
100
AcDbEntity
  8
1
  6
CONTINUOUS
 62
             7
100
AcDbCircle
 10
100.00999999999991
 20
8.06387699998908
 40
1.5
  0
CIRCLE
  5
16F
100
AcDbEntity
  8
1
  6
CONTINUOUS
 62
             7
100
AcDbCircle
 10
-63.49000000000007
 20
8.06387699998908
 40
1.49999999999999
  0
CIRCLE
  5
16E
100
AcDbEntity
  8
1
  6
CONTINUOUS
 62
             7
100
AcDbCircle
 10
-73.49000000000007
 20
8.06387699998908
 40
1.5
  0
CIRCLE
  5
16D
100
AcDbEntity
  8
1
  6
CONTINUOUS
 62
             7
100
AcDbCircle
 10
-83.49000000000007
 20
8.06387699998908
 40
1.5
  0
CIRCLE
  5
16C
100
AcDbEntity
  8
1
  6
CONTINUOUS
 62
             7
100
AcDbCircle
 10
-52.99000000000007
 20
8.06387699998908
 40
1.5
  0
CIRCLE
  5
16B
100
AcDbEntity
  8
1
  6
CONTINUOUS
 62
             7
100
AcDbCircle
 10
-99.99000000000007
 20
8.06387699998908
 40
1.50000000000003
  0
CIRCLE
  5
16A
100
AcDbEntity
  8
1
  6
CONTINUOUS
 62
             7
100
AcDbCircle
 10
-46.98999999999997
 20
3.06387699998908
 40
1.5
  0
CIRCLE
  5
169
100
AcDbEntity
  8
1
  6
CONTINUOUS
 62
             7
100
AcDbCircle
 10
-26.99000000000007
 20
27.06387699999999
 40
1.5
  0
CIRCLE
  5
168
100
AcDbEntity
  8
1
  6
CONTINUOUS
 62
             7
100
AcDbCircle
 10
38.00999999999993
 20
-9.93612300000001
 40
1.50000000000063
  0
CIRCLE
  5
167
100
AcDbEntity
  8
1
  6
DASHED
 62
             7
100
AcDbCircle
 10
38.00999999999993
 20
-71.93612300000001
 40
1.5
  0
ARC
  5
166
100
AcDbEntity
  8
1
  6
CONTINUOUS
 62
             7
100
AcDbCircle
 10
36.50999999999993
 20
8.06387699998908
 40
1.5
100
AcDbArc
 50
0.0
 51
99.39176922751396
  0
ARC
  5
165
100
AcDbEntity
  8
1
  6
CONTINUOUS
 62
             7
100
AcDbCircle
 10
118.00999999999991
 20
3.06387699998908
 40
5.0
100
AcDbArc
 50
90.0
 51
-90.0
  0
ARC
  5
164
100
AcDbEntity
  8
1
  6
CONTINUOUS
 62
             7
100
AcDbCircle
 10
122.00999999999991
 20
3.06387699998908
 40
5.0
100
AcDbArc
 50
-90.0
 51
90.0
  0
ARC
  5
163
100
AcDbEntity
  8
LC-001-002-----0
  6
CONTINUOUS
 62
             7
100
AcDbCircle
 10
118.00999999999991
 20
3.06387699998908
 40
3.0
100
AcDbArc
 50
90.0
 51
-90.0
  0
ARC
  5
162
100
AcDbEntity
  8
LC-001-002-----0
  6
CONTINUOUS
 62
             7
100
AcDbCircle
 10
122.00999999999991
 20
3.06387699998908
 40
3.0
100
AcDbArc
 50
-90.0
 51
90.0
  0
ARC
  5
161
100
AcDbEntity
  8
LC-001-002-----0
  6
CONTINUOUS
 62
             7
100
AcDbCircle
 10
-119.99000000000009
 20
1.06387699998908
 40
5.0
100
AcDbArc
 50
180.0
 51
0.0
  0
ARC
  5
160
100
AcDbEntity
  8
LC-001-002-----0
  6
CONTINUOUS
 62
             7
100
AcDbCircle
 10
-119.99000000000009
 20
5.06387699998908
 40
3.0
100
AcDbArc
 50
0.0
 51
180.0
  0
ARC
  5
15F
100
AcDbEntity
  8
LC-001-002-----0
  6
CONTINUOUS
 62
             7
100
AcDbCircle
 10
-119.99000000000009
 20
1.06387699998908
 40
3.0
100
AcDbArc
 50
180.0
 51
0.0
  0
ARC
  5
15E
100
AcDbEntity
  8
LC-001-002-----0
  6
CONTINUOUS
 62
             7
100
AcDbCircle
 10
-119.99000000000009
 20
5.06387699998908
 40
5.0
100
AcDbArc
 50
0.0
 51
180.0
  0
ARC
  5
15D
100
AcDbEntity
  8
LC-001-002-----0
  6
DASHED
 62
             7
100
AcDbCircle
 10
-1.98999999999936
 20
-58.93612300001092
 40
5.0
100
AcDbArc
 50
90.0
 51
-90.0
  0
ARC
  5
15C
100
AcDbEntity
  8
LC-001-002-----0
  6
DASHED
 62
             7
100
AcDbCircle
 10
2.00999999999993
 20
-58.93612300001092
 40
3.0
100
AcDbArc
 50
-89.99999999998644
 51
89.99999999998644
  0
ARC
  5
15B
100
AcDbEntity
  8
LC-001-002-----0
  6
DASHED
 62
             7
100
AcDbCircle
 10
-1.98999999999936
 20
-58.93612300001092
 40
3.0
100
AcDbArc
 50
90.0
 51
-90.0
  0
ARC
  5
15A
100
AcDbEntity
  8
LC-001-002-----0
  6
DASHED
 62
             7
100
AcDbCircle
 10
2.00999999999993
 20
-58.93612300001092
 40
5.0
100
AcDbArc
 50
-89.99999999999187
 51
89.99999999999187
  0
ARC
  5
159
100
AcDbEntity
  8
1
  6
CONTINUOUS
 62
             7
100
AcDbCircle
 10
-77.49000000000007
 20
12.06387699998908
 40
1.50000000000001
100
AcDbArc
 50
48.18968510422177
 51
-48.18968510422054
  0
ARC
  5
158
100
AcDbEntity
  8
1
  6
CONTINUOUS
 62
             7
100
AcDbCircle
 10
-77.49000000000007
 20
12.06387699998908
 40
1.49999999999997
100
AcDbArc
 50
-48.18968510422054
 51
48.18968510422177
  0
ARC
  5
157
100
AcDbEntity
  8
1
  6
CONTINUOUS
 62
             7
100
AcDbCircle
 10
-77.49000000000007
 20
-5.93612300001092
 40
1.50000000000001
100
AcDbArc
 50
48.1896851042219
 51
-48.18968510422045
  0
ARC
  5
156
100
AcDbEntity
  8
1
  6
CONTINUOUS
 62
             7
100
AcDbCircle
 10
-77.49000000000007
 20
-5.93612300001092
 40
1.49999999999997
100
AcDbArc
 50
-48.18968510422045
 51
48.1896851042219
  0
ARC
  5
155
100
AcDbEntity
  8
1
  6
CONTINUOUS
 62
             7
100
AcDbCircle
 10
-76.49000000000007
 20
25.06387699998908
 40
1.5
100
AcDbArc
 50
0.0
 51
90.0
  0
ARC
  5
154
100
AcDbEntity
  8
1
  6
CONTINUOUS
 62
             7
100
AcDbCircle
 10
-76.49000000000007
 20
25.06387699998908
 40
1.5
100
AcDbArc
 50
-90.0
 51
0.0
  0
ARC
  5
153
100
AcDbEntity
  8
1
  6
CONTINUOUS
 62
             7
100
AcDbCircle
 10
-76.49000000000007
 20
-18.93612300001092
 40
1.5
100
AcDbArc
 50
90.0
 51
-90.0
  0
ARC
  5
152
100
AcDbEntity
  8
1
  6
CONTINUOUS
 62
             7
100
AcDbCircle
 10
-76.49000000000007
 20
-18.93612300001092
 40
1.5
100
AcDbArc
 50
-90.0
 51
90.0
  0
ARC
  5
151
100
AcDbEntity
  8
1
  6
CONTINUOUS
 62
             7
100
AcDbCircle
 10
-76.49000000000007
 20
25.06387699998908
 40
1.5
100
AcDbArc
 50
90.0
 51
-90.0
  0
ARC
  5
150
100
AcDbEntity
  8
1
  6
CONTINUOUS
 62
             7
100
AcDbCircle
 10
-58.99000000000007
 20
12.06387699998908
 40
1.49999999999997
100
AcDbArc
 50
-131.81031489577944
 51
131.81031489577822
  0
ARC
  5
14F
100
AcDbEntity
  8
1
  6
CONTINUOUS
 62
             7
100
AcDbCircle
 10
-58.99000000000007
 20
12.06387699998908
 40
1.50000000000001
100
AcDbArc
 50
131.81031489577822
 51
180.0
  0
ARC
  5
14E
100
AcDbEntity
  8
1
  6
CONTINUOUS
 62
             7
100
AcDbCircle
 10
-58.99000000000007
 20
12.06387699998908
 40
1.49999999999997
100
AcDbArc
 50
-131.81031489577944
 51
131.81031489577822
  0
ARC
  5
14D
100
AcDbEntity
  8
1
  6
CONTINUOUS
 62
             7
100
AcDbCircle
 10
-58.99000000000007
 20
12.06387699998908
 40
1.50000000000001
100
AcDbArc
 50
131.81031489577822
 51
180.0
  0
ARC
  5
14C
100
AcDbEntity
  8
1
  6
CONTINUOUS
 62
             7
100
AcDbCircle
 10
-59.99000000000007
 20
25.06387699998908
 40
1.5
100
AcDbArc
 50
90.0
 51
-90.0
  0
ARC
  5
14B
100
AcDbEntity
  8
1
  6
CONTINUOUS
 62
             7
100
AcDbCircle
 10
-59.99000000000007
 20
25.06387699998908
 40
1.5
100
AcDbArc
 50
-90.0
 51
90.0
  0
ARC
  5
14A
100
AcDbEntity
  8
1
  6
CONTINUOUS
 62
             7
100
AcDbCircle
 10
-49.99000000000007
 20
25.06387699998908
 40
1.5
100
AcDbArc
 50
90.0
 51
-90.0
  0
ARC
  5
149
100
AcDbEntity
  8
1
  6
CONTINUOUS
 62
             7
100
AcDbCircle
 10
-49.99000000000007
 20
25.06387699998908
 40
1.5
100
AcDbArc
 50
-90.0
 51
90.0
  0
ARC
  5
148
100
AcDbEntity
  8
1
  6
CONTINUOUS
 62
             7
100
AcDbCircle
 10
-39.99000000000007
 20
25.06387699998908
 40
1.5
100
AcDbArc
 50
90.0
 51
-90.0
  0
ARC
  5
147
100
AcDbEntity
  8
1
  6
CONTINUOUS
 62
             7
100
AcDbCircle
 10
-39.99000000000007
 20
25.06387699998908
 40
1.5
100
AcDbArc
 50
-90.0
 51
90.0
  0
ARC
  5
146
100
AcDbEntity
  8
1
  6
CONTINUOUS
 62
             7
100
AcDbCircle
 10
-59.99000000000007
 20
-18.93612300001092
 40
1.5
100
AcDbArc
 50
-90.0
 51
90.0
  0
ARC
  5
145
100
AcDbEntity
  8
1
  6
CONTINUOUS
 62
             7
100
AcDbCircle
 10
-59.99000000000007
 20
-18.93612300001092
 40
1.5
100
AcDbArc
 50
90.0
 51
-90.0
  0
ARC
  5
144
100
AcDbEntity
  8
1
  6
CONTINUOUS
 62
             7
100
AcDbCircle
 10
-58.99000000000007
 20
-5.93612300001092
 40
1.5
100
AcDbArc
 50
180.0
 51
-131.81031489577956
  0
ARC
  5
143
100
AcDbEntity
  8
1
  6
CONTINUOUS
 62
             7
100
AcDbCircle
 10
-58.99000000000007
 20
-5.93612300001092
 40
1.50000000000001
100
AcDbArc
 50
131.81031489577811
 51
180.0
  0
ARC
  5
142
100
AcDbEntity
  8
1
  6
CONTINUOUS
 62
             7
100
AcDbCircle
 10
-58.99000000000007
 20
-5.93612300001092
 40
1.5
100
AcDbArc
 50
180.0
 51
-131.81031489577956
  0
ARC
  5
141
100
AcDbEntity
  8
1
  6
CONTINUOUS
 62
             7
100
AcDbCircle
 10
-58.99000000000007
 20
-5.93612300001092
 40
1.50000000000001
100
AcDbArc
 50
131.81031489577811
 51
180.0
  0
ARC
  5
140
100
AcDbEntity
  8
1
  6
CONTINUOUS
 62
             7
100
AcDbCircle
 10
-58.99000000000007
 20
12.06387699998908
 40
1.5
100
AcDbArc
 50
180.0
 51
-131.81031489577944
  0
ARC
  5
13F
100
AcDbEntity
  8
1
  6
CONTINUOUS
 62
             7
100
AcDbCircle
 10
-58.99000000000007
 20
12.06387699998908
 40
1.5
100
AcDbArc
 50
180.0
 51
-131.81031489577944
  0
ARC
  5
13E
100
AcDbEntity
  8
1
  6
CONTINUOUS
 62
             7
100
AcDbCircle
 10
-58.99000000000007
 20
-5.93612300001092
 40
1.49999999999997
100
AcDbArc
 50
-131.81031489577956
 51
131.81031489577811
  0
ARC
  5
13D
100
AcDbEntity
  8
1
  6
CONTINUOUS
 62
             7
100
AcDbCircle
 10
-58.99000000000007
 20
-5.93612300001092
 40
1.49999999999997
100
AcDbArc
 50
-131.81031489577956
 51
131.81031489577811
  0
ARC
  5
13C
100
AcDbEntity
  8
1
  6
CONTINUOUS
 62
             7
100
AcDbCircle
 10
-59.99000000000007
 20
3.06387699998908
 40
1.5
100
AcDbArc
 50
90.0
 51
-90.0
  0
ARC
  5
13B
100
AcDbEntity
  8
1
  6
CONTINUOUS
 62
             7
100
AcDbCircle
 10
-59.99000000000007
 20
3.06387699998908
 40
1.5
100
AcDbArc
 50
0.0
 51
90.0
  0
ARC
  5
13A
100
AcDbEntity
  8
1
  6
CONTINUOUS
 62
             7
100
AcDbCircle
 10
59.00999999999993
 20
12.06387699998908
 40
1.5
100
AcDbArc
 50
0.0
 51
-48.18968510422054
  0
ARC
  5
139
100
AcDbEntity
  8
1
  6
CONTINUOUS
 62
             7
100
AcDbCircle
 10
59.00999999999993
 20
12.06387699998908
 40
1.49999999999997
100
AcDbArc
 50
-48.18968510422054
 51
0.0
  0
ARC
  5
138
100
AcDbEntity
  8
1
  6
CONTINUOUS
 62
             7
100
AcDbCircle
 10
59.00999999999993
 20
12.06387699998908
 40
1.5
100
AcDbArc
 50
0.0
 51
-48.18968510422054
  0
ARC
  5
137
100
AcDbEntity
  8
1
  6
CONTINUOUS
 62
             7
100
AcDbCircle
 10
59.00999999999993
 20
12.06387699998908
 40
1.49999999999997
100
AcDbArc
 50
-48.18968510422054
 51
0.0
  0
ARC
  5
136
100
AcDbEntity
  8
1
  6
CONTINUOUS
 62
             7
100
AcDbCircle
 10
36.50999999999993
 20
8.06387699998908
 40
1.5
100
AcDbArc
 50
-74.48211681992534
 51
0.0
  0
ARC
  5
135
100
AcDbEntity
  8
1
  6
CONTINUOUS
 62
             7
100
AcDbCircle
 10
40.00999999999993
 20
3.06387699998908
 40
1.5
100
AcDbArc
 50
90.0
 51
180.0
  0
ARC
  5
134
100
AcDbEntity
  8
1
  6
CONTINUOUS
 62
             7
100
AcDbCircle
 10
40.00999999999993
 20
3.06387699998908
 40
1.5
100
AcDbArc
 50
0.0
 51
90.0
  0
ARC
  5
133
100
AcDbEntity
  8
1
  6
CONTINUOUS
 62
             7
100
AcDbCircle
 10
47.00999999999993
 20
3.06387699998908
 40
1.5
100
AcDbArc
 50
0.0
 51
180.0
  0
ARC
  5
132
100
AcDbEntity
  8
1
  6
CONTINUOUS
 62
             7
100
AcDbCircle
 10
47.00999999999993
 20
3.06387699998908
 40
1.5
100
AcDbArc
 50
180.0
 51
0.0
  0
ARC
  5
131
100
AcDbEntity
  8
1
  6
CONTINUOUS
 62
             7
100
AcDbCircle
 10
56.50999999999993
 20
3.06387699998908
 40
1.5
100
AcDbArc
 50
90.0
 51
180.0
  0
ARC
  5
130
100
AcDbEntity
  8
1
  6
CONTINUOUS
 62
             7
100
AcDbCircle
 10
56.50999999999993
 20
3.06387699998908
 40
1.5
100
AcDbArc
 50
0.0
 51
90.0
  0
ARC
  5
12F
100
AcDbEntity
  8
1
  6
CONTINUOUS
 62
             7
100
AcDbCircle
 10
60.00999999999993
 20
3.06387699998908
 40
1.5
100
AcDbArc
 50
180.0
 51
0.0
  0
ARC
  5
12E
100
AcDbEntity
  8
1
  6
CONTINUOUS
 62
             7
100
AcDbCircle
 10
60.00999999999993
 20
3.06387699998908
 40
1.49999999999999
100
AcDbArc
 50
0.0
 51
90.0
  0
ARC
  5
12D
100
AcDbEntity
  8
1
  6
CONTINUOUS
 62
             7
100
AcDbCircle
 10
70.00999999999993
 20
3.06387699998908
 40
1.5
100
AcDbArc
 50
90.0
 51
180.0
  0
ARC
  5
12C
100
AcDbEntity
  8
1
  6
CONTINUOUS
 62
             7
100
AcDbCircle
 10
70.00999999999993
 20
3.06387699998908
 40
1.5
100
AcDbArc
 50
0.0
 51
90.0
  0
ARC
  5
12B
100
AcDbEntity
  8
1
  6
CONTINUOUS
 62
             7
100
AcDbCircle
 10
80.00999999999993
 20
3.06387699998908
 40
1.5
100
AcDbArc
 50
90.0
 51
180.0
  0
ARC
  5
12A
100
AcDbEntity
  8
1
  6
CONTINUOUS
 62
             7
100
AcDbCircle
 10
80.00999999999993
 20
3.06387699998908
 40
1.5
100
AcDbArc
 50
0.0
 51
90.0
  0
ARC
  5
129
100
AcDbEntity
  8
1
  6
CONTINUOUS
 62
             7
100
AcDbCircle
 10
40.00999999999993
 20
3.06387699998908
 40
1.5
100
AcDbArc
 50
180.0
 51
0.0
  0
ARC
  5
128
100
AcDbEntity
  8
1
  6
CONTINUOUS
 62
             7
100
AcDbCircle
 10
70.00999999999993
 20
3.06387699998908
 40
1.5
100
AcDbArc
 50
180.0
 51
0.0
  0
ARC
  5
127
100
AcDbEntity
  8
1
  6
CONTINUOUS
 62
             7
100
AcDbCircle
 10
80.00999999999993
 20
3.06387699998908
 40
1.5
100
AcDbArc
 50
180.0
 51
0.0
  0
ARC
  5
126
100
AcDbEntity
  8
1
  6
CONTINUOUS
 62
             7
100
AcDbCircle
 10
56.50999999999993
 20
3.06387699998908
 40
1.5
100
AcDbArc
 50
180.0
 51
0.0
  0
ARC
  5
125
100
AcDbEntity
  8
1
  6
CONTINUOUS
 62
             7
100
AcDbCircle
 10
60.00999999999993
 20
3.06387699998908
 40
1.5
100
AcDbArc
 50
90.0
 51
180.0
  0
ARC
  5
124
100
AcDbEntity
  8
1
  6
CONTINUOUS
 62
             7
100
AcDbCircle
 10
96.50999999999993
 20
3.06387699998908
 40
1.5
100
AcDbArc
 50
90.0
 51
180.0
  0
ARC
  5
123
100
AcDbEntity
  8
1
  6
CONTINUOUS
 62
             7
100
AcDbCircle
 10
96.50999999999993
 20
3.06387699998908
 40
1.5
100
AcDbArc
 50
0.0
 51
90.0
  0
ARC
  5
122
100
AcDbEntity
  8
1
  6
CONTINUOUS
 62
             7
100
AcDbCircle
 10
96.50999999999993
 20
3.06387699998908
 40
1.5
100
AcDbArc
 50
180.0
 51
0.0
  0
ARC
  5
121
100
AcDbEntity
  8
1
  6
CONTINUOUS
 62
             7
100
AcDbCircle
 10
-59.99000000000007
 20
3.06387699998908
 40
1.5
100
AcDbArc
 50
-90.0
 51
0.0
  0
LINE
  5
120
100
AcDbEntity
  8
1
  6
PHANTOM
 62
             2
100
AcDbLine
 10
38.00999999999993
 20
-70.28612300000003
 11
38.00999999999993
 21
-73.58612299999999
  0
LINE
  5
11F
100
AcDbEntity
  8
1
  6
PHANTOM
 62
             2
100
AcDbLine
 10
39.65999999999993
 20
-71.93612300000001
 11
36.35999999999994
 21
-71.93612300000001
  0
LINE
  5
11E
100
AcDbEntity
  8
1
  6
PHANTOM
 62
             2
100
AcDbLine
 10
-26.99000000000007
 20
-33.28612300000001
 11
-26.99000000000007
 21
-36.58612300000001
  0
LINE
  5
11D
100
AcDbEntity
  8
1
  6
PHANTOM
 62
             2
100
AcDbLine
 10
-25.34000000000007
 20
-34.93612300000001
 11
-28.64000000000007
 21
-34.93612300000001
  0
LINE
  5
11C
100
AcDbEntity
  8
1
  6
DASHED
 62
             7
100
AcDbLine
 10
-52.23385547550533
 20
-25.43612300001092
 11
-48.99000000000007
 21
-25.43612300001092
  0
LINE
  5
11B
100
AcDbEntity
  8
0
  6
DASH_CENTER
 62
             2
100
AcDbLine
 10
0.00999999999993
 20
-68.43612300001092
 11
0.00999999999993
 21
-53.93612300001092
  0
LINE
  5
11A
100
AcDbEntity
  8
LC-001-002-----0
  6
DASHED
 62
             7
100
AcDbLine
 10
0.00999999999993
 20
-63.93612300001092
 11
-1.98999999999936
 21
-63.93612300001092
  0
LINE
  5
119
100
AcDbEntity
  8
0
  6
DASH_CENTER
 62
             2
100
AcDbLine
 10
0.00999999999993
 20
-53.93612300001092
 11
0.00999999999993
 21
-50.93612300001092
  0
LINE
  5
118
100
AcDbEntity
  8
LC-001-002-----0
  6
DASHED
 62
             7
100
AcDbLine
 10
0.00999999999993
 20
-53.93612300001092
 11
-1.98999999999936
 21
-53.93612300001092
  0
LINE
  5
117
100
AcDbEntity
  8
LC-001-002-----0
  6
DASHED
 62
             7
100
AcDbLine
 10
2.01000000000064
 20
-53.93612300001092
 11
0.00999999999993
 21
-53.93612300001092
  0
LINE
  5
116
100
AcDbEntity
  8
1
  6
CONTINUOUS
 62
             7
100
AcDbLine
 10
37.37462585403281
 20
3.06387699998908
 11
38.50999999999993
 21
3.06387699998908
  0
LINE
  5
115
100
AcDbEntity
  8
1
  6
CONTINUOUS
 62
             7
100
AcDbLine
 10
40.00999999999993
 20
-14.51869869495556
 11
40.00999999999993
 21
1.56387699998908
  0
LINE
  5
114
100
AcDbEntity
  8
1
  6
CONTINUOUS
 62
             7
100
AcDbLine
 10
-42.70552379849362
 20
3.06387699998908
 11
-45.49000000000018
 21
3.06387699998908
  0
LINE
  5
113
100
AcDbEntity
  8
0
  6
DASH_CENTER
 62
             2
100
AcDbLine
 10
8.01862159851893
 20
-58.93612300001092
 11
-8.32416943142306
 21
-58.93612300001092
  0
LINE
  5
112
100
AcDbEntity
  8
LC-001-002-----0
  6
DASHED
 62
             7
100
AcDbLine
 10
2.01000000000064
 20
-63.93612300001092
 11
0.00999999999993
 21
-63.93612300001092
  0
LINE
  5
111
100
AcDbEntity
  8
1
  6
DASH_CENTER
 62
             2
100
AcDbLine
 10
60.00999999999993
 20
4.71387699998689
 11
60.00999999999993
 21
1.41387699998762
  0
LINE
  5
110
100
AcDbEntity
  8
1
  6
DASH_CENTER
 62
             2
100
AcDbLine
 10
61.6599999999995
 20
3.06387699998908
 11
58.36000000000036
 21
3.06387699998908
  0
LINE
  5
10F
100
AcDbEntity
  8
1
  6
DASH_CENTER
 62
             2
100
AcDbLine
 10
70.00999999999993
 20
4.71387699998689
 11
70.00999999999993
 21
1.41387699998762
  0
LINE
  5
10E
100
AcDbEntity
  8
1
  6
DASH_CENTER
 62
             2
100
AcDbLine
 10
71.65999999999951
 20
3.06387699998908
 11
68.36000000000036
 21
3.06387699998908
  0
LINE
  5
10D
100
AcDbEntity
  8
1
  6
DASH_CENTER
 62
             2
100
AcDbLine
 10
40.00999999999993
 20
4.71387699998689
 11
40.00999999999993
 21
1.41387699998762
  0
LINE
  5
10C
100
AcDbEntity
  8
1
  6
DASH_CENTER
 62
             2
100
AcDbLine
 10
41.65999999999951
 20
3.06387699998908
 11
38.36000000000036
 21
3.06387699998908
  0
LINE
  5
10B
100
AcDbEntity
  8
1
  6
DASH_CENTER
 62
             2
100
AcDbLine
 10
80.00999999999993
 20
4.71387699998689
 11
80.00999999999993
 21
1.41387699998762
  0
LINE
  5
10A
100
AcDbEntity
  8
1
  6
DASH_CENTER
 62
             2
100
AcDbLine
 10
81.65999999999951
 20
3.06387699998908
 11
78.36000000000036
 21
3.06387699998908
  0
LINE
  5
109
100
AcDbEntity
  8
1
  6
DASH_CENTER
 62
             2
100
AcDbLine
 10
56.50999999999993
 20
4.71387699998689
 11
56.50999999999993
 21
1.41387699998762
  0
LINE
  5
108
100
AcDbEntity
  8
1
  6
DASH_CENTER
 62
             2
100
AcDbLine
 10
58.15999999999951
 20
3.06387699998908
 11
54.86000000000036
 21
3.06387699998908
  0
LINE
  5
107
100
AcDbEntity
  8
1
  6
DASH_CENTER
 62
             2
100
AcDbLine
 10
96.50999999999993
 20
4.71387699998689
 11
96.50999999999993
 21
1.41387699998762
  0
LINE
  5
106
100
AcDbEntity
  8
1
  6
DASH_CENTER
 62
             2
100
AcDbLine
 10
98.15999999999951
 20
3.06387699998908
 11
94.86000000000036
 21
3.06387699998908
  0
LINE
  5
105
100
AcDbEntity
  8
1
  6
DASH_CENTER
 62
             2
100
AcDbLine
 10
-59.99000000000007
 20
1.41387699998762
 11
-59.99000000000007
 21
4.71387699998689
  0
LINE
  5
104
100
AcDbEntity
  8
1
  6
DASH_CENTER
 62
             2
100
AcDbLine
 10
-58.34000000000046
 20
3.06387699998908
 11
-61.63999999999967
 21
3.06387699998908
  0
LINE
  5
103
100
AcDbEntity
  8
1
  6
DASH_CENTER
 62
             2
100
AcDbLine
 10
-69.99000000000007
 20
1.41387699998762
 11
-69.99000000000007
 21
4.71387699998689
  0
LINE
  5
102
100
AcDbEntity
  8
1
  6
DASH_CENTER
 62
             2
100
AcDbLine
 10
-68.34000000000046
 20
3.06387699998908
 11
-71.63999999999967
 21
3.06387699998908
  0
LINE
  5
101
100
AcDbEntity
  8
1
  6
DASH_CENTER
 62
             2
100
AcDbLine
 10
-79.99000000000007
 20
1.41387699998762
 11
-79.99000000000007
 21
4.71387699998689
  0
LINE
  5
100
100
AcDbEntity
  8
1
  6
DASH_CENTER
 62
             2
100
AcDbLine
 10
-78.34000000000046
 20
3.06387699998908
 11
-81.63999999999967
 21
3.06387699998908
  0
LINE
  5
FF
100
AcDbEntity
  8
1
  6
DASH_CENTER
 62
             2
100
AcDbLine
 10
-56.49000000000007
 20
1.41387699998762
 11
-56.49000000000007
 21
4.71387699998689
  0
LINE
  5
FE
100
AcDbEntity
  8
1
  6
DASH_CENTER
 62
             2
100
AcDbLine
 10
-54.84000000000046
 20
3.06387699998908
 11
-58.13999999999967
 21
3.06387699998908
  0
LINE
  5
FD
100
AcDbEntity
  8
1
  6
DASH_CENTER
 62
             2
100
AcDbLine
 10
-96.49000000000007
 20
1.41387699998762
 11
-96.49000000000007
 21
4.71387699998689
  0
LINE
  5
FC
100
AcDbEntity
  8
1
  6
DASH_CENTER
 62
             2
100
AcDbLine
 10
-94.84000000000046
 20
3.06387699998908
 11
-98.13999999999966
 21
3.06387699998908
  0
LINE
  5
FB
100
AcDbEntity
  8
1
  6
DASH_CENTER
 62
             2
100
AcDbLine
 10
-67.49000000000007
 20
10.41387699998762
 11
-67.49000000000007
 21
13.71387699998689
  0
LINE
  5
FA
100
AcDbEntity
  8
1
  6
DASH_CENTER
 62
             2
100
AcDbLine
 10
-65.84000000000046
 20
12.06387699998908
 11
-69.13999999999967
 21
12.06387699998908
  0
LINE
  5
F9
100
AcDbEntity
  8
1
  6
DASH_CENTER
 62
             2
100
AcDbLine
 10
-42.49000000000007
 20
10.41387699998762
 11
-42.49000000000007
 21
13.71387699998689
  0
LINE
  5
F8
100
AcDbEntity
  8
1
  6
DASH_CENTER
 62
             2
100
AcDbLine
 10
-40.84000000000046
 20
12.06387699998908
 11
-44.13999999999967
 21
12.06387699998908
  0
LINE
  5
F7
100
AcDbEntity
  8
1
  6
DASH_CENTER
 62
             2
100
AcDbLine
 10
-77.49000000000007
 20
10.41387699998762
 11
-77.49000000000007
 21
13.71387699998689
  0
LINE
  5
F6
100
AcDbEntity
  8
1
  6
DASH_CENTER
 62
             2
100
AcDbLine
 10
-75.84000000000046
 20
12.06387699998908
 11
-79.13999999999967
 21
12.06387699998908
  0
LINE
  5
F5
100
AcDbEntity
  8
1
  6
DASH_CENTER
 62
             2
100
AcDbLine
 10
-58.99000000000007
 20
10.41387699998762
 11
-58.99000000000007
 21
13.71387699998689
  0
LINE
  5
F4
100
AcDbEntity
  8
1
  6
DASH_CENTER
 62
             2
100
AcDbLine
 10
-60.63999999999967
 20
12.06387699998908
 11
-57.34000000000046
 21
12.06387699998908
  0
LINE
  5
F3
100
AcDbEntity
  8
1
  6
DASH_CENTER
 62
             2
100
AcDbLine
 10
-93.99000000000007
 20
10.41387699998762
 11
-93.99000000000007
 21
13.71387699998689
  0
LINE
  5
F2
100
AcDbEntity
  8
1
  6
DASH_CENTER
 62
             2
100
AcDbLine
 10
-92.34000000000046
 20
12.06387699998908
 11
-95.63999999999966
 21
12.06387699998908
  0
LINE
  5
F1
100
AcDbEntity
  8
1
  6
DASH_CENTER
 62
             2
100
AcDbLine
 10
-76.49000000000007
 20
-17.28612300001311
 11
-76.49000000000007
 21
-20.58612300001238
  0
LINE
  5
F0
100
AcDbEntity
  8
1
  6
DASH_CENTER
 62
             2
100
AcDbLine
 10
-74.84000000000046
 20
-18.93612300001092
 11
-78.13999999999967
 21
-18.93612300001092
  0
LINE
  5
EF
100
AcDbEntity
  8
1
  6
DASH_CENTER
 62
             2
100
AcDbLine
 10
-59.99000000000007
 20
-17.28612300001311
 11
-59.99000000000007
 21
-20.58612300001238
  0
LINE
  5
EE
100
AcDbEntity
  8
1
  6
DASH_CENTER
 62
             2
100
AcDbLine
 10
-58.34000000000046
 20
-18.93612300001092
 11
-61.63999999999967
 21
-18.93612300001092
  0
LINE
  5
ED
100
AcDbEntity
  8
1
  6
DASH_CENTER
 62
             2
100
AcDbLine
 10
-67.49000000000007
 20
-7.58612300001238
 11
-67.49000000000007
 21
-4.28612300001311
  0
LINE
  5
EC
100
AcDbEntity
  8
1
  6
DASH_CENTER
 62
             2
100
AcDbLine
 10
-69.13999999999967
 20
-5.93612300001092
 11
-65.84000000000046
 21
-5.93612300001092
  0
LINE
  5
EB
100
AcDbEntity
  8
1
  6
DASH_CENTER
 62
             2
100
AcDbLine
 10
-77.49000000000007
 20
-7.58612300001238
 11
-77.49000000000007
 21
-4.28612300001311
  0
LINE
  5
EA
100
AcDbEntity
  8
1
  6
DASH_CENTER
 62
             2
100
AcDbLine
 10
-79.13999999999967
 20
-5.93612300001092
 11
-75.84000000000046
 21
-5.93612300001092
  0
LINE
  5
E9
100
AcDbEntity
  8
1
  6
DASH_CENTER
 62
             2
100
AcDbLine
 10
-58.99000000000007
 20
-7.58612300001238
 11
-58.99000000000007
 21
-4.28612300001311
  0
LINE
  5
E8
100
AcDbEntity
  8
1
  6
DASH_CENTER
 62
             2
100
AcDbLine
 10
-57.34000000000046
 20
-5.93612300001092
 11
-60.63999999999967
 21
-5.93612300001092
  0
LINE
  5
E7
100
AcDbEntity
  8
1
  6
DASH_CENTER
 62
             2
100
AcDbLine
 10
-93.99000000000007
 20
-7.58612300001238
 11
-93.99000000000007
 21
-4.28612300001311
  0
LINE
  5
E6
100
AcDbEntity
  8
1
  6
DASH_CENTER
 62
             2
100
AcDbLine
 10
-95.63999999999966
 20
-5.93612300001092
 11
-92.34000000000046
 21
-5.93612300001092
  0
LINE
  5
E5
100
AcDbEntity
  8
1
  6
DASH_CENTER
 62
             2
100
AcDbLine
 10
-76.49000000000007
 20
26.71387699998689
 11
-76.49000000000007
 21
23.41387699998762
  0
LINE
  5
E4
100
AcDbEntity
  8
1
  6
DASH_CENTER
 62
             2
100
AcDbLine
 10
-78.13999999999967
 20
25.06387699998908
 11
-74.84000000000046
 21
25.06387699998908
  0
LINE
  5
E3
100
AcDbEntity
  8
1
  6
DASH_CENTER
 62
             2
100
AcDbLine
 10
-59.99000000000007
 20
26.71387699998689
 11
-59.99000000000007
 21
23.41387699998762
  0
LINE
  5
E2
100
AcDbEntity
  8
1
  6
DASH_CENTER
 62
             2
100
AcDbLine
 10
-61.63999999999967
 20
25.06387699998908
 11
-58.34000000000046
 21
25.06387699998908
  0
LINE
  5
E1
100
AcDbEntity
  8
1
  6
DASH_CENTER
 62
             2
100
AcDbLine
 10
-49.99000000000007
 20
26.71387699998689
 11
-49.99000000000007
 21
23.41387699998762
  0
LINE
  5
E0
100
AcDbEntity
  8
1
  6
DASH_CENTER
 62
             2
100
AcDbLine
 10
-51.63999999999967
 20
25.06387699998908
 11
-48.34000000000046
 21
25.06387699998908
  0
LINE
  5
DF
100
AcDbEntity
  8
1
  6
DASH_CENTER
 62
             2
100
AcDbLine
 10
-39.99000000000007
 20
26.71387699998689
 11
-39.99000000000007
 21
23.41387699998762
  0
LINE
  5
DE
100
AcDbEntity
  8
1
  6
DASH_CENTER
 62
             2
100
AcDbLine
 10
-41.63999999999967
 20
25.06387699998908
 11
-38.34000000000046
 21
25.06387699998908
  0
LINE
  5
DD
100
AcDbEntity
  8
1
  6
DASH_CENTER
 62
             2
100
AcDbLine
 10
67.50999999999993
 20
13.71387699998689
 11
67.50999999999993
 21
10.41387699998762
  0
LINE
  5
DC
100
AcDbEntity
  8
1
  6
DASH_CENTER
 62
             2
100
AcDbLine
 10
69.15999999999951
 20
12.06387699998908
 11
65.86000000000036
 21
12.06387699998908
  0
LINE
  5
DB
100
AcDbEntity
  8
1
  6
DASH_CENTER
 62
             2
100
AcDbLine
 10
42.50999999999993
 20
13.71387699998689
 11
42.50999999999993
 21
10.41387699998762
  0
LINE
  5
DA
100
AcDbEntity
  8
1
  6
DASH_CENTER
 62
             2
100
AcDbLine
 10
44.15999999999951
 20
12.06387699998908
 11
40.86000000000036
 21
12.06387699998908
  0
LINE
  5
D9
100
AcDbEntity
  8
1
  6
DASH_CENTER
 62
             2
100
AcDbLine
 10
77.50999999999993
 20
13.71387699998689
 11
77.50999999999993
 21
10.41387699998762
  0
LINE
  5
D8
100
AcDbEntity
  8
1
  6
DASH_CENTER
 62
             2
100
AcDbLine
 10
79.15999999999951
 20
12.06387699998908
 11
75.86000000000036
 21
12.06387699998908
  0
LINE
  5
D7
100
AcDbEntity
  8
1
  6
DASH_CENTER
 62
             2
100
AcDbLine
 10
59.00999999999993
 20
13.71387699998689
 11
59.00999999999993
 21
10.41387699998762
  0
LINE
  5
D6
100
AcDbEntity
  8
1
  6
DASH_CENTER
 62
             2
100
AcDbLine
 10
57.36000000000036
 20
12.06387699998908
 11
60.65999999999951
 21
12.06387699998908
  0
LINE
  5
D5
100
AcDbEntity
  8
1
  6
DASH_CENTER
 62
             2
100
AcDbLine
 10
94.00999999999993
 20
13.71387699998689
 11
94.00999999999993
 21
10.41387699998762
  0
LINE
  5
D4
100
AcDbEntity
  8
1
  6
DASH_CENTER
 62
             2
100
AcDbLine
 10
95.65999999999951
 20
12.06387699998908
 11
92.36000000000036
 21
12.06387699998908
  0
LINE
  5
D3
100
AcDbEntity
  8
1
  6
DASH_CENTER
 62
             2
100
AcDbLine
 10
76.50999999999993
 20
-20.58612300001238
 11
76.50999999999993
 21
-17.28612300001311
  0
LINE
  5
D2
100
AcDbEntity
  8
1
  6
DASH_CENTER
 62
             2
100
AcDbLine
 10
78.15999999999951
 20
-18.93612300001092
 11
74.86000000000036
 21
-18.93612300001092
  0
LINE
  5
D1
100
AcDbEntity
  8
1
  6
DASH_CENTER
 62
             2
100
AcDbLine
 10
60.00999999999993
 20
-20.58612300001238
 11
60.00999999999993
 21
-17.28612300001311
  0
LINE
  5
D0
100
AcDbEntity
  8
1
  6
DASH_CENTER
 62
             2
100
AcDbLine
 10
61.6599999999995
 20
-18.93612300001092
 11
58.36000000000036
 21
-18.93612300001092
  0
LINE
  5
CF
100
AcDbEntity
  8
1
  6
DASH_CENTER
 62
             2
100
AcDbLine
 10
50.00999999999993
 20
-20.58612300001238
 11
50.00999999999993
 21
-17.28612300001311
  0
LINE
  5
CE
100
AcDbEntity
  8
1
  6
DASH_CENTER
 62
             2
100
AcDbLine
 10
51.65999999999951
 20
-18.93612300001092
 11
48.36000000000036
 21
-18.93612300001092
  0
LINE
  5
CD
100
AcDbEntity
  8
1
  6
DASH_CENTER
 62
             2
100
AcDbLine
 10
40.00999999999993
 20
-20.58612300001238
 11
40.00999999999993
 21
-17.28612300001311
  0
LINE
  5
CC
100
AcDbEntity
  8
1
  6
DASH_CENTER
 62
             2
100
AcDbLine
 10
41.65999999999951
 20
-18.93612300001092
 11
38.36000000000036
 21
-18.93612300001092
  0
LINE
  5
CB
100
AcDbEntity
  8
1
  6
DASH_CENTER
 62
             2
100
AcDbLine
 10
67.50999999999993
 20
-4.28612300001311
 11
67.50999999999993
 21
-7.58612300001238
  0
LINE
  5
CA
100
AcDbEntity
  8
1
  6
DASH_CENTER
 62
             2
100
AcDbLine
 10
65.86000000000036
 20
-5.93612300001092
 11
69.15999999999951
 21
-5.93612300001092
  0
LINE
  5
C9
100
AcDbEntity
  8
1
  6
DASH_CENTER
 62
             2
100
AcDbLine
 10
42.50999999999993
 20
-4.28612300001311
 11
42.50999999999993
 21
-7.58612300001238
  0
LINE
  5
C8
100
AcDbEntity
  8
1
  6
DASH_CENTER
 62
             2
100
AcDbLine
 10
40.86000000000036
 20
-5.93612300001092
 11
44.15999999999951
 21
-5.93612300001092
  0
LINE
  5
C7
100
AcDbEntity
  8
1
  6
DASH_CENTER
 62
             2
100
AcDbLine
 10
77.50999999999993
 20
-4.28612300001311
 11
77.50999999999993
 21
-7.58612300001238
  0
LINE
  5
C6
100
AcDbEntity
  8
1
  6
DASH_CENTER
 62
             2
100
AcDbLine
 10
75.86000000000036
 20
-5.93612300001092
 11
79.15999999999951
 21
-5.93612300001092
  0
LINE
  5
C5
100
AcDbEntity
  8
1
  6
DASH_CENTER
 62
             2
100
AcDbLine
 10
59.00999999999993
 20
-4.28612300001311
 11
59.00999999999993
 21
-7.58612300001238
  0
LINE
  5
C4
100
AcDbEntity
  8
1
  6
DASH_CENTER
 62
             2
100
AcDbLine
 10
60.65999999999951
 20
-5.93612300001092
 11
57.36000000000036
 21
-5.93612300001092
  0
LINE
  5
C3
100
AcDbEntity
  8
1
  6
DASH_CENTER
 62
             2
100
AcDbLine
 10
94.00999999999993
 20
-4.28612300001311
 11
94.00999999999993
 21
-7.58612300001238
  0
LINE
  5
C2
100
AcDbEntity
  8
1
  6
DASH_CENTER
 62
             2
100
AcDbLine
 10
92.36000000000036
 20
-5.93612300001092
 11
95.65999999999951
 21
-5.93612300001092
  0
LINE
  5
C1
100
AcDbEntity
  8
1
  6
DASH_CENTER
 62
             2
100
AcDbLine
 10
76.50999999999993
 20
23.41387699998762
 11
76.50999999999993
 21
26.71387699998689
  0
LINE
  5
C0
100
AcDbEntity
  8
1
  6
DASH_CENTER
 62
             2
100
AcDbLine
 10
74.86000000000036
 20
25.06387699998908
 11
78.15999999999951
 21
25.06387699998908
  0
LINE
  5
BF
100
AcDbEntity
  8
1
  6
DASH_CENTER
 62
             2
100
AcDbLine
 10
60.00999999999993
 20
23.41387699998762
 11
60.00999999999993
 21
26.71387699998689
  0
LINE
  5
BE
100
AcDbEntity
  8
1
  6
DASH_CENTER
 62
             2
100
AcDbLine
 10
58.36000000000036
 20
25.06387699998908
 11
61.6599999999995
 21
25.06387699998908
  0
LINE
  5
BD
100
AcDbEntity
  8
1
  6
DASH_CENTER
 62
             2
100
AcDbLine
 10
50.00999999999993
 20
23.41387699998762
 11
50.00999999999993
 21
26.71387699998689
  0
LINE
  5
BC
100
AcDbEntity
  8
1
  6
DASH_CENTER
 62
             2
100
AcDbLine
 10
48.36000000000036
 20
25.06387699998908
 11
51.65999999999951
 21
25.06387699998908
  0
LINE
  5
BB
100
AcDbEntity
  8
1
  6
DASH_CENTER
 62
             2
100
AcDbLine
 10
40.00999999999993
 20
23.41387699998762
 11
40.00999999999993
 21
26.71387699998689
  0
LINE
  5
BA
100
AcDbEntity
  8
1
  6
DASH_CENTER
 62
             2
100
AcDbLine
 10
38.36000000000036
 20
25.06387699998908
 11
41.65999999999951
 21
25.06387699998908
  0
LINE
  5
B9
100
AcDbEntity
  8
1
  6
DASH_CENTER
 62
             2
100
AcDbLine
 10
63.50999999999992
 20
9.71387699998326
 11
63.50999999999992
 21
6.41387699998762
  0
LINE
  5
B8
100
AcDbEntity
  8
1
  6
DASH_CENTER
 62
             2
100
AcDbLine
 10
65.16000000000145
 20
8.06387699998908
 11
61.85999999999841
 21
8.06387699998908
  0
LINE
  5
B7
100
AcDbEntity
  8
1
  6
DASH_CENTER
 62
             2
100
AcDbLine
 10
73.50999999999993
 20
9.71387699998326
 11
73.50999999999993
 21
6.41387699998762
  0
LINE
  5
B6
100
AcDbEntity
  8
1
  6
DASH_CENTER
 62
             2
100
AcDbLine
 10
75.16000000000145
 20
8.06387699998908
 11
71.85999999999842
 21
8.06387699998908
  0
LINE
  5
B5
100
AcDbEntity
  8
1
  6
DASH_CENTER
 62
             2
100
AcDbLine
 10
36.50999999999993
 20
9.71387699998326
 11
36.50999999999993
 21
6.41387699998762
  0
LINE
  5
B4
100
AcDbEntity
  8
1
  6
DASH_CENTER
 62
             2
100
AcDbLine
 10
38.16000000000145
 20
8.06387699998908
 11
34.85999999999842
 21
8.06387699998908
  0
LINE
  5
B3
100
AcDbEntity
  8
1
  6
DASH_CENTER
 62
             2
100
AcDbLine
 10
83.50999999999993
 20
9.71387699998326
 11
83.50999999999993
 21
6.41387699998762
  0
LINE
  5
B2
100
AcDbEntity
  8
1
  6
DASH_CENTER
 62
             2
100
AcDbLine
 10
85.16000000000145
 20
8.06387699998908
 11
81.85999999999842
 21
8.06387699998908
  0
LINE
  5
B1
100
AcDbEntity
  8
1
  6
DASH_CENTER
 62
             2
100
AcDbLine
 10
53.00999999999993
 20
9.71387699998326
 11
53.00999999999993
 21
6.41387699998762
  0
LINE
  5
B0
100
AcDbEntity
  8
1
  6
DASH_CENTER
 62
             2
100
AcDbLine
 10
54.66000000000145
 20
8.06387699998908
 11
51.35999999999842
 21
8.06387699998908
  0
LINE
  5
AF
100
AcDbEntity
  8
1
  6
DASH_CENTER
 62
             2
100
AcDbLine
 10
100.00999999999991
 20
9.71387699998326
 11
100.00999999999991
 21
6.41387699998762
  0
LINE
  5
AE
100
AcDbEntity
  8
1
  6
DASH_CENTER
 62
             2
100
AcDbLine
 10
101.6600000000014
 20
8.06387699998908
 11
98.35999999999842
 21
8.06387699998908
  0
LINE
  5
AD
100
AcDbEntity
  8
1
  6
DASH_CENTER
 62
             2
100
AcDbLine
 10
-63.49000000000007
 20
6.41387699998762
 11
-63.49000000000007
 21
9.71387699998326
  0
LINE
  5
AC
100
AcDbEntity
  8
1
  6
DASH_CENTER
 62
             2
100
AcDbLine
 10
-61.83999999999855
 20
8.06387699998908
 11
-65.14000000000158
 21
8.06387699998908
  0
LINE
  5
AB
100
AcDbEntity
  8
1
  6
DASH_CENTER
 62
             2
100
AcDbLine
 10
-73.49000000000007
 20
6.41387699998762
 11
-73.49000000000007
 21
9.71387699998326
  0
LINE
  5
AA
100
AcDbEntity
  8
1
  6
DASH_CENTER
 62
             2
100
AcDbLine
 10
-71.83999999999855
 20
8.06387699998908
 11
-75.14000000000158
 21
8.06387699998908
  0
LINE
  5
A9
100
AcDbEntity
  8
1
  6
DASH_CENTER
 62
             2
100
AcDbLine
 10
-83.49000000000007
 20
6.41387699998762
 11
-83.49000000000007
 21
9.71387699998326
  0
LINE
  5
A8
100
AcDbEntity
  8
1
  6
DASH_CENTER
 62
             2
100
AcDbLine
 10
-81.83999999999855
 20
8.06387699998908
 11
-85.14000000000158
 21
8.06387699998908
  0
LINE
  5
A7
100
AcDbEntity
  8
1
  6
DASH_CENTER
 62
             2
100
AcDbLine
 10
-52.99000000000007
 20
6.41387699998762
 11
-52.99000000000007
 21
9.71387699998326
  0
LINE
  5
A6
100
AcDbEntity
  8
1
  6
DASH_CENTER
 62
             2
100
AcDbLine
 10
-51.33999999999855
 20
8.06387699998908
 11
-54.64000000000158
 21
8.06387699998908
  0
LINE
  5
A5
100
AcDbEntity
  8
1
  6
DASH_CENTER
 62
             2
100
AcDbLine
 10
-99.99000000000007
 20
6.41387699998762
 11
-99.99000000000007
 21
9.71387699998326
  0
LINE
  5
A4
100
AcDbEntity
  8
1
  6
DASH_CENTER
 62
             2
100
AcDbLine
 10
-98.33999999999857
 20
8.06387699998908
 11
-101.64000000000161
 21
8.06387699998908
  0
LINE
  5
A3
100
AcDbEntity
  8
1
  6
DASHED
 62
             7
100
AcDbLine
 10
38.00999999999993
 20
-78.43612300001092
 11
-37.99000000000007
 21
-78.43612300001092
  0
LINE
  5
A2
100
AcDbEntity
  8
1
  6
DASH_CENTER
 62
             2
100
AcDbLine
 10
-119.99000000000009
 20
11.8240463268836
 11
-119.99000000000009
 21
-8.1759536731164
  0
LINE
  5
A1
100
AcDbEntity
  8
1
  6
CONTINUOUS
 62
             7
100
AcDbLine
 10
-131.99000000000009
 20
3.06387699998908
 11
-131.99000000000009
 21
10.06387699998908
  0
LINE
  5
A0
100
AcDbEntity
  8
1
  6
CONTINUOUS
 62
             7
100
AcDbLine
 10
132.00999999999991
 20
3.06387699998908
 11
132.00999999999991
 21
-3.93612300001092
  0
LINE
  5
9F
100
AcDbEntity
  8
1
  6
DASH_CENTER
 62
             2
100
AcDbLine
 10
120.00999999999991
 20
8.5942998694909
 11
120.00999999999991
 21
-3.4057001305091
  0
LINE
  5
9E
100
AcDbEntity
  8
LC-001-002-----0
  6
CONTINUOUS
 62
             7
100
AcDbLine
 10
118.00999999999991
 20
8.06387699998908
 11
122.00999999999991
 21
8.06387699998908
  0
LINE
  5
9D
100
AcDbEntity
  8
LC-001-002-----0
  6
CONTINUOUS
 62
             7
100
AcDbLine
 10
118.00999999999991
 20
-1.93612300001092
 11
118.0049999999989
 21
-1.93612300001092
  0
LINE
  5
9C
100
AcDbEntity
  8
LC-001-002-----0
  6
CONTINUOUS
 62
             7
100
AcDbLine
 10
122.00999999999991
 20
-1.93612300001092
 11
118.00999999999991
 21
-1.93612300001092
  0
LINE
  5
9B
100
AcDbEntity
  8
LC-001-002-----0
  6
CONTINUOUS
 62
             7
100
AcDbLine
 10
122.00999999999991
 20
0.06387699998908
 11
118.00999999999991
 21
0.06387699998908
  0
LINE
  5
9A
100
AcDbEntity
  8
LC-001-002-----0
  6
CONTINUOUS
 62
             7
100
AcDbLine
 10
122.00999999999991
 20
6.06387699998908
 11
118.00999999999991
 21
6.06387699998908
  0
LINE
  5
99
100
AcDbEntity
  8
LC-001-002-----0
  6
CONTINUOUS
 62
             7
100
AcDbLine
 10
-114.99000000000009
 20
5.06387699998908
 11
-114.99000000000009
 21
1.06387699998908
  0
LINE
  5
98
100
AcDbEntity
  8
LC-001-002-----0
  6
CONTINUOUS
 62
             7
100
AcDbLine
 10
-116.99000000000009
 20
5.06387699998908
 11
-116.99000000000009
 21
1.06387699998908
  0
LINE
  5
97
100
AcDbEntity
  8
LC-001-002-----0
  6
CONTINUOUS
 62
             7
100
AcDbLine
 10
-122.99000000000009
 20
5.06387699998908
 11
-122.99000000000009
 21
1.06387699998908
  0
LINE
  5
96
100
AcDbEntity
  8
LC-001-002-----0
  6
CONTINUOUS
 62
             7
100
AcDbLine
 10
-124.99000000000009
 20
5.06387699998908
 11
-124.99000000000009
 21
1.06387699998908
  0
LINE
  5
95
100
AcDbEntity
  8
1
  6
DOT_CENTER
 62
             2
100
AcDbLine
 10
106.4220762372329
 20
3.06387699998908
 11
107.00999999999991
 21
3.06387699998908
  0
LINE
  5
94
100
AcDbEntity
  8
1
  6
DASH_CENTER
 62
             2
100
AcDbLine
 10
-131.99000000000009
 20
3.06387699998908
 11
-106.4094717010811
 21
3.06387699998908
  0
LINE
  5
93
100
AcDbEntity
  8
1
  6
DASH_CENTER
 62
             2
100
AcDbLine
 10
-46.98999999999997
 20
1.4138769999891
 11
-46.98999999999997
 21
4.71387699998911
  0
LINE
  5
92
100
AcDbEntity
  8
1
  6
DASH_CENTER
 62
             2
100
AcDbLine
 10
-45.34000000000006
 20
3.06387699998908
 11
-48.63999999999996
 21
3.06387699998908
  0
LINE
  5
91
100
AcDbEntity
  8
1
  6
DASH_CENTER
 62
             2
100
AcDbLine
 10
47.00999999999993
 20
4.71387699998911
 11
47.00999999999993
 21
1.4138769999891
  0
LINE
  5
90
100
AcDbEntity
  8
1
  6
DASH_CENTER
 62
             2
100
AcDbLine
 10
48.65999999999991
 20
3.06387699998908
 11
45.35999999999996
 21
3.06387699998908
  0
LINE
  5
8F
100
AcDbEntity
  8
1
  6
CONTINUOUS
 62
             7
100
AcDbLine
 10
75.00999999999993
 20
31.56387699998908
 11
-74.99000000000007
 21
31.56387699998908
  0
LINE
  5
8E
100
AcDbEntity
  8
1
  6
DASH_CENTER
 62
             2
100
AcDbLine
 10
-26.99000000000007
 20
28.71387699999997
 11
-26.99000000000007
 21
25.41387700000001
  0
LINE
  5
8D
100
AcDbEntity
  8
1
  6
DASH_CENTER
 62
             2
100
AcDbLine
 10
-25.34000000000006
 20
27.06387699999999
 11
-28.64000000000008
 21
27.06387699999999
  0
LINE
  5
8C
100
AcDbEntity
  8
1
  6
DASH_CENTER
 62
             2
100
AcDbLine
 10
38.00999999999993
 20
-8.28612299999929
 11
38.00999999999993
 21
-11.58612300000067
  0
LINE
  5
8B
100
AcDbEntity
  8
1
  6
DASH_CENTER
 62
             2
100
AcDbLine
 10
39.66000000000065
 20
-9.93612300000001
 11
36.3599999999992
 21
-9.93612300000001
  0
LINE
  5
8A
100
AcDbEntity
  8
1
  6
CONTINUOUS
 62
             7
100
AcDbLine
 10
-107.99000000000009
 20
-16.93612300001092
 11
-107.99000000000009
 21
-17.43612300001092
  0
LINE
  5
89
100
AcDbEntity
  8
1
  6
CONTINUOUS
 62
             7
100
AcDbLine
 10
-107.99000000000009
 20
23.06387699998908
 11
-107.99000000000009
 21
23.56387699998908
  0
LINE
  5
88
100
AcDbEntity
  8
1
  6
CONTINUOUS
 62
             7
100
AcDbLine
 10
108.00999999999991
 20
23.06387699998908
 11
108.00999999999991
 21
23.56387699998908
  0
LINE
  5
87
100
AcDbEntity
  8
1
  6
CONTINUOUS
 62
             7
100
AcDbLine
 10
108.00999999999991
 20
-16.93612300001092
 11
108.00999999999991
 21
-17.43612300001092
  0
LINE
  5
86
100
AcDbEntity
  8
1
  6
DASHED
 62
             7
100
AcDbLine
 10
-43.99000000000007
 20
-30.43612300001092
 11
-43.99000000000007
 21
-72.43612300001092
  0
LINE
  5
85
100
AcDbEntity
  8
1
  6
CONTINUOUS
 62
             7
100
AcDbLine
 10
44.00999999999993
 20
-30.43612300001092
 11
44.00999999999993
 21
-72.43612300001092
  0
LINE
  5
84
100
AcDbEntity
  8
1
  6
CONTINUOUS
 62
             7
100
AcDbLine
 10
-99.99000000000007
 20
-25.43612300001092
 11
-74.99000000000007
 21
-25.43612300001092
  0
LINE
  5
83
100
AcDbEntity
  8
1
  6
CONTINUOUS
 62
             7
100
AcDbLine
 10
100.00999999999991
 20
31.56387699998908
 11
75.00999999999993
 21
31.56387699998908
  0
LINE
  5
82
100
AcDbEntity
  8
1
  6
CONTINUOUS
 62
             7
100
AcDbLine
 10
-74.99000000000007
 20
31.56387699998908
 11
-99.99000000000007
 21
31.56387699998908
  0
LINE
  5
81
100
AcDbEntity
  8
1
  6
CONTINUOUS
 62
             7
100
AcDbLine
 10
-74.99000000000007
 20
-25.43612300001092
 11
-52.23385547550533
 21
-25.43612300001092
  0
LINE
  5
80
100
AcDbEntity
  8
1
  6
CONTINUOUS
 62
             7
100
AcDbLine
 10
49.00999999999993
 20
-25.43612300001092
 11
75.00999999999993
 21
-25.43612300001092
  0
LINE
  5
7F
100
AcDbEntity
  8
1
  6
CONTINUOUS
 62
             7
100
AcDbLine
 10
75.00999999999993
 20
-25.43612300001092
 11
100.00999999999991
 21
-25.43612300001092
  0
LINE
  5
7E
100
AcDbEntity
  8
1
  6
CONTINUOUS
 62
             7
100
AcDbLine
 10
113.00999999999991
 20
18.06387699998908
 11
121.00999999999991
 21
18.06387699998908
  0
LINE
  5
7D
100
AcDbEntity
  8
1
  6
CONTINUOUS
 62
             7
100
AcDbLine
 10
124.00999999999991
 20
-11.93612300001092
 11
113.00999999999991
 21
-11.93612300001092
  0
LINE
  5
7C
100
AcDbEntity
  8
1
  6
CONTINUOUS
 62
             7
100
AcDbLine
 10
132.00999999999991
 20
10.06387699998908
 11
132.00999999999991
 21
3.06387699998908
  0
LINE
  5
7B
100
AcDbEntity
  8
1
  6
CONTINUOUS
 62
             7
100
AcDbLine
 10
-112.99000000000009
 20
-11.93612300001092
 11
-123.99000000000009
 21
-11.93612300001092
  0
LINE
  5
7A
100
AcDbEntity
  8
1
  6
CONTINUOUS
 62
             7
100
AcDbLine
 10
-131.99000000000009
 20
-3.93612300001092
 11
-131.99000000000009
 21
3.06387699998908
  0
LINE
  5
79
100
AcDbEntity
  8
1
  6
CONTINUOUS
 62
             7
100
AcDbLine
 10
-123.99000000000009
 20
18.06387699998908
 11
-112.99000000000009
 21
18.06387699998908
  0
LINE
  5
78
100
AcDbEntity
  8
LC-001-002-----0
  6
DASHED
 62
             7
100
AcDbLine
 10
2.01000000000064
 20
-61.93612300001092
 11
-1.98999999999936
 21
-61.93612300001092
  0
LINE
  5
77
100
AcDbEntity
  8
LC-001-002-----0
  6
DASHED
 62
             7
100
AcDbLine
 10
2.01000000000064
 20
-55.93612300001092
 11
-1.98999999999936
 21
-55.93612300001092
  0
LINE
  5
76
100
AcDbEntity
  8
1
  6
CONTINUOUS
 62
             7
100
AcDbLine
 10
-76.49000000000007
 20
30.56387699998908
 11
-76.49000000000007
 21
26.56387699998908
  0
LINE
  5
75
100
AcDbEntity
  8
1
  6
CONTINUOUS
 62
             7
100
AcDbLine
 10
-76.49000000000007
 20
23.56387699998908
 11
-76.49000000000007
 21
13.18191098873899
  0
LINE
  5
74
100
AcDbEntity
  8
1
  6
CONTINUOUS
 62
             7
100
AcDbLine
 10
-76.49000000000007
 20
-7.05415698876078
 11
-76.49000000000007
 21
-17.43612300001092
  0
LINE
  5
73
100
AcDbEntity
  8
1
  6
CONTINUOUS
 62
             7
100
AcDbLine
 10
-76.49000000000007
 20
-24.43612300001092
 11
-76.49000000000007
 21
-20.43612300001092
  0
LINE
  5
72
100
AcDbEntity
  8
1
  6
CONTINUOUS
 62
             7
100
AcDbLine
 10
-76.49000000000007
 20
10.94584301123922
 11
-76.49000000000007
 21
-4.81808901126101
  0
LINE
  5
71
100
AcDbEntity
  8
1
  6
CONTINUOUS
 62
             7
100
AcDbLine
 10
-59.99000000000007
 20
-24.43612300001092
 11
-59.99000000000007
 21
-20.43612300001092
  0
LINE
  5
70
100
AcDbEntity
  8
1
  6
CONTINUOUS
 62
             7
100
AcDbLine
 10
-59.99000000000007
 20
30.56387699998908
 11
-59.99000000000007
 21
26.56387699998908
  0
LINE
  5
6F
100
AcDbEntity
  8
1
  6
CONTINUOUS
 62
             7
100
AcDbLine
 10
-49.99000000000007
 20
30.56387699998908
 11
-49.99000000000007
 21
26.56387699998908
  0
LINE
  5
6E
100
AcDbEntity
  8
1
  6
CONTINUOUS
 62
             7
100
AcDbLine
 10
-39.99000000000007
 20
30.56387699998908
 11
-39.99000000000007
 21
26.56387699998908
  0
LINE
  5
6D
100
AcDbEntity
  8
1
  6
CONTINUOUS
 62
             7
100
AcDbLine
 10
-59.99000000000007
 20
23.56387699998908
 11
-59.99000000000007
 21
13.18191098873899
  0
LINE
  5
6C
100
AcDbEntity
  8
1
  6
CONTINUOUS
 62
             7
100
AcDbLine
 10
-49.99000000000007
 20
23.56387699998908
 11
-49.99000000000007
 21
13.18191098873899
  0
LINE
  5
6B
100
AcDbEntity
  8
1
  6
CONTINUOUS
 62
             7
100
AcDbLine
 10
-39.99000000000007
 20
23.56387699998908
 11
-39.99000000000007
 21
6.9461664570327
  0
LINE
  5
6A
100
AcDbEntity
  8
1
  6
CONTINUOUS
 62
             7
100
AcDbLine
 10
-59.99000000000007
 20
-7.05415698876078
 11
-59.99000000000007
 21
-17.43612300001092
  0
LINE
  5
69
100
AcDbEntity
  8
1
  6
CONTINUOUS
 62
             7
100
AcDbLine
 10
-49.99000000000007
 20
13.18191098873899
 11
-49.99000000000007
 21
-8.66510534797202
  0
LINE
  5
68
100
AcDbEntity
  8
1
  6
CONTINUOUS
 62
             7
100
AcDbLine
 10
-59.99000000000007
 20
1.56387699998908
 11
-59.99000000000007
 21
-4.81808901126101
  0
LINE
  5
67
100
AcDbEntity
  8
1
  6
CONTINUOUS
 62
             7
100
AcDbLine
 10
76.50999999999993
 20
-20.43612300001092
 11
76.50999999999993
 21
-24.43612300001092
  0
LINE
  5
66
100
AcDbEntity
  8
1
  6
CONTINUOUS
 62
             7
100
AcDbLine
 10
60.00999999999993
 20
-20.43612300001092
 11
60.00999999999993
 21
-24.43612300001092
  0
LINE
  5
65
100
AcDbEntity
  8
1
  6
CONTINUOUS
 62
             7
100
AcDbLine
 10
50.00999999999993
 20
-20.43612300001092
 11
50.00999999999993
 21
-24.43612300001092
  0
LINE
  5
64
100
AcDbEntity
  8
1
  6
CONTINUOUS
 62
             7
100
AcDbLine
 10
40.00999999999993
 20
-20.43612300001092
 11
40.00999999999993
 21
-24.43612300001092
  0
LINE
  5
63
100
AcDbEntity
  8
1
  6
CONTINUOUS
 62
             7
100
AcDbLine
 10
40.00999999999993
 20
-17.43612300001092
 11
40.00999999999993
 21
-14.51869869495556
  0
LINE
  5
62
100
AcDbEntity
  8
1
  6
CONTINUOUS
 62
             7
100
AcDbLine
 10
50.00999999999993
 20
-17.43612300001092
 11
50.00999999999993
 21
23.41387699998762
  0
LINE
  5
61
100
AcDbEntity
  8
1
  6
CONTINUOUS
 62
             7
100
AcDbLine
 10
60.00999999999993
 20
-17.43612300001092
 11
60.00999999999993
 21
-7.05415698876078
  0
LINE
  5
60
100
AcDbEntity
  8
1
  6
CONTINUOUS
 62
             7
100
AcDbLine
 10
76.50999999999993
 20
-17.43612300001092
 11
76.50999999999993
 21
-7.05415698876078
  0
LINE
  5
5F
100
AcDbEntity
  8
1
  6
CONTINUOUS
 62
             7
100
AcDbLine
 10
76.50999999999993
 20
-4.81808901126101
 11
76.50999999999993
 21
10.94584301123922
  0
LINE
  5
5E
100
AcDbEntity
  8
1
  6
CONTINUOUS
 62
             7
100
AcDbLine
 10
60.00999999999993
 20
-4.81808901126101
 11
60.00999999999993
 21
1.56387699998908
  0
LINE
  5
5D
100
AcDbEntity
  8
1
  6
CONTINUOUS
 62
             7
100
AcDbLine
 10
76.50999999999993
 20
26.56387699998908
 11
76.50999999999993
 21
30.56387699998908
  0
LINE
  5
5C
100
AcDbEntity
  8
1
  6
CONTINUOUS
 62
             7
100
AcDbLine
 10
60.00999999999993
 20
26.56387699998908
 11
60.00999999999993
 21
30.56387699998908
  0
LINE
  5
5B
100
AcDbEntity
  8
1
  6
CONTINUOUS
 62
             7
100
AcDbLine
 10
50.00999999999993
 20
26.56387699998908
 11
50.00999999999993
 21
30.56387699998908
  0
LINE
  5
5A
100
AcDbEntity
  8
1
  6
CONTINUOUS
 62
             7
100
AcDbLine
 10
40.00999999999993
 20
26.56387699998908
 11
40.00999999999993
 21
30.56387699998908
  0
LINE
  5
59
100
AcDbEntity
  8
1
  6
CONTINUOUS
 62
             7
100
AcDbLine
 10
40.00999999999993
 20
4.56387699998908
 11
40.00999999999993
 21
23.56387699998908
  0
LINE
  5
58
100
AcDbEntity
  8
1
  6
CONTINUOUS
 62
             7
100
AcDbLine
 10
60.00999999999993
 20
13.18191098873899
 11
60.00999999999993
 21
23.56387699998908
  0
LINE
  5
57
100
AcDbEntity
  8
1
  6
CONTINUOUS
 62
             7
100
AcDbLine
 10
76.50999999999993
 20
13.18191098873899
 11
76.50999999999993
 21
23.56387699998908
  0
LINE
  5
56
100
AcDbEntity
  8
1
  6
CONTINUOUS
 62
             7
100
AcDbLine
 10
-59.99000000000007
 20
10.94584301123922
 11
-59.99000000000007
 21
4.56387699998908
  0
LINE
  5
55
100
AcDbEntity
  8
1
  6
CONTINUOUS
 62
             7
100
AcDbLine
 10
60.00999999999993
 20
10.94584301123922
 11
60.00999999999993
 21
4.56387699998908
  0
LINE
  5
54
100
AcDbEntity
  8
1
  6
CONTINUOUS
 62
             7
100
AcDbLine
 10
107.00999999999991
 20
8.06387699998908
 11
101.50999999999991
 21
8.06387699998908
  0
LINE
  5
53
100
AcDbEntity
  8
1
  6
CONTINUOUS
 62
             7
100
AcDbLine
 10
98.35999999999842
 20
8.06387699998908
 11
85.00999999999993
 21
8.06387699998908
  0
LINE
  5
52
100
AcDbEntity
  8
1
  6
CONTINUOUS
 62
             7
100
AcDbLine
 10
81.85999999999842
 20
8.06387699998908
 11
75.16000000000145
 21
8.06387699998908
  0
LINE
  5
51
100
AcDbEntity
  8
1
  6
CONTINUOUS
 62
             7
100
AcDbLine
 10
65.16000000000145
 20
8.06387699998908
 11
71.85999999999842
 21
8.06387699998908
  0
LINE
  5
50
100
AcDbEntity
  8
1
  6
CONTINUOUS
 62
             7
100
AcDbLine
 10
36.50999999999993
 20
8.06387699998908
 11
38.00999999999993
 21
8.06387699998908
  0
LINE
  5
4F
100
AcDbEntity
  8
1
  6
CONTINUOUS
 62
             7
100
AcDbLine
 10
54.66000000000145
 20
8.06387699998908
 11
61.85999999999841
 21
8.06387699998908
  0
LINE
  5
4E
100
AcDbEntity
  8
1
  6
CONTINUOUS
 62
             7
100
AcDbLine
 10
38.00999999999993
 20
8.06387699998908
 11
51.35999999999842
 21
8.06387699998908
  0
LINE
  5
4D
100
AcDbEntity
  8
1
  6
CONTINUOUS
 62
             7
100
AcDbLine
 10
81.50999999999993
 20
3.06387699998908
 11
95.00999999999993
 21
3.06387699998908
  0
LINE
  5
4C
100
AcDbEntity
  8
1
  6
CONTINUOUS
 62
             7
100
AcDbLine
 10
107.00999999999991
 20
3.06387699998908
 11
98.00999999999993
 21
3.06387699998908
  0
LINE
  5
4B
100
AcDbEntity
  8
1
  6
DASH_CENTER
 62
             2
100
AcDbLine
 10
107.00999999999991
 20
3.06387699998908
 11
135.00999999999991
 21
3.06387699998908
  0
LINE
  5
4A
100
AcDbEntity
  8
1
  6
CONTINUOUS
 62
             7
100
AcDbLine
 10
71.50999999999993
 20
3.06387699998908
 11
78.50999999999993
 21
3.06387699998908
  0
LINE
  5
49
100
AcDbEntity
  8
1
  6
CONTINUOUS
 62
             7
100
AcDbLine
 10
61.50999999999992
 20
3.06387699998908
 11
68.50999999999993
 21
3.06387699998908
  0
LINE
  5
48
100
AcDbEntity
  8
1
  6
CONTINUOUS
 62
             7
100
AcDbLine
 10
55.00999999999993
 20
3.06387699998908
 11
48.50999999999993
 21
3.06387699998908
  0
LINE
  5
47
100
AcDbEntity
  8
1
  6
CONTINUOUS
 62
             7
100
AcDbLine
 10
45.50999999999993
 20
3.06387699998908
 11
41.50999999999993
 21
3.06387699998908
  0
LINE
  5
46
100
AcDbEntity
  8
1
  6
CONTINUOUS
 62
             7
100
AcDbLine
 10
58.50999999999993
 20
3.06387699998908
 11
58.00999999999993
 21
3.06387699998908
  0
LINE
  5
45
100
AcDbEntity
  8
1
  6
CONTINUOUS
 62
             7
100
AcDbLine
 10
-51.33999999999855
 20
8.06387699998908
 11
-39.12107900738613
 21
8.06387699998907
  0
LINE
  5
44
100
AcDbEntity
  8
1
  6
CONTINUOUS
 62
             7
100
AcDbLine
 10
-48.48999999999997
 20
3.06387699998908
 11
-54.99000000000018
 21
3.06387699998908
  0
LINE
  5
43
100
AcDbEntity
  8
1
  6
CONTINUOUS
 62
             7
100
AcDbLine
 10
-61.83999999999855
 20
8.06387699998908
 11
-54.64000000000158
 21
8.06387699998908
  0
LINE
  5
42
100
AcDbEntity
  8
1
  6
CONTINUOUS
 62
             7
100
AcDbLine
 10
-68.49000000000018
 20
3.06387699998908
 11
-61.49000000000018
 21
3.06387699998908
  0
LINE
  5
41
100
AcDbEntity
  8
1
  6
CONTINUOUS
 62
             7
100
AcDbLine
 10
-71.83999999999855
 20
8.06387699998908
 11
-65.14000000000158
 21
8.06387699998908
  0
LINE
  5
40
100
AcDbEntity
  8
1
  6
CONTINUOUS
 62
             7
100
AcDbLine
 10
-78.49000000000018
 20
3.06387699998908
 11
-71.49000000000018
 21
3.06387699998908
  0
LINE
  5
3F
100
AcDbEntity
  8
1
  6
CONTINUOUS
 62
             7
100
AcDbLine
 10
-75.14000000000158
 20
8.06387699998908
 11
-81.83999999999855
 21
8.06387699998908
  0
LINE
  5
3E
100
AcDbEntity
  8
1
  6
CONTINUOUS
 62
             7
100
AcDbLine
 10
-94.99000000000017
 20
3.06387699998908
 11
-81.49000000000018
 21
3.06387699998908
  0
LINE
  5
3D
100
AcDbEntity
  8
1
  6
CONTINUOUS
 62
             7
100
AcDbLine
 10
-84.99000000000007
 20
8.06387699998908
 11
-98.33999999999857
 21
8.06387699998908
  0
LINE
  5
3C
100
AcDbEntity
  8
1
  6
CONTINUOUS
 62
             7
100
AcDbLine
 10
-101.49000000000009
 20
8.06387699998908
 11
-106.99000000000019
 21
8.06387699998908
  0
LINE
  5
3B
100
AcDbEntity
  8
1
  6
CONTINUOUS
 62
             7
100
AcDbLine
 10
-97.99000000000017
 20
3.06387699998908
 11
-106.99000000000019
 21
3.06387699998908
  0
LINE
  5
3A
100
AcDbEntity
  8
1
  6
CONTINUOUS
 62
             7
100
AcDbLine
 10
-57.99000000000007
 20
3.06387699998908
 11
-58.49000000000007
 21
3.06387699998908
  0
ENDBLK
  5
1A4
100
AcDbEntity
  8
0
100
AcDbBlockEnd
  0
BLOCK
  5
2C
100
AcDbEntity
  8
0
100
AcDbBlockBegin
  2
SIFONEINSATZ
 70
             0
 10
-31.41026470000017
 20
-78.11612300000002
 30
0.0
  3
SIFONEINSATZ
  1

  0
CIRCLE
  5
1AE
100
AcDbEntity
  8
LC-001-002-----0
  6
CONTINUOUS
 62
             7
100
AcDbCircle
 10
0.01999999999992
 20
0.06387699999993
 40
16.500003
  0
CIRCLE
  5
1AD
100
AcDbEntity
  8
LC-001-002-----0
  6
CONTINUOUS
 62
             7
100
AcDbCircle
 10
0.00999999999993
 20
-0.00000000000006
 40
24.75
  0
ARC
  5
1AC
100
AcDbEntity
  8
1
  6
CONTINUOUS
 62
             7
100
AcDbCircle
 10
0.00999999999993
 20
-0.00000000000006
 40
28.56387700000008
100
AcDbArc
 50
-157.87439307428124
 51
0.0
  0
ARC
  5
1AB
100
AcDbEntity
  8
1
  6
CONTINUOUS
 62
             7
100
AcDbCircle
 10
0.00999999999993
 20
-0.00000000000006
 40
28.56387700000005
100
AcDbArc
 50
0.0
 51
177.87439593916608
  0
LINE
  5
1AA
100
AcDbEntity
  8
1
  6
PHANTOM
 62
             2
100
AcDbLine
 10
0.00999999999993
 20
31.42026470000002
 11
0.00999999999993
 21
-31.42026470000013
  0
LINE
  5
1A9
100
AcDbEntity
  8
1
  6
PHANTOM
 62
             2
100
AcDbLine
 10
31.43026470000001
 20
-0.00000000000006
 11
-31.41026470000017
 21
-0.00000000000006
  0
LINE
  5
1A8
100
AcDbEntity
  8
LC-001-002-----0
  6
CONTINUOUS
 62
             7
100
AcDbLine
 10
16.34148999999985
 20
2.48443099999997
 11
19.0542749999999
 21
-15.80753400000003
  0
LINE
  5
1A7
100
AcDbEntity
  8
LC-001-002-----0
  6
CONTINUOUS
 62
             7
100
AcDbLine
 10
-16.14903900000007
 20
-3.22432600000002
 11
-12.45663000000005
 21
-21.38096400000006
  0
LINE
  5
1A6
100
AcDbEntity
  8
LC-001-002-----0
  6
CONTINUOUS
 62
             7
100
AcDbLine
 10
-22.59503500000005
 20
-10.07843800000006
 11
-26.45044435911797
 21
-10.75825048923662
  0
LINE
  5
1A5
100
AcDbEntity
  8
LC-001-002-----0
  6
CONTINUOUS
 62
             7
100
AcDbLine
 10
-24.67881300000005
 20
1.73925499999996
 11
-28.53422273421526
 21
1.05944219787665
  0
ENDBLK
  5
1AF
100
AcDbEntity
  8
0
100
AcDbBlockEnd
  0
BLOCK
  5
2E
100
AcDbEntity
  8
0
100
AcDbBlockBegin
  2
EINBAUSIFON__2
 70
             0
 10
-87.57947943432617
 20
-170.92853199999999
 30
0.0
  3
EINBAUSIFON__2
  1

  0
CIRCLE
  5
1DF
100
AcDbEntity
  8
LC-001-002-----0
  6
CONTINUOUS
 62
             7
100
AcDbCircle
 10
0.00999999999993
 20
-0.00000000000006
 40
37.49999999999999
  0
CIRCLE
  5
1DE
100
AcDbEntity
  8
LC-001-002-----0
  6
CONTINUOUS
 62
             7
100
AcDbCircle
 10
0.00999999999993
 20
-0.00000000000006
 40
36.49999999999999
  0
CIRCLE
  5
1DD
100
AcDbEntity
  8
LC-001-002-----0
  6
CONTINUOUS
 62
             7
100
AcDbCircle
 10
-54.98000000000016
 20
-9.93612300000001
 40
5.0
  0
CIRCLE
  5
1DC
100
AcDbEntity
  8
LC-001-002-----0
  6
CONTINUOUS
 62
             7
100
AcDbCircle
 10
-54.98000000000016
 20
-9.93612300000001
 40
3.0
  0
ARC
  5
1DB
100
AcDbEntity
  8
LC-001-002-----0
  6
CONTINUOUS
 62
             7
100
AcDbCircle
 10
5.31204700000001
 20
0.99877099999998
 40
30.00000000000006
100
AcDbArc
 50
178.58563609345089
 51
-158.34039238407698
  0
ARC
  5
1DA
100
AcDbEntity
  8
LC-001-002-----0
  6
CONTINUOUS
 62
             7
100
AcDbCircle
 10
0.00999999999993
 20
0.06387699999999
 40
30.0000000000003
100
AcDbArc
 50
178.58563500000042
 51
-158.34039299999935
  0
ARC
  5
1D9
100
AcDbEntity
  8
LC-006-002-RND-0
  6
CONTINUOUS
 62
             7
100
AcDbCircle
 10
23.05999999999989
 20
-97.67273800000004
 40
2.0
100
AcDbArc
 50
90.0
 51
180.0
  0
ARC
  5
1D8
100
AcDbEntity
  8
LC-006-002-RND-0
  6
CONTINUOUS
 62
             7
100
AcDbCircle
 10
25.69909699999988
 20
-77.67273800000004
 40
18.0
100
AcDbArc
 50
-90.0
 51
10.00000000000056
  0
ARC
  5
1D7
100
AcDbEntity
  8
LC-001-002-----0
  6
CONTINUOUS
 62
             7
100
AcDbCircle
 10
-17.53642600000006
 20
-91.57853200000005
 40
24.55000000000037
100
AcDbArc
 50
-170.00000000000063
 51
-90.0
  0
ARC
  5
1D6
100
AcDbEntity
  8
LC-001-002-----0
  6
CONTINUOUS
 62
             7
100
AcDbCircle
 10
8.61025099999989
 20
-29.93184200000002
 40
60.99999999999996
100
AcDbArc
 50
136.20456300000038
 51
-168.40532300000032
  0
ARC
  5
1D5
100
AcDbEntity
  8
LC-001-002-----0
  6
CONTINUOUS
 62
             7
100
AcDbCircle
 10
-26.98000000000016
 20
27.06387699999999
 40
3.00000000000038
100
AcDbArc
 50
28.80437799999356
 51
-118.96099399999804
  0
ARC
  5
1D4
100
AcDbEntity
  8
LC-001-002-----0
  6
CONTINUOUS
 62
             7
100
AcDbCircle
 10
-26.98000000000016
 20
27.06387699999999
 40
4.99999999999989
100
AcDbArc
 50
32.89169300000487
 51
-123.04830899999951
  0
ARC
  5
1D3
100
AcDbEntity
  8
LC-001-002-----0
  6
CONTINUOUS
 62
             7
100
AcDbCircle
 10
38.01999999999992
 20
-9.93612300000001
 40
4.99999999999952
100
AcDbArc
 50
-129.04004799999893
 51
99.74052499999733
  0
ARC
  5
1D2
100
AcDbEntity
  8
LC-001-002-----0
  6
CONTINUOUS
 62
             7
100
AcDbCircle
 10
38.01999999999992
 20
-9.93612300000001
 40
3.00000000000035
100
AcDbArc
 50
-142.99320499999612
 51
113.69368200001054
  0
ARC
  5
1D1
100
AcDbEntity
  8
LC-001-002-----0
  6
DASHED
 62
             2
100
AcDbCircle
 10
38.01999999999992
 20
-9.93612300000001
 40
2.99999999999968
100
AcDbArc
 50
113.69368200001054
 51
-142.99320499999612
  0
LINE
  5
1D0
100
AcDbEntity
  8
LC-001-002-----0
  6
CONTINUOUS
 62
             7
100
AcDbLine
 10
-50.12613500000006
 20
-10.93612300000001
 11
-49.34665900000007
 21
-10.93612300000001
  0
LINE
  5
1CF
100
AcDbEntity
  8
1
  6
PHANTOM
 62
             2
100
AcDbLine
 10
38.01999999999992
 20
-4.43612300000035
 11
38.01999999999992
 21
-15.43612299999978
  0
LINE
  5
1CE
100
AcDbEntity
  8
1
  6
PHANTOM
 62
             2
100
AcDbLine
 10
43.5199999999997
 20
-9.93612300000001
 11
32.52000000000015
 21
-9.93612300000001
  0
LINE
  5
1CD
100
AcDbEntity
  8
1
  6
PHANTOM
 62
             2
100
AcDbLine
 10
-26.98000000000016
 20
32.56387699999999
 11
-26.98000000000016
 21
21.56387699999988
  0
LINE
  5
1CC
100
AcDbEntity
  8
1
  6
PHANTOM
 62
             2
100
AcDbLine
 10
-21.48000000000005
 20
27.06387699999999
 11
-32.48000000000016
 21
27.06387699999999
  0
LINE
  5
1CB
100
AcDbEntity
  8
1
  6
PHANTOM
 62
             2
100
AcDbLine
 10
-54.98000000000016
 20
-4.43612300000001
 11
-54.98000000000016
 21
-15.43612300000001
  0
LINE
  5
1CA
100
AcDbEntity
  8
1
  6
PHANTOM
 62
             2
100
AcDbLine
 10
-49.48000000000016
 20
-9.93612300000001
 11
-60.48000000000016
 21
-9.93612300000001
  0
LINE
  5
1C9
100
AcDbEntity
  8
LC-001-002-----0
  6
DASHDOT
 62
             2
100
AcDbLine
 10
0.00999999999993
 20
37.49999999999994
 11
0.00999999999993
 21
-170.92853199999999
  0
LINE
  5
1C8
100
AcDbEntity
  8
LC-001-002-----0
  6
CONTINUOUS
 62
             7
100
AcDbLine
 10
43.42563599999988
 20
-74.54707100000002
 11
33.31863899999991
 21
-17.22743800000006
  0
LINE
  5
1C7
100
AcDbEntity
  8
LC-001-002-----0
  6
CONTINUOUS
 62
             7
100
AcDbLine
 10
-20.04000000000016
 20
-167.42853199999999
 11
20.05999999999989
 21
-167.42853199999999
  0
LINE
  5
1C6
100
AcDbEntity
  8
LC-001-002-----0
  6
CONTINUOUS
 62
             7
100
AcDbLine
 10
19.12217799999991
 20
-170.92853199999999
 11
-19.10217800000015
 21
-170.92853199999999
  0
LINE
  5
1C5
100
AcDbEntity
  8
LC-001-002-----0
  6
CONTINUOUS
 62
             7
100
AcDbLine
 10
-20.04000000000016
 20
-167.42853199999999
 11
-19.10217800000015
 21
-170.92853199999999
  0
LINE
  5
1C4
100
AcDbEntity
  8
LC-001-002-----0
  6
CONTINUOUS
 62
             7
100
AcDbLine
 10
20.05999999999989
 20
-167.42853199999999
 11
19.12217799999991
 21
-170.92853199999999
  0
LINE
  5
1C3
100
AcDbEntity
  8
LC-001-002-----0
  6
DASHDOT
 62
             2
100
AcDbLine
 10
-32.42612200000008
 20
0.06387699999999
 11
32.44612299999989
 21
0.06387699999999
  0
LINE
  5
1C2
100
AcDbEntity
  8
LC-001-002-----0
  6
CONTINUOUS
 62
             7
100
AcDbLine
 10
-24.67881299842847
 20
1.73925500027695
 11
-29.98086000000018
 21
0.80436099999991
  0
LINE
  5
1C1
100
AcDbEntity
  8
LC-001-002-----0
  6
CONTINUOUS
 62
             7
100
AcDbLine
 10
-22.56974314185436
 20
-10.07397836434478
 11
-27.87179000000006
 21
-11.00887200000005
  0
LINE
  5
1C0
100
AcDbEntity
  8
LC-001-002-----0
  6
CONTINUOUS
 62
             7
100
AcDbLine
 10
21.05999999999989
 20
-97.67273800000004
 11
21.05999999999989
 21
-116.12853200000011
  0
LINE
  5
1BF
100
AcDbEntity
  8
LC-001-002-----0
  6
CONTINUOUS
 62
             7
100
AcDbLine
 10
-17.53642600000006
 20
-116.12853200000011
 11
21.05999999999989
 21
-116.12853200000011
  0
LINE
  5
1BE
100
AcDbEntity
  8
LC-001-002-----0
  6
CONTINUOUS
 62
             7
100
AcDbLine
 10
-51.17246500000007
 20
-42.19689
 11
-41.71345600000018
 21
-95.84159500000004
  0
LINE
  5
1BD
100
AcDbEntity
  8
LC-001-002-----0
  6
CONTINUOUS
 62
             7
100
AcDbLine
 10
25.69909699999988
 20
-95.67273800000004
 11
23.05999999999989
 21
-95.67273800000004
  0
LINE
  5
1BC
100
AcDbEntity
  8
LC-001-002-----0
  6
CONTINUOUS
 62
             7
100
AcDbLine
 10
-20.04000000000016
 20
-116.12853200000011
 11
-20.04000000000016
 21
-167.42853199999999
  0
LINE
  5
1BB
100
AcDbEntity
  8
LC-001-002-----0
  6
CONTINUOUS
 62
             7
100
AcDbLine
 10
20.05999999999989
 20
-116.12853200000011
 11
20.05999999999989
 21
-167.42853199999999
  0
LINE
  5
1BA
100
AcDbEntity
  8
LC-001-002-----0
  6
CONTINUOUS
 62
             7
100
AcDbLine
 10
-51.17260000000007
 20
-42.19612499999999
 11
-41.71345600000018
 21
-95.84159500000004
  0
LINE
  5
1B9
100
AcDbEntity
  8
LC-008-006-MLN-0
  6
DASHDOT
 62
             2
100
AcDbLine
 10
-12.38000000000005
 20
27.06387699999999
 11
-41.58000000000007
 21
27.06387699999999
  0
LINE
  5
1B8
100
AcDbEntity
  8
LC-001-002-----0
  6
CONTINUOUS
 62
             7
100
AcDbLine
 10
-50.08102000000005
 20
-8.93612300000001
 11
-48.65260300000006
 21
-8.93612300000001
  0
POINT
  5
1B7
100
AcDbEntity
  8
0
 62
             7
100
AcDbPoint
 10
-54.98000000000016
 20
-9.93612300000001
  0
POINT
  5
1B6
100
AcDbEntity
  8
0
 62
             7
100
AcDbPoint
 10
38.01999999999992
 20
-9.93612300000001
  0
POINT
  5
1B5
100
AcDbEntity
  8
0
 62
             7
100
AcDbPoint
 10
-19.09217800000016
 20
-170.92853199999999
  0
POINT
  5
1B4
100
AcDbEntity
  8
0
 62
             7
100
AcDbPoint
 10
-59.98000000000016
 20
-9.93612300000001
  0
POINT
  5
1B3
100
AcDbEntity
  8
0
 62
             7
100
AcDbPoint
 10
-31.98000000000016
 20
27.06387699999999
  0
POINT
  5
1B2
100
AcDbEntity
  8
0
 62
             7
100
AcDbPoint
 10
-18.03000000000017
 20
-170.92853199999999
  0
POINT
  5
1B1
100
AcDbEntity
  8
0
 62
             7
100
AcDbPoint
 10
0.01999999999992
 20
29.86387699999995
  0
POINT
  5
1B0
100
AcDbEntity
  8
0
 62
             7
100
AcDbPoint
 10
-26.98000000000016
 20
32.06387699999999
  0
ENDBLK
  5
1E0
100
AcDbEntity
  8
0
100
AcDbBlockEnd
  0
BLOCK
  5
30
100
AcDbEntity
  8
0
100
AcDbBlockBegin
  2
EINBAUSIFON__3
 70
             0
 10
-365.51777079006399
 20
-186.10760693843591
 30
0.0
  3
EINBAUSIFON__3
  1

  0
ARC
  5
21B
100
AcDbEntity
  8
LC-006-002-RND-0
  6
CONTINUOUS
 62
             7
100
AcDbCircle
 10
-267.41600100000011
 20
26.55189900000005
 40
3.50000000000028
100
AcDbArc
 50
92.12592001696044
 51
168.49857618644421
  0
ARC
  5
21A
100
AcDbEntity
  8
LC-006-002-RND-0
  6
CONTINUOUS
 62
             7
100
AcDbCircle
 10
-267.41600100000011
 20
-112.442919
 40
3.5
100
AcDbArc
 50
180.0
 51
-90.0
  0
LINE
  5
219
100
AcDbEntity
  8
LC-001-002-----0
  6
CONTINUOUS
 62
             7
100
AcDbLine
 10
-286.84571999999997
 20
37.5
 11
-286.84571999999997
 21
27.24980300000004
  0
LINE
  5
218
100
AcDbEntity
  8
LC-001-002-----0
  6
CONTINUOUS
 62
             7
100
AcDbLine
 10
-223.91298300000011
 20
-167.44291899999999
 11
-224.85080500000001
 21
-170.94291899999999
  0
LINE
  5
217
100
AcDbEntity
  8
LC-001-002-----0
  6
CONTINUOUS
 62
             7
100
AcDbLine
 10
-326.84571999999997
 20
37.5
 11
-286.84571999999997
 21
37.5
  0
LINE
  5
216
100
AcDbEntity
  8
LC-001-002-----0
  6
CONTINUOUS
 62
             7
100
AcDbLine
 10
-326.84571999999997
 20
37.5
 11
-326.84571999999997
 21
36.5
  0
LINE
  5
215
100
AcDbEntity
  8
LC-001-002-----0
  6
DASHDOT
 62
             2
100
AcDbLine
 10
-326.84571999999997
 20
0.0
 11
-292.84571999999997
 21
0.0
  0
LINE
  5
214
100
AcDbEntity
  8
LC-001-002-----0
  6
CONTINUOUS
 62
             7
100
AcDbLine
 10
-326.84571999999997
 20
-37.5
 11
-286.84571999999997
 21
-37.5
  0
LINE
  5
213
100
AcDbEntity
  8
LC-001-002-----0
  6
CONTINUOUS
 62
             7
100
AcDbLine
 10
-286.84571999999997
 20
-37.5
 11
-286.84571999999997
 21
-26.74981300020227
  0
LINE
  5
212
100
AcDbEntity
  8
LC-001-002-----0
  6
DASHDOT
 62
             2
100
AcDbLine
 10
-243.96298300000009
 20
-112.942919
 11
-243.96298300000009
 21
-170.94291899999999
  0
LINE
  5
211
100
AcDbEntity
  8
LC-001-002-----0
  6
CONTINUOUS
 62
             7
100
AcDbLine
 10
-264.01298300000002
 20
-167.44291899999999
 11
-263.07515999999998
 21
-170.94291899999999
  0
LINE
  5
210
100
AcDbEntity
  8
LC-001-002-----0
  6
CONTINUOUS
 62
             7
100
AcDbLine
 10
-264.01298300000002
 20
-115.942919
 11
-264.01298300000002
 21
-167.44291899999999
  0
LINE
  5
20F
100
AcDbEntity
  8
LC-001-002-----0
  6
CONTINUOUS
 62
             7
100
AcDbLine
 10
-267.41600100000011
 20
-115.942919
 11
-266.91600100000011
 21
-115.942919
  0
LINE
  5
20E
100
AcDbEntity
  8
LC-001-002-----0
  6
CONTINUOUS
 62
             7
100
AcDbLine
 10
-286.84571999999997
 20
27.24980300000004
 11
-270.84572012492458
 21
27.24977200000023
  0
LINE
  5
20D
100
AcDbEntity
  8
LC-001-002-----0
  6
CONTINUOUS
 62
             7
100
AcDbLine
 10
-286.84571999999997
 20
-26.74981300020227
 11
-270.91600100000011
 21
-26.74984398934134
  0
LINE
  5
20C
100
AcDbEntity
  8
LC-001-002-----0
  6
CONTINUOUS
 62
             7
100
AcDbLine
 10
-244.91298300000011
 20
31.75000600000004
 11
-222.91298300000011
 21
31.75000600000004
  0
LINE
  5
20B
100
AcDbEntity
  8
LC-001-002-----0
  6
DASHDOT
 62
             2
100
AcDbLine
 10
-292.84571999999997
 20
0.0
 11
-247.84572
 21
0.0
  0
LINE
  5
20A
100
AcDbEntity
  8
LC-001-002-----0
  6
DASHDOT
 62
             2
100
AcDbLine
 10
-247.84572
 20
0.0
 11
-247.84572
 21
-110.18000000000001
  0
LINE
  5
209
100
AcDbEntity
  8
LC-001-002-----0
  6
CONTINUOUS
 62
             7
100
AcDbLine
 10
-222.91298300000011
 20
-115.942919
 11
-223.91298300000011
 21
-115.942919
  0
LINE
  5
208
100
AcDbEntity
  8
LC-001-002-----0
  6
CONTINUOUS
 62
             7
100
AcDbLine
 10
-244.91298300000011
 20
30.04949000000005
 11
-244.91298300000011
 21
31.75000600000004
  0
LINE
  5
207
100
AcDbEntity
  8
1
  6
DOT_CENTER
 62
             2
100
AcDbLine
 10
-328.84571999999997
 20
16.0
 11
-322.84571999999997
 21
16.0
  0
LINE
  5
206
100
AcDbEntity
  8
1
  6
DOT_CENTER
 62
             2
100
AcDbLine
 10
-328.84571999999997
 20
-16.0
 11
-322.84571999999997
 21
-16.0
  0
LINE
  5
205
100
AcDbEntity
  8
LC-001-002-----0
  6
CONTINUOUS
 62
             7
100
AcDbLine
 10
-326.84571999999997
 20
36.5
 11
-326.84571999999997
 21
0.0
  0
LINE
  5
204
100
AcDbEntity
  8
LC-001-002-----0
  6
CONTINUOUS
 62
             7
100
AcDbLine
 10
-326.84571999999997
 20
0.0
 11
-326.84571999999997
 21
-37.5
  0
LINE
  5
203
100
AcDbEntity
  8
LC-001-002-----0
  6
CONTINUOUS
 62
             7
100
AcDbLine
 10
-262.01298300000002
 20
-170.94291899999999
 11
-263.07515999999998
 21
-170.94291899999999
  0
LINE
  5
202
100
AcDbEntity
  8
LC-001-002-----0
  6
CONTINUOUS
 62
             7
100
AcDbLine
 10
-224.85080500000001
 20
-170.94291899999999
 11
-262.01298300000002
 21
-170.94291899999999
  0
LINE
  5
201
100
AcDbEntity
  8
LC-001-002-----0
  6
CONTINUOUS
 62
             7
100
AcDbLine
 10
-223.91298300000011
 20
-115.942919
 11
-223.91298300000011
 21
-167.44291899999999
  0
LINE
  5
200
100
AcDbEntity
  8
LC-001-002-----0
  6
CONTINUOUS
 62
             7
100
AcDbLine
 10
-222.91298300000011
 20
-115.942919
 11
-222.91298300000011
 21
-5.49999999999994
  0
LINE
  5
1FF
100
AcDbEntity
  8
LC-001-002-----0
  6
CONTINUOUS
 62
             7
100
AcDbLine
 10
-267.54583626763173
 20
30.04949000000005
 11
-266.91600100000011
 21
30.04949000000005
  0
LINE
  5
1FE
100
AcDbEntity
  8
LC-001-002-----0
  6
CONTINUOUS
 62
             7
100
AcDbLine
 10
-222.91298300000011
 20
30.04949000000005
 11
-222.91298300000011
 21
31.75000600000004
  0
LINE
  5
1FD
100
AcDbEntity
  8
LC-001-002-----0
  6
CONTINUOUS
 62
             7
100
AcDbLine
 10
-270.91600100000011
 20
-26.74984398934134
 11
-270.91600100000011
 21
-112.442919
  0
LINE
  5
1FC
100
AcDbEntity
  8
1
  6
CONTINUOUS
 62
             7
100
AcDbLine
 10
-264.01298300000002
 20
-115.942919
 11
-223.91298300000011
 21
-115.942919
  0
LINE
  5
1FB
100
AcDbEntity
  8
1
  6
CONTINUOUS
 62
             7
100
AcDbLine
 10
-223.91298300000011
 20
-167.44291899999999
 11
-264.01298300000002
 21
-167.44291899999999
  0
LINE
  5
1FA
100
AcDbEntity
  8
1
  6
CONTINUOUS
 62
             7
100
AcDbLine
 10
-270.84572012492458
 20
27.24977200000023
 11
-270.84572012492458
 21
-26.74984412606341
  0
LINE
  5
1F9
100
AcDbEntity
  8
1
  6
CONTINUOUS
 62
             7
100
AcDbLine
 10
-266.91600100000011
 20
30.04949000000005
 11
-266.91600100000011
 21
-115.942919
  0
LINE
  5
1F8
100
AcDbEntity
  8
LC-001-002-----0
  6
CONTINUOUS
 62
             7
100
AcDbLine
 10
-266.91600100000011
 20
-115.942919
 11
-264.01298300000002
 21
-115.942919
  0
LINE
  5
1F7
100
AcDbEntity
  8
LC-001-002-----0
  6
CONTINUOUS
 62
             7
100
AcDbLine
 10
-266.91600100000011
 20
30.04949000000005
 11
-222.91298300000011
 21
30.04949000000005
  0
LINE
  5
1F6
100
AcDbEntity
  8
1
  6
CONTINUOUS
 62
             7
100
AcDbLine
 10
-286.84571999999997
 20
-26.74981300020227
 11
-286.84571999999997
 21
27.24980300000004
  0
LINE
  5
1F5
100
AcDbEntity
  8
1
  6
CONTINUOUS
 62
             7
100
AcDbLine
 10
-243.91298300000011
 20
-9.99999999999994
 11
-243.91298300000011
 21
-4.99999999999994
  0
LINE
  5
1F4
100
AcDbEntity
  8
1
  6
CONTINUOUS
 62
             7
100
AcDbLine
 10
-243.91298300000011
 20
-4.99999999999994
 11
-243.41298300000011
 21
-4.99999999999994
  0
LINE
  5
1F3
100
AcDbEntity
  8
1
  6
CONTINUOUS
 62
             7
100
AcDbLine
 10
-243.41298300000011
 20
-4.99999999999994
 11
-243.41298300000011
 21
-5.49999999999994
  0
LINE
  5
1F2
100
AcDbEntity
  8
1
  6
CONTINUOUS
 62
             7
100
AcDbLine
 10
-243.41298300000011
 20
-5.49999999999994
 11
-222.91298300000011
 21
-5.49999999999994
  0
LINE
  5
1F1
100
AcDbEntity
  8
LC-001-002-----0
  6
CONTINUOUS
 62
             7
100
AcDbLine
 10
-222.91298300000011
 20
-5.49999999999994
 11
-222.91298300000011
 21
30.04949000000005
  0
LINE
  5
1F0
100
AcDbEntity
  8
1
  6
CONTINUOUS
 62
             7
100
AcDbLine
 10
-243.41298300000011
 20
-5.49999999999994
 11
-243.41298300000011
 21
-9.99999999999994
  0
LINE
  5
1EF
100
AcDbEntity
  8
1
  6
CONTINUOUS
 62
             7
100
AcDbLine
 10
-243.41298300000011
 20
-9.99999999999994
 11
-243.41298300000011
 21
-14.49999999999994
  0
LINE
  5
1EE
100
AcDbEntity
  8
1
  6
CONTINUOUS
 62
             7
100
AcDbLine
 10
-243.41298300000011
 20
-14.49999999999994
 11
-243.41298300000011
 21
-14.99999999999994
  0
LINE
  5
1ED
100
AcDbEntity
  8
1
  6
CONTINUOUS
 62
             7
100
AcDbLine
 10
-243.41298300000011
 20
-14.99999999999994
 11
-243.91298300000011
 21
-14.99999999999994
  0
LINE
  5
1EC
100
AcDbEntity
  8
1
  6
CONTINUOUS
 62
             7
100
AcDbLine
 10
-243.91298300000011
 20
-14.99999999999994
 11
-243.91298300000011
 21
-9.99999999999994
  0
LINE
  5
1EB
100
AcDbEntity
  8
1
  6
CONTINUOUS
 62
             7
100
AcDbLine
 10
-222.91298300000011
 20
-14.49999999999994
 11
-243.41298300000011
 21
-14.49999999999994
  0
LINE
  5
1EA
100
AcDbEntity
  8
1
  6
PHANTOM
 62
             2
100
AcDbLine
 10
-222.91298300000011
 20
-9.99999999999994
 11
-245.31661833546499
 21
-9.99999999999994
  0
POINT
  5
1E9
100
AcDbEntity
  8
0
 62
             7
100
AcDbPoint
 10
-286.84571999999997
 20
37.5
  0
POINT
  5
1E8
100
AcDbEntity
  8
0
 62
             7
100
AcDbPoint
 10
-222.91298300000011
 20
31.75000600000004
  0
POINT
  5
1E7
100
AcDbEntity
  8
0
 62
             7
100
AcDbPoint
 10
-222.91298300000011
 20
30.04949000000005
  0
POINT
  5
1E6
100
AcDbEntity
  8
0
 62
             7
100
AcDbPoint
 10
-222.91298300000011
 20
-115.942919
  0
POINT
  5
1E5
100
AcDbEntity
  8
0
 62
             7
100
AcDbPoint
 10
-223.91298300000011
 20
-167.44291899999999
  0
POINT
  5
1E4
100
AcDbEntity
  8
0
 62
             7
100
AcDbPoint
 10
-326.84571999999997
 20
37.5
  0
POINT
  5
1E3
100
AcDbEntity
  8
0
 62
             7
100
AcDbPoint
 10
-286.84571999999997
 20
37.5
  0
POINT
  5
1E2
100
AcDbEntity
  8
0
 62
             7
100
AcDbPoint
 10
-326.84571999999997
 20
37.5
  0
POINT
  5
1E1
100
AcDbEntity
  8
0
 62
             7
100
AcDbPoint
 10
-326.84571999999997
 20
-37.5
  0
ENDBLK
  5
21C
100
AcDbEntity
  8
0
100
AcDbBlockEnd
  0
BLOCK
  5
32
100
AcDbEntity
  8
0
100
AcDbBlockBegin
  2
HL_44_MONTAGEPLATTE__4
 70
             0
 10
-196.72252116025439
 20
-224.74625688202701
 30
0.0
  3
HL_44_MONTAGEPLATTE__4
  1

  0
ARC
  5
247
100
AcDbEntity
  8
1
  6
CONTINUOUS
 62
             7
100
AcDbCircle
 10
-213.16298300000011
 20
-10.93612300001092
 40
1.0
100
AcDbArc
 50
-90.0
 51
0.0
  0
ARC
  5
246
100
AcDbEntity
  8
1
  6
CONTINUOUS
 62
             7
100
AcDbCircle
 10
-213.16298300000011
 20
17.06387699998908
 40
1.0
100
AcDbArc
 50
0.0
 51
90.0
  0
ARC
  5
245
100
AcDbEntity
  8
1
  6
CONTINUOUS
 62
             7
100
AcDbCircle
 10
-221.66298300000011
 20
-10.93612300001092
 40
1.0
100
AcDbArc
 50
180.0
 51
-90.0
  0
ARC
  5
244
100
AcDbEntity
  8
1
  6
CONTINUOUS
 62
             7
100
AcDbCircle
 10
-221.66298300000011
 20
17.06387699998908
 40
1.0
100
AcDbArc
 50
90.0
 51
180.0
  0
ARC
  5
243
100
AcDbEntity
  8
1
  6
CONTINUOUS
 62
             7
100
AcDbCircle
 10
-211.16298300000011
 20
-24.43612300001092
 40
1.0
100
AcDbArc
 50
-90.0
 51
0.0
  0
ARC
  5
242
100
AcDbEntity
  8
1
  6
CONTINUOUS
 62
             7
100
AcDbCircle
 10
-221.66298300000011
 20
-24.43612300001092
 40
1.0
100
AcDbArc
 50
180.0
 51
-90.0
  0
ARC
  5
241
100
AcDbEntity
  8
1
  6
CONTINUOUS
 62
             7
100
AcDbCircle
 10
-211.16298300000011
 20
-23.93612300001092
 40
1.0
100
AcDbArc
 50
0.0
 51
90.0
  0
ARC
  5
240
100
AcDbEntity
  8
1
  6
CONTINUOUS
 62
             7
100
AcDbCircle
 10
-211.16298300000011
 20
30.06387699998908
 40
1.0
100
AcDbArc
 50
-90.0
 51
0.0
  0
ARC
  5
23F
100
AcDbEntity
  8
1
  6
CONTINUOUS
 62
             7
100
AcDbCircle
 10
-221.66298300000011
 20
30.56387699998908
 40
1.0
100
AcDbArc
 50
90.0
 51
180.0
  0
ARC
  5
23E
100
AcDbEntity
  8
1
  6
CONTINUOUS
 62
             7
100
AcDbCircle
 10
-211.16298300000011
 20
30.56387699998908
 40
1.0
100
AcDbArc
 50
0.0
 51
90.0
  0
ARC
  5
23D
100
AcDbEntity
  8
1
  6
CONTINUOUS
 62
             7
100
AcDbCircle
 10
-211.16298300000011
 20
-77.43612300001092
 40
1.0
100
AcDbArc
 50
-90.0
 51
0.0
  0
ARC
  5
23C
100
AcDbEntity
  8
1
  6
CONTINUOUS
 62
             7
100
AcDbCircle
 10
-221.66298300000011
 20
-77.43612300001092
 40
1.0
100
AcDbArc
 50
180.0
 51
-90.0
  0
LINE
  5
23B
100
AcDbEntity
  8
1
  6
CONTINUOUS
 62
             7
100
AcDbLine
 10
-222.66298300000011
 20
30.56387699998908
 11
-222.91298300000011
 21
30.56387699998908
  0
LINE
  5
23A
100
AcDbEntity
  8
1
  6
CONTINUOUS
 62
             7
100
AcDbLine
 10
-222.91298300000011
 20
30.56387699998908
 11
-222.91298300000011
 21
-77.43612300001092
  0
LINE
  5
239
100
AcDbEntity
  8
1
  6
CONTINUOUS
 62
             7
100
AcDbLine
 10
-222.91298300000011
 20
-77.43612300001092
 11
-222.66298300000011
 21
-77.43612300001092
  0
LINE
  5
238
100
AcDbEntity
  8
1
  6
CONTINUOUS
 62
             7
100
AcDbLine
 10
-222.66298300000011
 20
2.91953943269204
 11
-222.66298300000011
 21
3.20821456728612
  0
LINE
  5
237
100
AcDbEntity
  8
1
  6
CONTINUOUS
 62
             7
100
AcDbLine
 10
-222.66298300000011
 20
3.20821456728612
 11
-222.91298300000011
 21
3.06387699998908
  0
LINE
  5
236
100
AcDbEntity
  8
1
  6
CONTINUOUS
 62
             7
100
AcDbLine
 10
-222.66298300000011
 20
-11.93612300001092
 11
-222.66298300000011
 21
2.91953943269204
  0
LINE
  5
235
100
AcDbEntity
  8
1
  6
DOT_CENTER
 62
             2
100
AcDbLine
 10
-208.33836074457389
 20
3.06387699998908
 11
-222.91298300000011
 21
3.06387699998908
  0
LINE
  5
234
100
AcDbEntity
  8
1
  6
CONTINUOUS
 62
             7
100
AcDbLine
 10
-222.66298300000011
 20
2.91953943269204
 11
-222.91298300000011
 21
3.06387699998908
  0
LINE
  5
233
100
AcDbEntity
  8
1
  6
CONTINUOUS
 62
             7
100
AcDbLine
 10
-222.66298300000011
 20
4.56387699998908
 11
-222.66298300000011
 21
7.91953943269204
  0
LINE
  5
232
100
AcDbEntity
  8
1
  6
CONTINUOUS
 62
             7
100
AcDbLine
 10
-222.66298300000011
 20
3.20821456728612
 11
-222.66298300000011
 21
7.91953943269204
  0
LINE
  5
231
100
AcDbEntity
  8
1
  6
CONTINUOUS
 62
             7
100
AcDbLine
 10
-222.66298300000011
 20
7.91953943269204
 11
-222.91298300000011
 21
8.06387699998908
  0
LINE
  5
230
100
AcDbEntity
  8
1
  6
CONTINUOUS
 62
             7
100
AcDbLine
 10
-222.66298300000011
 20
7.91953943269204
 11
-222.66298300000011
 21
8.20821456728612
  0
LINE
  5
22F
100
AcDbEntity
  8
1
  6
CONTINUOUS
 62
             7
100
AcDbLine
 10
-222.66298300000011
 20
7.91953943269204
 11
-222.66298300000011
 21
8.20821456728612
  0
LINE
  5
22E
100
AcDbEntity
  8
1
  6
CONTINUOUS
 62
             7
100
AcDbLine
 10
-222.66298300000011
 20
8.20821456728612
 11
-222.91298300000011
 21
8.06387699998908
  0
LINE
  5
22D
100
AcDbEntity
  8
1
  6
CONTINUOUS
 62
             7
100
AcDbLine
 10
-222.66298300000011
 20
8.20821456728612
 11
-222.66298300000011
 21
17.06387699998908
  0
LINE
  5
22C
100
AcDbEntity
  8
1
  6
CONTINUOUS
 62
             7
100
AcDbLine
 10
-221.66298300000011
 20
-25.43612300001092
 11
-211.16298300000011
 21
-25.43612300001092
  0
LINE
  5
22B
100
AcDbEntity
  8
1
  6
DOT_CENTER
 62
             2
100
AcDbLine
 10
-222.91298300000011
 20
3.06387699998908
 11
-224.33836074457389
 21
3.06387699998908
  0
LINE
  5
22A
100
AcDbEntity
  8
1
  6
CONTINUOUS
 62
             7
100
AcDbLine
 10
-212.16298300000011
 20
-22.93612300001092
 11
-212.16298300000011
 21
-11.93612300001092
  0
LINE
  5
229
100
AcDbEntity
  8
1
  6
CONTINUOUS
 62
             7
100
AcDbLine
 10
-222.66298300000011
 20
-77.43612300001092
 11
-222.66298300000011
 21
-11.93612300001092
  0
LINE
  5
228
100
AcDbEntity
  8
1
  6
CONTINUOUS
 62
             7
100
AcDbLine
 10
-221.66298300000011
 20
-11.93612300001092
 11
-213.16298300000011
 21
-11.93612300001092
  0
LINE
  5
227
100
AcDbEntity
  8
1
  6
CONTINUOUS
 62
             7
100
AcDbLine
 10
-212.16298300000011
 20
-11.93612300001092
 11
-212.16298300000011
 21
18.06387699998908
  0
LINE
  5
226
100
AcDbEntity
  8
1
  6
CONTINUOUS
 62
             7
100
AcDbLine
 10
-222.66298300000011
 20
8.20821456728612
 11
-222.66298300000011
 21
18.06387699998908
  0
LINE
  5
225
100
AcDbEntity
  8
1
  6
CONTINUOUS
 62
             7
100
AcDbLine
 10
-221.66298300000011
 20
18.06387699998908
 11
-213.16298300000011
 21
18.06387699998908
  0
LINE
  5
224
100
AcDbEntity
  8
1
  6
CONTINUOUS
 62
             7
100
AcDbLine
 10
-211.16298300000011
 20
-22.93612300001092
 11
-212.16298300000011
 21
-22.93612300001092
  0
LINE
  5
223
100
AcDbEntity
  8
1
  6
CONTINUOUS
 62
             7
100
AcDbLine
 10
-210.16298300000011
 20
30.56387699998908
 11
-210.16298300000011
 21
30.06387699998908
  0
LINE
  5
222
100
AcDbEntity
  8
1
  6
CONTINUOUS
 62
             7
100
AcDbLine
 10
-212.16298300000011
 20
29.06387699998908
 11
-211.16298300000011
 21
29.06387699998908
  0
LINE
  5
221
100
AcDbEntity
  8
1
  6
CONTINUOUS
 62
             7
100
AcDbLine
 10
-212.16298300000011
 20
18.06387699998908
 11
-212.16298300000011
 21
29.06387699998908
  0
LINE
  5
220
100
AcDbEntity
  8
1
  6
CONTINUOUS
 62
             7
100
AcDbLine
 10
-210.16298300000011
 20
-23.93612300001092
 11
-210.16298300000011
 21
-77.43612300001092
  0
LINE
  5
21F
100
AcDbEntity
  8
1
  6
CONTINUOUS
 62
             7
100
AcDbLine
 10
-211.16298300000011
 20
-78.43612300001092
 11
-221.66298300000011
 21
-78.43612300001092
  0
LINE
  5
21E
100
AcDbEntity
  8
1
  6
CONTINUOUS
 62
             7
100
AcDbLine
 10
-222.66298300000011
 20
18.06387699998908
 11
-222.66298300000011
 21
30.56387699998908
  0
LINE
  5
21D
100
AcDbEntity
  8
1
  6
CONTINUOUS
 62
             7
100
AcDbLine
 10
-221.66298300000011
 20
31.56387699998908
 11
-211.16298300000011
 21
31.56387699998908
  0
ENDBLK
  5
248
100
AcDbEntity
  8
0
100
AcDbBlockEnd
  0
BLOCK
  5
24B
100
AcDbEntity
  8
0
100
AcDbBlockBegin
  2
*D5
 70
             1
 10
0.0
 20
0.0
 30
0.0
  3
*D5
  1

  0
LINE
  5
24C
100
AcDbEntity
  8
0
  6
CONTINUOUS
 62
             4
100
AcDbLine
 10
-131.99000000000007
 20
-67.04265856066959
 11
132.00999999999999
 21
-67.04265856066959
  0
LINE
  5
24D
100
AcDbEntity
  8
0
  6
CONTINUOUS
 62
             4
100
AcDbLine
 10
-131.99000000000007
 20
-3.93612300001092
 11
-131.99000000000007
 21
-69.04265856066959
  0
LINE
  5
24E
100
AcDbEntity
  8
0
  6
CONTINUOUS
 62
             4
100
AcDbLine
 10
132.00999999999999
 20
-3.93612300001092
 11
132.00999999999999
 21
-69.04265856066959
  0
SOLID
  5
24F
100
AcDbEntity
  8
0
 62
             4
100
AcDbTrace
 10
-124.99000000000007
 20
-66.12109107755782
 11
-124.99000000000007
 21
-67.96422604378137
 12
-131.99000000000007
 22
-67.04265856066959
 13
-131.99000000000007
 23
-67.04265856066959
  0
SOLID
  5
250
100
AcDbEntity
  8
0
 62
             4
100
AcDbTrace
 10
125.00999999999999
 20
-67.96422604378137
 11
125.00999999999999
 21
-66.12109107755782
 12
132.00999999999999
 22
-67.04265856066959
 13
132.00999999999999
 23
-67.04265856066959
  0
MTEXT
  5
252
100
AcDbEntity
  8
0
 62
             1
100
AcDbMText
 10
-97.55354471426121
 20
-65.04265856066959
 30
0.0
 40
7.0
 41
0.0
 71
             7
 72
             1
  1
264
  7
CONVERTER_2
 11
0.99999999999706
 21
0.00000242406841
 31
0.0
  0
ENDBLK
  5
253
100
AcDbEntity
  8
0
100
AcDbBlockEnd
  0
BLOCK
  5
257
100
AcDbEntity
  8
0
100
AcDbBlockBegin
  2
*D6
 70
             1
 10
0.0
 20
0.0
 30
0.0
  3
*D6
  1

  0
LINE
  5
258
100
AcDbEntity
  8
0
  6
CONTINUOUS
 62
             4
100
AcDbLine
 10
-39.99000000000007
 20
47.7672823378985
 11
40.00999999999993
 21
47.7672823378985
  0
LINE
  5
259
100
AcDbEntity
  8
0
  6
CONTINUOUS
 62
             4
100
AcDbLine
 10
-39.99000000000007
 20
30.56387699998908
 11
-39.99000000000007
 21
49.7672823378985
  0
LINE
  5
25A
100
AcDbEntity
  8
0
  6
CONTINUOUS
 62
             4
100
AcDbLine
 10
40.00999999999993
 20
30.56387699998908
 11
40.00999999999993
 21
49.7672823378985
  0
SOLID
  5
25B
100
AcDbEntity
  8
0
 62
             4
100
AcDbTrace
 10
-32.99000000000007
 20
48.68884982101027
 11
-32.99000000000007
 21
46.84571485478673
 12
-39.99000000000007
 22
47.7672823378985
 13
-39.99000000000007
 23
47.7672823378985
  0
SOLID
  5
25C
100
AcDbEntity
  8
0
 62
             4
100
AcDbTrace
 10
33.00999999999993
 20
46.84571485478673
 11
33.00999999999993
 21
48.68884982101027
 12
40.00999999999993
 22
47.7672823378985
 13
40.00999999999993
 23
47.7672823378985
  0
MTEXT
  5
25D
100
AcDbEntity
  8
0
 62
             1
100
AcDbMText
 10
13.212615363143
 20
49.7672823378985
 30
0.0
 40
7.0
 41
0.0
 71
             7
 72
             1
  1
80
  7
CONVERTER_2
 11
0.99999999999706
 21
0.00000242406841
 31
0.0
  0
ENDBLK
  5
25E
100
AcDbEntity
  8
0
100
AcDbBlockEnd
  0
BLOCK
  5
262
100
AcDbEntity
  8
0
100
AcDbBlockBegin
  2
*D7
 70
             1
 10
0.0
 20
0.0
 30
0.0
  3
*D7
  1

  0
LINE
  5
263
100
AcDbEntity
  8
0
  6
CONTINUOUS
 62
             4
100
AcDbLine
 10
-49.99000000000007
 20
61.2413811823623
 11
50.00999999999994
 21
61.2413811823623
  0
LINE
  5
264
100
AcDbEntity
  8
0
  6
CONTINUOUS
 62
             4
100
AcDbLine
 10
-49.99000000000007
 20
30.56387699998908
 11
-49.99000000000007
 21
63.2413811823623
  0
LINE
  5
265
100
AcDbEntity
  8
0
  6
CONTINUOUS
 62
             4
100
AcDbLine
 10
50.00999999999994
 20
30.56387699998908
 11
50.00999999999994
 21
63.2413811823623
  0
SOLID
  5
266
100
AcDbEntity
  8
0
 62
             4
100
AcDbTrace
 10
-42.99000000000007
 20
62.16294866547408
 11
-42.99000000000007
 21
60.31981369925053
 12
-49.99000000000007
 22
61.2413811823623
 13
-49.99000000000007
 23
61.2413811823623
  0
SOLID
  5
267
100
AcDbEntity
  8
0
 62
             4
100
AcDbTrace
 10
43.00999999999994
 20
60.31981369925053
 11
43.00999999999994
 21
62.16294866547408
 12
50.00999999999994
 22
61.2413811823623
 13
50.00999999999994
 23
61.2413811823623
  0
MTEXT
  5
268
100
AcDbEntity
  8
0
 62
             1
100
AcDbMText
 10
-21.0278971768002
 20
63.2413811823623
 30
0.0
 40
7.0
 41
0.0
 71
             7
 72
             1
  1
100
  7
CONVERTER_2
 11
0.99999999999706
 21
0.00000242406841
 31
0.0
  0
ENDBLK
  5
269
100
AcDbEntity
  8
0
100
AcDbBlockEnd
  0
BLOCK
  5
26D
100
AcDbEntity
  8
0
100
AcDbBlockBegin
  2
*D8
 70
             1
 10
0.0
 20
0.0
 30
0.0
  3
*D8
  1

  0
LINE
  5
26E
100
AcDbEntity
  8
0
  6
CONTINUOUS
 62
             4
100
AcDbLine
 10
-59.99000000000007
 20
72.71296890473511
 11
60.00999999999993
 21
72.71296890473511
  0
LINE
  5
26F
100
AcDbEntity
  8
0
  6
CONTINUOUS
 62
             4
100
AcDbLine
 10
-59.99000000000007
 20
30.56387699998908
 11
-59.99000000000007
 21
74.71296890473511
  0
LINE
  5
270
100
AcDbEntity
  8
0
  6
CONTINUOUS
 62
             4
100
AcDbLine
 10
60.00999999999993
 20
30.56387699998908
 11
60.00999999999993
 21
74.71296890473511
  0
SOLID
  5
271
100
AcDbEntity
  8
0
 62
             4
100
AcDbTrace
 10
-52.99000000000007
 20
73.63453638784688
 11
-52.99000000000007
 21
71.79140142162333
 12
-59.99000000000007
 22
72.71296890473511
 13
-59.99000000000007
 23
72.71296890473511
  0
SOLID
  5
272
100
AcDbEntity
  8
0
 62
             4
100
AcDbTrace
 10
53.00999999999993
 20
71.79140142162333
 11
53.00999999999993
 21
73.63453638784688
 12
60.00999999999993
 22
72.71296890473511
 13
60.00999999999993
 23
72.71296890473511
  0
MTEXT
  5
273
100
AcDbEntity
  8
0
 62
             1
100
AcDbMText
 10
9.8793360708325
 20
74.71296890473511
 30
0.0
 40
7.0
 41
0.0
 71
             7
 72
             1
  1
120
  7
CONVERTER_2
 11
0.99999999999706
 21
0.00000242406841
 31
0.0
  0
ENDBLK
  5
274
100
AcDbEntity
  8
0
100
AcDbBlockEnd
  0
BLOCK
  5
278
100
AcDbEntity
  8
0
100
AcDbBlockBegin
  2
*D9
 70
             1
 10
0.0
 20
0.0
 30
0.0
  3
*D9
  1

  0
LINE
  5
279
100
AcDbEntity
  8
0
  6
CONTINUOUS
 62
             4
100
AcDbLine
 10
-98.82378202691319
 20
-49.2541724970044
 11
-76.49000000000007
 21
-49.2541724970044
  0
LINE
  5
27A
100
AcDbEntity
  8
0
  6
CONTINUOUS
 62
             4
100
AcDbLine
 10
-76.49000000000007
 20
-49.2541724970044
 11
76.50999999999991
 21
-49.2541724970044
  0
LINE
  5
27B
100
AcDbEntity
  8
0
  6
CONTINUOUS
 62
             4
100
AcDbLine
 10
-76.49000000000007
 20
-20.43612300001093
 11
-76.49000000000007
 21
-51.2541724970044
  0
LINE
  5
27C
100
AcDbEntity
  8
0
  6
CONTINUOUS
 62
             4
100
AcDbLine
 10
76.50999999999991
 20
-24.43612300001093
 11
76.50999999999991
 21
-51.2541724970044
  0
SOLID
  5
27D
100
AcDbEntity
  8
0
 62
             4
100
AcDbTrace
 10
-69.49000000000007
 20
-48.33260501389263
 11
-69.49000000000007
 21
-50.17573998011617
 12
-76.49000000000007
 22
-49.2541724970044
 13
-76.49000000000007
 23
-49.2541724970044
  0
SOLID
  5
27E
100
AcDbEntity
  8
0
 62
             4
100
AcDbTrace
 10
69.50999999999991
 20
-50.17573998011617
 11
69.50999999999991
 21
-48.33260501389263
 12
76.50999999999991
 22
-49.2541724970044
 13
76.50999999999991
 23
-49.2541724970044
  0
MTEXT
  5
27F
100
AcDbEntity
  8
0
 62
             1
100
AcDbMText
 10
-98.82378202691319
 20
-47.2541724970044
 30
0.0
 40
7.0
 41
0.0
 71
             7
 72
             1
  1
153
  7
CONVERTER_2
 11
0.99999999999706
 21
0.00000242406841
 31
0.0
  0
ENDBLK
  5
280
100
AcDbEntity
  8
0
100
AcDbBlockEnd
  0
BLOCK
  5
284
100
AcDbEntity
  8
0
100
AcDbBlockBegin
  2
*D10
 70
             1
 10
0.0
 20
0.0
 30
0.0
  3
*D10
  1

  0
LINE
  5
285
100
AcDbEntity
  8
0
  6
CONTINUOUS
 62
             4
100
AcDbLine
 10
148.08225147127499
 20
-25.43612300001092
 11
148.08225147127499
 21
31.56387699998908
  0
LINE
  5
286
100
AcDbEntity
  8
0
  6
CONTINUOUS
 62
             4
100
AcDbLine
 10
100.00999999999993
 20
-25.43612300001092
 11
150.08225147127499
 21
-25.43612300001092
  0
LINE
  5
287
100
AcDbEntity
  8
0
  6
CONTINUOUS
 62
             4
100
AcDbLine
 10
75.00999999999993
 20
31.56387699998908
 11
150.08225147127499
 21
31.56387699998908
  0
SOLID
  5
288
100
AcDbEntity
  8
0
 62
             4
100
AcDbTrace
 10
149.00381895438676
 20
24.56387699998908
 11
147.16068398816321
 21
24.56387699998908
 12
148.08225147127499
 22
31.56387699998908
 13
148.08225147127499
 23
31.56387699998908
  0
SOLID
  5
289
100
AcDbEntity
  8
0
 62
             4
100
AcDbTrace
 10
147.16068398816321
 20
-18.43612300001092
 11
149.00381895438676
 21
-18.43612300001092
 12
148.08225147127499
 22
-25.43612300001092
 13
148.08225147127499
 23
-25.43612300001092
  0
MTEXT
  5
28A
100
AcDbEntity
  8
0
 62
             1
100
AcDbMText
 10
146.08225147127499
 20
-2.05539035953404
 30
0.0
 40
7.0
 41
0.0
 71
             7
 72
             1
  1
57
  7
CONVERTER_2
 11
0.0
 21
1.0
 31
0.0
  0
ENDBLK
  5
28B
100
AcDbEntity
  8
0
100
AcDbBlockEnd
  0
BLOCK
  5
28F
100
AcDbEntity
  8
0
100
AcDbBlockBegin
  2
*D11
 70
             1
 10
0.0
 20
0.0
 30
0.0
  3
*D11
  1

  0
LINE
  5
290
100
AcDbEntity
  8
0
  6
CONTINUOUS
 62
             4
100
AcDbLine
 10
-69.8152294862856
 20
-34.93612300000001
 11
-69.8152294862856
 21
27.06387699999999
  0
LINE
  5
291
100
AcDbEntity
  8
0
  6
CONTINUOUS
 62
             4
100
AcDbLine
 10
-69.8152294862856
 20
27.06387699999999
 11
-69.8152294862856
 21
58.2826539659862
  0
LINE
  5
292
100
AcDbEntity
  8
0
  6
CONTINUOUS
 62
             4
100
AcDbLine
 10
-28.64000000000007
 20
-34.93612300000001
 11
-71.8152294862856
 21
-34.93612300000001
  0
LINE
  5
293
100
AcDbEntity
  8
0
  6
CONTINUOUS
 62
             4
100
AcDbLine
 10
-41.58000000000007
 20
27.06387699999999
 11
-71.8152294862856
 21
27.06387699999999
  0
SOLID
  5
294
100
AcDbEntity
  8
0
 62
             4
100
AcDbTrace
 10
-68.89366200317383
 20
20.06387699999999
 11
-70.73679696939738
 21
20.06387699999999
 12
-69.8152294862856
 22
27.06387699999999
 13
-69.8152294862856
 23
27.06387699999999
  0
SOLID
  5
295
100
AcDbEntity
  8
0
 62
             4
100
AcDbTrace
 10
-70.73679696939738
 20
-27.93612300000001
 11
-68.89366200317383
 21
-27.93612300000001
 12
-69.8152294862856
 22
-34.93612300000001
 13
-69.8152294862856
 23
-34.93612300000001
  0
MTEXT
  5
296
100
AcDbEntity
  8
0
 62
             1
100
AcDbMText
 10
-71.8152294862856
 20
47.7826539659862
 30
0.0
 40
7.0
 41
0.0
 71
             7
 72
             1
  1
62
  7
CONVERTER_2
 11
0.0
 21
1.0
 31
0.0
  0
ENDBLK
  5
297
100
AcDbEntity
  8
0
100
AcDbBlockEnd
  0
BLOCK
  5
29B
100
AcDbEntity
  8
0
100
AcDbBlockBegin
  2
*D12
 70
             1
 10
0.0
 20
0.0
 30
0.0
  3
*D12
  1

  0
LINE
  5
29C
100
AcDbEntity
  8
0
  6
CONTINUOUS
 62
             4
100
AcDbLine
 10
-264.01298300000002
 20
-184.10760693843591
 11
-223.91298300000011
 21
-184.10760693843591
  0
LINE
  5
29D
100
AcDbEntity
  8
0
  6
CONTINUOUS
 62
             4
100
AcDbLine
 10
-223.91298300000011
 20
-167.44291899999999
 11
-223.91298300000011
 21
-186.10760693843591
  0
LINE
  5
29E
100
AcDbEntity
  8
0
  6
CONTINUOUS
 62
             4
100
AcDbLine
 10
-264.01298300000002
 20
-167.44291899999999
 11
-264.01298300000002
 21
-186.10760693843591
  0
SOLID
  5
29F
100
AcDbEntity
  8
0
 62
             4
100
AcDbTrace
 10
-230.91298300000011
 20
-185.02917442154768
 11
-230.91298300000011
 21
-183.18603945532413
 12
-223.91298300000011
 22
-184.10760693843591
 13
-223.91298300000011
 23
-184.10760693843591
  0
SOLID
  5
2A0
100
AcDbEntity
  8
0
 62
             4
100
AcDbTrace
 10
-257.01298300000002
 20
-183.18603945532413
 11
-257.01298300000002
 21
-185.02917442154768
 12
-264.01298300000002
 22
-184.10760693843591
 13
-264.01298300000002
 23
-184.10760693843591
  0
MTEXT
  5
2A1
100
AcDbEntity
  8
0
 62
             1
100
AcDbMText
 10
-254.57555381815729
 20
-182.1076347667412
 30
0.0
 40
7.0
 41
0.0
 71
             7
 72
             1
  1
\C1;DN\C1;40
  7
CONVERTER_2
 11
0.99999999999706
 21
0.00000242406841
 31
0.0
  0
ENDBLK
  5
2A2
100
AcDbEntity
  8
0
100
AcDbBlockEnd
  0
BLOCK
  5
2A6
100
AcDbEntity
  8
0
100
AcDbBlockBegin
  2
*D13
 70
             1
 10
0.0
 20
0.0
 30
0.0
  3
*D13
  1

  0
LINE
  5
2A7
100
AcDbEntity
  8
0
  6
CONTINUOUS
 62
             4
100
AcDbLine
 10
-276.41298300000011
 20
-170.94291900000002
 11
-276.41298300000011
 21
-115.94291900000002
  0
LINE
  5
2A8
100
AcDbEntity
  8
0
  6
CONTINUOUS
 62
             4
100
AcDbLine
 10
-267.41600100000011
 20
-115.94291900000002
 11
-278.41298300000011
 21
-115.94291900000002
  0
LINE
  5
2A9
100
AcDbEntity
  8
0
  6
CONTINUOUS
 62
             4
100
AcDbLine
 10
-263.07515999999998
 20
-170.94291900000002
 11
-278.41298300000011
 21
-170.94291900000002
  0
SOLID
  5
2AA
100
AcDbEntity
  8
0
 62
             4
100
AcDbTrace
 10
-277.33455048311185
 20
-163.94291900000002
 11
-275.49141551688837
 21
-163.94291900000002
 12
-276.41298300000011
 22
-170.94291900000002
 13
-276.41298300000011
 23
-170.94291900000002
  0
SOLID
  5
2AB
100
AcDbEntity
  8
0
 62
             4
100
AcDbTrace
 10
-275.49141551688837
 20
-122.94291900000002
 11
-277.33455048311185
 21
-122.94291900000002
 12
-276.41298300000011
 22
-115.94291900000002
 13
-276.41298300000011
 23
-115.94291900000002
  0
MTEXT
  5
2AC
100
AcDbEntity
  8
0
 62
             1
100
AcDbMText
 10
-278.41298300000011
 20
-149.21470891872201
 30
0.0
 40
7.0
 41
0.0
 71
             7
 72
             1
  1
55
  7
CONVERTER_2
 11
0.0
 21
1.0
 31
0.0
  0
ENDBLK
  5
2AD
100
AcDbEntity
  8
0
100
AcDbBlockEnd
  0
BLOCK
  5
2B1
100
AcDbEntity
  8
0
100
AcDbBlockBegin
  2
*D14
 70
             1
 10
0.0
 20
0.0
 30
0.0
  3
*D14
  1

  0
LINE
  5
2B2
100
AcDbEntity
  8
0
  6
CONTINUOUS
 62
             4
100
AcDbLine
 10
-356.51777079006399
 20
-115.94291900000002
 11
-356.51777079006399
 21
0.0
  0
LINE
  5
2B3
100
AcDbEntity
  8
0
  6
CONTINUOUS
 62
             4
100
AcDbLine
 10
-326.84571999999997
 20
0.0
 11
-358.51777079006399
 21
0.0
  0
LINE
  5
2B4
100
AcDbEntity
  8
0
  6
CONTINUOUS
 62
             4
100
AcDbLine
 10
-267.41600100000011
 20
-115.94291900000002
 11
-358.51777079006399
 21
-115.94291900000002
  0
SOLID
  5
2B5
100
AcDbEntity
  8
0
 62
             4
100
AcDbTrace
 10
-355.59620330695225
 20
-7.0
 11
-357.43933827317574
 21
-7.0
 12
-356.51777079006399
 22
0.0
 13
-356.51777079006399
 23
0.0
  0
SOLID
  5
2B6
100
AcDbEntity
  8
0
 62
             4
100
AcDbTrace
 10
-357.43933827317574
 20
-108.94291900000002
 11
-355.59620330695225
 21
-108.94291900000002
 12
-356.51777079006399
 22
-115.94291900000002
 13
-356.51777079006399
 23
-115.94291900000002
  0
MTEXT
  5
2B7
100
AcDbEntity
  8
0
 62
             1
100
AcDbMText
 10
-358.51777079006399
 20
-58.98340005057797
 30
0.0
 40
7.0
 41
0.0
 71
             7
 72
             1
  1
116
  7
CONVERTER_2
 11
0.0
 21
1.0
 31
0.0
  0
ENDBLK
  5
2B8
100
AcDbEntity
  8
0
100
AcDbBlockEnd
  0
BLOCK
  5
2BC
100
AcDbEntity
  8
0
100
AcDbBlockBegin
  2
*D15
 70
             1
 10
0.0
 20
0.0
 30
0.0
  3
*D15
  1

  0
LINE
  5
2BD
100
AcDbEntity
  8
0
  6
CONTINUOUS
 62
             4
100
AcDbLine
 10
-338.84571999999997
 20
-16.0
 11
-338.84571999999997
 21
-44.37123819594871
  0
LINE
  5
2BE
100
AcDbEntity
  8
0
  6
CONTINUOUS
 62
             4
100
AcDbLine
 10
-338.84571999999997
 20
16.0
 11
-338.84571999999997
 21
-16.0
  0
LINE
  5
2BF
100
AcDbEntity
  8
0
  6
CONTINUOUS
 62
             4
100
AcDbLine
 10
-328.84571999999997
 20
-16.0
 11
-340.84571999999997
 21
-16.0
  0
LINE
  5
2C0
100
AcDbEntity
  8
0
  6
CONTINUOUS
 62
             4
100
AcDbLine
 10
-328.84571999999997
 20
16.0
 11
-340.84571999999997
 21
16.0
  0
SOLID
  5
2C1
100
AcDbEntity
  8
0
 62
             4
100
AcDbTrace
 10
-337.92415251688823
 20
9.0
 11
-339.76728748311172
 21
9.0
 12
-338.84571999999997
 22
16.0
 13
-338.84571999999997
 23
16.0
  0
SOLID
  5
2C2
100
AcDbEntity
  8
0
 62
             4
100
AcDbTrace
 10
-339.76728748311172
 20
-9.0
 11
-337.92415251688823
 21
-9.0
 12
-338.84571999999997
 22
-16.0
 13
-338.84571999999997
 23
-16.0
  0
MTEXT
  5
2C3
100
AcDbEntity
  8
0
 62
             1
100
AcDbMText
 10
-340.84571999999997
 20
-40.4512381959487
 30
0.0
 40
7.0
 41
0.0
 71
             7
 72
             1
  1
\C1;DN\C1;32\C1;
  7
CONVERTER_2
 11
0.0
 21
1.0
 31
0.0
  0
ENDBLK
  5
2C4
100
AcDbEntity
  8
0
100
AcDbBlockEnd
  0
BLOCK
  5
2C8
100
AcDbEntity
  8
0
100
AcDbBlockBegin
  2
*D16
 70
             1
 10
0.0
 20
0.0
 30
0.0
  3
*D16
  1

  0
LINE
  5
2C9
100
AcDbEntity
  8
0
  6
CONTINUOUS
 62
             4
100
AcDbLine
 10
-326.84571999999997
 20
47.5
 11
-286.84571999999997
 21
47.5
  0
LINE
  5
2CA
100
AcDbEntity
  8
0
  6
CONTINUOUS
 62
             4
100
AcDbLine
 10
-286.84571999999997
 20
37.5
 11
-286.84571999999997
 21
49.5
  0
LINE
  5
2CB
100
AcDbEntity
  8
0
  6
CONTINUOUS
 62
             4
100
AcDbLine
 10
-326.84571999999997
 20
37.5
 11
-326.84571999999997
 21
49.5
  0
SOLID
  5
2CC
100
AcDbEntity
  8
0
 62
             4
100
AcDbTrace
 10
-319.84571999999997
 20
48.42156748311177
 11
-319.84571999999997
 21
46.57843251688823
 12
-326.84571999999997
 22
47.5
 13
-326.84571999999997
 23
47.5
  0
SOLID
  5
2CD
100
AcDbEntity
  8
0
 62
             4
100
AcDbTrace
 10
-293.84571999999997
 20
46.57843251688823
 11
-293.84571999999997
 21
48.42156748311177
 12
-286.84571999999997
 22
47.5
 13
-286.84571999999997
 23
47.5
  0
MTEXT
  5
2CE
100
AcDbEntity
  8
0
 62
             1
100
AcDbMText
 10
-311.18871027452298
 20
49.5
 30
0.0
 40
7.0
 41
0.0
 71
             7
 72
             1
  1
40
  7
CONVERTER_2
 11
0.99999999999706
 21
0.00000242406841
 31
0.0
  0
ENDBLK
  5
2CF
100
AcDbEntity
  8
0
100
AcDbBlockEnd
  0
BLOCK
  5
2D3
100
AcDbEntity
  8
0
100
AcDbBlockBegin
  2
*D17
 70
             1
 10
0.0
 20
0.0
 30
0.0
  3
*D17
  1

  0
LINE
  5
2D4
100
AcDbEntity
  8
0
  6
CONTINUOUS
 62
             4
100
AcDbLine
 10
-286.84571999999997
 20
47.5
 11
-222.91298300000011
 21
47.5
  0
LINE
  5
2D5
100
AcDbEntity
  8
0
  6
CONTINUOUS
 62
             4
100
AcDbLine
 10
-222.91298300000011
 20
31.75000600000004
 11
-222.91298300000011
 21
49.5
  0
LINE
  5
2D6
100
AcDbEntity
  8
0
  6
CONTINUOUS
 62
             4
100
AcDbLine
 10
-286.84571999999997
 20
27.24980300000004
 11
-286.84571999999997
 21
49.5
  0
SOLID
  5
2D7
100
AcDbEntity
  8
0
 62
             4
100
AcDbTrace
 10
-229.91298300000011
 20
46.57843251688823
 11
-229.91298300000011
 21
48.42156748311177
 12
-222.91298300000011
 22
47.5
 13
-222.91298300000011
 23
47.5
  0
SOLID
  5
2D8
100
AcDbEntity
  8
0
 62
             4
100
AcDbTrace
 10
-279.84571999999997
 20
48.42156748311177
 11
-279.84571999999997
 21
46.57843251688823
 12
-286.84571999999997
 22
47.5
 13
-286.84571999999997
 23
47.5
  0
MTEXT
  5
2D9
100
AcDbEntity
  8
0
 62
             1
100
AcDbMText
 10
-263.59836395591202
 20
49.5
 30
0.0
 40
7.0
 41
0.0
 71
             7
 72
             1
  1
64
  7
CONVERTER_2
 11
0.99999999999706
 21
0.00000242406841
 31
0.0
  0
ENDBLK
  5
2DA
100
AcDbEntity
  8
0
100
AcDbBlockEnd
  0
BLOCK
  5
2DE
100
AcDbEntity
  8
0
100
AcDbBlockBegin
  2
*D18
 70
             1
 10
0.0
 20
0.0
 30
0.0
  3
*D18
  1

  0
LINE
  5
2DF
100
AcDbEntity
  8
0
  6
CONTINUOUS
 62
             4
100
AcDbLine
 10
-236.66298300000011
 20
47.5645307513038
 11
-222.66298300000011
 21
47.5645307513038
  0
LINE
  5
2E0
100
AcDbEntity
  8
0
  6
CONTINUOUS
 62
             4
100
AcDbLine
 10
-222.66298300000011
 20
47.5645307513038
 11
-210.16298300000011
 21
47.5645307513038
  0
LINE
  5
2E1
100
AcDbEntity
  8
0
  6
CONTINUOUS
 62
             4
100
AcDbLine
 10
-210.16298300000011
 20
47.5645307513038
 11
-185.299627186527
 21
47.5645307513038
  0
LINE
  5
2E2
100
AcDbEntity
  8
0
  6
CONTINUOUS
 62
             4
100
AcDbLine
 10
-222.66298300000011
 20
30.56387699998908
 11
-222.66298300000011
 21
49.5645307513038
  0
LINE
  5
2E3
100
AcDbEntity
  8
0
  6
CONTINUOUS
 62
             4
100
AcDbLine
 10
-210.16298300000011
 20
-23.93612300001092
 11
-210.16298300000011
 21
49.5645307513038
  0
SOLID
  5
2E4
100
AcDbEntity
  8
0
 62
             4
100
AcDbTrace
 10
-203.16298300000011
 20
48.48609823441557
 11
-203.16298300000011
 21
46.64296326819203
 12
-210.16298300000011
 22
47.5645307513038
 13
-210.16298300000011
 23
47.5645307513038
  0
SOLID
  5
2E5
100
AcDbEntity
  8
0
 62
             4
100
AcDbTrace
 10
-229.66298300000011
 20
46.64296326819203
 11
-229.66298300000011
 21
48.48609823441557
 12
-222.66298300000011
 22
47.5645307513038
 13
-222.66298300000011
 23
47.5645307513038
  0
MTEXT
  5
2E6
100
AcDbEntity
  8
0
 62
             1
100
AcDbMText
 10
-202.44962718652698
 20
50.2645307513038
 30
0.0
 40
7.0
 41
0.0
 71
             7
 72
             1
  1
12,5
  7
CONVERTER_2
 11
0.99999999999706
 21
0.00000242406841
 31
0.0
  0
ENDBLK
  5
2E7
100
AcDbEntity
  8
0
100
AcDbBlockEnd
  0
BLOCK
  5
2EB
100
AcDbEntity
  8
0
100
AcDbBlockBegin
  2
*D19
 70
             1
 10
0.0
 20
0.0
 30
0.0
  3
*D19
  1

  0
LINE
  5
2EC
100
AcDbEntity
  8
0
  6
CONTINUOUS
 62
             4
100
AcDbLine
 10
-195.744753600172
 20
-78.43612300001092
 11
-195.744753600172
 21
31.56387699998908
  0
LINE
  5
2ED
100
AcDbEntity
  8
0
  6
CONTINUOUS
 62
             4
100
AcDbLine
 10
-211.16298300000011
 20
-78.43612300001092
 11
-193.744753600172
 21
-78.43612300001092
  0
LINE
  5
2EE
100
AcDbEntity
  8
0
  6
CONTINUOUS
 62
             4
100
AcDbLine
 10
-211.16298300000011
 20
31.56387699998908
 11
-193.744753600172
 21
31.56387699998908
  0
SOLID
  5
2EF
100
AcDbEntity
  8
0
 62
             4
100
AcDbTrace
 10
-194.82318611706023
 20
24.56387699998908
 11
-196.66632108328378
 21
24.56387699998908
 12
-195.744753600172
 22
31.56387699998908
 13
-195.744753600172
 23
31.56387699998908
  0
SOLID
  5
2F0
100
AcDbEntity
  8
0
 62
             4
100
AcDbTrace
 10
-196.66632108328378
 20
-71.43612300001092
 11
-194.82318611706023
 21
-71.43612300001092
 12
-195.744753600172
 22
-78.43612300001092
 13
-195.744753600172
 23
-78.43612300001092
  0
MTEXT
  5
2F1
100
AcDbEntity
  8
0
 62
             1
100
AcDbMText
 10
-197.744753600172
 20
-30.2715215256681
 30
0.0
 40
7.0
 41
0.0
 71
             7
 72
             1
  1
110
  7
CONVERTER_2
 11
0.0
 21
1.0
 31
0.0
  0
ENDBLK
  5
2F2
100
AcDbEntity
  8
0
100
AcDbBlockEnd
  0
ENDSEC
  0
SECTION
  2
ENTITIES
  0
DIMENSION
  5
2F4
100
AcDbEntity
  8
1
100
AcDbDimension
  2
*D19
 10
-195.744753600172
 20
31.56387699998908
 11
-201.244753600172
 21
-23.9715215256681
 31
0.0
 53
90.0
  1
<>
  3
ME10_DIM_14
100
AcDbAlignedDimension
 13
-211.16298300000011
 23
-78.43612300001092
 14
-211.16298300000011
 24
31.56387699998908
 50
90.0
100
AcDbRotatedDimension
  0
DIMENSION
  5
2E9
100
AcDbEntity
  8
1
100
AcDbDimension
  2
*D18
 10
-210.16298300000011
 20
47.5645307513038
 11
-193.87462718652699
 21
53.4145307513038
 31
0.0
 53
0.00013888888889
  1
<>
  3
ME10_DIM_13
100
AcDbAlignedDimension
 13
-222.66298300000011
 23
30.56387699998908
 14
-210.16298300000011
 24
-23.93612300001092
100
AcDbRotatedDimension
  0
DIMENSION
  5
2DC
100
AcDbEntity
  8
1
100
AcDbDimension
  2
*D17
 10
-222.91298300000011
 20
47.5
 11
-258.34836395591202
 21
53.0
 31
0.0
 53
180.0
  1
64
  3
ME10_DIM_12
100
AcDbAlignedDimension
 13
-286.84571999999997
 23
27.24980300000004
 14
-222.91298300000011
 24
31.75000600000004
 50
180.0
100
AcDbRotatedDimension
  0
DIMENSION
  5
2D1
100
AcDbEntity
  8
1
100
AcDbDimension
  2
*D16
 10
-326.84571999999997
 20
47.5
 11
-305.93871027452298
 21
53.0
 31
0.0
 53
180.0
  1
<>
  3
ME10_DIM_11
100
AcDbAlignedDimension
 13
-286.84571999999997
 23
37.5
 14
-326.84571999999997
 24
37.5
 50
180.0
100
AcDbRotatedDimension
  0
DIMENSION
  5
2C6
100
AcDbEntity
  8
1
100
AcDbDimension
  2
*D15
 10
-338.84571999999997
 20
16.0
 11
-344.34571999999997
 21
-31.4212381959487
 31
0.0
 53
90.00000000000003
  1
<>
  3
ME10_DIM_10
100
AcDbAlignedDimension
 13
-328.84571999999997
 23
-16.0
 14
-328.84571999999997
 24
16.0
 50
90.00000000000003
100
AcDbRotatedDimension
  0
DIMENSION
  5
2BA
100
AcDbEntity
  8
1
100
AcDbDimension
  2
*D14
 10
-356.51777079006399
 20
0.0
 11
-362.01777079006399
 21
-52.68340005057797
 31
0.0
 53
90.00000000000003
  1
<>
  3
ME10_DIM_9
100
AcDbAlignedDimension
 13
-267.41600100000011
 23
-115.942919
 14
-326.84571999999997
 24
0.0
 50
90.00000000000003
100
AcDbRotatedDimension
  0
DIMENSION
  5
2AF
100
AcDbEntity
  8
1
100
AcDbDimension
  2
*D13
 10
-276.41298300000011
 20
-170.94291900000002
 11
-281.91298300000011
 21
-143.96470891872201
 31
0.0
 53
90.00000000000003
  1
<>
  3
ME10_DIM_8
100
AcDbAlignedDimension
 13
-267.41600100000011
 23
-115.942919
 14
-263.07515999999998
 24
-170.94291899999999
 50
90.00000000000003
100
AcDbRotatedDimension
  0
DIMENSION
  5
2A4
100
AcDbEntity
  8
1
100
AcDbDimension
  2
*D12
 10
-223.91298300000011
 20
-184.10760693843591
 11
-245.545553818191
 21
-178.60760693843591
 31
0.0
 53
180.0
  1
DN40
  3
ME10_DIM_7
100
AcDbAlignedDimension
 13
-264.01298300000002
 23
-167.44291899999999
 14
-223.91298300000011
 24
-167.44291899999999
 50
180.0
100
AcDbRotatedDimension
  0
DIMENSION
  5
299
100
AcDbEntity
  8
1
100
AcDbDimension
  2
*D11
 10
-69.8152294862856
 20
27.06387699999999
 11
-75.3152294862856
 21
53.0326539659862
 31
0.0
 53
90.0
  1
<>
  3
ME10_DIM_6
100
AcDbAlignedDimension
 13
-28.64000000000007
 23
-34.93612300000001
 14
-41.58000000000007
 24
27.06387699999999
 50
90.0
100
AcDbRotatedDimension
  0
DIMENSION
  5
28D
100
AcDbEntity
  8
1
100
AcDbDimension
  2
*D10
 10
148.08225147127499
 20
31.56387699998908
 11
142.58225147127499
 21
3.19460964046596
 31
0.0
 53
-90.0
  1
<>
  3
ME10_DIM_5
100
AcDbAlignedDimension
 13
100.00999999999991
 23
-25.43612300001092
 14
75.00999999999993
 24
31.56387699998908
 50
-90.0
100
AcDbRotatedDimension
  0
DIMENSION
  5
282
100
AcDbEntity
  8
1
100
AcDbDimension
  2
*D9
 10
-76.49000000000007
 20
-49.2541724970044
 11
-91.4737820269132
 21
-43.7541724970044
 31
0.0
 53
0.00013888888889
  1
<>
  3
ME10_DIM_4
100
AcDbAlignedDimension
 13
76.50999999999993
 23
-24.43612300001092
 14
-76.49000000000007
 24
-20.43612300001092
100
AcDbRotatedDimension
  0
DIMENSION
  5
276
100
AcDbEntity
  8
1
100
AcDbDimension
  2
*D8
 10
-59.99000000000007
 20
72.71296890473511
 11
17.2293360708325
 21
78.21296890473511
 31
0.0
 53
0.00013888888889
  1
<>
  3
ME10_DIM_3
100
AcDbAlignedDimension
 13
60.00999999999993
 23
30.56387699998908
 14
-59.99000000000007
 24
30.56387699998908
100
AcDbRotatedDimension
  0
DIMENSION
  5
26B
100
AcDbEntity
  8
1
100
AcDbDimension
  2
*D7
 10
-49.99000000000007
 20
61.2413811823623
 11
-13.6778971768002
 21
66.7413811823623
 31
0.0
 53
0.00013888888889
  1
<>
  3
ME10_DIM_2
100
AcDbAlignedDimension
 13
50.00999999999993
 23
30.56387699998908
 14
-49.99000000000007
 24
30.56387699998908
100
AcDbRotatedDimension
  0
DIMENSION
  5
260
100
AcDbEntity
  8
1
100
AcDbDimension
  2
*D6
 10
-39.99000000000007
 20
47.7672823378985
 11
18.462615363143
 21
53.2672823378985
 31
0.0
 53
0.00013888888889
  1
<>
  3
ME10_DIM_1
100
AcDbAlignedDimension
 13
40.00999999999993
 23
30.56387699998908
 14
-39.99000000000007
 24
30.56387699998908
100
AcDbRotatedDimension
  0
DIMENSION
  5
255
100
AcDbEntity
  8
1
100
AcDbDimension
  2
*D5
 10
-131.99000000000007
 20
-67.04265856066959
 11
-89.1535447142612
 21
-61.54265856066959
 31
0.0
 53
0.00013888888889
  1
<>
  3
ME10_DIM_0
100
AcDbAlignedDimension
 13
132.00999999999991
 23
-3.93612300001092
 14
-131.99000000000009
 24
-3.93612300001092
100
AcDbRotatedDimension
  0
INSERT
  5
35
100
AcDbEntity
  8
1
100
AcDbBlockReference
  2
HL_44_MONTAGEPLATTE__1
 10
0.0
 20
-300.90312435330998
  0
INSERT
  5
36
100
AcDbEntity
  8
1
100
AcDbBlockReference
  2
SIFONEINSATZ
 10
-31.41026470000017
 20
-78.11612300000002
  0
INSERT
  5
37
100
AcDbEntity
  8
1
100
AcDbBlockReference
  2
EINBAUSIFON__2
 10
-87.57947943432617
 20
-170.92853199999999
  0
INSERT
  5
38
100
AcDbEntity
  8
1
100
AcDbBlockReference
  2
EINBAUSIFON__3
 10
-365.51777079006399
 20
-186.10760693843591
  0
INSERT
  5
39
100
AcDbEntity
  8
1
100
AcDbBlockReference
  2
HL_44_MONTAGEPLATTE__4
 10
-196.72252116025439
 20
-224.74625688202701
  0
ENDSEC
  0
SECTION
  2
OBJECTS
  0
DICTIONARY
  5
19
100
AcDbDictionary
  3
ACAD_GROUP
350
1A
  3
ACAD_MLINESTYLE
350
1B
  0
DICTIONARY
  5
1A
102
{ACAD_REACTORS
330
19
102
}
100
AcDbDictionary
  0
DICTIONARY
  5
1B
102
{ACAD_REACTORS
330
19
102
}
100
AcDbDictionary
  3
STANDARD
350
1C
  0
MLINESTYLE
  5
1C
102
{ACAD_REACTORS
330
1B
102
}
100
AcDbMlineStyle
  2
STANDARD
 70
             0
  3

 62
             0
 51
90.0
 52
90.0
 71
             2
 49
0.5
 62
           256
  6
BYLAYER
 49
-0.5
 62
           256
  6
BYLAYER
  0
ENDSEC
  0
EOF
