  0
SECTION
  2
HEADER
  9
$ACADVER
  1
AC1015
  9
$ACADMAINTVER
 70
     6
  9
$DWGCODEPAGE
  3
ANSI_1252
  9
$INSBASE
 10
0.0
 20
0.0
 30
0.0
  9
$EXTMIN
 10
-274.0964737855763
 20
-22.665288113799
 30
0.0
  9
$EXTMAX
 10
-107.7810211821717
 20
282.5
 30
0.0
  9
$LIMMIN
 10
0.0
 20
0.0
  9
$LIMMAX
 10
12.0
 20
9.0
  9
$ORTHOMODE
 70
     0
  9
$REGENMODE
 70
     1
  9
$FILLMODE
 70
     1
  9
$QTEXTMODE
 70
     0
  9
$MIRRTEXT
 70
     1
  9
$LTSCALE
 40
1.0
  9
$ATTMODE
 70
     1
  9
$TEXTSIZE
 40
0.2
  9
$TRACEWID
 40
0.05
  9
$TEXTSTYLE
  7
Standard
  9
$CLAYER
  8
0
  9
$CELTYPE
  6
ByLayer
  9
$CECOLOR
 62
   256
  9
$CELTSCALE
 40
1.0
  9
$DISPSILH
 70
     0
  9
$DIMSCALE
 40
1.0
  9
$DIMASZ
 40
0.18
  9
$DIMEXO
 40
0.0625
  9
$DIMDLI
 40
0.38
  9
$DIMRND
 40
0.0
  9
$DIMDLE
 40
0.0
  9
$DIMEXE
 40
0.18
  9
$DIMTP
 40
0.0
  9
$DIMTM
 40
0.0
  9
$DIMTXT
 40
0.18
  9
$DIMCEN
 40
0.09
  9
$DIMTSZ
 40
0.0
  9
$DIMTOL
 70
     0
  9
$DIMLIM
 70
     0
  9
$DIMTIH
 70
     1
  9
$DIMTOH
 70
     1
  9
$DIMSE1
 70
     0
  9
$DIMSE2
 70
     0
  9
$DIMTAD
 70
     0
  9
$DIMZIN
 70
     0
  9
$DIMBLK
  1

  9
$DIMASO
 70
     1
  9
$DIMSHO
 70
     1
  9
$DIMPOST
  1

  9
$DIMAPOST
  1

  9
$DIMALT
 70
     0
  9
$DIMALTD
 70
     2
  9
$DIMALTF
 40
25.4
  9
$DIMLFAC
 40
1.0
  9
$DIMTOFL
 70
     0
  9
$DIMTVP
 40
0.0
  9
$DIMTIX
 70
     0
  9
$DIMSOXD
 70
     0
  9
$DIMSAH
 70
     0
  9
$DIMBLK1
  1

  9
$DIMBLK2
  1

  9
$DIMSTYLE
  2
Standard
  9
$DIMCLRD
 70
     0
  9
$DIMCLRE
 70
     0
  9
$DIMCLRT
 70
     0
  9
$DIMTFAC
 40
1.0
  9
$DIMGAP
 40
0.09
  9
$DIMJUST
 70
     0
  9
$DIMSD1
 70
     0
  9
$DIMSD2
 70
     0
  9
$DIMTOLJ
 70
     1
  9
$DIMTZIN
 70
     0
  9
$DIMALTZ
 70
     0
  9
$DIMALTTZ
 70
     0
  9
$DIMUPT
 70
     0
  9
$DIMDEC
 70
     4
  9
$DIMTDEC
 70
     4
  9
$DIMALTU
 70
     2
  9
$DIMALTTD
 70
     2
  9
$DIMTXSTY
  7
Standard
  9
$DIMAUNIT
 70
     0
  9
$DIMADEC
 70
     0
  9
$DIMALTRND
 40
0.0
  9
$DIMAZIN
 70
     0
  9
$DIMDSEP
 70
    46
  9
$DIMATFIT
 70
     3
  9
$DIMFRAC
 70
     0
  9
$DIMLDRBLK
  1

  9
$DIMLUNIT
 70
     2
  9
$DIMLWD
 70
    -2
  9
$DIMLWE
 70
    -2
  9
$DIMTMOVE
 70
     0
  9
$LUNITS
 70
     2
  9
$LUPREC
 70
     4
  9
$SKETCHINC
 40
0.1
  9
$FILLETRAD
 40
0.5
  9
$AUNITS
 70
     0
  9
$AUPREC
 70
     0
  9
$MENU
  1
.
  9
$ELEVATION
 40
0.0
  9
$PELEVATION
 40
0.0
  9
$THICKNESS
 40
0.0
  9
$LIMCHECK
 70
     0
  9
$CHAMFERA
 40
0.5
  9
$CHAMFERB
 40
0.5
  9
$CHAMFERC
 40
1.0
  9
$CHAMFERD
 40
0.0
  9
$SKPOLY
 70
     0
  9
$TDCREATE
 40
2456966.618601887
  9
$TDUCREATE
 40
2456966.57693522
  9
$TDUPDATE
 40
2456966.618602072
  9
$TDUUPDATE
 40
2456966.576935405
  9
$TDINDWG
 40
0.0000000116
  9
$TDUSRTIMER
 40
0.0000000116
  9
$USRTIMER
 70
     1
  9
$ANGBASE
 50
0.0
  9
$ANGDIR
 70
     0
  9
$PDMODE
 70
     0
  9
$PDSIZE
 40
0.0
  9
$PLINEWID
 40
0.0
  9
$SPLFRAME
 70
     0
  9
$SPLINETYPE
 70
     6
  9
$SPLINESEGS
 70
     8
  9
$HANDSEED
  5
19C
  9
$SURFTAB1
 70
     6
  9
$SURFTAB2
 70
     6
  9
$SURFTYPE
 70
     6
  9
$SURFU
 70
     6
  9
$SURFV
 70
     6
  9
$UCSBASE
  2

  9
$UCSNAME
  2

  9
$UCSORG
 10
0.0
 20
0.0
 30
0.0
  9
$UCSXDIR
 10
1.0
 20
0.0
 30
0.0
  9
$UCSYDIR
 10
0.0
 20
1.0
 30
0.0
  9
$UCSORTHOREF
  2

  9
$UCSORTHOVIEW
 70
     0
  9
$UCSORGTOP
 10
0.0
 20
0.0
 30
0.0
  9
$UCSORGBOTTOM
 10
0.0
 20
0.0
 30
0.0
  9
$UCSORGLEFT
 10
0.0
 20
0.0
 30
0.0
  9
$UCSORGRIGHT
 10
0.0
 20
0.0
 30
0.0
  9
$UCSORGFRONT
 10
0.0
 20
0.0
 30
0.0
  9
$UCSORGBACK
 10
0.0
 20
0.0
 30
0.0
  9
$PUCSBASE
  2

  9
$PUCSNAME
  2

  9
$PUCSORG
 10
0.0
 20
0.0
 30
0.0
  9
$PUCSXDIR
 10
1.0
 20
0.0
 30
0.0
  9
$PUCSYDIR
 10
0.0
 20
1.0
 30
0.0
  9
$PUCSORTHOREF
  2

  9
$PUCSORTHOVIEW
 70
     0
  9
$PUCSORGTOP
 10
0.0
 20
0.0
 30
0.0
  9
$PUCSORGBOTTOM
 10
0.0
 20
0.0
 30
0.0
  9
$PUCSORGLEFT
 10
0.0
 20
0.0
 30
0.0
  9
$PUCSORGRIGHT
 10
0.0
 20
0.0
 30
0.0
  9
$PUCSORGFRONT
 10
0.0
 20
0.0
 30
0.0
  9
$PUCSORGBACK
 10
0.0
 20
0.0
 30
0.0
  9
$USERI1
 70
     0
  9
$USERI2
 70
     0
  9
$USERI3
 70
     0
  9
$USERI4
 70
     0
  9
$USERI5
 70
     0
  9
$USERR1
 40
18.1
  9
$USERR2
 40
0.0
  9
$USERR3
 40
0.0
  9
$USERR4
 40
0.0
  9
$USERR5
 40
0.0
  9
$WORLDVIEW
 70
     1
  9
$SHADEDGE
 70
     3
  9
$SHADEDIF
 70
    70
  9
$TILEMODE
 70
     1
  9
$MAXACTVP
 70
    64
  9
$PINSBASE
 10
0.0
 20
0.0
 30
0.0
  9
$PLIMCHECK
 70
     0
  9
$PEXTMIN
 10
1.00000000000000E+20
 20
1.00000000000000E+20
 30
1.00000000000000E+20
  9
$PEXTMAX
 10
-1.00000000000000E+20
 20
-1.00000000000000E+20
 30
-1.00000000000000E+20
  9
$PLIMMIN
 10
0.0
 20
0.0
  9
$PLIMMAX
 10
12.0
 20
9.0
  9
$UNITMODE
 70
     0
  9
$VISRETAIN
 70
     1
  9
$PLINEGEN
 70
     0
  9
$PSLTSCALE
 70
     1
  9
$TREEDEPTH
 70
  3020
  9
$CMLSTYLE
  2
Standard
  9
$CMLJUST
 70
     0
  9
$CMLSCALE
 40
1.0
  9
$PROXYGRAPHICS
 70
     1
  9
$MEASUREMENT
 70
     1
  9
$CELWEIGHT
370
    -1
  9
$ENDCAPS
280
     0
  9
$JOINSTYLE
280
     0
  9
$LWDISPLAY
290
     0
  9
$INSUNITS
 70
     1
  9
$HYPERLINKBASE
  1

  9
$STYLESHEET
  1

  9
$XEDIT
290
     1
  9
$CEPSNTYPE
380
     0
  9
$PSTYLEMODE
290
     1
  9
$FINGERPRINTGUID
  2
{48435785-B198-466F-BECA-5EC81ED8D808}
  9
$VERSIONGUID
  2
{FAEB1C32-E019-11D5-929B-00C0DF256EC4}
  9
$EXTNAMES
290
     1
  9
$PSVPSCALE
 40
0.0
  9
$OLESTARTUP
290
     0
  0
ENDSEC
  0
SECTION
  2
CLASSES
  0
CLASS
  1
ACDBDICTIONARYWDFLT
  2
AcDbDictionaryWithDefault
  3
ObjectDBX Classes
 90
        0
280
     0
281
     0
  0
CLASS
  1
VISUALSTYLE
  2
AcDbVisualStyle
  3
ObjectDBX Classes
 90
     4095
280
     0
281
     0
  0
CLASS
  1
MATERIAL
  2
AcDbMaterial
  3
ObjectDBX Classes
 90
     1153
280
     0
281
     0
  0
CLASS
  1
DICTIONARYVAR
  2
AcDbDictionaryVar
  3
ObjectDBX Classes
 90
        0
280
     0
281
     0
  0
CLASS
  1
ACDBPLACEHOLDER
  2
AcDbPlaceHolder
  3
ObjectDBX Classes
 90
        0
280
     0
281
     0
  0
CLASS
  1
LAYOUT
  2
AcDbLayout
  3
ObjectDBX Classes
 90
        0
280
     0
281
     0
  0
ENDSEC
  0
SECTION
  2
TABLES
  0
TABLE
  2
VPORT
  5
8
330
0
100
AcDbSymbolTable
 70
     1
  0
VPORT
  5
29
330
8
100
AcDbSymbolTableRecord
100
AcDbViewportTableRecord
  2
*Active
 70
     0
 10
0.0
 20
0.0
 11
1.0
 21
1.0
 12
-190.938747483874
 22
129.9173559431005
 13
0.0
 23
0.0
 14
0.5
 24
0.5
 15
0.5
 25
0.5
 16
0.0
 26
0.0
 36
1.0
 17
0.0
 27
0.0
 37
0.0
 40
335.681816925179
 41
1.60267857142857
 42
50.0
 43
0.0
 44
0.0
 50
0.0
 51
0.0
 71
     0
 72
   100
 73
     1
 74
     3
 75
     0
 76
     0
 77
     0
 78
     0
281
     0
 65
     1
110
0.0
120
0.0
130
0.0
111
1.0
121
0.0
131
0.0
112
0.0
122
1.0
132
0.0
 79
     0
146
0.0
  0
ENDTAB
  0
TABLE
  2
LTYPE
  5
5
330
0
100
AcDbSymbolTable
 70
     8
  0
LTYPE
  5
14
330
5
100
AcDbSymbolTableRecord
100
AcDbLinetypeTableRecord
  2
ByBlock
 70
     0
  3

 72
    65
 73
     0
 40
0.0
  0
LTYPE
  5
15
330
5
100
AcDbSymbolTableRecord
100
AcDbLinetypeTableRecord
  2
ByLayer
 70
     0
  3

 72
    65
 73
     0
 40
0.0
  0
LTYPE
  5
16
330
5
100
AcDbSymbolTableRecord
100
AcDbLinetypeTableRecord
  2
Continuous
 70
     0
  3
Solid line
 72
    65
 73
     0
 40
0.0
  0
LTYPE
  5
3F
330
5
100
AcDbSymbolTableRecord
100
AcDbLinetypeTableRecord
  2
DASHED
 70
     0
  3
Dashed
 72
    65
 73
     2
 40
15.0
 49
7.0
 74
     0
 49
-8.0
 74
     0
  0
LTYPE
  5
40
330
5
100
AcDbSymbolTableRecord
100
AcDbLinetypeTableRecord
  2
DOTTED
 70
     0
  3
Dotted
 72
    65
 73
     2
 40
1.0
 49
0.0
 74
     0
 49
-1.0
 74
     0
  0
LTYPE
  5
41
330
5
100
AcDbSymbolTableRecord
100
AcDbLinetypeTableRecord
  2
DOT_CENTER
 70
     0
  3
Dot_Center
 72
    65
 73
     4
 40
14.0
 49
12.0
 74
     0
 49
-1.0
 74
     0
 49
0.0
 74
     0
 49
-1.0
 74
     0
  0
LTYPE
  5
42
330
5
100
AcDbSymbolTableRecord
100
AcDbLinetypeTableRecord
  2
LONG_DASHED
 70
     0
  3
Long_Dashed
 72
    65
 73
     2
 40
15.0
 49
10.0
 74
     0
 49
-5.0
 74
     0
  0
LTYPE
  5
43
330
5
100
AcDbSymbolTableRecord
100
AcDbLinetypeTableRecord
  2
DASH_CENTER
 70
     0
  3
Dash_Center
 72
    65
 73
     4
 40
14.0
 49
11.0
 74
     0
 49
-1.0
 74
     0
 49
1.0
 74
     0
 49
-1.0
 74
     0
  0
LTYPE
  5
44
330
5
100
AcDbSymbolTableRecord
100
AcDbLinetypeTableRecord
  2
PHANTOM
 70
     0
  3
Phantom
 72
    65
 73
     6
 40
13.0
 49
10.0
 74
     0
 49
-1.0
 74
     0
 49
0.0
 74
     0
 49
-1.0
 74
     0
 49
0.0
 74
     0
 49
-1.0
 74
     0
  0
LTYPE
  5
45
330
5
100
AcDbSymbolTableRecord
100
AcDbLinetypeTableRecord
  2
CENTER_DASH_DASH
 70
     0
  3
Center_Dash_Dash
 72
    65
 73
     6
 40
14.0
 49
9.0
 74
     0
 49
-1.0
 74
     0
 49
1.0
 74
     0
 49
-1.0
 74
     0
 49
1.0
 74
     0
 49
-1.0
 74
     0
  0
ENDTAB
  0
TABLE
  2
LAYER
  5
2
330
0
100
AcDbSymbolTable
 70
     2
  0
LAYER
  5
10
330
2
100
AcDbSymbolTableRecord
100
AcDbLayerTableRecord
  2
0
 70
     0
 62
     7
  6
Continuous
370
    -3
390
F
  0
LAYER
  5
46
330
2
100
AcDbSymbolTableRecord
100
AcDbLayerTableRecord
  2
1
 70
     0
 62
     7
  6
Continuous
370
    -3
390
F
  0
ENDTAB
  0
TABLE
  2
STYLE
  5
3
330
0
100
AcDbSymbolTable
 70
     2
  0
STYLE
  5
11
330
3
100
AcDbSymbolTableRecord
100
AcDbTextStyleTableRecord
  2
Standard
 70
     0
 40
0.0
 41
1.0
 50
0.0
 71
     0
 42
0.2
  3
txt
  4

  0
STYLE
  5
F0
330
3
100
AcDbSymbolTableRecord
100
AcDbTextStyleTableRecord
  2
CONVERTER_11
 70
     0
 40
0.0
 41
0.9
 50
0.0
 71
     0
 42
0.2
  3
txt.shx
  4

  0
ENDTAB
  0
TABLE
  2
VIEW
  5
6
330
0
100
AcDbSymbolTable
 70
     0
  0
ENDTAB
  0
TABLE
  2
UCS
  5
7
330
0
100
AcDbSymbolTable
 70
     0
  0
ENDTAB
  0
TABLE
  2
APPID
  5
9
330
0
100
AcDbSymbolTable
 70
     1
  0
APPID
  5
12
330
9
100
AcDbSymbolTableRecord
100
AcDbRegAppTableRecord
  2
ACAD
 70
     0
  0
ENDTAB
  0
TABLE
  2
DIMSTYLE
  5
A
330
0
100
AcDbSymbolTable
 70
     5
100
AcDbDimStyleTable
  0
DIMSTYLE
105
27
330
A
100
AcDbSymbolTableRecord
100
AcDbDimStyleTableRecord
  2
Standard
 70
     0
178
     0
340
11
  0
DIMSTYLE
105
F4
102
{ACAD_REACTORS
330
F5
102
}
330
A
100
AcDbSymbolTableRecord
100
AcDbDimStyleTableRecord
  2
ME10_DIM_10
 70
     0
  3
DN<>
 41
7.0
 42
0.0
 44
2.0
 73
     0
 74
     0
 77
     1
 78
     8
140
7.0
147
2.0
172
     1
173
     1
174
     1
175
     1
176
     4
177
     4
271
     2
178
     1
271
     2
340
F0
  0
DIMSTYLE
105
FF
102
{ACAD_REACTORS
330
100
102
}
330
A
100
AcDbSymbolTableRecord
100
AcDbDimStyleTableRecord
  2
ME10_DIM_11
 70
     0
 41
7.0
 42
0.0
 44
2.0
 73
     0
 74
     0
 77
     1
 78
     8
140
7.0
147
2.0
172
     1
173
     1
174
     1
175
     1
176
     4
177
     4
271
     2
178
     1
271
     2
340
F0
  0
DIMSTYLE
105
10A
102
{ACAD_REACTORS
330
10B
102
}
330
A
100
AcDbSymbolTableRecord
100
AcDbDimStyleTableRecord
  2
ME10_DIM_12
 70
     0
 41
7.0
 42
0.0
 44
2.0
 73
     0
 74
     0
 77
     1
 78
     8
140
7.0
147
2.0
172
     1
173
     1
174
     1
175
     1
176
     4
177
     4
271
     2
178
     1
271
     2
340
F0
  0
DIMSTYLE
105
117
102
{ACAD_REACTORS
330
118
102
}
330
A
100
AcDbSymbolTableRecord
100
AcDbDimStyleTableRecord
  2
ME10_DIM_13
 70
     0
 41
7.0
 42
0.0
 44
2.0
 73
     0
 74
     0
 77
     1
 78
     8
140
7.0
147
2.0
172
     1
173
     1
174
     1
175
     1
176
     4
177
     4
271
     2
178
     1
271
     2
340
F0
  0
ENDTAB
  0
TABLE
  2
BLOCK_RECORD
  5
1
330
0
100
AcDbSymbolTable
 70
    12
  0
BLOCK_RECORD
  5
1F
330
1
100
AcDbSymbolTableRecord
100
AcDbBlockTableRecord
  2
*Model_Space
340
22
  0
BLOCK_RECORD
  5
1B
330
1
100
AcDbSymbolTableRecord
100
AcDbBlockTableRecord
  2
*Paper_Space
340
1E
  0
BLOCK_RECORD
  5
23
330
1
100
AcDbSymbolTableRecord
100
AcDbBlockTableRecord
  2
*Paper_Space0
340
26
  0
BLOCK_RECORD
  5
47
330
1
100
AcDbSymbolTableRecord
100
AcDbBlockTableRecord
  2
HL19_ABS_10003_ABS
340
0
102
{BLKREFS
331
4B
102
}
  0
BLOCK_RECORD
  5
4A
330
1
100
AcDbSymbolTableRecord
100
AcDbBlockTableRecord
  2
HL19
340
0
102
{BLKREFS
331
55
102
}
  0
BLOCK_RECORD
  5
4E
330
1
100
AcDbSymbolTableRecord
100
AcDbBlockTableRecord
  2
HL_13_Tauchrohr_Artikel
340
0
102
{BLKREFS
331
56
102
}
  0
BLOCK_RECORD
  5
51
330
1
100
AcDbSymbolTableRecord
100
AcDbBlockTableRecord
  2
Holländermutter_6_4
340
0
102
{BLKREFS
331
57
102
}
  0
BLOCK_RECORD
  5
54
330
1
100
AcDbSymbolTableRecord
100
AcDbBlockTableRecord
  2
Hl_13_Tauchrohr
340
0
102
{BLKREFS
331
60
102
}
  0
BLOCK_RECORD
  5
5A
330
1
100
AcDbSymbolTableRecord
100
AcDbBlockTableRecord
  2
Holländermutter_1
340
0
102
{BLKREFS
331
61
102
}
  0
BLOCK_RECORD
  5
5D
330
1
100
AcDbSymbolTableRecord
100
AcDbBlockTableRecord
  2
Dichtstopfen
340
0
102
{BLKREFS
331
62
102
}
  0
BLOCK_RECORD
  5
EA
330
1
100
AcDbSymbolTableRecord
100
AcDbBlockTableRecord
  2
*D8
340
0
  0
BLOCK_RECORD
  5
F6
330
1
100
AcDbSymbolTableRecord
100
AcDbBlockTableRecord
  2
*D9
340
0
  0
BLOCK_RECORD
  5
101
330
1
100
AcDbSymbolTableRecord
100
AcDbBlockTableRecord
  2
*D10
340
0
  0
BLOCK_RECORD
  5
10C
330
1
100
AcDbSymbolTableRecord
100
AcDbBlockTableRecord
  2
*D11
340
0
  0
ENDTAB
  0
ENDSEC
  0
SECTION
  2
BLOCKS
  0
BLOCK
  5
20
330
1F
100
AcDbEntity
  8
0
100
AcDbBlockBegin
  2
*Model_Space
 70
     0
 10
0.0
 20
0.0
 30
0.0
  3
*Model_Space
  1

  0
ENDBLK
  5
21
330
1F
100
AcDbEntity
  8
0
100
AcDbBlockEnd
  0
BLOCK
  5
1C
330
1B
100
AcDbEntity
 67
     1
  8
0
100
AcDbBlockBegin
  2
*Paper_Space
 70
     0
 10
0.0
 20
0.0
 30
0.0
  3
*Paper_Space
  1

  0
ENDBLK
  5
1D
330
1B
100
AcDbEntity
 67
     1
  8
0
100
AcDbBlockEnd
  0
BLOCK
  5
24
330
23
100
AcDbEntity
  8
0
100
AcDbBlockBegin
  2
*Paper_Space0
 70
     0
 10
0.0
 20
0.0
 30
0.0
  3
*Paper_Space0
  1

  0
ENDBLK
  5
25
330
23
100
AcDbEntity
  8
0
100
AcDbBlockEnd
  0
BLOCK
  5
48
330
47
100
AcDbEntity
  8
0
100
AcDbBlockBegin
  2
HL19_ABS_10003_ABS
 70
     0
 10
-231.8252245447824
 20
216.7999650079195
 30
0.0
  3
HL19_ABS_10003_ABS
  1

  0
LINE
  5
63
330
47
100
AcDbEntity
  8
1
  6
DOT_CENTER
 62
     2
100
AcDbLine
 10
-247.3732172561589
 20
185.7018078731597
 30
0.0
 11
-238.6251335317084
 21
218.3501008017344
 31
0.0
  0
LINE
  5
64
330
47
100
AcDbEntity
  8
1
  6
DOT_CENTER
 62
     2
100
AcDbLine
 10
-234.8204935687083
 20
232.5492104481856
 30
0.0
 11
-238.4957240091578
 21
218.8330637148789
 31
0.0
  0
LINE
  5
65
330
47
100
AcDbEntity
  8
1
  6
DOT_CENTER
 62
     2
100
AcDbLine
 10
-223.1854172904914
 20
239.266724869463
 30
0.0
 11
-210.5118442980422
 21
235.8708512209258
 31
0.0
  0
LINE
  5
66
330
47
100
AcDbEntity
  8
0
  6
Continuous
 62
     7
100
AcDbLine
 10
-233.1843767474119
 20
202.9160259796364
 30
0.0
 11
-229.8116827582423
 21
208.7416105215872
 31
0.0
  0
LINE
  5
67
330
47
100
AcDbEntity
  8
0
  6
Continuous
 62
     7
100
AcDbLine
 10
-237.1613967694345
 20
190.0054368472833
 30
0.0
 11
-234.5131471499818
 21
196.0251356730611
 31
0.0
  0
LINE
  5
68
330
47
100
AcDbEntity
  8
0
  6
Continuous
 62
     7
100
AcDbLine
 10
-251.0540045337619
 20
207.7041783140245
 30
0.0
 11
-233.1843767474119
 21
202.9160259796364
 31
0.0
  0
LINE
  5
69
330
47
100
AcDbEntity
  8
0
  6
Continuous
 62
     7
100
AcDbLine
 10
-235.2375915196987
 20
196.2192499568874
 30
0.0
 11
-232.2184509211228
 21
202.6572069345341
 31
0.0
  0
LINE
  5
6A
330
47
100
AcDbEntity
  8
0
  6
Continuous
 62
     7
100
AcDbLine
 10
-248.2843917946008
 20
220.9382912527553
 30
0.0
 11
-228.9658752688169
 21
215.7619103507137
 31
0.0
  0
LINE
  5
6B
330
47
100
AcDbEntity
  8
0
  6
Continuous
 62
     7
100
AcDbLine
 10
-228.9658752688169
 20
215.7619103507137
 30
0.0
 11
-227.2755050728109
 21
215.3089770217852
 31
0.0
  0
LINE
  5
6C
330
47
100
AcDbEntity
  8
0
  6
Continuous
 62
     7
100
AcDbLine
 10
-231.2605714976762
 20
209.1298390892403
 30
0.0
 11
-227.2755050728109
 21
215.3089770217852
 31
0.0
  0
LINE
  5
6D
330
47
100
AcDbEntity
  8
0
  6
Continuous
 62
     3
100
AcDbLine
 10
-247.6720193589051
 20
221.2918446433486
 30
0.0
 11
-229.3194286594106
 21
216.3742827864091
 31
0.0
  0
LINE
  5
6E
330
47
100
AcDbEntity
  8
0
  6
Continuous
 62
     7
100
AcDbLine
 10
-253.348700762621
 20
201.0721070525512
 30
0.0
 11
-252.6242563929041
 21
200.8779927687248
 31
0.0
  0
LINE
  5
6F
330
47
100
AcDbEntity
  8
0
  6
Continuous
 62
     7
100
AcDbLine
 10
-252.6242563929041
 20
200.8779927687248
 30
0.0
 11
-235.2375915196987
 21
196.2192499568874
 31
0.0
  0
LINE
  5
70
330
47
100
AcDbEntity
  8
0
  6
Continuous
 62
     7
100
AcDbLine
 10
-235.2375915196987
 20
196.2192499568874
 30
0.0
 11
-234.5131471499818
 21
196.0251356730611
 31
0.0
  0
LINE
  5
71
330
47
100
AcDbEntity
  8
0
  6
Continuous
 62
     7
100
AcDbLine
 10
-233.1843767474119
 20
202.9160259796364
 30
0.0
 11
-232.2184509211228
 21
202.6572069345341
 31
0.0
  0
LINE
  5
72
330
47
100
AcDbEntity
  8
0
  6
Continuous
 62
     7
100
AcDbLine
 10
-249.6131621971706
 20
214.0474009461798
 30
0.0
 11
-231.2605714976762
 21
209.1298390892403
 31
0.0
  0
LINE
  5
73
330
47
100
AcDbEntity
  8
0
  6
Continuous
 62
     7
100
AcDbLine
 10
-231.2605714976762
 20
209.1298390892403
 30
0.0
 11
-229.8116827582423
 21
208.7416105215872
 31
0.0
  0
LINE
  5
74
330
47
100
AcDbEntity
  8
0
  6
Continuous
 62
     7
100
AcDbLine
 10
-254.0650987294953
 20
194.5347701365697
 30
0.0
 11
-253.348700762621
 21
201.0721070525512
 31
0.0
  0
LINE
  5
75
330
47
100
AcDbEntity
  8
0
  6
Continuous
 62
     7
100
AcDbLine
 10
-254.3065801860674
 20
194.5994748978452
 30
0.0
 11
-254.0650987294953
 21
194.5347701365697
 31
0.0
  0
LINE
  5
76
330
47
100
AcDbEntity
  8
0
  6
Continuous
 62
     7
100
AcDbLine
 10
-254.0650987294953
 20
194.5347701365697
 30
0.0
 11
-237.1613967694345
 21
190.0054368472833
 31
0.0
  0
LINE
  5
77
330
47
100
AcDbEntity
  8
0
  6
Continuous
 62
     7
100
AcDbLine
 10
-237.1613967694345
 20
190.0054368472833
 30
0.0
 11
-236.9199153128622
 21
189.9407320860077
 31
0.0
  0
LINE
  5
78
330
47
100
AcDbEntity
  8
0
  6
Continuous
 62
     7
100
AcDbLine
 10
-255.5973857199926
 20
187.9054671714575
 30
0.0
 11
-254.3065801860674
 21
194.5994748978452
 31
0.0
  0
LINE
  5
79
330
47
100
AcDbEntity
  8
0
  6
Continuous
 62
     7
100
AcDbLine
 10
-254.6176609533281
 20
187.6429507114257
 30
0.0
 11
-240.1287735589899
 21
183.7606650348944
 31
0.0
  0
LINE
  5
7A
330
47
100
AcDbEntity
  8
0
  6
Continuous
 62
     7
100
AcDbLine
 10
-255.5973857199926
 20
187.9054671714575
 30
0.0
 11
-254.6176609533281
 21
187.6429507114257
 31
0.0
  0
LINE
  5
7B
330
47
100
AcDbEntity
  8
0
  6
Continuous
 62
     7
100
AcDbLine
 10
-240.1287735589899
 20
183.7606650348944
 30
0.0
 11
-239.1490487923252
 21
183.4981485748625
 31
0.0
  0
LINE
  5
7C
330
47
100
AcDbEntity
  8
0
  6
Continuous
 62
     7
100
AcDbLine
 10
-239.1490487923252
 20
183.4981485748625
 30
0.0
 11
-236.9199153128622
 21
189.9407320860077
 31
0.0
  0
LINE
  5
7D
330
47
100
AcDbEntity
  8
0
  6
Continuous
 62
     7
100
AcDbLine
 10
-251.0540045337619
 20
207.7041783140245
 30
0.0
 11
-251.0620509366046
 21
214.4356295138331
 31
0.0
  0
LINE
  5
7E
330
47
100
AcDbEntity
  8
0
  6
Continuous
 62
     7
100
AcDbLine
 10
-249.6131621971706
 20
214.0474009461798
 30
0.0
 11
-249.974761990607
 21
221.391224581684
 31
0.0
  0
LINE
  5
7F
330
47
100
AcDbEntity
  8
0
  6
Continuous
 62
     7
100
AcDbLine
 10
-243.9967889184557
 20
235.0079913766555
 30
0.0
 11
-247.6720193589051
 21
221.2918446433486
 31
0.0
  0
LINE
  5
80
330
47
100
AcDbEntity
  8
0
  6
Continuous
 62
     7
100
AcDbLine
 10
-243.9967889184557
 20
235.0079913766555
 30
0.0
 11
-242.8321032154964
 21
239.3546575949569
 31
0.0
  0
LINE
  5
81
330
47
100
AcDbEntity
  8
0
  6
Continuous
 62
     3
100
AcDbLine
 10
-243.9641945817874
 20
234.9992577504673
 30
0.0
 11
-243.9967889184557
 21
235.0079913766555
 31
0.0
  0
LINE
  5
82
330
47
100
AcDbEntity
  8
0
  6
Continuous
 62
     7
100
AcDbLine
 10
-249.974761990607
 20
221.391224581684
 30
0.0
 11
-248.2843917946008
 21
220.9382912527553
 31
0.0
  0
LINE
  5
83
330
47
100
AcDbEntity
  8
0
  6
Continuous
 62
     7
100
AcDbLine
 10
-251.0620509366046
 20
214.4356295138331
 30
0.0
 11
-249.6131621971706
 21
214.0474009461798
 31
0.0
  0
LINE
  5
84
330
47
100
AcDbEntity
  8
0
  6
Continuous
 62
     7
100
AcDbLine
 10
-252.6242563929041
 20
200.8779927687248
 30
0.0
 11
-252.0199303600509
 21
207.9629973591268
 31
0.0
  0
LINE
  5
85
330
47
100
AcDbEntity
  8
0
  6
Continuous
 62
     7
100
AcDbLine
 10
-252.0199303600509
 20
207.9629973591268
 30
0.0
 11
-251.0540045337619
 21
207.7041783140245
 31
0.0
  0
LINE
  5
86
330
47
100
AcDbEntity
  8
0
  6
Continuous
 62
     7
100
AcDbLine
 10
-225.6441982189612
 20
230.0904295197157
 30
0.0
 11
-212.9706252265122
 21
226.6945558711782
 31
0.0
  0
LINE
  5
87
330
47
100
AcDbEntity
  8
0
  6
Continuous
 62
     7
100
AcDbLine
 10
-225.6441982189612
 20
230.0904295197157
 30
0.0
 11
-229.3194286594106
 21
216.3742827864091
 31
0.0
  0
LINE
  5
88
330
47
100
AcDbEntity
  8
0
  6
Continuous
 62
     7
100
AcDbLine
 10
-220.7266363620215
 20
248.4430202192109
 30
0.0
 11
-208.0530633695723
 21
245.0471465706731
 31
0.0
  0
LINE
  5
89
330
47
100
AcDbEntity
  8
0
  6
Continuous
 62
     7
100
AcDbLine
 10
-220.7266363620215
 20
248.4430202192109
 30
0.0
 11
-225.073302580323
 21
249.6077059221699
 31
0.0
  0
LINE
  5
8A
330
47
100
AcDbEntity
  8
0
  6
Continuous
 62
     3
100
AcDbLine
 10
-220.7353699882097
 20
248.4104258825422
 30
0.0
 11
-220.7266363620215
 21
248.4430202192109
 31
0.0
  0
LINE
  5
8B
330
47
100
AcDbEntity
  8
0
  6
Continuous
 62
     3
100
AcDbLine
 10
-225.6441982189612
 20
230.0904295197157
 30
0.0
 11
-220.7353699882097
 21
248.4104258825422
 31
0.0
  0
LINE
  5
8C
330
47
100
AcDbEntity
  8
0
  6
Continuous
 62
     3
100
AcDbLine
 10
-225.6441982189612
 20
230.0904295197157
 30
0.0
 11
-243.9641945817874
 21
234.9992577504673
 31
0.0
  0
ARC
  5
8D
330
47
100
AcDbEntity
  8
0
  6
Continuous
 62
     7
100
AcDbCircle
 10
-225.6441982189612
 20
230.0904295197157
 30
0.0
 40
19.00000000000066
100
AcDbArc
 50
75.00000000002612
 51
165.0000000000254
  0
ARC
  5
8E
330
47
100
AcDbEntity
  8
0
  6
Continuous
 62
     7
100
AcDbCircle
 10
-228.836465746266
 20
216.2448732638583
 30
0.0
 40
0.4999999999999524
100
AcDbArc
 50
165.0000000000513
 51
255.0000000000419
  0
ARC
  5
8F
330
47
100
AcDbEntity
  8
0
  6
Continuous
 62
     7
100
AcDbCircle
 10
-248.1549822720497
 20
221.4212541658997
 30
0.0
 40
0.4999999999998339
100
AcDbArc
 50
255.0000000000139
 51
345.0000000000198
  0
ARC
  5
90
330
47
100
AcDbEntity
  8
0
  6
Continuous
 62
     3
100
AcDbCircle
 10
-225.6441982189612
 20
230.0904295197157
 30
0.0
 40
18.9662558596313
100
AcDbArc
 50
75.00000000002612
 51
165.0000000000257
  0
ARC
  5
91
330
47
100
AcDbEntity
  8
0
  6
Continuous
 62
     7
100
AcDbCircle
 10
-228.8261787343033
 20
235.6017814409765
 30
0.0
 40
14.50000000000023
100
AcDbArc
 50
75.00000000002578
 51
165.0000000000251
  0
ARC
  5
92
330
47
100
AcDbEntity
  8
0
  6
Continuous
 62
     3
100
AcDbCircle
 10
-232.3617126402388
 20
241.7255057979329
 30
0.0
 40
1.543712436559489
100
AcDbArc
 50
17.77577707088648
 51
222.2242229292102
  0
ARC
  5
93
330
47
100
AcDbEntity
  8
0
  6
Continuous
 62
     3
100
AcDbCircle
 10
-232.3617126402388
 20
241.7255057979329
 30
0.0
 40
1.248270110646697
100
AcDbArc
 50
342.3915449066167
 51
257.6084550934328
  0
ARC
  5
94
330
47
100
AcDbEntity
  8
0
  6
Continuous
 62
     7
100
AcDbCircle
 10
-225.6441982189612
 20
230.0904295197157
 30
0.0
 40
12.54138126514935
100
AcDbArc
 50
116.152338950356
 51
123.8476610496968
  0
SPLINE
  5
95
330
47
100
AcDbEntity
  8
0
  6
Continuous
 62
     7
100
AcDbSpline
210
0.0
220
0.0
230
1.0
 70
     8
 71
     3
 72
    39
 73
    35
 74
    33
 42
0.000000001
 43
0.0000000001
 44
0.00000001
 40
0.0
 40
0.0
 40
0.0
 40
0.0
 40
0.1177780265598026
 40
0.2222550528379387
 40
0.3321237506741722
 40
0.4420271691151061
 40
0.6583162300859857
 40
0.8744988184190137
 40
1.075473671947023
 40
1.276107302124971
 40
1.382657404056838
 40
1.477979307854346
 40
1.586291329373975
 40
1.682967782486831
 40
1.847099949043778
 40
2.01088769622762
 40
2.164669111040741
 40
2.349911604059251
 40
2.516372850420391
 40
2.656543559203787
 40
2.825844903446777
 40
2.968160554729191
 40
3.276648930834742
 40
3.585585405743816
 40
3.91897634667729
 40
4.253699939441068
 40
4.656889969852236
 40
5.061814371535658
 40
5.175544521161974
 40
5.276771486304114
 40
5.390698334713373
 40
5.492065070682678
 40
5.711951743565639
 40
5.931619272746731
 40
5.931619272746731
 40
5.931619272746731
 40
5.931619272746731
 10
-230.8916992793214
 20
242.1967900067843
 30
0.0
 10
-230.9017051100161
 20
242.2347710853108
 30
0.0
 10
-230.9205867943532
 20
242.3064439308349
 30
0.0
 10
-230.958071239052
 20
242.4107374295271
 30
0.0
 10
-231.0007703623195
 20
242.5101017482212
 30
0.0
 10
-231.0672048694027
 20
242.6394962647246
 30
0.0
 10
-231.1656282548059
 20
242.7918227062515
 30
0.0
 10
-231.3030138058169
 20
242.9529713212077
 30
0.0
 10
-231.4558374155242
 20
243.091754025134
 30
0.0
 10
-231.5946686367161
 20
243.1896117992771
 30
0.0
 10
-231.7112238807198
 20
243.2562342390921
 30
0.0
 10
-231.8040674435855
 20
243.3018721559537
 30
0.0
 10
-231.8965879159798
 20
243.3403012967263
 30
0.0
 10
-232.0130557258253
 20
243.3801732531485
 30
0.0
 10
-232.1505078547004
 20
243.4150196620361
 30
0.0
 10
-232.3096746043038
 20
243.438259431816
 30
0.0
 10
-232.4773688824087
 20
243.4456943158447
 30
0.0
 10
-232.6459317250143
 20
243.4349074806357
 30
0.0
 10
-232.8076413444176
 20
243.4059801151474
 30
0.0
 10
-232.9604717647014
 20
243.3626869984454
 30
0.0
 10
-233.1008358980267
 20
243.3072023996144
 30
0.0
 10
-233.2846028521776
 20
243.2120864397518
 30
0.0
 10
-233.4915991623331
 20
243.0629407875818
 30
0.0
 10
-233.7080285310467
 20
242.8286277373124
 30
0.0
 10
-233.8765077560791
 20
242.5469453188109
 30
0.0
 10
-233.9919688438723
 20
242.2062934454589
 30
0.0
 10
-234.0288374428748
 20
241.8231073823254
 30
0.0
 10
-233.9810644781825
 20
241.5159534615171
 30
0.0
 10
-233.9174345033979
 20
241.3192677093843
 30
0.0
 10
-233.876897213211
 20
241.2173332652242
 30
0.0
 10
-233.8315473344325
 20
241.1219543503707
 30
0.0
 10
-233.7605844882581
 20
240.9954174782779
 30
0.0
 10
-233.6582849843322
 20
240.8458389642866
 30
0.0
 10
-233.5559869421139
 20
240.7406481631096
 30
0.0
 10
-233.5048634179636
 20
240.6880789878996
 30
0.0
 11
-230.8916992793214
 21
242.1967900067843
 31
0.0
 11
-230.9234585977538
 21
242.3102052221316
 31
0.0
 11
-230.9584212835658
 21
242.40865856091
 31
0.0
 11
-231.0019008390455
 21
242.5095578133515
 31
0.0
 11
-231.0520750277943
 21
242.6073397760946
 31
0.0
 11
-231.1694788279635
 21
242.7889913815849
 31
0.0
 11
-231.3097274646439
 21
242.9535065223477
 31
0.0
 11
-231.4585199733557
 21
243.0886053054896
 31
0.0
 11
-231.6225177926788
 21
243.2041845809625
 31
0.0
 11
-231.7150232362288
 21
243.2570586498878
 31
0.0
 11
-231.8005703809154
 21
243.2991056640924
 31
0.0
 11
-231.9005987112454
 21
243.3406487401545
 31
0.0
 11
-231.9920653070167
 21
243.3719568616297
 31
0.0
 11
-232.1511699394331
 21
243.4122691937298
 31
0.0
 11
-232.3132417251929
 21
243.4359158101466
 31
0.0
 11
-232.46687301903
 21
243.4427091280935
 31
0.0
 11
-232.6517355645103
 21
243.4308507720549
 31
0.0
 11
-232.8155938534096
 21
243.4015282927886
 31
0.0
 11
-232.9504551555842
 21
243.3633149856478
 31
0.0
 11
-233.107901144183
 21
243.3010758827084
 31
0.0
 11
-233.2342845195653
 21
243.2356466301002
 31
0.0
 11
-233.4845670738305
 21
243.0553032865654
 31
0.0
 11
-233.6942617839228
 21
242.8284335564978
 31
0.0
 11
-233.865520883139
 21
242.542391879796
 31
0.0
 11
-233.9731240174807
 21
242.2254353379767
 31
0.0
 11
-234.0118670046422
 21
241.8241110525111
 31
0.0
 11
-233.9499062852316
 21
241.4239552816846
 31
0.0
 11
-233.9149110078184
 21
241.3157430940754
 31
0.0
 11
-233.8775091431967
 21
241.2216792910264
 31
0.0
 11
-233.8285547559119
 21
241.118806579241
 31
0.0
 11
-233.7790776175814
 21
241.0303349565438
 31
0.0
 11
-233.6534464909504
 21
240.8498717478111
 31
0.0
 11
-233.5048634179636
 21
240.6880789878996
 31
0.0
  0
SPLINE
  5
96
330
47
100
AcDbEntity
  8
0
  6
Continuous
 62
     7
100
AcDbSpline
210
0.0
220
0.0
230
1.0
 70
     8
 71
     3
 72
    23
 73
    19
 74
    17
 42
0.000000001
 43
0.0000000001
 44
0.00000001
 40
0.0
 40
0.0
 40
0.0
 40
0.0
 40
0.053206028834752
 40
0.1140263690511431
 40
0.1753878423400012
 40
0.2298825586278203
 40
0.2920047638694037
 40
0.346793754491518
 40
0.4097533404947117
 40
0.4645423758506459
 40
0.5192264740644916
 40
0.5841403144894526
 40
0.6381155931320139
 40
0.7044580693733635
 40
0.8139844563235442
 40
0.904473522912698
 40
0.9288551504921648
 40
0.9476573164942542
 40
0.9476573164942542
 40
0.9476573164942542
 40
0.9476573164942542
 10
-230.8916992793214
 20
242.1967900067843
 30
0.0
 10
-230.8878616354267
 20
242.1794688521741
 30
0.0
 10
-230.879637156427
 20
242.1423477108342
 30
0.0
 10
-230.8718627943066
 20
242.0843305944174
 30
0.0
 10
-230.8678790390883
 20
242.0255347261335
 30
0.0
 10
-230.8678201450512
 20
241.9661703235843
 30
0.0
 10
-230.8714412954122
 20
241.9091040038221
 30
0.0
 10
-230.8790623980915
 20
241.8495996052421
 30
0.0
 10
-230.890003009015
 20
241.7930895847298
 30
0.0
 10
-230.9045113651239
 20
241.7374390270556
 30
0.0
 10
-230.9225151191668
 20
241.6821331162564
 30
0.0
 10
-230.9440480609672
 20
241.6283732833826
 30
0.0
 10
-230.9708736277545
 20
241.5727163356871
 30
0.0
 10
-231.0090982337057
 20
241.5062318328864
 30
0.0
 10
-231.0620537688686
 20
241.4345174490523
 30
0.0
 10
-231.1166806679752
 20
241.3825683130761
 30
0.0
 10
-231.1536329462074
 20
241.3575172335925
 30
0.0
 10
-231.166379218182
 20
241.3508108612366
 30
0.0
 10
-231.1719289312626
 20
241.347890921387
 30
0.0
 11
-230.8916992793214
 21
242.1967900067843
 31
0.0
 11
-230.8808765608143
 21
242.1446963441113
 31
0.0
 11
-230.8725461296656
 21
242.0844492088464
 31
0.0
 11
-230.8684462526239
 21
242.0232248562745
 31
0.0
 11
-230.8683690795755
 21
241.9687301944962
 31
0.0
 11
-230.8722974627013
 21
241.9067323217823
 31
0.0
 11
-230.8792526023758
 21
241.8523865809482
 31
0.0
 11
-230.8912189391274
 21
241.7905746381196
 31
0.0
 11
-230.9050439627106
 21
241.7375585355679
 31
0.0
 11
-230.9219794861193
 21
241.6855629717979
 31
0.0
 11
-230.9461410432
 21
241.6253132760096
 31
0.0
 11
-230.9696028189003
 21
241.5767038552769
 31
0.0
 11
-231.0027299870952
 21
241.5192241643371
 31
0.0
 11
-231.068515060964
 21
241.4316550292815
 31
0.0
 11
-231.1351260628062
 21
241.3704076185184
 31
0.0
 11
-231.1554330814098
 21
241.3569135959827
 31
0.0
 11
-231.1719289312626
 21
241.347890921387
 31
0.0
  0
SPLINE
  5
97
330
47
100
AcDbEntity
  8
0
  6
Continuous
 62
     7
100
AcDbSpline
210
0.0
220
0.0
230
1.0
 70
     8
 71
     3
 72
    21
 73
    17
 74
    15
 42
0.000000001
 43
0.0000000001
 44
0.00000001
 40
0.0
 40
0.0
 40
0.0
 40
0.0
 40
0.0208496131651622
 40
0.0432556775424376
 40
0.1337853821849502
 40
0.2433592839068768
 40
0.3095998264003915
 40
0.3635189041939063
 40
0.4181846365933998
 40
0.4827191890953619
 40
0.5376795434521846
 40
0.6008671714240938
 40
0.6554326231481643
 40
0.7172689452345352
 40
0.8328919387196414
 40
0.9475303318561912
 40
0.9475303318561912
 40
0.9475303318561912
 40
0.9475303318561912
 10
-232.6295804187902
 20
240.5063154426774
 30
0.0
 10
-232.6354717846546
 20
240.5026196106473
 30
0.0
 10
-232.6476943218018
 20
240.4949520605147
 30
0.0
 10
-232.6879520889917
 20
240.4755949505171
 30
0.0
 10
-232.7596521340582
 20
240.4544477841833
 30
0.0
 10
-232.8482337289964
 20
240.4444653173042
 30
0.0
 10
-232.9248854377433
 20
240.4446137243975
 30
0.0
 10
-232.9830387736398
 20
240.4489545887224
 30
0.0
 10
-233.0402409417725
 20
240.4568269195008
 30
0.0
 10
-233.0971518404597
 20
240.4685471374366
 30
0.0
 10
-233.155901671879
 20
240.4846936834716
 30
0.0
 10
-233.2103650702351
 20
240.5034906798907
 30
0.0
 10
-233.2656398617213
 20
240.526586183523
 30
0.0
 10
-233.3349166378478
 20
240.5610104969174
 30
0.0
 10
-233.418333203483
 20
240.6121271409784
 30
0.0
 10
-233.4761023564369
 20
240.6628339764897
 30
0.0
 10
-233.5048634179636
 20
240.6880789878996
 30
0.0
 11
-232.6295804187902
 21
240.5063154426774
 31
0.0
 11
-232.6474389194506
 21
240.4955553014951
 31
0.0
 11
-232.667547580072
 21
240.4856723159256
 31
0.0
 11
-232.7539393621799
 21
240.4586152081534
 31
0.0
 11
-232.8627188674143
 21
240.4454448196944
 31
0.0
 11
-232.9289593827958
 21
240.4455047963533
 31
0.0
 11
-232.9827310749538
 21
240.4494887746423
 31
0.0
 11
-233.0368886357302
 21
240.4569252338559
 31
0.0
 11
-233.1000999923983
 21
240.46992649858
 31
0.0
 11
-233.1530958945971
 21
240.4844892911146
 31
0.0
 11
-233.2128278099031
 21
240.5050993531361
 31
0.0
 11
-233.2631664494731
 21
240.5261566536588
 31
0.0
 11
-233.318577242231
 21
240.553604326788
 31
0.0
 11
-233.4166001914859
 21
240.6149246123883
 31
0.0
 11
-233.5048634179636
 21
240.6880789878996
 31
0.0
  0
ENDBLK
  5
49
330
47
100
AcDbEntity
  8
0
100
AcDbBlockEnd
  0
BLOCK
  5
4C
330
4A
100
AcDbEntity
  8
0
100
AcDbBlockBegin
  2
HL19
 70
     0
 10
-222.6394579718565
 20
217.3797086555084
 30
0.0
  3
HL19
  1

  0
INSERT
  5
4B
330
4A
100
AcDbEntity
  8
0
100
AcDbBlockReference
  2
HL19_ABS_10003_ABS
 10
-231.8252245447824
 20
216.7999650079195
 30
0.0
  0
ENDBLK
  5
4D
330
4A
100
AcDbEntity
  8
0
100
AcDbBlockEnd
  0
BLOCK
  5
4F
330
4E
100
AcDbEntity
  8
0
100
AcDbBlockBegin
  2
HL_13_Tauchrohr_Artikel
 70
     0
 10
-170.8964327401016
 20
128.1461410318086
 30
0.0
  3
HL_13_Tauchrohr_Artikel
  1

  0
LINE
  5
98
330
4E
100
AcDbEntity
  8
1
  6
PHANTOM
 62
     2
100
AcDbLine
 10
-151.2810211821629
 20
-8.3265592396987
 30
0.0
 11
-151.2810211821629
 21
264.618841303316
 31
0.0
  0
LINE
  5
99
330
4E
100
AcDbEntity
  8
1
  6
PHANTOM
 62
     2
100
AcDbLine
 10
-210.5118442980402
 20
235.8708512209336
 30
0.0
 11
-160.4844361702592
 21
222.4660476136728
 31
0.0
  0
LINE
  5
9A
330
4E
100
AcDbEntity
  8
1
  6
Continuous
 62
     7
100
AcDbLine
 10
-171.2810211821629
 20
240.3704884645725
 30
0.0
 11
-171.2810211821629
 21
243.5000000000038
 31
0.0
  0
LINE
  5
9B
330
4E
100
AcDbEntity
  8
1
  6
Continuous
 62
     7
100
AcDbLine
 10
-170.3431990086541
 20
0.0
 30
0.0
 11
-132.2188433556718
 21
0.0
 31
0.0
  0
LINE
  5
9C
330
4E
100
AcDbEntity
  8
1
  6
Continuous
 62
     7
100
AcDbLine
 10
-197.3610184919678
 20
217.335593450448
 30
0.0
 11
-171.2810211821629
 21
210.34747923268
 31
0.0
  0
LINE
  5
9D
330
4E
100
AcDbEntity
  8
1
  6
Continuous
 62
     7
100
AcDbLine
 10
-171.2810211821629
 20
3.5
 30
0.0
 11
-171.2810211821629
 21
87.70315962462212
 31
0.0
  0
LINE
  5
9E
330
4E
100
AcDbEntity
  8
1
  6
Continuous
 62
     7
100
AcDbLine
 10
-171.2810211821629
 20
240.3704884645725
 30
0.0
 11
-189.855266183995
 21
245.347442412831
 31
0.0
  0
LINE
  5
9F
330
4E
100
AcDbEntity
  8
1
  6
Continuous
 62
     7
100
AcDbLine
 10
-171.2810211821629
 20
3.5
 30
0.0
 11
-170.3431990086541
 21
0.0
 31
0.0
  0
LINE
  5
A0
330
4E
100
AcDbEntity
  8
1
  6
Continuous
 62
     7
100
AcDbLine
 10
-132.2188433556718
 20
0.0
 30
0.0
 11
-131.2810211821629
 21
3.5
 31
0.0
  0
LINE
  5
A1
330
4E
100
AcDbEntity
  8
1
  6
Continuous
 62
     7
100
AcDbLine
 10
-171.2810211821629
 20
3.5
 30
0.0
 11
-131.2810211821629
 21
3.5
 31
0.0
  0
LINE
  5
A2
330
4E
100
AcDbEntity
  8
1
  6
Continuous
 62
     7
100
AcDbLine
 10
-131.2810211821629
 20
243.5000000000038
 30
0.0
 11
-131.2810211821629
 21
87.70315962462212
 31
0.0
  0
LINE
  5
A3
330
4E
100
AcDbEntity
  8
1
  6
Continuous
 62
     7
100
AcDbLine
 10
-131.2810211821629
 20
87.70315962462212
 30
0.0
 11
-131.2810211821629
 21
3.5
 31
0.0
  0
LINE
  5
A4
330
4E
100
AcDbEntity
  8
1
  6
Continuous
 62
     7
100
AcDbLine
 10
-171.2810211821629
 20
87.70315962462212
 30
0.0
 11
-171.2810211821629
 21
210.34747923268
 31
0.0
  0
ARC
  5
A5
330
4E
100
AcDbEntity
  8
1
  6
Continuous
 62
     7
100
AcDbCircle
 10
-194.9168991892363
 20
225.3589838486263
 30
0.0
 40
27.99999999999701
100
AcDbArc
 50
327.5797504596996
 51
32.42024954030018
  0
ENDBLK
  5
50
330
4E
100
AcDbEntity
  8
0
100
AcDbBlockEnd
  0
BLOCK
  5
52
330
51
100
AcDbEntity
  8
0
100
AcDbBlockBegin
  2
Holländermutter_6_4
 70
     0
 10
-151.2810211821721
 20
254.0
 30
0.0
  3
Holländermutter_6_4
  1

  0
LINE
  5
A6
330
51
100
AcDbEntity
  8
0
  6
Continuous
 62
     7
100
AcDbLine
 10
-125.164528367353
 20
243.5
 30
0.0
 11
-177.397513996973
 21
243.5
 31
0.0
  0
LINE
  5
A7
330
51
100
AcDbEntity
  8
0
  6
Continuous
 62
     7
100
AcDbLine
 10
-177.397513996973
 20
243.5
 30
0.0
 11
-179.7810211821629
 21
245.5
 31
0.0
  0
LINE
  5
A8
330
51
100
AcDbEntity
  8
0
  6
Continuous
 62
     7
100
AcDbLine
 10
-122.7810211821629
 20
258.0
 30
0.0
 11
-122.7810211821811
 21
245.4999999999636
 31
0.0
  0
LINE
  5
A9
330
51
100
AcDbEntity
  8
0
  6
Continuous
 62
     7
100
AcDbLine
 10
-179.7810211821629
 20
258.0
 30
0.0
 11
-179.7810211821629
 21
245.5
 31
0.0
  0
LINE
  5
AA
330
51
100
AcDbEntity
  8
0
  6
Continuous
 62
     7
100
AcDbLine
 10
-179.7810211821629
 20
258.0
 30
0.0
 11
-178.8054417056114
 21
258.0
 31
0.0
  0
LINE
  5
AB
330
51
100
AcDbEntity
  8
0
  6
Continuous
 62
     7
100
AcDbLine
 10
-122.7810211821629
 20
258.0
 30
0.0
 11
-123.7566006587144
 21
258.0
 31
0.0
  0
LINE
  5
AC
330
51
100
AcDbEntity
  8
0
  6
Continuous
 62
     7
100
AcDbLine
 10
-125.164528367353
 20
243.5
 30
0.0
 11
-122.7810211821811
 21
245.4999999999636
 31
0.0
  0
LINE
  5
AD
330
51
100
AcDbEntity
  8
0
  6
Continuous
 62
     7
100
AcDbLine
 10
-177.7054417056092
 20
258.0
 30
0.0
 11
-178.8054417056114
 21
258.0
 31
0.0
  0
LINE
  5
AE
330
51
100
AcDbEntity
  8
0
  6
Continuous
 62
     7
100
AcDbLine
 10
-130.4041032194286
 20
247.5
 30
0.0
 11
-130.4041032194286
 21
246.5
 31
0.0
  0
LINE
  5
AF
330
51
100
AcDbEntity
  8
0
  6
Continuous
 62
     7
100
AcDbLine
 10
-130.4041032194286
 20
246.5
 30
0.0
 11
-130.4041032194286
 21
244.7422826366783
 31
0.0
  0
LINE
  5
B0
330
51
100
AcDbEntity
  8
0
  6
Continuous
 62
     7
100
AcDbLine
 10
-134.0103478034831
 20
243.8218007376454
 30
0.0
 11
-149.2810211821629
 21
243.8218007376454
 31
0.0
  0
LINE
  5
B1
330
51
100
AcDbEntity
  8
0
  6
Continuous
 62
     7
100
AcDbLine
 10
-153.2810211821629
 20
243.8218007376454
 30
0.0
 11
-168.5516945608466
 21
243.8218007376454
 31
0.0
  0
LINE
  5
B2
330
51
100
AcDbEntity
  8
0
  6
Continuous
 62
     7
100
AcDbLine
 10
-168.5516945608466
 20
258.0
 30
0.0
 11
-168.5516945608466
 21
243.8218007376454
 31
0.0
  0
LINE
  5
B3
330
51
100
AcDbEntity
  8
0
  6
Continuous
 62
     7
100
AcDbLine
 10
-149.2810211821629
 20
244.7422826366783
 30
0.0
 11
-149.2810211821629
 21
243.8218007376454
 31
0.0
  0
LINE
  5
B4
330
51
100
AcDbEntity
  8
0
  6
Continuous
 62
     7
100
AcDbLine
 10
-134.0103478034831
 20
258.0
 30
0.0
 11
-134.0103478034831
 21
243.8218007376454
 31
0.0
  0
LINE
  5
B5
330
51
100
AcDbEntity
  8
0
  6
Continuous
 62
     7
100
AcDbLine
 10
-149.2810211821629
 20
258.0
 30
0.0
 11
-149.2810211821629
 21
244.7422826366783
 31
0.0
  0
LINE
  5
B6
330
51
100
AcDbEntity
  8
0
  6
Continuous
 62
     7
100
AcDbLine
 10
-172.1579391448972
 20
246.5
 30
0.0
 11
-172.1579391448972
 21
244.7422826366783
 31
0.0
  0
LINE
  5
B7
330
51
100
AcDbEntity
  8
0
  6
Continuous
 62
     7
100
AcDbLine
 10
-169.3295120201506
 20
258.0
 30
0.0
 11
-169.3295120201506
 21
244.7422826366783
 31
0.0
  0
LINE
  5
B8
330
51
100
AcDbEntity
  8
0
  6
Continuous
 62
     7
100
AcDbLine
 10
-133.2325303441754
 20
258.0
 30
0.0
 11
-133.2325303441645
 21
244.7422826366274
 31
0.0
  0
LINE
  5
B9
330
51
100
AcDbEntity
  8
0
  6
Continuous
 62
     7
100
AcDbLine
 10
-153.2810211821629
 20
258.0
 30
0.0
 11
-153.2810211821629
 21
244.7422826366783
 31
0.0
  0
LINE
  5
BA
330
51
100
AcDbEntity
  8
0
  6
Continuous
 62
     7
100
AcDbLine
 10
-131.1284779183475
 20
258.0
 30
0.0
 11
-131.1284779183475
 21
245.5
 31
0.0
  0
LINE
  5
BB
330
51
100
AcDbEntity
  8
0
  6
Continuous
 62
     7
100
AcDbLine
 10
-171.4335644459785
 20
258.0
 30
0.0
 11
-171.4335644459785
 21
245.5
 31
0.0
  0
LINE
  5
BC
330
51
100
AcDbEntity
  8
0
  6
Continuous
 62
     7
100
AcDbLine
 10
-151.2810211821629
 20
258.0
 30
0.0
 11
-151.2810211821629
 21
245.5
 31
0.0
  0
LINE
  5
BD
330
51
100
AcDbEntity
  8
0
  6
Continuous
 62
     7
100
AcDbLine
 10
-172.1579391448972
 20
258.0
 30
0.0
 11
-172.1579391448972
 21
246.5
 31
0.0
  0
LINE
  5
BE
330
51
100
AcDbEntity
  8
0
  6
Continuous
 62
     7
100
AcDbLine
 10
-130.4041032194286
 20
258.0
 30
0.0
 11
-130.4041032194286
 21
247.5
 31
0.0
  0
LINE
  5
BF
330
51
100
AcDbEntity
  8
0
  6
Continuous
 62
     7
100
AcDbLine
 10
-130.4041032194286
 20
258.0
 30
0.0
 11
-131.1284779183475
 21
258.0
 31
0.0
  0
LINE
  5
C0
330
51
100
AcDbEntity
  8
0
  6
Continuous
 62
     7
100
AcDbLine
 10
-133.2325303441754
 20
258.0
 30
0.0
 11
-134.0103478034831
 21
258.0
 31
0.0
  0
LINE
  5
C1
330
51
100
AcDbEntity
  8
0
  6
Continuous
 62
     7
100
AcDbLine
 10
-134.0103478034831
 20
258.0
 30
0.0
 11
-149.2810211821629
 21
258.0
 31
0.0
  0
LINE
  5
C2
330
51
100
AcDbEntity
  8
0
  6
Continuous
 62
     7
100
AcDbLine
 10
-171.4335644459785
 20
258.0
 30
0.0
 11
-172.1579391448972
 21
258.0
 31
0.0
  0
LINE
  5
C3
330
51
100
AcDbEntity
  8
0
  6
Continuous
 62
     7
100
AcDbLine
 10
-171.3801216855895
 20
258.0
 30
0.0
 11
-171.4335644459785
 21
258.0
 31
0.0
  0
LINE
  5
C4
330
51
100
AcDbEntity
  8
0
  6
Continuous
 62
     7
100
AcDbLine
 10
-151.2810211821629
 20
258.0
 30
0.0
 11
-153.2810211821629
 21
258.0
 31
0.0
  0
LINE
  5
C5
330
51
100
AcDbEntity
  8
0
  6
Continuous
 62
     7
100
AcDbLine
 10
-168.5516945608466
 20
258.0
 30
0.0
 11
-169.3295120201506
 21
258.0
 31
0.0
  0
LINE
  5
C6
330
51
100
AcDbEntity
  8
0
  6
Continuous
 62
     7
100
AcDbLine
 10
-171.3801216855895
 20
258.0
 30
0.0
 11
-169.3295120201506
 21
258.0
 31
0.0
  0
LINE
  5
C7
330
51
100
AcDbEntity
  8
0
  6
Continuous
 62
     7
100
AcDbLine
 10
-151.2810211821629
 20
258.0
 30
0.0
 11
-149.2810211821629
 21
258.0
 31
0.0
  0
LINE
  5
C8
330
51
100
AcDbEntity
  8
0
  6
Continuous
 62
     7
100
AcDbLine
 10
-131.1819206787363
 20
258.0
 30
0.0
 11
-131.1284779183475
 21
258.0
 31
0.0
  0
LINE
  5
C9
330
51
100
AcDbEntity
  8
0
  6
Continuous
 62
     7
100
AcDbLine
 10
-171.3801216855895
 20
243.8218007376454
 30
0.0
 11
-177.7054417056092
 21
243.8218007376454
 31
0.0
  0
LINE
  5
CA
330
51
100
AcDbEntity
  8
0
  6
Continuous
 62
     7
100
AcDbLine
 10
-177.7054417056092
 20
258.0
 30
0.0
 11
-177.7054417056092
 21
243.8218007376454
 31
0.0
  0
LINE
  5
CB
330
51
100
AcDbEntity
  8
0
  6
Continuous
 62
     7
100
AcDbLine
 10
-172.1579391448972
 20
258.0
 30
0.0
 11
-177.7054417056092
 21
258.0
 31
0.0
  0
LINE
  5
CC
330
51
100
AcDbEntity
  8
0
  6
Continuous
 62
     7
100
AcDbLine
 10
-178.8054417056114
 20
258.0
 30
0.0
 11
-178.8054417056114
 21
244.7422826366783
 31
0.0
  0
LINE
  5
CD
330
51
100
AcDbEntity
  8
0
  6
Continuous
 62
     7
100
AcDbLine
 10
-179.7810211821629
 20
260.5
 30
0.0
 11
-122.7810211821629
 21
260.5
 31
0.0
  0
LINE
  5
CE
330
51
100
AcDbEntity
  8
0
  6
Continuous
 62
     7
100
AcDbLine
 10
-179.7810211821629
 20
260.5
 30
0.0
 11
-179.7810211821629
 21
258.0
 31
0.0
  0
LINE
  5
CF
330
51
100
AcDbEntity
  8
0
  6
Continuous
 62
     7
100
AcDbLine
 10
-122.7810211821629
 20
260.5
 30
0.0
 11
-122.7810211821629
 21
258.0
 31
0.0
  0
LINE
  5
D0
330
51
100
AcDbEntity
  8
0
  6
Continuous
 62
     7
100
AcDbLine
 10
-124.8566006587166
 20
258.0
 30
0.0
 11
-124.8566006587166
 21
243.8218007376454
 31
0.0
  0
LINE
  5
D1
330
51
100
AcDbEntity
  8
0
  6
Continuous
 62
     7
100
AcDbLine
 10
-153.2810211821629
 20
244.7422826366783
 30
0.0
 11
-153.2810211821629
 21
243.8218007376454
 31
0.0
  0
LINE
  5
D2
330
51
100
AcDbEntity
  8
0
  6
Continuous
 62
     7
100
AcDbLine
 10
-131.1819206787363
 20
243.8218007376454
 30
0.0
 11
-124.8566006587166
 21
243.8218007376454
 31
0.0
  0
LINE
  5
D3
330
51
100
AcDbEntity
  8
0
  6
Continuous
 62
     7
100
AcDbLine
 10
-123.7566006587144
 20
258.0
 30
0.0
 11
-123.7566006587144
 21
244.7422826366783
 31
0.0
  0
LINE
  5
D4
330
51
100
AcDbEntity
  8
0
  6
Continuous
 62
     7
100
AcDbLine
 10
-124.8566006587166
 20
258.0
 30
0.0
 11
-123.7566006587144
 21
258.0
 31
0.0
  0
LINE
  5
D5
330
51
100
AcDbEntity
  8
0
  6
Continuous
 62
     7
100
AcDbLine
 10
-153.2810211821629
 20
258.0
 30
0.0
 11
-168.5516945608466
 21
258.0
 31
0.0
  0
LINE
  5
D6
330
51
100
AcDbEntity
  8
0
  6
Continuous
 62
     7
100
AcDbLine
 10
-130.4041032194286
 20
258.0
 30
0.0
 11
-124.8566006587166
 21
258.0
 31
0.0
  0
LINE
  5
D7
330
51
100
AcDbEntity
  8
0
  6
Continuous
 62
     7
100
AcDbLine
 10
-133.2325303441754
 20
258.0
 30
0.0
 11
-131.1819206787363
 21
258.0
 31
0.0
  0
LINE
  5
D8
330
51
100
AcDbEntity
  8
1
  6
PHANTOM
 62
     2
100
AcDbLine
 10
-151.2810211821629
 20
260.5
 30
0.0
 11
-151.2810211821629
 21
258.0
 31
0.0
  0
LINE
  5
D9
330
51
100
AcDbEntity
  8
1
  6
Continuous
 62
     7
100
AcDbLine
 10
-175.2810211821629
 20
263.5
 30
0.0
 11
-175.2810211821629
 21
264.5
 31
0.0
  0
LINE
  5
DA
330
51
100
AcDbEntity
  8
1
  6
Continuous
 62
     7
100
AcDbLine
 10
-127.2810211821629
 20
263.5
 30
0.0
 11
-127.2810211821629
 21
264.5
 31
0.0
  0
SPLINE
  5
DB
330
51
100
AcDbEntity
  8
0
  6
Continuous
 62
     7
100
AcDbSpline
210
0.0
220
0.0
230
1.0
 70
     8
 71
     3
 72
    11
 73
     7
 74
     5
 42
0.000000001
 43
0.0000000001
 44
0.00000001
 40
0.0
 40
0.0
 40
0.0
 40
0.0
 40
0.3158789477960976
 40
0.624083243464592
 40
0.9336075373332048
 40
1.235572027457299
 40
1.235572027457299
 40
1.235572027457299
 40
1.235572027457299
 10
-179.7810211821629
 20
245.5
 30
0.0
 10
-179.7000224362701
 20
245.4327203757753
 30
0.0
 10
-179.5399928952273
 20
245.2997957767765
 30
0.0
 10
-179.2959375671018
 20
245.1066695485096
 30
0.0
 10
-179.0523307354791
 20
244.9205079826998
 30
0.0
 10
-178.8870569615026
 20
244.8011994128092
 30
0.0
 10
-178.8054417056114
 20
244.7422826366783
 30
0.0
 11
-179.7810211821629
 21
245.5
 31
0.0
 11
-179.5372275052732
 21
245.2991414607004
 31
0.0
 11
-179.2957494512916
 21
245.1076258283574
 31
0.0
 11
-179.0494818645939
 21
244.9201223233995
 31
0.0
 11
-178.8054417056114
 21
244.7422826366783
 31
0.0
  0
SPLINE
  5
DC
330
51
100
AcDbEntity
  8
0
  6
Continuous
 62
     7
100
AcDbSpline
210
0.0
220
0.0
230
1.0
 70
     8
 71
     3
 72
    11
 73
     7
 74
     5
 42
0.000000001
 43
0.0000000001
 44
0.00000001
 40
0.0
 40
0.0
 40
0.0
 40
0.0
 40
0.2532283968017368
 40
0.5152040065315866
 40
0.777836365251956
 40
1.04853554697571
 40
1.04853554697571
 40
1.04853554697571
 40
1.04853554697571
 10
-130.4041032194286
 20
244.7422826366783
 30
0.0
 10
-130.4646256731928
 20
244.8011267817476
 30
0.0
 10
-130.5877611839413
 20
244.9208477230617
 30
0.0
 10
-130.7684546813422
 20
245.1068316144015
 30
0.0
 10
-130.9498600685729
 20
245.3001748224426
 30
0.0
 10
-131.0683412824542
 20
245.4327233235448
 30
0.0
 10
-131.1284779183475
 20
245.5
 30
0.0
 11
-130.4041032194286
 21
244.7422826366783
 31
0.0
 11
-130.5848365791286
 21
244.9196525149141
 31
0.0
 11
-130.7677516225773
 21
245.1071979949811
 31
0.0
 11
-130.9472516322671
 21
245.2989152411315
 31
0.0
 11
-131.1284779183475
 21
245.5
 31
0.0
  0
SPLINE
  5
DD
330
51
100
AcDbEntity
  8
0
  6
Continuous
 62
     7
100
AcDbSpline
210
0.0
220
0.0
230
1.0
 70
     8
 71
     3
 72
    11
 73
     7
 74
     5
 42
0.000000001
 43
0.0000000001
 44
0.00000001
 40
0.0
 40
0.0
 40
0.0
 40
0.0
 40
0.5373994098884595
 40
1.069443421120813
 40
1.607942799014349
 40
2.138967656576371
 40
2.138967656576371
 40
2.138967656576371
 40
2.138967656576371
 10
-151.2810211821629
 20
245.5
 30
0.0
 10
-151.1149932940818
 20
245.432735996304
 30
0.0
 10
-150.784592046233
 20
245.2988783153168
 30
0.0
 10
-150.2845386528326
 20
245.1058950246146
 30
0.0
 10
-149.7842667955237
 20
244.919466591926
 30
0.0
 10
-149.4479863405615
 20
244.8010681356503
 30
0.0
 10
-149.2810211821629
 20
244.7422826366783
 30
0.0
 11
-151.2810211821629
 21
245.5
 31
0.0
 11
-150.7823859150135
 21
245.2995979137799
 31
0.0
 11
-150.286182843523
 21
245.1076256713241
 31
0.0
 11
-149.7813743513675
 21
244.9201424283542
 31
0.0
 11
-149.2810211821629
 21
244.7422826366783
 31
0.0
  0
SPLINE
  5
DE
330
51
100
AcDbEntity
  8
0
  6
Continuous
 62
     7
100
AcDbSpline
210
0.0
220
0.0
230
1.0
 70
     8
 71
     3
 72
    11
 73
     7
 74
     5
 42
0.000000001
 43
0.0000000001
 44
0.00000001
 40
0.0
 40
0.0
 40
0.0
 40
0.0
 40
0.5642569841862917
 40
1.11775209990714
 40
1.680943573996674
 40
2.236567026744496
 40
2.236567026744496
 40
2.236567026744496
 40
2.236567026744496
 10
-171.4335644459785
 20
245.5
 30
0.0
 10
-171.258040416865
 20
245.4324086473753
 30
0.0
 10
-170.9103400593705
 20
245.2985151013715
 30
0.0
 10
-170.3842799010417
 20
245.105555047519
 30
0.0
 10
-169.8588125861839
 20
244.9194230296884
 30
0.0
 10
-169.5051481106229
 20
244.80106255361
 30
0.0
 10
-169.3295120201506
 20
244.7422826366783
 30
0.0
 11
-171.4335644459785
 21
245.5
 31
0.0
 11
-170.9064556547274
 21
245.2986488975748
 31
0.0
 11
-170.3869684361158
 21
245.1076256713241
 31
0.0
 11
-169.8558988102441
 21
244.9201431678212
 31
0.0
 11
-169.3295120201506
 21
244.7422826366783
 31
0.0
  0
SPLINE
  5
DF
330
51
100
AcDbEntity
  8
0
  6
Continuous
 62
     7
100
AcDbSpline
210
0.0
220
0.0
230
1.0
 70
     8
 71
     3
 72
    11
 73
     7
 74
     5
 42
0.000000001
 43
0.0000000001
 44
0.00000001
 40
0.0
 40
0.0
 40
0.0
 40
0.0
 40
0.2712732238834613
 40
0.5327401942679877
 40
0.7946573268782597
 40
1.048535542549039
 40
1.048535542549039
 40
1.048535542549039
 40
1.048535542549039
 10
-171.4335644459785
 20
245.5
 30
0.0
 10
-171.4938291804744
 20
245.4325811455263
 30
0.0
 10
-171.6121801511016
 20
245.300180570147
 30
0.0
 10
-171.7934369140041
 20
245.1069952058214
 30
0.0
 10
-171.9739873312556
 20
244.921139088699
 30
0.0
 10
-172.0972623033154
 20
244.8012787569693
 30
0.0
 10
-172.1579391448972
 20
244.7422826366783
 30
0.0
 11
-171.4335644459785
 21
245.5
 31
0.0
 11
-171.6151790419312
 21
245.2984924305065
 31
0.0
 11
-171.7938823069921
 21
245.1076256713241
 31
0.0
 11
-171.9767470570155
 21
244.9201128246345
 31
0.0
 11
-172.1579391448972
 21
244.7422826366783
 31
0.0
  0
SPLINE
  5
E0
330
51
100
AcDbEntity
  8
0
  6
Continuous
 62
     7
100
AcDbSpline
210
0.0
220
0.0
230
1.0
 70
     8
 71
     3
 72
    11
 73
     7
 74
     5
 42
0.000000001
 43
0.0000000001
 44
0.00000001
 40
0.0
 40
0.0
 40
0.0
 40
0.0
 40
0.5401144726116094
 40
1.069443422464278
 40
1.607110367596556
 40
2.13896765736481
 40
2.13896765736481
 40
2.13896765736481
 40
2.13896765736481
 10
-151.2810211821629
 20
245.5
 30
0.0
 10
-151.4478889639993
 20
245.432398749924
 30
0.0
 10
-151.7782923576312
 20
245.2985461900735
 30
0.0
 10
-152.2780930796471
 20
245.105679340384
 30
0.0
 10
-152.7775147750344
 20
244.9195615085014
 30
0.0
 10
-153.1137946020888
 20
244.8011612057824
 30
0.0
 10
-153.2810211821629
 20
244.7422826366783
 30
0.0
 11
-151.2810211821629
 21
245.5
 31
0.0
 11
-151.7821822244578
 21
245.2986017545536
 31
0.0
 11
-152.275859520803
 21
245.1076256713241
 31
0.0
 11
-152.7798856375107
 21
244.9204267992145
 31
0.0
 11
-153.2810211821629
 21
244.7422826366783
 31
0.0
  0
SPLINE
  5
E1
330
51
100
AcDbEntity
  8
0
  6
Continuous
 62
     7
100
AcDbSpline
210
0.0
220
0.0
230
1.0
 70
     8
 71
     3
 72
    11
 73
     7
 74
     5
 42
0.000000001
 43
0.0000000001
 44
0.00000001
 40
0.0
 40
0.0
 40
0.0
 40
0.0
 40
0.2998864799384093
 40
0.6025485779358504
 40
0.9017237172664263
 40
1.205108678842478
 40
1.205108678842478
 40
1.205108678842478
 40
1.205108678842478
 10
-171.3801216855895
 20
243.8218007376454
 30
0.0
 10
-171.444644257289
 20
243.898150401499
 30
0.0
 10
-171.5742865818941
 20
244.0515563980014
 30
0.0
 10
-171.7682900440427
 20
244.2811380398919
 30
0.0
 10
-171.9630407655349
 20
244.511614994136
 30
0.0
 10
-172.0926711321646
 20
244.665036123957
 30
0.0
 10
-172.1579391448972
 20
244.7422826366783
 30
0.0
 11
-171.3801216855895
 21
243.8218007376454
 31
0.0
 11
-171.5736880100403
 21
244.0508509043961
 31
0.0
 11
-171.7690393486041
 21
244.2820265953451
 31
0.0
 11
-171.9621337785411
 21
244.5105442207505
 31
0.0
 11
-172.1579391448972
 21
244.7422826366783
 31
0.0
  0
SPLINE
  5
E2
330
51
100
AcDbEntity
  8
0
  6
Continuous
 62
     7
100
AcDbSpline
210
0.0
220
0.0
230
1.0
 70
     8
 71
     3
 72
    11
 73
     7
 74
     5
 42
0.000000001
 43
0.0000000001
 44
0.00000001
 40
0.0
 40
0.0
 40
0.0
 40
0.0
 40
0.3024286829096421
 40
0.6025600718406132
 40
0.9055648577537795
 40
1.205108678810639
 40
1.205108678810639
 40
1.205108678810639
 40
1.205108678810639
 10
-133.2325303441645
 20
244.7422826366274
 30
0.0
 10
-133.2975926285846
 20
244.6652796059705
 30
0.0
 10
-133.4272229859113
 20
244.5118584809732
 30
0.0
 10
-133.6220474177829
 20
244.2812942747894
 30
0.0
 10
-133.8162566244368
 20
244.0514691645311
 30
0.0
 10
-133.9458989565103
 20
243.8980631616691
 30
0.0
 10
-134.0103478034831
 20
243.8218007376454
 30
0.0
 11
-133.2325303441645
 21
244.7422826366274
 31
0.0
 11
-133.4277185163765
 21
244.5112746591135
 31
0.0
 11
-133.6214301217293
 21
244.2820266175222
 31
0.0
 11
-133.8170026497328
 21
244.0505891819661
 31
0.0
 11
-134.0103478034831
 21
243.8218007376454
 31
0.0
  0
SPLINE
  5
E3
330
51
100
AcDbEntity
  8
0
  6
Continuous
 62
     7
100
AcDbSpline
210
0.0
220
0.0
230
1.0
 70
     8
 71
     3
 72
    11
 73
     7
 74
     5
 42
0.000000001
 43
0.0000000001
 44
0.00000001
 40
0.0
 40
0.0
 40
0.0
 40
0.0
 40
0.2994287919464472
 40
0.6025485779333928
 40
0.9027839839228844
 40
1.205108678840074
 40
1.205108678840074
 40
1.205108678840074
 40
1.205108678840074
 10
-168.5516945608466
 20
243.8218007376454
 30
0.0
 10
-168.6161186587487
 20
243.8980338756319
 30
0.0
 10
-168.7457609849907
 20
244.0514398707499
 30
0.0
 10
-168.9399925655759
 20
244.2812914556785
 30
0.0
 10
-169.1348417438973
 20
244.511884950127
 30
0.0
 10
-169.2644721071223
 20
244.6653060828247
 30
0.0
 10
-169.3295120201506
 20
244.7422826366783
 30
0.0
 11
-168.5516945608466
 21
243.8218007376454
 31
0.0
 11
-168.7449654685411
 21
244.0505013228776
 31
0.0
 11
-168.9406122238574
 21
244.2820265953451
 31
0.0
 11
-169.1343909631101
 21
244.5113540887328
 31
0.0
 11
-169.3295120201506
 21
244.7422826366783
 31
0.0
  0
SPLINE
  5
E4
330
51
100
AcDbEntity
  8
0
  6
Continuous
 62
     7
100
AcDbSpline
210
0.0
220
0.0
230
1.0
 70
     8
 71
     3
 72
    11
 73
     7
 74
     5
 42
0.000000001
 43
0.0000000001
 44
0.00000001
 40
0.0
 40
0.0
 40
0.0
 40
0.0
 40
0.3023613649077685
 40
0.6025600718724695
 40
0.905983006344707
 40
1.205108678842477
 40
1.205108678842477
 40
1.205108678842477
 40
1.205108678842477
 10
-130.4041032194286
 20
244.7422826366783
 30
0.0
 10
-130.4691510214347
 20
244.6652967461321
 30
0.0
 10
-130.5987813785437
 20
244.511875620937
 30
0.0
 10
-130.7936957706727
 20
244.2812049500417
 30
0.0
 10
-130.9879194648421
 20
244.0513627039696
 30
0.0
 10
-131.1175617984449
 20
243.8979567024001
 30
0.0
 10
-131.1819206787363
 20
243.8218007376454
 30
0.0
 11
-130.4041032194286
 21
244.7422826366783
 31
0.0
 11
-130.5992479437373
 21
244.5113260789376
 31
0.0
 11
-130.7930029969825
 21
244.2820266175222
 31
0.0
 11
-130.988845420848
 21
244.0502698006248
 31
0.0
 11
-131.1819206787363
 21
243.8218007376454
 31
0.0
  0
SPLINE
  5
E5
330
51
100
AcDbEntity
  8
0
  6
Continuous
 62
     7
100
AcDbSpline
210
0.0
220
0.0
230
1.0
 70
     8
 71
     3
 72
    11
 73
     7
 74
     5
 42
0.000000001
 43
0.0000000001
 44
0.00000001
 40
0.0
 40
0.0
 40
0.0
 40
0.0
 40
0.3572711679014628
 40
0.7171622810819456
 40
1.074171569536269
 40
1.434324554759921
 40
1.434324554759921
 40
1.434324554759921
 40
1.434324554759921
 10
-177.7054417056092
 20
243.8218007376454
 30
0.0
 10
-177.7967771411882
 20
243.8982229793913
 30
0.0
 10
-177.9801177848272
 20
244.051627894927
 30
0.0
 10
-178.2547185339979
 20
244.2814090512476
 30
0.0
 10
-178.5300505675153
 20
244.5118131504502
 30
0.0
 10
-178.7133767912678
 20
244.6652352943021
 30
0.0
 10
-178.8054417056114
 20
244.7422826366783
 30
0.0
 11
-177.7054417056092
 21
243.8218007376454
 31
0.0
 11
-177.9794466212297
 21
244.051069125413
 31
0.0
 11
-178.2554543392904
 21
244.2820265953451
 31
0.0
 11
-178.5292456441162
 21
244.5111421850474
 31
0.0
 11
-178.8054417056114
 21
244.7422826366783
 31
0.0
  0
SPLINE
  5
E6
330
51
100
AcDbEntity
  8
0
  6
Continuous
 62
     7
100
AcDbSpline
210
0.0
220
0.0
230
1.0
 70
     8
 71
     3
 72
    11
 73
     7
 74
     5
 42
0.000000001
 43
0.0000000001
 44
0.00000001
 40
0.0
 40
0.0
 40
0.0
 40
0.0
 40
0.3565221488583439
 40
0.7171622810817071
 40
1.074239850857146
 40
1.434324554759911
 40
1.434324554759911
 40
1.434324554759911
 40
1.434324554759911
 10
-124.8566006587166
 20
243.8218007376454
 30
0.0
 10
-124.7654567067378
 20
243.8980627587779
 30
0.0
 10
-124.5821160607976
 20
244.051467671563
 30
0.0
 10
-124.3074978499003
 20
244.2812634267144
 30
0.0
 10
-124.0319743420013
 20
244.5118277575469
 30
0.0
 10
-123.8486481184103
 20
244.6652499015919
 30
0.0
 10
-123.7566006587144
 20
244.7422826366783
 30
0.0
 11
-124.8566006587166
 21
243.8218007376454
 31
0.0
 11
-124.5831701876023
 21
244.0505884560503
 31
0.0
 11
-124.3065880250357
 21
244.2820265953451
 31
0.0
 11
-124.0327443556831
 21
244.5111860062197
 31
0.0
 11
-123.7566006587144
 21
244.7422826366783
 31
0.0
  0
SPLINE
  5
E7
330
51
100
AcDbEntity
  8
0
  6
Continuous
 62
     7
100
AcDbSpline
210
0.0
220
0.0
230
1.0
 70
     8
 71
     3
 72
    11
 73
     7
 74
     5
 42
0.000000001
 43
0.0000000001
 44
0.00000001
 40
0.0
 40
0.0
 40
0.0
 40
0.0
 40
0.5543188591686085
 40
1.117553862962322
 40
1.673979122166544
 40
2.236567028802676
 40
2.236567028802676
 40
2.236567028802676
 40
2.236567028802676
 10
-133.2325303441645
 20
244.7422826366274
 30
0.0
 10
-133.0573061538496
 20
244.8009230316911
 30
0.0
 10
-132.7040393204196
 20
244.9191470589975
 30
0.0
 10
-132.1780416449966
 20
245.1054480656692
 30
0.0
 10
-131.6515736551125
 20
245.2985596594997
 30
0.0
 10
-131.3034821671789
 20
245.4326071390004
 30
0.0
 10
-131.1284779183475
 20
245.5
 30
0.0
 11
-133.2325303441645
 21
244.7422826366274
 31
0.0
 11
-132.7073766669305
 21
244.9197171682076
 31
0.0
 11
-132.1762602867962
 21
245.1071979949811
 31
0.0
 11
-131.6540238124817
 21
245.2992347990549
 31
0.0
 11
-131.1284779183475
 21
245.5
 31
0.0
  0
SPLINE
  5
E8
330
51
100
AcDbEntity
  8
0
  6
Continuous
 62
     7
100
AcDbSpline
210
0.0
220
0.0
230
1.0
 70
     8
 71
     3
 72
    11
 73
     7
 74
     5
 42
0.000000001
 43
0.0000000001
 44
0.00000001
 40
0.0
 40
0.0
 40
0.0
 40
0.0
 40
0.3152989234476376
 40
0.6240834980411508
 40
0.9336077907775792
 40
1.235572026219386
 40
1.235572026219386
 40
1.235572026219386
 40
1.235572026219386
 10
-122.7810211821811
 20
245.4999999999636
 30
0.0
 10
-122.8618706524244
 20
245.4328432847334
 30
0.0
 10
-123.0218991822974
 20
245.2999173817055
 30
0.0
 10
-123.2659512309598
 20
245.1067867549795
 30
0.0
 10
-123.5097117816387
 20
244.9205079049452
 30
0.0
 10
-123.6749854765562
 20
244.8011993703402
 30
0.0
 10
-123.7566006587144
 20
244.7422826366783
 30
0.0
 11
-122.7810211821811
 21
245.4999999999636
 31
0.0
 11
-123.0243638098428
 21
245.2995061678139
 31
0.0
 11
-123.2662931149966
 21
245.1076256713241
 31
0.0
 11
-123.5125607039672
 21
244.9201221712205
 31
0.0
 11
-123.7566006587144
 21
244.7422826366783
 31
0.0
  0
ENDBLK
  5
53
330
51
100
AcDbEntity
  8
0
100
AcDbBlockEnd
  0
BLOCK
  5
58
330
54
100
AcDbEntity
  8
0
100
AcDbBlockBegin
  2
Hl_13_Tauchrohr
 70
     0
 10
-190.938747483874
 20
129.9173559431005
 30
0.0
  3
Hl_13_Tauchrohr
  1

  0
INSERT
  5
55
330
54
100
AcDbEntity
  8
0
100
AcDbBlockReference
  2
HL19
 10
-222.6394579718565
 20
217.3797086555084
 30
0.0
  0
INSERT
  5
56
330
54
100
AcDbEntity
  8
1
100
AcDbBlockReference
  2
HL_13_Tauchrohr_Artikel
 10
-170.8964327401016
 20
128.1461410318086
 30
0.0
  0
INSERT
  5
57
330
54
100
AcDbEntity
  8
0
100
AcDbBlockReference
  2
Holländermutter_6_4
 10
-151.2810211821721
 20
254.0
 30
0.0
  0
LINE
  5
E9
330
54
100
AcDbEntity
  8
1
  6
Continuous
 62
     7
100
AcDbLine
 10
-119.7810211821717
 20
252.0
 30
0.0
 11
-118.7810211821717
 21
252.0
 31
0.0
  0
DIMENSION
  5
F5
330
54
100
AcDbEntity
  8
1
100
AcDbDimension
  2
*D8
 10
-131.2810211821629
 20
-20.665288113799
 30
0.0
 11
-151.360143937997
 21
-15.165288113799
 31
0.0
 70
    32
  1
DN40
 71
     5
 42
-1.0
 53
0.00013888888889
  3
ME10_DIM_10
100
AcDbAlignedDimension
 13
-171.2810211821629
 23
3.5
 33
0.0
 14
-131.2810211821629
 24
3.5
 34
0.0
100
AcDbRotatedDimension
  0
DIMENSION
  5
100
330
54
100
AcDbEntity
  8
1
100
AcDbDimension
  2
*D9
 10
-127.2810211821629
 20
273.5
 30
0.0
 11
-151.360143937997
 21
279.0
 31
0.0
 70
    32
  1
6/4"
 71
     5
 42
-1.0
 53
0.00013888888889
  3
ME10_DIM_11
100
AcDbAlignedDimension
 13
-175.2810211821629
 23
263.5
 33
0.0
 14
-127.2810211821629
 24
263.5
 34
0.0
100
AcDbRotatedDimension
  0
DIMENSION
  5
10B
330
54
100
AcDbEntity
  8
1
100
AcDbDimension
  2
*D10
 10
-109.7810211821717
 20
252.0
 30
0.0
 11
-115.2810211821717
 21
134.778129486033
 31
0.0
 70
    32
  1
<>
 71
     5
 42
-1.0
 53
-90.0
  3
ME10_DIM_12
100
AcDbAlignedDimension
 13
-132.2188433556718
 23
0.0
 33
0.0
 14
-119.7810211821717
 24
252.0
 34
0.0
 50
-90.0
100
AcDbRotatedDimension
  0
DIMENSION
  5
118
330
54
100
AcDbEntity
  8
1
100
AcDbDimension
  2
*D11
 10
-260.5735122175277
 20
169.3343102577313
 30
0.0
 11
-225.4922010308972
 21
165.6283202481215
 31
0.0
 70
    33
  1
3/4"
 71
     5
 42
-1.0
 53
-14.99999999997238
  3
ME10_DIM_13
100
AcDbAlignedDimension
 13
-239.1490487923252
 23
183.4981485748625
 33
0.0
 14
-255.5973857199926
 24
187.9054671714575
 34
0.0
  0
ENDBLK
  5
59
330
54
100
AcDbEntity
  8
0
100
AcDbBlockEnd
  0
BLOCK
  5
5B
330
5A
100
AcDbEntity
  8
0
100
AcDbBlockBegin
  2
Holländermutter_1
 70
     0
 10
-201.7211542178521
 20
232.6486270425841
 30
0.0
  3
Holländermutter_1
  1

  0
LINE
  5
119
330
5A
100
AcDbEntity
  8
1
  6
DOT_CENTER
 62
     2
100
AcDbLine
 10
-209.5459184717531
 20
235.6120321758238
 30
0.0
 11
-206.1651780797407
 21
234.7061655179663
 31
0.0
  0
LINE
  5
11A
330
5A
100
AcDbEntity
  8
0
  6
Continuous
 62
     7
100
AcDbLine
 10
-207.7183349770239
 20
228.9097050651685
 30
0.0
 11
-197.5761138009874
 21
226.1921050915965
 31
0.0
  0
LINE
  5
11B
330
5A
100
AcDbEntity
  8
0
  6
Continuous
 62
     7
100
AcDbLine
 10
-192.7954222988018
 20
244.0338886730997
 30
0.0
 11
-194.364429375093
 21
238.1782745469345
 31
0.0
  0
LINE
  5
11C
330
5A
100
AcDbEntity
  8
0
  6
Continuous
 62
     7
100
AcDbLine
 10
-192.4269435876263
 20
245.4090699447163
 30
0.0
 11
-192.7954222988018
 21
244.0338886730997
 31
0.0
  0
LINE
  5
11D
330
5A
100
AcDbEntity
  8
0
  6
Continuous
 62
     7
100
AcDbLine
 10
-194.4698000064212
 20
237.7850259971926
 30
0.0
 11
-195.1170902458468
 21
235.3693059364068
 31
0.0
  0
LINE
  5
11E
330
5A
100
AcDbEntity
  8
0
  6
Continuous
 62
     7
100
AcDbLine
 10
-204.6120211824576
 20
240.5026259707643
 30
0.0
 11
-194.4698000064212
 21
237.7850259971926
 31
0.0
  0
LINE
  5
11F
330
5A
100
AcDbEntity
  8
0
  6
Continuous
 62
     7
100
AcDbLine
 10
-197.5761138009874
 20
226.1921050915965
 30
0.0
 11
-197.6814844323153
 21
225.798856541855
 31
0.0
  0
LINE
  5
120
330
5A
100
AcDbEntity
  8
0
  6
Continuous
 62
     7
100
AcDbLine
 10
-195.1170902458468
 20
235.3693059364068
 30
0.0
 11
-196.9288235615615
 21
228.6078251523824
 31
0.0
  0
LINE
  5
121
330
5A
100
AcDbEntity
  8
0
  6
Continuous
 62
     7
100
AcDbLine
 10
-202.1649028138067
 20
246.5444334105897
 30
0.0
 11
-203.7339098900982
 21
240.6888192844245
 31
0.0
  0
LINE
  5
122
330
5A
100
AcDbEntity
  8
0
  6
Continuous
 62
     7
100
AcDbLine
 10
-202.5691647636631
 20
248.1266699182881
 30
0.0
 11
-192.4269435876263
 21
245.4090699447163
 31
0.0
  0
LINE
  5
123
330
5A
100
AcDbEntity
  8
0
  6
Continuous
 62
     7
100
AcDbLine
 10
-200.707344164725
 20
214.506194283905
 30
0.0
 11
-200.9090190372179
 21
213.7535334131501
 31
0.0
  0
LINE
  5
124
330
5A
100
AcDbEntity
  8
0
  6
Continuous
 62
     7
100
AcDbLine
 10
-200.9922825696648
 20
213.4427896796404
 30
0.0
 11
-201.1087511399604
 21
213.0081230578106
 31
0.0
  0
LINE
  5
125
330
5A
100
AcDbEntity
  8
0
  6
Continuous
 62
     7
100
AcDbLine
 10
-200.9090190372179
 20
213.7535334131501
 30
0.0
 11
-200.9922825696648
 21
213.4427896796404
 31
0.0
  0
LINE
  5
126
330
5A
100
AcDbEntity
  8
0
  6
Continuous
 62
     7
100
AcDbLine
 10
-199.8014775068676
 20
217.8869346759174
 30
0.0
 11
-200.707344164725
 21
214.506194283905
 31
0.0
  0
LINE
  5
127
330
5A
100
AcDbEntity
  8
0
  6
Continuous
 62
     7
100
AcDbLine
 10
-199.6189702197822
 20
218.568061144073
 30
0.0
 11
-199.8014775068676
 21
217.8869346759174
 31
0.0
  0
LINE
  5
128
330
5A
100
AcDbEntity
  8
0
  6
Continuous
 62
     7
100
AcDbLine
 10
-197.6814844323153
 20
225.798856541855
 30
0.0
 11
-199.2504915086067
 21
219.9432424156898
 31
0.0
  0
LINE
  5
129
330
5A
100
AcDbEntity
  8
0
  6
Continuous
 62
     7
100
AcDbLine
 10
-199.2504915086067
 20
219.9432424156898
 30
0.0
 11
-199.6189702197822
 21
218.568061144073
 31
0.0
  0
LINE
  5
12A
330
5A
100
AcDbEntity
  8
0
  6
Continuous
 62
     7
100
AcDbLine
 10
-191.1368947701905
 20
250.2235976756396
 30
0.0
 11
-191.338569642684
 21
249.4709368048839
 31
0.0
  0
LINE
  5
12B
330
5A
100
AcDbEntity
  8
0
  6
Continuous
 62
     7
100
AcDbLine
 10
-191.338569642684
 20
249.4709368048839
 30
0.0
 11
-192.2444363005411
 21
246.0901964128717
 31
0.0
  0
LINE
  5
12C
330
5A
100
AcDbEntity
  8
0
  6
Continuous
 62
     7
100
AcDbLine
 10
-190.937162667448
 20
250.9690080309789
 30
0.0
 11
-191.053631237744
 21
250.5343414091491
 31
0.0
  0
LINE
  5
12D
330
5A
100
AcDbEntity
  8
0
  6
Continuous
 62
     7
100
AcDbLine
 10
-191.053631237744
 20
250.5343414091491
 30
0.0
 11
-191.1368947701905
 21
250.2235976756396
 31
0.0
  0
LINE
  5
12E
330
5A
100
AcDbEntity
  8
0
  6
Continuous
 62
     7
100
AcDbLine
 10
-196.9288235615615
 20
228.6078251523824
 30
0.0
 11
-197.5761138009874
 21
226.1921050915965
 31
0.0
  0
LINE
  5
12F
330
5A
100
AcDbEntity
  8
0
  6
Continuous
 62
     3
100
AcDbLine
 10
-190.3247902317525
 20
251.3225614215724
 30
0.0
 11
-200.7551977493669
 21
212.3957506221148
 31
0.0
  0
LINE
  5
130
330
5A
100
AcDbEntity
  8
0
  6
Continuous
 62
     7
100
AcDbLine
 10
-192.7954222988018
 20
244.0338886730997
 30
0.0
 11
-202.1649028138067
 21
246.5444334105897
 31
0.0
  0
LINE
  5
131
330
5A
100
AcDbEntity
  8
0
  6
Continuous
 62
     7
100
AcDbLine
 10
-188.392938579174
 20
250.8049233313682
 30
0.0
 11
-198.8233460967885
 21
211.8781125319107
 31
0.0
  0
LINE
  5
132
330
5A
100
AcDbEntity
  8
0
  6
Continuous
 62
     7
100
AcDbLine
 10
-188.392938579174
 20
250.8049233313682
 30
0.0
 11
-190.3247902317525
 21
251.3225614215724
 31
0.0
  0
LINE
  5
133
330
5A
100
AcDbEntity
  8
0
  6
Continuous
 62
     7
100
AcDbLine
 10
-199.2504915086067
 20
219.9432424156898
 30
0.0
 11
-208.6199720236116
 21
222.4537871531797
 31
0.0
  0
LINE
  5
134
330
5A
100
AcDbEntity
  8
0
  6
Continuous
 62
     7
100
AcDbLine
 10
-198.8233460967885
 20
211.8781125319107
 30
0.0
 11
-200.7551977493669
 21
212.3957506221148
 31
0.0
  0
LINE
  5
135
330
5A
100
AcDbEntity
  8
0
  6
Continuous
 62
     7
100
AcDbLine
 10
-210.3617630846696
 20
215.9533344171306
 30
0.0
 11
-200.9922825696648
 21
213.4427896796404
 31
0.0
  0
LINE
  5
136
330
5A
100
AcDbEntity
  8
0
  6
Continuous
 62
     7
100
AcDbLine
 10
-209.1709580218725
 20
220.3974794134075
 30
0.0
 11
-210.0768246797299
 21
217.0167390213952
 31
0.0
  0
LINE
  5
137
330
5A
100
AcDbEntity
  8
0
  6
Continuous
 62
     7
100
AcDbLine
 10
-210.6670580536759
 20
217.9049207256326
 30
0.0
 11
-209.7611913958186
 21
221.285661117645
 31
0.0
  0
LINE
  5
138
330
5A
100
AcDbEntity
  8
0
  6
Continuous
 62
     7
100
AcDbLine
 10
-199.8014775068676
 20
217.8869346759174
 30
0.0
 11
-209.1709580218725
 21
220.3974794134075
 31
0.0
  0
LINE
  5
139
330
5A
100
AcDbEntity
  8
0
  6
Continuous
 62
     7
100
AcDbLine
 10
-209.7611913958186
 20
221.285661117645
 30
0.0
 11
-199.6189702197822
 21
218.568061144073
 31
0.0
  0
LINE
  5
13A
330
5A
100
AcDbEntity
  8
0
  6
Continuous
 62
     7
100
AcDbLine
 10
-200.9090190372179
 20
213.7535334131501
 30
0.0
 11
-210.2784995522227
 21
216.2640781506402
 31
0.0
  0
LINE
  5
13B
330
5A
100
AcDbEntity
  8
0
  6
Continuous
 62
     7
100
AcDbLine
 10
-214.3081889016317
 20
217.8389969721007
 30
0.0
 11
-210.9274485096196
 21
216.9331303142436
 31
0.0
  0
LINE
  5
13C
330
5A
100
AcDbEntity
  8
0
  6
Continuous
 62
     7
100
AcDbLine
 10
-200.707344164725
 20
214.506194283905
 30
0.0
 11
-210.0768246797299
 21
217.0167390213952
 31
0.0
  0
LINE
  5
13D
330
5A
100
AcDbEntity
  8
0
  6
Continuous
 62
     7
100
AcDbLine
 10
-210.9274485096196
 20
216.9331303142436
 30
0.0
 11
-210.3617630846696
 21
215.9533344171306
 31
0.0
  0
LINE
  5
13E
330
5A
100
AcDbEntity
  8
0
  6
Continuous
 62
     7
100
AcDbLine
 10
-210.9274485096196
 20
216.9331303142436
 30
0.0
 11
-210.8404989505987
 21
217.2576304862055
 31
0.0
  0
LINE
  5
13F
330
5A
100
AcDbEntity
  8
0
  6
Continuous
 62
     7
100
AcDbLine
 10
-210.8404989505987
 20
217.2576304862055
 30
0.0
 11
-210.1061729813737
 21
217.0608684357708
 31
0.0
  0
LINE
  5
140
330
5A
100
AcDbEntity
  8
0
  6
Continuous
 62
     7
100
AcDbLine
 10
-210.2784995522227
 20
216.2640781506402
 30
0.0
 11
-210.3617630846696
 21
215.9533344171306
 31
0.0
  0
LINE
  5
141
330
5A
100
AcDbEntity
  8
0
  6
Continuous
 62
     7
100
AcDbLine
 10
-195.1170902458468
 20
235.3693059364068
 30
0.0
 11
-204.4865707608519
 21
237.8798506738971
 31
0.0
  0
LINE
  5
142
330
5A
100
AcDbEntity
  8
0
  6
Continuous
 62
     7
100
AcDbLine
 10
-194.364429375093
 20
238.1782745469345
 30
0.0
 11
-194.4698000064212
 21
237.7850259971926
 31
0.0
  0
LINE
  5
143
330
5A
100
AcDbEntity
  8
0
  6
Continuous
 62
     7
100
AcDbLine
 10
-192.2444363005411
 20
246.0901964128717
 30
0.0
 11
-192.4269435876263
 21
245.4090699447163
 31
0.0
  0
LINE
  5
144
330
5A
100
AcDbEntity
  8
0
  6
Continuous
 62
     7
100
AcDbLine
 10
-191.338569642684
 20
249.4709368048839
 30
0.0
 11
-200.7080501576888
 21
251.9814815423744
 31
0.0
  0
LINE
  5
145
330
5A
100
AcDbEntity
  8
0
  6
Continuous
 62
     7
100
AcDbLine
 10
-194.364429375093
 20
238.1782745469345
 30
0.0
 11
-203.7339098900982
 21
240.6888192844245
 31
0.0
  0
LINE
  5
146
330
5A
100
AcDbEntity
  8
0
  6
Continuous
 62
     7
100
AcDbLine
 10
-192.2444363005411
 20
246.0901964128717
 30
0.0
 11
-201.6139168155459
 21
248.6007411503621
 31
0.0
  0
LINE
  5
147
330
5A
100
AcDbEntity
  8
0
  6
Continuous
 62
     7
100
AcDbLine
 10
-191.1368947701905
 20
250.2235976756396
 30
0.0
 11
-200.5063752851957
 21
252.7341424131295
 31
0.0
  0
LINE
  5
148
330
5A
100
AcDbEntity
  8
0
  6
Continuous
 62
     7
100
AcDbLine
 10
-200.4231117527487
 20
253.0448861466392
 30
0.0
 11
-191.053631237744
 21
250.5343414091491
 31
0.0
  0
LINE
  5
149
330
5A
100
AcDbEntity
  8
0
  6
Continuous
 62
     7
100
AcDbLine
 10
-200.4231117527487
 20
253.0448861466392
 30
0.0
 11
-200.5063752851957
 21
252.7341424131295
 31
0.0
  0
LINE
  5
14A
330
5A
100
AcDbEntity
  8
0
  6
Continuous
 62
     7
100
AcDbLine
 10
-197.6814844323153
 20
225.798856541855
 30
0.0
 11
-207.05096494732
 21
228.3094012793449
 31
0.0
  0
LINE
  5
14B
330
5A
100
AcDbEntity
  8
0
  6
Continuous
 62
     7
100
AcDbLine
 10
-196.9288235615615
 20
228.6078251523824
 30
0.0
 11
-206.2983040765663
 21
231.1183698898724
 31
0.0
  0
LINE
  5
14C
330
5A
100
AcDbEntity
  8
0
  6
Continuous
 62
     7
100
AcDbLine
 10
-201.4029076498621
 20
252.4792007216895
 30
0.0
 11
-200.4231117527487
 21
253.0448861466392
 31
0.0
  0
LINE
  5
14D
330
5A
100
AcDbEntity
  8
0
  6
Continuous
 62
     7
100
AcDbLine
 10
-204.4865707608519
 20
237.8798506738971
 30
0.0
 11
-206.2983040765663
 21
231.1183698898724
 31
0.0
  0
LINE
  5
14E
330
5A
100
AcDbEntity
  8
0
  6
Continuous
 62
     7
100
AcDbLine
 10
-205.2593114218835
 20
238.0869059099787
 30
0.0
 11
-204.4865707608519
 21
237.8798506738971
 31
0.0
  0
LINE
  5
14F
330
5A
100
AcDbEntity
  8
0
  6
Continuous
 62
     7
100
AcDbLine
 10
-206.2983040765663
 20
231.1183698898724
 30
0.0
 11
-207.0710447375981
 21
231.3254251259543
 31
0.0
  0
LINE
  5
150
330
5A
100
AcDbEntity
  8
0
  6
Continuous
 62
     7
100
AcDbLine
 10
-207.0710447375981
 20
231.3254251259543
 30
0.0
 11
-205.2593114218835
 21
238.0869059099787
 31
0.0
  0
LINE
  5
151
330
5A
100
AcDbEntity
  8
0
  6
Continuous
 62
     7
100
AcDbLine
 10
-209.2873420533155
 20
223.0540909390032
 30
0.0
 11
-207.7183349770239
 21
228.9097050651685
 31
0.0
  0
LINE
  5
152
330
5A
100
AcDbEntity
  8
0
  6
Continuous
 62
     7
100
AcDbLine
 10
-204.6120211824576
 20
240.5026259707643
 30
0.0
 11
-203.0430141061664
 21
246.3582400969298
 31
0.0
  0
LINE
  5
153
330
5A
100
AcDbEntity
  8
0
  6
Continuous
 62
     7
100
AcDbLine
 10
-202.5691647636631
 20
248.1266699182881
 30
0.0
 11
-201.6632981058057
 21
251.5074103103003
 31
0.0
  0
LINE
  5
154
330
5A
100
AcDbEntity
  8
0
  6
Continuous
 62
     7
100
AcDbLine
 10
-201.4898572088831
 20
252.1547005497273
 30
0.0
 11
-200.7555312396577
 21
251.9579384992927
 31
0.0
  0
LINE
  5
155
330
5A
100
AcDbEntity
  8
0
  6
Continuous
 62
     7
100
AcDbLine
 10
-200.7080501576888
 20
251.9814815423744
 30
0.0
 11
-201.6139168155459
 21
248.6007411503621
 31
0.0
  0
LINE
  5
156
330
5A
100
AcDbEntity
  8
0
  6
Continuous
 62
     7
100
AcDbLine
 10
-207.05096494732
 20
228.3094012793449
 30
0.0
 11
-208.6199720236116
 21
222.4537871531797
 31
0.0
  0
LINE
  5
157
330
5A
100
AcDbEntity
  8
0
  6
Continuous
 62
     3
100
AcDbLine
 10
-204.7836480418745
 20
253.3850673795465
 30
0.0
 11
-214.3081889016317
 21
217.8389969721007
 31
0.0
  0
LINE
  5
158
330
5A
100
AcDbEntity
  8
0
  6
Continuous
 62
     7
100
AcDbLine
 10
-201.4898572088831
 20
252.1547005497273
 30
0.0
 11
-201.4029076498621
 21
252.4792007216895
 31
0.0
  0
LINE
  5
159
330
5A
100
AcDbEntity
  8
0
  6
Continuous
 62
     7
100
AcDbLine
 10
-204.7836480418745
 20
253.3850673795465
 30
0.0
 11
-201.4029076498621
 21
252.4792007216895
 31
0.0
  0
LINE
  5
15A
330
5A
100
AcDbEntity
  8
0
  6
Continuous
 62
     7
100
AcDbLine
 10
-206.0083929132658
 20
252.6779605983595
 30
0.0
 11
-215.0152956828187
 21
219.0637418434923
 31
0.0
  0
ARC
  5
15B
330
5A
100
AcDbEntity
  8
0
  6
Continuous
 62
     7
100
AcDbCircle
 10
-214.0493698565297
 20
218.8049227983904
 30
0.0
 40
0.999999999999779
100
AcDbArc
 50
165.0000000000342
 51
255.0000000000384
  0
ARC
  5
15C
330
5A
100
AcDbEntity
  8
0
  6
Continuous
 62
     7
100
AcDbCircle
 10
-200.6257882268158
 20
212.8787135352594
 30
0.0
 40
0.5000000000000207
100
AcDbArc
 50
165.0000000000095
 51
255.0000000000198
  0
ARC
  5
15D
330
5A
100
AcDbEntity
  8
0
  6
Continuous
 62
     7
100
AcDbCircle
 10
-190.4541997543036
 20
250.8395985084279
 30
0.0
 40
0.4999999999999162
100
AcDbArc
 50
75.00000000001646
 51
165.0000000000265
  0
ARC
  5
15E
330
5A
100
AcDbEntity
  8
0
  6
Continuous
 62
     7
100
AcDbCircle
 10
-205.0424670869765
 20
252.4191415532575
 30
0.0
 40
0.9999999999998084
100
AcDbArc
 50
75.00000000002788
 51
165.0000000000321
  0
SPLINE
  5
15F
330
5A
100
AcDbEntity
  8
0
  6
Continuous
 62
     7
100
AcDbSpline
210
0.0
220
0.0
230
1.0
 70
     8
 71
     3
 72
    11
 73
     7
 74
     5
 42
0.000000001
 43
0.0000000001
 44
0.00000001
 40
0.0
 40
0.0
 40
0.0
 40
0.0
 40
0.2257350453693318
 40
0.4488690967297931
 40
0.6744398470784226
 40
0.8976343441809567
 40
0.8976343441809567
 40
0.8976343441809567
 40
0.8976343441809567
 10
-203.7339098900982
 20
240.6888192844245
 30
0.0
 10
-203.8075224374124
 20
240.6732306602771
 30
0.0
 10
-203.9538993407757
 20
240.6422330146538
 30
0.0
 10
-204.1738263039944
 20
240.5956160300863
 30
0.0
 10
-204.3929186787277
 20
240.5491456633663
 30
0.0
 10
-204.539245286531
 20
240.5180777039455
 30
0.0
 10
-204.6120211824576
 20
240.5026259707643
 30
0.0
 11
-203.7339098900982
 21
240.6888192844245
 31
0.0
 11
-203.9547460314306
 21
240.6420463286746
 31
0.0
 11
-204.1730307120894
 21
240.5957796768947
 31
0.0
 11
-204.3936919111244
 21
240.5489737087495
 31
0.0
 11
-204.6120211824576
 21
240.5026259707643
 31
0.0
  0
SPLINE
  5
160
330
5A
100
AcDbEntity
  8
0
  6
Continuous
 62
     7
100
AcDbSpline
210
0.0
220
0.0
230
1.0
 70
     8
 71
     3
 72
    11
 73
     7
 74
     5
 42
0.000000001
 43
0.0000000001
 44
0.00000001
 40
0.0
 40
0.0
 40
0.0
 40
0.0
 40
0.2255797515740982
 40
0.4488690967297362
 40
0.6744126663341997
 40
0.8976343441811918
 40
0.8976343441811918
 40
0.8976343441811918
 40
0.8976343441811918
 10
-202.1649028138067
 20
246.5444334105897
 30
0.0
 10
-202.2384647199596
 20
246.528855512414
 30
0.0
 10
-202.3848416240885
 20
246.4978578704087
 30
0.0
 10
-202.6047597263473
 20
246.4512427757065
 30
0.0
 10
-202.8239027395061
 20
246.4047616701087
 30
0.0
 10
-202.9702293474719
 20
246.3736937114512
 30
0.0
 10
-203.0430141061664
 20
246.3582400969298
 30
0.0
 11
-202.1649028138067
 21
246.5444334105897
 31
0.0
 11
-202.3855870339225
 21
246.4976926434543
 31
0.0
 11
-202.6040236357979
 21
246.4513938030601
 31
0.0
 11
-202.8246582461255
 21
246.404593477033
 31
0.0
 11
-203.0430141061664
 21
246.3582400969298
 31
0.0
  0
SPLINE
  5
161
330
5A
100
AcDbEntity
  8
0
  6
Continuous
 62
     7
100
AcDbSpline
210
0.0
220
0.0
230
1.0
 70
     8
 71
     3
 72
    11
 73
     7
 74
     5
 42
0.000000001
 43
0.0000000001
 44
0.00000001
 40
0.0
 40
0.0
 40
0.0
 40
0.0
 40
0.2232179694156774
 40
0.4487652474511853
 40
0.6720534812134455
 40
0.8976343441810481
 40
0.8976343441810481
 40
0.8976343441810481
 40
0.8976343441810481
 10
-209.2873420533155
 20
223.0540909390032
 30
0.0
 10
-209.2320363293937
 20
223.0043161637958
 30
0.0
 10
-209.1208477490422
 20
222.9042472182967
 30
0.0
 10
-208.9543051609809
 20
222.7544221410422
 30
0.0
 10
-208.7871571259722
 20
222.6040924070237
 30
0.0
 10
-208.6758898294901
 20
222.5040592095048
 30
0.0
 10
-208.6199720236116
 20
222.4537871531797
 30
0.0
 11
-209.2873420533155
 21
223.0540909390032
 31
0.0
 11
-209.121419778255
 21
222.9047722847461
 31
0.0
 11
-208.9537420070223
 21
222.7539222278538
 31
0.0
 11
-208.7877206072885
 21
222.6046086980992
 31
0.0
 11
-208.6199720236116
 21
222.4537871531797
 31
0.0
  0
SPLINE
  5
162
330
5A
100
AcDbEntity
  8
0
  6
Continuous
 62
     7
100
AcDbSpline
210
0.0
220
0.0
230
1.0
 70
     8
 71
     3
 72
    11
 73
     7
 74
     5
 42
0.000000001
 43
0.0000000001
 44
0.00000001
 40
0.0
 40
0.0
 40
0.0
 40
0.0
 40
0.2651495747988095
 40
0.5331932871601202
 40
0.7984811810109348
 40
1.066415597480074
 40
1.066415597480074
 40
1.066415597480074
 40
1.066415597480074
 10
-209.7611913958186
 20
221.285661117645
 30
0.0
 10
-209.7122978789496
 20
221.2120335913934
 30
0.0
 10
-209.613977154414
 20
221.0639748944504
 30
0.0
 10
-209.4666813533991
 20
220.8422874943411
 30
0.0
 10
-209.3188357057696
 20
220.6198509294733
 30
0.0
 10
-209.2204134192441
 20
220.4718481083029
 30
0.0
 10
-209.1709580218725
 20
220.3974794134075
 30
0.0
 11
-209.7611913958186
 21
221.285661117645
 31
0.0
 11
-209.6145015858299
 21
221.0647846891561
 31
0.0
 11
-209.4661669220525
 21
220.8415264098929
 31
0.0
 11
-209.3193154382844
 21
220.6205913326872
 31
0.0
 11
-209.1709580218725
 21
220.3974794134075
 31
0.0
  0
SPLINE
  5
163
330
5A
100
AcDbEntity
  8
0
  6
Continuous
 62
     7
100
AcDbSpline
210
0.0
220
0.0
230
1.0
 70
     8
 71
     3
 72
    11
 73
     7
 74
     5
 42
0.000000001
 43
0.0000000001
 44
0.00000001
 40
0.0
 40
0.0
 40
0.0
 40
0.0
 40
0.2839714124428754
 40
0.5707429353687105
 40
0.8546478952704911
 40
1.14148571026281
 40
1.14148571026281
 40
1.14148571026281
 40
1.14148571026281
 10
-210.8404989505987
 20
217.2576304862055
 30
0.0
 10
-210.7939228213261
 20
217.1752251591698
 30
0.0
 10
-210.7003112840595
 20
217.0096019517657
 30
0.0
 10
-210.5600713250015
 20
216.7616284266446
 30
0.0
 10
-210.419320310966
 20
216.5128462483796
 30
0.0
 10
-210.3256003412941
 20
216.3472844362352
 30
0.0
 10
-210.2784995522227
 20
216.2640781506402
 30
0.0
 11
-210.8404989505987
 21
217.2576304862055
 31
0.0
 11
-210.7007601127451
 21
217.0104204130274
 31
0.0
 11
-210.5595941163428
 21
216.7608005664164
 31
0.0
 11
-210.4197920214167
 21
216.5137026090954
 31
0.0
 11
-210.2784995522227
 21
216.2640781506402
 31
0.0
  0
SPLINE
  5
164
330
5A
100
AcDbEntity
  8
0
  6
Continuous
 62
     7
100
AcDbSpline
210
0.0
220
0.0
230
1.0
 70
     8
 71
     3
 72
    11
 73
     7
 74
     5
 42
0.000000001
 43
0.0000000001
 44
0.00000001
 40
0.0
 40
0.0
 40
0.0
 40
0.0
 40
0.2653179004678132
 40
0.5331932871598095
 40
0.7984354947489939
 40
1.066415597479918
 40
1.066415597479918
 40
1.066415597479918
 40
1.066415597479918
 10
-210.6670580536759
 20
217.9049207256326
 30
0.0
 10
-210.6181334952678
 20
217.8312464597509
 30
0.0
 10
-210.5198127660612
 20
217.6831877659088
 30
0.0
 10
-210.3725253800332
 20
217.4615130584452
 30
0.0
 10
-210.2247107948074
 20
217.2391232193442
 30
0.0
 10
-210.1262885093466
 20
217.0911203974654
 30
0.0
 10
-210.0768246797299
 20
217.0167390213952
 30
0.0
 11
-210.6670580536759
 21
217.9049207256326
 31
0.0
 11
-210.5202751063595
 21
217.6839040866972
 31
0.0
 11
-210.3720335799096
 21
217.460786017881
 31
0.0
 11
-210.2252073895177
 21
217.2398889864324
 31
0.0
 11
-210.0768246797299
 21
217.0167390213952
 31
0.0
  0
SPLINE
  5
165
330
5A
100
AcDbEntity
  8
0
  6
Continuous
 62
     7
100
AcDbSpline
210
0.0
220
0.0
230
1.0
 70
     8
 71
     3
 72
    11
 73
     7
 74
     5
 42
0.000000001
 43
0.0000000001
 44
0.00000001
 40
0.0
 40
0.0
 40
0.0
 40
0.0
 40
0.2866987054017383
 40
0.5707427748943029
 40
0.8577732734534511
 40
1.141485710263107
 40
1.141485710263107
 40
1.141485710263107
 40
1.141485710263107
 10
-200.5063752851957
 20
252.7341424131295
 30
0.0
 10
-200.5887289499217
 20
252.6856575777373
 30
0.0
 10
-200.7526737326048
 20
252.5891368308141
 30
0.0
 10
-200.999033162158
 20
252.4440168488454
 30
0.0
 10
-201.2445112292956
 20
252.2993618941349
 30
0.0
 10
-201.4083927979524
 20
252.2027337502312
 30
0.0
 10
-201.4898572088831
 20
252.1547005497273
 30
0.0
 11
-200.5063752851957
 21
252.7341424131295
 31
0.0
 11
-200.7534305144891
 21
252.5886781173099
 31
0.0
 11
-200.9981715264774
 21
252.4445154644975
 31
0.0
 11
-201.2454578920853
 21
252.2987898302094
 31
0.0
 11
-201.4898572088831
 21
252.1547005497273
 31
0.0
  0
SPLINE
  5
166
330
5A
100
AcDbEntity
  8
0
  6
Continuous
 62
     7
100
AcDbSpline
210
0.0
220
0.0
230
1.0
 70
     8
 71
     3
 72
    11
 73
     7
 74
     5
 42
0.000000001
 43
0.0000000001
 44
0.00000001
 40
0.0
 40
0.0
 40
0.0
 40
0.0
 40
0.2650026194977346
 40
0.5331932871596559
 40
0.7984517946446171
 40
1.066415597479997
 40
1.066415597479997
 40
1.066415597479997
 40
1.066415597479997
 10
-201.6632981058057
 20
251.5074103103003
 30
0.0
 10
-201.5841851875815
 20
251.546705071582
 30
0.0
 10
-201.4250075961322
 20
251.6257673065221
 30
0.0
 10
-201.1866107703989
 20
251.7441019828289
 30
0.0
 10
-200.9473105217546
 20
251.8628366493862
 30
0.0
 10
-200.7880729111419
 20
251.9417997099009
 30
0.0
 10
-200.7080501576888
 20
251.9814815423744
 30
0.0
 11
-201.6632981058057
 21
251.5074103103003
 31
0.0
 11
-201.4259544133114
 21
251.6252846500626
 31
0.0
 11
-201.1857320629106
 21
251.7445300130329
 31
0.0
 11
-200.9481137342661
 21
251.8624266019841
 31
0.0
 11
-200.7080501576888
 21
251.9814815423744
 31
0.0
  0
SPLINE
  5
167
330
5A
100
AcDbEntity
  8
0
  6
Continuous
 62
     7
100
AcDbSpline
210
0.0
220
0.0
230
1.0
 70
     8
 71
     3
 72
    11
 73
     7
 74
     5
 42
0.000000001
 43
0.0000000001
 44
0.00000001
 40
0.0
 40
0.0
 40
0.0
 40
0.0
 40
0.2232182509281257
 40
0.4487652474510247
 40
0.6718805072451932
 40
0.8976343441810947
 40
0.8976343441810947
 40
0.8976343441810947
 40
0.8976343441810947
 10
-207.7183349770239
 20
228.9097050651685
 30
0.0
 10
-207.6630291833652
 20
228.8599302271737
 30
0.0
 10
-207.551840603039
 20
228.7598612816469
 30
0.0
 10
-207.3853408796768
 20
228.6100747668262
 30
0.0
 10
-207.2181929229658
 20
228.4597450860789
 30
0.0
 10
-207.1069256292313
 20
228.3597118855028
 30
0.0
 10
-207.05096494732
 20
228.3094012793449
 30
0.0
 11
-207.7183349770239
 21
228.9097050651685
 31
0.0
 11
-207.5524124926944
 21
228.7603862226143
 31
0.0
 11
-207.3847349307308
 21
228.6095363540192
 31
0.0
 11
-207.2188421509411
 21
228.4603384828302
 31
0.0
 11
-207.05096494732
 21
228.3094012793449
 31
0.0
  0
SPLINE
  5
168
330
5A
100
AcDbEntity
  8
0
  6
Continuous
 62
     7
100
AcDbSpline
210
0.0
220
0.0
230
1.0
 70
     8
 71
     3
 72
    11
 73
     7
 74
     5
 42
0.000000001
 43
0.0000000001
 44
0.00000001
 40
0.0
 40
0.0
 40
0.0
 40
0.0
 40
0.2678832079393106
 40
0.5332223103201421
 40
0.8014521220036892
 40
1.066415597480222
 40
1.066415597480222
 40
1.066415597480222
 40
1.066415597480222
 10
-201.6139168155459
 20
248.6007411503621
 30
0.0
 10
-201.6939155012506
 20
248.5610712539627
 30
0.0
 10
-201.8531531129024
 20
248.4821081955448
 30
0.0
 10
-202.0924650531543
 20
248.3633677361567
 30
0.0
 10
-202.3308859407573
 20
248.2450211119279
 30
0.0
 10
-202.4900635316365
 20
248.16595887584
 30
0.0
 10
-202.5691647636631
 20
248.1266699182881
 30
0.0
 11
-201.6139168155459
 21
248.6007411503621
 31
0.0
 11
-201.8539081919833
 21
248.4817220244539
 31
0.0
 11
-202.0915987207675
 21
248.3637896210206
 31
0.0
 11
-202.3318561313523
 21
248.2445268500652
 31
0.0
 11
-202.5691647636631
 21
248.1266699182881
 31
0.0
  0
ENDBLK
  5
5C
330
5A
100
AcDbEntity
  8
0
100
AcDbBlockEnd
  0
BLOCK
  5
5E
330
5D
100
AcDbEntity
  8
0
100
AcDbBlockBegin
  2
Dichtstopfen
 70
     0
 10
-246.3340423526139
 20
184.7504322796944
 30
0.0
  3
Dichtstopfen
  1

  0
LINE
  5
169
330
5D
100
AcDbEntity
  8
0
  6
Continuous
 62
     7
100
AcDbLine
 10
-254.6176609533281
 20
187.6429507114257
 30
0.0
 11
-240.1287735589899
 21
183.7606650348944
 31
0.0
  0
LINE
  5
16A
330
5D
100
AcDbEntity
  8
0
  6
Continuous
 62
     7
100
AcDbLine
 10
-255.5973857199926
 20
187.9054671714575
 30
0.0
 11
-254.6176609533281
 21
187.6429507114257
 31
0.0
  0
LINE
  5
16B
330
5D
100
AcDbEntity
  8
0
  6
Continuous
 62
     7
100
AcDbLine
 10
-240.1287735589899
 20
183.7606650348944
 30
0.0
 11
-239.1490487923252
 21
183.4981485748625
 31
0.0
  0
LINE
  5
16C
330
5D
100
AcDbEntity
  8
0
  6
Continuous
 62
     7
100
AcDbLine
 10
-256.5495126059064
 20
188.1605888016297
 30
0.0
 11
-255.5973857199926
 21
187.9054671714575
 31
0.0
  0
LINE
  5
16D
330
5D
100
AcDbEntity
  8
0
  6
Continuous
 62
     7
100
AcDbLine
 10
-236.1185720993211
 20
181.3402757577591
 30
0.0
 11
-235.7821073406888
 21
182.5959793319353
 31
0.0
  0
LINE
  5
16E
330
5D
100
AcDbEntity
  8
0
  6
Continuous
 62
     7
100
AcDbLine
 10
-239.1490487923252
 20
183.4981485748625
 30
0.0
 11
-235.7821073406888
 21
182.5959793319353
 31
0.0
  0
LINE
  5
16F
330
5D
100
AcDbEntity
  8
0
  6
Continuous
 62
     7
100
AcDbLine
 10
-256.885977364539
 20
186.9048852274538
 30
0.0
 11
-256.5495126059064
 21
188.1605888016297
 31
0.0
  0
LINE
  5
170
330
5D
100
AcDbEntity
  8
0
  6
Continuous
 62
     7
100
AcDbLine
 10
-256.885977364539
 20
186.9048852274538
 30
0.0
 11
-236.1185720993211
 21
181.3402757577591
 31
0.0
  0
ENDBLK
  5
5F
330
5D
100
AcDbEntity
  8
0
100
AcDbBlockEnd
  0
BLOCK
  5
F2
330
EA
100
AcDbEntity
  8
0
100
AcDbBlockBegin
  2
*D8
 70
     1
 10
0.0
 20
0.0
 30
0.0
  3
*D8
  1

  0
LINE
  5
EB
330
EA
100
AcDbEntity
  8
1
  6
Continuous
 62
     4
100
AcDbLine
 10
-171.2810211821629
 20
-20.665288113799
 30
0.0
 11
-131.2810211821629
 21
-20.665288113799
 31
0.0
  0
LINE
  5
EC
330
EA
100
AcDbEntity
  8
1
  6
Continuous
 62
     4
100
AcDbLine
 10
-171.2810211821629
 20
3.5
 30
0.0
 11
-171.2810211821629
 21
-22.665288113799
 31
0.0
  0
LINE
  5
ED
330
EA
100
AcDbEntity
  8
1
  6
Continuous
 62
     4
100
AcDbLine
 10
-131.2810211821629
 20
3.5
 30
0.0
 11
-131.2810211821629
 21
-22.665288113799
 31
0.0
  0
SOLID
  5
EE
330
EA
100
AcDbEntity
  8
1
 62
     4
100
AcDbTrace
 10
-138.2810211821629
 20
-21.58685559691077
 30
0.0
 11
-138.2810211821629
 21
-19.74372063068723
 31
0.0
 12
-131.2810211821629
 22
-20.665288113799
 32
0.0
 13
-131.2810211821629
 23
-20.665288113799
 33
0.0
  0
SOLID
  5
EF
330
EA
100
AcDbEntity
  8
1
 62
     4
100
AcDbTrace
 10
-164.2810211821629
 20
-19.74372063068723
 30
0.0
 11
-164.2810211821629
 21
-21.58685559691077
 31
0.0
 12
-171.2810211821629
 22
-20.665288113799
 32
0.0
 13
-171.2810211821629
 23
-20.665288113799
 33
0.0
  0
MTEXT
  5
F1
330
EA
100
AcDbEntity
  8
1
 62
     1
100
AcDbMText
 10
-160.3901439379633
 20
-18.6653159421043
 30
0.0
 40
7.0
 41
0.0
 71
     7
 72
     1
  1
\C1;DN\C1;40
  7
CONVERTER_11
 11
0.9999999999970619
 21
2.424068405545306E-6
 31
0.0
 73
     1
 44
0.60024009603842
  0
ENDBLK
  5
F3
330
EA
100
AcDbEntity
  8
0
100
AcDbBlockEnd
  0
BLOCK
  5
FD
330
F6
100
AcDbEntity
  8
0
100
AcDbBlockBegin
  2
*D9
 70
     1
 10
0.0
 20
0.0
 30
0.0
  3
*D9
  1

  0
LINE
  5
F7
330
F6
100
AcDbEntity
  8
1
  6
Continuous
 62
     4
100
AcDbLine
 10
-175.2810211821629
 20
273.5
 30
0.0
 11
-127.2810211821629
 21
273.5
 31
0.0
  0
LINE
  5
F8
330
F6
100
AcDbEntity
  8
1
  6
Continuous
 62
     4
100
AcDbLine
 10
-175.2810211821629
 20
263.5
 30
0.0
 11
-175.2810211821629
 21
275.5
 31
0.0
  0
LINE
  5
F9
330
F6
100
AcDbEntity
  8
1
  6
Continuous
 62
     4
100
AcDbLine
 10
-127.2810211821629
 20
263.5
 30
0.0
 11
-127.2810211821629
 21
275.5
 31
0.0
  0
SOLID
  5
FA
330
F6
100
AcDbEntity
  8
1
 62
     4
100
AcDbTrace
 10
-134.2810211821629
 20
272.5784325168883
 30
0.0
 11
-134.2810211821629
 21
274.4215674831117
 31
0.0
 12
-127.2810211821629
 22
273.5
 32
0.0
 13
-127.2810211821629
 23
273.5
 33
0.0
  0
SOLID
  5
FB
330
F6
100
AcDbEntity
  8
1
 62
     4
100
AcDbTrace
 10
-168.2810211821629
 20
274.4215674831117
 30
0.0
 11
-168.2810211821629
 21
272.5784325168883
 31
0.0
 12
-175.2810211821629
 22
273.5
 32
0.0
 13
-175.2810211821629
 23
273.5
 33
0.0
  0
MTEXT
  5
FC
330
F6
100
AcDbEntity
  8
1
 62
     1
100
AcDbMText
 10
-160.810143937997
 20
275.5
 30
0.0
 40
7.0
 41
0.0
 71
     7
 72
     1
  1
6/4"
  7
CONVERTER_11
 11
0.9999999999970619
 21
2.424068405545306E-6
 31
0.0
 73
     1
 44
0.60024009603842
  0
ENDBLK
  5
FE
330
F6
100
AcDbEntity
  8
0
100
AcDbBlockEnd
  0
BLOCK
  5
108
330
101
100
AcDbEntity
  8
0
100
AcDbBlockBegin
  2
*D10
 70
     1
 10
0.0
 20
0.0
 30
0.0
  3
*D10
  1

  0
LINE
  5
102
330
101
100
AcDbEntity
  8
1
  6
Continuous
 62
     4
100
AcDbLine
 10
-109.7810211821717
 20
0.0
 30
0.0
 11
-109.7810211821717
 21
252.0
 31
0.0
  0
LINE
  5
103
330
101
100
AcDbEntity
  8
1
  6
Continuous
 62
     4
100
AcDbLine
 10
-132.2188433556718
 20
0.0
 30
0.0
 11
-107.7810211821717
 21
0.0
 31
0.0
  0
LINE
  5
104
330
101
100
AcDbEntity
  8
1
  6
Continuous
 62
     4
100
AcDbLine
 10
-119.7810211821717
 20
252.0
 30
0.0
 11
-107.7810211821717
 21
252.0
 31
0.0
  0
SOLID
  5
105
330
101
100
AcDbEntity
  8
1
 62
     4
100
AcDbTrace
 10
-108.8594536990599
 20
245.0
 30
0.0
 11
-110.7025886652835
 21
245.0
 31
0.0
 12
-109.7810211821717
 22
252.0
 32
0.0
 13
-109.7810211821717
 23
252.0
 33
0.0
  0
SOLID
  5
106
330
101
100
AcDbEntity
  8
1
 62
     4
100
AcDbTrace
 10
-110.7025886652835
 20
7.0
 30
0.0
 11
-108.8594536990599
 21
7.0
 31
0.0
 12
-109.7810211821717
 22
0.0
 32
0.0
 13
-109.7810211821717
 23
0.0
 33
0.0
  0
MTEXT
  5
107
330
101
100
AcDbEntity
  8
1
 62
     1
100
AcDbMText
 10
-111.7810211821717
 20
126.378129486033
 30
0.0
 40
7.0
 41
0.0
 71
     7
 72
     1
  1
252
  7
CONVERTER_11
 11
0.0
 21
1.0
 31
0.0
 73
     1
 44
0.60024009603842
  0
ENDBLK
  5
109
330
101
100
AcDbEntity
  8
0
100
AcDbBlockEnd
  0
BLOCK
  5
115
330
10C
100
AcDbEntity
  8
0
100
AcDbBlockBegin
  2
*D11
 70
     1
 10
0.0
 20
0.0
 30
0.0
  3
*D11
  1

  0
LINE
  5
10D
330
10C
100
AcDbEntity
  8
1
  6
Continuous
 62
     4
100
AcDbLine
 10
-274.0964737855763
 20
172.9577768891602
 30
0.0
 11
-260.5735122175277
 21
169.3343102577313
 31
0.0
  0
LINE
  5
10E
330
10C
100
AcDbEntity
  8
1
  6
Continuous
 62
     4
100
AcDbLine
 10
-260.5735122175277
 20
169.3343102577313
 30
0.0
 11
-244.1251752898603
 21
164.9269916611363
 31
0.0
  0
LINE
  5
10F
330
10C
100
AcDbEntity
  8
1
  6
Continuous
 62
     4
100
AcDbLine
 10
-244.1251752898603
 20
164.9269916611363
 30
0.0
 11
-217.7877067205257
 21
157.8698882273165
 31
0.0
  0
LINE
  5
110
330
10C
100
AcDbEntity
  8
1
  6
Continuous
 62
     4
100
AcDbLine
 10
-255.5973857199926
 20
187.9054671714576
 30
0.0
 11
-261.0911503077318
 21
167.402458605153
 31
0.0
  0
LINE
  5
111
330
10C
100
AcDbEntity
  8
1
  6
Continuous
 62
     4
100
AcDbLine
 10
-239.1490487923252
 20
183.4981485748625
 30
0.0
 11
-244.6428133800644
 21
162.9951400085579
 31
0.0
  0
SOLID
  5
112
330
10C
100
AcDbEntity
  8
1
 62
     4
100
AcDbTrace
 10
-267.5735122175281
 20
170.2558777408397
 30
0.0
 11
-267.0964737855759
 21
172.0362094060517
 31
0.0
 12
-260.5735122175277
 22
169.3343102577313
 32
0.0
 13
-260.5735122175277
 23
169.3343102577313
 33
0.0
  0
SOLID
  5
113
330
10C
100
AcDbEntity
  8
1
 62
     4
100
AcDbTrace
 10
-237.1251752898598
 20
164.0054241780278
 30
0.0
 11
-237.602213721812
 21
162.2250925128158
 31
0.0
 12
-244.1251752898603
 22
164.9269916611363
 32
0.0
 13
-244.1251752898603
 23
164.9269916611363
 33
0.0
  0
MTEXT
  5
114
330
10C
100
AcDbEntity
  8
1
 62
     1
100
AcDbMText
 10
-235.5260667471873
 20
164.6934198323237
 30
0.0
 40
7.0
 41
0.0
 71
     7
 72
     1
  1
3/4"
  7
CONVERTER_11
 11
0.9659258262891919
 21
-0.2588190451020601
 31
0.0
 73
     1
 44
0.60024009603842
  0
ENDBLK
  5
116
330
10C
100
AcDbEntity
  8
0
100
AcDbBlockEnd
  0
ENDSEC
  0
SECTION
  2
ENTITIES
  0
INSERT
  5
60
330
1F
100
AcDbEntity
  8
0
100
AcDbBlockReference
  2
Hl_13_Tauchrohr
 10
-190.938747483874
 20
129.9173559431005
 30
0.0
  0
INSERT
  5
61
330
1F
100
AcDbEntity
  8
0
100
AcDbBlockReference
  2
Holländermutter_1
 10
-201.7211542178521
 20
232.6486270425841
 30
0.0
  0
INSERT
  5
62
330
1F
100
AcDbEntity
  8
0
100
AcDbBlockReference
  2
Dichtstopfen
 10
-246.3340423526139
 20
184.7504322796944
 30
0.0
  0
ENDSEC
  0
SECTION
  2
OBJECTS
  0
DICTIONARY
  5
C
330
0
100
AcDbDictionary
281
     1
  3
ACAD_GROUP
350
D
  3
ACAD_LAYOUT
350
1A
  3
ACAD_MATERIAL
350
3B
  3
ACAD_MLEADERSTYLE
350
173
  3
ACAD_MLINESTYLE
350
17
  3
ACAD_PLOTSETTINGS
350
19
  3
ACAD_PLOTSTYLENAME
350
E
  3
ACAD_VISUALSTYLE
350
2A
  3
AcDbVariableDictionary
350
171
  0
DICTIONARY
  5
D
102
{ACAD_REACTORS
330
C
102
}
330
C
100
AcDbDictionary
281
     1
  0
DICTIONARY
  5
1A
102
{ACAD_REACTORS
330
C
102
}
330
C
100
AcDbDictionary
281
     1
  3
Layout1
350
1E
  3
Layout2
350
26
  3
Model
350
22
  0
DICTIONARY
  5
3B
102
{ACAD_REACTORS
330
C
102
}
330
C
100
AcDbDictionary
281
     1
  3
ByBlock
350
3D
  3
ByLayer
350
3C
  3
Global
350
3E
  0
DICTIONARY
  5
173
102
{ACAD_REACTORS
330
C
102
}
330
C
100
AcDbDictionary
281
     1
  0
DICTIONARY
  5
17
102
{ACAD_REACTORS
330
C
102
}
330
C
100
AcDbDictionary
281
     1
  3
Standard
350
18
  0
DICTIONARY
  5
19
102
{ACAD_REACTORS
330
C
102
}
330
C
100
AcDbDictionary
281
     1
  0
ACDBDICTIONARYWDFLT
  5
E
102
{ACAD_REACTORS
330
C
102
}
330
C
100
AcDbDictionary
281
     1
  3
Normal
350
F
100
AcDbDictionaryWithDefault
340
F
  0
DICTIONARY
  5
2A
102
{ACAD_REACTORS
330
C
102
}
330
C
100
AcDbDictionary
281
     1
  3
2dWireframe
350
2F
  3
3D Hidden
350
31
  3
3dWireframe
350
30
  3
Basic
350
32
  3
Brighten
350
36
  3
ColorChange
350
3A
  3
Conceptual
350
34
  3
Dim
350
35
  3
Facepattern
350
39
  3
Flat
350
2B
  3
FlatWithEdges
350
2C
  3
Gouraud
350
2D
  3
GouraudWithEdges
350
2E
  3
Linepattern
350
38
  3
Realistic
350
33
  3
Thicken
350
37
  0
DICTIONARY
  5
171
102
{ACAD_REACTORS
330
C
102
}
330
C
100
AcDbDictionary
281
     1
  3
DIMASSOC
350
174
  3
HIDETEXT
350
175
  0
LAYOUT
  5
1E
102
{ACAD_REACTORS
330
1A
102
}
330
1A
100
AcDbPlotSettings
  1

  2
none_device
  4

  6

 40
0.0
 41
0.0
 42
0.0
 43
0.0
 44
0.0
 45
0.0
 46
0.0
 47
0.0
 48
0.0
 49
0.0
140
0.0
141
0.0
142
1.0
143
1.0
 70
   688
 72
     0
 73
     0
 74
     5
  7

 75
    16
147
1.0
148
0.0
149
0.0
100
AcDbLayout
  1
Layout1
 70
     1
 71
     1
 10
0.0
 20
0.0
 11
12.0
 21
9.0
 12
0.0
 22
0.0
 32
0.0
 14
1.00000000000000E+20
 24
1.00000000000000E+20
 34
1.00000000000000E+20
 15
-1.00000000000000E+20
 25
-1.00000000000000E+20
 35
-1.00000000000000E+20
146
0.0
 13
0.0
 23
0.0
 33
0.0
 16
1.0
 26
0.0
 36
0.0
 17
0.0
 27
1.0
 37
0.0
 76
     0
330
1B
  0
LAYOUT
  5
26
102
{ACAD_REACTORS
330
1A
102
}
330
1A
100
AcDbPlotSettings
  1

  2
none_device
  4

  6

 40
0.0
 41
0.0
 42
0.0
 43
0.0
 44
0.0
 45
0.0
 46
0.0
 47
0.0
 48
0.0
 49
0.0
140
0.0
141
0.0
142
1.0
143
1.0
 70
   688
 72
     0
 73
     0
 74
     5
  7

 75
    16
147
1.0
148
0.0
149
0.0
100
AcDbLayout
  1
Layout2
 70
     1
 71
     2
 10
0.0
 20
0.0
 11
0.0
 21
0.0
 12
0.0
 22
0.0
 32
0.0
 14
0.0
 24
0.0
 34
0.0
 15
0.0
 25
0.0
 35
0.0
146
0.0
 13
0.0
 23
0.0
 33
0.0
 16
1.0
 26
0.0
 36
0.0
 17
0.0
 27
1.0
 37
0.0
 76
     0
330
23
  0
LAYOUT
  5
22
102
{ACAD_REACTORS
330
1A
102
}
330
1A
100
AcDbPlotSettings
  1

  2
none_device
  4

  6

 40
0.0
 41
0.0
 42
0.0
 43
0.0
 44
0.0
 45
0.0
 46
0.0
 47
0.0
 48
0.0
 49
0.0
140
0.0
141
0.0
142
1.0
143
1.0
 70
  1712
 72
     0
 73
     0
 74
     0
  7

 75
     0
147
1.0
148
0.0
149
0.0
100
AcDbLayout
  1
Model
 70
     1
 71
     0
 10
0.0
 20
0.0
 11
12.0
 21
9.0
 12
0.0
 22
0.0
 32
0.0
 14
-274.0964737855763
 24
-22.665288113799
 34
0.0
 15
-107.7810211821717
 25
282.5
 35
0.0
146
0.0
 13
0.0
 23
0.0
 33
0.0
 16
1.0
 26
0.0
 36
0.0
 17
0.0
 27
1.0
 37
0.0
 76
     0
330
1F
331
29
  0
MATERIAL
  5
3D
102
{ACAD_REACTORS
330
3B
102
}
102
{ACAD_XDICTIONARY
360
198
102
}
330
3B
100
AcDbMaterial
  1
ByBlock
  0
MATERIAL
  5
3C
102
{ACAD_REACTORS
330
3B
102
}
102
{ACAD_XDICTIONARY
360
196
102
}
330
3B
100
AcDbMaterial
  1
ByLayer
  0
MATERIAL
  5
3E
102
{ACAD_REACTORS
330
3B
102
}
102
{ACAD_XDICTIONARY
360
19A
102
}
330
3B
100
AcDbMaterial
  1
Global
  0
MLINESTYLE
  5
18
102
{ACAD_REACTORS
330
17
102
}
330
17
100
AcDbMlineStyle
  2
Standard
 70
     0
  3

 62
   256
 51
90.0
 52
90.0
 71
     2
 49
0.5
 62
   256
  6
BYLAYER
 49
-0.5
 62
   256
  6
BYLAYER
  0
ACDBPLACEHOLDER
  5
F
102
{ACAD_REACTORS
330
E
102
}
330
E
  0
VISUALSTYLE
  5
2F
102
{ACAD_REACTORS
330
2A
102
}
102
{ACAD_XDICTIONARY
360
17E
102
}
330
2A
100
AcDbVisualStyle
  2
2dWireframe
 70
     4
 71
     0
 72
     2
 73
     0
 90
        0
 40
-0.6
 41
-30.0
 62
     5
 63
     7
 74
     1
 91
        4
 64
     7
 65
   257
 75
     1
175
     1
 42
1.0
 92
        0
 66
   257
 43
1.0
 76
     1
 77
     6
 78
     2
 67
     7
 79
     5
170
     0
171
     0
290
     0
174
     0
 93
        1
 44
0.0
173
     0
291
     0
 45
0.0
1001
ACAD
1000
AcDbSavedByObjectVersion
1070
     0
  0
VISUALSTYLE
  5
31
102
{ACAD_REACTORS
330
2A
102
}
102
{ACAD_XDICTIONARY
360
182
102
}
330
2A
100
AcDbVisualStyle
  2
3D Hidden
 70
     6
 71
     1
 72
     2
 73
     2
 90
        0
 40
-0.6
 41
-30.0
 62
     5
 63
     7
 74
     2
 91
        2
 64
     7
 65
   257
 75
     2
175
     1
 42
40.0
 92
        0
 66
   257
 43
1.0
 76
     1
 77
     6
 78
     2
 67
     7
 79
     3
170
     0
171
     0
290
     0
174
     0
 93
        1
 44
0.0
173
     0
291
     0
 45
0.0
1001
ACAD
1000
AcDbSavedByObjectVersion
1070
     0
  0
VISUALSTYLE
  5
30
102
{ACAD_REACTORS
330
2A
102
}
102
{ACAD_XDICTIONARY
360
180
102
}
330
2A
100
AcDbVisualStyle
  2
3dWireframe
 70
     5
 71
     0
 72
     2
 73
     0
 90
        0
 40
-0.6
 41
-30.0
 62
     5
 63
     7
 74
     1
 91
        4
 64
     7
 65
   257
 75
     1
175
     1
 42
1.0
 92
        0
 66
   257
 43
1.0
 76
     1
 77
     6
 78
     2
 67
     7
 79
     5
170
     0
171
     0
290
     0
174
     0
 93
        1
 44
0.0
173
     0
291
     0
 45
0.0
1001
ACAD
1000
AcDbSavedByObjectVersion
1070
     0
  0
VISUALSTYLE
  5
32
102
{ACAD_REACTORS
330
2A
102
}
102
{ACAD_XDICTIONARY
360
184
102
}
330
2A
100
AcDbVisualStyle
  2
Basic
 70
     7
 71
     1
 72
     0
 73
     1
 90
        0
 40
-0.6
 41
-30.0
 62
     5
 63
     7
 74
     0
 91
        4
 64
     7
 65
   257
 75
     1
175
     1
 42
1.0
 92
        8
 66
     7
 43
1.0
 76
     1
 77
     6
 78
     2
 67
     7
 79
     5
170
     0
171
     0
290
     0
174
     0
 93
        1
 44
0.0
173
     0
291
     1
 45
0.0
1001
ACAD
1000
AcDbSavedByObjectVersion
1070
     0
  0
VISUALSTYLE
  5
36
102
{ACAD_REACTORS
330
2A
102
}
102
{ACAD_XDICTIONARY
360
18C
102
}
330
2A
100
AcDbVisualStyle
  2
Brighten
 70
    12
 71
     2
 72
     2
 73
     0
 90
        0
 40
-0.6
 41
-30.0
 62
     5
 63
     7
 74
     1
 91
        4
 64
     7
 65
   257
 75
     1
175
     1
 42
1.0
 92
        8
 66
     7
 43
1.0
 76
     1
 77
     6
 78
     2
 67
     7
 79
     5
170
     0
171
     0
290
     0
174
     0
 93
        1
 44
50.0
173
     0
291
     1
 45
0.0
1001
ACAD
1000
AcDbSavedByObjectVersion
1070
     0
  0
VISUALSTYLE
  5
3A
102
{ACAD_REACTORS
330
2A
102
}
102
{ACAD_XDICTIONARY
360
194
102
}
330
2A
100
AcDbVisualStyle
  2
ColorChange
 70
    16
 71
     2
 72
     2
 73
     3
 90
        0
 40
-0.6
 41
-30.0
 62
     5
 63
     8
 74
     1
 91
        4
 64
     7
 65
   257
 75
     1
175
     1
 42
1.0
 92
        8
 66
     8
 43
1.0
 76
     1
 77
     6
 78
     2
 67
     7
 79
     5
170
     0
171
     0
290
     0
174
     0
 93
        1
 44
0.0
173
     0
291
     1
 45
0.0
1001
ACAD
1000
AcDbSavedByObjectVersion
1070
     0
  0
VISUALSTYLE
  5
34
102
{ACAD_REACTORS
330
2A
102
}
102
{ACAD_XDICTIONARY
360
188
102
}
330
2A
100
AcDbVisualStyle
  2
Conceptual
 70
     9
 71
     3
 72
     2
 73
     0
 90
        0
 40
-0.6
 41
-30.0
 62
     5
 63
     7
 74
     2
 91
        2
 64
     7
 65
   257
 75
     1
175
     1
 42
40.0
 92
        8
 66
     7
 43
1.0
 76
     1
 77
     6
 78
     2
 67
     7
 79
     3
170
     0
171
     0
290
     0
174
     0
 93
        1
 44
0.0
173
     0
291
     0
 45
0.0
1001
ACAD
1000
AcDbSavedByObjectVersion
1070
     0
  0
VISUALSTYLE
  5
35
102
{ACAD_REACTORS
330
2A
102
}
102
{ACAD_XDICTIONARY
360
18A
102
}
330
2A
100
AcDbVisualStyle
  2
Dim
 70
    11
 71
     2
 72
     2
 73
     0
 90
        0
 40
-0.6
 41
-30.0
 62
     5
 63
     7
 74
     1
 91
        4
 64
     7
 65
   257
 75
     1
175
     1
 42
1.0
 92
        8
 66
     7
 43
1.0
 76
     1
 77
     6
 78
     2
 67
     7
 79
     5
170
     0
171
     0
290
     0
174
     0
 93
        1
 44
-50.0
173
     0
291
     1
 45
0.0
1001
ACAD
1000
AcDbSavedByObjectVersion
1070
     0
  0
VISUALSTYLE
  5
39
102
{ACAD_REACTORS
330
2A
102
}
102
{ACAD_XDICTIONARY
360
192
102
}
330
2A
100
AcDbVisualStyle
  2
Facepattern
 70
    15
 71
     2
 72
     2
 73
     0
 90
        0
 40
-0.6
 41
-30.0
 62
     5
 63
     7
 74
     1
 91
        4
 64
     7
 65
   257
 75
     1
175
     1
 42
1.0
 92
        8
 66
     7
 43
1.0
 76
     1
 77
     6
 78
     2
 67
     7
 79
     5
170
     0
171
     0
290
     0
174
     0
 93
        1
 44
0.0
173
     0
291
     1
 45
0.0
1001
ACAD
1000
AcDbSavedByObjectVersion
1070
     0
  0
VISUALSTYLE
  5
2B
102
{ACAD_REACTORS
330
2A
102
}
102
{ACAD_XDICTIONARY
360
176
102
}
330
2A
100
AcDbVisualStyle
  2
Flat
 70
     0
 71
     2
 72
     1
 73
     1
 90
        2
 40
-0.6
 41
30.0
 62
     5
 63
     7
 74
     0
 91
        4
 64
     7
 65
   257
 75
     1
175
     1
 42
1.0
 92
        8
 66
     7
 43
1.0
 76
     1
 77
     6
 78
     2
 67
     7
 79
     5
170
     0
171
     0
290
     0
174
     0
 93
       13
 44
0.0
173
     0
291
     1
 45
0.0
1001
ACAD
1000
AcDbSavedByObjectVersion
1070
     0
  0
VISUALSTYLE
  5
2C
102
{ACAD_REACTORS
330
2A
102
}
102
{ACAD_XDICTIONARY
360
178
102
}
330
2A
100
AcDbVisualStyle
  2
FlatWithEdges
 70
     1
 71
     2
 72
     1
 73
     1
 90
        2
 40
-0.6
 41
30.0
 62
     5
 63
     7
 74
     1
 91
        4
 64
     7
 65
   257
 75
     1
175
     1
 42
1.0
 92
        0
 66
   257
 43
1.0
 76
     1
 77
     6
 78
     2
 67
     7
 79
     5
170
     0
171
     0
290
     0
174
     0
 93
       13
 44
0.0
173
     0
291
     1
 45
0.0
1001
ACAD
1000
AcDbSavedByObjectVersion
1070
     0
  0
VISUALSTYLE
  5
2D
102
{ACAD_REACTORS
330
2A
102
}
102
{ACAD_XDICTIONARY
360
17A
102
}
330
2A
100
AcDbVisualStyle
  2
Gouraud
 70
     2
 71
     2
 72
     2
 73
     1
 90
        2
 40
-0.6
 41
30.0
 62
     5
 63
     7
 74
     0
 91
        4
 64
     7
 65
   257
 75
     1
175
     1
 42
1.0
 92
        0
 66
     7
 43
1.0
 76
     1
 77
     6
 78
     2
 67
     7
 79
     5
170
     0
171
     0
290
     0
174
     0
 93
       13
 44
0.0
173
     0
291
     1
 45
0.0
1001
ACAD
1000
AcDbSavedByObjectVersion
1070
     0
  0
VISUALSTYLE
  5
2E
102
{ACAD_REACTORS
330
2A
102
}
102
{ACAD_XDICTIONARY
360
17C
102
}
330
2A
100
AcDbVisualStyle
  2
GouraudWithEdges
 70
     3
 71
     2
 72
     2
 73
     1
 90
        2
 40
-0.6
 41
30.0
 62
     5
 63
     7
 74
     1
 91
        4
 64
     7
 65
   257
 75
     1
175
     1
 42
1.0
 92
        0
 66
   257
 43
1.0
 76
     1
 77
     6
 78
     2
 67
     7
 79
     5
170
     0
171
     0
290
     0
174
     0
 93
       13
 44
0.0
173
     0
291
     1
 45
0.0
1001
ACAD
1000
AcDbSavedByObjectVersion
1070
     0
  0
VISUALSTYLE
  5
38
102
{ACAD_REACTORS
330
2A
102
}
102
{ACAD_XDICTIONARY
360
190
102
}
330
2A
100
AcDbVisualStyle
  2
Linepattern
 70
    14
 71
     2
 72
     2
 73
     0
 90
        0
 40
-0.6
 41
-30.0
 62
     5
 63
     7
 74
     1
 91
        4
 64
     7
 65
   257
 75
     7
175
     7
 42
1.0
 92
        8
 66
     7
 43
1.0
 76
     1
 77
     6
 78
     2
 67
     7
 79
     5
170
     0
171
     0
290
     0
174
     0
 93
        1
 44
0.0
173
     0
291
     1
 45
0.0
1001
ACAD
1000
AcDbSavedByObjectVersion
1070
     0
  0
VISUALSTYLE
  5
33
102
{ACAD_REACTORS
330
2A
102
}
102
{ACAD_XDICTIONARY
360
186
102
}
330
2A
100
AcDbVisualStyle
  2
Realistic
 70
     8
 71
     2
 72
     2
 73
     0
 90
        0
 40
-0.6
 41
-30.0
 62
     5
 63
     7
 74
     1
 91
        0
 64
     7
 65
   257
 75
     1
175
     1
 42
1.0
 92
        8
 66
     8
 43
1.0
 76
     1
 77
     6
 78
     2
 67
     7
 79
     5
170
     0
171
     0
290
     0
174
     0
 93
       13
 44
0.0
173
     0
291
     0
 45
0.0
1001
ACAD
1000
AcDbSavedByObjectVersion
1070
     0
  0
VISUALSTYLE
  5
37
102
{ACAD_REACTORS
330
2A
102
}
102
{ACAD_XDICTIONARY
360
18E
102
}
330
2A
100
AcDbVisualStyle
  2
Thicken
 70
    13
 71
     2
 72
     2
 73
     0
 90
        0
 40
-0.6
 41
-30.0
 62
     5
 63
     7
 74
     1
 91
        4
 64
     7
 65
   257
 75
     1
175
     1
 42
1.0
 92
       12
 66
     7
 43
1.0
 76
     1
 77
     6
 78
     2
 67
     7
 79
     5
170
     0
171
     0
290
     0
174
     0
 93
        1
 44
0.0
173
     0
291
     1
 45
0.0
1001
ACAD
1000
AcDbSavedByObjectVersion
1070
     0
  0
DICTIONARYVAR
  5
174
102
{ACAD_REACTORS
330
171
102
}
330
171
100
DictionaryVariables
280
     0
  1
2
  0
DICTIONARYVAR
  5
175
102
{ACAD_REACTORS
330
171
102
}
330
171
100
DictionaryVariables
280
     0
  1
1
  0
DICTIONARY
  5
198
330
3D
100
AcDbDictionary
280
     1
281
     1
  3
ACAD_XREC_ROUNDTRIP
360
199
  0
DICTIONARY
  5
196
330
3C
100
AcDbDictionary
280
     1
281
     1
  3
ACAD_XREC_ROUNDTRIP
360
197
  0
DICTIONARY
  5
19A
330
3E
100
AcDbDictionary
280
     1
281
     1
  3
ACAD_XREC_ROUNDTRIP
360
19B
  0
DICTIONARY
  5
17E
330
2F
100
AcDbDictionary
280
     1
281
     1
  3
ACAD_XREC_ROUNDTRIP
360
17F
  0
DICTIONARY
  5
182
330
31
100
AcDbDictionary
280
     1
281
     1
  3
ACAD_XREC_ROUNDTRIP
360
183
  0
DICTIONARY
  5
180
330
30
100
AcDbDictionary
280
     1
281
     1
  3
ACAD_XREC_ROUNDTRIP
360
181
  0
DICTIONARY
  5
184
330
32
100
AcDbDictionary
280
     1
281
     1
  3
ACAD_XREC_ROUNDTRIP
360
185
  0
DICTIONARY
  5
18C
330
36
100
AcDbDictionary
280
     1
281
     1
  3
ACAD_XREC_ROUNDTRIP
360
18D
  0
DICTIONARY
  5
194
330
3A
100
AcDbDictionary
280
     1
281
     1
  3
ACAD_XREC_ROUNDTRIP
360
195
  0
DICTIONARY
  5
188
330
34
100
AcDbDictionary
280
     1
281
     1
  3
ACAD_XREC_ROUNDTRIP
360
189
  0
DICTIONARY
  5
18A
330
35
100
AcDbDictionary
280
     1
281
     1
  3
ACAD_XREC_ROUNDTRIP
360
18B
  0
DICTIONARY
  5
192
330
39
100
AcDbDictionary
280
     1
281
     1
  3
ACAD_XREC_ROUNDTRIP
360
193
  0
DICTIONARY
  5
176
330
2B
100
AcDbDictionary
280
     1
281
     1
  3
ACAD_XREC_ROUNDTRIP
360
177
  0
DICTIONARY
  5
178
330
2C
100
AcDbDictionary
280
     1
281
     1
  3
ACAD_XREC_ROUNDTRIP
360
179
  0
DICTIONARY
  5
17A
330
2D
100
AcDbDictionary
280
     1
281
     1
  3
ACAD_XREC_ROUNDTRIP
360
17B
  0
DICTIONARY
  5
17C
330
2E
100
AcDbDictionary
280
     1
281
     1
  3
ACAD_XREC_ROUNDTRIP
360
17D
  0
DICTIONARY
  5
190
330
38
100
AcDbDictionary
280
     1
281
     1
  3
ACAD_XREC_ROUNDTRIP
360
191
  0
DICTIONARY
  5
186
330
33
100
AcDbDictionary
280
     1
281
     1
  3
ACAD_XREC_ROUNDTRIP
360
187
  0
DICTIONARY
  5
18E
330
37
100
AcDbDictionary
280
     1
281
     1
  3
ACAD_XREC_ROUNDTRIP
360
18F
  0
XRECORD
  5
199
102
{ACAD_REACTORS
330
198
102
}
330
198
100
AcDbXrecord
280
     1
102
MATERIAL
148
0.0
149
0.0
149
0.0
 93
        0
 94
      127
282
     0
 72
     1
 77
     1
171
     1
175
     1
179
     1
273
     0
  0
XRECORD
  5
197
102
{ACAD_REACTORS
330
196
102
}
330
196
100
AcDbXrecord
280
     1
102
MATERIAL
148
0.0
149
0.0
149
0.0
 93
        0
 94
      127
282
     0
 72
     1
 77
     1
171
     1
175
     1
179
     1
273
     0
  0
XRECORD
  5
19B
102
{ACAD_REACTORS
330
19A
102
}
330
19A
100
AcDbXrecord
280
     1
102
MATERIAL
148
0.0
149
0.0
149
0.0
 93
        0
 94
      127
282
     0
 72
     1
 77
     1
171
     1
175
     1
179
     1
273
     0
  0
XRECORD
  5
17F
102
{ACAD_REACTORS
330
17E
102
}
330
17E
100
AcDbXrecord
280
     1
102
RTVSPropertyOp0
 70
     1
102
RTVSPropertyOp1
 70
     1
102
RTVSPropertyOp2
 70
     1
102
RTVSPropertyOp3
 70
     1
102
RTVSPropertyOp4
 70
     1
102
RTVSPropertyOp5
 70
     1
102
RTVSPropertyOp6
 70
     1
102
RTVSPropertyOp7
 70
     1
102
RTVSPropertyOp8
 70
     1
102
RTVSPropertyOp9
 70
     1
102
RTVSPropertyOp10
 70
     1
102
RTVSPropertyOp11
 70
     1
102
RTVSPropertyOp12
 70
     1
102
RTVSPropertyOp13
 70
     1
102
RTVSPropertyOp14
 70
     1
102
RTVSPropertyOp15
 70
     1
102
RTVSPropertyOp16
 70
     1
102
RTVSPropertyOp17
 70
     1
102
RTVSPropertyOp18
 70
     1
102
RTVSPropertyOp19
 70
     1
102
RTVSPropertyOp20
 70
     1
102
RTVSPropertyOp21
 70
     1
102
RTVSPropertyOp22
 70
     1
102
RTVSPropertyOp23
 70
     1
102
RTVSPropertyOp24
 70
     1
102
RTVSPropertyOp25
 70
     1
102
RTVSPropertyOp26
 70
     1
102
RTVSPropertyOp27
 70
     1
102
RTVSPropertyOp28
 70
     1
102
RTVSPropertyOp29
 70
     1
102
RTVSPropertyOp30
 70
     1
102
RTVSPropertyOp31
 70
     1
102
RTVSPropertyOp32
 70
     1
  0
XRECORD
  5
183
102
{ACAD_REACTORS
330
182
102
}
330
182
100
AcDbXrecord
280
     1
102
RTVSPropertyOp0
 70
     1
102
RTVSPropertyOp1
 70
     1
102
RTVSPropertyOp2
 70
     1
102
RTVSPropertyOp3
 70
     1
102
RTVSPropertyOp4
 70
     1
102
RTVSPropertyOp5
 70
     1
102
RTVSPropertyOp6
 70
     1
102
RTVSPropertyOp7
 70
     1
102
RTVSPropertyOp8
 70
     1
102
RTVSPropertyOp9
 70
     1
102
RTVSPropertyOp10
 70
     1
102
RTVSPropertyOp11
 70
     1
102
RTVSPropertyOp12
 70
     1
102
RTVSPropertyOp13
 70
     1
102
RTVSPropertyOp14
 70
     1
102
RTVSPropertyOp15
 70
     1
102
RTVSPropertyOp16
 70
     1
102
RTVSPropertyOp17
 70
     1
102
RTVSPropertyOp18
 70
     1
102
RTVSPropertyOp19
 70
     1
102
RTVSPropertyOp20
 70
     1
102
RTVSPropertyOp21
 70
     1
102
RTVSPropertyOp22
 70
     1
102
RTVSPropertyOp23
 70
     1
102
RTVSPropertyOp24
 70
     1
102
RTVSPropertyOp25
 70
     1
102
RTVSPropertyOp26
 70
     1
102
RTVSPropertyOp27
 70
     1
102
RTVSPropertyOp28
 70
     1
102
RTVSPropertyOp29
 70
     1
102
RTVSPropertyOp30
 70
     1
102
RTVSPropertyOp31
 70
     1
102
RTVSPropertyOp32
 70
     1
  0
XRECORD
  5
181
102
{ACAD_REACTORS
330
180
102
}
330
180
100
AcDbXrecord
280
     1
102
RTVSPropertyOp0
 70
     1
102
RTVSPropertyOp1
 70
     1
102
RTVSPropertyOp2
 70
     1
102
RTVSPropertyOp3
 70
     1
102
RTVSPropertyOp4
 70
     1
102
RTVSPropertyOp5
 70
     1
102
RTVSPropertyOp6
 70
     1
102
RTVSPropertyOp7
 70
     1
102
RTVSPropertyOp8
 70
     1
102
RTVSPropertyOp9
 70
     1
102
RTVSPropertyOp10
 70
     1
102
RTVSPropertyOp11
 70
     1
102
RTVSPropertyOp12
 70
     1
102
RTVSPropertyOp13
 70
     1
102
RTVSPropertyOp14
 70
     1
102
RTVSPropertyOp15
 70
     1
102
RTVSPropertyOp16
 70
     1
102
RTVSPropertyOp17
 70
     1
102
RTVSPropertyOp18
 70
     1
102
RTVSPropertyOp19
 70
     1
102
RTVSPropertyOp20
 70
     1
102
RTVSPropertyOp21
 70
     1
102
RTVSPropertyOp22
 70
     1
102
RTVSPropertyOp23
 70
     1
102
RTVSPropertyOp24
 70
     1
102
RTVSPropertyOp25
 70
     1
102
RTVSPropertyOp26
 70
     1
102
RTVSPropertyOp27
 70
     1
102
RTVSPropertyOp28
 70
     1
102
RTVSPropertyOp29
 70
     1
102
RTVSPropertyOp30
 70
     1
102
RTVSPropertyOp31
 70
     1
102
RTVSPropertyOp32
 70
     1
  0
XRECORD
  5
185
102
{ACAD_REACTORS
330
184
102
}
330
184
100
AcDbXrecord
280
     1
102
RTVSPropertyOp0
 70
     1
102
RTVSPropertyOp1
 70
     1
102
RTVSPropertyOp2
 70
     1
102
RTVSPropertyOp3
 70
     1
102
RTVSPropertyOp4
 70
     1
102
RTVSPropertyOp5
 70
     1
102
RTVSPropertyOp6
 70
     1
102
RTVSPropertyOp7
 70
     1
102
RTVSPropertyOp8
 70
     1
102
RTVSPropertyOp9
 70
     1
102
RTVSPropertyOp10
 70
     1
102
RTVSPropertyOp11
 70
     1
102
RTVSPropertyOp12
 70
     1
102
RTVSPropertyOp13
 70
     1
102
RTVSPropertyOp14
 70
     1
102
RTVSPropertyOp15
 70
     1
102
RTVSPropertyOp16
 70
     1
102
RTVSPropertyOp17
 70
     1
102
RTVSPropertyOp18
 70
     1
102
RTVSPropertyOp19
 70
     1
102
RTVSPropertyOp20
 70
     1
102
RTVSPropertyOp21
 70
     1
102
RTVSPropertyOp22
 70
     1
102
RTVSPropertyOp23
 70
     1
102
RTVSPropertyOp24
 70
     1
102
RTVSPropertyOp25
 70
     1
102
RTVSPropertyOp26
 70
     1
102
RTVSPropertyOp27
 70
     1
102
RTVSPropertyOp28
 70
     1
102
RTVSPropertyOp29
 70
     1
102
RTVSPropertyOp30
 70
     1
102
RTVSPropertyOp31
 70
     1
102
RTVSPropertyOp32
 70
     1
  0
XRECORD
  5
18D
102
{ACAD_REACTORS
330
18C
102
}
330
18C
100
AcDbXrecord
280
     1
102
RTVSPropertyOp0
 70
     1
102
RTVSPropertyOp1
 70
     1
102
RTVSPropertyOp2
 70
     1
102
RTVSPropertyOp3
 70
     1
102
RTVSPropertyOp4
 70
     1
102
RTVSPropertyOp5
 70
     1
102
RTVSPropertyOp6
 70
     1
102
RTVSPropertyOp7
 70
     1
102
RTVSPropertyOp8
 70
     1
102
RTVSPropertyOp9
 70
     1
102
RTVSPropertyOp10
 70
     1
102
RTVSPropertyOp11
 70
     1
102
RTVSPropertyOp12
 70
     1
102
RTVSPropertyOp13
 70
     1
102
RTVSPropertyOp14
 70
     1
102
RTVSPropertyOp15
 70
     1
102
RTVSPropertyOp16
 70
     1
102
RTVSPropertyOp17
 70
     1
102
RTVSPropertyOp18
 70
     1
102
RTVSPropertyOp19
 70
     1
102
RTVSPropertyOp20
 70
     1
102
RTVSPropertyOp21
 70
     1
102
RTVSPropertyOp22
 70
     1
102
RTVSPropertyOp23
 70
     1
102
RTVSPropertyOp24
 70
     1
102
RTVSPropertyOp25
 70
     1
102
RTVSPropertyOp26
 70
     1
102
RTVSPropertyOp27
 70
     1
102
RTVSPropertyOp28
 70
     1
102
RTVSPropertyOp29
 70
     1
102
RTVSPropertyOp30
 70
     1
102
RTVSPropertyOp31
 70
     1
102
RTVSPropertyOp32
 70
     1
  0
XRECORD
  5
195
102
{ACAD_REACTORS
330
194
102
}
330
194
100
AcDbXrecord
280
     1
102
RTVSPropertyOp0
 70
     1
102
RTVSPropertyOp1
 70
     1
102
RTVSPropertyOp2
 70
     1
102
RTVSPropertyOp3
 70
     1
102
RTVSPropertyOp4
 70
     1
102
RTVSPropertyOp5
 70
     1
102
RTVSPropertyOp6
 70
     1
102
RTVSPropertyOp7
 70
     1
102
RTVSPropertyOp8
 70
     1
102
RTVSPropertyOp9
 70
     1
102
RTVSPropertyOp10
 70
     1
102
RTVSPropertyOp11
 70
     1
102
RTVSPropertyOp12
 70
     1
102
RTVSPropertyOp13
 70
     1
102
RTVSPropertyOp14
 70
     1
102
RTVSPropertyOp15
 70
     1
102
RTVSPropertyOp16
 70
     1
102
RTVSPropertyOp17
 70
     1
102
RTVSPropertyOp18
 70
     1
102
RTVSPropertyOp19
 70
     1
102
RTVSPropertyOp20
 70
     1
102
RTVSPropertyOp21
 70
     1
102
RTVSPropertyOp22
 70
     1
102
RTVSPropertyOp23
 70
     1
102
RTVSPropertyOp24
 70
     1
102
RTVSPropertyOp25
 70
     1
102
RTVSPropertyOp26
 70
     1
102
RTVSPropertyOp27
 70
     1
102
RTVSPropertyOp28
 70
     1
102
RTVSPropertyOp29
 70
     1
102
RTVSPropertyOp30
 70
     1
102
RTVSPropertyOp31
 70
     1
102
RTVSPropertyOp32
 70
     1
  0
XRECORD
  5
189
102
{ACAD_REACTORS
330
188
102
}
330
188
100
AcDbXrecord
280
     1
102
RTVSPropertyOp0
 70
     1
102
RTVSPropertyOp1
 70
     1
102
RTVSPropertyOp2
 70
     1
102
RTVSPropertyOp3
 70
     1
102
RTVSPropertyOp4
 70
     1
102
RTVSPropertyOp5
 70
     1
102
RTVSPropertyOp6
 70
     1
102
RTVSPropertyOp7
 70
     1
102
RTVSPropertyOp8
 70
     1
102
RTVSPropertyOp9
 70
     1
102
RTVSPropertyOp10
 70
     1
102
RTVSPropertyOp11
 70
     1
102
RTVSPropertyOp12
 70
     1
102
RTVSPropertyOp13
 70
     1
102
RTVSPropertyOp14
 70
     1
102
RTVSPropertyOp15
 70
     1
102
RTVSPropertyOp16
 70
     1
102
RTVSPropertyOp17
 70
     1
102
RTVSPropertyOp18
 70
     1
102
RTVSPropertyOp19
 70
     1
102
RTVSPropertyOp20
 70
     1
102
RTVSPropertyOp21
 70
     1
102
RTVSPropertyOp22
 70
     1
102
RTVSPropertyOp23
 70
     1
102
RTVSPropertyOp24
 70
     1
102
RTVSPropertyOp25
 70
     1
102
RTVSPropertyOp26
 70
     1
102
RTVSPropertyOp27
 70
     1
102
RTVSPropertyOp28
 70
     1
102
RTVSPropertyOp29
 70
     1
102
RTVSPropertyOp30
 70
     1
102
RTVSPropertyOp31
 70
     1
102
RTVSPropertyOp32
 70
     1
  0
XRECORD
  5
18B
102
{ACAD_REACTORS
330
18A
102
}
330
18A
100
AcDbXrecord
280
     1
102
RTVSPropertyOp0
 70
     1
102
RTVSPropertyOp1
 70
     1
102
RTVSPropertyOp2
 70
     1
102
RTVSPropertyOp3
 70
     1
102
RTVSPropertyOp4
 70
     1
102
RTVSPropertyOp5
 70
     1
102
RTVSPropertyOp6
 70
     1
102
RTVSPropertyOp7
 70
     1
102
RTVSPropertyOp8
 70
     1
102
RTVSPropertyOp9
 70
     1
102
RTVSPropertyOp10
 70
     1
102
RTVSPropertyOp11
 70
     1
102
RTVSPropertyOp12
 70
     1
102
RTVSPropertyOp13
 70
     1
102
RTVSPropertyOp14
 70
     1
102
RTVSPropertyOp15
 70
     1
102
RTVSPropertyOp16
 70
     1
102
RTVSPropertyOp17
 70
     1
102
RTVSPropertyOp18
 70
     1
102
RTVSPropertyOp19
 70
     1
102
RTVSPropertyOp20
 70
     1
102
RTVSPropertyOp21
 70
     1
102
RTVSPropertyOp22
 70
     1
102
RTVSPropertyOp23
 70
     1
102
RTVSPropertyOp24
 70
     1
102
RTVSPropertyOp25
 70
     1
102
RTVSPropertyOp26
 70
     1
102
RTVSPropertyOp27
 70
     1
102
RTVSPropertyOp28
 70
     1
102
RTVSPropertyOp29
 70
     1
102
RTVSPropertyOp30
 70
     1
102
RTVSPropertyOp31
 70
     1
102
RTVSPropertyOp32
 70
     1
  0
XRECORD
  5
193
102
{ACAD_REACTORS
330
192
102
}
330
192
100
AcDbXrecord
280
     1
102
RTVSPropertyOp0
 70
     1
102
RTVSPropertyOp1
 70
     1
102
RTVSPropertyOp2
 70
     1
102
RTVSPropertyOp3
 70
     1
102
RTVSPropertyOp4
 70
     1
102
RTVSPropertyOp5
 70
     1
102
RTVSPropertyOp6
 70
     1
102
RTVSPropertyOp7
 70
     1
102
RTVSPropertyOp8
 70
     1
102
RTVSPropertyOp9
 70
     1
102
RTVSPropertyOp10
 70
     1
102
RTVSPropertyOp11
 70
     1
102
RTVSPropertyOp12
 70
     1
102
RTVSPropertyOp13
 70
     1
102
RTVSPropertyOp14
 70
     1
102
RTVSPropertyOp15
 70
     1
102
RTVSPropertyOp16
 70
     1
102
RTVSPropertyOp17
 70
     1
102
RTVSPropertyOp18
 70
     1
102
RTVSPropertyOp19
 70
     1
102
RTVSPropertyOp20
 70
     1
102
RTVSPropertyOp21
 70
     1
102
RTVSPropertyOp22
 70
     1
102
RTVSPropertyOp23
 70
     1
102
RTVSPropertyOp24
 70
     1
102
RTVSPropertyOp25
 70
     1
102
RTVSPropertyOp26
 70
     1
102
RTVSPropertyOp27
 70
     1
102
RTVSPropertyOp28
 70
     1
102
RTVSPropertyOp29
 70
     1
102
RTVSPropertyOp30
 70
     1
102
RTVSPropertyOp31
 70
     1
102
RTVSPropertyOp32
 70
     1
  0
XRECORD
  5
177
102
{ACAD_REACTORS
330
176
102
}
330
176
100
AcDbXrecord
280
     1
102
RTVSPropertyOp0
 70
     1
102
RTVSPropertyOp1
 70
     1
102
RTVSPropertyOp2
 70
     1
102
RTVSPropertyOp3
 70
     1
102
RTVSPropertyOp4
 70
     1
102
RTVSPropertyOp5
 70
     1
102
RTVSPropertyOp6
 70
     1
102
RTVSPropertyOp7
 70
     1
102
RTVSPropertyOp8
 70
     1
102
RTVSPropertyOp9
 70
     1
102
RTVSPropertyOp10
 70
     1
102
RTVSPropertyOp11
 70
     1
102
RTVSPropertyOp12
 70
     1
102
RTVSPropertyOp13
 70
     1
102
RTVSPropertyOp14
 70
     1
102
RTVSPropertyOp15
 70
     1
102
RTVSPropertyOp16
 70
     1
102
RTVSPropertyOp17
 70
     1
102
RTVSPropertyOp18
 70
     1
102
RTVSPropertyOp19
 70
     1
102
RTVSPropertyOp20
 70
     1
102
RTVSPropertyOp21
 70
     1
102
RTVSPropertyOp22
 70
     1
102
RTVSPropertyOp23
 70
     1
102
RTVSPropertyOp24
 70
     1
102
RTVSPropertyOp25
 70
     1
102
RTVSPropertyOp26
 70
     1
102
RTVSPropertyOp27
 70
     1
102
RTVSPropertyOp28
 70
     1
102
RTVSPropertyOp29
 70
     1
102
RTVSPropertyOp30
 70
     1
102
RTVSPropertyOp31
 70
     1
102
RTVSPropertyOp32
 70
     1
  0
XRECORD
  5
179
102
{ACAD_REACTORS
330
178
102
}
330
178
100
AcDbXrecord
280
     1
102
RTVSPropertyOp0
 70
     1
102
RTVSPropertyOp1
 70
     1
102
RTVSPropertyOp2
 70
     1
102
RTVSPropertyOp3
 70
     1
102
RTVSPropertyOp4
 70
     1
102
RTVSPropertyOp5
 70
     1
102
RTVSPropertyOp6
 70
     1
102
RTVSPropertyOp7
 70
     1
102
RTVSPropertyOp8
 70
     1
102
RTVSPropertyOp9
 70
     1
102
RTVSPropertyOp10
 70
     1
102
RTVSPropertyOp11
 70
     1
102
RTVSPropertyOp12
 70
     1
102
RTVSPropertyOp13
 70
     1
102
RTVSPropertyOp14
 70
     1
102
RTVSPropertyOp15
 70
     1
102
RTVSPropertyOp16
 70
     1
102
RTVSPropertyOp17
 70
     1
102
RTVSPropertyOp18
 70
     1
102
RTVSPropertyOp19
 70
     1
102
RTVSPropertyOp20
 70
     1
102
RTVSPropertyOp21
 70
     1
102
RTVSPropertyOp22
 70
     1
102
RTVSPropertyOp23
 70
     1
102
RTVSPropertyOp24
 70
     1
102
RTVSPropertyOp25
 70
     1
102
RTVSPropertyOp26
 70
     1
102
RTVSPropertyOp27
 70
     1
102
RTVSPropertyOp28
 70
     1
102
RTVSPropertyOp29
 70
     1
102
RTVSPropertyOp30
 70
     1
102
RTVSPropertyOp31
 70
     1
102
RTVSPropertyOp32
 70
     1
  0
XRECORD
  5
17B
102
{ACAD_REACTORS
330
17A
102
}
330
17A
100
AcDbXrecord
280
     1
102
RTVSPropertyOp0
 70
     1
102
RTVSPropertyOp1
 70
     1
102
RTVSPropertyOp2
 70
     1
102
RTVSPropertyOp3
 70
     1
102
RTVSPropertyOp4
 70
     1
102
RTVSPropertyOp5
 70
     1
102
RTVSPropertyOp6
 70
     1
102
RTVSPropertyOp7
 70
     1
102
RTVSPropertyOp8
 70
     1
102
RTVSPropertyOp9
 70
     1
102
RTVSPropertyOp10
 70
     1
102
RTVSPropertyOp11
 70
     1
102
RTVSPropertyOp12
 70
     1
102
RTVSPropertyOp13
 70
     1
102
RTVSPropertyOp14
 70
     1
102
RTVSPropertyOp15
 70
     1
102
RTVSPropertyOp16
 70
     1
102
RTVSPropertyOp17
 70
     1
102
RTVSPropertyOp18
 70
     1
102
RTVSPropertyOp19
 70
     1
102
RTVSPropertyOp20
 70
     1
102
RTVSPropertyOp21
 70
     1
102
RTVSPropertyOp22
 70
     1
102
RTVSPropertyOp23
 70
     1
102
RTVSPropertyOp24
 70
     1
102
RTVSPropertyOp25
 70
     1
102
RTVSPropertyOp26
 70
     1
102
RTVSPropertyOp27
 70
     1
102
RTVSPropertyOp28
 70
     1
102
RTVSPropertyOp29
 70
     1
102
RTVSPropertyOp30
 70
     1
102
RTVSPropertyOp31
 70
     1
102
RTVSPropertyOp32
 70
     1
  0
XRECORD
  5
17D
102
{ACAD_REACTORS
330
17C
102
}
330
17C
100
AcDbXrecord
280
     1
102
RTVSPropertyOp0
 70
     1
102
RTVSPropertyOp1
 70
     1
102
RTVSPropertyOp2
 70
     1
102
RTVSPropertyOp3
 70
     1
102
RTVSPropertyOp4
 70
     1
102
RTVSPropertyOp5
 70
     1
102
RTVSPropertyOp6
 70
     1
102
RTVSPropertyOp7
 70
     1
102
RTVSPropertyOp8
 70
     1
102
RTVSPropertyOp9
 70
     1
102
RTVSPropertyOp10
 70
     1
102
RTVSPropertyOp11
 70
     1
102
RTVSPropertyOp12
 70
     1
102
RTVSPropertyOp13
 70
     1
102
RTVSPropertyOp14
 70
     1
102
RTVSPropertyOp15
 70
     1
102
RTVSPropertyOp16
 70
     1
102
RTVSPropertyOp17
 70
     1
102
RTVSPropertyOp18
 70
     1
102
RTVSPropertyOp19
 70
     1
102
RTVSPropertyOp20
 70
     1
102
RTVSPropertyOp21
 70
     1
102
RTVSPropertyOp22
 70
     1
102
RTVSPropertyOp23
 70
     1
102
RTVSPropertyOp24
 70
     1
102
RTVSPropertyOp25
 70
     1
102
RTVSPropertyOp26
 70
     1
102
RTVSPropertyOp27
 70
     1
102
RTVSPropertyOp28
 70
     1
102
RTVSPropertyOp29
 70
     1
102
RTVSPropertyOp30
 70
     1
102
RTVSPropertyOp31
 70
     1
102
RTVSPropertyOp32
 70
     1
  0
XRECORD
  5
191
102
{ACAD_REACTORS
330
190
102
}
330
190
100
AcDbXrecord
280
     1
102
RTVSPropertyOp0
 70
     1
102
RTVSPropertyOp1
 70
     1
102
RTVSPropertyOp2
 70
     1
102
RTVSPropertyOp3
 70
     1
102
RTVSPropertyOp4
 70
     1
102
RTVSPropertyOp5
 70
     1
102
RTVSPropertyOp6
 70
     1
102
RTVSPropertyOp7
 70
     1
102
RTVSPropertyOp8
 70
     1
102
RTVSPropertyOp9
 70
     1
102
RTVSPropertyOp10
 70
     1
102
RTVSPropertyOp11
 70
     1
102
RTVSPropertyOp12
 70
     1
102
RTVSPropertyOp13
 70
     1
102
RTVSPropertyOp14
 70
     1
102
RTVSPropertyOp15
 70
     1
102
RTVSPropertyOp16
 70
     1
102
RTVSPropertyOp17
 70
     1
102
RTVSPropertyOp18
 70
     1
102
RTVSPropertyOp19
 70
     1
102
RTVSPropertyOp20
 70
     1
102
RTVSPropertyOp21
 70
     1
102
RTVSPropertyOp22
 70
     1
102
RTVSPropertyOp23
 70
     1
102
RTVSPropertyOp24
 70
     1
102
RTVSPropertyOp25
 70
     1
102
RTVSPropertyOp26
 70
     1
102
RTVSPropertyOp27
 70
     1
102
RTVSPropertyOp28
 70
     1
102
RTVSPropertyOp29
 70
     1
102
RTVSPropertyOp30
 70
     1
102
RTVSPropertyOp31
 70
     1
102
RTVSPropertyOp32
 70
     1
  0
XRECORD
  5
187
102
{ACAD_REACTORS
330
186
102
}
330
186
100
AcDbXrecord
280
     1
102
RTVSPropertyOp0
 70
     1
102
RTVSPropertyOp1
 70
     1
102
RTVSPropertyOp2
 70
     1
102
RTVSPropertyOp3
 70
     1
102
RTVSPropertyOp4
 70
     1
102
RTVSPropertyOp5
 70
     1
102
RTVSPropertyOp6
 70
     1
102
RTVSPropertyOp7
 70
     1
102
RTVSPropertyOp8
 70
     1
102
RTVSPropertyOp9
 70
     1
102
RTVSPropertyOp10
 70
     1
102
RTVSPropertyOp11
 70
     1
102
RTVSPropertyOp12
 70
     1
102
RTVSPropertyOp13
 70
     1
102
RTVSPropertyOp14
 70
     1
102
RTVSPropertyOp15
 70
     1
102
RTVSPropertyOp16
 70
     1
102
RTVSPropertyOp17
 70
     1
102
RTVSPropertyOp18
 70
     1
102
RTVSPropertyOp19
 70
     1
102
RTVSPropertyOp20
 70
     1
102
RTVSPropertyOp21
 70
     1
102
RTVSPropertyOp22
 70
     1
102
RTVSPropertyOp23
 70
     1
102
RTVSPropertyOp24
 70
     1
102
RTVSPropertyOp25
 70
     1
102
RTVSPropertyOp26
 70
     1
102
RTVSPropertyOp27
 70
     1
102
RTVSPropertyOp28
 70
     1
102
RTVSPropertyOp29
 70
     1
102
RTVSPropertyOp30
 70
     1
102
RTVSPropertyOp31
 70
     1
102
RTVSPropertyOp32
 70
     1
  0
XRECORD
  5
18F
102
{ACAD_REACTORS
330
18E
102
}
330
18E
100
AcDbXrecord
280
     1
102
RTVSPropertyOp0
 70
     1
102
RTVSPropertyOp1
 70
     1
102
RTVSPropertyOp2
 70
     1
102
RTVSPropertyOp3
 70
     1
102
RTVSPropertyOp4
 70
     1
102
RTVSPropertyOp5
 70
     1
102
RTVSPropertyOp6
 70
     1
102
RTVSPropertyOp7
 70
     1
102
RTVSPropertyOp8
 70
     1
102
RTVSPropertyOp9
 70
     1
102
RTVSPropertyOp10
 70
     1
102
RTVSPropertyOp11
 70
     1
102
RTVSPropertyOp12
 70
     1
102
RTVSPropertyOp13
 70
     1
102
RTVSPropertyOp14
 70
     1
102
RTVSPropertyOp15
 70
     1
102
RTVSPropertyOp16
 70
     1
102
RTVSPropertyOp17
 70
     1
102
RTVSPropertyOp18
 70
     1
102
RTVSPropertyOp19
 70
     1
102
RTVSPropertyOp20
 70
     1
102
RTVSPropertyOp21
 70
     1
102
RTVSPropertyOp22
 70
     1
102
RTVSPropertyOp23
 70
     1
102
RTVSPropertyOp24
 70
     1
102
RTVSPropertyOp25
 70
     1
102
RTVSPropertyOp26
 70
     1
102
RTVSPropertyOp27
 70
     1
102
RTVSPropertyOp28
 70
     1
102
RTVSPropertyOp29
 70
     1
102
RTVSPropertyOp30
 70
     1
102
RTVSPropertyOp31
 70
     1
102
RTVSPropertyOp32
 70
     1
  0
ENDSEC
  0
EOF
