  0
SECTION
  2
HEADER
  9
$ACADVER
  1
AC1014
  9
$ACADMAINTVER
 70
             0
  9
$DWGCODEPAGE
  3
ANSI_1252
  9
$INSBASE
 10
0.0
 20
0.0
 30
0.0
  9
$EXTMIN
 10
-99.99998449999995
 20
-52.293424003735
 30
0.0
  9
$EXTMAX
 10
110.5000005
 20
119.651940335582
 30
0.0
  9
$LIMMIN
 10
0.0
 20
0.0
  9
$LIMMAX
 10
0.0
 20
0.0
  9
$ORTHOMODE
 70
             0
  9
$REGENMODE
 70
             1
  9
$FILLMODE
 70
             1
  9
$QTEXTMODE
 70
             0
  9
$MIRRTEXT
 70
             1
  9
$DRAGMODE
 70
             2
  9
$LTSCALE
 40
1.0
  9
$OSMODE
 70
             0
  9
$ATTMODE
 70
             1
  9
$TEXTSIZE
 40
0.2
  9
$TRACEWID
 40
0.05
  9
$TEXTSTYLE
  7
STANDARD
  9
$CLAYER
  8
0
  9
$CELTYPE
  6
CONTINUOUS
  9
$CECOLOR
 62
           256
  9
$CELTSCALE
 40
1.0
  9
$DELOBJ
 70
             1
  9
$DISPSILH
 70
             0
  9
$DIMSCALE
 40
1.0
  9
$DIMASZ
 40
0.18
  9
$DIMEXO
 40
0.0625
  9
$DIMDLI
 40
0.38
  9
$DIMRND
 40
0.0
  9
$DIMDLE
 40
0.0
  9
$DIMEXE
 40
0.18
  9
$DIMTP
 40
0.0
  9
$DIMTM
 40
0.0
  9
$DIMTXT
 40
0.18
  9
$DIMCEN
 40
0.09
  9
$DIMTSZ
 40
0.0
  9
$DIMTOL
 70
             0
  9
$DIMLIM
 70
             0
  9
$DIMTIH
 70
             1
  9
$DIMTOH
 70
             1
  9
$DIMSE1
 70
             0
  9
$DIMSE2
 70
             0
  9
$DIMTAD
 70
             0
  9
$DIMZIN
 70
             0
  9
$DIMBLK
  1

  9
$DIMASO
 70
             1
  9
$DIMSHO
 70
             1
  9
$DIMPOST
  1

  9
$DIMAPOST
  1

  9
$DIMALT
 70
             0
  9
$DIMALTD
 70
             2
  9
$DIMALTF
 40
25.4
  9
$DIMLFAC
 40
1.0
  9
$DIMTOFL
 70
             0
  9
$DIMTVP
 40
0.0
  9
$DIMTIX
 70
             0
  9
$DIMSOXD
 70
             0
  9
$DIMSAH
 70
             0
  9
$DIMBLK1
  1

  9
$DIMBLK2
  1

  9
$DIMSTYLE
  2
STANDARD
  9
$DIMCLRD
 70
             0
  9
$DIMCLRE
 70
             0
  9
$DIMCLRT
 70
             0
  9
$DIMTFAC
 40
1.0
  9
$DIMGAP
 40
0.09
  9
$DIMJUST
 70
             0
  9
$DIMSD1
 70
             0
  9
$DIMSD2
 70
             0
  9
$DIMTOLJ
 70
             1
  9
$DIMTZIN
 70
             0
  9
$DIMALTZ
 70
             0
  9
$DIMALTTZ
 70
             0
  9
$DIMFIT
 70
             3
  9
$DIMUPT
 70
             0
  9
$DIMUNIT
 70
             2
  9
$DIMDEC
 70
             4
  9
$DIMTDEC
 70
             4
  9
$DIMALTU
 70
             2
  9
$DIMALTTD
 70
             2
  9
$DIMTXSTY
  7
STANDARD
  9
$DIMAUNIT
 70
             0
  9
$LUNITS
 70
             2
  9
$LUPREC
 70
             4
  9
$SKETCHINC
 40
0.1
  9
$FILLETRAD
 40
0.0
  9
$AUNITS
 70
             0
  9
$AUPREC
 70
             0
  9
$MENU
  1
acad
  9
$ELEVATION
 40
0.0
  9
$PELEVATION
 40
0.0
  9
$THICKNESS
 40
0.0
  9
$LIMCHECK
 70
             0
  9
$BLIPMODE
 70
             1
  9
$CHAMFERA
 40
0.0
  9
$CHAMFERB
 40
0.0
  9
$CHAMFERC
 40
0.0
  9
$CHAMFERD
 40
0.0
  9
$SKPOLY
 70
             0
  9
$TDCREATE
 40
0.000000000
  9
$TDUPDATE
 40
0.000000000
  9
$TDINDWG
 40
0.0000000000
  9
$TDUSRTIMER
 40
0.0000000000
  9
$USRTIMER
 70
             1
  9
$ANGBASE
 50
0.0
  9
$ANGDIR
 70
             0
  9
$PDMODE
 70
             0
  9
$PDSIZE
 40
0.0
  9
$PLINEWID
 40
0.0
  9
$COORDS
 70
             0
  9
$SPLFRAME
 70
             0
  9
$SPLINETYPE
 70
             6
  9
$SPLINESEGS
 70
             8
  9
$ATTDIA
 70
             0
  9
$ATTREQ
 70
             1
  9
$HANDLING
 70
             1
  9
$HANDSEED
  5
633
  9
$SURFTAB1
 70
             6
  9
$SURFTAB2
 70
             6
  9
$SURFTYPE
 70
             6
  9
$SURFU
 70
             6
  9
$SURFV
 70
             6
  9
$UCSNAME
  2

  9
$UCSORG
 10
0.0
 20
0.0
 30
0.0
  9
$UCSXDIR
 10
1.0
 20
0.0
 30
0.0
  9
$UCSYDIR
 10
0.0
 20
1.0
 30
0.0
  9
$PUCSNAME
  2

  9
$PUCSORG
 10
0.0
 20
0.0
 30
0.0
  9
$PUCSXDIR
 10
1.0
 20
0.0
 30
0.0
  9
$PUCSYDIR
 10
0.0
 20
1.0
 30
0.0
  9
$USERI1
 70
             0
  9
$USERI2
 70
             0
  9
$USERI3
 70
             0
  9
$USERI4
 70
             0
  9
$USERI5
 70
             0
  9
$USERR1
 40
12.01
  9
$USERR2
 40
0.0
  9
$USERR3
 40
0.0
  9
$USERR4
 40
0.0
  9
$USERR5
 40
0.0
  9
$WORLDVIEW
 70
             1
  9
$SHADEDGE
 70
             3
  9
$SHADEDIF
 70
            70
  9
$TILEMODE
 70
             1
  9
$MAXACTVP
 70
            16
  9
$PINSBASE
 10
0.0
 20
0.0
 30
0.0
  9
$PLIMCHECK
 70
             0
  9
$PEXTMIN
 10
1.00000000000000E+20
 20
1.00000000000000E+20
 30
1.00000000000000E+20
  9
$PEXTMAX
 10
-1.00000000000000E+20
 20
-1.00000000000000E+20
 30
-1.00000000000000E+20
  9
$PLIMMIN
 10
0.0
 20
0.0
  9
$PLIMMAX
 10
12.0
 20
9.0
  9
$UNITMODE
 70
             0
  9
$VISRETAIN
 70
             0
  9
$PLINEGEN
 70
             1
  9
$PSLTSCALE
 70
             0
  9
$TREEDEPTH
 70
          3020
  9
$PICKSTYLE
 70
             1
  9
$CMLSTYLE
  2
STANDARD
  9
$CMLJUST
 70
             0
  9
$CMLSCALE
 40
1.0
  9
$PROXYGRAPHICS
 70
             0
  9
$MEASUREMENT
 70
             1
  0
ENDSEC
  0
SECTION
  2
CLASSES
  0
CLASS
  1
LWPOLYLINE
  2
AcDbPolyline
  3
"AutoCAD"
 90
        0
280
             0
281
             1
  0
CLASS
  1
IMAGE
  2
AcDbRasterImage
  3
ISM
 90
      127
280
             0
281
             1
  0
CLASS
  1
OLE2FRAME
  2
AcDbOle2Frame
  3
""
 90
        0
280
             0
281
             1
  0
CLASS
  1
HATCH
  2
AcDbHatch
  3
"ACAD_SEDONA"
 90
        0
280
             0
281
             1
  0
CLASS
  1
DICTIONARYVAR
  2
AcDbDictionaryVar
  3
"AutoCAD"
 90
        0
280
             0
281
             0
  0
CLASS
  1
RASTERVARIABLES
  2
AcDbRasterVariables
  3
ISM
 90
        0
280
             0
281
             0
  0
CLASS
  1
IMAGEDEF
  2
AcDbRasterImageDef
  3
ISM
 90
        0
280
             0
281
             0
  0
CLASS
  1
IMAGEDEF_REACTOR
  2
AcDbRasterImageDefReactor
  3
ISM
 90
        1
280
             0
281
             0
  0
CLASS
  1
IDBUFFER
  2
AcDbIdBuffer
  3
"Acad"
 90
        0
280
             0
281
             0
  0
CLASS
  1
SPATIAL_FILTER
  2
AcDbSpatialFilter
  3
"Acad"
 90
        0
280
             0
281
             0
  0
CLASS
  1
XRECORD
  2
AcDbXrecord
  3
"<Built In>"
 90
        0
280
             0
281
             0
  0
CLASS
  1
SORTENTSTABLE
  2
AcDbSortentsTable
  3
"AutoCAD"
 90
        0
280
             0
281
             0
  0
CLASS
  1
LAYER_INDEX
  2
AcDbLayerIndex
  3
"Acad"
 90
        0
280
             0
281
             0
  0
CLASS
  1
SPATIAL_INDEX
  2
AcDbSpatialIndex
  3
"Acad"
 90
        0
280
             0
281
             0
  0
CLASS
  1
OBJECT_PTR
  2
CAseDLPNTableRecord
  3
"ASE-LPNTableRecord"
 90
        1
280
             0
281
             0
  0
CLASS
  1
LAYOUT
  2
AcDbLayout
  3
"AutoCAD 2000"
 90
        0
280
             0
281
             0
  0
CLASS
  1
PLOTSETTINGS
  2
AcDbPlotSettings
  3
"AutoCAD 2000"
 90
        0
280
             0
281
             0
  0
CLASS
  1
ACDBDICTIONARYWDFLT
  2
AcDbDictionaryWithDefault
  3
"AutoCAD 2000"
 90
        0
280
             0
281
             0
  0
CLASS
  1
ACDBPLACEHOLDER
  2
AcDbPlaceHolder
  3
"AutoCAD 2000"
 90
        0
280
             0
281
             0
  0
ENDSEC
  0
SECTION
  2
TABLES
  0
TABLE
  2
VPORT
  5
7
100
AcDbSymbolTable
 70
             1
  0
VPORT
  5
15
100
AcDbSymbolTableRecord
100
AcDbViewportTableRecord
  2
*ACTIVE
 70
             0
 10
0.0
 20
0.0
 11
1.0
 21
1.0
 12
5.25000800000002
 22
33.6792581659235
 13
0.0
 23
0.0
 14
1.0
 24
1.0
 15
0.0
 25
0.0
 16
0.0
 26
0.0
 36
1.0
 17
0.0
 27
0.0
 37
0.0
 40
189.13990077324871
 41
1.60267857142857
 42
50.0
 43
0.0
 44
0.0
 50
0.0
 51
0.0
 71
             0
 72
           100
 73
             1
 74
             1
 75
             0
 76
             0
 77
             0
 78
             0
  0
ENDTAB
  0
TABLE
  2
LTYPE
  5
4
100
AcDbSymbolTable
 70
            10
  0
LTYPE
  5
11
100
AcDbSymbolTableRecord
100
AcDbLinetypeTableRecord
  2
BYBLOCK
 70
            64
  3

 72
            65
 73
             0
 40
0.0
  0
LTYPE
  5
12
100
AcDbSymbolTableRecord
100
AcDbLinetypeTableRecord
  2
BYLAYER
 70
            64
  3

 72
            65
 73
             0
 40
0.0
  0
LTYPE
  5
13
100
AcDbSymbolTableRecord
100
AcDbLinetypeTableRecord
  2
CONTINUOUS
 70
            64
  3
Solid line
 72
            65
 73
             0
 40
0.0
  0
LTYPE
  5
1D
100
AcDbSymbolTableRecord
100
AcDbLinetypeTableRecord
  2
DASHED
 70
            64
  3
Dashed
 72
            65
 73
             2
 40
15.0
 49
7.0
 74
             0
 49
-8.0
 74
             0
  0
LTYPE
  5
1E
100
AcDbSymbolTableRecord
100
AcDbLinetypeTableRecord
  2
DOTTED
 70
            64
  3
Dotted
 72
            65
 73
             2
 40
1.0
 49
0.0
 74
             0
 49
-1.0
 74
             0
  0
LTYPE
  5
1F
100
AcDbSymbolTableRecord
100
AcDbLinetypeTableRecord
  2
DOT_CENTER
 70
            64
  3
Dot_Center
 72
            65
 73
             4
 40
14.0
 49
12.0
 74
             0
 49
-1.0
 74
             0
 49
0.0
 74
             0
 49
-1.0
 74
             0
  0
LTYPE
  5
20
100
AcDbSymbolTableRecord
100
AcDbLinetypeTableRecord
  2
LONG_DASHED
 70
            64
  3
Long_Dashed
 72
            65
 73
             2
 40
15.0
 49
10.0
 74
             0
 49
-5.0
 74
             0
  0
LTYPE
  5
21
100
AcDbSymbolTableRecord
100
AcDbLinetypeTableRecord
  2
DASH_CENTER
 70
            64
  3
Dash_Center
 72
            65
 73
             4
 40
14.0
 49
11.0
 74
             0
 49
-1.0
 74
             0
 49
1.0
 74
             0
 49
-1.0
 74
             0
  0
LTYPE
  5
22
100
AcDbSymbolTableRecord
100
AcDbLinetypeTableRecord
  2
PHANTOM
 70
            64
  3
Phantom
 72
            65
 73
             6
 40
13.0
 49
10.0
 74
             0
 49
-1.0
 74
             0
 49
0.0
 74
             0
 49
-1.0
 74
             0
 49
0.0
 74
             0
 49
-1.0
 74
             0
  0
LTYPE
  5
23
100
AcDbSymbolTableRecord
100
AcDbLinetypeTableRecord
  2
CENTER_DASH_DASH
 70
            64
  3
Center_Dash_Dash
 72
            65
 73
             6
 40
14.0
 49
9.0
 74
             0
 49
-1.0
 74
             0
 49
1.0
 74
             0
 49
-1.0
 74
             0
 49
1.0
 74
             0
 49
-1.0
 74
             0
  0
ENDTAB
  0
TABLE
  2
LAYER
  5
2
100
AcDbSymbolTable
 70
             4
  0
LAYER
  5
14
100
AcDbSymbolTableRecord
100
AcDbLayerTableRecord
  2
0
 70
             0
 62
             7
  6
CONTINUOUS
  0
LAYER
  5
24
100
AcDbSymbolTableRecord
100
AcDbLayerTableRecord
  2
1
 70
             0
 62
             7
  6
CONTINUOUS
  0
LAYER
  5
25
100
AcDbSymbolTableRecord
100
AcDbLayerTableRecord
  2
LC-002-002-----0
 70
             0
 62
             7
  6
CONTINUOUS
  0
LAYER
  5
26
100
AcDbSymbolTableRecord
100
AcDbLayerTableRecord
  2
LC-003-003-----0
 70
             0
 62
             7
  6
CONTINUOUS
  0
ENDTAB
  0
TABLE
  2
STYLE
  5
3
100
AcDbSymbolTable
 70
             2
  0
STYLE
  5
17
100
AcDbSymbolTableRecord
100
AcDbTextStyleTableRecord
  2
STANDARD
 70
             0
 40
0.0
 41
1.0
 50
0.0
 71
             0
 42
0.0
  3
txt
  4

  0
STYLE
  5
620
100
AcDbSymbolTableRecord
100
AcDbTextStyleTableRecord
  2
CONVERTER_1
 70
             0
 40
0.0
 41
0.9
 50
0.0
 71
             0
 42
0.0
  3
txt.shx
  4

  0
ENDTAB
  0
TABLE
  2
VIEW
  5
5
100
AcDbSymbolTable
 70
             0
  0
ENDTAB
  0
TABLE
  2
UCS
  5
6
100
AcDbSymbolTable
 70
             0
  0
ENDTAB
  0
TABLE
  2
APPID
  5
8
100
AcDbSymbolTable
 70
             1
  0
APPID
  5
16
100
AcDbSymbolTableRecord
100
AcDbRegAppTableRecord
  2
ACAD
 70
             0
  0
ENDTAB
  0
TABLE
  2
DIMSTYLE
  5
9
100
AcDbSymbolTable
 70
             3
  0
DIMSTYLE
105
18
100
AcDbSymbolTableRecord
100
AcDbDimStyleTableRecord
  2
STANDARD
 70
             0
  3

  4

  5

  6

  7

 40
1.0
 41
0.18
 42
0.0625
 43
0.38
 44
0.18
 45
0.0
 46
0.0
 47
0.0
 48
0.0
 71
             0
 72
             0
 73
             1
 74
             1
 75
             0
 76
             0
 77
             0
 78
             0
140
0.18
141
0.09
142
0.0
143
25.4
144
1.0
145
0.0
146
1.0
147
0.09
170
             0
171
             2
172
             0
173
             0
174
             0
175
             0
176
             0
177
             0
178
             0
270
             2
271
             4
272
             4
273
             2
274
             2
275
             0
280
             0
281
             0
282
             0
283
             1
284
             0
285
             0
286
             0
287
             3
288
             0
340
17
  0
DIMSTYLE
105
623
100
AcDbSymbolTableRecord
100
AcDbDimStyleTableRecord
  2
ME10_DIM_0
 70
             0
  3
Ø<>
  4

  5

  6

  7

 40
1.0
 41
10.0
 42
0.0
 43
0.38
 44
2.0
 45
0.0
 46
0.0
 47
0.0
 48
0.0
 71
             0
 72
             0
 73
             0
 74
             0
 75
             0
 76
             0
 77
             1
 78
             8
140
10.0
141
0.09
142
0.0
143
25.4
144
1.0
145
0.0
146
1.0
147
0.625
170
             0
171
             2
172
             1
173
             1
174
             0
175
             0
176
             4
177
             4
178
             1
270
             2
271
             2
272
             4
273
             2
274
             2
275
             0
280
             0
281
             0
282
             0
283
             1
284
             0
285
             0
286
             0
287
             3
288
             0
340
620
  0
DIMSTYLE
105
62E
100
AcDbSymbolTableRecord
100
AcDbDimStyleTableRecord
  2
ME10_DIM_1
 70
             0
  3

  4

  5

  6

  7

 40
1.0
 41
10.0
 42
0.0
 43
0.38
 44
2.0
 45
0.0
 46
0.0
 47
0.0
 48
0.0
 71
             0
 72
             0
 73
             0
 74
             0
 75
             0
 76
             0
 77
             1
 78
             8
140
10.0
141
0.09
142
0.0
143
25.4
144
1.0
145
0.0
146
1.0
147
0.625
170
             0
171
             2
172
             1
173
             1
174
             0
175
             0
176
             4
177
             4
178
             1
270
             2
271
             2
272
             4
273
             2
274
             2
275
             0
280
             0
281
             0
282
             0
283
             1
284
             0
285
             0
286
             0
287
             3
288
             0
340
620
  0
ENDTAB
  0
TABLE
  2
BLOCK_RECORD
  5
1
100
AcDbSymbolTable
 70
             3
  0
BLOCK_RECORD
  5
A
100
AcDbSymbolTableRecord
100
AcDbBlockTableRecord
  2
*MODEL_SPACE
  0
BLOCK_RECORD
  5
B
100
AcDbSymbolTableRecord
100
AcDbBlockTableRecord
  2
*PAPER_SPACE
  0
BLOCK_RECORD
  5
27
100
AcDbSymbolTableRecord
100
AcDbBlockTableRecord
  2
HL175_LAUBFANG_EDELSTAL__1
  0
BLOCK_RECORD
  5
619
100
AcDbSymbolTableRecord
100
AcDbBlockTableRecord
  2
*D1
  0
BLOCK_RECORD
  5
625
100
AcDbSymbolTableRecord
100
AcDbBlockTableRecord
  2
*D2
  0
ENDTAB
  0
ENDSEC
  0
SECTION
  2
BLOCKS
  0
BLOCK
  5
D
100
AcDbEntity
  8
0
100
AcDbBlockBegin
  2
*MODEL_SPACE
 70
             0
 10
0.0
 20
0.0
 30
0.0
  3
*MODEL_SPACE
  1

  0
ENDBLK
  5
E
100
AcDbEntity
  8
0
100
AcDbBlockEnd
  0
BLOCK
  5
F
100
AcDbEntity
 67
             1
  8
0
100
AcDbBlockBegin
  2
*PAPER_SPACE
 70
             0
 10
0.0
 20
0.0
 30
0.0
  3
*PAPER_SPACE
  1

  0
ENDBLK
  5
10
100
AcDbEntity
 67
             1
  8
0
100
AcDbBlockEnd
  0
BLOCK
  5
28
100
AcDbEntity
  8
0
100
AcDbBlockBegin
  2
HL175_LAUBFANG_EDELSTAL__1
 70
             0
 10
0.0
 20
0.0
 30
0.0
  3
HL175_LAUBFANG_EDELSTAL__1
  1

  0
DIMENSION
  5
62F
100
AcDbEntity
  8
1
100
AcDbDimension
  2
*D2
 10
108.5000005
 20
0.0
 11
101.5000005
 21
62.462997156969
 31
0.0
 53
-90.0
  1
<>
  3
ME10_DIM_1
100
AcDbAlignedDimension
 13
25.00000050000003
 23
115.0
 14
98.50000050000003
 24
0.0
 50
-90.0
100
AcDbRotatedDimension
  0
DIMENSION
  5
624
100
AcDbEntity
  8
1
100
AcDbDimension
  2
*D1
 10
75.00000050000003
 20
-50.293424003735
 11
-23.69498431755498
 21
-43.293424003735
 31
0.0
 53
0.00013888888889
  1
<>
  3
ME10_DIM_0
100
AcDbAlignedDimension
 13
-74.99999949999997
 23
3.0
 14
75.00000050000003
 24
3.0
100
AcDbRotatedDimension
  0
ARC
  5
618
100
AcDbEntity
  8
LC-002-002-----0
  6
CONTINUOUS
 62
             7
100
AcDbCircle
 10
63.50001550000002
 20
3.62512800000002
 40
11.50000000000003
100
AcDbArc
 50
0.0
 51
10.00000000000172
  0
ARC
  5
617
100
AcDbEntity
  8
LC-002-002-----0
  6
CONTINUOUS
 62
             7
100
AcDbCircle
 10
-76.49998449999995
 20
-1.49998499999998
 40
1.5
100
AcDbArc
 50
90.0
 51
-90.0
  0
ARC
  5
616
100
AcDbEntity
  8
LC-002-002-----0
  6
CONTINUOUS
 62
             7
100
AcDbCircle
 10
48.25161750000004
 20
104.500015
 40
9.00000000000005
100
AcDbArc
 50
9.99999999999747
 51
90.0
  0
ARC
  5
615
100
AcDbEntity
  8
LC-002-002-----0
  6
CONTINUOUS
 62
             7
100
AcDbCircle
 10
-77.75684649999997
 20
-28.49998499999998
 40
2.5
100
AcDbArc
 50
90.0
 51
-90.0
  0
ARC
  5
614
100
AcDbEntity
  8
LC-002-002-----0
  6
CONTINUOUS
 62
             7
100
AcDbCircle
 10
-98.49998449999995
 20
1.50001500000002
 40
1.5
100
AcDbArc
 50
90.0
 51
-90.0
  0
ARC
  5
613
100
AcDbEntity
  8
LC-002-002-----0
  6
CONTINUOUS
 62
             7
100
AcDbCircle
 10
-48.25158749999994
 20
104.500015
 40
9.0
100
AcDbArc
 50
90.0
 51
170.00000000000256
  0
ARC
  5
612
100
AcDbEntity
  8
LC-002-002-----0
  6
CONTINUOUS
 62
             7
100
AcDbCircle
 10
76.50001550000005
 20
-1.49998499999998
 40
1.5
100
AcDbArc
 50
0.0
 51
90.0
  0
ARC
  5
611
100
AcDbEntity
  8
LC-002-002-----0
  6
CONTINUOUS
 62
             7
100
AcDbCircle
 10
76.50001550000005
 20
-1.49998499999998
 40
1.5
100
AcDbArc
 50
-90.0
 51
0.0
  0
ARC
  5
610
100
AcDbEntity
  8
LC-002-002-----0
  6
CONTINUOUS
 62
             7
100
AcDbCircle
 10
-38.49998450000001
 20
109.000015
 40
1.4999999999998
100
AcDbArc
 50
127.13862300000326
 51
177.82113300000429
  0
ARC
  5
60F
100
AcDbEntity
  8
LC-002-002-----0
  6
CONTINUOUS
 62
             7
100
AcDbCircle
 10
98.50001550000005
 20
1.50001500000002
 40
1.50000000000006
100
AcDbArc
 50
0.0
 51
90.0
  0
ARC
  5
60E
100
AcDbEntity
  8
LC-002-002-----0
  6
CONTINUOUS
 62
             7
100
AcDbCircle
 10
98.50001550000005
 20
1.50001500000002
 40
1.5
100
AcDbArc
 50
-90.0
 51
0.0
  0
ARC
  5
60D
100
AcDbEntity
  8
LC-002-002-----0
  6
CONTINUOUS
 62
             7
100
AcDbCircle
 10
-63.49998450000001
 20
3.62512800000002
 40
11.49999999999963
100
AcDbArc
 50
169.99999999999827
 51
180.0
  0
ARC
  5
60C
100
AcDbEntity
  8
LC-002-002-----0
  6
CONTINUOUS
 62
             7
100
AcDbCircle
 10
34.12373250000002
 20
111.28080300000001
 40
0.78117200000022
100
AcDbArc
 50
-105.33479500000453
 51
-99.25020499999772
  0
ARC
  5
60B
100
AcDbEntity
  8
LC-002-002-----0
  6
CONTINUOUS
 62
             7
100
AcDbCircle
 10
34.11905050000001
 20
111.252459
 40
0.75244399999952
100
AcDbArc
 50
-99.24526099997758
 51
-90.0
  0
ARC
  5
60A
100
AcDbEntity
  8
LC-002-002-----0
  6
CONTINUOUS
 62
             7
100
AcDbCircle
 10
34.11905050000001
 20
112.72406100000001
 40
0.775954
100
AcDbArc
 50
90.0
 51
90.35625899996836
  0
ARC
  5
609
100
AcDbEntity
  8
LC-002-002-----0
  6
CONTINUOUS
 62
             7
100
AcDbCircle
 10
1.44891850000002
 20
105.802376
 40
0.051097
100
AcDbArc
 50
0.0
 51
1.3883390001622
  0
ARC
  5
608
100
AcDbEntity
  8
LC-002-002-----0
  6
CONTINUOUS
 62
             7
100
AcDbCircle
 10
46.60748350000003
 20
113.380898
 40
0.119117
100
AcDbArc
 50
90.0
 51
90.9092860000563
  0
ARC
  5
607
100
AcDbEntity
  8
LC-002-002-----0
  6
CONTINUOUS
 62
             7
100
AcDbCircle
 10
29.52205750000002
 20
5.45965100000001
 40
0.043747
100
AcDbArc
 50
3.86031900043966
 51
44.50347000059907
  0
ARC
  5
606
100
AcDbEntity
  8
LC-002-002-----0
  6
CONTINUOUS
 62
             7
100
AcDbCircle
 10
26.61616050000004
 20
5.26356900000002
 40
0.04374700000036
100
AcDbArc
 50
143.21716799990898
 51
-176.13968099956097
  0
ARC
  5
605
100
AcDbEntity
  8
LC-002-002-----0
  6
CONTINUOUS
 62
             7
100
AcDbCircle
 10
6.29811350000003
 20
112.024258
 40
1.475757
100
AcDbArc
 50
90.0
 51
90.25833099998111
  0
ARC
  5
604
100
AcDbEntity
  8
LC-002-002-----0
  6
CONTINUOUS
 62
             7
100
AcDbCircle
 10
-69.37552650000001
 20
5.11068600000002
 40
0.00552400000004
100
AcDbArc
 50
0.0
 51
74.87091600031512
  0
ARC
  5
603
100
AcDbEntity
  8
LC-002-002-----0
  6
CONTINUOUS
 62
             7
100
AcDbCircle
 10
-69.37552650000001
 20
5.11068600000002
 40
0.00552399999978
100
AcDbArc
 50
-9.66579600303657
 51
0.0
  0
ARC
  5
602
100
AcDbEntity
  8
LC-002-002-----0
  6
CONTINUOUS
 62
             7
100
AcDbCircle
 10
-72.29615149999998
 20
5.54362400000002
 40
0.07866399999979
100
AcDbArc
 50
84.44425999977932
 51
108.80162099992832
  0
ARC
  5
601
100
AcDbEntity
  8
LC-002-002-----0
  6
CONTINUOUS
 62
             7
100
AcDbCircle
 10
-72.31585649999997
 20
5.60150100000001
 40
0.01752400000003
100
AcDbArc
 50
108.8016210008747
 51
125.62986099982795
  0
ARC
  5
600
100
AcDbEntity
  8
LC-002-002-----0
  6
CONTINUOUS
 62
             7
100
AcDbCircle
 10
-72.32400249999998
 20
5.61286700000002
 40
0.00354100000012
100
AcDbArc
 50
125.62995899046598
 51
170.33420399389578
  0
ARC
  5
5FF
100
AcDbEntity
  8
LC-002-002-----0
  6
CONTINUOUS
 62
             7
100
AcDbCircle
 10
4.82551350000003
 20
112.024258
 40
1.475757
100
AcDbArc
 50
90.0
 51
116.41897500000466
  0
ARC
  5
5FE
100
AcDbEntity
  8
LC-002-002-----0
  6
CONTINUOUS
 62
             7
100
AcDbCircle
 10
4.83169050000004
 20
112.011962
 40
1.48951700000025
100
AcDbArc
 50
116.42130699997848
 51
135.24613799999906
  0
ARC
  5
5FD
100
AcDbEntity
  8
LC-002-002-----0
  6
CONTINUOUS
 62
             7
100
AcDbCircle
 10
4.83755450000004
 20
112.006148
 40
1.497774
100
AcDbArc
 50
135.24613800001302
 51
153.95402700000537
  0
ARC
  5
5FC
100
AcDbEntity
  8
LC-002-002-----0
  6
CONTINUOUS
 62
             7
100
AcDbCircle
 10
4.84995950000004
 20
112.000015
 40
1.51161300000019
100
AcDbArc
 50
153.95162500002235
 51
180.0
  0
ARC
  5
5FB
100
AcDbEntity
  8
LC-002-002-----0
  6
CONTINUOUS
 62
             7
100
AcDbCircle
 10
4.84995950000004
 20
112.000015
 40
1.51161300000001
100
AcDbArc
 50
180.0
 51
-153.95162500002186
  0
ARC
  5
5FA
100
AcDbEntity
  8
LC-002-002-----0
  6
CONTINUOUS
 62
             7
100
AcDbCircle
 10
4.83755450000004
 20
111.993882
 40
1.49777399999964
100
AcDbArc
 50
-153.95402700000585
 51
-135.24613800001302
  0
ARC
  5
5F9
100
AcDbEntity
  8
LC-002-002-----0
  6
CONTINUOUS
 62
             7
100
AcDbCircle
 10
4.83169050000004
 20
111.988068
 40
1.48951700000011
100
AcDbArc
 50
-135.24613799999906
 51
-116.42130699999574
  0
ARC
  5
5F8
100
AcDbEntity
  8
LC-002-002-----0
  6
CONTINUOUS
 62
             7
100
AcDbCircle
 10
4.82551350000003
 20
111.97577200000001
 40
1.47575700000016
100
AcDbArc
 50
-116.41897500000441
 51
-90.0
  0
ARC
  5
5F7
100
AcDbEntity
  8
LC-002-002-----0
  6
CONTINUOUS
 62
             7
100
AcDbCircle
 10
-46.60745349999993
 20
113.380898
 40
0.11911699999965
100
AcDbArc
 50
89.09071399997104
 51
90.0
  0
ARC
  5
5F6
100
AcDbEntity
  8
LC-002-002-----0
  6
CONTINUOUS
 62
             7
100
AcDbCircle
 10
-14.17071449999997
 20
112.152323
 40
1.35189200000018
100
AcDbArc
 50
56.14474699999982
 51
69.4061210000022
  0
ARC
  5
5F5
100
AcDbEntity
  8
LC-002-002-----0
  6
CONTINUOUS
 62
             7
100
AcDbCircle
 10
-14.14763149999996
 20
112.213667
 40
1.28634800000045
100
AcDbArc
 50
89.72330299999322
 51
90.0
  0
ARC
  5
5F4
100
AcDbEntity
  8
LC-002-002-----0
  6
CONTINUOUS
 62
             7
100
AcDbCircle
 10
-56.63779549999995
 20
106.060433
 40
0.00147400000048
100
AcDbArc
 50
82.6554009994167
 51
170.08384599217038
  0
ARC
  5
5F3
100
AcDbEntity
  8
LC-002-002-----0
  6
CONTINUOUS
 62
             7
100
AcDbCircle
 10
-18.46803849999995
 20
111.81812499999999
 40
1.31822699999994
100
AcDbArc
 50
-85.4417010000052
 51
-85.30755700002007
  0
ARC
  5
5F2
100
AcDbEntity
  8
LC-002-002-----0
  6
CONTINUOUS
 62
             7
100
AcDbCircle
 10
-18.46507349999993
 20
112.20905500000001
 40
1.29095999999965
100
AcDbArc
 50
89.72379799998154
 51
90.0
  0
ARC
  5
5F1
100
AcDbEntity
  8
LC-002-002-----0
  6
CONTINUOUS
 62
             7
100
AcDbCircle
 10
-74.18895349999994
 20
5.59739000000002
 40
0.02491299999968
100
AcDbArc
 50
82.36622299905999
 51
107.64540499979948
  0
ARC
  5
5F0
100
AcDbEntity
  8
LC-002-002-----0
  6
CONTINUOUS
 62
             7
100
AcDbCircle
 10
-74.19504349999997
 20
5.616535
 40
0.00482200000032
100
AcDbArc
 50
107.64540499478922
 51
124.42941299562675
  0
ARC
  5
5EF
100
AcDbEntity
  8
LC-002-002-----0
  6
CONTINUOUS
 62
             7
100
AcDbCircle
 10
-74.19725750000001
 20
5.619764
 40
0.00090699999977
100
AcDbArc
 50
124.42949800867297
 51
170.08384599874654
  0
ARC
  5
5EE
100
AcDbEntity
  8
LC-002-002-----0
  6
CONTINUOUS
 62
             7
100
AcDbCircle
 10
7.50001550000002
 20
112.368679
 40
1.131336
100
AcDbArc
 50
90.0
 51
107.21573199997836
  0
ARC
  5
5ED
100
AcDbEntity
  8
LC-002-002-----0
  6
CONTINUOUS
 62
             7
100
AcDbCircle
 10
7.52096050000003
 20
112.301193
 40
1.20199699999957
100
AcDbArc
 50
107.21729799999034
 51
118.06122200000814
  0
ARC
  5
5EC
100
AcDbEntity
  8
LC-002-002-----0
  6
CONTINUOUS
 62
             7
100
AcDbCircle
 10
-12.48841849999997
 20
112.095382
 40
1.40463300000027
100
AcDbArc
 50
89.73521000001904
 51
90.0
  0
ARC
  5
5EB
100
AcDbEntity
  8
LC-002-002-----0
  6
CONTINUOUS
 62
             7
100
AcDbCircle
 10
1.44891850000002
 20
5.36161000000001
 40
0.051097
100
AcDbArc
 50
0.0
 51
40.24825599967493
  0
ARC
  5
5EA
100
AcDbEntity
  8
LC-002-002-----0
  6
CONTINUOUS
 62
             7
100
AcDbCircle
 10
-1.44888849999998
 20
5.36161000000001
 40
0.05109700000004
100
AcDbArc
 50
139.75174400030497
 51
180.0
  0
ARC
  5
5E9
100
AcDbEntity
  8
LC-002-002-----0
  6
CONTINUOUS
 62
             7
100
AcDbCircle
 10
64.99121950000003
 20
5.58607000000001
 40
0.01305499999973
100
AcDbArc
 50
8.68220400169854
 51
51.76864199981735
  0
ARC
  5
5E8
100
AcDbEntity
  8
LC-002-002-----0
  6
CONTINUOUS
 62
             7
100
AcDbCircle
 10
62.05140750000004
 20
5.13715000000002
 40
0.01305500000008
100
AcDbArc
 50
145.59576600064034
 51
-171.3177959981696
  0
ARC
  5
5E7
100
AcDbEntity
  8
LC-002-002-----0
  6
CONTINUOUS
 62
             7
100
AcDbCircle
 10
69.2376955
 20
5.601552
 40
0.0076910000003
100
AcDbArc
 50
9.25248599641684
 51
53.10030100237695
  0
ARC
  5
5E6
100
AcDbEntity
  8
LC-002-002-----0
  6
CONTINUOUS
 62
             7
100
AcDbCircle
 10
69.22089750000001
 20
5.57917800000001
 40
0.03566899999974
100
AcDbArc
 50
53.1001610003204
 51
69.96945900065789
  0
ARC
  5
5E5
100
AcDbEntity
  8
LC-002-002-----0
  6
CONTINUOUS
 62
             7
100
AcDbCircle
 10
66.31494050000001
 20
5.105784
 40
0.03566899999958
100
AcDbArc
 50
128.53551299980165
 51
145.40481200028077
  0
ARC
  5
5E4
100
AcDbEntity
  8
LC-002-002-----0
  6
CONTINUOUS
 62
             7
100
AcDbCircle
 10
66.2919095
 20
5.121669
 40
0.00769100000041
100
AcDbArc
 50
145.40467199950317
 51
-170.74751400372406
  0
ARC
  5
5E3
100
AcDbEntity
  8
LC-002-002-----0
  6
CONTINUOUS
 62
             7
100
AcDbCircle
 10
12.48844850000003
 20
112.095382
 40
1.404633
100
AcDbArc
 50
90.0
 51
90.26478999998183
  0
ARC
  5
5E2
100
AcDbEntity
  8
LC-002-002-----0
  6
CONTINUOUS
 62
             7
100
AcDbCircle
 10
12.50078950000003
 20
111.937881
 40
1.43994900000015
100
AcDbArc
 50
-111.71894899999174
 51
-111.06353500001508
  0
ARC
  5
5E1
100
AcDbEntity
  8
LC-002-002-----0
  6
CONTINUOUS
 62
             7
100
AcDbCircle
 10
72.32403250000002
 20
5.61286700000002
 40
0.00354099999978
100
AcDbArc
 50
9.6657960059498
 51
54.37004100953403
  0
ARC
  5
5E0
100
AcDbEntity
  8
LC-002-002-----0
  6
CONTINUOUS
 62
             7
100
AcDbCircle
 10
69.3850515
 20
5.10232500000001
 40
0.01752399999989
100
AcDbArc
 50
128.13321400121811
 51
144.9614530006281
  0
ARC
  5
5DF
100
AcDbEntity
  8
LC-002-002-----0
  6
CONTINUOUS
 62
             7
100
AcDbCircle
 10
69.37360250000003
 20
5.110353
 40
0.00354099999979
100
AcDbArc
 50
144.96155200034681
 51
-170.33420399403602
  0
ARC
  5
5DE
100
AcDbEntity
  8
LC-002-002-----0
  6
CONTINUOUS
 62
             7
100
AcDbCircle
 10
35.32925950000004
 20
105.959007
 40
0.03243500000038
100
AcDbArc
 50
6.12673099935576
 51
47.47552800032215
  0
ARC
  5
5DD
100
AcDbEntity
  8
LC-002-002-----0
  6
CONTINUOUS
 62
             7
100
AcDbCircle
 10
32.41089350000001
 20
105.645746
 40
0.03243500000038
100
AcDbArc
 50
144.77793300043641
 51
-173.87326900064289
  0
ARC
  5
5DC
100
AcDbEntity
  8
LC-002-002-----0
  6
CONTINUOUS
 62
             7
100
AcDbCircle
 10
9.62965050000003
 20
111.98632000000001
 40
1.50778299999988
100
AcDbArc
 50
-158.81899799998811
 51
-128.62190899999874
  0
ARC
  5
5DB
100
AcDbEntity
  8
LC-002-002-----0
  6
CONTINUOUS
 62
             7
100
AcDbCircle
 10
9.56844750000002
 20
111.90985999999999
 40
1.40984500000005
100
AcDbArc
 50
-128.61814699998382
 51
-90.0
  0
ARC
  5
5DA
100
AcDbEntity
  8
LC-002-002-----0
  6
CONTINUOUS
 62
             7
100
AcDbCircle
 10
9.56844750000002
 20
112.095382
 40
1.404633
100
AcDbArc
 50
90.0
 51
116.96338799998773
  0
ARC
  5
5D9
100
AcDbEntity
  8
LC-002-002-----0
  6
CONTINUOUS
 62
             7
100
AcDbCircle
 10
9.59250550000002
 20
112.048142
 40
1.45764700000043
100
AcDbArc
 50
116.964294000005
 51
135.22623500000483
  0
ARC
  5
5D8
100
AcDbEntity
  8
LC-002-002-----0
  6
CONTINUOUS
 62
             7
100
AcDbCircle
 10
9.61532950000003
 20
112.025497
 40
1.48979799999959
100
AcDbArc
 50
135.22623500001234
 51
153.64869999998822
  0
ARC
  5
5D7
100
AcDbEntity
  8
LC-002-002-----0
  6
CONTINUOUS
 62
             7
100
AcDbCircle
 10
9.66670050000002
 20
112.000015
 40
1.54714299999978
100
AcDbArc
 50
153.6475329999891
 51
180.0
  0
ARC
  5
5D6
100
AcDbEntity
  8
LC-002-002-----0
  6
CONTINUOUS
 62
             7
100
AcDbCircle
 10
9.67231950000001
 20
112.000015
 40
1.55276099999998
100
AcDbArc
 50
180.0
 51
-175.74802899999781
  0
ARC
  5
5D5
100
AcDbEntity
  8
LC-002-002-----0
  6
CONTINUOUS
 62
             7
100
AcDbCircle
 10
9.66988750000002
 20
111.99981200000001
 40
1.55032100000042
100
AcDbArc
 50
-175.74886099998972
 51
-171.49187199999398
  0
ARC
  5
5D4
100
AcDbEntity
  8
LC-002-002-----0
  6
CONTINUOUS
 62
             7
100
AcDbCircle
 10
53.32774950000004
 20
5.54399600000002
 40
0.02586200000034
100
AcDbArc
 50
7.10707600048223
 51
48.9435240003141
  0
ARC
  5
5D3
100
AcDbEntity
  8
LC-002-002-----0
  6
CONTINUOUS
 62
             7
100
AcDbCircle
 10
53.27725850000002
 20
5.486029
 40
0.10273600000007
100
AcDbArc
 50
48.94332599974295
 51
65.91600800000884
  0
ARC
  5
5D2
100
AcDbEntity
  8
LC-002-002-----0
  6
CONTINUOUS
 62
             7
100
AcDbCircle
 10
50.40212650000004
 20
5.179224
 40
0.02586200000027
100
AcDbArc
 50
145.27062799941061
 51
-172.89292399952362
  0
ARC
  5
5D1
100
AcDbEntity
  8
LC-002-002-----0
  6
CONTINUOUS
 62
             7
100
AcDbCircle
 10
-49.93335849999997
 20
105.56304900000001
 40
0.01151200000004
100
AcDbArc
 50
0.0
 51
72.29118800127966
  0
ARC
  5
5D0
100
AcDbEntity
  8
LC-002-002-----0
  6
CONTINUOUS
 62
             7
100
AcDbCircle
 10
-49.93335849999997
 20
105.56304900000001
 40
0.01151199999957
100
AcDbArc
 50
-9.2524859998169
 51
0.0
  0
ARC
  5
5CF
100
AcDbEntity
  8
LC-002-002-----0
  6
CONTINUOUS
 62
             7
100
AcDbCircle
 10
-52.85857549999994
 20
106.019944
 40
0.03566900000007
100
AcDbArc
 50
110.03054099936357
 51
126.89983899968873
  0
ARC
  5
5CE
100
AcDbEntity
  8
LC-002-002-----0
  6
CONTINUOUS
 62
             7
100
AcDbCircle
 10
-52.87537349999994
 20
106.04231799999999
 40
0.00769099999995
100
AcDbArc
 50
126.89969899758471
 51
170.74751400375575
  0
ARC
  5
5CD
100
AcDbEntity
  8
LC-002-002-----0
  6
CONTINUOUS
 62
             7
100
AcDbCircle
 10
-66.29565049999999
 20
5.12228300000001
 40
0.01151200000004
100
AcDbArc
 50
0.0
 51
72.29118800127966
  0
ARC
  5
5CC
100
AcDbEntity
  8
LC-002-002-----0
  6
CONTINUOUS
 62
             7
100
AcDbCircle
 10
-66.29565049999999
 20
5.12228300000001
 40
0.01151199999963
100
AcDbArc
 50
-9.25248599977141
 51
0.0
  0
ARC
  5
5CB
100
AcDbEntity
  8
LC-002-002-----0
  6
CONTINUOUS
 62
             7
100
AcDbCircle
 10
-69.22086649999997
 20
5.57917800000001
 40
0.03566900000006
100
AcDbArc
 50
110.03054099934212
 51
126.89983899967962
  0
ARC
  5
5CA
100
AcDbEntity
  8
LC-002-002-----0
  6
CONTINUOUS
 62
             7
100
AcDbCircle
 10
-69.23766549999996
 20
5.601552
 40
0.00769099999996
100
AcDbArc
 50
126.89969899762306
 51
170.74751400358318
  0
ARC
  5
5C9
100
AcDbEntity
  8
LC-002-002-----0
  6
CONTINUOUS
 62
             7
100
AcDbCircle
 10
-62.05696249999997
 20
5.138003
 40
0.01870399999996
100
AcDbArc
 50
0.0
 51
69.60085500005351
  0
ARC
  5
5C8
100
AcDbEntity
  8
LC-002-002-----0
  6
CONTINUOUS
 62
             7
100
AcDbCircle
 10
-62.05696249999997
 20
5.138003
 40
0.01870400000035
100
AcDbArc
 50
-8.68220400057242
 51
0.0
  0
ARC
  5
5C7
100
AcDbEntity
  8
LC-002-002-----0
  6
CONTINUOUS
 62
             7
100
AcDbCircle
 10
-64.9639215
 20
5.551458
 40
0.05711700000022
100
AcDbArc
 50
111.32426199945313
 51
128.23158600018019
  0
ARC
  5
5C6
100
AcDbEntity
  8
LC-002-002-----0
  6
CONTINUOUS
 62
             7
100
AcDbCircle
 10
-64.99118949999999
 20
5.58607000000001
 40
0.01305499999955
100
AcDbArc
 50
128.23135800018267
 51
171.31779599826382
  0
ARC
  5
5C5
100
AcDbEntity
  8
LC-002-002-----0
  6
CONTINUOUS
 62
             7
100
AcDbCircle
 10
-9.66667049999998
 20
112.000015
 40
1.54714300000001
100
AcDbArc
 50
0.0
 51
26.35246700001092
  0
ARC
  5
5C4
100
AcDbEntity
  8
LC-002-002-----0
  6
CONTINUOUS
 62
             7
100
AcDbCircle
 10
-9.61529949999996
 20
112.025497
 40
1.48979800000033
100
AcDbArc
 50
26.35130000001177
 51
44.77376499998846
  0
ARC
  5
5C3
100
AcDbEntity
  8
LC-002-002-----0
  6
CONTINUOUS
 62
             7
100
AcDbCircle
 10
-9.59247449999998
 20
112.048142
 40
1.4576470000005
100
AcDbArc
 50
44.77376499999438
 51
63.03570599999401
  0
ARC
  5
5C2
100
AcDbEntity
  8
LC-002-002-----0
  6
CONTINUOUS
 62
             7
100
AcDbCircle
 10
-9.56841649999998
 20
112.095382
 40
1.4046330000003
100
AcDbArc
 50
63.03661200001228
 51
90.0
  0
ARC
  5
5C1
100
AcDbEntity
  8
LC-002-002-----0
  6
CONTINUOUS
 62
             7
100
AcDbCircle
 10
-9.66985749999998
 20
111.99981200000001
 40
1.5503210000005
100
AcDbArc
 50
-8.5081280000059
 51
-4.25113900001031
  0
ARC
  5
5C0
100
AcDbEntity
  8
LC-002-002-----0
  6
CONTINUOUS
 62
             7
100
AcDbCircle
 10
-9.67228849999998
 20
112.000015
 40
1.55276099999997
100
AcDbArc
 50
-4.25197100000212
 51
0.0
  0
ARC
  5
5BF
100
AcDbEntity
  8
LC-002-002-----0
  6
CONTINUOUS
 62
             7
100
AcDbCircle
 10
-9.56841649999998
 20
111.90985999999999
 40
1.40984499999999
100
AcDbArc
 50
-90.0
 51
-51.38185300001528
  0
ARC
  5
5BE
100
AcDbEntity
  8
LC-002-002-----0
  6
CONTINUOUS
 62
             7
100
AcDbCircle
 10
-9.62962049999996
 20
111.98632000000001
 40
1.50778300000003
100
AcDbArc
 50
-51.37809100000127
 51
-21.1810020000119
  0
ARC
  5
5BD
100
AcDbEntity
  8
LC-002-002-----0
  6
CONTINUOUS
 62
             7
100
AcDbCircle
 10
-55.18920249999999
 20
105.98439
 40
0.07866399999979
100
AcDbArc
 50
84.44425999973818
 51
108.80162099992968
  0
ARC
  5
5BC
100
AcDbEntity
  8
LC-002-002-----0
  6
CONTINUOUS
 62
             7
100
AcDbCircle
 10
-55.20890749999998
 20
106.04226800000001
 40
0.01752400000005
100
AcDbArc
 50
108.80162100085973
 51
125.62986099985503
  0
ARC
  5
5BB
100
AcDbEntity
  8
LC-002-002-----0
  6
CONTINUOUS
 62
             7
100
AcDbCircle
 10
-55.21705349999994
 20
106.053633
 40
0.00354100000012
100
AcDbArc
 50
125.62995899014513
 51
170.3342039940309
  0
ARC
  5
5BA
100
AcDbEntity
  8
LC-002-002-----0
  6
CONTINUOUS
 62
             7
100
AcDbCircle
 10
-4.84992949999997
 20
112.000015
 40
1.51161300000001
100
AcDbArc
 50
0.0
 51
26.04837499997766
  0
ARC
  5
5B9
100
AcDbEntity
  8
LC-002-002-----0
  6
CONTINUOUS
 62
             7
100
AcDbCircle
 10
-4.83752349999997
 20
112.006148
 40
1.49777399999962
100
AcDbArc
 50
26.04597299999513
 51
44.75386199998697
  0
ARC
  5
5B8
100
AcDbEntity
  8
LC-002-002-----0
  6
CONTINUOUS
 62
             7
100
AcDbCircle
 10
-4.83166049999997
 20
112.011962
 40
1.48951700000011
100
AcDbArc
 50
44.75386200000094
 51
63.57869300002152
  0
ARC
  5
5B7
100
AcDbEntity
  8
LC-002-002-----0
  6
CONTINUOUS
 62
             7
100
AcDbCircle
 10
-4.82548349999996
 20
112.024258
 40
1.47575700000014
100
AcDbArc
 50
63.58102499999635
 51
90.0
  0
ARC
  5
5B6
100
AcDbEntity
  8
LC-002-002-----0
  6
CONTINUOUS
 62
             7
100
AcDbCircle
 10
-4.82548349999996
 20
111.97577200000001
 40
1.475757
100
AcDbArc
 50
-90.0
 51
-63.58102499999659
  0
ARC
  5
5B5
100
AcDbEntity
  8
LC-002-002-----0
  6
CONTINUOUS
 62
             7
100
AcDbCircle
 10
-4.83166049999997
 20
111.988068
 40
1.48951699999935
100
AcDbArc
 50
-63.57869300000426
 51
-44.75386200000094
  0
ARC
  5
5B4
100
AcDbEntity
  8
LC-002-002-----0
  6
CONTINUOUS
 62
             7
100
AcDbCircle
 10
-4.83752349999997
 20
111.993882
 40
1.497774
100
AcDbArc
 50
-44.75386199998697
 51
-26.04597299999464
  0
ARC
  5
5B3
100
AcDbEntity
  8
LC-002-002-----0
  6
CONTINUOUS
 62
             7
100
AcDbCircle
 10
-4.84992949999997
 20
112.000015
 40
1.5116130000002
100
AcDbArc
 50
-26.04837499997814
 51
0.0
  0
ARC
  5
5B2
100
AcDbEntity
  8
LC-002-002-----0
  6
CONTINUOUS
 62
             7
100
AcDbCircle
 10
52.87540350000003
 20
106.04231799999999
 40
0.00769100000027
100
AcDbArc
 50
9.25248599634639
 51
53.10030100237297
  0
ARC
  5
5B1
100
AcDbEntity
  8
LC-002-002-----0
  6
CONTINUOUS
 62
             7
100
AcDbCircle
 10
52.85860550000004
 20
106.019944
 40
0.03566899999972
100
AcDbArc
 50
53.10016100036603
 51
69.96945900070078
  0
ARC
  5
5B0
100
AcDbEntity
  8
LC-002-002-----0
  6
CONTINUOUS
 62
             7
100
AcDbCircle
 10
49.95264850000004
 20
105.54655
 40
0.0356689999996
100
AcDbArc
 50
128.53551299988729
 51
145.40481200031897
  0
ARC
  5
5AF
100
AcDbEntity
  8
LC-002-002-----0
  6
CONTINUOUS
 62
             7
100
AcDbCircle
 10
49.92961850000003
 20
105.56243499999999
 40
0.00769100000046
100
AcDbArc
 50
145.40467199974358
 51
-170.74751400375811
  0
ARC
  5
5AE
100
AcDbEntity
  8
LC-002-002-----0
  6
CONTINUOUS
 62
             7
100
AcDbCircle
 10
14.14766150000003
 20
112.213667
 40
1.286348
100
AcDbArc
 50
90.0
 51
110.59250800001658
  0
ARC
  5
5AD
100
AcDbEntity
  8
LC-002-002-----0
  6
CONTINUOUS
 62
             7
100
AcDbCircle
 10
14.17074450000004
 20
112.152323
 40
1.35189199999991
100
AcDbArc
 50
110.59387899999901
 51
123.85525300000012
  0
ARC
  5
5AC
100
AcDbEntity
  8
LC-002-002-----0
  6
CONTINUOUS
 62
             7
100
AcDbCircle
 10
55.21708350000003
 20
106.053633
 40
0.00354099999975
100
AcDbArc
 50
9.66579600602702
 51
54.37004100966798
  0
ARC
  5
5AB
100
AcDbEntity
  8
LC-002-002-----0
  6
CONTINUOUS
 62
             7
100
AcDbCircle
 10
55.20893750000002
 20
106.04226800000001
 40
0.0175239999997
100
AcDbArc
 50
54.37013900006946
 51
71.19837899905231
  0
ARC
  5
5AA
100
AcDbEntity
  8
LC-002-002-----0
  6
CONTINUOUS
 62
             7
100
AcDbCircle
 10
56.63782750000001
 20
106.060433
 40
0.00147400000036
100
AcDbArc
 50
9.91615400768693
 51
97.34459899893973
  0
ARC
  5
5A9
100
AcDbEntity
  8
LC-002-002-----0
  6
CONTINUOUS
 62
             7
100
AcDbCircle
 10
8.71156050000002
 20
105.835734
 40
0.05024299999971
100
AcDbArc
 50
1.3184460001332
 51
4.2403800001283
  0
ARC
  5
5A8
100
AcDbEntity
  8
LC-002-002-----0
  6
CONTINUOUS
 62
             7
100
AcDbCircle
 10
74.19728650000005
 20
5.619764
 40
0.00090700000041
100
AcDbArc
 50
9.91615400063508
 51
55.57050299140274
  0
ARC
  5
5A7
100
AcDbEntity
  8
LC-002-002-----0
  6
CONTINUOUS
 62
             7
100
AcDbCircle
 10
74.19507350000001
 20
5.616535
 40
0.00482199999983
100
AcDbArc
 50
55.57058700381614
 51
72.35459500521078
  0
ARC
  5
5A6
100
AcDbEntity
  8
LC-002-002-----0
  6
CONTINUOUS
 62
             7
100
AcDbCircle
 10
74.18898350000004
 20
5.59738900000002
 40
0.0249130000004
100
AcDbArc
 50
72.35459500101921
 51
97.63377700106932
  0
ARC
  5
5A5
100
AcDbEntity
  8
LC-002-002-----0
  6
CONTINUOUS
 62
             7
100
AcDbCircle
 10
38.28058450000003
 20
112.870801
 40
0.629214
100
AcDbArc
 50
90.0
 51
90.3956260000183
  0
ARC
  5
5A4
100
AcDbEntity
  8
LC-002-002-----0
  6
CONTINUOUS
 62
             7
100
AcDbCircle
 10
42.67387150000002
 20
105.597233
 40
0.01925299999997
100
AcDbArc
 50
145.54815500039231
 51
-172.03659399841959
  0
ARC
  5
5A3
100
AcDbEntity
  8
LC-002-002-----0
  6
CONTINUOUS
 62
             7
100
AcDbCircle
 10
-38.28055449999997
 20
112.870801
 40
0.62921400000048
100
AcDbArc
 50
89.60437399998301
 51
90.0
  0
ARC
  5
5A2
100
AcDbEntity
  8
LC-002-002-----0
  6
CONTINUOUS
 62
             7
100
AcDbCircle
 10
-46.71929149999997
 20
105.57876899999999
 40
0.01870400000035
100
AcDbArc
 50
-8.68220400057242
 51
0.0
  0
ARC
  5
5A1
100
AcDbEntity
  8
LC-002-002-----0
  6
CONTINUOUS
 62
             7
100
AcDbCircle
 10
-49.6262505
 20
105.992225
 40
0.05711700000022
100
AcDbArc
 50
111.32426199945313
 51
128.23158600018903
  0
ARC
  5
5A0
100
AcDbEntity
  8
LC-002-002-----0
  6
CONTINUOUS
 62
             7
100
AcDbCircle
 10
-49.65351849999993
 20
106.026836
 40
0.01305499999958
100
AcDbArc
 50
128.23135800035172
 51
171.31779599829761
  0
ARC
  5
59F
100
AcDbEntity
  8
LC-002-002-----0
  6
CONTINUOUS
 62
             7
100
AcDbCircle
 10
-45.60677649999994
 20
106.00752
 40
0.01925300000021
100
AcDbArc
 50
129.62134199888069
 51
172.03659399844597
  0
ARC
  5
59E
100
AcDbEntity
  8
LC-002-002-----0
  6
CONTINUOUS
 62
             7
100
AcDbCircle
 10
-41.78709849999999
 20
113.07021400000001
 40
0.42980100000005
100
AcDbArc
 50
89.52131399996137
 51
90.0
  0
ARC
  5
59D
100
AcDbEntity
  8
LC-002-002-----0
  6
CONTINUOUS
 62
             7
100
AcDbCircle
 10
11.02323350000003
 20
5.39496800000001
 40
0.05024299999968
100
AcDbArc
 50
1.31844600013394
 51
41.61050400046665
  0
ARC
  5
59C
100
AcDbEntity
  8
LC-002-002-----0
  6
CONTINUOUS
 62
             7
100
AcDbCircle
 10
8.12448750000002
 20
5.32825200000002
 40
0.05024299999991
100
AcDbArc
 50
141.02638799951654
 51
-178.68155399986605
  0
ARC
  5
59B
100
AcDbEntity
  8
LC-002-002-----0
  6
CONTINUOUS
 62
             7
100
AcDbCircle
 10
47.83881850000003
 20
113.46841499999999
 40
0.03160000000001
100
AcDbArc
 50
90.0
 51
142.35008899935545
  0
ARC
  5
59A
100
AcDbEntity
  8
LC-002-002-----0
  6
CONTINUOUS
 62
             7
100
AcDbCircle
 10
18.46510350000003
 20
112.20905500000001
 40
1.29096
100
AcDbArc
 50
90.0
 51
90.27620200002021
  0
ARC
  5
599
100
AcDbEntity
  8
LC-002-002-----0
  6
CONTINUOUS
 62
             7
100
AcDbCircle
 10
44.57868250000004
 20
113.24469999999999
 40
0.25531500000001
100
AcDbArc
 50
90.0
 51
90.62107999999226
  0
ARC
  5
598
100
AcDbEntity
  8
LC-002-002-----0
  6
CONTINUOUS
 62
             7
100
AcDbCircle
 10
-34.11902049999995
 20
111.252459
 40
0.752444
100
AcDbArc
 50
-90.0
 51
-80.75473900002137
  0
ARC
  5
597
100
AcDbEntity
  8
LC-002-002-----0
  6
CONTINUOUS
 62
             7
100
AcDbCircle
 10
-34.12370249999995
 20
111.28080300000001
 40
0.78117199999976
100
AcDbArc
 50
-80.74979500000487
 51
-74.66520499999598
  0
ARC
  5
596
100
AcDbEntity
  8
LC-002-002-----0
  6
CONTINUOUS
 62
             7
100
AcDbCircle
 10
15.85085250000003
 20
105.868584
 40
0.04773899999994
100
AcDbArc
 50
2.61298200059276
 51
7.47093199996581
  0
ARC
  5
595
100
AcDbEntity
  8
LC-002-002-----0
  6
CONTINUOUS
 62
             7
100
AcDbCircle
 10
-26.61989650000001
 20
5.263823
 40
0.04752200000007
100
AcDbArc
 50
0.0
 51
48.19594599942147
  0
ARC
  5
594
100
AcDbEntity
  8
LC-002-002-----0
  6
CONTINUOUS
 62
             7
100
AcDbCircle
 10
-26.61989650000001
 20
5.263823
 40
0.04752200000043
100
AcDbArc
 50
-3.86031899950018
 51
0.0
  0
ARC
  5
593
100
AcDbEntity
  8
LC-002-002-----0
  6
CONTINUOUS
 62
             7
100
AcDbCircle
 10
-29.44036449999996
 20
5.37939200000002
 40
0.15824799999947
100
AcDbArc
 50
118.45731800001997
 51
135.49663499984248
  0
ARC
  5
592
100
AcDbEntity
  8
LC-002-002-----0
  6
CONTINUOUS
 62
             7
100
AcDbCircle
 10
-29.52202749999995
 20
5.45965100000001
 40
0.0437469999998
100
AcDbArc
 50
135.4965299994368
 51
176.13968099956287
  0
ARC
  5
591
100
AcDbEntity
  8
LC-002-002-----0
  6
CONTINUOUS
 62
             7
100
AcDbCircle
 10
46.11067850000003
 20
5.51824000000002
 40
0.03243500000039
100
AcDbArc
 50
6.12673099935308
 51
47.47552800028668
  0
ARC
  5
590
100
AcDbEntity
  8
LC-002-002-----0
  6
CONTINUOUS
 62
             7
100
AcDbCircle
 10
43.19231250000004
 20
5.20498000000001
 40
0.03243499999961
100
AcDbArc
 50
144.77793299944588
 51
-173.8732690006496
  0
ARC
  5
58F
100
AcDbEntity
  8
LC-002-002-----0
  6
CONTINUOUS
 62
             7
100
AcDbCircle
 10
29.27466750000002
 20
105.930727
 40
0.03853100000033
100
AcDbArc
 50
5.03836900004531
 51
13.78190499954419
  0
ARC
  5
58E
100
AcDbEntity
  8
LC-002-002-----0
  6
CONTINUOUS
 62
             7
100
AcDbCircle
 10
26.36302350000003
 20
105.674026
 40
0.03853099999998
100
AcDbArc
 50
144.08705000042048
 51
-174.96163099995471
  0
ARC
  5
58D
100
AcDbEntity
  8
LC-002-002-----0
  6
CONTINUOUS
 62
             7
100
AcDbCircle
 10
-35.22443949999993
 20
5.23381000000001
 40
0.04479299999997
100
AcDbArc
 50
0.0
 51
54.73588900006541
  0
ARC
  5
58C
100
AcDbEntity
  8
LC-002-002-----0
  6
CONTINUOUS
 62
             7
100
AcDbCircle
 10
-35.22443949999993
 20
5.23381000000001
 40
0.04479300000037
100
AcDbArc
 50
-5.03836900042669
 51
0.0
  0
ARC
  5
58B
100
AcDbEntity
  8
LC-002-002-----0
  6
CONTINUOUS
 62
             7
100
AcDbCircle
 10
-38.05739149999997
 20
5.41496000000001
 40
0.14281199999981
100
AcDbArc
 50
116.98875500013472
 51
134.01044199993848
  0
ARC
  5
58A
100
AcDbEntity
  8
LC-002-002-----0
  6
CONTINUOUS
 62
             7
100
AcDbCircle
 10
-38.12984549999996
 20
5.48996
 40
0.03853099999967
100
AcDbArc
 50
134.01031300039676
 51
174.96163099995383
  0
ARC
  5
589
100
AcDbEntity
  8
LC-002-002-----0
  6
CONTINUOUS
 62
             7
100
AcDbCircle
 10
-18.48477649999998
 20
112.375001
 40
1.12501400000024
100
AcDbArc
 50
89.60177500000982
 51
89.80088699999513
  0
ARC
  5
588
100
AcDbEntity
  8
LC-002-002-----0
  6
CONTINUOUS
 62
             7
100
AcDbCircle
 10
-18.48477549999998
 20
112.37501399999999
 40
1.12500099999995
100
AcDbArc
 50
89.80088699998368
 51
90.0
  0
ARC
  5
587
100
AcDbEntity
  8
LC-002-002-----0
  6
CONTINUOUS
 62
             7
100
AcDbCircle
 10
-56.73147950000001
 20
5.15744900000001
 40
0.026342
100
AcDbArc
 50
0.0
 51
66.70308599993631
  0
ARC
  5
586
100
AcDbEntity
  8
LC-002-002-----0
  6
CONTINUOUS
 62
             7
100
AcDbCircle
 10
-56.73147950000001
 20
5.15744900000001
 40
0.0263420000002
100
AcDbArc
 50
-7.96340599896255
 51
0.0
  0
ARC
  5
585
100
AcDbEntity
  8
LC-002-002-----0
  6
CONTINUOUS
 62
             7
100
AcDbCircle
 10
-59.61865949999995
 20
5.51996600000001
 40
0.07999500000046
100
AcDbArc
 50
112.67969199992075
 51
129.62157099998825
  0
ARC
  5
584
100
AcDbEntity
  8
LC-002-002-----0
  6
CONTINUOUS
 62
             7
100
AcDbCircle
 10
-59.65739449999998
 20
5.566754
 40
0.01925300000018
100
AcDbArc
 50
129.62134199870712
 51
172.03659400139327
  0
ARC
  5
583
100
AcDbEntity
  8
LC-002-002-----0
  6
CONTINUOUS
 62
             7
100
AcDbCircle
 10
24.12581650000004
 20
112.358239
 40
1.14177600000001
100
AcDbArc
 50
90.0
 51
90.29369300000433
  0
ARC
  5
582
100
AcDbEntity
  8
LC-002-002-----0
  6
CONTINUOUS
 62
             7
100
AcDbCircle
 10
29.37372950000002
 20
112.533603
 40
0.96641200000001
100
AcDbArc
 50
90.0
 51
90.31922900000627
  0
ARC
  5
581
100
AcDbEntity
  8
LC-002-002-----0
  6
CONTINUOUS
 62
             7
100
AcDbCircle
 10
20.43464550000002
 20
5.427818
 40
0.04773899999992
100
AcDbArc
 50
2.61298199941607
 51
43.03655900065945
  0
ARC
  5
580
100
AcDbEntity
  8
LC-002-002-----0
  6
CONTINUOUS
 62
             7
100
AcDbCircle
 10
17.53314350000002
 20
5.29540300000002
 40
0.04773900000008
100
AcDbArc
 50
142.18940400047191
 51
-177.38701800058237
  0
ARC
  5
57F
100
AcDbEntity
  8
LC-002-002-----0
  6
CONTINUOUS
 62
             7
100
AcDbCircle
 10
-47.83878849999999
 20
113.46841499999999
 40
0.03160000000045
100
AcDbArc
 50
37.64991100058948
 51
90.0
  0
ARC
  5
57E
100
AcDbEntity
  8
LC-002-002-----0
  6
CONTINUOUS
 62
             7
100
AcDbCircle
 10
59.65742450000002
 20
5.566754
 40
0.01925299999982
100
AcDbArc
 50
7.96340599859208
 51
50.37865800121143
  0
ARC
  5
57D
100
AcDbEntity
  8
LC-002-002-----0
  6
CONTINUOUS
 62
             7
100
AcDbCircle
 10
56.72448950000003
 20
5.15646700000002
 40
0.01925299999997
100
AcDbArc
 50
145.54815500043915
 51
-172.03659400141055
  0
ARC
  5
57C
100
AcDbEntity
  8
LC-002-002-----0
  6
CONTINUOUS
 62
             7
100
AcDbCircle
 10
40.80459350000004
 20
105.984763
 40
0.02586200000034
100
AcDbArc
 50
7.10707600051348
 51
48.94352400031281
  0
ARC
  5
57B
100
AcDbEntity
  8
LC-002-002-----0
  6
CONTINUOUS
 62
             7
100
AcDbCircle
 10
38.12987550000003
 20
5.48996
 40
0.03853100000032
100
AcDbArc
 50
5.03836900004802
 51
45.98968699958046
  0
ARC
  5
57A
100
AcDbEntity
  8
LC-002-002-----0
  6
CONTINUOUS
 62
             7
100
AcDbCircle
 10
35.21823250000003
 20
5.23326
 40
0.03853099999998
100
AcDbArc
 50
144.08705000042048
 51
-174.96163099995422
  0
ARC
  5
579
100
AcDbEntity
  8
LC-002-002-----0
  6
CONTINUOUS
 62
             7
100
AcDbCircle
 10
-17.53335150000001
 20
5.295413
 40
0.04797800000006
100
AcDbArc
 50
0.0
 51
38.60479800016834
  0
ARC
  5
578
100
AcDbEntity
  8
LC-002-002-----0
  6
CONTINUOUS
 62
             7
100
AcDbCircle
 10
-17.53335150000001
 20
5.295413
 40
0.04797800000045
100
AcDbArc
 50
-2.61298200003816
 51
0.0
  0
ARC
  5
577
100
AcDbEntity
  8
LC-002-002-----0
  6
CONTINUOUS
 62
             7
100
AcDbCircle
 10
-20.43461549999998
 20
5.427818
 40
0.04773899999984
100
AcDbArc
 50
136.96344099934055
 51
177.38701800058297
  0
ARC
  5
576
100
AcDbEntity
  8
LC-002-002-----0
  6
CONTINUOUS
 62
             7
100
AcDbCircle
 10
77.44290750000002
 20
-28.49998499999998
 40
2.50856700000003
100
AcDbArc
 50
0.0
 51
26.15114199999563
  0
ARC
  5
575
100
AcDbEntity
  8
LC-002-002-----0
  6
CONTINUOUS
 62
             7
100
AcDbCircle
 10
77.45208150000005
 20
-28.495429
 40
2.4983239999999
100
AcDbArc
 50
26.15008400000254
 51
44.89077800001011
  0
ARC
  5
574
100
AcDbEntity
  8
LC-002-002-----0
  6
CONTINUOUS
 62
             7
100
AcDbCircle
 10
77.45641850000001
 20
-28.49110899999999
 40
2.49220300000025
100
AcDbArc
 50
44.89077800001027
 51
63.68336500000279
  0
ARC
  5
573
100
AcDbEntity
  8
LC-002-002-----0
  6
CONTINUOUS
 62
             7
100
AcDbCircle
 10
77.46098850000001
 20
-28.48197199999999
 40
2.4819869999998
100
AcDbArc
 50
63.68440900001004
 51
90.0
  0
ARC
  5
572
100
AcDbEntity
  8
LC-002-002-----0
  6
CONTINUOUS
 62
             7
100
AcDbCircle
 10
77.46098850000001
 20
-28.51799799999998
 40
2.481987
100
AcDbArc
 50
-90.0
 51
-63.68440900001004
  0
ARC
  5
571
100
AcDbEntity
  8
LC-002-002-----0
  6
CONTINUOUS
 62
             7
100
AcDbCircle
 10
77.45641850000001
 20
-28.508861
 40
2.49220300000027
100
AcDbArc
 50
-63.6833650000025
 51
-44.89077800000981
  0
ARC
  5
570
100
AcDbEntity
  8
LC-002-002-----0
  6
CONTINUOUS
 62
             7
100
AcDbCircle
 10
77.45208150000005
 20
-28.50454099999999
 40
2.49832400000023
100
AcDbArc
 50
-44.89077800000959
 51
-26.15008400000195
  0
ARC
  5
56F
100
AcDbEntity
  8
LC-002-002-----0
  6
CONTINUOUS
 62
             7
100
AcDbCircle
 10
77.44290750000002
 20
-28.49998499999998
 40
2.50856700000001
100
AcDbArc
 50
-26.15114199999578
 51
0.0
  0
ARC
  5
56E
100
AcDbEntity
  8
LC-002-002-----0
  6
CONTINUOUS
 62
             7
100
AcDbCircle
 10
-50.40985249999997
 20
5.18019100000001
 40
0.03367800000001
100
AcDbArc
 50
0.0
 51
63.44324899987172
  0
ARC
  5
56D
100
AcDbEntity
  8
LC-002-002-----0
  6
CONTINUOUS
 62
             7
100
AcDbCircle
 10
-50.40985249999997
 20
5.18019100000001
 40
0.03367800000001
100
AcDbArc
 50
-7.10707600020176
 51
0.0
  0
ARC
  5
56C
100
AcDbEntity
  8
LC-002-002-----0
  6
CONTINUOUS
 62
             7
100
AcDbCircle
 10
-53.27722850000001
 20
5.486029
 40
0.10273600000044
100
AcDbArc
 50
114.08399199996585
 51
131.05667400023614
  0
ARC
  5
56B
100
AcDbEntity
  8
LC-002-002-----0
  6
CONTINUOUS
 62
             7
100
AcDbCircle
 10
-53.32771949999997
 20
5.54399600000002
 40
0.02586199999958
100
AcDbArc
 50
131.0564759997215
 51
172.89292399951583
  0
ARC
  5
56A
100
AcDbEntity
  8
LC-002-002-----0
  6
CONTINUOUS
 62
             7
100
AcDbCircle
 10
-43.19983149999999
 20
5.20579000000001
 40
0.04002700000001
100
AcDbArc
 50
0.0
 51
59.58758399964604
  0
ARC
  5
569
100
AcDbEntity
  8
LC-002-002-----0
  6
CONTINUOUS
 62
             7
100
AcDbCircle
 10
-43.19983149999999
 20
5.20579000000001
 40
0.04002699999972
100
AcDbArc
 50
-6.12673100041749
 51
0.0
  0
ARC
  5
568
100
AcDbEntity
  8
LC-002-002-----0
  6
CONTINUOUS
 62
             7
100
AcDbCircle
 10
-46.04873849999999
 20
5.45073600000001
 40
0.12402999999962
100
AcDbArc
 50
115.52524499992096
 51
132.52463300001207
  0
ARC
  5
567
100
AcDbEntity
  8
LC-002-002-----0
  6
CONTINUOUS
 62
             7
100
AcDbCircle
 10
-46.11064849999994
 20
5.51824000000002
 40
0.03243499999969
100
AcDbArc
 50
132.52447199974108
 51
173.87326900065497
  0
ARC
  5
566
100
AcDbEntity
  8
LC-002-002-----0
  6
CONTINUOUS
 62
             7
100
AcDbCircle
 10
22.74457450000003
 20
105.900418
 40
0.043747
100
AcDbArc
 50
3.86031900043997
 51
10.70345799954776
  0
ARC
  5
565
100
AcDbEntity
  8
LC-002-002-----0
  6
CONTINUOUS
 62
             7
100
AcDbCircle
 10
19.83867750000002
 20
105.704335
 40
0.04374700000034
100
AcDbArc
 50
143.2171679998867
 51
-176.13968099956034
  0
ARC
  5
564
100
AcDbEntity
  8
LC-002-002-----0
  6
CONTINUOUS
 62
             7
100
AcDbCircle
 10
-8.12072749999996
 20
5.32816700000001
 40
0.04651299999998
100
AcDbArc
 50
0.0
 51
23.31042800013471
  0
ARC
  5
563
100
AcDbEntity
  8
LC-002-002-----0
  6
CONTINUOUS
 62
             7
100
AcDbCircle
 10
-8.12072749999996
 20
5.32816700000001
 40
0.04651300000014
100
AcDbArc
 50
-1.31844599979946
 51
0.0
  0
ARC
  5
562
100
AcDbEntity
  8
LC-002-002-----0
  6
CONTINUOUS
 62
             7
100
AcDbCircle
 10
-8.14733249999998
 20
5.3167
 40
0.07548299999976
100
AcDbArc
 50
23.31294000043715
 51
36.51072599986875
  0
ARC
  5
561
100
AcDbEntity
  8
LC-002-002-----0
  6
CONTINUOUS
 62
             7
100
AcDbCircle
 10
-11.02320349999997
 20
5.39496800000001
 40
0.05024300000024
100
AcDbArc
 50
138.38949599954816
 51
178.68155399986659
  0
ARC
  5
560
100
AcDbEntity
  8
LC-002-002-----0
  6
CONTINUOUS
 62
             7
100
AcDbCircle
 10
49.65354850000003
 20
106.026836
 40
0.0130549999997
100
AcDbArc
 50
8.68220400172122
 51
51.76864199972177
  0
ARC
  5
55F
100
AcDbEntity
  8
LC-002-002-----0
  6
CONTINUOUS
 62
             7
100
AcDbCircle
 10
41.78712850000002
 20
113.07021400000001
 40
0.429801
100
AcDbArc
 50
90.0
 51
90.47868600003295
  0
ARC
  5
55E
100
AcDbEntity
  8
LC-002-002-----0
  6
CONTINUOUS
 62
             7
100
AcDbCircle
 10
-5.80905449999997
 20
105.768933
 40
0.046513
100
AcDbArc
 50
0.0
 51
23.31042800012128
  0
ARC
  5
55D
100
AcDbEntity
  8
LC-002-002-----0
  6
CONTINUOUS
 62
             7
100
AcDbCircle
 10
-5.80905449999997
 20
105.768933
 40
0.04651300000014
100
AcDbArc
 50
-1.31844599981696
 51
0.0
  0
ARC
  5
55C
100
AcDbEntity
  8
LC-002-002-----0
  6
CONTINUOUS
 62
             7
100
AcDbCircle
 10
-5.83565849999997
 20
105.75746599999999
 40
0.07548299999976
100
AcDbArc
 50
23.31294000043741
 51
36.51072599987292
  0
ARC
  5
55B
100
AcDbEntity
  8
LC-002-002-----0
  6
CONTINUOUS
 62
             7
100
AcDbCircle
 10
-6.32384949999997
 20
112.000275
 40
1.51293699999966
100
AcDbArc
 50
-0.2943310000076
 51
-0.00985799999943
  0
ARC
  5
55A
100
AcDbEntity
  8
LC-002-002-----0
  6
CONTINUOUS
 62
             7
100
AcDbCircle
 10
-6.29808249999996
 20
112.024258
 40
1.47575700000034
100
AcDbArc
 50
89.74166899998026
 51
90.0
  0
ARC
  5
559
100
AcDbEntity
  8
LC-002-002-----0
  6
CONTINUOUS
 62
             7
100
AcDbCircle
 10
0.00001550000002
 20
112.000015
 40
1.5
100
AcDbArc
 50
0.0
 51
180.0
  0
ARC
  5
558
100
AcDbEntity
  8
LC-002-002-----0
  6
CONTINUOUS
 62
             7
100
AcDbCircle
 10
-24.12578649999998
 20
112.358239
 40
1.14177599999978
100
AcDbArc
 50
89.70630699999676
 51
90.0
  0
LINE
  5
557
100
AcDbEntity
  8
LC-002-002-----0
  6
CONTINUOUS
 62
             7
100
AcDbLine
 10
-77.75686149999999
 20
-31.0
 11
77.46097350000005
 21
-31.0
  0
LINE
  5
556
100
AcDbEntity
  8
LC-002-002-----0
  6
CONTINUOUS
 62
             7
100
AcDbLine
 10
43.24396550000003
 20
0.0
 11
43.24396550000003
 21
3.625113
  0
LINE
  5
555
100
AcDbEntity
  8
LC-002-002-----0
  6
CONTINUOUS
 62
             7
100
AcDbLine
 10
-62.15286749999999
 20
0.0
 11
-62.15286749999999
 21
3.625113
  0
LINE
  5
554
100
AcDbEntity
  8
LC-002-002-----0
  6
CONTINUOUS
 62
             7
100
AcDbLine
 10
-29.37371449999998
 20
110.5
 11
-28.10610049999994
 21
110.5
  0
LINE
  5
553
100
AcDbEntity
  8
LC-002-002-----0
  6
CONTINUOUS
 62
             7
100
AcDbLine
 10
50.47234850000004
 20
3.625113
 11
50.47086750000003
 21
3.745101
  0
LINE
  5
552
100
AcDbEntity
  8
LC-002-002-----0
  6
CONTINUOUS
 62
             7
100
AcDbLine
 10
50.47086750000003
 20
3.745101
 11
50.46938650000004
 21
3.86508800000001
  0
LINE
  5
551
100
AcDbEntity
  8
LC-002-002-----0
  6
CONTINUOUS
 62
             7
100
AcDbLine
 10
50.46938650000004
 20
3.86508800000001
 11
50.46672250000003
 21
3.98500700000002
  0
LINE
  5
550
100
AcDbEntity
  8
LC-002-002-----0
  6
CONTINUOUS
 62
             7
100
AcDbLine
 10
50.46672250000003
 20
3.98500700000002
 11
50.46228250000002
 21
4.10482200000001
  0
LINE
  5
54F
100
AcDbEntity
  8
LC-002-002-----0
  6
CONTINUOUS
 62
             7
100
AcDbLine
 10
50.46228250000002
 20
4.10482200000001
 11
50.45784250000003
 21
4.224637
  0
LINE
  5
54E
100
AcDbEntity
  8
LC-002-002-----0
  6
CONTINUOUS
 62
             7
100
AcDbLine
 10
50.45784250000003
 20
4.224637
 11
50.45104150000003
 21
4.344177
  0
LINE
  5
54D
100
AcDbEntity
  8
LC-002-002-----0
  6
CONTINUOUS
 62
             7
100
AcDbLine
 10
50.45104150000003
 20
4.344177
 11
50.44365050000002
 21
4.46364800000001
  0
LINE
  5
54C
100
AcDbEntity
  8
LC-002-002-----0
  6
CONTINUOUS
 62
             7
100
AcDbLine
 10
50.44365050000002
 20
4.46364800000001
 11
50.43567250000004
 21
4.58301600000001
  0
LINE
  5
54B
100
AcDbEntity
  8
LC-002-002-----0
  6
CONTINUOUS
 62
             7
100
AcDbLine
 10
50.43567250000004
 20
4.58301600000001
 11
50.42534450000002
 21
4.70197100000002
  0
LINE
  5
54A
100
AcDbEntity
  8
LC-002-002-----0
  6
CONTINUOUS
 62
             7
100
AcDbLine
 10
50.42534450000002
 20
4.70197100000002
 11
50.41501650000004
 21
4.82092700000001
  0
LINE
  5
549
100
AcDbEntity
  8
LC-002-002-----0
  6
CONTINUOUS
 62
             7
100
AcDbLine
 10
50.41501650000004
 20
4.82092700000001
 11
50.40293850000003
 21
4.939471
  0
LINE
  5
548
100
AcDbEntity
  8
LC-002-002-----0
  6
CONTINUOUS
 62
             7
100
AcDbLine
 10
50.40293850000003
 20
4.939471
 11
50.38969350000002
 21
5.05774000000002
  0
LINE
  5
547
100
AcDbEntity
  8
LC-002-002-----0
  6
CONTINUOUS
 62
             7
100
AcDbLine
 10
50.38969350000002
 20
5.05774000000002
 11
50.37644850000004
 21
5.17600900000002
  0
LINE
  5
546
100
AcDbEntity
  8
LC-002-002-----0
  6
CONTINUOUS
 62
             7
100
AcDbLine
 10
-62.0384875
 20
5.135164
 11
-46.7008165
 21
105.575931
  0
LINE
  5
545
100
AcDbEntity
  8
LC-002-002-----0
  6
CONTINUOUS
 62
             7
100
AcDbLine
 10
74.37119750000002
 20
3.625113
 11
74.36852950000005
 21
3.779304
  0
LINE
  5
544
100
AcDbEntity
  8
LC-002-002-----0
  6
CONTINUOUS
 62
             7
100
AcDbLine
 10
74.36852950000005
 20
3.779304
 11
74.36586050000003
 21
3.93349600000002
  0
LINE
  5
543
100
AcDbEntity
  8
LC-002-002-----0
  6
CONTINUOUS
 62
             7
100
AcDbLine
 10
74.36586050000003
 20
3.93349600000002
 11
74.36105850000004
 21
4.08761200000001
  0
LINE
  5
542
100
AcDbEntity
  8
LC-002-002-----0
  6
CONTINUOUS
 62
             7
100
AcDbLine
 10
74.36105850000004
 20
4.08761200000001
 11
74.35305650000001
 21
4.24161700000002
  0
LINE
  5
541
100
AcDbEntity
  8
LC-002-002-----0
  6
CONTINUOUS
 62
             7
100
AcDbLine
 10
74.35305650000001
 20
4.24161700000002
 11
74.34505450000003
 21
4.39562100000001
  0
LINE
  5
540
100
AcDbEntity
  8
LC-002-002-----0
  6
CONTINUOUS
 62
             7
100
AcDbLine
 10
74.34505450000003
 20
4.39562100000001
 11
74.33279350000001
 21
4.54932700000001
  0
LINE
  5
53F
100
AcDbEntity
  8
LC-002-002-----0
  6
CONTINUOUS
 62
             7
100
AcDbLine
 10
74.33279350000001
 20
4.54932700000001
 11
74.3194675
 21
4.70295900000002
  0
LINE
  5
53E
100
AcDbEntity
  8
LC-002-002-----0
  6
CONTINUOUS
 62
             7
100
AcDbLine
 10
74.3194675
 20
4.70295900000002
 11
74.30507950000001
 21
4.85647800000001
  0
LINE
  5
53D
100
AcDbEntity
  8
LC-002-002-----0
  6
CONTINUOUS
 62
             7
100
AcDbLine
 10
74.30507950000001
 20
4.85647800000001
 11
74.28644550000004
 21
5.00955100000002
  0
LINE
  5
53C
100
AcDbEntity
  8
LC-002-002-----0
  6
CONTINUOUS
 62
             7
100
AcDbLine
 10
74.28644550000004
 20
5.00955100000002
 11
74.26781150000002
 21
5.162623
  0
LINE
  5
53B
100
AcDbEntity
  8
LC-002-002-----0
  6
CONTINUOUS
 62
             7
100
AcDbLine
 10
74.26781150000002
 20
5.162623
 11
74.24600550000005
 21
5.31524900000002
  0
LINE
  5
53A
100
AcDbEntity
  8
LC-002-002-----0
  6
CONTINUOUS
 62
             7
100
AcDbLine
 10
74.24600550000005
 20
5.31524900000002
 11
74.22208550000002
 21
5.46757700000001
  0
LINE
  5
539
100
AcDbEntity
  8
LC-002-002-----0
  6
CONTINUOUS
 62
             7
100
AcDbLine
 10
74.22208550000002
 20
5.46757700000001
 11
74.19816550000004
 21
5.61990500000002
  0
LINE
  5
538
100
AcDbEntity
  8
LC-002-002-----0
  6
CONTINUOUS
 62
             7
100
AcDbLine
 10
53.35339850000003
 20
5.54718100000002
 11
40.83024250000003
 21
105.98794700000001
  0
LINE
  5
537
100
AcDbEntity
  8
LC-002-002-----0
  6
CONTINUOUS
 62
             7
100
AcDbLine
 10
-69.40514549999998
 20
3.625113
 11
-69.4026805
 21
3.77794600000001
  0
LINE
  5
536
100
AcDbEntity
  8
LC-002-002-----0
  6
CONTINUOUS
 62
             7
100
AcDbLine
 10
-69.4026805
 20
3.77794600000001
 11
-69.40021649999997
 21
3.930778
  0
LINE
  5
535
100
AcDbEntity
  8
LC-002-002-----0
  6
CONTINUOUS
 62
             7
100
AcDbLine
 10
-69.40021649999997
 20
3.930778
 11
-69.39578049999997
 21
4.083539
  0
LINE
  5
534
100
AcDbEntity
  8
LC-002-002-----0
  6
CONTINUOUS
 62
             7
100
AcDbLine
 10
-69.39578049999997
 20
4.083539
 11
-69.38838949999999
 21
4.23619500000001
  0
LINE
  5
533
100
AcDbEntity
  8
LC-002-002-----0
  6
CONTINUOUS
 62
             7
100
AcDbLine
 10
-69.38838949999999
 20
4.23619500000001
 11
-69.38099849999995
 21
4.38885100000002
  0
LINE
  5
532
100
AcDbEntity
  8
LC-002-002-----0
  6
CONTINUOUS
 62
             7
100
AcDbLine
 10
-69.38099849999995
 20
4.38885100000002
 11
-69.36967149999995
 21
4.541225
  0
LINE
  5
531
100
AcDbEntity
  8
LC-002-002-----0
  6
CONTINUOUS
 62
             7
100
AcDbLine
 10
-69.36967149999995
 20
4.541225
 11
-69.35736049999994
 21
4.69352900000001
  0
LINE
  5
530
100
AcDbEntity
  8
LC-002-002-----0
  6
CONTINUOUS
 62
             7
100
AcDbLine
 10
-69.35736049999994
 20
4.69352900000001
 11
-69.34406849999996
 21
4.84572700000001
  0
LINE
  5
52F
100
AcDbEntity
  8
LC-002-002-----0
  6
CONTINUOUS
 62
             7
100
AcDbLine
 10
-69.34406849999996
 20
4.84572700000001
 11
-69.3268515
 21
4.997502
  0
LINE
  5
52E
100
AcDbEntity
  8
LC-002-002-----0
  6
CONTINUOUS
 62
             7
100
AcDbLine
 10
-69.3268515
 20
4.997502
 11
-69.30963449999999
 21
5.14927700000001
  0
LINE
  5
52D
100
AcDbEntity
  8
LC-002-002-----0
  6
CONTINUOUS
 62
             7
100
AcDbLine
 10
-69.30963449999999
 20
5.14927700000001
 11
-69.28948349999999
 21
5.30063000000001
  0
LINE
  5
52C
100
AcDbEntity
  8
LC-002-002-----0
  6
CONTINUOUS
 62
             7
100
AcDbLine
 10
-69.28948349999999
 20
5.30063000000001
 11
-69.26737749999998
 21
5.45170200000001
  0
LINE
  5
52B
100
AcDbEntity
  8
LC-002-002-----0
  6
CONTINUOUS
 62
             7
100
AcDbLine
 10
-69.26737749999998
 20
5.45170200000001
 11
-69.24527149999997
 21
5.60277300000001
  0
LINE
  5
52A
100
AcDbEntity
  8
LC-002-002-----0
  6
CONTINUOUS
 62
             7
100
AcDbLine
 10
-38.24999949999997
 20
3.625113
 11
-38.24874049999997
 21
3.76941400000001
  0
LINE
  5
529
100
AcDbEntity
  8
LC-002-002-----0
  6
CONTINUOUS
 62
             7
100
AcDbLine
 10
-38.24874049999997
 20
3.76941400000001
 11
-38.24748149999996
 21
3.913715
  0
LINE
  5
528
100
AcDbEntity
  8
LC-002-002-----0
  6
CONTINUOUS
 62
             7
100
AcDbLine
 10
-38.24748149999996
 20
3.913715
 11
-38.2452145
 21
4.05795600000002
  0
LINE
  5
527
100
AcDbEntity
  8
LC-002-002-----0
  6
CONTINUOUS
 62
             7
100
AcDbLine
 10
-38.2452145
 20
4.05795600000002
 11
-38.24143749999999
 21
4.20210800000001
  0
LINE
  5
526
100
AcDbEntity
  8
LC-002-002-----0
  6
CONTINUOUS
 62
             7
100
AcDbLine
 10
-38.24143749999999
 20
4.20210800000001
 11
-38.23765949999998
 21
4.346261
  0
LINE
  5
525
100
AcDbEntity
  8
LC-002-002-----0
  6
CONTINUOUS
 62
             7
100
AcDbLine
 10
-38.23765949999998
 20
4.346261
 11
-38.23186949999993
 21
4.49017600000002
  0
LINE
  5
524
100
AcDbEntity
  8
LC-002-002-----0
  6
CONTINUOUS
 62
             7
100
AcDbLine
 10
-38.23186949999993
 20
4.49017600000002
 11
-38.22557649999996
 21
4.63403300000002
  0
LINE
  5
523
100
AcDbEntity
  8
LC-002-002-----0
  6
CONTINUOUS
 62
             7
100
AcDbLine
 10
-38.22557649999996
 20
4.63403300000002
 11
-38.21878150000001
 21
4.77780000000001
  0
LINE
  5
522
100
AcDbEntity
  8
LC-002-002-----0
  6
CONTINUOUS
 62
             7
100
AcDbLine
 10
-38.21878150000001
 20
4.77780000000001
 11
-38.20997649999995
 21
4.92121300000002
  0
LINE
  5
521
100
AcDbEntity
  8
LC-002-002-----0
  6
CONTINUOUS
 62
             7
100
AcDbLine
 10
-38.20997649999995
 20
4.92121300000002
 11
-38.20117250000001
 21
5.064626
  0
LINE
  5
520
100
AcDbEntity
  8
LC-002-002-----0
  6
CONTINUOUS
 62
             7
100
AcDbLine
 10
-38.20117250000001
 20
5.064626
 11
-38.1908645
 21
5.207684
  0
LINE
  5
51F
100
AcDbEntity
  8
LC-002-002-----0
  6
CONTINUOUS
 62
             7
100
AcDbLine
 10
-38.1908645
 20
5.207684
 11
-38.17955349999997
 21
5.35050700000002
  0
LINE
  5
51E
100
AcDbEntity
  8
LC-002-002-----0
  6
CONTINUOUS
 62
             7
100
AcDbLine
 10
-38.17955349999997
 20
5.35050700000002
 11
-38.16824249999993
 21
5.49332900000002
  0
LINE
  5
51D
100
AcDbEntity
  8
LC-002-002-----0
  6
CONTINUOUS
 62
             7
100
AcDbLine
 10
-47.83880349999996
 20
113.5
 11
-46.60746850000001
 21
113.5
  0
LINE
  5
51C
100
AcDbEntity
  8
LC-002-002-----0
  6
CONTINUOUS
 62
             7
100
AcDbLine
 10
-69.49554849999996
 20
3.625113
 11
-69.49361249999996
 21
3.73989300000002
  0
LINE
  5
51B
100
AcDbEntity
  8
LC-002-002-----0
  6
CONTINUOUS
 62
             7
100
AcDbLine
 10
-69.49361249999996
 20
3.73989300000002
 11
-69.49167749999995
 21
3.85467300000002
  0
LINE
  5
51A
100
AcDbEntity
  8
LC-002-002-----0
  6
CONTINUOUS
 62
             7
100
AcDbLine
 10
-69.49167749999995
 20
3.85467300000002
 11
-69.48819549999999
 21
3.96939500000002
  0
LINE
  5
519
100
AcDbEntity
  8
LC-002-002-----0
  6
CONTINUOUS
 62
             7
100
AcDbLine
 10
-69.48819549999999
 20
3.96939500000002
 11
-69.48239249999998
 21
4.08403000000001
  0
LINE
  5
518
100
AcDbEntity
  8
LC-002-002-----0
  6
CONTINUOUS
 62
             7
100
AcDbLine
 10
-69.48239249999998
 20
4.08403000000001
 11
-69.47658949999996
 21
4.19866500000001
  0
LINE
  5
517
100
AcDbEntity
  8
LC-002-002-----0
  6
CONTINUOUS
 62
             7
100
AcDbLine
 10
-69.47658949999996
 20
4.19866500000001
 11
-69.46769849999996
 21
4.31306900000001
  0
LINE
  5
516
100
AcDbEntity
  8
LC-002-002-----0
  6
CONTINUOUS
 62
             7
100
AcDbLine
 10
-69.46769849999996
 20
4.31306900000001
 11
-69.45803549999997
 21
4.427415
  0
LINE
  5
515
100
AcDbEntity
  8
LC-002-002-----0
  6
CONTINUOUS
 62
             7
100
AcDbLine
 10
-69.45803549999997
 20
4.427415
 11
-69.44760249999999
 21
4.541675
  0
LINE
  5
514
100
AcDbEntity
  8
LC-002-002-----0
  6
CONTINUOUS
 62
             7
100
AcDbLine
 10
-69.44760249999999
 20
4.541675
 11
-69.43409249999999
 21
4.65558800000002
  0
LINE
  5
513
100
AcDbEntity
  8
LC-002-002-----0
  6
CONTINUOUS
 62
             7
100
AcDbLine
 10
-69.43409249999999
 20
4.65558800000002
 11
-69.42058249999994
 21
4.76950200000002
  0
LINE
  5
512
100
AcDbEntity
  8
LC-002-002-----0
  6
CONTINUOUS
 62
             7
100
AcDbLine
 10
-69.42058249999994
 20
4.76950200000002
 11
-69.40477449999995
 21
4.88306900000001
  0
LINE
  5
511
100
AcDbEntity
  8
LC-002-002-----0
  6
CONTINUOUS
 62
             7
100
AcDbLine
 10
-69.40477449999995
 20
4.88306900000001
 11
-69.38743549999995
 21
4.996407
  0
LINE
  5
510
100
AcDbEntity
  8
LC-002-002-----0
  6
CONTINUOUS
 62
             7
100
AcDbLine
 10
-69.38743549999995
 20
4.996407
 11
-69.37009649999996
 21
5.10974400000001
  0
LINE
  5
50F
100
AcDbEntity
  8
LC-002-002-----0
  6
CONTINUOUS
 62
             7
100
AcDbLine
 10
-74.37119749999997
 20
3.0
 11
-74.99999949999997
 21
3.0
  0
LINE
  5
50E
100
AcDbEntity
  8
LC-002-002-----0
  6
CONTINUOUS
 62
             7
100
AcDbLine
 10
-69.40514549999998
 20
3.0
 11
-69.49554849999996
 21
3.0
  0
LINE
  5
50D
100
AcDbEntity
  8
LC-002-002-----0
  6
CONTINUOUS
 62
             7
100
AcDbLine
 10
-65.15286749999999
 20
3.0
 11
-66.40514549999998
 21
3.0
  0
LINE
  5
50C
100
AcDbEntity
  8
LC-002-002-----0
  6
CONTINUOUS
 62
             7
100
AcDbLine
 10
-59.81147049999996
 20
3.0
 11
-62.15286749999999
 21
3.0
  0
LINE
  5
50B
100
AcDbEntity
  8
LC-002-002-----0
  6
CONTINUOUS
 62
             7
100
AcDbLine
 10
-53.47234849999998
 20
3.0
 11
-56.81147049999996
 21
3.0
  0
LINE
  5
50A
100
AcDbEntity
  8
LC-002-002-----0
  6
CONTINUOUS
 62
             7
100
AcDbLine
 10
-46.24396449999998
 20
3.0
 11
-50.47234849999998
 21
3.0
  0
LINE
  5
509
100
AcDbEntity
  8
LC-002-002-----0
  6
CONTINUOUS
 62
             7
100
AcDbLine
 10
-38.24999949999997
 20
3.0
 11
-43.24396449999998
 21
3.0
  0
LINE
  5
508
100
AcDbEntity
  8
LC-002-002-----0
  6
CONTINUOUS
 62
             7
100
AcDbLine
 10
-29.62723249999996
 20
3.0
 11
-35.24999949999997
 21
3.0
  0
LINE
  5
507
100
AcDbEntity
  8
LC-002-002-----0
  6
CONTINUOUS
 62
             7
100
AcDbLine
 10
-20.52319949999995
 20
3.0
 11
-26.62723249999996
 21
3.0
  0
LINE
  5
506
100
AcDbEntity
  8
LC-002-002-----0
  6
CONTINUOUS
 62
             7
100
AcDbLine
 10
-11.09367549999996
 20
3.0
 11
-17.52319949999995
 21
3.0
  0
LINE
  5
505
100
AcDbEntity
  8
LC-002-002-----0
  6
CONTINUOUS
 62
             7
100
AcDbLine
 10
-1.49999949999997
 20
3.0
 11
-8.09367549999996
 21
3.0
  0
LINE
  5
504
100
AcDbEntity
  8
LC-002-002-----0
  6
CONTINUOUS
 62
             7
100
AcDbLine
 10
8.09367550000002
 20
3.0
 11
1.50000050000003
 21
3.0
  0
LINE
  5
503
100
AcDbEntity
  8
LC-002-002-----0
  6
CONTINUOUS
 62
             7
100
AcDbLine
 10
17.52319950000003
 20
3.0
 11
11.09367550000002
 21
3.0
  0
LINE
  5
502
100
AcDbEntity
  8
LC-002-002-----0
  6
CONTINUOUS
 62
             7
100
AcDbLine
 10
26.62723250000002
 20
3.0
 11
20.52319950000003
 21
3.0
  0
LINE
  5
501
100
AcDbEntity
  8
LC-002-002-----0
  6
CONTINUOUS
 62
             7
100
AcDbLine
 10
35.25000050000003
 20
3.0
 11
29.62723250000002
 21
3.0
  0
LINE
  5
500
100
AcDbEntity
  8
LC-002-002-----0
  6
CONTINUOUS
 62
             7
100
AcDbLine
 10
43.24396550000003
 20
3.0
 11
38.25000050000003
 21
3.0
  0
LINE
  5
4FF
100
AcDbEntity
  8
LC-002-002-----0
  6
CONTINUOUS
 62
             7
100
AcDbLine
 10
50.47234850000004
 20
3.0
 11
46.24396550000003
 21
3.0
  0
LINE
  5
4FE
100
AcDbEntity
  8
LC-002-002-----0
  6
CONTINUOUS
 62
             7
100
AcDbLine
 10
56.81147050000004
 20
3.0
 11
53.47234850000004
 21
3.0
  0
LINE
  5
4FD
100
AcDbEntity
  8
LC-002-002-----0
  6
CONTINUOUS
 62
             7
100
AcDbLine
 10
62.15286750000004
 20
3.0
 11
59.81147050000004
 21
3.0
  0
LINE
  5
4FC
100
AcDbEntity
  8
LC-002-002-----0
  6
CONTINUOUS
 62
             7
100
AcDbLine
 10
66.40514550000003
 20
3.0
 11
65.15286750000004
 21
3.0
  0
LINE
  5
4FB
100
AcDbEntity
  8
LC-002-002-----0
  6
CONTINUOUS
 62
             7
100
AcDbLine
 10
69.49554850000001
 20
3.0
 11
69.40514550000003
 21
3.0
  0
LINE
  5
4FA
100
AcDbEntity
  8
LC-002-002-----0
  6
CONTINUOUS
 62
             7
100
AcDbLine
 10
93.00000050000003
 20
3.0
 11
74.37119750000002
 21
3.0
  0
LINE
  5
4F9
100
AcDbEntity
  8
LC-002-002-----0
  6
CONTINUOUS
 62
             7
100
AcDbLine
 10
-29.62723249999996
 20
3.625113
 11
-29.62628449999997
 21
3.76705100000001
  0
LINE
  5
4F8
100
AcDbEntity
  8
LC-002-002-----0
  6
CONTINUOUS
 62
             7
100
AcDbLine
 10
-29.62628449999997
 20
3.76705100000001
 11
-29.62533549999998
 21
3.90898900000002
  0
LINE
  5
4F7
100
AcDbEntity
  8
LC-002-002-----0
  6
CONTINUOUS
 62
             7
100
AcDbLine
 10
-29.62533549999998
 20
3.90898900000002
 11
-29.62362949999996
 21
4.05086800000001
  0
LINE
  5
4F6
100
AcDbEntity
  8
LC-002-002-----0
  6
CONTINUOUS
 62
             7
100
AcDbLine
 10
-29.62362949999996
 20
4.05086800000001
 11
-29.62078549999998
 21
4.192657
  0
LINE
  5
4F5
100
AcDbEntity
  8
LC-002-002-----0
  6
CONTINUOUS
 62
             7
100
AcDbLine
 10
-29.62078549999998
 20
4.192657
 11
-29.61794249999994
 21
4.33444600000001
  0
LINE
  5
4F4
100
AcDbEntity
  8
LC-002-002-----0
  6
CONTINUOUS
 62
             7
100
AcDbLine
 10
-29.61794249999994
 20
4.33444600000001
 11
-29.61358349999998
 21
4.47599700000001
  0
LINE
  5
4F3
100
AcDbEntity
  8
LC-002-002-----0
  6
CONTINUOUS
 62
             7
100
AcDbLine
 10
-29.61358349999998
 20
4.47599700000001
 11
-29.60884649999994
 21
4.61748800000001
  0
LINE
  5
4F2
100
AcDbEntity
  8
LC-002-002-----0
  6
CONTINUOUS
 62
             7
100
AcDbLine
 10
-29.60884649999994
 20
4.61748800000001
 11
-29.60373150000001
 21
4.75889100000001
  0
LINE
  5
4F1
100
AcDbEntity
  8
LC-002-002-----0
  6
CONTINUOUS
 62
             7
100
AcDbLine
 10
-29.60373150000001
 20
4.75889100000001
 11
-29.59710349999997
 21
4.89993700000002
  0
LINE
  5
4F0
100
AcDbEntity
  8
LC-002-002-----0
  6
CONTINUOUS
 62
             7
100
AcDbLine
 10
-29.59710349999997
 20
4.89993700000002
 11
-29.59047549999994
 21
5.04098300000001
  0
LINE
  5
4EF
100
AcDbEntity
  8
LC-002-002-----0
  6
CONTINUOUS
 62
             7
100
AcDbLine
 10
-29.59047549999994
 20
5.04098300000001
 11
-29.58271749999997
 21
5.18167400000002
  0
LINE
  5
4EE
100
AcDbEntity
  8
LC-002-002-----0
  6
CONTINUOUS
 62
             7
100
AcDbLine
 10
-29.58271749999997
 20
5.18167400000002
 11
-29.57420349999998
 21
5.32212800000002
  0
LINE
  5
4ED
100
AcDbEntity
  8
LC-002-002-----0
  6
CONTINUOUS
 62
             7
100
AcDbLine
 10
-29.57420349999998
 20
5.32212800000002
 11
-29.56569049999999
 21
5.462582
  0
LINE
  5
4EC
100
AcDbEntity
  8
LC-002-002-----0
  6
CONTINUOUS
 62
             7
100
AcDbLine
 10
65.00410950000006
 20
5.58802600000001
 11
49.66643850000003
 21
106.028792
  0
LINE
  5
4EB
100
AcDbEntity
  8
LC-002-002-----0
  6
CONTINUOUS
 62
             7
100
AcDbLine
 10
-43.16004849999993
 20
5.201503
 11
-32.37862949999996
 21
105.642269
  0
LINE
  5
4EA
100
AcDbEntity
  8
LC-002-002-----0
  6
CONTINUOUS
 62
             7
100
AcDbLine
 10
-53.35339749999994
 20
5.54718100000002
 11
-40.83024149999997
 21
105.98794700000001
  0
LINE
  5
4E9
100
AcDbEntity
  8
LC-002-002-----0
  6
CONTINUOUS
 62
             7
100
AcDbLine
 10
-8.09367549999996
 20
3.625113
 11
-8.09337549999998
 21
3.75671300000002
  0
LINE
  5
4E8
100
AcDbEntity
  8
LC-002-002-----0
  6
CONTINUOUS
 62
             7
100
AcDbLine
 10
-8.09337549999998
 20
3.75671300000002
 11
-8.09307549999997
 21
3.88831200000001
  0
LINE
  5
4E7
100
AcDbEntity
  8
LC-002-002-----0
  6
CONTINUOUS
 62
             7
100
AcDbLine
 10
-8.09307549999997
 20
3.88831200000001
 11
-8.09253549999997
 21
4.01984300000001
  0
LINE
  5
4E6
100
AcDbEntity
  8
LC-002-002-----0
  6
CONTINUOUS
 62
             7
100
AcDbLine
 10
-8.09253549999997
 20
4.01984300000001
 11
-8.09163649999996
 21
4.15127200000001
  0
LINE
  5
4E5
100
AcDbEntity
  8
LC-002-002-----0
  6
CONTINUOUS
 62
             7
100
AcDbLine
 10
-8.09163649999996
 20
4.15127200000001
 11
-8.09073749999996
 21
4.282702
  0
LINE
  5
4E4
100
AcDbEntity
  8
LC-002-002-----0
  6
CONTINUOUS
 62
             7
100
AcDbLine
 10
-8.09073749999996
 20
4.282702
 11
-8.08936049999997
 21
4.41386
  0
LINE
  5
4E3
100
AcDbEntity
  8
LC-002-002-----0
  6
CONTINUOUS
 62
             7
100
AcDbLine
 10
-8.08936049999997
 20
4.41386
 11
-8.08786349999997
 21
4.54495
  0
LINE
  5
4E2
100
AcDbEntity
  8
LC-002-002-----0
  6
CONTINUOUS
 62
             7
100
AcDbLine
 10
-8.08786349999997
 20
4.54495
 11
-8.08624749999998
 21
4.675938
  0
LINE
  5
4E1
100
AcDbEntity
  8
LC-002-002-----0
  6
CONTINUOUS
 62
             7
100
AcDbLine
 10
-8.08624749999998
 20
4.675938
 11
-8.08415449999998
 21
4.80651900000001
  0
LINE
  5
4E0
100
AcDbEntity
  8
LC-002-002-----0
  6
CONTINUOUS
 62
             7
100
AcDbLine
 10
-8.08415449999998
 20
4.80651900000001
 11
-8.08206149999998
 21
4.93710000000002
  0
LINE
  5
4DF
100
AcDbEntity
  8
LC-002-002-----0
  6
CONTINUOUS
 62
             7
100
AcDbLine
 10
-8.08206149999998
 20
4.93710000000002
 11
-8.07961349999997
 21
5.06727500000002
  0
LINE
  5
4DE
100
AcDbEntity
  8
LC-002-002-----0
  6
CONTINUOUS
 62
             7
100
AcDbLine
 10
-8.07961349999997
 20
5.06727500000002
 11
-8.07692749999998
 21
5.19717800000001
  0
LINE
  5
4DD
100
AcDbEntity
  8
LC-002-002-----0
  6
CONTINUOUS
 62
             7
100
AcDbLine
 10
-8.07692749999998
 20
5.19717800000001
 11
-8.07424249999997
 21
5.32708100000002
  0
LINE
  5
4DC
100
AcDbEntity
  8
LC-002-002-----0
  6
CONTINUOUS
 62
             7
100
AcDbLine
 10
26.62723250000002
 20
0.0
 11
26.62723250000002
 21
3.625113
  0
LINE
  5
4DB
100
AcDbEntity
  8
LC-002-002-----0
  6
CONTINUOUS
 62
             7
100
AcDbLine
 10
-24.12580149999999
 20
113.5
 11
-18.48479049999995
 21
113.5
  0
LINE
  5
4DA
100
AcDbEntity
  8
LC-002-002-----0
  6
CONTINUOUS
 62
             7
100
AcDbLine
 10
44.57866750000002
 20
113.5
 11
41.78711350000003
 21
113.5
  0
LINE
  5
4D9
100
AcDbEntity
  8
LC-002-002-----0
  6
CONTINUOUS
 62
             7
100
AcDbLine
 10
47.83880350000004
 20
113.5
 11
46.60746850000004
 21
113.5
  0
LINE
  5
4D8
100
AcDbEntity
  8
LC-002-002-----0
  6
CONTINUOUS
 62
             7
100
AcDbLine
 10
-69.24527149999997
 20
5.60277300000001
 11
-52.88297949999995
 21
106.043539
  0
LINE
  5
4D7
100
AcDbEntity
  8
LC-002-002-----0
  6
CONTINUOUS
 62
             7
100
AcDbLine
 10
50.47234850000004
 20
0.0
 11
50.47234850000004
 21
3.625113
  0
LINE
  5
4D6
100
AcDbEntity
  8
LC-002-002-----0
  6
CONTINUOUS
 62
             7
100
AcDbLine
 10
25.00000050000003
 20
113.5
 11
25.00000050000003
 21
115.0
  0
LINE
  5
4D5
100
AcDbEntity
  8
LC-002-002-----0
  6
CONTINUOUS
 62
             7
100
AcDbLine
 10
76.30203150000003
 20
0.0
 11
-74.99999949999997
 21
0.0
  0
LINE
  5
4D4
100
AcDbEntity
  8
LC-002-002-----0
  6
CONTINUOUS
 62
             7
100
AcDbLine
 10
20.52319950000003
 20
0.0
 11
20.52319950000003
 21
3.625113
  0
LINE
  5
4D3
100
AcDbEntity
  8
LC-002-002-----0
  6
CONTINUOUS
 62
             7
100
AcDbLine
 10
-29.62723249999996
 20
0.0
 11
-29.62723249999996
 21
3.625113
  0
LINE
  5
4D2
100
AcDbEntity
  8
LC-002-002-----0
  6
CONTINUOUS
 62
             7
100
AcDbLine
 10
-46.07055249999999
 20
107.5
 11
-45.24140249999996
 21
107.5
  0
LINE
  5
4D1
100
AcDbEntity
  8
LC-002-002-----0
  6
CONTINUOUS
 62
             7
100
AcDbLine
 10
-31.99678549999996
 20
107.5
 11
-29.0941455
 21
107.5
  0
LINE
  5
4D0
100
AcDbEntity
  8
LC-002-002-----0
  6
CONTINUOUS
 62
             7
100
AcDbLine
 10
-26.02225849999994
 20
107.5
 11
-22.61455549999997
 21
107.5
  0
LINE
  5
4CF
100
AcDbEntity
  8
LC-002-002-----0
  6
CONTINUOUS
 62
             7
100
AcDbLine
 10
-19.57254449999996
 20
107.5
 11
-15.77646949999999
 21
107.5
  0
LINE
  5
4CE
100
AcDbEntity
  8
LC-002-002-----0
  6
CONTINUOUS
 62
             7
100
AcDbLine
 10
-12.75729249999998
 20
107.5
 11
-8.69766949999996
 21
107.5
  0
LINE
  5
4CD
100
AcDbEntity
  8
LC-002-002-----0
  6
CONTINUOUS
 62
             7
100
AcDbLine
 10
-5.69279949999998
 20
107.5
 11
-1.49999949999997
 21
107.5
  0
LINE
  5
4CC
100
AcDbEntity
  8
LC-002-002-----0
  6
CONTINUOUS
 62
             7
100
AcDbLine
 10
1.50000050000003
 20
107.5
 11
5.69279950000004
 21
107.5
  0
LINE
  5
4CB
100
AcDbEntity
  8
LC-002-002-----0
  6
CONTINUOUS
 62
             7
100
AcDbLine
 10
8.69766950000002
 20
107.5
 11
12.75729250000003
 21
107.5
  0
LINE
  5
4CA
100
AcDbEntity
  8
LC-002-002-----0
  6
CONTINUOUS
 62
             7
100
AcDbLine
 10
15.77646950000002
 20
107.5
 11
19.57254450000002
 21
107.5
  0
LINE
  5
4C9
100
AcDbEntity
  8
LC-002-002-----0
  6
CONTINUOUS
 62
             7
100
AcDbLine
 10
22.61455650000002
 20
107.5
 11
26.02225950000002
 21
107.5
  0
LINE
  5
4C8
100
AcDbEntity
  8
LC-002-002-----0
  6
CONTINUOUS
 62
             7
100
AcDbLine
 10
29.09414550000003
 20
107.5
 11
31.97128950000004
 21
107.5
  0
LINE
  5
4C7
100
AcDbEntity
  8
LC-002-002-----0
  6
CONTINUOUS
 62
             7
100
AcDbLine
 10
35.05689650000002
 20
107.5
 11
37.36925550000004
 21
107.5
  0
LINE
  5
4C6
100
AcDbEntity
  8
LC-002-002-----0
  6
CONTINUOUS
 62
             7
100
AcDbLine
 10
-74.37119749999997
 20
0.0
 11
-74.37119749999997
 21
3.625113
  0
LINE
  5
4C5
100
AcDbEntity
  8
LC-002-002-----0
  6
CONTINUOUS
 62
             7
100
AcDbLine
 10
59.67647750000003
 20
5.56940600000002
 11
45.62585950000002
 21
106.010172
  0
LINE
  5
4C4
100
AcDbEntity
  8
LC-002-002-----0
  6
CONTINUOUS
 62
             7
100
AcDbLine
 10
-35.24999949999997
 20
0.0
 11
-35.24999949999997
 21
3.625113
  0
LINE
  5
4C3
100
AcDbEntity
  8
LC-002-002-----0
  6
CONTINUOUS
 62
             7
100
AcDbLine
 10
69.24527150000003
 20
5.60277300000001
 11
52.88297950000003
 21
106.043539
  0
LINE
  5
4C2
100
AcDbEntity
  8
LC-002-002-----0
  6
CONTINUOUS
 62
             7
100
AcDbLine
 10
66.40514550000003
 20
3.625113
 11
66.40328150000002
 21
3.74073900000002
  0
LINE
  5
4C1
100
AcDbEntity
  8
LC-002-002-----0
  6
CONTINUOUS
 62
             7
100
AcDbLine
 10
66.40328150000002
 20
3.74073900000002
 11
66.40141650000001
 21
3.85636400000001
  0
LINE
  5
4C0
100
AcDbEntity
  8
LC-002-002-----0
  6
CONTINUOUS
 62
             7
100
AcDbLine
 10
66.40141650000001
 20
3.85636400000001
 11
66.39806150000001
 21
3.97192900000002
  0
LINE
  5
4BF
100
AcDbEntity
  8
LC-002-002-----0
  6
CONTINUOUS
 62
             7
100
AcDbLine
 10
66.39806150000001
 20
3.97192900000002
 11
66.39247050000003
 21
4.08740400000002
  0
LINE
  5
4BE
100
AcDbEntity
  8
LC-002-002-----0
  6
CONTINUOUS
 62
             7
100
AcDbLine
 10
66.39247050000003
 20
4.08740400000002
 11
66.38687950000005
 21
4.20287900000002
  0
LINE
  5
4BD
100
AcDbEntity
  8
LC-002-002-----0
  6
CONTINUOUS
 62
             7
100
AcDbLine
 10
66.38687950000005
 20
4.20287900000002
 11
66.37831350000002
 21
4.31811200000001
  0
LINE
  5
4BC
100
AcDbEntity
  8
LC-002-002-----0
  6
CONTINUOUS
 62
             7
100
AcDbLine
 10
66.37831350000002
 20
4.31811200000001
 11
66.36900450000005
 21
4.43328600000001
  0
LINE
  5
4BB
100
AcDbEntity
  8
LC-002-002-----0
  6
CONTINUOUS
 62
             7
100
AcDbLine
 10
66.36900450000005
 20
4.43328600000001
 11
66.35895450000001
 21
4.54836900000001
  0
LINE
  5
4BA
100
AcDbEntity
  8
LC-002-002-----0
  6
CONTINUOUS
 62
             7
100
AcDbLine
 10
66.35895450000001
 20
4.54836900000001
 11
66.34594050000001
 21
4.66309100000001
  0
LINE
  5
4B9
100
AcDbEntity
  8
LC-002-002-----0
  6
CONTINUOUS
 62
             7
100
AcDbLine
 10
66.34594050000001
 20
4.66309100000001
 11
66.33292650000001
 21
4.77781300000001
  0
LINE
  5
4B8
100
AcDbEntity
  8
LC-002-002-----0
  6
CONTINUOUS
 62
             7
100
AcDbLine
 10
66.33292650000001
 20
4.77781300000001
 11
66.31770150000003
 21
4.89217400000001
  0
LINE
  5
4B7
100
AcDbEntity
  8
LC-002-002-----0
  6
CONTINUOUS
 62
             7
100
AcDbLine
 10
66.31770150000003
 20
4.89217400000001
 11
66.30100250000001
 21
5.00629600000002
  0
LINE
  5
4B6
100
AcDbEntity
  8
LC-002-002-----0
  6
CONTINUOUS
 62
             7
100
AcDbLine
 10
66.30100250000001
 20
5.00629600000002
 11
66.28430350000005
 21
5.120417
  0
LINE
  5
4B5
100
AcDbEntity
  8
LC-002-002-----0
  6
CONTINUOUS
 62
             7
100
AcDbLine
 10
-50.47234849999998
 20
0.0
 11
-50.47234849999998
 21
3.625113
  0
LINE
  5
4B4
100
AcDbEntity
  8
LC-002-002-----0
  6
CONTINUOUS
 62
             7
100
AcDbLine
 10
-59.81147049999996
 20
0.0
 11
-59.81147049999996
 21
3.625113
  0
LINE
  5
4B3
100
AcDbEntity
  8
LC-002-002-----0
  6
CONTINUOUS
 62
             7
100
AcDbLine
 10
15.89852650000003
 20
105.870745
 11
15.83036650000003
 21
106.680322
  0
LINE
  5
4B2
100
AcDbEntity
  8
LC-002-002-----0
  6
CONTINUOUS
 62
             7
100
AcDbLine
 10
15.83036650000003
 20
106.680322
 11
15.76220650000002
 21
107.489898
  0
LINE
  5
4B1
100
AcDbEntity
  8
LC-002-002-----0
  6
CONTINUOUS
 62
             7
100
AcDbLine
 10
15.76220650000002
 20
107.489898
 11
15.67062350000003
 21
108.265379
  0
LINE
  5
4B0
100
AcDbEntity
  8
LC-002-002-----0
  6
CONTINUOUS
 62
             7
100
AcDbLine
 10
15.67062350000003
 20
108.265379
 11
15.54390350000003
 21
108.989716
  0
LINE
  5
4AF
100
AcDbEntity
  8
LC-002-002-----0
  6
CONTINUOUS
 62
             7
100
AcDbLine
 10
15.54390350000003
 20
108.989716
 11
15.41718350000002
 21
109.71405300000001
  0
LINE
  5
4AE
100
AcDbEntity
  8
LC-002-002-----0
  6
CONTINUOUS
 62
             7
100
AcDbLine
 10
15.41718350000002
 20
109.71405300000001
 11
15.24140050000003
 21
110.343673
  0
LINE
  5
4AD
100
AcDbEntity
  8
LC-002-002-----0
  6
CONTINUOUS
 62
             7
100
AcDbLine
 10
15.24140050000003
 20
110.343673
 11
15.05335050000002
 21
110.949614
  0
LINE
  5
4AC
100
AcDbEntity
  8
LC-002-002-----0
  6
CONTINUOUS
 62
             7
100
AcDbLine
 10
15.05335050000002
 20
110.949614
 11
14.84399250000004
 21
111.532839
  0
LINE
  5
4AB
100
AcDbEntity
  8
LC-002-002-----0
  6
CONTINUOUS
 62
             7
100
AcDbLine
 10
14.84399250000004
 20
111.532839
 11
14.54940450000004
 21
112.025204
  0
LINE
  5
4AA
100
AcDbEntity
  8
LC-002-002-----0
  6
CONTINUOUS
 62
             7
100
AcDbLine
 10
14.54940450000004
 20
112.025204
 11
14.25481550000004
 21
112.517568
  0
LINE
  5
4A9
100
AcDbEntity
  8
LC-002-002-----0
  6
CONTINUOUS
 62
             7
100
AcDbLine
 10
14.25481550000004
 20
112.517568
 11
13.83550950000003
 21
112.96151399999999
  0
LINE
  5
4A8
100
AcDbEntity
  8
LC-002-002-----0
  6
CONTINUOUS
 62
             7
100
AcDbLine
 10
13.83550950000003
 20
112.96151399999999
 11
13.23986350000004
 21
113.295599
  0
LINE
  5
4A7
100
AcDbEntity
  8
LC-002-002-----0
  6
CONTINUOUS
 62
             7
100
AcDbLine
 10
13.23986350000004
 20
113.295599
 11
12.48843350000004
 21
113.5
  0
LINE
  5
4A6
100
AcDbEntity
  8
LC-002-002-----0
  6
CONTINUOUS
 62
             7
100
AcDbLine
 10
43.24396550000003
 20
3.625113
 11
43.24266950000003
 21
3.74708000000001
  0
LINE
  5
4A5
100
AcDbEntity
  8
LC-002-002-----0
  6
CONTINUOUS
 62
             7
100
AcDbLine
 10
43.24266950000003
 20
3.74708000000001
 11
43.24137350000004
 21
3.86904800000002
  0
LINE
  5
4A4
100
AcDbEntity
  8
LC-002-002-----0
  6
CONTINUOUS
 62
             7
100
AcDbLine
 10
43.24137350000004
 20
3.86904800000002
 11
43.23904150000004
 21
3.99094400000001
  0
LINE
  5
4A3
100
AcDbEntity
  8
LC-002-002-----0
  6
CONTINUOUS
 62
             7
100
AcDbLine
 10
43.23904150000004
 20
3.99094400000001
 11
43.23515550000002
 21
4.11273400000002
  0
LINE
  5
4A2
100
AcDbEntity
  8
LC-002-002-----0
  6
CONTINUOUS
 62
             7
100
AcDbLine
 10
43.23515550000002
 20
4.11273400000002
 11
43.23127050000002
 21
4.23452500000002
  0
LINE
  5
4A1
100
AcDbEntity
  8
LC-002-002-----0
  6
CONTINUOUS
 62
             7
100
AcDbLine
 10
43.23127050000002
 20
4.23452500000002
 11
43.22531950000004
 21
4.356032
  0
LINE
  5
4A0
100
AcDbEntity
  8
LC-002-002-----0
  6
CONTINUOUS
 62
             7
100
AcDbLine
 10
43.22531950000004
 20
4.356032
 11
43.21885150000003
 21
4.47746900000001
  0
LINE
  5
49F
100
AcDbEntity
  8
LC-002-002-----0
  6
CONTINUOUS
 62
             7
100
AcDbLine
 10
43.21885150000003
 20
4.47746900000001
 11
43.21187050000003
 21
4.59880000000001
  0
LINE
  5
49E
100
AcDbEntity
  8
LC-002-002-----0
  6
CONTINUOUS
 62
             7
100
AcDbLine
 10
43.21187050000003
 20
4.59880000000001
 11
43.20283250000003
 21
4.719708
  0
LINE
  5
49D
100
AcDbEntity
  8
LC-002-002-----0
  6
CONTINUOUS
 62
             7
100
AcDbLine
 10
43.20283250000003
 20
4.719708
 11
43.19379550000002
 21
4.84061500000001
  0
LINE
  5
49C
100
AcDbEntity
  8
LC-002-002-----0
  6
CONTINUOUS
 62
             7
100
AcDbLine
 10
43.19379550000002
 20
4.84061500000001
 11
43.18322750000002
 21
4.96109900000002
  0
LINE
  5
49B
100
AcDbEntity
  8
LC-002-002-----0
  6
CONTINUOUS
 62
             7
100
AcDbLine
 10
43.18322750000002
 20
4.96109900000002
 11
43.17163750000003
 21
5.081301
  0
LINE
  5
49A
100
AcDbEntity
  8
LC-002-002-----0
  6
CONTINUOUS
 62
             7
100
AcDbLine
 10
43.17163750000003
 20
5.081301
 11
43.16004850000002
 21
5.201503
  0
LINE
  5
499
100
AcDbEntity
  8
LC-002-002-----0
  6
CONTINUOUS
 62
             7
100
AcDbLine
 10
65.15286750000004
 20
3.625113
 11
65.15057450000003
 21
3.776782
  0
LINE
  5
498
100
AcDbEntity
  8
LC-002-002-----0
  6
CONTINUOUS
 62
             7
100
AcDbLine
 10
65.15057450000003
 20
3.776782
 11
65.14828150000002
 21
3.92845
  0
LINE
  5
497
100
AcDbEntity
  8
LC-002-002-----0
  6
CONTINUOUS
 62
             7
100
AcDbLine
 10
65.14828150000002
 20
3.92845
 11
65.14415550000004
 21
4.080051
  0
LINE
  5
496
100
AcDbEntity
  8
LC-002-002-----0
  6
CONTINUOUS
 62
             7
100
AcDbLine
 10
65.14415550000004
 20
4.080051
 11
65.13727950000001
 21
4.23155
  0
LINE
  5
495
100
AcDbEntity
  8
LC-002-002-----0
  6
CONTINUOUS
 62
             7
100
AcDbLine
 10
65.13727950000001
 20
4.23155
 11
65.13040350000003
 21
4.38305
  0
LINE
  5
494
100
AcDbEntity
  8
LC-002-002-----0
  6
CONTINUOUS
 62
             7
100
AcDbLine
 10
65.13040350000003
 20
4.38305
 11
65.11986550000003
 21
4.534279
  0
LINE
  5
493
100
AcDbEntity
  8
LC-002-002-----0
  6
CONTINUOUS
 62
             7
100
AcDbLine
 10
65.11986550000003
 20
4.534279
 11
65.10841250000001
 21
4.685441
  0
LINE
  5
492
100
AcDbEntity
  8
LC-002-002-----0
  6
CONTINUOUS
 62
             7
100
AcDbLine
 10
65.10841250000001
 20
4.685441
 11
65.09604550000003
 21
4.836501
  0
LINE
  5
491
100
AcDbEntity
  8
LC-002-002-----0
  6
CONTINUOUS
 62
             7
100
AcDbLine
 10
65.09604550000003
 20
4.836501
 11
65.08002550000001
 21
4.987157
  0
LINE
  5
490
100
AcDbEntity
  8
LC-002-002-----0
  6
CONTINUOUS
 62
             7
100
AcDbLine
 10
65.08002550000001
 20
4.987157
 11
65.06400550000004
 21
5.13781300000002
  0
LINE
  5
48F
100
AcDbEntity
  8
LC-002-002-----0
  6
CONTINUOUS
 62
             7
100
AcDbLine
 10
65.06400550000004
 20
5.13781300000002
 11
65.04525450000003
 21
5.28806400000002
  0
LINE
  5
48E
100
AcDbEntity
  8
LC-002-002-----0
  6
CONTINUOUS
 62
             7
100
AcDbLine
 10
65.04525450000003
 20
5.28806400000002
 11
65.02468250000001
 21
5.43804500000002
  0
LINE
  5
48D
100
AcDbEntity
  8
LC-002-002-----0
  6
CONTINUOUS
 62
             7
100
AcDbLine
 10
65.02468250000001
 20
5.43804500000002
 11
65.00410950000006
 21
5.58802600000001
  0
LINE
  5
48C
100
AcDbEntity
  8
LC-002-002-----0
  6
CONTINUOUS
 62
             7
100
AcDbLine
 10
-29.37371449999998
 20
113.5
 11
-24.12580149999999
 21
113.5
  0
LINE
  5
48B
100
AcDbEntity
  8
LC-002-002-----0
  6
CONTINUOUS
 62
             7
100
AcDbLine
 10
-65.15286749999999
 20
0.0
 11
-65.15286749999999
 21
3.625113
  0
LINE
  5
48A
100
AcDbEntity
  8
LC-002-002-----0
  6
CONTINUOUS
 62
             7
100
AcDbLine
 10
1.50000050000003
 20
0.0
 11
1.50000050000003
 21
3.625113
  0
LINE
  5
489
100
AcDbEntity
  8
LC-002-002-----0
  6
CONTINUOUS
 62
             7
100
AcDbLine
 10
-65.00410949999994
 20
5.58802600000001
 11
-49.66643849999994
 21
106.028792
  0
LINE
  5
488
100
AcDbEntity
  8
LC-002-002-----0
  6
CONTINUOUS
 62
             7
100
AcDbLine
 10
-8.07424249999997
 20
5.32708100000002
 11
-5.76256949999998
 21
105.767848
  0
LINE
  5
487
100
AcDbEntity
  8
LC-002-002-----0
  6
CONTINUOUS
 62
             7
100
AcDbLine
 10
-50.47234849999998
 20
3.625113
 11
-50.47086749999997
 21
3.745101
  0
LINE
  5
486
100
AcDbEntity
  8
LC-002-002-----0
  6
CONTINUOUS
 62
             7
100
AcDbLine
 10
-50.47086749999997
 20
3.745101
 11
-50.46938649999996
 21
3.86508800000001
  0
LINE
  5
485
100
AcDbEntity
  8
LC-002-002-----0
  6
CONTINUOUS
 62
             7
100
AcDbLine
 10
-50.46938649999996
 20
3.86508800000001
 11
-50.46672149999998
 21
3.98500700000002
  0
LINE
  5
484
100
AcDbEntity
  8
LC-002-002-----0
  6
CONTINUOUS
 62
             7
100
AcDbLine
 10
-50.46672149999998
 20
3.98500700000002
 11
-50.46228149999993
 21
4.10482200000001
  0
LINE
  5
483
100
AcDbEntity
  8
LC-002-002-----0
  6
CONTINUOUS
 62
             7
100
AcDbLine
 10
-50.46228149999993
 20
4.10482200000001
 11
-50.4578415
 21
4.224637
  0
LINE
  5
482
100
AcDbEntity
  8
LC-002-002-----0
  6
CONTINUOUS
 62
             7
100
AcDbLine
 10
-50.4578415
 20
4.224637
 11
-50.4510415
 21
4.344177
  0
LINE
  5
481
100
AcDbEntity
  8
LC-002-002-----0
  6
CONTINUOUS
 62
             7
100
AcDbLine
 10
-50.4510415
 20
4.344177
 11
-50.44365049999996
 21
4.46364800000001
  0
LINE
  5
480
100
AcDbEntity
  8
LC-002-002-----0
  6
CONTINUOUS
 62
             7
100
AcDbLine
 10
-50.44365049999996
 20
4.46364800000001
 11
-50.43567249999998
 21
4.58301600000001
  0
LINE
  5
47F
100
AcDbEntity
  8
LC-002-002-----0
  6
CONTINUOUS
 62
             7
100
AcDbLine
 10
-50.43567249999998
 20
4.58301600000001
 11
-50.42534449999997
 21
4.70197100000002
  0
LINE
  5
47E
100
AcDbEntity
  8
LC-002-002-----0
  6
CONTINUOUS
 62
             7
100
AcDbLine
 10
-50.42534449999997
 20
4.70197100000002
 11
-50.41501650000001
 21
4.82092700000001
  0
LINE
  5
47D
100
AcDbEntity
  8
LC-002-002-----0
  6
CONTINUOUS
 62
             7
100
AcDbLine
 10
-50.41501650000001
 20
4.82092700000001
 11
-50.40293849999998
 21
4.939471
  0
LINE
  5
47C
100
AcDbEntity
  8
LC-002-002-----0
  6
CONTINUOUS
 62
             7
100
AcDbLine
 10
-50.40293849999998
 20
4.939471
 11
-50.38969349999994
 21
5.05774000000002
  0
LINE
  5
47B
100
AcDbEntity
  8
LC-002-002-----0
  6
CONTINUOUS
 62
             7
100
AcDbLine
 10
-50.38969349999994
 20
5.05774000000002
 11
-50.37644749999996
 21
5.17600900000002
  0
LINE
  5
47A
100
AcDbEntity
  8
LC-002-002-----0
  6
CONTINUOUS
 62
             7
100
AcDbLine
 10
50.37644850000004
 20
5.17600900000002
 11
37.85329250000004
 21
105.616775
  0
LINE
  5
479
100
AcDbEntity
  8
LC-002-002-----0
  6
CONTINUOUS
 62
             7
100
AcDbLine
 10
29.31303450000002
 20
105.934096
 11
29.17477950000003
 21
106.783739
  0
LINE
  5
478
100
AcDbEntity
  8
LC-002-002-----0
  6
CONTINUOUS
 62
             7
100
AcDbLine
 10
29.17477950000003
 20
106.783739
 11
29.03652450000004
 21
107.633382
  0
LINE
  5
477
100
AcDbEntity
  8
LC-002-002-----0
  6
CONTINUOUS
 62
             7
100
AcDbLine
 10
29.03652450000004
 20
107.633382
 11
28.85000250000002
 21
108.449489
  0
LINE
  5
476
100
AcDbEntity
  8
LC-002-002-----0
  6
CONTINUOUS
 62
             7
100
AcDbLine
 10
28.85000250000002
 20
108.449489
 11
28.59108050000003
 21
109.215293
  0
LINE
  5
475
100
AcDbEntity
  8
LC-002-002-----0
  6
CONTINUOUS
 62
             7
100
AcDbLine
 10
28.59108050000003
 20
109.215293
 11
28.33215750000002
 21
109.98109599999999
  0
LINE
  5
474
100
AcDbEntity
  8
LC-002-002-----0
  6
CONTINUOUS
 62
             7
100
AcDbLine
 10
28.33215750000002
 20
109.98109599999999
 11
27.97386050000003
 21
110.64603099999999
  0
LINE
  5
473
100
AcDbEntity
  8
LC-002-002-----0
  6
CONTINUOUS
 62
             7
100
AcDbLine
 10
27.97386050000003
 20
110.64603099999999
 11
27.59071950000003
 21
111.285748
  0
LINE
  5
472
100
AcDbEntity
  8
LC-002-002-----0
  6
CONTINUOUS
 62
             7
100
AcDbLine
 10
27.59071950000003
 20
111.285748
 11
27.17816550000003
 21
111.89084200000001
  0
LINE
  5
471
100
AcDbEntity
  8
LC-002-002-----0
  6
CONTINUOUS
 62
             7
100
AcDbLine
 10
27.17816550000003
 20
111.89084200000001
 11
26.64795950000004
 21
112.357437
  0
LINE
  5
470
100
AcDbEntity
  8
LC-002-002-----0
  6
CONTINUOUS
 62
             7
100
AcDbLine
 10
26.64795950000004
 20
112.357437
 11
26.11775350000002
 21
112.824032
  0
LINE
  5
46F
100
AcDbEntity
  8
LC-002-002-----0
  6
CONTINUOUS
 62
             7
100
AcDbLine
 10
26.11775350000002
 20
112.824032
 11
25.49582050000004
 21
113.127577
  0
LINE
  5
46E
100
AcDbEntity
  8
LC-002-002-----0
  6
CONTINUOUS
 62
             7
100
AcDbLine
 10
25.49582050000004
 20
113.127577
 11
24.81273550000003
 21
113.322423
  0
LINE
  5
46D
100
AcDbEntity
  8
LC-002-002-----0
  6
CONTINUOUS
 62
             7
100
AcDbLine
 10
24.81273550000003
 20
113.322423
 11
24.12580150000002
 21
113.5
  0
LINE
  5
46C
100
AcDbEntity
  8
LC-002-002-----0
  6
CONTINUOUS
 62
             7
100
AcDbLine
 10
38.16824350000002
 20
5.49332900000002
 11
29.31303450000002
 21
105.934096
  0
LINE
  5
46B
100
AcDbEntity
  8
LC-002-002-----0
  6
CONTINUOUS
 62
             7
100
AcDbLine
 10
-76.30203149999997
 20
0.0
 11
-92.99999949999997
 21
0.0
  0
LINE
  5
46A
100
AcDbEntity
  8
LC-002-002-----0
  6
CONTINUOUS
 62
             7
100
AcDbLine
 10
98.50000050000003
 20
0.0
 11
76.30203150000003
 21
0.0
  0
LINE
  5
469
100
AcDbEntity
  8
LC-002-002-----0
  6
CONTINUOUS
 62
             7
100
AcDbLine
 10
-43.24396449999998
 20
3.625113
 11
-43.24266849999995
 21
3.74708000000001
  0
LINE
  5
468
100
AcDbEntity
  8
LC-002-002-----0
  6
CONTINUOUS
 62
             7
100
AcDbLine
 10
-43.24266849999995
 20
3.74708000000001
 11
-43.24137249999998
 21
3.86904800000002
  0
LINE
  5
467
100
AcDbEntity
  8
LC-002-002-----0
  6
CONTINUOUS
 62
             7
100
AcDbLine
 10
-43.24137249999998
 20
3.86904800000002
 11
-43.23904150000001
 21
3.99094400000001
  0
LINE
  5
466
100
AcDbEntity
  8
LC-002-002-----0
  6
CONTINUOUS
 62
             7
100
AcDbLine
 10
-43.23904150000001
 20
3.99094400000001
 11
-43.23515549999993
 21
4.11273400000002
  0
LINE
  5
465
100
AcDbEntity
  8
LC-002-002-----0
  6
CONTINUOUS
 62
             7
100
AcDbLine
 10
-43.23515549999993
 20
4.11273400000002
 11
-43.23127049999997
 21
4.23452500000002
  0
LINE
  5
464
100
AcDbEntity
  8
LC-002-002-----0
  6
CONTINUOUS
 62
             7
100
AcDbLine
 10
-43.23127049999997
 20
4.23452500000002
 11
-43.22531849999999
 21
4.356032
  0
LINE
  5
463
100
AcDbEntity
  8
LC-002-002-----0
  6
CONTINUOUS
 62
             7
100
AcDbLine
 10
-43.22531849999999
 20
4.356032
 11
-43.21885149999994
 21
4.47746900000001
  0
LINE
  5
462
100
AcDbEntity
  8
LC-002-002-----0
  6
CONTINUOUS
 62
             7
100
AcDbLine
 10
-43.21885149999994
 20
4.47746900000001
 11
-43.21186949999995
 21
4.59880000000001
  0
LINE
  5
461
100
AcDbEntity
  8
LC-002-002-----0
  6
CONTINUOUS
 62
             7
100
AcDbLine
 10
-43.21186949999995
 20
4.59880000000001
 11
-43.20283249999997
 21
4.719708
  0
LINE
  5
460
100
AcDbEntity
  8
LC-002-002-----0
  6
CONTINUOUS
 62
             7
100
AcDbLine
 10
-43.20283249999997
 20
4.719708
 11
-43.19379549999999
 21
4.84061500000001
  0
LINE
  5
45F
100
AcDbEntity
  8
LC-002-002-----0
  6
CONTINUOUS
 62
             7
100
AcDbLine
 10
-43.19379549999999
 20
4.84061500000001
 11
-43.18322649999996
 21
4.96109900000002
  0
LINE
  5
45E
100
AcDbEntity
  8
LC-002-002-----0
  6
CONTINUOUS
 62
             7
100
AcDbLine
 10
-43.18322649999996
 20
4.96109900000002
 11
-43.1716375
 21
5.081301
  0
LINE
  5
45D
100
AcDbEntity
  8
LC-002-002-----0
  6
CONTINUOUS
 62
             7
100
AcDbLine
 10
-43.1716375
 20
5.081301
 11
-43.16004849999993
 21
5.201503
  0
LINE
  5
45C
100
AcDbEntity
  8
LC-002-002-----0
  6
CONTINUOUS
 62
             7
100
AcDbLine
 10
-35.1798345
 20
5.229861
 11
-26.32462549999994
 21
105.670627
  0
LINE
  5
45B
100
AcDbEntity
  8
LC-002-002-----0
  6
CONTINUOUS
 62
             7
100
AcDbLine
 10
-17.52319949999995
 20
3.625113
 11
-17.52261649999994
 21
3.75412800000001
  0
LINE
  5
45A
100
AcDbEntity
  8
LC-002-002-----0
  6
CONTINUOUS
 62
             7
100
AcDbLine
 10
-17.52261649999994
 20
3.75412800000001
 11
-17.52203449999993
 21
3.88314300000002
  0
LINE
  5
459
100
AcDbEntity
  8
LC-002-002-----0
  6
CONTINUOUS
 62
             7
100
AcDbLine
 10
-17.52203449999993
 20
3.88314300000002
 11
-17.52098549999997
 21
4.01208800000001
  0
LINE
  5
458
100
AcDbEntity
  8
LC-002-002-----0
  6
CONTINUOUS
 62
             7
100
AcDbLine
 10
-17.52098549999997
 20
4.01208800000001
 11
-17.51923749999995
 21
4.140927
  0
LINE
  5
457
100
AcDbEntity
  8
LC-002-002-----0
  6
CONTINUOUS
 62
             7
100
AcDbLine
 10
-17.51923749999995
 20
4.140927
 11
-17.51749049999998
 21
4.269767
  0
LINE
  5
456
100
AcDbEntity
  8
LC-002-002-----0
  6
CONTINUOUS
 62
             7
100
AcDbLine
 10
-17.51749049999998
 20
4.269767
 11
-17.51481349999997
 21
4.39832700000002
  0
LINE
  5
455
100
AcDbEntity
  8
LC-002-002-----0
  6
CONTINUOUS
 62
             7
100
AcDbLine
 10
-17.51481349999997
 20
4.39832700000002
 11
-17.51190349999993
 21
4.52681700000002
  0
LINE
  5
454
100
AcDbEntity
  8
LC-002-002-----0
  6
CONTINUOUS
 62
             7
100
AcDbLine
 10
-17.51190349999993
 20
4.52681700000002
 11
-17.50876249999996
 21
4.655202
  0
LINE
  5
453
100
AcDbEntity
  8
LC-002-002-----0
  6
CONTINUOUS
 62
             7
100
AcDbLine
 10
-17.50876249999996
 20
4.655202
 11
-17.50469649999994
 21
4.78316700000002
  0
LINE
  5
452
100
AcDbEntity
  8
LC-002-002-----0
  6
CONTINUOUS
 62
             7
100
AcDbLine
 10
-17.50469649999994
 20
4.78316700000002
 11
-17.50062949999997
 21
4.91113200000001
  0
LINE
  5
451
100
AcDbEntity
  8
LC-002-002-----0
  6
CONTINUOUS
 62
             7
100
AcDbLine
 10
-17.50062949999997
 20
4.91113200000001
 11
-17.49587249999993
 21
5.038678
  0
LINE
  5
450
100
AcDbEntity
  8
LC-002-002-----0
  6
CONTINUOUS
 62
             7
100
AcDbLine
 10
-17.49587249999993
 20
5.038678
 11
-17.49065549999997
 21
5.16594500000002
  0
LINE
  5
44F
100
AcDbEntity
  8
LC-002-002-----0
  6
CONTINUOUS
 62
             7
100
AcDbLine
 10
-17.49065549999997
 20
5.16594500000002
 11
-17.48543849999996
 21
5.29321100000001
  0
LINE
  5
44E
100
AcDbEntity
  8
LC-002-002-----0
  6
CONTINUOUS
 62
             7
100
AcDbLine
 10
-66.40514549999998
 20
0.0
 11
-66.40514549999998
 21
3.625113
  0
LINE
  5
44D
100
AcDbEntity
  8
LC-002-002-----0
  6
CONTINUOUS
 62
             7
100
AcDbLine
 10
49.66643850000003
 20
106.028792
 11
49.41270950000003
 21
106.92980900000001
  0
LINE
  5
44C
100
AcDbEntity
  8
LC-002-002-----0
  6
CONTINUOUS
 62
             7
100
AcDbLine
 10
49.41270950000003
 20
106.92980900000001
 11
49.15898150000004
 21
107.830827
  0
LINE
  5
44B
100
AcDbEntity
  8
LC-002-002-----0
  6
CONTINUOUS
 62
             7
100
AcDbLine
 10
49.15898150000004
 20
107.830827
 11
48.82060850000002
 21
108.68980999999999
  0
LINE
  5
44A
100
AcDbEntity
  8
LC-002-002-----0
  6
CONTINUOUS
 62
             7
100
AcDbLine
 10
48.82060850000002
 20
108.68980999999999
 11
48.35527050000002
 21
109.485742
  0
LINE
  5
449
100
AcDbEntity
  8
LC-002-002-----0
  6
CONTINUOUS
 62
             7
100
AcDbLine
 10
48.35527050000002
 20
109.485742
 11
47.88993250000002
 21
110.281674
  0
LINE
  5
448
100
AcDbEntity
  8
LC-002-002-----0
  6
CONTINUOUS
 62
             7
100
AcDbLine
 10
47.88993250000002
 20
110.281674
 11
47.27682250000004
 21
110.944219
  0
LINE
  5
447
100
AcDbEntity
  8
LC-002-002-----0
  6
CONTINUOUS
 62
             7
100
AcDbLine
 10
47.27682250000004
 20
110.944219
 11
46.62677050000002
 21
111.57341700000001
  0
LINE
  5
446
100
AcDbEntity
  8
LC-002-002-----0
  6
CONTINUOUS
 62
             7
100
AcDbLine
 10
46.62677050000002
 20
111.57341700000001
 11
45.94843450000002
 21
112.158057
  0
LINE
  5
445
100
AcDbEntity
  8
LC-002-002-----0
  6
CONTINUOUS
 62
             7
100
AcDbLine
 10
45.94843450000002
 20
112.158057
 11
45.15696850000003
 21
112.564465
  0
LINE
  5
444
100
AcDbEntity
  8
LC-002-002-----0
  6
CONTINUOUS
 62
             7
100
AcDbLine
 10
45.15696850000003
 20
112.564465
 11
44.36550250000002
 21
112.970873
  0
LINE
  5
443
100
AcDbEntity
  8
LC-002-002-----0
  6
CONTINUOUS
 62
             7
100
AcDbLine
 10
44.36550250000002
 20
112.970873
 11
43.52696150000003
 21
113.218028
  0
LINE
  5
442
100
AcDbEntity
  8
LC-002-002-----0
  6
CONTINUOUS
 62
             7
100
AcDbLine
 10
43.52696150000003
 20
113.218028
 11
42.65703750000003
 21
113.359014
  0
LINE
  5
441
100
AcDbEntity
  8
LC-002-002-----0
  6
CONTINUOUS
 62
             7
100
AcDbLine
 10
42.65703750000003
 20
113.359014
 11
41.78711350000003
 21
113.5
  0
LINE
  5
440
100
AcDbEntity
  8
LC-002-002-----0
  6
CONTINUOUS
 62
             7
100
AcDbLine
 10
-66.40514549999998
 20
3.625113
 11
-66.40328049999997
 21
3.74073900000002
  0
LINE
  5
43F
100
AcDbEntity
  8
LC-002-002-----0
  6
CONTINUOUS
 62
             7
100
AcDbLine
 10
-66.40328049999997
 20
3.74073900000002
 11
-66.40141649999995
 21
3.85636400000001
  0
LINE
  5
43E
100
AcDbEntity
  8
LC-002-002-----0
  6
CONTINUOUS
 62
             7
100
AcDbLine
 10
-66.40141649999995
 20
3.85636400000001
 11
-66.39806149999996
 21
3.97192900000002
  0
LINE
  5
43D
100
AcDbEntity
  8
LC-002-002-----0
  6
CONTINUOUS
 62
             7
100
AcDbLine
 10
-66.39806149999996
 20
3.97192900000002
 11
-66.39247049999997
 21
4.08740400000002
  0
LINE
  5
43C
100
AcDbEntity
  8
LC-002-002-----0
  6
CONTINUOUS
 62
             7
100
AcDbLine
 10
-66.39247049999997
 20
4.08740400000002
 11
-66.38687949999999
 21
4.20287900000002
  0
LINE
  5
43B
100
AcDbEntity
  8
LC-002-002-----0
  6
CONTINUOUS
 62
             7
100
AcDbLine
 10
-66.38687949999999
 20
4.20287900000002
 11
-66.37831349999996
 21
4.31811200000001
  0
LINE
  5
43A
100
AcDbEntity
  8
LC-002-002-----0
  6
CONTINUOUS
 62
             7
100
AcDbLine
 10
-66.37831349999996
 20
4.31811200000001
 11
-66.36900449999999
 21
4.43328600000001
  0
LINE
  5
439
100
AcDbEntity
  8
LC-002-002-----0
  6
CONTINUOUS
 62
             7
100
AcDbLine
 10
-66.36900449999999
 20
4.43328600000001
 11
-66.35895349999996
 21
4.54836900000001
  0
LINE
  5
438
100
AcDbEntity
  8
LC-002-002-----0
  6
CONTINUOUS
 62
             7
100
AcDbLine
 10
-66.35895349999996
 20
4.54836900000001
 11
-66.34594049999996
 21
4.66309100000001
  0
LINE
  5
437
100
AcDbEntity
  8
LC-002-002-----0
  6
CONTINUOUS
 62
             7
100
AcDbLine
 10
-66.34594049999996
 20
4.66309100000001
 11
-66.33292649999996
 21
4.77781300000001
  0
LINE
  5
436
100
AcDbEntity
  8
LC-002-002-----0
  6
CONTINUOUS
 62
             7
100
AcDbLine
 10
-66.33292649999996
 20
4.77781300000001
 11
-66.31770149999997
 21
4.89217400000001
  0
LINE
  5
435
100
AcDbEntity
  8
LC-002-002-----0
  6
CONTINUOUS
 62
             7
100
AcDbLine
 10
-66.31770149999997
 20
4.89217400000001
 11
-66.30100249999995
 21
5.00629600000002
  0
LINE
  5
434
100
AcDbEntity
  8
LC-002-002-----0
  6
CONTINUOUS
 62
             7
100
AcDbLine
 10
-66.30100249999995
 20
5.00629600000002
 11
-66.28430349999999
 21
5.120417
  0
LINE
  5
433
100
AcDbEntity
  8
LC-002-002-----0
  6
CONTINUOUS
 62
             7
100
AcDbLine
 10
-22.78820749999997
 20
105.90334799999999
 11
-22.68477249999998
 21
106.73398400000001
  0
LINE
  5
432
100
AcDbEntity
  8
LC-002-002-----0
  6
CONTINUOUS
 62
             7
100
AcDbLine
 10
-22.68477249999998
 20
106.73398400000001
 11
-22.58133749999993
 21
107.56462000000001
  0
LINE
  5
431
100
AcDbEntity
  8
LC-002-002-----0
  6
CONTINUOUS
 62
             7
100
AcDbLine
 10
-22.58133749999993
 20
107.56462000000001
 11
-22.44187649999995
 21
108.3621
  0
LINE
  5
430
100
AcDbEntity
  8
LC-002-002-----0
  6
CONTINUOUS
 62
             7
100
AcDbLine
 10
-22.44187649999995
 20
108.3621
 11
-22.24837849999997
 21
109.10984500000001
  0
LINE
  5
42F
100
AcDbEntity
  8
LC-002-002-----0
  6
CONTINUOUS
 62
             7
100
AcDbLine
 10
-22.24837849999997
 20
109.10984500000001
 11
-22.0548795
 21
109.85759
  0
LINE
  5
42E
100
AcDbEntity
  8
LC-002-002-----0
  6
CONTINUOUS
 62
             7
100
AcDbLine
 10
-22.0548795
 20
109.85759
 11
-21.7851095
 21
110.510713
  0
LINE
  5
42D
100
AcDbEntity
  8
LC-002-002-----0
  6
CONTINUOUS
 62
             7
100
AcDbLine
 10
-21.7851095
 20
110.510713
 11
-21.49627049999995
 21
111.140181
  0
LINE
  5
42C
100
AcDbEntity
  8
LC-002-002-----0
  6
CONTINUOUS
 62
             7
100
AcDbLine
 10
-21.49627049999995
 20
111.140181
 11
-21.17985149999996
 21
111.74114899999999
  0
LINE
  5
42B
100
AcDbEntity
  8
LC-002-002-----0
  6
CONTINUOUS
 62
             7
100
AcDbLine
 10
-21.17985149999996
 20
111.74114899999999
 11
-20.75310749999997
 21
112.22811400000001
  0
LINE
  5
42A
100
AcDbEntity
  8
LC-002-002-----0
  6
CONTINUOUS
 62
             7
100
AcDbLine
 10
-20.75310749999997
 20
112.22811400000001
 11
-20.32636349999999
 21
112.715079
  0
LINE
  5
429
100
AcDbEntity
  8
LC-002-002-----0
  6
CONTINUOUS
 62
             7
100
AcDbLine
 10
-20.32636349999999
 20
112.715079
 11
-19.76901149999995
 21
113.05529300000001
  0
LINE
  5
428
100
AcDbEntity
  8
LC-002-002-----0
  6
CONTINUOUS
 62
             7
100
AcDbLine
 10
-19.76901149999995
 20
113.05529300000001
 11
-19.12458649999999
 21
113.297673
  0
LINE
  5
427
100
AcDbEntity
  8
LC-002-002-----0
  6
CONTINUOUS
 62
             7
100
AcDbLine
 10
-19.12458649999999
 20
113.297673
 11
-18.46508850000001
 21
113.5
  0
LINE
  5
426
100
AcDbEntity
  8
LC-002-002-----0
  6
CONTINUOUS
 62
             7
100
AcDbLine
 10
1.50000050000003
 20
5.36159500000002
 11
1.50000050000003
 21
105.802361
  0
LINE
  5
425
100
AcDbEntity
  8
LC-002-002-----0
  6
CONTINUOUS
 62
             7
100
AcDbLine
 10
-34.11903549999997
 20
110.5
 11
-33.93347149999997
 21
110.5
  0
LINE
  5
424
100
AcDbEntity
  8
LC-002-002-----0
  6
CONTINUOUS
 62
             7
100
AcDbLine
 10
56.81147050000004
 20
3.625113
 11
56.80983350000003
 21
3.74336500000001
  0
LINE
  5
423
100
AcDbEntity
  8
LC-002-002-----0
  6
CONTINUOUS
 62
             7
100
AcDbLine
 10
56.80983350000003
 20
3.74336500000001
 11
56.80819550000004
 21
3.86161700000002
  0
LINE
  5
422
100
AcDbEntity
  8
LC-002-002-----0
  6
CONTINUOUS
 62
             7
100
AcDbLine
 10
56.80819550000004
 20
3.86161700000002
 11
56.80524950000003
 21
3.97980200000001
  0
LINE
  5
421
100
AcDbEntity
  8
LC-002-002-----0
  6
CONTINUOUS
 62
             7
100
AcDbLine
 10
56.80524950000003
 20
3.97980200000001
 11
56.80033950000004
 21
4.09788800000001
  0
LINE
  5
420
100
AcDbEntity
  8
LC-002-002-----0
  6
CONTINUOUS
 62
             7
100
AcDbLine
 10
56.80033950000004
 20
4.09788800000001
 11
56.79542950000004
 21
4.21597400000002
  0
LINE
  5
41F
100
AcDbEntity
  8
LC-002-002-----0
  6
CONTINUOUS
 62
             7
100
AcDbLine
 10
56.79542950000004
 20
4.21597400000002
 11
56.78790950000004
 21
4.33379500000001
  0
LINE
  5
41E
100
AcDbEntity
  8
LC-002-002-----0
  6
CONTINUOUS
 62
             7
100
AcDbLine
 10
56.78790950000004
 20
4.33379500000001
 11
56.77973650000004
 21
4.45155
  0
LINE
  5
41D
100
AcDbEntity
  8
LC-002-002-----0
  6
CONTINUOUS
 62
             7
100
AcDbLine
 10
56.77973650000004
 20
4.45155
 11
56.77091350000003
 21
4.56920500000001
  0
LINE
  5
41C
100
AcDbEntity
  8
LC-002-002-----0
  6
CONTINUOUS
 62
             7
100
AcDbLine
 10
56.77091350000003
 20
4.56920500000001
 11
56.75949050000003
 21
4.686464
  0
LINE
  5
41B
100
AcDbEntity
  8
LC-002-002-----0
  6
CONTINUOUS
 62
             7
100
AcDbLine
 10
56.75949050000003
 20
4.686464
 11
56.74806850000002
 21
4.80372300000002
  0
LINE
  5
41A
100
AcDbEntity
  8
LC-002-002-----0
  6
CONTINUOUS
 62
             7
100
AcDbLine
 10
56.74806850000002
 20
4.80372300000002
 11
56.73470950000004
 21
4.92058600000001
  0
LINE
  5
419
100
AcDbEntity
  8
LC-002-002-----0
  6
CONTINUOUS
 62
             7
100
AcDbLine
 10
56.73470950000004
 20
4.92058600000001
 11
56.72005850000002
 21
5.03718500000002
  0
LINE
  5
418
100
AcDbEntity
  8
LC-002-002-----0
  6
CONTINUOUS
 62
             7
100
AcDbLine
 10
56.72005850000002
 20
5.03718500000002
 11
56.70540750000004
 21
5.153784
  0
LINE
  5
417
100
AcDbEntity
  8
LC-002-002-----0
  6
CONTINUOUS
 62
             7
100
AcDbLine
 10
-24.99999949999997
 20
113.5
 11
-24.99999949999997
 21
115.0
  0
LINE
  5
416
100
AcDbEntity
  8
LC-002-002-----0
  6
CONTINUOUS
 62
             7
100
AcDbLine
 10
11.09367550000002
 20
0.0
 11
11.09367550000002
 21
3.625113
  0
LINE
  5
415
100
AcDbEntity
  8
LC-002-002-----0
  6
CONTINUOUS
 62
             7
100
AcDbLine
 10
17.52319950000003
 20
0.0
 11
17.52319950000003
 21
3.625113
  0
LINE
  5
414
100
AcDbEntity
  8
LC-002-002-----0
  6
CONTINUOUS
 62
             7
100
AcDbLine
 10
20.48231950000002
 20
5.429979
 11
15.89852650000003
 21
105.870745
  0
LINE
  5
413
100
AcDbEntity
  8
LC-002-002-----0
  6
CONTINUOUS
 62
             7
100
AcDbLine
 10
-17.48543849999996
 20
5.29321100000001
 11
-12.90164549999997
 21
105.733977
  0
LINE
  5
412
100
AcDbEntity
  8
LC-002-002-----0
  6
CONTINUOUS
 62
             7
100
AcDbLine
 10
56.70540750000004
 20
5.153784
 11
42.65478850000002
 21
105.59455
  0
LINE
  5
411
100
AcDbEntity
  8
LC-002-002-----0
  6
CONTINUOUS
 62
             7
100
AcDbLine
 10
-38.24999949999997
 20
0.0
 11
-38.24999949999997
 21
3.625113
  0
LINE
  5
410
100
AcDbEntity
  8
LC-002-002-----0
  6
CONTINUOUS
 62
             7
100
AcDbLine
 10
66.28430350000005
 20
5.120417
 11
49.92201150000003
 21
105.561183
  0
LINE
  5
40F
100
AcDbEntity
  8
LC-002-002-----0
  6
CONTINUOUS
 62
             7
100
AcDbLine
 10
-53.47234849999998
 20
0.0
 11
-53.47234849999998
 21
3.625113
  0
LINE
  5
40E
100
AcDbEntity
  8
LC-002-002-----0
  6
CONTINUOUS
 62
             7
100
AcDbLine
 10
8.09367550000002
 20
3.625113
 11
8.09337550000004
 21
3.75671300000002
  0
LINE
  5
40D
100
AcDbEntity
  8
LC-002-002-----0
  6
CONTINUOUS
 62
             7
100
AcDbLine
 10
8.09337550000004
 20
3.75671300000002
 11
8.09307550000003
 21
3.88831200000001
  0
LINE
  5
40C
100
AcDbEntity
  8
LC-002-002-----0
  6
CONTINUOUS
 62
             7
100
AcDbLine
 10
8.09307550000003
 20
3.88831200000001
 11
8.09253650000002
 21
4.01984300000001
  0
LINE
  5
40B
100
AcDbEntity
  8
LC-002-002-----0
  6
CONTINUOUS
 62
             7
100
AcDbLine
 10
8.09253650000002
 20
4.01984300000001
 11
8.09163650000002
 21
4.15127200000001
  0
LINE
  5
40A
100
AcDbEntity
  8
LC-002-002-----0
  6
CONTINUOUS
 62
             7
100
AcDbLine
 10
8.09163650000002
 20
4.15127200000001
 11
8.09073750000002
 21
4.282702
  0
LINE
  5
409
100
AcDbEntity
  8
LC-002-002-----0
  6
CONTINUOUS
 62
             7
100
AcDbLine
 10
8.09073750000002
 20
4.282702
 11
8.08936050000003
 21
4.41386
  0
LINE
  5
408
100
AcDbEntity
  8
LC-002-002-----0
  6
CONTINUOUS
 62
             7
100
AcDbLine
 10
8.08936050000003
 20
4.41386
 11
8.08786350000003
 21
4.54495
  0
LINE
  5
407
100
AcDbEntity
  8
LC-002-002-----0
  6
CONTINUOUS
 62
             7
100
AcDbLine
 10
8.08786350000003
 20
4.54495
 11
8.08624750000004
 21
4.675938
  0
LINE
  5
406
100
AcDbEntity
  8
LC-002-002-----0
  6
CONTINUOUS
 62
             7
100
AcDbLine
 10
8.08624750000004
 20
4.675938
 11
8.08415450000004
 21
4.80651900000001
  0
LINE
  5
405
100
AcDbEntity
  8
LC-002-002-----0
  6
CONTINUOUS
 62
             7
100
AcDbLine
 10
8.08415450000004
 20
4.80651900000001
 11
8.08206150000004
 21
4.93710000000002
  0
LINE
  5
404
100
AcDbEntity
  8
LC-002-002-----0
  6
CONTINUOUS
 62
             7
100
AcDbLine
 10
8.08206150000004
 20
4.93710000000002
 11
8.07961350000002
 21
5.06727500000002
  0
LINE
  5
403
100
AcDbEntity
  8
LC-002-002-----0
  6
CONTINUOUS
 62
             7
100
AcDbLine
 10
8.07961350000002
 20
5.06727500000002
 11
8.07692750000004
 21
5.19717800000001
  0
LINE
  5
402
100
AcDbEntity
  8
LC-002-002-----0
  6
CONTINUOUS
 62
             7
100
AcDbLine
 10
8.07692750000004
 20
5.19717800000001
 11
8.07424250000003
 21
5.32708100000002
  0
LINE
  5
401
100
AcDbEntity
  8
LC-002-002-----0
  6
CONTINUOUS
 62
             7
100
AcDbLine
 10
22.78820750000003
 20
105.90334799999999
 11
22.68477250000004
 21
106.73398400000001
  0
LINE
  5
400
100
AcDbEntity
  8
LC-002-002-----0
  6
CONTINUOUS
 62
             7
100
AcDbLine
 10
22.68477250000004
 20
106.73398400000001
 11
22.58133750000002
 21
107.56462000000001
  0
LINE
  5
3FF
100
AcDbEntity
  8
LC-002-002-----0
  6
CONTINUOUS
 62
             7
100
AcDbLine
 10
22.58133750000002
 20
107.56462000000001
 11
22.44187650000004
 21
108.3621
  0
LINE
  5
3FE
100
AcDbEntity
  8
LC-002-002-----0
  6
CONTINUOUS
 62
             7
100
AcDbLine
 10
22.44187650000004
 20
108.3621
 11
22.24837850000003
 21
109.10984500000001
  0
LINE
  5
3FD
100
AcDbEntity
  8
LC-002-002-----0
  6
CONTINUOUS
 62
             7
100
AcDbLine
 10
22.24837850000003
 20
109.10984500000001
 11
22.05487950000003
 21
109.85759
  0
LINE
  5
3FC
100
AcDbEntity
  8
LC-002-002-----0
  6
CONTINUOUS
 62
             7
100
AcDbLine
 10
22.05487950000003
 20
109.85759
 11
21.78510950000003
 21
110.510713
  0
LINE
  5
3FB
100
AcDbEntity
  8
LC-002-002-----0
  6
CONTINUOUS
 62
             7
100
AcDbLine
 10
21.78510950000003
 20
110.510713
 11
21.49627050000004
 21
111.140181
  0
LINE
  5
3FA
100
AcDbEntity
  8
LC-002-002-----0
  6
CONTINUOUS
 62
             7
100
AcDbLine
 10
21.49627050000004
 20
111.140181
 11
21.17985150000004
 21
111.74114899999999
  0
LINE
  5
3F9
100
AcDbEntity
  8
LC-002-002-----0
  6
CONTINUOUS
 62
             7
100
AcDbLine
 10
21.17985150000004
 20
111.74114899999999
 11
20.75310750000003
 21
112.22811400000001
  0
LINE
  5
3F8
100
AcDbEntity
  8
LC-002-002-----0
  6
CONTINUOUS
 62
             7
100
AcDbLine
 10
20.75310750000003
 20
112.22811400000001
 11
20.32636350000004
 21
112.715079
  0
LINE
  5
3F7
100
AcDbEntity
  8
LC-002-002-----0
  6
CONTINUOUS
 62
             7
100
AcDbLine
 10
20.32636350000004
 20
112.715079
 11
19.76901150000003
 21
113.05529300000001
  0
LINE
  5
3F6
100
AcDbEntity
  8
LC-002-002-----0
  6
CONTINUOUS
 62
             7
100
AcDbLine
 10
19.76901150000003
 20
113.05529300000001
 11
19.12458650000002
 21
113.297673
  0
LINE
  5
3F5
100
AcDbEntity
  8
LC-002-002-----0
  6
CONTINUOUS
 62
             7
100
AcDbLine
 10
19.12458650000002
 20
113.297673
 11
18.46508850000004
 21
113.5
  0
LINE
  5
3F4
100
AcDbEntity
  8
LC-002-002-----0
  6
CONTINUOUS
 62
             7
100
AcDbLine
 10
8.76177450000003
 20
105.83687500000001
 11
8.72837650000002
 21
106.623878
  0
LINE
  5
3F3
100
AcDbEntity
  8
LC-002-002-----0
  6
CONTINUOUS
 62
             7
100
AcDbLine
 10
8.72837650000002
 20
106.623878
 11
8.69497750000002
 21
107.410882
  0
LINE
  5
3F2
100
AcDbEntity
  8
LC-002-002-----0
  6
CONTINUOUS
 62
             7
100
AcDbLine
 10
8.69497750000002
 20
107.410882
 11
8.65038550000003
 21
108.161619
  0
LINE
  5
3F1
100
AcDbEntity
  8
LC-002-002-----0
  6
CONTINUOUS
 62
             7
100
AcDbLine
 10
8.65038550000003
 20
108.161619
 11
8.58900350000002
 21
108.857958
  0
LINE
  5
3F0
100
AcDbEntity
  8
LC-002-002-----0
  6
CONTINUOUS
 62
             7
100
AcDbLine
 10
8.58900350000002
 20
108.857958
 11
8.52762050000004
 21
109.55429599999999
  0
LINE
  5
3EF
100
AcDbEntity
  8
LC-002-002-----0
  6
CONTINUOUS
 62
             7
100
AcDbLine
 10
8.52762050000004
 20
109.55429599999999
 11
8.44452050000004
 21
110.14695
  0
LINE
  5
3EE
100
AcDbEntity
  8
LC-002-002-----0
  6
CONTINUOUS
 62
             7
100
AcDbLine
 10
8.44452050000004
 20
110.14695
 11
8.35599250000004
 21
110.713683
  0
LINE
  5
3ED
100
AcDbEntity
  8
LC-002-002-----0
  6
CONTINUOUS
 62
             7
100
AcDbLine
 10
8.35599250000004
 20
110.713683
 11
8.25809050000004
 21
111.256595
  0
LINE
  5
3EC
100
AcDbEntity
  8
LC-002-002-----0
  6
CONTINUOUS
 62
             7
100
AcDbLine
 10
8.25809050000004
 20
111.256595
 11
8.12269650000002
 21
111.70422499999999
  0
LINE
  5
3EB
100
AcDbEntity
  8
LC-002-002-----0
  6
CONTINUOUS
 62
             7
100
AcDbLine
 10
8.12269650000002
 20
111.70422499999999
 11
7.98730350000002
 21
112.151855
  0
LINE
  5
3EA
100
AcDbEntity
  8
LC-002-002-----0
  6
CONTINUOUS
 62
             7
100
AcDbLine
 10
7.98730350000002
 20
112.151855
 11
7.74866550000002
 21
112.615621
  0
LINE
  5
3E9
100
AcDbEntity
  8
LC-002-002-----0
  6
CONTINUOUS
 62
             7
100
AcDbLine
 10
7.74866550000002
 20
112.615621
 11
7.34628950000004
 21
113.11380200000001
  0
LINE
  5
3E8
100
AcDbEntity
  8
LC-002-002-----0
  6
CONTINUOUS
 62
             7
100
AcDbLine
 10
7.34628950000004
 20
113.11380200000001
 11
6.29809850000004
 21
113.5
  0
LINE
  5
3E7
100
AcDbEntity
  8
LC-002-002-----0
  6
CONTINUOUS
 62
             7
100
AcDbLine
 10
17.52319950000003
 20
3.625113
 11
17.52261750000002
 21
3.75412800000001
  0
LINE
  5
3E6
100
AcDbEntity
  8
LC-002-002-----0
  6
CONTINUOUS
 62
             7
100
AcDbLine
 10
17.52261750000002
 20
3.75412800000001
 11
17.52203450000002
 21
3.88314300000002
  0
LINE
  5
3E5
100
AcDbEntity
  8
LC-002-002-----0
  6
CONTINUOUS
 62
             7
100
AcDbLine
 10
17.52203450000002
 20
3.88314300000002
 11
17.52098550000002
 21
4.01208800000001
  0
LINE
  5
3E4
100
AcDbEntity
  8
LC-002-002-----0
  6
CONTINUOUS
 62
             7
100
AcDbLine
 10
17.52098550000002
 20
4.01208800000001
 11
17.51923750000003
 21
4.140927
  0
LINE
  5
3E3
100
AcDbEntity
  8
LC-002-002-----0
  6
CONTINUOUS
 62
             7
100
AcDbLine
 10
17.51923750000003
 20
4.140927
 11
17.51749050000004
 21
4.269767
  0
LINE
  5
3E2
100
AcDbEntity
  8
LC-002-002-----0
  6
CONTINUOUS
 62
             7
100
AcDbLine
 10
17.51749050000004
 20
4.269767
 11
17.51481350000003
 21
4.39832700000002
  0
LINE
  5
3E1
100
AcDbEntity
  8
LC-002-002-----0
  6
CONTINUOUS
 62
             7
100
AcDbLine
 10
17.51481350000003
 20
4.39832700000002
 11
17.51190350000002
 21
4.52681700000002
  0
LINE
  5
3E0
100
AcDbEntity
  8
LC-002-002-----0
  6
CONTINUOUS
 62
             7
100
AcDbLine
 10
17.51190350000002
 20
4.52681700000002
 11
17.50876250000002
 21
4.655202
  0
LINE
  5
3DF
100
AcDbEntity
  8
LC-002-002-----0
  6
CONTINUOUS
 62
             7
100
AcDbLine
 10
17.50876250000002
 20
4.655202
 11
17.50469650000002
 21
4.78316700000002
  0
LINE
  5
3DE
100
AcDbEntity
  8
LC-002-002-----0
  6
CONTINUOUS
 62
             7
100
AcDbLine
 10
17.50469650000002
 20
4.78316700000002
 11
17.50062950000003
 21
4.91113200000001
  0
LINE
  5
3DD
100
AcDbEntity
  8
LC-002-002-----0
  6
CONTINUOUS
 62
             7
100
AcDbLine
 10
17.50062950000003
 20
4.91113200000001
 11
17.49587250000002
 21
5.038678
  0
LINE
  5
3DC
100
AcDbEntity
  8
LC-002-002-----0
  6
CONTINUOUS
 62
             7
100
AcDbLine
 10
17.49587250000002
 20
5.038678
 11
17.49065650000003
 21
5.16594500000002
  0
LINE
  5
3DB
100
AcDbEntity
  8
LC-002-002-----0
  6
CONTINUOUS
 62
             7
100
AcDbLine
 10
17.49065650000003
 20
5.16594500000002
 11
17.48543950000004
 21
5.29321100000001
  0
LINE
  5
3DA
100
AcDbEntity
  8
LC-002-002-----0
  6
CONTINUOUS
 62
             7
100
AcDbLine
 10
74.82528950000003
 20
5.62206700000002
 11
57.11487250000002
 21
106.062834
  0
LINE
  5
3D9
100
AcDbEntity
  8
LC-002-002-----0
  6
CONTINUOUS
 62
             7
100
AcDbLine
 10
-17.52319949999995
 20
0.0
 11
-17.52319949999995
 21
3.625113
  0
LINE
  5
3D8
100
AcDbEntity
  8
LC-002-002-----0
  6
CONTINUOUS
 62
             7
100
AcDbLine
 10
53.47234850000004
 20
3.625113
 11
53.47051550000003
 21
3.773584
  0
LINE
  5
3D7
100
AcDbEntity
  8
LC-002-002-----0
  6
CONTINUOUS
 62
             7
100
AcDbLine
 10
53.47051550000003
 20
3.773584
 11
53.46868350000003
 21
3.922054
  0
LINE
  5
3D6
100
AcDbEntity
  8
LC-002-002-----0
  6
CONTINUOUS
 62
             7
100
AcDbLine
 10
53.46868350000003
 20
3.922054
 11
53.46538550000003
 21
4.07046200000002
  0
LINE
  5
3D5
100
AcDbEntity
  8
LC-002-002-----0
  6
CONTINUOUS
 62
             7
100
AcDbLine
 10
53.46538550000003
 20
4.07046200000002
 11
53.45988950000003
 21
4.21877800000001
  0
LINE
  5
3D4
100
AcDbEntity
  8
LC-002-002-----0
  6
CONTINUOUS
 62
             7
100
AcDbLine
 10
53.45988950000003
 20
4.21877800000001
 11
53.45439250000004
 21
4.36709300000001
  0
LINE
  5
3D3
100
AcDbEntity
  8
LC-002-002-----0
  6
CONTINUOUS
 62
             7
100
AcDbLine
 10
53.45439250000004
 20
4.36709300000001
 11
53.44596850000002
 21
4.51516100000001
  0
LINE
  5
3D2
100
AcDbEntity
  8
LC-002-002-----0
  6
CONTINUOUS
 62
             7
100
AcDbLine
 10
53.44596850000002
 20
4.51516100000001
 11
53.43681250000003
 21
4.66316700000002
  0
LINE
  5
3D1
100
AcDbEntity
  8
LC-002-002-----0
  6
CONTINUOUS
 62
             7
100
AcDbLine
 10
53.43681250000003
 20
4.66316700000002
 11
53.42692450000004
 21
4.81108
  0
LINE
  5
3D0
100
AcDbEntity
  8
LC-002-002-----0
  6
CONTINUOUS
 62
             7
100
AcDbLine
 10
53.42692450000004
 20
4.81108
 11
53.41411450000004
 21
4.95862100000002
  0
LINE
  5
3CF
100
AcDbEntity
  8
LC-002-002-----0
  6
CONTINUOUS
 62
             7
100
AcDbLine
 10
53.41411450000004
 20
4.95862100000002
 11
53.40130450000004
 21
5.10616300000001
  0
LINE
  5
3CE
100
AcDbEntity
  8
LC-002-002-----0
  6
CONTINUOUS
 62
             7
100
AcDbLine
 10
53.40130450000004
 20
5.10616300000001
 11
53.38630750000002
 21
5.25333400000002
  0
LINE
  5
3CD
100
AcDbEntity
  8
LC-002-002-----0
  6
CONTINUOUS
 62
             7
100
AcDbLine
 10
53.38630750000002
 20
5.25333400000002
 11
53.36985350000003
 21
5.40025800000001
  0
LINE
  5
3CC
100
AcDbEntity
  8
LC-002-002-----0
  6
CONTINUOUS
 62
             7
100
AcDbLine
 10
53.36985350000003
 20
5.40025800000001
 11
53.35339850000003
 21
5.54718100000002
  0
LINE
  5
3CB
100
AcDbEntity
  8
LC-002-002-----0
  6
CONTINUOUS
 62
             7
100
AcDbLine
 10
-46.14291249999999
 20
5.52168700000001
 11
-35.36149449999996
 21
105.962453
  0
LINE
  5
3CA
100
AcDbEntity
  8
LC-002-002-----0
  6
CONTINUOUS
 62
             7
100
AcDbLine
 10
98.50000050000003
 20
3.0
 11
93.00000050000003
 21
3.0
  0
LINE
  5
3C9
100
AcDbEntity
  8
LC-002-002-----0
  6
CONTINUOUS
 62
             7
100
AcDbLine
 10
-1.49999949999997
 20
0.0
 11
-1.49999949999997
 21
3.625113
  0
LINE
  5
3C8
100
AcDbEntity
  8
LC-002-002-----0
  6
CONTINUOUS
 62
             7
100
AcDbLine
 10
-11.07344849999998
 20
5.39610900000002
 11
-8.76177449999997
 21
105.83687500000001
  0
LINE
  5
3C7
100
AcDbEntity
  8
LC-002-002-----0
  6
CONTINUOUS
 62
             7
100
AcDbLine
 10
-35.36149449999996
 20
105.962453
 11
-35.18988249999998
 21
106.82871400000001
  0
LINE
  5
3C6
100
AcDbEntity
  8
LC-002-002-----0
  6
CONTINUOUS
 62
             7
100
AcDbLine
 10
-35.18988249999998
 20
106.82871400000001
 11
-35.0182705
 21
107.694975
  0
LINE
  5
3C5
100
AcDbEntity
  8
LC-002-002-----0
  6
CONTINUOUS
 62
             7
100
AcDbLine
 10
-35.0182705
 20
107.694975
 11
-34.78711149999995
 21
108.526229
  0
LINE
  5
3C4
100
AcDbEntity
  8
LC-002-002-----0
  6
CONTINUOUS
 62
             7
100
AcDbLine
 10
-34.78711149999995
 20
108.526229
 11
-34.46663349999997
 21
109.304975
  0
LINE
  5
3C3
100
AcDbEntity
  8
LC-002-002-----0
  6
CONTINUOUS
 62
             7
100
AcDbLine
 10
-34.46663349999997
 20
109.304975
 11
-34.14615449999999
 21
110.083721
  0
LINE
  5
3C2
100
AcDbEntity
  8
LC-002-002-----0
  6
CONTINUOUS
 62
             7
100
AcDbLine
 10
-34.14615449999999
 20
110.083721
 11
-33.70837649999996
 21
110.75258100000001
  0
LINE
  5
3C1
100
AcDbEntity
  8
LC-002-002-----0
  6
CONTINUOUS
 62
             7
100
AcDbLine
 10
-33.70837649999996
 20
110.75258100000001
 11
-33.24127349999995
 21
111.39397099999999
  0
LINE
  5
3C0
100
AcDbEntity
  8
LC-002-002-----0
  6
CONTINUOUS
 62
             7
100
AcDbLine
 10
-33.24127349999995
 20
111.39397099999999
 11
-32.74480550000001
 21
111.99626499999999
  0
LINE
  5
3BF
100
AcDbEntity
  8
LC-002-002-----0
  6
CONTINUOUS
 62
             7
100
AcDbLine
 10
-32.74480550000001
 20
111.99626499999999
 11
-32.13087849999997
 21
112.442179
  0
LINE
  5
3BE
100
AcDbEntity
  8
LC-002-002-----0
  6
CONTINUOUS
 62
             7
100
AcDbLine
 10
-32.13087849999997
 20
112.442179
 11
-31.51695249999997
 21
112.888094
  0
LINE
  5
3BD
100
AcDbEntity
  8
LC-002-002-----0
  6
CONTINUOUS
 62
             7
100
AcDbLine
 10
-31.51695249999997
 20
112.888094
 11
-30.83345849999998
 21
113.166507
  0
LINE
  5
3BC
100
AcDbEntity
  8
LC-002-002-----0
  6
CONTINUOUS
 62
             7
100
AcDbLine
 10
-30.83345849999998
 20
113.166507
 11
-30.10358649999998
 21
113.333254
  0
LINE
  5
3BB
100
AcDbEntity
  8
LC-002-002-----0
  6
CONTINUOUS
 62
             7
100
AcDbLine
 10
-30.10358649999998
 20
113.333254
 11
-29.37371449999998
 21
113.5
  0
LINE
  5
3BA
100
AcDbEntity
  8
LC-002-002-----0
  6
CONTINUOUS
 62
             7
100
AcDbLine
 10
-48.25160249999996
 20
113.5
 11
-47.83880349999996
 21
113.5
  0
LINE
  5
3B9
100
AcDbEntity
  8
LC-002-002-----0
  6
CONTINUOUS
 62
             7
100
AcDbLine
 10
35.17983450000003
 20
5.229861
 11
26.32462650000002
 21
105.670627
  0
LINE
  5
3B8
100
AcDbEntity
  8
LC-002-002-----0
  6
CONTINUOUS
 62
             7
100
AcDbLine
 10
-29.31303449999999
 20
105.934096
 11
-29.17477949999997
 21
106.783739
  0
LINE
  5
3B7
100
AcDbEntity
  8
LC-002-002-----0
  6
CONTINUOUS
 62
             7
100
AcDbLine
 10
-29.17477949999997
 20
106.783739
 11
-29.03652449999996
 21
107.633382
  0
LINE
  5
3B6
100
AcDbEntity
  8
LC-002-002-----0
  6
CONTINUOUS
 62
             7
100
AcDbLine
 10
-29.03652449999996
 20
107.633382
 11
-28.85000249999999
 21
108.449489
  0
LINE
  5
3B5
100
AcDbEntity
  8
LC-002-002-----0
  6
CONTINUOUS
 62
             7
100
AcDbLine
 10
-28.85000249999999
 20
108.449489
 11
-28.59107950000001
 21
109.215293
  0
LINE
  5
3B4
100
AcDbEntity
  8
LC-002-002-----0
  6
CONTINUOUS
 62
             7
100
AcDbLine
 10
-28.59107950000001
 20
109.215293
 11
-28.33215749999997
 21
109.98109599999999
  0
LINE
  5
3B3
100
AcDbEntity
  8
LC-002-002-----0
  6
CONTINUOUS
 62
             7
100
AcDbLine
 10
-28.33215749999997
 20
109.98109599999999
 11
-27.97386049999997
 21
110.64603099999999
  0
LINE
  5
3B2
100
AcDbEntity
  8
LC-002-002-----0
  6
CONTINUOUS
 62
             7
100
AcDbLine
 10
-27.97386049999997
 20
110.64603099999999
 11
-27.59071850000001
 21
111.285748
  0
LINE
  5
3B1
100
AcDbEntity
  8
LC-002-002-----0
  6
CONTINUOUS
 62
             7
100
AcDbLine
 10
-27.59071850000001
 20
111.285748
 11
-27.17816450000001
 21
111.89084200000001
  0
LINE
  5
3B0
100
AcDbEntity
  8
LC-002-002-----0
  6
CONTINUOUS
 62
             7
100
AcDbLine
 10
-27.17816450000001
 20
111.89084200000001
 11
-26.64795949999999
 21
112.357437
  0
LINE
  5
3AF
100
AcDbEntity
  8
LC-002-002-----0
  6
CONTINUOUS
 62
             7
100
AcDbLine
 10
-26.64795949999999
 20
112.357437
 11
-26.11775349999996
 21
112.824032
  0
LINE
  5
3AE
100
AcDbEntity
  8
LC-002-002-----0
  6
CONTINUOUS
 62
             7
100
AcDbLine
 10
-26.11775349999996
 20
112.824032
 11
-25.49582049999995
 21
113.127577
  0
LINE
  5
3AD
100
AcDbEntity
  8
LC-002-002-----0
  6
CONTINUOUS
 62
             7
100
AcDbLine
 10
-25.49582049999995
 20
113.127577
 11
-24.81273549999995
 21
113.322423
  0
LINE
  5
3AC
100
AcDbEntity
  8
LC-002-002-----0
  6
CONTINUOUS
 62
             7
100
AcDbLine
 10
-24.81273549999995
 20
113.322423
 11
-24.12580149999999
 21
113.5
  0
LINE
  5
3AB
100
AcDbEntity
  8
LC-002-002-----0
  6
CONTINUOUS
 62
             7
100
AcDbLine
 10
-45.62585849999996
 20
106.010172
 11
-45.3957025
 21
106.902063
  0
LINE
  5
3AA
100
AcDbEntity
  8
LC-002-002-----0
  6
CONTINUOUS
 62
             7
100
AcDbLine
 10
-45.3957025
 20
106.902063
 11
-45.16554649999998
 21
107.793955
  0
LINE
  5
3A9
100
AcDbEntity
  8
LC-002-002-----0
  6
CONTINUOUS
 62
             7
100
AcDbLine
 10
-45.16554649999998
 20
107.793955
 11
-44.85753149999997
 21
108.64621099999999
  0
LINE
  5
3A8
100
AcDbEntity
  8
LC-002-002-----0
  6
CONTINUOUS
 62
             7
100
AcDbLine
 10
-44.85753149999997
 20
108.64621099999999
 11
-44.43272749999997
 21
109.439015
  0
LINE
  5
3A7
100
AcDbEntity
  8
LC-002-002-----0
  6
CONTINUOUS
 62
             7
100
AcDbLine
 10
-44.43272749999997
 20
109.439015
 11
-44.00792349999998
 21
110.231819
  0
LINE
  5
3A6
100
AcDbEntity
  8
LC-002-002-----0
  6
CONTINUOUS
 62
             7
100
AcDbLine
 10
-44.00792349999998
 20
110.231819
 11
-43.44260349999993
 21
110.897567
  0
LINE
  5
3A5
100
AcDbEntity
  8
LC-002-002-----0
  6
CONTINUOUS
 62
             7
100
AcDbLine
 10
-43.44260349999993
 20
110.897567
 11
-42.84215549999996
 21
111.531552
  0
LINE
  5
3A4
100
AcDbEntity
  8
LC-002-002-----0
  6
CONTINUOUS
 62
             7
100
AcDbLine
 10
-42.84215549999996
 20
111.531552
 11
-42.21323749999996
 21
112.121926
  0
LINE
  5
3A3
100
AcDbEntity
  8
LC-002-002-----0
  6
CONTINUOUS
 62
             7
100
AcDbLine
 10
-42.21323749999996
 20
112.121926
 11
-41.47044049999997
 21
112.537851
  0
LINE
  5
3A2
100
AcDbEntity
  8
LC-002-002-----0
  6
CONTINUOUS
 62
             7
100
AcDbLine
 10
-41.47044049999997
 20
112.537851
 11
-40.72764249999997
 21
112.953777
  0
LINE
  5
3A1
100
AcDbEntity
  8
LC-002-002-----0
  6
CONTINUOUS
 62
             7
100
AcDbLine
 10
-40.72764249999997
 20
112.953777
 11
-39.9343805
 21
113.20780600000001
  0
LINE
  5
3A0
100
AcDbEntity
  8
LC-002-002-----0
  6
CONTINUOUS
 62
             7
100
AcDbLine
 10
-39.9343805
 20
113.20780600000001
 11
-39.10747549999999
 21
113.353903
  0
LINE
  5
39F
100
AcDbEntity
  8
LC-002-002-----0
  6
CONTINUOUS
 62
             7
100
AcDbLine
 10
-39.10747549999999
 20
113.353903
 11
-38.28056949999998
 21
113.5
  0
LINE
  5
39E
100
AcDbEntity
  8
LC-002-002-----0
  6
CONTINUOUS
 62
             7
100
AcDbLine
 10
69.49554850000001
 20
0.0
 11
69.49554850000001
 21
3.625113
  0
LINE
  5
39D
100
AcDbEntity
  8
LC-002-002-----0
  6
CONTINUOUS
 62
             7
100
AcDbLine
 10
-26.62723249999996
 20
3.625113
 11
-26.62638749999999
 21
3.751633
  0
LINE
  5
39C
100
AcDbEntity
  8
LC-002-002-----0
  6
CONTINUOUS
 62
             7
100
AcDbLine
 10
-26.62638749999999
 20
3.751633
 11
-26.62554149999997
 21
3.878153
  0
LINE
  5
39B
100
AcDbEntity
  8
LC-002-002-----0
  6
CONTINUOUS
 62
             7
100
AcDbLine
 10
-26.62554149999997
 20
3.878153
 11
-26.62402149999994
 21
4.00460100000001
  0
LINE
  5
39A
100
AcDbEntity
  8
LC-002-002-----0
  6
CONTINUOUS
 62
             7
100
AcDbLine
 10
-26.62402149999994
 20
4.00460100000001
 11
-26.62148749999997
 21
4.130943
  0
LINE
  5
399
100
AcDbEntity
  8
LC-002-002-----0
  6
CONTINUOUS
 62
             7
100
AcDbLine
 10
-26.62148749999997
 20
4.130943
 11
-26.6189535
 21
4.257284
  0
LINE
  5
398
100
AcDbEntity
  8
LC-002-002-----0
  6
CONTINUOUS
 62
             7
100
AcDbLine
 10
-26.6189535
 20
4.257284
 11
-26.61507249999997
 21
4.383341
  0
LINE
  5
397
100
AcDbEntity
  8
LC-002-002-----0
  6
CONTINUOUS
 62
             7
100
AcDbLine
 10
-26.61507249999997
 20
4.383341
 11
-26.61085449999999
 21
4.50932600000002
  0
LINE
  5
396
100
AcDbEntity
  8
LC-002-002-----0
  6
CONTINUOUS
 62
             7
100
AcDbLine
 10
-26.61085449999999
 20
4.50932600000002
 11
-26.6063015
 21
4.63520400000002
  0
LINE
  5
395
100
AcDbEntity
  8
LC-002-002-----0
  6
CONTINUOUS
 62
             7
100
AcDbLine
 10
-26.6063015
 20
4.63520400000002
 11
-26.60040649999999
 21
4.76065500000001
  0
LINE
  5
394
100
AcDbEntity
  8
LC-002-002-----0
  6
CONTINUOUS
 62
             7
100
AcDbLine
 10
-26.60040649999999
 20
4.76065500000001
 11
-26.59451249999998
 21
4.88610600000001
  0
LINE
  5
393
100
AcDbEntity
  8
LC-002-002-----0
  6
CONTINUOUS
 62
             7
100
AcDbLine
 10
-26.59451249999998
 20
4.88610600000001
 11
-26.58761849999999
 21
5.01113000000001
  0
LINE
  5
392
100
AcDbEntity
  8
LC-002-002-----0
  6
CONTINUOUS
 62
             7
100
AcDbLine
 10
-26.58761849999999
 20
5.01113000000001
 11
-26.58005749999998
 21
5.13586900000001
  0
LINE
  5
391
100
AcDbEntity
  8
LC-002-002-----0
  6
CONTINUOUS
 62
             7
100
AcDbLine
 10
-26.58005749999998
 20
5.13586900000001
 11
-26.57249749999997
 21
5.26060900000002
  0
LINE
  5
390
100
AcDbEntity
  8
LC-002-002-----0
  6
CONTINUOUS
 62
             7
100
AcDbLine
 10
-38.16824249999993
 20
5.49332900000002
 11
-29.31303449999999
 21
105.934096
  0
LINE
  5
38F
100
AcDbEntity
  8
LC-002-002-----0
  6
CONTINUOUS
 62
             7
100
AcDbLine
 10
-98.49999949999997
 20
0.0
 11
-92.99999949999997
 21
0.0
  0
LINE
  5
38E
100
AcDbEntity
  8
LC-002-002-----0
  6
CONTINUOUS
 62
             7
100
AcDbLine
 10
-69.40514549999998
 20
0.0
 11
-69.40514549999998
 21
3.625113
  0
LINE
  5
38D
100
AcDbEntity
  8
LC-002-002-----0
  6
CONTINUOUS
 62
             7
100
AcDbLine
 10
-55.22055849999995
 20
106.054213
 11
-54.9340685
 21
106.966847
  0
LINE
  5
38C
100
AcDbEntity
  8
LC-002-002-----0
  6
CONTINUOUS
 62
             7
100
AcDbLine
 10
-54.9340685
 20
106.966847
 11
-54.64757849999998
 21
107.879482
  0
LINE
  5
38B
100
AcDbEntity
  8
LC-002-002-----0
  6
CONTINUOUS
 62
             7
100
AcDbLine
 10
-54.64757849999998
 20
107.879482
 11
-54.26757349999994
 21
108.746414
  0
LINE
  5
38A
100
AcDbEntity
  8
LC-002-002-----0
  6
CONTINUOUS
 62
             7
100
AcDbLine
 10
-54.26757349999994
 20
108.746414
 11
-53.74729449999998
 21
109.544794
  0
LINE
  5
389
100
AcDbEntity
  8
LC-002-002-----0
  6
CONTINUOUS
 62
             7
100
AcDbLine
 10
-53.74729449999998
 20
109.544794
 11
-53.22701549999997
 21
110.343174
  0
LINE
  5
388
100
AcDbEntity
  8
LC-002-002-----0
  6
CONTINUOUS
 62
             7
100
AcDbLine
 10
-53.22701549999997
 20
110.343174
 11
-52.5501055
 21
111.000373
  0
LINE
  5
387
100
AcDbEntity
  8
LC-002-002-----0
  6
CONTINUOUS
 62
             7
100
AcDbLine
 10
-52.5501055
 20
111.000373
 11
-51.83403949999993
 21
111.622277
  0
LINE
  5
386
100
AcDbEntity
  8
LC-002-002-----0
  6
CONTINUOUS
 62
             7
100
AcDbLine
 10
-51.83403949999993
 20
111.622277
 11
-51.08964749999998
 21
112.198849
  0
LINE
  5
385
100
AcDbEntity
  8
LC-002-002-----0
  6
CONTINUOUS
 62
             7
100
AcDbLine
 10
-51.08964749999998
 20
112.198849
 11
-50.23195549999994
 21
112.594095
  0
LINE
  5
384
100
AcDbEntity
  8
LC-002-002-----0
  6
CONTINUOUS
 62
             7
100
AcDbLine
 10
-50.23195549999994
 20
112.594095
 11
-49.37426350000001
 21
112.98934
  0
LINE
  5
383
100
AcDbEntity
  8
LC-002-002-----0
  6
CONTINUOUS
 62
             7
100
AcDbLine
 10
-49.37426350000001
 20
112.98934
 11
-48.47186749999995
 21
113.228799
  0
LINE
  5
382
100
AcDbEntity
  8
LC-002-002-----0
  6
CONTINUOUS
 62
             7
100
AcDbLine
 10
-48.47186749999995
 20
113.228799
 11
-47.53966749999998
 21
113.36439900000001
  0
LINE
  5
381
100
AcDbEntity
  8
LC-002-002-----0
  6
CONTINUOUS
 62
             7
100
AcDbLine
 10
-47.53966749999998
 20
113.36439900000001
 11
-46.60746850000001
 21
113.5
  0
LINE
  5
380
100
AcDbEntity
  8
LC-002-002-----0
  6
CONTINUOUS
 62
             7
100
AcDbLine
 10
-74.82528949999997
 20
5.62206700000002
 11
-57.11487249999996
 21
106.062834
  0
LINE
  5
37F
100
AcDbEntity
  8
LC-002-002-----0
  6
CONTINUOUS
 62
             7
100
AcDbLine
 10
-8.09367549999996
 20
0.0
 11
-8.09367549999996
 21
3.625113
  0
LINE
  5
37E
100
AcDbEntity
  8
LC-002-002-----0
  6
CONTINUOUS
 62
             7
100
AcDbLine
 10
42.65478850000002
 20
105.59455
 11
42.52137750000003
 21
106.112883
  0
LINE
  5
37D
100
AcDbEntity
  8
LC-002-002-----0
  6
CONTINUOUS
 62
             7
100
AcDbLine
 10
42.52137750000003
 20
106.112883
 11
42.38796550000004
 21
106.631215
  0
LINE
  5
37C
100
AcDbEntity
  8
LC-002-002-----0
  6
CONTINUOUS
 62
             7
100
AcDbLine
 10
42.38796550000004
 20
106.631215
 11
42.25455450000004
 21
107.149547
  0
LINE
  5
37B
100
AcDbEntity
  8
LC-002-002-----0
  6
CONTINUOUS
 62
             7
100
AcDbLine
 10
42.25455450000004
 20
107.149547
 11
42.03884850000003
 21
107.60364
  0
LINE
  5
37A
100
AcDbEntity
  8
LC-002-002-----0
  6
CONTINUOUS
 62
             7
100
AcDbLine
 10
42.03884850000003
 20
107.60364
 11
41.80421350000003
 21
108.04295500000001
  0
LINE
  5
379
100
AcDbEntity
  8
LC-002-002-----0
  6
CONTINUOUS
 62
             7
100
AcDbLine
 10
41.80421350000003
 20
108.04295500000001
 11
41.56957950000003
 21
108.482271
  0
LINE
  5
378
100
AcDbEntity
  8
LC-002-002-----0
  6
CONTINUOUS
 62
             7
100
AcDbLine
 10
41.56957950000003
 20
108.482271
 11
41.29006250000003
 21
108.849953
  0
LINE
  5
377
100
AcDbEntity
  8
LC-002-002-----0
  6
CONTINUOUS
 62
             7
100
AcDbLine
 10
41.29006250000003
 20
108.849953
 11
40.98373050000004
 21
109.174835
  0
LINE
  5
376
100
AcDbEntity
  8
LC-002-002-----0
  6
CONTINUOUS
 62
             7
100
AcDbLine
 10
40.98373050000004
 20
109.174835
 11
40.67739850000004
 21
109.499717
  0
LINE
  5
375
100
AcDbEntity
  8
LC-002-002-----0
  6
CONTINUOUS
 62
             7
100
AcDbLine
 10
40.67739850000004
 20
109.499717
 11
40.35474650000003
 21
109.76694000000001
  0
LINE
  5
374
100
AcDbEntity
  8
LC-002-002-----0
  6
CONTINUOUS
 62
             7
100
AcDbLine
 10
40.35474650000003
 20
109.76694000000001
 11
40.01123950000002
 21
109.960475
  0
LINE
  5
373
100
AcDbEntity
  8
LC-002-002-----0
  6
CONTINUOUS
 62
             7
100
AcDbLine
 10
40.01123950000002
 20
109.960475
 11
39.66773250000003
 21
110.15401
  0
LINE
  5
372
100
AcDbEntity
  8
LC-002-002-----0
  6
CONTINUOUS
 62
             7
100
AcDbLine
 10
39.66773250000003
 20
110.15401
 11
39.32198650000004
 21
110.32953999999999
  0
LINE
  5
371
100
AcDbEntity
  8
LC-002-002-----0
  6
CONTINUOUS
 62
             7
100
AcDbLine
 10
-1.49999949999997
 20
5.36159500000002
 11
-1.49999949999997
 21
105.802361
  0
LINE
  5
370
100
AcDbEntity
  8
LC-002-002-----0
  6
CONTINUOUS
 62
             7
100
AcDbLine
 10
-34.11903549999997
 20
113.5
 11
-29.37371449999998
 21
113.5
  0
LINE
  5
36F
100
AcDbEntity
  8
LC-002-002-----0
  6
CONTINUOUS
 62
             7
100
AcDbLine
 10
-35.24999949999997
 20
3.625113
 11
-35.24891649999998
 21
3.74927000000002
  0
LINE
  5
36E
100
AcDbEntity
  8
LC-002-002-----0
  6
CONTINUOUS
 62
             7
100
AcDbLine
 10
-35.24891649999998
 20
3.74927000000002
 11
-35.24783249999999
 21
3.87342800000002
  0
LINE
  5
36D
100
AcDbEntity
  8
LC-002-002-----0
  6
CONTINUOUS
 62
             7
100
AcDbLine
 10
-35.24783249999999
 20
3.87342800000002
 11
-35.24588349999996
 21
3.997513
  0
LINE
  5
36C
100
AcDbEntity
  8
LC-002-002-----0
  6
CONTINUOUS
 62
             7
100
AcDbLine
 10
-35.24588349999996
 20
3.997513
 11
-35.24263449999998
 21
4.12149100000002
  0
LINE
  5
36B
100
AcDbEntity
  8
LC-002-002-----0
  6
CONTINUOUS
 62
             7
100
AcDbLine
 10
-35.24263449999998
 20
4.12149100000002
 11
-35.23938549999994
 21
4.24546900000001
  0
LINE
  5
36A
100
AcDbEntity
  8
LC-002-002-----0
  6
CONTINUOUS
 62
             7
100
AcDbLine
 10
-35.23938549999994
 20
4.24546900000001
 11
-35.2344105
 21
4.36916100000002
  0
LINE
  5
369
100
AcDbEntity
  8
LC-002-002-----0
  6
CONTINUOUS
 62
             7
100
AcDbLine
 10
-35.2344105
 20
4.36916100000002
 11
-35.22900250000001
 21
4.49278200000001
  0
LINE
  5
368
100
AcDbEntity
  8
LC-002-002-----0
  6
CONTINUOUS
 62
             7
100
AcDbLine
 10
-35.22900250000001
 20
4.49278200000001
 11
-35.22316549999997
 21
4.61629500000001
  0
LINE
  5
367
100
AcDbEntity
  8
LC-002-002-----0
  6
CONTINUOUS
 62
             7
100
AcDbLine
 10
-35.22316549999997
 20
4.61629500000001
 11
-35.21560849999995
 21
4.73938000000001
  0
LINE
  5
366
100
AcDbEntity
  8
LC-002-002-----0
  6
CONTINUOUS
 62
             7
100
AcDbLine
 10
-35.21560849999995
 20
4.73938000000001
 11
-35.20805249999998
 21
4.86246400000002
  0
LINE
  5
365
100
AcDbEntity
  8
LC-002-002-----0
  6
CONTINUOUS
 62
             7
100
AcDbLine
 10
-35.20805249999998
 20
4.86246400000002
 11
-35.19921549999995
 21
4.98512000000002
  0
LINE
  5
364
100
AcDbEntity
  8
LC-002-002-----0
  6
CONTINUOUS
 62
             7
100
AcDbLine
 10
-35.19921549999995
 20
4.98512000000002
 11
-35.18952549999997
 21
5.10749100000001
  0
LINE
  5
363
100
AcDbEntity
  8
LC-002-002-----0
  6
CONTINUOUS
 62
             7
100
AcDbLine
 10
-35.18952549999997
 20
5.10749100000001
 11
-35.1798345
 21
5.229861
  0
LINE
  5
362
100
AcDbEntity
  8
LC-002-002-----0
  6
CONTINUOUS
 62
             7
100
AcDbLine
 10
8.09367550000002
 20
0.0
 11
8.09367550000002
 21
3.625113
  0
LINE
  5
361
100
AcDbEntity
  8
LC-002-002-----0
  6
CONTINUOUS
 62
             7
100
AcDbLine
 10
-76.49999949999997
 20
-3.0
 11
76.50000050000003
 21
-3.0
  0
LINE
  5
360
100
AcDbEntity
  8
LC-002-002-----0
  6
CONTINUOUS
 62
             7
100
AcDbLine
 10
72.32750850000005
 20
5.61344700000001
 11
55.22055950000004
 21
106.054213
  0
LINE
  5
35F
100
AcDbEntity
  8
LC-002-002-----0
  6
CONTINUOUS
 62
             7
100
AcDbLine
 10
17.48543950000004
 20
5.29321100000001
 11
12.90164550000003
 21
105.733977
  0
LINE
  5
35E
100
AcDbEntity
  8
LC-002-002-----0
  6
CONTINUOUS
 62
             7
100
AcDbLine
 10
12.90164550000003
 20
105.733977
 11
12.89054150000004
 21
105.86982500000001
  0
LINE
  5
35D
100
AcDbEntity
  8
LC-002-002-----0
  6
CONTINUOUS
 62
             7
100
AcDbLine
 10
12.89054150000004
 20
105.86982500000001
 11
12.87943750000002
 21
106.005673
  0
LINE
  5
35C
100
AcDbEntity
  8
LC-002-002-----0
  6
CONTINUOUS
 62
             7
100
AcDbLine
 10
12.87943750000002
 20
106.005673
 11
12.86833350000003
 21
106.141521
  0
LINE
  5
35B
100
AcDbEntity
  8
LC-002-002-----0
  6
CONTINUOUS
 62
             7
100
AcDbLine
 10
12.86833350000003
 20
106.141521
 11
12.85722950000002
 21
106.27736899999999
  0
LINE
  5
35A
100
AcDbEntity
  8
LC-002-002-----0
  6
CONTINUOUS
 62
             7
100
AcDbLine
 10
12.85722950000002
 20
106.27736899999999
 11
12.84612550000003
 21
106.413217
  0
LINE
  5
359
100
AcDbEntity
  8
LC-002-002-----0
  6
CONTINUOUS
 62
             7
100
AcDbLine
 10
12.84612550000003
 20
106.413217
 11
12.83502150000004
 21
106.549065
  0
LINE
  5
358
100
AcDbEntity
  8
LC-002-002-----0
  6
CONTINUOUS
 62
             7
100
AcDbLine
 10
12.83502150000004
 20
106.549065
 11
12.82391750000002
 21
106.68491299999999
  0
LINE
  5
357
100
AcDbEntity
  8
LC-002-002-----0
  6
CONTINUOUS
 62
             7
100
AcDbLine
 10
12.82391750000002
 20
106.68491299999999
 11
12.81281350000003
 21
106.820761
  0
LINE
  5
356
100
AcDbEntity
  8
LC-002-002-----0
  6
CONTINUOUS
 62
             7
100
AcDbLine
 10
12.81281350000003
 20
106.820761
 11
12.80170850000002
 21
106.956608
  0
LINE
  5
355
100
AcDbEntity
  8
LC-002-002-----0
  6
CONTINUOUS
 62
             7
100
AcDbLine
 10
12.80170850000002
 20
106.956608
 11
12.79060450000003
 21
107.092456
  0
LINE
  5
354
100
AcDbEntity
  8
LC-002-002-----0
  6
CONTINUOUS
 62
             7
100
AcDbLine
 10
12.79060450000003
 20
107.092456
 11
12.77950050000004
 21
107.22830399999999
  0
LINE
  5
353
100
AcDbEntity
  8
LC-002-002-----0
  6
CONTINUOUS
 62
             7
100
AcDbLine
 10
12.77950050000004
 20
107.22830399999999
 11
12.76839650000002
 21
107.364152
  0
LINE
  5
352
100
AcDbEntity
  8
LC-002-002-----0
  6
CONTINUOUS
 62
             7
100
AcDbLine
 10
12.76839650000002
 20
107.364152
 11
12.75729250000003
 21
107.5
  0
LINE
  5
351
100
AcDbEntity
  8
LC-002-002-----0
  6
CONTINUOUS
 62
             7
100
AcDbLine
 10
-20.48231949999993
 20
5.429979
 11
-15.89852649999997
 21
105.870745
  0
LINE
  5
350
100
AcDbEntity
  8
LC-002-002-----0
  6
CONTINUOUS
 62
             7
100
AcDbLine
 10
11.07344850000004
 20
5.39610900000002
 11
8.76177450000003
 21
105.83687500000001
  0
LINE
  5
34F
100
AcDbEntity
  8
LC-002-002-----0
  6
CONTINUOUS
 62
             7
100
AcDbLine
 10
69.40514550000003
 20
3.625113
 11
69.40268150000006
 21
3.77794600000001
  0
LINE
  5
34E
100
AcDbEntity
  8
LC-002-002-----0
  6
CONTINUOUS
 62
             7
100
AcDbLine
 10
69.40268150000006
 20
3.77794600000001
 11
69.40021650000003
 21
3.930778
  0
LINE
  5
34D
100
AcDbEntity
  8
LC-002-002-----0
  6
CONTINUOUS
 62
             7
100
AcDbLine
 10
69.40021650000003
 20
3.930778
 11
69.39578150000003
 21
4.083539
  0
LINE
  5
34C
100
AcDbEntity
  8
LC-002-002-----0
  6
CONTINUOUS
 62
             7
100
AcDbLine
 10
69.39578150000003
 20
4.083539
 11
69.38838950000005
 21
4.23619500000001
  0
LINE
  5
34B
100
AcDbEntity
  8
LC-002-002-----0
  6
CONTINUOUS
 62
             7
100
AcDbLine
 10
69.38838950000005
 20
4.23619500000001
 11
69.3809985
 21
4.38885100000002
  0
LINE
  5
34A
100
AcDbEntity
  8
LC-002-002-----0
  6
CONTINUOUS
 62
             7
100
AcDbLine
 10
69.3809985
 20
4.38885100000002
 11
69.36967150000001
 21
4.541225
  0
LINE
  5
349
100
AcDbEntity
  8
LC-002-002-----0
  6
CONTINUOUS
 62
             7
100
AcDbLine
 10
69.36967150000001
 20
4.541225
 11
69.35736050000006
 21
4.69352900000001
  0
LINE
  5
348
100
AcDbEntity
  8
LC-002-002-----0
  6
CONTINUOUS
 62
             7
100
AcDbLine
 10
69.35736050000006
 20
4.69352900000001
 11
69.34406850000002
 21
4.84572700000001
  0
LINE
  5
347
100
AcDbEntity
  8
LC-002-002-----0
  6
CONTINUOUS
 62
             7
100
AcDbLine
 10
69.34406850000002
 20
4.84572700000001
 11
69.3268515
 21
4.997502
  0
LINE
  5
346
100
AcDbEntity
  8
LC-002-002-----0
  6
CONTINUOUS
 62
             7
100
AcDbLine
 10
69.3268515
 20
4.997502
 11
69.30963450000004
 21
5.14927700000001
  0
LINE
  5
345
100
AcDbEntity
  8
LC-002-002-----0
  6
CONTINUOUS
 62
             7
100
AcDbLine
 10
69.30963450000004
 20
5.14927700000001
 11
69.28948450000004
 21
5.30063000000001
  0
LINE
  5
344
100
AcDbEntity
  8
LC-002-002-----0
  6
CONTINUOUS
 62
             7
100
AcDbLine
 10
69.28948450000004
 20
5.30063000000001
 11
69.26737750000004
 21
5.45170200000001
  0
LINE
  5
343
100
AcDbEntity
  8
LC-002-002-----0
  6
CONTINUOUS
 62
             7
100
AcDbLine
 10
69.26737750000004
 20
5.45170200000001
 11
69.24527150000003
 21
5.60277300000001
  0
LINE
  5
342
100
AcDbEntity
  8
LC-002-002-----0
  6
CONTINUOUS
 62
             7
100
AcDbLine
 10
74.19816550000004
 20
5.61990500000002
 11
56.63926350000003
 21
106.060672
  0
LINE
  5
341
100
AcDbEntity
  8
LC-002-002-----0
  6
CONTINUOUS
 62
             7
100
AcDbLine
 10
62.03848750000003
 20
5.135164
 11
46.70081650000003
 21
105.575931
  0
LINE
  5
340
100
AcDbEntity
  8
LC-002-002-----0
  6
CONTINUOUS
 62
             7
100
AcDbLine
 10
5.76256950000004
 20
105.767848
 11
5.75720250000003
 21
105.90109
  0
LINE
  5
33F
100
AcDbEntity
  8
LC-002-002-----0
  6
CONTINUOUS
 62
             7
100
AcDbLine
 10
5.75720250000003
 20
105.90109
 11
5.75183550000003
 21
106.034333
  0
LINE
  5
33E
100
AcDbEntity
  8
LC-002-002-----0
  6
CONTINUOUS
 62
             7
100
AcDbLine
 10
5.75183550000003
 20
106.034333
 11
5.74646850000002
 21
106.167575
  0
LINE
  5
33D
100
AcDbEntity
  8
LC-002-002-----0
  6
CONTINUOUS
 62
             7
100
AcDbLine
 10
5.74646850000002
 20
106.167575
 11
5.74110150000004
 21
106.30081800000001
  0
LINE
  5
33C
100
AcDbEntity
  8
LC-002-002-----0
  6
CONTINUOUS
 62
             7
100
AcDbLine
 10
5.74110150000004
 20
106.30081800000001
 11
5.73573450000004
 21
106.43406
  0
LINE
  5
33B
100
AcDbEntity
  8
LC-002-002-----0
  6
CONTINUOUS
 62
             7
100
AcDbLine
 10
5.73573450000004
 20
106.43406
 11
5.73036750000003
 21
106.567303
  0
LINE
  5
33A
100
AcDbEntity
  8
LC-002-002-----0
  6
CONTINUOUS
 62
             7
100
AcDbLine
 10
5.73036750000003
 20
106.567303
 11
5.72500050000002
 21
106.70054500000001
  0
LINE
  5
339
100
AcDbEntity
  8
LC-002-002-----0
  6
CONTINUOUS
 62
             7
100
AcDbLine
 10
5.72500050000002
 20
106.70054500000001
 11
5.71963450000004
 21
106.833788
  0
LINE
  5
338
100
AcDbEntity
  8
LC-002-002-----0
  6
CONTINUOUS
 62
             7
100
AcDbLine
 10
5.71963450000004
 20
106.833788
 11
5.71426750000003
 21
106.96702999999999
  0
LINE
  5
337
100
AcDbEntity
  8
LC-002-002-----0
  6
CONTINUOUS
 62
             7
100
AcDbLine
 10
5.71426750000003
 20
106.96702999999999
 11
5.70890050000003
 21
107.100273
  0
LINE
  5
336
100
AcDbEntity
  8
LC-002-002-----0
  6
CONTINUOUS
 62
             7
100
AcDbLine
 10
5.70890050000003
 20
107.100273
 11
5.70353350000002
 21
107.233515
  0
LINE
  5
335
100
AcDbEntity
  8
LC-002-002-----0
  6
CONTINUOUS
 62
             7
100
AcDbLine
 10
5.70353350000002
 20
107.233515
 11
5.69816650000004
 21
107.366758
  0
LINE
  5
334
100
AcDbEntity
  8
LC-002-002-----0
  6
CONTINUOUS
 62
             7
100
AcDbLine
 10
5.69816650000004
 20
107.366758
 11
5.69279950000004
 21
107.5
  0
LINE
  5
333
100
AcDbEntity
  8
LC-002-002-----0
  6
CONTINUOUS
 62
             7
100
AcDbLine
 10
46.24396550000003
 20
3.625113
 11
46.24240850000004
 21
3.771604
  0
LINE
  5
332
100
AcDbEntity
  8
LC-002-002-----0
  6
CONTINUOUS
 62
             7
100
AcDbLine
 10
46.24240850000004
 20
3.771604
 11
46.24085150000002
 21
3.918094
  0
LINE
  5
331
100
AcDbEntity
  8
LC-002-002-----0
  6
CONTINUOUS
 62
             7
100
AcDbLine
 10
46.24085150000002
 20
3.918094
 11
46.23805050000004
 21
4.064525
  0
LINE
  5
330
100
AcDbEntity
  8
LC-002-002-----0
  6
CONTINUOUS
 62
             7
100
AcDbLine
 10
46.23805050000004
 20
4.064525
 11
46.23338150000004
 21
4.21086500000001
  0
LINE
  5
32F
100
AcDbEntity
  8
LC-002-002-----0
  6
CONTINUOUS
 62
             7
100
AcDbLine
 10
46.23338150000004
 20
4.21086500000001
 11
46.22871250000003
 21
4.35720500000002
  0
LINE
  5
32E
100
AcDbEntity
  8
LC-002-002-----0
  6
CONTINUOUS
 62
             7
100
AcDbLine
 10
46.22871250000003
 20
4.35720500000002
 11
46.22155650000002
 21
4.50330500000001
  0
LINE
  5
32D
100
AcDbEntity
  8
LC-002-002-----0
  6
CONTINUOUS
 62
             7
100
AcDbLine
 10
46.22155650000002
 20
4.50330500000001
 11
46.21377850000002
 21
4.64934500000001
  0
LINE
  5
32C
100
AcDbEntity
  8
LC-002-002-----0
  6
CONTINUOUS
 62
             7
100
AcDbLine
 10
46.21377850000002
 20
4.64934500000001
 11
46.20537950000002
 21
4.79529500000001
  0
LINE
  5
32B
100
AcDbEntity
  8
LC-002-002-----0
  6
CONTINUOUS
 62
             7
100
AcDbLine
 10
46.20537950000002
 20
4.79529500000001
 11
46.19449650000004
 21
4.94088500000001
  0
LINE
  5
32A
100
AcDbEntity
  8
LC-002-002-----0
  6
CONTINUOUS
 62
             7
100
AcDbLine
 10
46.19449650000004
 20
4.94088500000001
 11
46.18361350000004
 21
5.08647500000001
  0
LINE
  5
329
100
AcDbEntity
  8
LC-002-002-----0
  6
CONTINUOUS
 62
             7
100
AcDbLine
 10
46.18361350000004
 20
5.08647500000001
 11
46.17087250000003
 21
5.23170500000001
  0
LINE
  5
328
100
AcDbEntity
  8
LC-002-002-----0
  6
CONTINUOUS
 62
             7
100
AcDbLine
 10
46.17087250000003
 20
5.23170500000001
 11
46.15689250000003
 21
5.37669600000001
  0
LINE
  5
327
100
AcDbEntity
  8
LC-002-002-----0
  6
CONTINUOUS
 62
             7
100
AcDbLine
 10
46.15689250000003
 20
5.37669600000001
 11
46.14291250000002
 21
5.52168700000001
  0
LINE
  5
326
100
AcDbEntity
  8
LC-002-002-----0
  6
CONTINUOUS
 62
             7
100
AcDbLine
 10
65.15286750000004
 20
0.0
 11
65.15286750000004
 21
3.625113
  0
LINE
  5
325
100
AcDbEntity
  8
LC-002-002-----0
  6
CONTINUOUS
 62
             7
100
AcDbLine
 10
32.37862950000002
 20
105.642269
 11
32.24815350000003
 21
106.303257
  0
LINE
  5
324
100
AcDbEntity
  8
LC-002-002-----0
  6
CONTINUOUS
 62
             7
100
AcDbLine
 10
32.24815350000003
 20
106.303257
 11
32.11767850000004
 21
106.96424399999999
  0
LINE
  5
323
100
AcDbEntity
  8
LC-002-002-----0
  6
CONTINUOUS
 62
             7
100
AcDbLine
 10
32.11767850000004
 20
106.96424399999999
 11
31.94892250000004
 21
107.58186000000001
  0
LINE
  5
322
100
AcDbEntity
  8
LC-002-002-----0
  6
CONTINUOUS
 62
             7
100
AcDbLine
 10
31.94892250000004
 20
107.58186000000001
 11
31.72274750000003
 21
108.13441899999999
  0
LINE
  5
321
100
AcDbEntity
  8
LC-002-002-----0
  6
CONTINUOUS
 62
             7
100
AcDbLine
 10
31.72274750000003
 20
108.13441899999999
 11
31.49657350000004
 21
108.686978
  0
LINE
  5
320
100
AcDbEntity
  8
LC-002-002-----0
  6
CONTINUOUS
 62
             7
100
AcDbLine
 10
31.49657350000004
 20
108.686978
 11
31.22592750000004
 21
109.110151
  0
LINE
  5
31F
100
AcDbEntity
  8
LC-002-002-----0
  6
CONTINUOUS
 62
             7
100
AcDbLine
 10
31.22592750000004
 20
109.110151
 11
30.94416450000003
 21
109.500978
  0
LINE
  5
31E
100
AcDbEntity
  8
LC-002-002-----0
  6
CONTINUOUS
 62
             7
100
AcDbLine
 10
30.94416450000003
 20
109.500978
 11
30.66292750000002
 21
109.855087
  0
LINE
  5
31D
100
AcDbEntity
  8
LC-002-002-----0
  6
CONTINUOUS
 62
             7
100
AcDbLine
 10
30.66292750000002
 20
109.855087
 11
30.38379450000002
 21
110.06232900000001
  0
LINE
  5
31C
100
AcDbEntity
  8
LC-002-002-----0
  6
CONTINUOUS
 62
             7
100
AcDbLine
 10
30.38379450000002
 20
110.06232900000001
 11
30.10466150000002
 21
110.26957
  0
LINE
  5
31B
100
AcDbEntity
  8
LC-002-002-----0
  6
CONTINUOUS
 62
             7
100
AcDbLine
 10
30.10466150000002
 20
110.26957
 11
29.85009350000004
 21
110.386512
  0
LINE
  5
31A
100
AcDbEntity
  8
LC-002-002-----0
  6
CONTINUOUS
 62
             7
100
AcDbLine
 10
29.85009350000004
 20
110.386512
 11
29.61190450000004
 21
110.44325600000001
  0
LINE
  5
319
100
AcDbEntity
  8
LC-002-002-----0
  6
CONTINUOUS
 62
             7
100
AcDbLine
 10
29.61190450000004
 20
110.44325600000001
 11
29.37371450000003
 21
110.5
  0
LINE
  5
318
100
AcDbEntity
  8
LC-002-002-----0
  6
CONTINUOUS
 62
             7
100
AcDbLine
 10
-20.52319949999995
 20
0.0
 11
-20.52319949999995
 21
3.625113
  0
LINE
  5
317
100
AcDbEntity
  8
LC-002-002-----0
  6
CONTINUOUS
 62
             7
100
AcDbLine
 10
-52.88297949999995
 20
106.043539
 11
-52.61032249999997
 21
106.95141700000001
  0
LINE
  5
316
100
AcDbEntity
  8
LC-002-002-----0
  6
CONTINUOUS
 62
             7
100
AcDbLine
 10
-52.61032249999997
 20
106.95141700000001
 11
-52.33766449999999
 21
107.85929400000001
  0
LINE
  5
315
100
AcDbEntity
  8
LC-002-002-----0
  6
CONTINUOUS
 62
             7
100
AcDbLine
 10
-52.33766449999999
 20
107.85929400000001
 11
-51.97516049999993
 21
108.723056
  0
LINE
  5
314
100
AcDbEntity
  8
LC-002-002-----0
  6
CONTINUOUS
 62
             7
100
AcDbLine
 10
-51.97516049999993
 20
108.723056
 11
-51.47788449999999
 21
109.520647
  0
LINE
  5
313
100
AcDbEntity
  8
LC-002-002-----0
  6
CONTINUOUS
 62
             7
100
AcDbLine
 10
-51.47788449999999
 20
109.520647
 11
-50.98060949999993
 21
110.31823799999999
  0
LINE
  5
312
100
AcDbEntity
  8
LC-002-002-----0
  6
CONTINUOUS
 62
             7
100
AcDbLine
 10
-50.98060949999993
 20
110.31823799999999
 11
-50.33030449999998
 21
110.97778599999999
  0
LINE
  5
311
100
AcDbEntity
  8
LC-002-002-----0
  6
CONTINUOUS
 62
             7
100
AcDbLine
 10
-50.33030449999998
 20
110.97778599999999
 11
-49.64174349999999
 21
111.602823
  0
LINE
  5
310
100
AcDbEntity
  8
LC-002-002-----0
  6
CONTINUOUS
 62
             7
100
AcDbLine
 10
-49.64174349999999
 20
111.602823
 11
-48.92491849999996
 21
112.18279099999999
  0
LINE
  5
30F
100
AcDbEntity
  8
LC-002-002-----0
  6
CONTINUOUS
 62
             7
100
AcDbLine
 10
-48.92491849999996
 20
112.18279099999999
 11
-48.0950435
 21
112.582482
  0
LINE
  5
30E
100
AcDbEntity
  8
LC-002-002-----0
  6
CONTINUOUS
 62
             7
100
AcDbLine
 10
-48.0950435
 20
112.582482
 11
-47.26516849999999
 21
112.98217200000001
  0
LINE
  5
30D
100
AcDbEntity
  8
LC-002-002-----0
  6
CONTINUOUS
 62
             7
100
AcDbLine
 10
-47.26516849999999
 20
112.98217200000001
 11
-46.38986049999997
 21
113.224653
  0
LINE
  5
30C
100
AcDbEntity
  8
LC-002-002-----0
  6
CONTINUOUS
 62
             7
100
AcDbLine
 10
-46.38986049999997
 20
113.224653
 11
-45.48426449999997
 21
113.362326
  0
LINE
  5
30B
100
AcDbEntity
  8
LC-002-002-----0
  6
CONTINUOUS
 62
             7
100
AcDbLine
 10
-45.48426449999997
 20
113.362326
 11
-44.57866749999997
 21
113.5
  0
LINE
  5
30A
100
AcDbEntity
  8
LC-002-002-----0
  6
CONTINUOUS
 62
             7
100
AcDbLine
 10
56.63926350000003
 20
106.060672
 11
56.34435150000002
 21
106.9761
  0
LINE
  5
309
100
AcDbEntity
  8
LC-002-002-----0
  6
CONTINUOUS
 62
             7
100
AcDbLine
 10
56.34435150000002
 20
106.9761
 11
56.04943950000003
 21
107.89152799999999
  0
LINE
  5
308
100
AcDbEntity
  8
LC-002-002-----0
  6
CONTINUOUS
 62
             7
100
AcDbLine
 10
56.04943950000003
 20
107.89152799999999
 11
55.65883150000002
 21
108.760265
  0
LINE
  5
307
100
AcDbEntity
  8
LC-002-002-----0
  6
CONTINUOUS
 62
             7
100
AcDbLine
 10
55.65883150000002
 20
108.760265
 11
55.12468150000004
 21
109.558965
  0
LINE
  5
306
100
AcDbEntity
  8
LC-002-002-----0
  6
CONTINUOUS
 62
             7
100
AcDbLine
 10
55.12468150000004
 20
109.558965
 11
54.59053050000003
 21
110.35766599999999
  0
LINE
  5
305
100
AcDbEntity
  8
LC-002-002-----0
  6
CONTINUOUS
 62
             7
100
AcDbLine
 10
54.59053050000003
 20
110.35766599999999
 11
53.89763550000004
 21
111.01338800000001
  0
LINE
  5
304
100
AcDbEntity
  8
LC-002-002-----0
  6
CONTINUOUS
 62
             7
100
AcDbLine
 10
53.89763550000004
 20
111.01338800000001
 11
53.16505450000003
 21
111.633366
  0
LINE
  5
303
100
AcDbEntity
  8
LC-002-002-----0
  6
CONTINUOUS
 62
             7
100
AcDbLine
 10
53.16505450000003
 20
111.633366
 11
52.40407950000002
 21
112.207891
  0
LINE
  5
302
100
AcDbEntity
  8
LC-002-002-----0
  6
CONTINUOUS
 62
             7
100
AcDbLine
 10
52.40407950000002
 20
112.207891
 11
51.52952450000004
 21
112.600606
  0
LINE
  5
301
100
AcDbEntity
  8
LC-002-002-----0
  6
CONTINUOUS
 62
             7
100
AcDbLine
 10
51.52952450000004
 20
112.600606
 11
50.65496950000002
 21
112.99332099999999
  0
LINE
  5
300
100
AcDbEntity
  8
LC-002-002-----0
  6
CONTINUOUS
 62
             7
100
AcDbLine
 10
50.65496950000002
 20
112.99332099999999
 11
49.73599050000004
 21
113.231082
  0
LINE
  5
2FF
100
AcDbEntity
  8
LC-002-002-----0
  6
CONTINUOUS
 62
             7
100
AcDbLine
 10
49.73599050000004
 20
113.231082
 11
48.78739750000003
 21
113.36554099999999
  0
LINE
  5
2FE
100
AcDbEntity
  8
LC-002-002-----0
  6
CONTINUOUS
 62
             7
100
AcDbLine
 10
48.78739750000003
 20
113.36554099999999
 11
47.83880350000004
 21
113.5
  0
LINE
  5
2FD
100
AcDbEntity
  8
LC-002-002-----0
  6
CONTINUOUS
 62
             7
100
AcDbLine
 10
-26.57249749999997
 20
5.26060900000002
 11
-19.79501450000001
 21
105.701375
  0
LINE
  5
2FC
100
AcDbEntity
  8
LC-002-002-----0
  6
CONTINUOUS
 62
             7
100
AcDbLine
 10
-43.24396449999998
 20
0.0
 11
-43.24396449999998
 21
3.625113
  0
LINE
  5
2FB
100
AcDbEntity
  8
LC-002-002-----0
  6
CONTINUOUS
 62
             7
100
AcDbLine
 10
29.56569050000002
 20
5.462582
 11
22.78820750000003
 21
105.90334799999999
  0
LINE
  5
2FA
100
AcDbEntity
  8
LC-002-002-----0
  6
CONTINUOUS
 62
             7
100
AcDbLine
 10
1.50000050000003
 20
105.802361
 11
1.50000050000003
 21
112.0
  0
LINE
  5
2F9
100
AcDbEntity
  8
LC-002-002-----0
  6
CONTINUOUS
 62
             7
100
AcDbLine
 10
-59.81147049999996
 20
3.625113
 11
-59.80939049999998
 21
3.775319
  0
LINE
  5
2F8
100
AcDbEntity
  8
LC-002-002-----0
  6
CONTINUOUS
 62
             7
100
AcDbLine
 10
-59.80939049999998
 20
3.775319
 11
-59.8073105
 21
3.92552600000002
  0
LINE
  5
2F7
100
AcDbEntity
  8
LC-002-002-----0
  6
CONTINUOUS
 62
             7
100
AcDbLine
 10
-59.8073105
 20
3.92552600000002
 11
-59.80356649999996
 21
4.07566700000001
  0
LINE
  5
2F6
100
AcDbEntity
  8
LC-002-002-----0
  6
CONTINUOUS
 62
             7
100
AcDbLine
 10
-59.80356649999996
 20
4.07566700000001
 11
-59.79732849999996
 21
4.22571200000002
  0
LINE
  5
2F5
100
AcDbEntity
  8
LC-002-002-----0
  6
CONTINUOUS
 62
             7
100
AcDbLine
 10
-59.79732849999996
 20
4.22571200000002
 11
-59.79108949999997
 21
4.37575600000002
  0
LINE
  5
2F4
100
AcDbEntity
  8
LC-002-002-----0
  6
CONTINUOUS
 62
             7
100
AcDbLine
 10
-59.79108949999997
 20
4.37575600000002
 11
-59.78152849999995
 21
4.525543
  0
LINE
  5
2F3
100
AcDbEntity
  8
LC-002-002-----0
  6
CONTINUOUS
 62
             7
100
AcDbLine
 10
-59.78152849999995
 20
4.525543
 11
-59.77113549999999
 21
4.67526500000002
  0
LINE
  5
2F2
100
AcDbEntity
  8
LC-002-002-----0
  6
CONTINUOUS
 62
             7
100
AcDbLine
 10
-59.77113549999999
 20
4.67526500000002
 11
-59.75991449999995
 21
4.82489000000001
  0
LINE
  5
2F1
100
AcDbEntity
  8
LC-002-002-----0
  6
CONTINUOUS
 62
             7
100
AcDbLine
 10
-59.75991449999995
 20
4.82489000000001
 11
-59.74537649999994
 21
4.974129
  0
LINE
  5
2F0
100
AcDbEntity
  8
LC-002-002-----0
  6
CONTINUOUS
 62
             7
100
AcDbLine
 10
-59.74537649999994
 20
4.974129
 11
-59.73083949999997
 21
5.123367
  0
LINE
  5
2EF
100
AcDbEntity
  8
LC-002-002-----0
  6
CONTINUOUS
 62
             7
100
AcDbLine
 10
-59.73083949999997
 20
5.123367
 11
-59.71382049999997
 21
5.27221800000001
  0
LINE
  5
2EE
100
AcDbEntity
  8
LC-002-002-----0
  6
CONTINUOUS
 62
             7
100
AcDbLine
 10
-59.71382049999997
 20
5.27221800000001
 11
-59.69514949999999
 21
5.42081200000001
  0
LINE
  5
2ED
100
AcDbEntity
  8
LC-002-002-----0
  6
CONTINUOUS
 62
             7
100
AcDbLine
 10
-59.69514949999999
 20
5.42081200000001
 11
-59.67647749999995
 21
5.56940600000002
  0
LINE
  5
2EC
100
AcDbEntity
  8
LC-002-002-----0
  6
CONTINUOUS
 62
             7
100
AcDbLine
 10
35.25000050000003
 20
3.625113
 11
35.24891650000004
 21
3.74927000000002
  0
LINE
  5
2EB
100
AcDbEntity
  8
LC-002-002-----0
  6
CONTINUOUS
 62
             7
100
AcDbLine
 10
35.24891650000004
 20
3.74927000000002
 11
35.24783250000002
 21
3.87342800000002
  0
LINE
  5
2EA
100
AcDbEntity
  8
LC-002-002-----0
  6
CONTINUOUS
 62
             7
100
AcDbLine
 10
35.24783250000002
 20
3.87342800000002
 11
35.24588350000002
 21
3.997513
  0
LINE
  5
2E9
100
AcDbEntity
  8
LC-002-002-----0
  6
CONTINUOUS
 62
             7
100
AcDbLine
 10
35.24588350000002
 20
3.997513
 11
35.24263450000004
 21
4.12149100000002
  0
LINE
  5
2E8
100
AcDbEntity
  8
LC-002-002-----0
  6
CONTINUOUS
 62
             7
100
AcDbLine
 10
35.24263450000004
 20
4.12149100000002
 11
35.23938650000002
 21
4.24546900000001
  0
LINE
  5
2E7
100
AcDbEntity
  8
LC-002-002-----0
  6
CONTINUOUS
 62
             7
100
AcDbLine
 10
35.23938650000002
 20
4.24546900000001
 11
35.23441050000002
 21
4.36916100000002
  0
LINE
  5
2E6
100
AcDbEntity
  8
LC-002-002-----0
  6
CONTINUOUS
 62
             7
100
AcDbLine
 10
35.23441050000002
 20
4.36916100000002
 11
35.22900250000004
 21
4.49278200000001
  0
LINE
  5
2E5
100
AcDbEntity
  8
LC-002-002-----0
  6
CONTINUOUS
 62
             7
100
AcDbLine
 10
35.22900250000004
 20
4.49278200000001
 11
35.22316550000002
 21
4.61629500000001
  0
LINE
  5
2E4
100
AcDbEntity
  8
LC-002-002-----0
  6
CONTINUOUS
 62
             7
100
AcDbLine
 10
35.22316550000002
 20
4.61629500000001
 11
35.21560950000003
 21
4.73938000000001
  0
LINE
  5
2E3
100
AcDbEntity
  8
LC-002-002-----0
  6
CONTINUOUS
 62
             7
100
AcDbLine
 10
35.21560950000003
 20
4.73938000000001
 11
35.20805250000004
 21
4.86246400000002
  0
LINE
  5
2E2
100
AcDbEntity
  8
LC-002-002-----0
  6
CONTINUOUS
 62
             7
100
AcDbLine
 10
35.20805250000004
 20
4.86246400000002
 11
35.19921550000004
 21
4.98512000000002
  0
LINE
  5
2E1
100
AcDbEntity
  8
LC-002-002-----0
  6
CONTINUOUS
 62
             7
100
AcDbLine
 10
35.19921550000004
 20
4.98512000000002
 11
35.18952550000003
 21
5.10749100000001
  0
LINE
  5
2E0
100
AcDbEntity
  8
LC-002-002-----0
  6
CONTINUOUS
 62
             7
100
AcDbLine
 10
35.18952550000003
 20
5.10749100000001
 11
35.17983450000003
 21
5.229861
  0
LINE
  5
2DF
100
AcDbEntity
  8
LC-002-002-----0
  6
CONTINUOUS
 62
             7
100
AcDbLine
 10
38.25000050000003
 20
0.0
 11
38.25000050000003
 21
3.625113
  0
LINE
  5
2DE
100
AcDbEntity
  8
LC-002-002-----0
  6
CONTINUOUS
 62
             7
100
AcDbLine
 10
38.25000050000003
 20
-26.0
 11
38.25000050000003
 21
-3.0
  0
LINE
  5
2DD
100
AcDbEntity
  8
LC-002-002-----0
  6
CONTINUOUS
 62
             7
100
AcDbLine
 10
-18.36841849999999
 20
110.5
 11
-15.22547249999994
 21
110.5
  0
LINE
  5
2DC
100
AcDbEntity
  8
LC-002-002-----0
  6
CONTINUOUS
 62
             7
100
AcDbLine
 10
-12.03397349999997
 20
110.5
 11
-9.96453349999996
 21
110.5
  0
LINE
  5
2DB
100
AcDbEntity
  8
LC-002-002-----0
  6
CONTINUOUS
 62
             7
100
AcDbLine
 10
-19.64690249999998
 20
106.894645
 11
-19.5728475
 21
107.49128
  0
LINE
  5
2DA
100
AcDbEntity
  8
LC-002-002-----0
  6
CONTINUOUS
 62
             7
100
AcDbLine
 10
-19.5728475
 20
107.49128
 11
-19.44619949999995
 21
107.994542
  0
LINE
  5
2D9
100
AcDbEntity
  8
LC-002-002-----0
  6
CONTINUOUS
 62
             7
100
AcDbLine
 10
-19.44619949999995
 20
107.994542
 11
-19.31760549999999
 21
108.49435
  0
LINE
  5
2D8
100
AcDbEntity
  8
LC-002-002-----0
  6
CONTINUOUS
 62
             7
100
AcDbLine
 10
-19.31760549999999
 20
108.49435
 11
-19.18901149999996
 21
108.994157
  0
LINE
  5
2D7
100
AcDbEntity
  8
LC-002-002-----0
  6
CONTINUOUS
 62
             7
100
AcDbLine
 10
-19.18901149999996
 20
108.994157
 11
-19.0350655
 21
109.352676
  0
LINE
  5
2D6
100
AcDbEntity
  8
LC-002-002-----0
  6
CONTINUOUS
 62
             7
100
AcDbLine
 10
-19.0350655
 20
109.352676
 11
-18.87917150000001
 21
109.700338
  0
LINE
  5
2D5
100
AcDbEntity
  8
LC-002-002-----0
  6
CONTINUOUS
 62
             7
100
AcDbLine
 10
-18.87917150000001
 20
109.700338
 11
-18.72327749999997
 21
110.048
  0
LINE
  5
2D4
100
AcDbEntity
  8
LC-002-002-----0
  6
CONTINUOUS
 62
             7
100
AcDbLine
 10
-18.72327749999997
 20
110.048
 11
-18.59655749999993
 21
110.215233
  0
LINE
  5
2D3
100
AcDbEntity
  8
LC-002-002-----0
  6
CONTINUOUS
 62
             7
100
AcDbLine
 10
-18.59655749999993
 20
110.215233
 11
-18.47046049999997
 21
110.378615
  0
LINE
  5
2D2
100
AcDbEntity
  8
LC-002-002-----0
  6
CONTINUOUS
 62
             7
100
AcDbLine
 10
-18.47046049999997
 20
110.378615
 11
-18.37609949999998
 21
110.492165
  0
LINE
  5
2D1
100
AcDbEntity
  8
LC-002-002-----0
  6
CONTINUOUS
 62
             7
100
AcDbLine
 10
-18.37609949999998
 20
110.492165
 11
-18.3331575
 21
110.52498
  0
LINE
  5
2D0
100
AcDbEntity
  8
LC-002-002-----0
  6
CONTINUOUS
 62
             7
100
AcDbLine
 10
-56.70540750000001
 20
5.153784
 11
-42.65478849999997
 21
105.59455
  0
LINE
  5
2CF
100
AcDbEntity
  8
LC-002-002-----0
  6
CONTINUOUS
 62
             7
100
AcDbLine
 10
-11.09367549999996
 20
0.0
 11
-11.09367549999996
 21
3.625113
  0
LINE
  5
2CE
100
AcDbEntity
  8
LC-002-002-----0
  6
CONTINUOUS
 62
             7
100
AcDbLine
 10
-65.15286749999999
 20
3.625113
 11
-65.15057449999998
 21
3.776782
  0
LINE
  5
2CD
100
AcDbEntity
  8
LC-002-002-----0
  6
CONTINUOUS
 62
             7
100
AcDbLine
 10
-65.15057449999998
 20
3.776782
 11
-65.14828149999997
 21
3.92845
  0
LINE
  5
2CC
100
AcDbEntity
  8
LC-002-002-----0
  6
CONTINUOUS
 62
             7
100
AcDbLine
 10
-65.14828149999997
 20
3.92845
 11
-65.14415549999998
 21
4.080051
  0
LINE
  5
2CB
100
AcDbEntity
  8
LC-002-002-----0
  6
CONTINUOUS
 62
             7
100
AcDbLine
 10
-65.14415549999998
 20
4.080051
 11
-65.13727950000001
 21
4.23155
  0
LINE
  5
2CA
100
AcDbEntity
  8
LC-002-002-----0
  6
CONTINUOUS
 62
             7
100
AcDbLine
 10
-65.13727950000001
 20
4.23155
 11
-65.13040349999997
 21
4.38305
  0
LINE
  5
2C9
100
AcDbEntity
  8
LC-002-002-----0
  6
CONTINUOUS
 62
             7
100
AcDbLine
 10
-65.13040349999997
 20
4.38305
 11
-65.11986549999998
 21
4.534279
  0
LINE
  5
2C8
100
AcDbEntity
  8
LC-002-002-----0
  6
CONTINUOUS
 62
             7
100
AcDbLine
 10
-65.11986549999998
 20
4.534279
 11
-65.10841249999996
 21
4.685441
  0
LINE
  5
2C7
100
AcDbEntity
  8
LC-002-002-----0
  6
CONTINUOUS
 62
             7
100
AcDbLine
 10
-65.10841249999996
 20
4.685441
 11
-65.09604549999997
 21
4.836501
  0
LINE
  5
2C6
100
AcDbEntity
  8
LC-002-002-----0
  6
CONTINUOUS
 62
             7
100
AcDbLine
 10
-65.09604549999997
 20
4.836501
 11
-65.08002549999995
 21
4.987157
  0
LINE
  5
2C5
100
AcDbEntity
  8
LC-002-002-----0
  6
CONTINUOUS
 62
             7
100
AcDbLine
 10
-65.08002549999995
 20
4.987157
 11
-65.06400549999998
 21
5.13781300000002
  0
LINE
  5
2C4
100
AcDbEntity
  8
LC-002-002-----0
  6
CONTINUOUS
 62
             7
100
AcDbLine
 10
-65.06400549999998
 20
5.13781300000002
 11
-65.04525449999997
 21
5.28806400000002
  0
LINE
  5
2C3
100
AcDbEntity
  8
LC-002-002-----0
  6
CONTINUOUS
 62
             7
100
AcDbLine
 10
-65.04525449999997
 20
5.28806400000002
 11
-65.02468149999996
 21
5.43804500000002
  0
LINE
  5
2C2
100
AcDbEntity
  8
LC-002-002-----0
  6
CONTINUOUS
 62
             7
100
AcDbLine
 10
-65.02468149999996
 20
5.43804500000002
 11
-65.00410949999994
 21
5.58802600000001
  0
LINE
  5
2C1
100
AcDbEntity
  8
LC-002-002-----0
  6
CONTINUOUS
 62
             7
100
AcDbLine
 10
59.81147050000004
 20
3.625113
 11
59.80939050000004
 21
3.775319
  0
LINE
  5
2C0
100
AcDbEntity
  8
LC-002-002-----0
  6
CONTINUOUS
 62
             7
100
AcDbLine
 10
59.80939050000004
 20
3.775319
 11
59.80731050000003
 21
3.92552600000002
  0
LINE
  5
2BF
100
AcDbEntity
  8
LC-002-002-----0
  6
CONTINUOUS
 62
             7
100
AcDbLine
 10
59.80731050000003
 20
3.92552600000002
 11
59.80356650000002
 21
4.07566700000001
  0
LINE
  5
2BE
100
AcDbEntity
  8
LC-002-002-----0
  6
CONTINUOUS
 62
             7
100
AcDbLine
 10
59.80356650000002
 20
4.07566700000001
 11
59.79732850000002
 21
4.22571200000002
  0
LINE
  5
2BD
100
AcDbEntity
  8
LC-002-002-----0
  6
CONTINUOUS
 62
             7
100
AcDbLine
 10
59.79732850000002
 20
4.22571200000002
 11
59.79108950000003
 21
4.37575600000002
  0
LINE
  5
2BC
100
AcDbEntity
  8
LC-002-002-----0
  6
CONTINUOUS
 62
             7
100
AcDbLine
 10
59.79108950000003
 20
4.37575600000002
 11
59.78152850000004
 21
4.525543
  0
LINE
  5
2BB
100
AcDbEntity
  8
LC-002-002-----0
  6
CONTINUOUS
 62
             7
100
AcDbLine
 10
59.78152850000004
 20
4.525543
 11
59.77113550000004
 21
4.67526500000002
  0
LINE
  5
2BA
100
AcDbEntity
  8
LC-002-002-----0
  6
CONTINUOUS
 62
             7
100
AcDbLine
 10
59.77113550000004
 20
4.67526500000002
 11
59.75991450000004
 21
4.82489000000001
  0
LINE
  5
2B9
100
AcDbEntity
  8
LC-002-002-----0
  6
CONTINUOUS
 62
             7
100
AcDbLine
 10
59.75991450000004
 20
4.82489000000001
 11
59.74537650000002
 21
4.974129
  0
LINE
  5
2B8
100
AcDbEntity
  8
LC-002-002-----0
  6
CONTINUOUS
 62
             7
100
AcDbLine
 10
59.74537650000002
 20
4.974129
 11
59.73083950000003
 21
5.123367
  0
LINE
  5
2B7
100
AcDbEntity
  8
LC-002-002-----0
  6
CONTINUOUS
 62
             7
100
AcDbLine
 10
59.73083950000003
 20
5.123367
 11
59.71382150000002
 21
5.27221800000001
  0
LINE
  5
2B6
100
AcDbEntity
  8
LC-002-002-----0
  6
CONTINUOUS
 62
             7
100
AcDbLine
 10
59.71382150000002
 20
5.27221800000001
 11
59.69514950000004
 21
5.42081200000001
  0
LINE
  5
2B5
100
AcDbEntity
  8
LC-002-002-----0
  6
CONTINUOUS
 62
             7
100
AcDbLine
 10
59.69514950000004
 20
5.42081200000001
 11
59.67647750000003
 21
5.56940600000002
  0
LINE
  5
2B4
100
AcDbEntity
  8
LC-002-002-----0
  6
CONTINUOUS
 62
             7
100
AcDbLine
 10
46.60746850000004
 20
113.5
 11
44.57866750000002
 21
113.5
  0
LINE
  5
2B3
100
AcDbEntity
  8
LC-002-002-----0
  6
CONTINUOUS
 62
             7
100
AcDbLine
 10
69.37009650000002
 20
5.10974400000001
 11
68.34761850000004
 21
11.113066
  0
LINE
  5
2B2
100
AcDbEntity
  8
LC-002-002-----0
  6
CONTINUOUS
 62
             7
100
AcDbLine
 10
-69.49554849999996
 20
0.0
 11
-69.49554849999996
 21
3.625113
  0
LINE
  5
2B1
100
AcDbEntity
  8
LC-002-002-----0
  6
CONTINUOUS
 62
             7
100
AcDbLine
 10
72.49554850000001
 20
0.0
 11
72.49554850000001
 21
3.625113
  0
LINE
  5
2B0
100
AcDbEntity
  8
LC-002-002-----0
  6
CONTINUOUS
 62
             7
100
AcDbLine
 10
8.07424250000003
 20
5.32708100000002
 11
5.76256950000004
 21
105.767848
  0
LINE
  5
2AF
100
AcDbEntity
  8
LC-002-002-----0
  6
CONTINUOUS
 62
             7
100
AcDbLine
 10
11.09367550000002
 20
3.625113
 11
11.09336350000004
 21
3.76197200000001
  0
LINE
  5
2AE
100
AcDbEntity
  8
LC-002-002-----0
  6
CONTINUOUS
 62
             7
100
AcDbLine
 10
11.09336350000004
 20
3.76197200000001
 11
11.09305150000003
 21
3.89883
  0
LINE
  5
2AD
100
AcDbEntity
  8
LC-002-002-----0
  6
CONTINUOUS
 62
             7
100
AcDbLine
 10
11.09305150000003
 20
3.89883
 11
11.09249050000003
 21
4.03562600000001
  0
LINE
  5
2AC
100
AcDbEntity
  8
LC-002-002-----0
  6
CONTINUOUS
 62
             7
100
AcDbLine
 10
11.09249050000003
 20
4.03562600000001
 11
11.09155550000003
 21
4.17232700000002
  0
LINE
  5
2AB
100
AcDbEntity
  8
LC-002-002-----0
  6
CONTINUOUS
 62
             7
100
AcDbLine
 10
11.09155550000003
 20
4.17232700000002
 11
11.09062050000003
 21
4.30902800000001
  0
LINE
  5
2AA
100
AcDbEntity
  8
LC-002-002-----0
  6
CONTINUOUS
 62
             7
100
AcDbLine
 10
11.09062050000003
 20
4.30902800000001
 11
11.08918750000004
 21
4.44547800000001
  0
LINE
  5
2A9
100
AcDbEntity
  8
LC-002-002-----0
  6
CONTINUOUS
 62
             7
100
AcDbLine
 10
11.08918750000004
 20
4.44547800000001
 11
11.08762950000002
 21
4.58186500000002
  0
LINE
  5
2A8
100
AcDbEntity
  8
LC-002-002-----0
  6
CONTINUOUS
 62
             7
100
AcDbLine
 10
11.08762950000002
 20
4.58186500000002
 11
11.08594850000003
 21
4.71815800000002
  0
LINE
  5
2A7
100
AcDbEntity
  8
LC-002-002-----0
  6
CONTINUOUS
 62
             7
100
AcDbLine
 10
11.08594850000003
 20
4.71815800000002
 11
11.08376950000002
 21
4.854074
  0
LINE
  5
2A6
100
AcDbEntity
  8
LC-002-002-----0
  6
CONTINUOUS
 62
             7
100
AcDbLine
 10
11.08376950000002
 20
4.854074
 11
11.08159150000003
 21
4.98999000000001
  0
LINE
  5
2A5
100
AcDbEntity
  8
LC-002-002-----0
  6
CONTINUOUS
 62
             7
100
AcDbLine
 10
11.08159150000003
 20
4.98999000000001
 11
11.07904250000004
 21
5.12553
  0
LINE
  5
2A4
100
AcDbEntity
  8
LC-002-002-----0
  6
CONTINUOUS
 62
             7
100
AcDbLine
 10
11.07904250000004
 20
5.12553
 11
11.07624550000003
 21
5.260819
  0
LINE
  5
2A3
100
AcDbEntity
  8
LC-002-002-----0
  6
CONTINUOUS
 62
             7
100
AcDbLine
 10
11.07624550000003
 20
5.260819
 11
11.07344850000004
 21
5.39610900000002
  0
LINE
  5
2A2
100
AcDbEntity
  8
LC-002-002-----0
  6
CONTINUOUS
 62
             7
100
AcDbLine
 10
20.52319950000003
 20
3.625113
 11
20.52256950000003
 21
3.764556
  0
LINE
  5
2A1
100
AcDbEntity
  8
LC-002-002-----0
  6
CONTINUOUS
 62
             7
100
AcDbLine
 10
20.52256950000003
 20
3.764556
 11
20.52193950000003
 21
3.903999
  0
LINE
  5
2A0
100
AcDbEntity
  8
LC-002-002-----0
  6
CONTINUOUS
 62
             7
100
AcDbLine
 10
20.52193950000003
 20
3.903999
 11
20.52080650000002
 21
4.04338100000001
  0
LINE
  5
29F
100
AcDbEntity
  8
LC-002-002-----0
  6
CONTINUOUS
 62
             7
100
AcDbLine
 10
20.52080650000002
 20
4.04338100000001
 11
20.51891650000002
 21
4.182672
  0
LINE
  5
29E
100
AcDbEntity
  8
LC-002-002-----0
  6
CONTINUOUS
 62
             7
100
AcDbLine
 10
20.51891650000002
 20
4.182672
 11
20.51702750000004
 21
4.32196300000001
  0
LINE
  5
29D
100
AcDbEntity
  8
LC-002-002-----0
  6
CONTINUOUS
 62
             7
100
AcDbLine
 10
20.51702750000004
 20
4.32196300000001
 11
20.51413150000002
 21
4.46101100000001
  0
LINE
  5
29C
100
AcDbEntity
  8
LC-002-002-----0
  6
CONTINUOUS
 62
             7
100
AcDbLine
 10
20.51413150000002
 20
4.46101100000001
 11
20.51098450000004
 21
4.599998
  0
LINE
  5
29B
100
AcDbEntity
  8
LC-002-002-----0
  6
CONTINUOUS
 62
             7
100
AcDbLine
 10
20.51098450000004
 20
4.599998
 11
20.50758650000003
 21
4.73889400000002
  0
LINE
  5
29A
100
AcDbEntity
  8
LC-002-002-----0
  6
CONTINUOUS
 62
             7
100
AcDbLine
 10
20.50758650000003
 20
4.73889400000002
 11
20.50318350000003
 21
4.87742600000001
  0
LINE
  5
299
100
AcDbEntity
  8
LC-002-002-----0
  6
CONTINUOUS
 62
             7
100
AcDbLine
 10
20.50318350000003
 20
4.87742600000001
 11
20.49878150000004
 21
5.01595800000001
  0
LINE
  5
298
100
AcDbEntity
  8
LC-002-002-----0
  6
CONTINUOUS
 62
             7
100
AcDbLine
 10
20.49878150000004
 20
5.01595800000001
 11
20.49362850000003
 21
5.15412600000002
  0
LINE
  5
297
100
AcDbEntity
  8
LC-002-002-----0
  6
CONTINUOUS
 62
             7
100
AcDbLine
 10
20.49362850000003
 20
5.15412600000002
 11
20.48797350000004
 21
5.29205300000001
  0
LINE
  5
296
100
AcDbEntity
  8
LC-002-002-----0
  6
CONTINUOUS
 62
             7
100
AcDbLine
 10
20.48797350000004
 20
5.29205300000001
 11
20.48231950000002
 21
5.429979
  0
LINE
  5
295
100
AcDbEntity
  8
LC-002-002-----0
  6
CONTINUOUS
 62
             7
100
AcDbLine
 10
49.92201150000003
 20
105.561183
 11
49.88266050000004
 21
105.69235999999999
  0
LINE
  5
294
100
AcDbEntity
  8
LC-002-002-----0
  6
CONTINUOUS
 62
             7
100
AcDbLine
 10
49.88266050000004
 20
105.69235999999999
 11
49.84330950000003
 21
105.823537
  0
LINE
  5
293
100
AcDbEntity
  8
LC-002-002-----0
  6
CONTINUOUS
 62
             7
100
AcDbLine
 10
49.84330950000003
 20
105.823537
 11
49.80395850000002
 21
105.954713
  0
LINE
  5
292
100
AcDbEntity
  8
LC-002-002-----0
  6
CONTINUOUS
 62
             7
100
AcDbLine
 10
49.80395850000002
 20
105.954713
 11
49.76460750000004
 21
106.08589000000001
  0
LINE
  5
291
100
AcDbEntity
  8
LC-002-002-----0
  6
CONTINUOUS
 62
             7
100
AcDbLine
 10
49.76460750000004
 20
106.08589000000001
 11
49.72525650000003
 21
106.217067
  0
LINE
  5
290
100
AcDbEntity
  8
LC-002-002-----0
  6
CONTINUOUS
 62
             7
100
AcDbLine
 10
49.72525650000003
 20
106.217067
 11
49.68590550000002
 21
106.348243
  0
LINE
  5
28F
100
AcDbEntity
  8
LC-002-002-----0
  6
CONTINUOUS
 62
             7
100
AcDbLine
 10
49.68590550000002
 20
106.348243
 11
49.64655450000004
 21
106.47942
  0
LINE
  5
28E
100
AcDbEntity
  8
LC-002-002-----0
  6
CONTINUOUS
 62
             7
100
AcDbLine
 10
49.64655450000004
 20
106.47942
 11
49.60720350000003
 21
106.610597
  0
LINE
  5
28D
100
AcDbEntity
  8
LC-002-002-----0
  6
CONTINUOUS
 62
             7
100
AcDbLine
 10
49.60720350000003
 20
106.610597
 11
49.56785250000002
 21
106.74177299999999
  0
LINE
  5
28C
100
AcDbEntity
  8
LC-002-002-----0
  6
CONTINUOUS
 62
             7
100
AcDbLine
 10
49.56785250000002
 20
106.74177299999999
 11
49.52850150000003
 21
106.87295
  0
LINE
  5
28B
100
AcDbEntity
  8
LC-002-002-----0
  6
CONTINUOUS
 62
             7
100
AcDbLine
 10
49.52850150000003
 20
106.87295
 11
49.48915050000002
 21
107.004127
  0
LINE
  5
28A
100
AcDbEntity
  8
LC-002-002-----0
  6
CONTINUOUS
 62
             7
100
AcDbLine
 10
49.48915050000002
 20
107.004127
 11
49.44979950000004
 21
107.13530299999999
  0
LINE
  5
289
100
AcDbEntity
  8
LC-002-002-----0
  6
CONTINUOUS
 62
             7
100
AcDbLine
 10
49.44979950000004
 20
107.13530299999999
 11
49.15256550000004
 21
107.85361
  0
LINE
  5
288
100
AcDbEntity
  8
LC-002-002-----0
  6
CONTINUOUS
 62
             7
100
AcDbLine
 10
77.46097350000005
 20
-26.0
 11
-77.75686149999999
 21
-26.0
  0
LINE
  5
287
100
AcDbEntity
  8
LC-002-002-----0
  6
CONTINUOUS
 62
             7
100
AcDbLine
 10
62.15286750000004
 20
0.0
 11
62.15286750000004
 21
3.625113
  0
LINE
  5
286
100
AcDbEntity
  8
LC-002-002-----0
  6
CONTINUOUS
 62
             7
100
AcDbLine
 10
-40.83024149999997
 20
105.98794700000001
 11
-40.62770549999996
 21
106.868289
  0
LINE
  5
285
100
AcDbEntity
  8
LC-002-002-----0
  6
CONTINUOUS
 62
             7
100
AcDbLine
 10
-40.62770549999996
 20
106.868289
 11
-40.42516949999995
 21
107.74863000000001
  0
LINE
  5
284
100
AcDbEntity
  8
LC-002-002-----0
  6
CONTINUOUS
 62
             7
100
AcDbLine
 10
-40.42516949999995
 20
107.74863000000001
 11
-40.15315749999994
 21
108.591796
  0
LINE
  5
283
100
AcDbEntity
  8
LC-002-002-----0
  6
CONTINUOUS
 62
             7
100
AcDbLine
 10
-40.15315749999994
 20
108.591796
 11
-39.77693449999995
 21
109.379197
  0
LINE
  5
282
100
AcDbEntity
  8
LC-002-002-----0
  6
CONTINUOUS
 62
             7
100
AcDbLine
 10
-39.77693449999995
 20
109.379197
 11
-39.40071049999997
 21
110.16659900000001
  0
LINE
  5
281
100
AcDbEntity
  8
LC-002-002-----0
  6
CONTINUOUS
 62
             7
100
AcDbLine
 10
-39.40071049999997
 20
110.16659900000001
 11
-38.89382649999996
 21
110.834937
  0
LINE
  5
280
100
AcDbEntity
  8
LC-002-002-----0
  6
CONTINUOUS
 62
             7
100
AcDbLine
 10
-38.89382649999996
 20
110.834937
 11
-38.35427849999999
 21
111.47350900000001
  0
LINE
  5
27F
100
AcDbEntity
  8
LC-002-002-----0
  6
CONTINUOUS
 62
             7
100
AcDbLine
 10
-38.35427849999999
 20
111.47350900000001
 11
-37.78586049999998
 21
112.07014700000001
  0
LINE
  5
27E
100
AcDbEntity
  8
LC-002-002-----0
  6
CONTINUOUS
 62
             7
100
AcDbLine
 10
-37.78586049999998
 20
112.07014700000001
 11
-37.10196749999997
 21
112.49905099999999
  0
LINE
  5
27D
100
AcDbEntity
  8
LC-002-002-----0
  6
CONTINUOUS
 62
             7
100
AcDbLine
 10
-37.10196749999997
 20
112.49905099999999
 11
-36.41807349999996
 21
112.927955
  0
LINE
  5
27C
100
AcDbEntity
  8
LC-002-002-----0
  6
CONTINUOUS
 62
             7
100
AcDbLine
 10
-36.41807349999996
 20
112.927955
 11
-35.67709749999997
 21
113.191936
  0
LINE
  5
27B
100
AcDbEntity
  8
LC-002-002-----0
  6
CONTINUOUS
 62
             7
100
AcDbLine
 10
-35.67709749999997
 20
113.191936
 11
-34.89806649999994
 21
113.345968
  0
LINE
  5
27A
100
AcDbEntity
  8
LC-002-002-----0
  6
CONTINUOUS
 62
             7
100
AcDbLine
 10
-34.89806649999994
 20
113.345968
 11
-34.11903549999997
 21
113.5
  0
LINE
  5
279
100
AcDbEntity
  8
LC-002-002-----0
  6
CONTINUOUS
 62
             7
100
AcDbLine
 10
-5.35956349999998
 20
110.5
 11
-5.02525849999998
 21
110.5
  0
LINE
  5
278
100
AcDbEntity
  8
LC-002-002-----0
  6
CONTINUOUS
 62
             7
100
AcDbLine
 10
-46.60746850000001
 20
113.5
 11
-44.57866749999997
 21
113.5
  0
LINE
  5
277
100
AcDbEntity
  8
LC-002-002-----0
  6
CONTINUOUS
 62
             7
100
AcDbLine
 10
-38.28056949999998
 20
113.5
 11
-34.11903549999997
 21
113.5
  0
LINE
  5
276
100
AcDbEntity
  8
LC-002-002-----0
  6
CONTINUOUS
 62
             7
100
AcDbLine
 10
41.78711350000003
 20
113.5
 11
38.28056950000004
 21
113.5
  0
LINE
  5
275
100
AcDbEntity
  8
LC-002-002-----0
  6
CONTINUOUS
 62
             7
100
AcDbLine
 10
-15.89852649999997
 20
105.870745
 11
-15.8303665
 21
106.680322
  0
LINE
  5
274
100
AcDbEntity
  8
LC-002-002-----0
  6
CONTINUOUS
 62
             7
100
AcDbLine
 10
-15.8303665
 20
106.680322
 11
-15.76220649999996
 21
107.489898
  0
LINE
  5
273
100
AcDbEntity
  8
LC-002-002-----0
  6
CONTINUOUS
 62
             7
100
AcDbLine
 10
-15.76220649999996
 20
107.489898
 11
-15.67062249999995
 21
108.265379
  0
LINE
  5
272
100
AcDbEntity
  8
LC-002-002-----0
  6
CONTINUOUS
 62
             7
100
AcDbLine
 10
-15.67062249999995
 20
108.265379
 11
-15.54390349999997
 21
108.989716
  0
LINE
  5
271
100
AcDbEntity
  8
LC-002-002-----0
  6
CONTINUOUS
 62
             7
100
AcDbLine
 10
-15.54390349999997
 20
108.989716
 11
-15.41718349999999
 21
109.71405300000001
  0
LINE
  5
270
100
AcDbEntity
  8
LC-002-002-----0
  6
CONTINUOUS
 62
             7
100
AcDbLine
 10
-15.41718349999999
 20
109.71405300000001
 11
-15.24139949999997
 21
110.343673
  0
LINE
  5
26F
100
AcDbEntity
  8
LC-002-002-----0
  6
CONTINUOUS
 62
             7
100
AcDbLine
 10
-15.24139949999997
 20
110.343673
 11
-15.0533495
 21
110.949614
  0
LINE
  5
26E
100
AcDbEntity
  8
LC-002-002-----0
  6
CONTINUOUS
 62
             7
100
AcDbLine
 10
-15.0533495
 20
110.949614
 11
-14.84399249999999
 21
111.532839
  0
LINE
  5
26D
100
AcDbEntity
  8
LC-002-002-----0
  6
CONTINUOUS
 62
             7
100
AcDbLine
 10
-14.84399249999999
 20
111.532839
 11
-14.54940449999998
 21
112.025204
  0
LINE
  5
26C
100
AcDbEntity
  8
LC-002-002-----0
  6
CONTINUOUS
 62
             7
100
AcDbLine
 10
-14.54940449999998
 20
112.025204
 11
-14.25481549999998
 21
112.517568
  0
LINE
  5
26B
100
AcDbEntity
  8
LC-002-002-----0
  6
CONTINUOUS
 62
             7
100
AcDbLine
 10
-14.25481549999998
 20
112.517568
 11
-13.83550949999997
 21
112.96151399999999
  0
LINE
  5
26A
100
AcDbEntity
  8
LC-002-002-----0
  6
CONTINUOUS
 62
             7
100
AcDbLine
 10
-13.83550949999997
 20
112.96151399999999
 11
-13.23986349999998
 21
113.295599
  0
LINE
  5
269
100
AcDbEntity
  8
LC-002-002-----0
  6
CONTINUOUS
 62
             7
100
AcDbLine
 10
-13.23986349999998
 20
113.295599
 11
-12.48843349999999
 21
113.5
  0
LINE
  5
268
100
AcDbEntity
  8
LC-002-002-----0
  6
CONTINUOUS
 62
             7
100
AcDbLine
 10
-32.37862949999996
 20
105.642269
 11
-32.24815349999997
 21
106.303257
  0
LINE
  5
267
100
AcDbEntity
  8
LC-002-002-----0
  6
CONTINUOUS
 62
             7
100
AcDbLine
 10
-32.24815349999997
 20
106.303257
 11
-32.11767749999999
 21
106.96424399999999
  0
LINE
  5
266
100
AcDbEntity
  8
LC-002-002-----0
  6
CONTINUOUS
 62
             7
100
AcDbLine
 10
-32.11767749999999
 20
106.96424399999999
 11
-31.94892250000001
 21
107.58186000000001
  0
LINE
  5
265
100
AcDbEntity
  8
LC-002-002-----0
  6
CONTINUOUS
 62
             7
100
AcDbLine
 10
-31.94892250000001
 20
107.58186000000001
 11
-31.7227475
 21
108.13441899999999
  0
LINE
  5
264
100
AcDbEntity
  8
LC-002-002-----0
  6
CONTINUOUS
 62
             7
100
AcDbLine
 10
-31.7227475
 20
108.13441899999999
 11
-31.49657349999998
 21
108.686978
  0
LINE
  5
263
100
AcDbEntity
  8
LC-002-002-----0
  6
CONTINUOUS
 62
             7
100
AcDbLine
 10
-31.49657349999998
 20
108.686978
 11
-31.22592749999998
 21
109.110151
  0
LINE
  5
262
100
AcDbEntity
  8
LC-002-002-----0
  6
CONTINUOUS
 62
             7
100
AcDbLine
 10
-31.22592749999998
 20
109.110151
 11
-30.94416449999997
 21
109.500978
  0
LINE
  5
261
100
AcDbEntity
  8
LC-002-002-----0
  6
CONTINUOUS
 62
             7
100
AcDbLine
 10
-30.94416449999997
 20
109.500978
 11
-30.66292749999994
 21
109.855087
  0
LINE
  5
260
100
AcDbEntity
  8
LC-002-002-----0
  6
CONTINUOUS
 62
             7
100
AcDbLine
 10
-30.66292749999994
 20
109.855087
 11
-30.38379449999994
 21
110.06232900000001
  0
LINE
  5
25F
100
AcDbEntity
  8
LC-002-002-----0
  6
CONTINUOUS
 62
             7
100
AcDbLine
 10
-30.38379449999994
 20
110.06232900000001
 11
-30.10466049999994
 21
110.26957
  0
LINE
  5
25E
100
AcDbEntity
  8
LC-002-002-----0
  6
CONTINUOUS
 62
             7
100
AcDbLine
 10
-30.10466049999994
 20
110.26957
 11
-29.85009349999999
 21
110.386512
  0
LINE
  5
25D
100
AcDbEntity
  8
LC-002-002-----0
  6
CONTINUOUS
 62
             7
100
AcDbLine
 10
-29.85009349999999
 20
110.386512
 11
-29.61190449999995
 21
110.44325600000001
  0
LINE
  5
25C
100
AcDbEntity
  8
LC-002-002-----0
  6
CONTINUOUS
 62
             7
100
AcDbLine
 10
-29.61190449999995
 20
110.44325600000001
 11
-29.37371449999998
 21
110.5
  0
LINE
  5
25B
100
AcDbEntity
  8
LC-002-002-----0
  6
CONTINUOUS
 62
             7
100
AcDbLine
 10
-8.76177449999997
 20
105.83687500000001
 11
-8.72837649999997
 21
106.623878
  0
LINE
  5
25A
100
AcDbEntity
  8
LC-002-002-----0
  6
CONTINUOUS
 62
             7
100
AcDbLine
 10
-8.72837649999997
 20
106.623878
 11
-8.69497749999996
 21
107.410882
  0
LINE
  5
259
100
AcDbEntity
  8
LC-002-002-----0
  6
CONTINUOUS
 62
             7
100
AcDbLine
 10
-8.69497749999996
 20
107.410882
 11
-8.65038549999997
 21
108.161619
  0
LINE
  5
258
100
AcDbEntity
  8
LC-002-002-----0
  6
CONTINUOUS
 62
             7
100
AcDbLine
 10
-8.65038549999997
 20
108.161619
 11
-8.58900249999996
 21
108.857958
  0
LINE
  5
257
100
AcDbEntity
  8
LC-002-002-----0
  6
CONTINUOUS
 62
             7
100
AcDbLine
 10
-8.58900249999996
 20
108.857958
 11
-8.52762049999998
 21
109.55429599999999
  0
LINE
  5
256
100
AcDbEntity
  8
LC-002-002-----0
  6
CONTINUOUS
 62
             7
100
AcDbLine
 10
-8.52762049999998
 20
109.55429599999999
 11
-8.44452049999998
 21
110.14695
  0
LINE
  5
255
100
AcDbEntity
  8
LC-002-002-----0
  6
CONTINUOUS
 62
             7
100
AcDbLine
 10
-8.44452049999998
 20
110.14695
 11
-8.35599149999996
 21
110.713683
  0
LINE
  5
254
100
AcDbEntity
  8
LC-002-002-----0
  6
CONTINUOUS
 62
             7
100
AcDbLine
 10
-8.35599149999996
 20
110.713683
 11
-8.25809049999998
 21
111.256595
  0
LINE
  5
253
100
AcDbEntity
  8
LC-002-002-----0
  6
CONTINUOUS
 62
             7
100
AcDbLine
 10
-8.25809049999998
 20
111.256595
 11
-8.12269649999996
 21
111.70422499999999
  0
LINE
  5
252
100
AcDbEntity
  8
LC-002-002-----0
  6
CONTINUOUS
 62
             7
100
AcDbLine
 10
-8.12269649999996
 20
111.70422499999999
 11
-7.98730249999997
 21
112.151855
  0
LINE
  5
251
100
AcDbEntity
  8
LC-002-002-----0
  6
CONTINUOUS
 62
             7
100
AcDbLine
 10
-7.98730249999997
 20
112.151855
 11
-7.74866449999996
 21
112.615621
  0
LINE
  5
250
100
AcDbEntity
  8
LC-002-002-----0
  6
CONTINUOUS
 62
             7
100
AcDbLine
 10
-7.74866449999996
 20
112.615621
 11
-7.34628849999996
 21
113.11380200000001
  0
LINE
  5
24F
100
AcDbEntity
  8
LC-002-002-----0
  6
CONTINUOUS
 62
             7
100
AcDbLine
 10
-7.34628849999996
 20
113.11380200000001
 11
-6.29809749999998
 21
113.5
  0
LINE
  5
24E
100
AcDbEntity
  8
LC-002-002-----0
  6
CONTINUOUS
 62
             7
100
AcDbLine
 10
37.85329250000004
 20
105.616775
 11
37.70493850000003
 21
106.263682
  0
LINE
  5
24D
100
AcDbEntity
  8
LC-002-002-----0
  6
CONTINUOUS
 62
             7
100
AcDbLine
 10
37.70493850000003
 20
106.263682
 11
37.55658550000004
 21
106.910588
  0
LINE
  5
24C
100
AcDbEntity
  8
LC-002-002-----0
  6
CONTINUOUS
 62
             7
100
AcDbLine
 10
37.55658550000004
 20
106.910588
 11
37.36407750000004
 21
107.516294
  0
LINE
  5
24B
100
AcDbEntity
  8
LC-002-002-----0
  6
CONTINUOUS
 62
             7
100
AcDbLine
 10
37.36407750000004
 20
107.516294
 11
37.10533550000002
 21
108.060196
  0
LINE
  5
24A
100
AcDbEntity
  8
LC-002-002-----0
  6
CONTINUOUS
 62
             7
100
AcDbLine
 10
37.10533550000002
 20
108.060196
 11
36.84659450000004
 21
108.60409900000001
  0
LINE
  5
249
100
AcDbEntity
  8
LC-002-002-----0
  6
CONTINUOUS
 62
             7
100
AcDbLine
 10
36.84659450000004
 20
108.60409900000001
 11
36.53060850000003
 21
109.027795
  0
LINE
  5
248
100
AcDbEntity
  8
LC-002-002-----0
  6
CONTINUOUS
 62
             7
100
AcDbLine
 10
36.53060850000003
 20
109.027795
 11
36.20031150000003
 21
109.42143900000001
  0
LINE
  5
247
100
AcDbEntity
  8
LC-002-002-----0
  6
CONTINUOUS
 62
             7
100
AcDbLine
 10
36.20031150000003
 20
109.42143900000001
 11
35.86538550000003
 21
109.781205
  0
LINE
  5
246
100
AcDbEntity
  8
LC-002-002-----0
  6
CONTINUOUS
 62
             7
100
AcDbLine
 10
35.86538550000003
 20
109.781205
 11
35.51194550000002
 21
110.00545700000001
  0
LINE
  5
245
100
AcDbEntity
  8
LC-002-002-----0
  6
CONTINUOUS
 62
             7
100
AcDbLine
 10
35.51194550000002
 20
110.00545700000001
 11
35.15850550000002
 21
110.229708
  0
LINE
  5
244
100
AcDbEntity
  8
LC-002-002-----0
  6
CONTINUOUS
 62
             7
100
AcDbLine
 10
35.15850550000002
 20
110.229708
 11
34.80987750000003
 21
110.36108400000001
  0
LINE
  5
243
100
AcDbEntity
  8
LC-002-002-----0
  6
CONTINUOUS
 62
             7
100
AcDbLine
 10
34.80987750000003
 20
110.36108400000001
 11
34.46445650000004
 21
110.430542
  0
LINE
  5
242
100
AcDbEntity
  8
LC-002-002-----0
  6
CONTINUOUS
 62
             7
100
AcDbLine
 10
34.46445650000004
 20
110.430542
 11
34.11903550000002
 21
110.5
  0
LINE
  5
241
100
AcDbEntity
  8
LC-002-002-----0
  6
CONTINUOUS
 62
             7
100
AcDbLine
 10
-29.56569049999999
 20
5.462582
 11
-22.78820749999997
 21
105.90334799999999
  0
LINE
  5
240
100
AcDbEntity
  8
LC-002-002-----0
  6
CONTINUOUS
 62
             7
100
AcDbLine
 10
-74.37119749999997
 20
3.625113
 11
-74.36852849999994
 21
3.779304
  0
LINE
  5
23F
100
AcDbEntity
  8
LC-002-002-----0
  6
CONTINUOUS
 62
             7
100
AcDbLine
 10
-74.36852849999994
 20
3.779304
 11
-74.36586049999997
 21
3.93349600000002
  0
LINE
  5
23E
100
AcDbEntity
  8
LC-002-002-----0
  6
CONTINUOUS
 62
             7
100
AcDbLine
 10
-74.36586049999997
 20
3.93349600000002
 11
-74.36105849999998
 21
4.08761200000001
  0
LINE
  5
23D
100
AcDbEntity
  8
LC-002-002-----0
  6
CONTINUOUS
 62
             7
100
AcDbLine
 10
-74.36105849999998
 20
4.08761200000001
 11
-74.35305649999995
 21
4.24161700000002
  0
LINE
  5
23C
100
AcDbEntity
  8
LC-002-002-----0
  6
CONTINUOUS
 62
             7
100
AcDbLine
 10
-74.35305649999995
 20
4.24161700000002
 11
-74.34505449999998
 21
4.39562100000001
  0
LINE
  5
23B
100
AcDbEntity
  8
LC-002-002-----0
  6
CONTINUOUS
 62
             7
100
AcDbLine
 10
-74.34505449999998
 20
4.39562100000001
 11
-74.33279349999995
 21
4.54932700000001
  0
LINE
  5
23A
100
AcDbEntity
  8
LC-002-002-----0
  6
CONTINUOUS
 62
             7
100
AcDbLine
 10
-74.33279349999995
 20
4.54932700000001
 11
-74.3194675
 21
4.70295900000002
  0
LINE
  5
239
100
AcDbEntity
  8
LC-002-002-----0
  6
CONTINUOUS
 62
             7
100
AcDbLine
 10
-74.3194675
 20
4.70295900000002
 11
-74.30507949999995
 21
4.85647800000001
  0
LINE
  5
238
100
AcDbEntity
  8
LC-002-002-----0
  6
CONTINUOUS
 62
             7
100
AcDbLine
 10
-74.30507949999995
 20
4.85647800000001
 11
-74.28644549999999
 21
5.00955100000002
  0
LINE
  5
237
100
AcDbEntity
  8
LC-002-002-----0
  6
CONTINUOUS
 62
             7
100
AcDbLine
 10
-74.28644549999999
 20
5.00955100000002
 11
-74.26781149999997
 21
5.162623
  0
LINE
  5
236
100
AcDbEntity
  8
LC-002-002-----0
  6
CONTINUOUS
 62
             7
100
AcDbLine
 10
-74.26781149999997
 20
5.162623
 11
-74.24600549999994
 21
5.31524900000002
  0
LINE
  5
235
100
AcDbEntity
  8
LC-002-002-----0
  6
CONTINUOUS
 62
             7
100
AcDbLine
 10
-74.24600549999994
 20
5.31524900000002
 11
-74.22208549999996
 21
5.46757700000001
  0
LINE
  5
234
100
AcDbEntity
  8
LC-002-002-----0
  6
CONTINUOUS
 62
             7
100
AcDbLine
 10
-74.22208549999996
 20
5.46757700000001
 11
-74.19816549999999
 21
5.61990500000002
  0
LINE
  5
233
100
AcDbEntity
  8
LC-002-002-----0
  6
CONTINUOUS
 62
             7
100
AcDbLine
 10
-49.66643849999994
 20
106.028792
 11
-49.41270949999998
 21
106.92980900000001
  0
LINE
  5
232
100
AcDbEntity
  8
LC-002-002-----0
  6
CONTINUOUS
 62
             7
100
AcDbLine
 10
-49.41270949999998
 20
106.92980900000001
 11
-49.15898050000001
 21
107.830827
  0
LINE
  5
231
100
AcDbEntity
  8
LC-002-002-----0
  6
CONTINUOUS
 62
             7
100
AcDbLine
 10
-49.15898050000001
 20
107.830827
 11
-48.82060849999996
 21
108.68980999999999
  0
LINE
  5
230
100
AcDbEntity
  8
LC-002-002-----0
  6
CONTINUOUS
 62
             7
100
AcDbLine
 10
-48.82060849999996
 20
108.68980999999999
 11
-48.35527049999999
 21
109.485742
  0
LINE
  5
22F
100
AcDbEntity
  8
LC-002-002-----0
  6
CONTINUOUS
 62
             7
100
AcDbLine
 10
-48.35527049999999
 20
109.485742
 11
-47.88993149999996
 21
110.281674
  0
LINE
  5
22E
100
AcDbEntity
  8
LC-002-002-----0
  6
CONTINUOUS
 62
             7
100
AcDbLine
 10
-47.88993149999996
 20
110.281674
 11
-47.27682250000001
 21
110.944219
  0
LINE
  5
22D
100
AcDbEntity
  8
LC-002-002-----0
  6
CONTINUOUS
 62
             7
100
AcDbLine
 10
-47.27682250000001
 20
110.944219
 11
-46.62676949999994
 21
111.57341700000001
  0
LINE
  5
22C
100
AcDbEntity
  8
LC-002-002-----0
  6
CONTINUOUS
 62
             7
100
AcDbLine
 10
-46.62676949999994
 20
111.57341700000001
 11
-45.94843449999999
 21
112.158057
  0
LINE
  5
22B
100
AcDbEntity
  8
LC-002-002-----0
  6
CONTINUOUS
 62
             7
100
AcDbLine
 10
-45.94843449999999
 20
112.158057
 11
-45.15696849999998
 21
112.564465
  0
LINE
  5
22A
100
AcDbEntity
  8
LC-002-002-----0
  6
CONTINUOUS
 62
             7
100
AcDbLine
 10
-45.15696849999998
 20
112.564465
 11
-44.36550149999997
 21
112.970873
  0
LINE
  5
229
100
AcDbEntity
  8
LC-002-002-----0
  6
CONTINUOUS
 62
             7
100
AcDbLine
 10
-44.36550149999997
 20
112.970873
 11
-43.5269615
 21
113.218028
  0
LINE
  5
228
100
AcDbEntity
  8
LC-002-002-----0
  6
CONTINUOUS
 62
             7
100
AcDbLine
 10
-43.5269615
 20
113.218028
 11
-42.65703749999997
 21
113.359014
  0
LINE
  5
227
100
AcDbEntity
  8
LC-002-002-----0
  6
CONTINUOUS
 62
             7
100
AcDbLine
 10
-42.65703749999997
 20
113.359014
 11
-41.78711349999995
 21
113.5
  0
LINE
  5
226
100
AcDbEntity
  8
LC-002-002-----0
  6
CONTINUOUS
 62
             7
100
AcDbLine
 10
-46.24396449999998
 20
0.0
 11
-46.24396449999998
 21
3.625113
  0
LINE
  5
225
100
AcDbEntity
  8
LC-002-002-----0
  6
CONTINUOUS
 62
             7
100
AcDbLine
 10
-42.65478849999997
 20
105.59455
 11
-42.5213775
 21
106.112883
  0
LINE
  5
224
100
AcDbEntity
  8
LC-002-002-----0
  6
CONTINUOUS
 62
             7
100
AcDbLine
 10
-42.5213775
 20
106.112883
 11
-42.38796549999998
 21
106.631215
  0
LINE
  5
223
100
AcDbEntity
  8
LC-002-002-----0
  6
CONTINUOUS
 62
             7
100
AcDbLine
 10
-42.38796549999998
 20
106.631215
 11
-42.25455349999996
 21
107.149547
  0
LINE
  5
222
100
AcDbEntity
  8
LC-002-002-----0
  6
CONTINUOUS
 62
             7
100
AcDbLine
 10
-42.25455349999996
 20
107.149547
 11
-42.0388485
 21
107.60364
  0
LINE
  5
221
100
AcDbEntity
  8
LC-002-002-----0
  6
CONTINUOUS
 62
             7
100
AcDbLine
 10
-42.0388485
 20
107.60364
 11
-41.80421349999998
 21
108.04295500000001
  0
LINE
  5
220
100
AcDbEntity
  8
LC-002-002-----0
  6
CONTINUOUS
 62
             7
100
AcDbLine
 10
-41.80421349999998
 20
108.04295500000001
 11
-41.56957849999995
 21
108.482271
  0
LINE
  5
21F
100
AcDbEntity
  8
LC-002-002-----0
  6
CONTINUOUS
 62
             7
100
AcDbLine
 10
-41.56957849999995
 20
108.482271
 11
-41.29006250000001
 21
108.849953
  0
LINE
  5
21E
100
AcDbEntity
  8
LC-002-002-----0
  6
CONTINUOUS
 62
             7
100
AcDbLine
 10
-41.29006250000001
 20
108.849953
 11
-40.98373050000001
 21
109.174835
  0
LINE
  5
21D
100
AcDbEntity
  8
LC-002-002-----0
  6
CONTINUOUS
 62
             7
100
AcDbLine
 10
-40.98373050000001
 20
109.174835
 11
-40.67739750000001
 21
109.499717
  0
LINE
  5
21C
100
AcDbEntity
  8
LC-002-002-----0
  6
CONTINUOUS
 62
             7
100
AcDbLine
 10
-40.67739750000001
 20
109.499717
 11
-40.35474649999995
 21
109.76694000000001
  0
LINE
  5
21B
100
AcDbEntity
  8
LC-002-002-----0
  6
CONTINUOUS
 62
             7
100
AcDbLine
 10
-40.35474649999995
 20
109.76694000000001
 11
-40.01123949999996
 21
109.960475
  0
LINE
  5
21A
100
AcDbEntity
  8
LC-002-002-----0
  6
CONTINUOUS
 62
             7
100
AcDbLine
 10
-40.01123949999996
 20
109.960475
 11
-39.66773249999997
 21
110.15401
  0
LINE
  5
219
100
AcDbEntity
  8
LC-002-002-----0
  6
CONTINUOUS
 62
             7
100
AcDbLine
 10
-39.66773249999997
 20
110.15401
 11
-39.32198650000001
 21
110.32953999999999
  0
LINE
  5
218
100
AcDbEntity
  8
LC-002-002-----0
  6
CONTINUOUS
 62
             7
100
AcDbLine
 10
-26.32462549999994
 20
105.670627
 11
-26.21476449999997
 21
106.348232
  0
LINE
  5
217
100
AcDbEntity
  8
LC-002-002-----0
  6
CONTINUOUS
 62
             7
100
AcDbLine
 10
-26.21476449999997
 20
106.348232
 11
-26.10490350000001
 21
107.025836
  0
LINE
  5
216
100
AcDbEntity
  8
LC-002-002-----0
  6
CONTINUOUS
 62
             7
100
AcDbLine
 10
-26.10490350000001
 20
107.025836
 11
-25.96295949999998
 21
107.65860000000001
  0
LINE
  5
215
100
AcDbEntity
  8
LC-002-002-----0
  6
CONTINUOUS
 62
             7
100
AcDbLine
 10
-25.96295949999998
 20
107.65860000000001
 11
-25.77289449999998
 21
108.224101
  0
LINE
  5
214
100
AcDbEntity
  8
LC-002-002-----0
  6
CONTINUOUS
 62
             7
100
AcDbLine
 10
-25.77289449999998
 20
108.224101
 11
-25.58282849999998
 21
108.789602
  0
LINE
  5
213
100
AcDbEntity
  8
LC-002-002-----0
  6
CONTINUOUS
 62
             7
100
AcDbLine
 10
-25.58282849999998
 20
108.789602
 11
-25.35927649999999
 21
109.21803
  0
LINE
  5
212
100
AcDbEntity
  8
LC-002-002-----0
  6
CONTINUOUS
 62
             7
100
AcDbLine
 10
-25.35927649999999
 20
109.21803
 11
-25.12735449999994
 21
109.61219
  0
LINE
  5
211
100
AcDbEntity
  8
LC-002-002-----0
  6
CONTINUOUS
 62
             7
100
AcDbLine
 10
-25.12735449999994
 20
109.61219
 11
-24.90144849999993
 21
109.95827800000001
  0
LINE
  5
210
100
AcDbEntity
  8
LC-002-002-----0
  6
CONTINUOUS
 62
             7
100
AcDbLine
 10
-24.90144849999993
 20
109.95827800000001
 11
-24.69436149999999
 21
110.154038
  0
LINE
  5
20F
100
AcDbEntity
  8
LC-002-002-----0
  6
CONTINUOUS
 62
             7
100
AcDbLine
 10
-24.69436149999999
 20
110.154038
 11
-24.48727349999993
 21
110.349797
  0
LINE
  5
20E
100
AcDbEntity
  8
LC-002-002-----0
  6
CONTINUOUS
 62
             7
100
AcDbLine
 10
-24.48727349999993
 20
110.349797
 11
-24.35248749999997
 21
110.422758
  0
LINE
  5
20D
100
AcDbEntity
  8
LC-002-002-----0
  6
CONTINUOUS
 62
             7
100
AcDbLine
 10
-24.35248749999997
 20
110.422758
 11
-24.23547149999993
 21
110.465536
  0
LINE
  5
20C
100
AcDbEntity
  8
LC-002-002-----0
  6
CONTINUOUS
 62
             7
100
AcDbLine
 10
-24.23547149999993
 20
110.465536
 11
-24.12580149999999
 21
110.5
  0
LINE
  5
20B
100
AcDbEntity
  8
LC-002-002-----0
  6
CONTINUOUS
 62
             7
100
AcDbLine
 10
26.57249750000003
 20
5.26060900000002
 11
19.79501450000004
 21
105.701375
  0
LINE
  5
20A
100
AcDbEntity
  8
LC-002-002-----0
  6
CONTINUOUS
 62
             7
100
AcDbLine
 10
-1.49999949999997
 20
112.0
 11
-1.49999949999997
 21
105.802361
  0
LINE
  5
209
100
AcDbEntity
  8
LC-002-002-----0
  6
CONTINUOUS
 62
             7
100
AcDbLine
 10
35.25000050000003
 20
0.0
 11
35.25000050000003
 21
3.625113
  0
LINE
  5
208
100
AcDbEntity
  8
LC-002-002-----0
  6
CONTINUOUS
 62
             7
100
AcDbLine
 10
35.25000050000003
 20
-26.0
 11
35.25000050000003
 21
-3.0
  0
LINE
  5
207
100
AcDbEntity
  8
LC-002-002-----0
  6
CONTINUOUS
 62
             7
100
AcDbLine
 10
55.22055950000004
 20
106.054213
 11
54.93406950000002
 21
106.966847
  0
LINE
  5
206
100
AcDbEntity
  8
LC-002-002-----0
  6
CONTINUOUS
 62
             7
100
AcDbLine
 10
54.93406950000002
 20
106.966847
 11
54.64757950000004
 21
107.879482
  0
LINE
  5
205
100
AcDbEntity
  8
LC-002-002-----0
  6
CONTINUOUS
 62
             7
100
AcDbLine
 10
54.64757950000004
 20
107.879482
 11
54.26757350000003
 21
108.746414
  0
LINE
  5
204
100
AcDbEntity
  8
LC-002-002-----0
  6
CONTINUOUS
 62
             7
100
AcDbLine
 10
54.26757350000003
 20
108.746414
 11
53.74729450000004
 21
109.544794
  0
LINE
  5
203
100
AcDbEntity
  8
LC-002-002-----0
  6
CONTINUOUS
 62
             7
100
AcDbLine
 10
53.74729450000004
 20
109.544794
 11
53.22701550000002
 21
110.343174
  0
LINE
  5
202
100
AcDbEntity
  8
LC-002-002-----0
  6
CONTINUOUS
 62
             7
100
AcDbLine
 10
53.22701550000002
 20
110.343174
 11
52.55010650000003
 21
111.000373
  0
LINE
  5
201
100
AcDbEntity
  8
LC-002-002-----0
  6
CONTINUOUS
 62
             7
100
AcDbLine
 10
52.55010650000003
 20
111.000373
 11
51.83403950000002
 21
111.622277
  0
LINE
  5
200
100
AcDbEntity
  8
LC-002-002-----0
  6
CONTINUOUS
 62
             7
100
AcDbLine
 10
51.83403950000002
 20
111.622277
 11
51.08964750000004
 21
112.198849
  0
LINE
  5
1FF
100
AcDbEntity
  8
LC-002-002-----0
  6
CONTINUOUS
 62
             7
100
AcDbLine
 10
51.08964750000004
 20
112.198849
 11
50.23195550000003
 21
112.594095
  0
LINE
  5
1FE
100
AcDbEntity
  8
LC-002-002-----0
  6
CONTINUOUS
 62
             7
100
AcDbLine
 10
50.23195550000003
 20
112.594095
 11
49.37426350000004
 21
112.98934
  0
LINE
  5
1FD
100
AcDbEntity
  8
LC-002-002-----0
  6
CONTINUOUS
 62
             7
100
AcDbLine
 10
49.37426350000004
 20
112.98934
 11
48.47186750000003
 21
113.228799
  0
LINE
  5
1FC
100
AcDbEntity
  8
LC-002-002-----0
  6
CONTINUOUS
 62
             7
100
AcDbLine
 10
48.47186750000003
 20
113.228799
 11
47.53966850000003
 21
113.36439900000001
  0
LINE
  5
1FB
100
AcDbEntity
  8
LC-002-002-----0
  6
CONTINUOUS
 62
             7
100
AcDbLine
 10
47.53966850000003
 20
113.36439900000001
 11
46.60746850000004
 21
113.5
  0
LINE
  5
1FA
100
AcDbEntity
  8
LC-002-002-----0
  6
CONTINUOUS
 62
             7
100
AcDbLine
 10
-12.48843349999999
 20
113.5
 11
-9.56843149999997
 21
113.5
  0
LINE
  5
1F9
100
AcDbEntity
  8
LC-002-002-----0
  6
CONTINUOUS
 62
             7
100
AcDbLine
 10
-59.67647749999995
 20
5.56940600000002
 11
-45.62585849999996
 21
106.010172
  0
LINE
  5
1F8
100
AcDbEntity
  8
LC-002-002-----0
  6
CONTINUOUS
 62
             7
100
AcDbLine
 10
45.62585950000002
 20
106.010172
 11
45.39570250000003
 21
106.902063
  0
LINE
  5
1F7
100
AcDbEntity
  8
LC-002-002-----0
  6
CONTINUOUS
 62
             7
100
AcDbLine
 10
45.39570250000003
 20
106.902063
 11
45.16554650000003
 21
107.793955
  0
LINE
  5
1F6
100
AcDbEntity
  8
LC-002-002-----0
  6
CONTINUOUS
 62
             7
100
AcDbLine
 10
45.16554650000003
 20
107.793955
 11
44.85753150000002
 21
108.64621099999999
  0
LINE
  5
1F5
100
AcDbEntity
  8
LC-002-002-----0
  6
CONTINUOUS
 62
             7
100
AcDbLine
 10
44.85753150000002
 20
108.64621099999999
 11
44.43272750000003
 21
109.439015
  0
LINE
  5
1F4
100
AcDbEntity
  8
LC-002-002-----0
  6
CONTINUOUS
 62
             7
100
AcDbLine
 10
44.43272750000003
 20
109.439015
 11
44.00792350000003
 21
110.231819
  0
LINE
  5
1F3
100
AcDbEntity
  8
LC-002-002-----0
  6
CONTINUOUS
 62
             7
100
AcDbLine
 10
44.00792350000003
 20
110.231819
 11
43.44260450000002
 21
110.897567
  0
LINE
  5
1F2
100
AcDbEntity
  8
LC-002-002-----0
  6
CONTINUOUS
 62
             7
100
AcDbLine
 10
43.44260450000002
 20
110.897567
 11
42.84215550000002
 21
111.531552
  0
LINE
  5
1F1
100
AcDbEntity
  8
LC-002-002-----0
  6
CONTINUOUS
 62
             7
100
AcDbLine
 10
42.84215550000002
 20
111.531552
 11
42.21323750000002
 21
112.121926
  0
LINE
  5
1F0
100
AcDbEntity
  8
LC-002-002-----0
  6
CONTINUOUS
 62
             7
100
AcDbLine
 10
42.21323750000002
 20
112.121926
 11
41.47044050000002
 21
112.537851
  0
LINE
  5
1EF
100
AcDbEntity
  8
LC-002-002-----0
  6
CONTINUOUS
 62
             7
100
AcDbLine
 10
41.47044050000002
 20
112.537851
 11
40.72764250000003
 21
112.953777
  0
LINE
  5
1EE
100
AcDbEntity
  8
LC-002-002-----0
  6
CONTINUOUS
 62
             7
100
AcDbLine
 10
40.72764250000003
 20
112.953777
 11
39.93438050000003
 21
113.20780600000001
  0
LINE
  5
1ED
100
AcDbEntity
  8
LC-002-002-----0
  6
CONTINUOUS
 62
             7
100
AcDbLine
 10
39.93438050000003
 20
113.20780600000001
 11
39.10747550000002
 21
113.353903
  0
LINE
  5
1EC
100
AcDbEntity
  8
LC-002-002-----0
  6
CONTINUOUS
 62
             7
100
AcDbLine
 10
39.10747550000002
 20
113.353903
 11
38.28056950000004
 21
113.5
  0
LINE
  5
1EB
100
AcDbEntity
  8
LC-002-002-----0
  6
CONTINUOUS
 62
             7
100
AcDbLine
 10
69.49554850000001
 20
3.625113
 11
69.49361350000001
 21
3.73989300000002
  0
LINE
  5
1EA
100
AcDbEntity
  8
LC-002-002-----0
  6
CONTINUOUS
 62
             7
100
AcDbLine
 10
69.49361350000001
 20
3.73989300000002
 11
69.49167750000001
 21
3.85467300000002
  0
LINE
  5
1E9
100
AcDbEntity
  8
LC-002-002-----0
  6
CONTINUOUS
 62
             7
100
AcDbLine
 10
69.49167750000001
 20
3.85467300000002
 11
69.48819550000005
 21
3.96939500000002
  0
LINE
  5
1E8
100
AcDbEntity
  8
LC-002-002-----0
  6
CONTINUOUS
 62
             7
100
AcDbLine
 10
69.48819550000005
 20
3.96939500000002
 11
69.48239250000003
 21
4.08403000000001
  0
LINE
  5
1E7
100
AcDbEntity
  8
LC-002-002-----0
  6
CONTINUOUS
 62
             7
100
AcDbLine
 10
69.48239250000003
 20
4.08403000000001
 11
69.47658950000002
 21
4.19866500000001
  0
LINE
  5
1E6
100
AcDbEntity
  8
LC-002-002-----0
  6
CONTINUOUS
 62
             7
100
AcDbLine
 10
69.47658950000002
 20
4.19866500000001
 11
69.46769850000001
 21
4.31306900000001
  0
LINE
  5
1E5
100
AcDbEntity
  8
LC-002-002-----0
  6
CONTINUOUS
 62
             7
100
AcDbLine
 10
69.46769850000001
 20
4.31306900000001
 11
69.45803550000002
 21
4.427415
  0
LINE
  5
1E4
100
AcDbEntity
  8
LC-002-002-----0
  6
CONTINUOUS
 62
             7
100
AcDbLine
 10
69.45803550000002
 20
4.427415
 11
69.44760250000005
 21
4.541675
  0
LINE
  5
1E3
100
AcDbEntity
  8
LC-002-002-----0
  6
CONTINUOUS
 62
             7
100
AcDbLine
 10
69.44760250000005
 20
4.541675
 11
69.43409250000005
 21
4.65558800000002
  0
LINE
  5
1E2
100
AcDbEntity
  8
LC-002-002-----0
  6
CONTINUOUS
 62
             7
100
AcDbLine
 10
69.43409250000005
 20
4.65558800000002
 11
69.42058250000005
 21
4.76950200000002
  0
LINE
  5
1E1
100
AcDbEntity
  8
LC-002-002-----0
  6
CONTINUOUS
 62
             7
100
AcDbLine
 10
69.42058250000005
 20
4.76950200000002
 11
69.4047745
 21
4.88306900000001
  0
LINE
  5
1E0
100
AcDbEntity
  8
LC-002-002-----0
  6
CONTINUOUS
 62
             7
100
AcDbLine
 10
69.4047745
 20
4.88306900000001
 11
69.38743550000001
 21
4.996407
  0
LINE
  5
1DF
100
AcDbEntity
  8
LC-002-002-----0
  6
CONTINUOUS
 62
             7
100
AcDbLine
 10
69.38743550000001
 20
4.996407
 11
69.37009650000002
 21
5.10974400000001
  0
LINE
  5
1DE
100
AcDbEntity
  8
LC-002-002-----0
  6
CONTINUOUS
 62
             7
100
AcDbLine
 10
6.29809850000004
 20
113.5
 11
4.82549850000004
 21
113.5
  0
LINE
  5
1DD
100
AcDbEntity
  8
LC-002-002-----0
  6
CONTINUOUS
 62
             7
100
AcDbLine
 10
-69.37009649999996
 20
5.10974400000001
 11
-68.34761749999998
 21
11.113066
  0
LINE
  5
1DC
100
AcDbEntity
  8
LC-002-002-----0
  6
CONTINUOUS
 62
             7
100
AcDbLine
 10
29.37371450000003
 20
113.5
 11
24.12580150000002
 21
113.5
  0
LINE
  5
1DB
100
AcDbEntity
  8
LC-002-002-----0
  6
CONTINUOUS
 62
             7
100
AcDbLine
 10
-72.49554849999996
 20
0.0
 11
-72.49554849999996
 21
3.625113
  0
LINE
  5
1DA
100
AcDbEntity
  8
LC-002-002-----0
  6
CONTINUOUS
 62
             7
100
AcDbLine
 10
-5.76256949999998
 20
105.767848
 11
-5.75720249999998
 21
105.90109
  0
LINE
  5
1D9
100
AcDbEntity
  8
LC-002-002-----0
  6
CONTINUOUS
 62
             7
100
AcDbLine
 10
-5.75720249999998
 20
105.90109
 11
-5.75183549999997
 21
106.034333
  0
LINE
  5
1D8
100
AcDbEntity
  8
LC-002-002-----0
  6
CONTINUOUS
 62
             7
100
AcDbLine
 10
-5.75183549999997
 20
106.034333
 11
-5.74646849999996
 21
106.167575
  0
LINE
  5
1D7
100
AcDbEntity
  8
LC-002-002-----0
  6
CONTINUOUS
 62
             7
100
AcDbLine
 10
-5.74646849999996
 20
106.167575
 11
-5.74110149999999
 21
106.30081800000001
  0
LINE
  5
1D6
100
AcDbEntity
  8
LC-002-002-----0
  6
CONTINUOUS
 62
             7
100
AcDbLine
 10
-5.74110149999999
 20
106.30081800000001
 11
-5.73573449999998
 21
106.43406
  0
LINE
  5
1D5
100
AcDbEntity
  8
LC-002-002-----0
  6
CONTINUOUS
 62
             7
100
AcDbLine
 10
-5.73573449999998
 20
106.43406
 11
-5.73036749999997
 21
106.567303
  0
LINE
  5
1D4
100
AcDbEntity
  8
LC-002-002-----0
  6
CONTINUOUS
 62
             7
100
AcDbLine
 10
-5.73036749999997
 20
106.567303
 11
-5.72500049999996
 21
106.70054500000001
  0
LINE
  5
1D3
100
AcDbEntity
  8
LC-002-002-----0
  6
CONTINUOUS
 62
             7
100
AcDbLine
 10
-5.72500049999996
 20
106.70054500000001
 11
-5.71963349999996
 21
106.833788
  0
LINE
  5
1D2
100
AcDbEntity
  8
LC-002-002-----0
  6
CONTINUOUS
 62
             7
100
AcDbLine
 10
-5.71963349999996
 20
106.833788
 11
-5.71426749999998
 21
106.96702999999999
  0
LINE
  5
1D1
100
AcDbEntity
  8
LC-002-002-----0
  6
CONTINUOUS
 62
             7
100
AcDbLine
 10
-5.71426749999998
 20
106.96702999999999
 11
-5.70890049999997
 21
107.100273
  0
LINE
  5
1D0
100
AcDbEntity
  8
LC-002-002-----0
  6
CONTINUOUS
 62
             7
100
AcDbLine
 10
-5.70890049999997
 20
107.100273
 11
-5.70353349999996
 21
107.233515
  0
LINE
  5
1CF
100
AcDbEntity
  8
LC-002-002-----0
  6
CONTINUOUS
 62
             7
100
AcDbLine
 10
-5.70353349999996
 20
107.233515
 11
-5.69816649999999
 21
107.366758
  0
LINE
  5
1CE
100
AcDbEntity
  8
LC-002-002-----0
  6
CONTINUOUS
 62
             7
100
AcDbLine
 10
-5.69816649999999
 20
107.366758
 11
-5.69279949999998
 21
107.5
  0
LINE
  5
1CD
100
AcDbEntity
  8
LC-002-002-----0
  6
CONTINUOUS
 62
             7
100
AcDbLine
 10
69.40514550000003
 20
0.0
 11
69.40514550000003
 21
3.625113
  0
LINE
  5
1CC
100
AcDbEntity
  8
LC-002-002-----0
  6
CONTINUOUS
 62
             7
100
AcDbLine
 10
26.62723250000002
 20
3.625113
 11
26.62638750000002
 21
3.751633
  0
LINE
  5
1CB
100
AcDbEntity
  8
LC-002-002-----0
  6
CONTINUOUS
 62
             7
100
AcDbLine
 10
26.62638750000002
 20
3.751633
 11
26.62554250000002
 21
3.878153
  0
LINE
  5
1CA
100
AcDbEntity
  8
LC-002-002-----0
  6
CONTINUOUS
 62
             7
100
AcDbLine
 10
26.62554250000002
 20
3.878153
 11
26.62402150000003
 21
4.00460100000001
  0
LINE
  5
1C9
100
AcDbEntity
  8
LC-002-002-----0
  6
CONTINUOUS
 62
             7
100
AcDbLine
 10
26.62402150000003
 20
4.00460100000001
 11
26.62148750000003
 21
4.130943
  0
LINE
  5
1C8
100
AcDbEntity
  8
LC-002-002-----0
  6
CONTINUOUS
 62
             7
100
AcDbLine
 10
26.62148750000003
 20
4.130943
 11
26.61895350000003
 21
4.257284
  0
LINE
  5
1C7
100
AcDbEntity
  8
LC-002-002-----0
  6
CONTINUOUS
 62
             7
100
AcDbLine
 10
26.61895350000003
 20
4.257284
 11
26.61507250000003
 21
4.383341
  0
LINE
  5
1C6
100
AcDbEntity
  8
LC-002-002-----0
  6
CONTINUOUS
 62
             7
100
AcDbLine
 10
26.61507250000003
 20
4.383341
 11
26.61085450000002
 21
4.50932600000002
  0
LINE
  5
1C5
100
AcDbEntity
  8
LC-002-002-----0
  6
CONTINUOUS
 62
             7
100
AcDbLine
 10
26.61085450000002
 20
4.50932600000002
 11
26.60630150000003
 21
4.63520400000002
  0
LINE
  5
1C4
100
AcDbEntity
  8
LC-002-002-----0
  6
CONTINUOUS
 62
             7
100
AcDbLine
 10
26.60630150000003
 20
4.63520400000002
 11
26.60040650000002
 21
4.76065500000001
  0
LINE
  5
1C3
100
AcDbEntity
  8
LC-002-002-----0
  6
CONTINUOUS
 62
             7
100
AcDbLine
 10
26.60040650000002
 20
4.76065500000001
 11
26.59451250000004
 21
4.88610600000001
  0
LINE
  5
1C2
100
AcDbEntity
  8
LC-002-002-----0
  6
CONTINUOUS
 62
             7
100
AcDbLine
 10
26.59451250000004
 20
4.88610600000001
 11
26.58761850000002
 21
5.01113000000001
  0
LINE
  5
1C1
100
AcDbEntity
  8
LC-002-002-----0
  6
CONTINUOUS
 62
             7
100
AcDbLine
 10
26.58761850000002
 20
5.01113000000001
 11
26.58005750000004
 21
5.13586900000001
  0
LINE
  5
1C0
100
AcDbEntity
  8
LC-002-002-----0
  6
CONTINUOUS
 62
             7
100
AcDbLine
 10
26.58005750000004
 20
5.13586900000001
 11
26.57249750000003
 21
5.26060900000002
  0
LINE
  5
1BF
100
AcDbEntity
  8
LC-002-002-----0
  6
CONTINUOUS
 62
             7
100
AcDbLine
 10
-41.78711349999995
 20
113.5
 11
-38.28056949999998
 21
113.5
  0
LINE
  5
1BE
100
AcDbEntity
  8
LC-002-002-----0
  6
CONTINUOUS
 62
             7
100
AcDbLine
 10
74.37119750000002
 20
0.0
 11
74.37119750000002
 21
3.625113
  0
LINE
  5
1BD
100
AcDbEntity
  8
LC-002-002-----0
  6
CONTINUOUS
 62
             7
100
AcDbLine
 10
-18.46508850000001
 20
113.5
 11
-14.14764649999998
 21
113.5
  0
LINE
  5
1BC
100
AcDbEntity
  8
LC-002-002-----0
  6
CONTINUOUS
 62
             7
100
AcDbLine
 10
1.50000050000003
 20
3.625113
 11
1.50000050000003
 21
5.36159500000002
  0
LINE
  5
1BB
100
AcDbEntity
  8
LC-002-002-----0
  6
CONTINUOUS
 62
             7
100
AcDbLine
 10
35.36149450000002
 20
105.962453
 11
35.18988250000004
 21
106.82871400000001
  0
LINE
  5
1BA
100
AcDbEntity
  8
LC-002-002-----0
  6
CONTINUOUS
 62
             7
100
AcDbLine
 10
35.18988250000004
 20
106.82871400000001
 11
35.01827050000003
 21
107.694975
  0
LINE
  5
1B9
100
AcDbEntity
  8
LC-002-002-----0
  6
CONTINUOUS
 62
             7
100
AcDbLine
 10
35.01827050000003
 20
107.694975
 11
34.78711250000004
 21
108.526229
  0
LINE
  5
1B8
100
AcDbEntity
  8
LC-002-002-----0
  6
CONTINUOUS
 62
             7
100
AcDbLine
 10
34.78711250000004
 20
108.526229
 11
34.46663350000003
 21
109.304975
  0
LINE
  5
1B7
100
AcDbEntity
  8
LC-002-002-----0
  6
CONTINUOUS
 62
             7
100
AcDbLine
 10
34.46663350000003
 20
109.304975
 11
34.14615450000002
 21
110.083721
  0
LINE
  5
1B6
100
AcDbEntity
  8
LC-002-002-----0
  6
CONTINUOUS
 62
             7
100
AcDbLine
 10
34.14615450000002
 20
110.083721
 11
33.70837650000004
 21
110.75258100000001
  0
LINE
  5
1B5
100
AcDbEntity
  8
LC-002-002-----0
  6
CONTINUOUS
 62
             7
100
AcDbLine
 10
33.70837650000004
 20
110.75258100000001
 11
33.24127350000003
 21
111.39397099999999
  0
LINE
  5
1B4
100
AcDbEntity
  8
LC-002-002-----0
  6
CONTINUOUS
 62
             7
100
AcDbLine
 10
33.24127350000003
 20
111.39397099999999
 11
32.74480550000004
 21
111.99626499999999
  0
LINE
  5
1B3
100
AcDbEntity
  8
LC-002-002-----0
  6
CONTINUOUS
 62
             7
100
AcDbLine
 10
32.74480550000004
 20
111.99626499999999
 11
32.13087850000002
 21
112.442179
  0
LINE
  5
1B2
100
AcDbEntity
  8
LC-002-002-----0
  6
CONTINUOUS
 62
             7
100
AcDbLine
 10
32.13087850000002
 20
112.442179
 11
31.51695250000003
 21
112.888094
  0
LINE
  5
1B1
100
AcDbEntity
  8
LC-002-002-----0
  6
CONTINUOUS
 62
             7
100
AcDbLine
 10
31.51695250000003
 20
112.888094
 11
30.83345850000004
 21
113.166507
  0
LINE
  5
1B0
100
AcDbEntity
  8
LC-002-002-----0
  6
CONTINUOUS
 62
             7
100
AcDbLine
 10
30.83345850000004
 20
113.166507
 11
30.10358650000003
 21
113.333254
  0
LINE
  5
1AF
100
AcDbEntity
  8
LC-002-002-----0
  6
CONTINUOUS
 62
             7
100
AcDbLine
 10
30.10358650000003
 20
113.333254
 11
29.37371450000003
 21
113.5
  0
LINE
  5
1AE
100
AcDbEntity
  8
LC-002-002-----0
  6
CONTINUOUS
 62
             7
100
AcDbLine
 10
-46.24396449999998
 20
3.625113
 11
-46.24240849999998
 21
3.771604
  0
LINE
  5
1AD
100
AcDbEntity
  8
LC-002-002-----0
  6
CONTINUOUS
 62
             7
100
AcDbLine
 10
-46.24240849999998
 20
3.771604
 11
-46.24085149999999
 21
3.918094
  0
LINE
  5
1AC
100
AcDbEntity
  8
LC-002-002-----0
  6
CONTINUOUS
 62
             7
100
AcDbLine
 10
-46.24085149999999
 20
3.918094
 11
-46.23805049999996
 21
4.064525
  0
LINE
  5
1AB
100
AcDbEntity
  8
LC-002-002-----0
  6
CONTINUOUS
 62
             7
100
AcDbLine
 10
-46.23805049999996
 20
4.064525
 11
-46.23338149999998
 21
4.21086500000001
  0
LINE
  5
1AA
100
AcDbEntity
  8
LC-002-002-----0
  6
CONTINUOUS
 62
             7
100
AcDbLine
 10
-46.23338149999998
 20
4.21086500000001
 11
-46.22871249999994
 21
4.35720500000002
  0
LINE
  5
1A9
100
AcDbEntity
  8
LC-002-002-----0
  6
CONTINUOUS
 62
             7
100
AcDbLine
 10
-46.22871249999994
 20
4.35720500000002
 11
-46.22155649999993
 21
4.50330500000001
  0
LINE
  5
1A8
100
AcDbEntity
  8
LC-002-002-----0
  6
CONTINUOUS
 62
             7
100
AcDbLine
 10
-46.22155649999993
 20
4.50330500000001
 11
-46.21377749999996
 21
4.64934500000001
  0
LINE
  5
1A7
100
AcDbEntity
  8
LC-002-002-----0
  6
CONTINUOUS
 62
             7
100
AcDbLine
 10
-46.21377749999996
 20
4.64934500000001
 11
-46.20537849999997
 21
4.79529500000001
  0
LINE
  5
1A6
100
AcDbEntity
  8
LC-002-002-----0
  6
CONTINUOUS
 62
             7
100
AcDbLine
 10
-46.20537849999997
 20
4.79529500000001
 11
-46.19449649999999
 21
4.94088500000001
  0
LINE
  5
1A5
100
AcDbEntity
  8
LC-002-002-----0
  6
CONTINUOUS
 62
             7
100
AcDbLine
 10
-46.19449649999999
 20
4.94088500000001
 11
-46.18361350000001
 21
5.08647500000001
  0
LINE
  5
1A4
100
AcDbEntity
  8
LC-002-002-----0
  6
CONTINUOUS
 62
             7
100
AcDbLine
 10
-46.18361350000001
 20
5.08647500000001
 11
-46.1708725
 21
5.23170500000001
  0
LINE
  5
1A3
100
AcDbEntity
  8
LC-002-002-----0
  6
CONTINUOUS
 62
             7
100
AcDbLine
 10
-46.1708725
 20
5.23170500000001
 11
-46.15689249999994
 21
5.37669600000001
  0
LINE
  5
1A2
100
AcDbEntity
  8
LC-002-002-----0
  6
CONTINUOUS
 62
             7
100
AcDbLine
 10
-46.15689249999994
 20
5.37669600000001
 11
-46.14291249999999
 21
5.52168700000001
  0
LINE
  5
1A1
100
AcDbEntity
  8
LC-002-002-----0
  6
CONTINUOUS
 62
             7
100
AcDbLine
 10
48.25160250000002
 20
113.5
 11
47.83880350000004
 21
113.5
  0
LINE
  5
1A0
100
AcDbEntity
  8
LC-002-002-----0
  6
CONTINUOUS
 62
             7
100
AcDbLine
 10
-6.29809749999998
 20
113.5
 11
-4.82549849999998
 21
113.5
  0
LINE
  5
19F
100
AcDbEntity
  8
LC-002-002-----0
  6
CONTINUOUS
 62
             7
100
AcDbLine
 10
-49.92201149999997
 20
105.561183
 11
-49.88266049999996
 21
105.69235999999999
  0
LINE
  5
19E
100
AcDbEntity
  8
LC-002-002-----0
  6
CONTINUOUS
 62
             7
100
AcDbLine
 10
-49.88266049999996
 20
105.69235999999999
 11
-49.84330949999995
 21
105.823537
  0
LINE
  5
19D
100
AcDbEntity
  8
LC-002-002-----0
  6
CONTINUOUS
 62
             7
100
AcDbLine
 10
-49.84330949999995
 20
105.823537
 11
-49.80395849999994
 21
105.954713
  0
LINE
  5
19C
100
AcDbEntity
  8
LC-002-002-----0
  6
CONTINUOUS
 62
             7
100
AcDbLine
 10
-49.80395849999994
 20
105.954713
 11
-49.76460749999998
 21
106.08589000000001
  0
LINE
  5
19B
100
AcDbEntity
  8
LC-002-002-----0
  6
CONTINUOUS
 62
             7
100
AcDbLine
 10
-49.76460749999998
 20
106.08589000000001
 11
-49.72525649999997
 21
106.217067
  0
LINE
  5
19A
100
AcDbEntity
  8
LC-002-002-----0
  6
CONTINUOUS
 62
             7
100
AcDbLine
 10
-49.72525649999997
 20
106.217067
 11
-49.68590549999996
 21
106.348243
  0
LINE
  5
199
100
AcDbEntity
  8
LC-002-002-----0
  6
CONTINUOUS
 62
             7
100
AcDbLine
 10
-49.68590549999996
 20
106.348243
 11
-49.64655450000001
 21
106.47942
  0
LINE
  5
198
100
AcDbEntity
  8
LC-002-002-----0
  6
CONTINUOUS
 62
             7
100
AcDbLine
 10
-49.64655450000001
 20
106.47942
 11
-49.6072035
 21
106.610597
  0
LINE
  5
197
100
AcDbEntity
  8
LC-002-002-----0
  6
CONTINUOUS
 62
             7
100
AcDbLine
 10
-49.6072035
 20
106.610597
 11
-49.56785249999999
 21
106.74177299999999
  0
LINE
  5
196
100
AcDbEntity
  8
LC-002-002-----0
  6
CONTINUOUS
 62
             7
100
AcDbLine
 10
-49.56785249999999
 20
106.74177299999999
 11
-49.52850149999998
 21
106.87295
  0
LINE
  5
195
100
AcDbEntity
  8
LC-002-002-----0
  6
CONTINUOUS
 62
             7
100
AcDbLine
 10
-49.52850149999998
 20
106.87295
 11
-49.48915049999997
 21
107.004127
  0
LINE
  5
194
100
AcDbEntity
  8
LC-002-002-----0
  6
CONTINUOUS
 62
             7
100
AcDbLine
 10
-49.48915049999997
 20
107.004127
 11
-49.44979949999996
 21
107.13530299999999
  0
LINE
  5
193
100
AcDbEntity
  8
LC-002-002-----0
  6
CONTINUOUS
 62
             7
100
AcDbLine
 10
-49.44979949999996
 20
107.13530299999999
 11
-49.39790149999996
 21
107.260721
  0
LINE
  5
192
100
AcDbEntity
  8
LC-002-002-----0
  6
CONTINUOUS
 62
             7
100
AcDbLine
 10
-71.99999949999997
 20
-26.0
 11
-71.99999949999997
 21
-3.0
  0
LINE
  5
191
100
AcDbEntity
  8
LC-002-002-----0
  6
CONTINUOUS
 62
             7
100
AcDbLine
 10
-56.6392635
 20
106.060672
 11
-56.34435149999993
 21
106.9761
  0
LINE
  5
190
100
AcDbEntity
  8
LC-002-002-----0
  6
CONTINUOUS
 62
             7
100
AcDbLine
 10
-56.34435149999993
 20
106.9761
 11
-56.04943949999998
 21
107.89152799999999
  0
LINE
  5
18F
100
AcDbEntity
  8
LC-002-002-----0
  6
CONTINUOUS
 62
             7
100
AcDbLine
 10
-56.04943949999998
 20
107.89152799999999
 11
-55.65883149999993
 21
108.760265
  0
LINE
  5
18E
100
AcDbEntity
  8
LC-002-002-----0
  6
CONTINUOUS
 62
             7
100
AcDbLine
 10
-55.65883149999993
 20
108.760265
 11
-55.12468049999998
 21
109.558965
  0
LINE
  5
18D
100
AcDbEntity
  8
LC-002-002-----0
  6
CONTINUOUS
 62
             7
100
AcDbLine
 10
-55.12468049999998
 20
109.558965
 11
-54.59052949999997
 21
110.35766599999999
  0
LINE
  5
18C
100
AcDbEntity
  8
LC-002-002-----0
  6
CONTINUOUS
 62
             7
100
AcDbLine
 10
-54.59052949999997
 20
110.35766599999999
 11
-53.89763550000001
 21
111.01338800000001
  0
LINE
  5
18B
100
AcDbEntity
  8
LC-002-002-----0
  6
CONTINUOUS
 62
             7
100
AcDbLine
 10
-53.89763550000001
 20
111.01338800000001
 11
-53.16505449999997
 21
111.633366
  0
LINE
  5
18A
100
AcDbEntity
  8
LC-002-002-----0
  6
CONTINUOUS
 62
             7
100
AcDbLine
 10
-53.16505449999997
 20
111.633366
 11
-52.4040785
 21
112.207891
  0
LINE
  5
189
100
AcDbEntity
  8
LC-002-002-----0
  6
CONTINUOUS
 62
             7
100
AcDbLine
 10
-52.4040785
 20
112.207891
 11
-51.52952350000001
 21
112.600606
  0
LINE
  5
188
100
AcDbEntity
  8
LC-002-002-----0
  6
CONTINUOUS
 62
             7
100
AcDbLine
 10
-51.52952350000001
 20
112.600606
 11
-50.65496849999997
 21
112.99332099999999
  0
LINE
  5
187
100
AcDbEntity
  8
LC-002-002-----0
  6
CONTINUOUS
 62
             7
100
AcDbLine
 10
-50.65496849999997
 20
112.99332099999999
 11
-49.73599049999999
 21
113.231082
  0
LINE
  5
186
100
AcDbEntity
  8
LC-002-002-----0
  6
CONTINUOUS
 62
             7
100
AcDbLine
 10
-49.73599049999999
 20
113.231082
 11
-48.78739649999997
 21
113.36554099999999
  0
LINE
  5
185
100
AcDbEntity
  8
LC-002-002-----0
  6
CONTINUOUS
 62
             7
100
AcDbLine
 10
-48.78739649999997
 20
113.36554099999999
 11
-47.83880349999996
 21
113.5
  0
LINE
  5
184
100
AcDbEntity
  8
LC-002-002-----0
  6
CONTINUOUS
 62
             7
100
AcDbLine
 10
14.14764650000004
 20
113.5
 11
12.50000050000003
 21
113.5
  0
LINE
  5
183
100
AcDbEntity
  8
LC-002-002-----0
  6
CONTINUOUS
 62
             7
100
AcDbLine
 10
24.12580150000002
 20
113.5
 11
18.46508850000004
 21
113.5
  0
LINE
  5
182
100
AcDbEntity
  8
LC-002-002-----0
  6
CONTINUOUS
 62
             7
100
AcDbLine
 10
19.79501450000004
 20
105.701375
 11
19.77790150000004
 21
105.839731
  0
LINE
  5
181
100
AcDbEntity
  8
LC-002-002-----0
  6
CONTINUOUS
 62
             7
100
AcDbLine
 10
19.77790150000004
 20
105.839731
 11
19.76078850000002
 21
105.978086
  0
LINE
  5
180
100
AcDbEntity
  8
LC-002-002-----0
  6
CONTINUOUS
 62
             7
100
AcDbLine
 10
19.76078850000002
 20
105.978086
 11
19.74367550000002
 21
106.11644200000001
  0
LINE
  5
17F
100
AcDbEntity
  8
LC-002-002-----0
  6
CONTINUOUS
 62
             7
100
AcDbLine
 10
19.74367550000002
 20
106.11644200000001
 11
19.72656250000003
 21
106.25479799999999
  0
LINE
  5
17E
100
AcDbEntity
  8
LC-002-002-----0
  6
CONTINUOUS
 62
             7
100
AcDbLine
 10
19.72656250000003
 20
106.25479799999999
 11
19.70944850000004
 21
106.393154
  0
LINE
  5
17D
100
AcDbEntity
  8
LC-002-002-----0
  6
CONTINUOUS
 62
             7
100
AcDbLine
 10
19.70944850000004
 20
106.393154
 11
19.69233550000004
 21
106.53151
  0
LINE
  5
17C
100
AcDbEntity
  8
LC-002-002-----0
  6
CONTINUOUS
 62
             7
100
AcDbLine
 10
19.69233550000004
 20
106.53151
 11
19.67522250000002
 21
106.669865
  0
LINE
  5
17B
100
AcDbEntity
  8
LC-002-002-----0
  6
CONTINUOUS
 62
             7
100
AcDbLine
 10
19.67522250000002
 20
106.669865
 11
19.65810950000002
 21
106.808221
  0
LINE
  5
17A
100
AcDbEntity
  8
LC-002-002-----0
  6
CONTINUOUS
 62
             7
100
AcDbLine
 10
19.65810950000002
 20
106.808221
 11
19.64099650000003
 21
106.946577
  0
LINE
  5
179
100
AcDbEntity
  8
LC-002-002-----0
  6
CONTINUOUS
 62
             7
100
AcDbLine
 10
19.64099650000003
 20
106.946577
 11
19.62388350000003
 21
107.08493300000001
  0
LINE
  5
178
100
AcDbEntity
  8
LC-002-002-----0
  6
CONTINUOUS
 62
             7
100
AcDbLine
 10
19.62388350000003
 20
107.08493300000001
 11
19.60677050000004
 21
107.223288
  0
LINE
  5
177
100
AcDbEntity
  8
LC-002-002-----0
  6
CONTINUOUS
 62
             7
100
AcDbLine
 10
19.60677050000004
 20
107.223288
 11
19.58965750000002
 21
107.361644
  0
LINE
  5
176
100
AcDbEntity
  8
LC-002-002-----0
  6
CONTINUOUS
 62
             7
100
AcDbLine
 10
19.58965750000002
 20
107.361644
 11
19.57254450000002
 21
107.5
  0
LINE
  5
175
100
AcDbEntity
  8
LC-002-002-----0
  6
CONTINUOUS
 62
             7
100
AcDbLine
 10
46.14291250000002
 20
5.52168700000001
 11
35.36149450000002
 21
105.962453
  0
LINE
  5
174
100
AcDbEntity
  8
LC-002-002-----0
  6
CONTINUOUS
 62
             7
100
AcDbLine
 10
-92.99999949999997
 20
3.0
 11
-98.49999949999997
 21
3.0
  0
LINE
  5
173
100
AcDbEntity
  8
LC-002-002-----0
  6
CONTINUOUS
 62
             7
100
AcDbLine
 10
18.46508850000004
 20
113.5
 11
14.14764650000004
 21
113.5
  0
LINE
  5
172
100
AcDbEntity
  8
LC-002-002-----0
  6
CONTINUOUS
 62
             7
100
AcDbLine
 10
-56.81147049999996
 20
3.625113
 11
-56.8098325
 21
3.74336500000001
  0
LINE
  5
171
100
AcDbEntity
  8
LC-002-002-----0
  6
CONTINUOUS
 62
             7
100
AcDbLine
 10
-56.8098325
 20
3.74336500000001
 11
-56.80819549999998
 21
3.86161700000002
  0
LINE
  5
170
100
AcDbEntity
  8
LC-002-002-----0
  6
CONTINUOUS
 62
             7
100
AcDbLine
 10
-56.80819549999998
 20
3.86161700000002
 11
-56.80524849999998
 21
3.97980200000001
  0
LINE
  5
16F
100
AcDbEntity
  8
LC-002-002-----0
  6
CONTINUOUS
 62
             7
100
AcDbLine
 10
-56.80524849999998
 20
3.97980200000001
 11
-56.80033949999998
 21
4.09788800000001
  0
LINE
  5
16E
100
AcDbEntity
  8
LC-002-002-----0
  6
CONTINUOUS
 62
             7
100
AcDbLine
 10
-56.80033949999998
 20
4.09788800000001
 11
-56.79542949999998
 21
4.21597400000002
  0
LINE
  5
16D
100
AcDbEntity
  8
LC-002-002-----0
  6
CONTINUOUS
 62
             7
100
AcDbLine
 10
-56.79542949999998
 20
4.21597400000002
 11
-56.78790949999998
 21
4.33379500000001
  0
LINE
  5
16C
100
AcDbEntity
  8
LC-002-002-----0
  6
CONTINUOUS
 62
             7
100
AcDbLine
 10
-56.78790949999998
 20
4.33379500000001
 11
-56.77973549999993
 21
4.45155
  0
LINE
  5
16B
100
AcDbEntity
  8
LC-002-002-----0
  6
CONTINUOUS
 62
             7
100
AcDbLine
 10
-56.77973549999993
 20
4.45155
 11
-56.77091249999998
 21
4.56920500000001
  0
LINE
  5
16A
100
AcDbEntity
  8
LC-002-002-----0
  6
CONTINUOUS
 62
             7
100
AcDbLine
 10
-56.77091249999998
 20
4.56920500000001
 11
-56.7594905
 21
4.686464
  0
LINE
  5
169
100
AcDbEntity
  8
LC-002-002-----0
  6
CONTINUOUS
 62
             7
100
AcDbLine
 10
-56.7594905
 20
4.686464
 11
-56.74806849999996
 21
4.80372300000002
  0
LINE
  5
168
100
AcDbEntity
  8
LC-002-002-----0
  6
CONTINUOUS
 62
             7
100
AcDbLine
 10
-56.74806849999996
 20
4.80372300000002
 11
-56.73470949999998
 21
4.92058600000001
  0
LINE
  5
167
100
AcDbEntity
  8
LC-002-002-----0
  6
CONTINUOUS
 62
             7
100
AcDbLine
 10
-56.73470949999998
 20
4.92058600000001
 11
-56.72005849999997
 21
5.03718500000002
  0
LINE
  5
166
100
AcDbEntity
  8
LC-002-002-----0
  6
CONTINUOUS
 62
             7
100
AcDbLine
 10
-56.72005849999997
 20
5.03718500000002
 11
-56.70540750000001
 21
5.153784
  0
LINE
  5
165
100
AcDbEntity
  8
LC-002-002-----0
  6
CONTINUOUS
 62
             7
100
AcDbLine
 10
-72.49554849999996
 20
3.625113
 11
-72.49295749999996
 21
3.77879100000001
  0
LINE
  5
164
100
AcDbEntity
  8
LC-002-002-----0
  6
CONTINUOUS
 62
             7
100
AcDbLine
 10
-72.49295749999996
 20
3.77879100000001
 11
-72.49036649999997
 21
3.932469
  0
LINE
  5
163
100
AcDbEntity
  8
LC-002-002-----0
  6
CONTINUOUS
 62
             7
100
AcDbLine
 10
-72.49036649999997
 20
3.932469
 11
-72.48570349999997
 21
4.086074
  0
LINE
  5
162
100
AcDbEntity
  8
LC-002-002-----0
  6
CONTINUOUS
 62
             7
100
AcDbLine
 10
-72.48570349999997
 20
4.086074
 11
-72.47793349999998
 21
4.23956900000002
  0
LINE
  5
161
100
AcDbEntity
  8
LC-002-002-----0
  6
CONTINUOUS
 62
             7
100
AcDbLine
 10
-72.47793349999998
 20
4.23956900000002
 11
-72.47016249999999
 21
4.39306500000001
  0
LINE
  5
160
100
AcDbEntity
  8
LC-002-002-----0
  6
CONTINUOUS
 62
             7
100
AcDbLine
 10
-72.47016249999999
 20
4.39306500000001
 11
-72.45825649999998
 21
4.546268
  0
LINE
  5
15F
100
AcDbEntity
  8
LC-002-002-----0
  6
CONTINUOUS
 62
             7
100
AcDbLine
 10
-72.45825649999998
 20
4.546268
 11
-72.44531549999996
 21
4.699399
  0
LINE
  5
15E
100
AcDbEntity
  8
LC-002-002-----0
  6
CONTINUOUS
 62
             7
100
AcDbLine
 10
-72.44531549999996
 20
4.699399
 11
-72.43134349999994
 21
4.85242000000002
  0
LINE
  5
15D
100
AcDbEntity
  8
LC-002-002-----0
  6
CONTINUOUS
 62
             7
100
AcDbLine
 10
-72.43134349999994
 20
4.85242000000002
 11
-72.41324649999999
 21
5.00500400000001
  0
LINE
  5
15C
100
AcDbEntity
  8
LC-002-002-----0
  6
CONTINUOUS
 62
             7
100
AcDbLine
 10
-72.41324649999999
 20
5.00500400000001
 11
-72.39515049999997
 21
5.157588
  0
LINE
  5
15B
100
AcDbEntity
  8
LC-002-002-----0
  6
CONTINUOUS
 62
             7
100
AcDbLine
 10
-72.39515049999997
 20
5.157588
 11
-72.37397249999995
 21
5.30973500000002
  0
LINE
  5
15A
100
AcDbEntity
  8
LC-002-002-----0
  6
CONTINUOUS
 62
             7
100
AcDbLine
 10
-72.37397249999995
 20
5.30973500000002
 11
-72.35074049999994
 21
5.461591
  0
LINE
  5
159
100
AcDbEntity
  8
LC-002-002-----0
  6
CONTINUOUS
 62
             7
100
AcDbLine
 10
-72.35074049999994
 20
5.461591
 11
-72.32750849999994
 21
5.61344700000001
  0
LINE
  5
158
100
AcDbEntity
  8
LC-002-002-----0
  6
CONTINUOUS
 62
             7
100
AcDbLine
 10
38.25000050000003
 20
3.625113
 11
38.24874050000003
 21
3.76941400000001
  0
LINE
  5
157
100
AcDbEntity
  8
LC-002-002-----0
  6
CONTINUOUS
 62
             7
100
AcDbLine
 10
38.24874050000003
 20
3.76941400000001
 11
38.24748150000002
 21
3.913715
  0
LINE
  5
156
100
AcDbEntity
  8
LC-002-002-----0
  6
CONTINUOUS
 62
             7
100
AcDbLine
 10
38.24748150000002
 20
3.913715
 11
38.24521450000003
 21
4.05795600000002
  0
LINE
  5
155
100
AcDbEntity
  8
LC-002-002-----0
  6
CONTINUOUS
 62
             7
100
AcDbLine
 10
38.24521450000003
 20
4.05795600000002
 11
38.24143750000002
 21
4.20210800000001
  0
LINE
  5
154
100
AcDbEntity
  8
LC-002-002-----0
  6
CONTINUOUS
 62
             7
100
AcDbLine
 10
38.24143750000002
 20
4.20210800000001
 11
38.23765950000004
 21
4.346261
  0
LINE
  5
153
100
AcDbEntity
  8
LC-002-002-----0
  6
CONTINUOUS
 62
             7
100
AcDbLine
 10
38.23765950000004
 20
4.346261
 11
38.23186950000002
 21
4.49017600000002
  0
LINE
  5
152
100
AcDbEntity
  8
LC-002-002-----0
  6
CONTINUOUS
 62
             7
100
AcDbLine
 10
38.23186950000002
 20
4.49017600000002
 11
38.22557650000002
 21
4.63403300000002
  0
LINE
  5
151
100
AcDbEntity
  8
LC-002-002-----0
  6
CONTINUOUS
 62
             7
100
AcDbLine
 10
38.22557650000002
 20
4.63403300000002
 11
38.21878150000003
 21
4.77780000000001
  0
LINE
  5
150
100
AcDbEntity
  8
LC-002-002-----0
  6
CONTINUOUS
 62
             7
100
AcDbLine
 10
38.21878150000003
 20
4.77780000000001
 11
38.20997750000004
 21
4.92121300000002
  0
LINE
  5
14F
100
AcDbEntity
  8
LC-002-002-----0
  6
CONTINUOUS
 62
             7
100
AcDbLine
 10
38.20997750000004
 20
4.92121300000002
 11
38.20117250000004
 21
5.064626
  0
LINE
  5
14E
100
AcDbEntity
  8
LC-002-002-----0
  6
CONTINUOUS
 62
             7
100
AcDbLine
 10
38.20117250000004
 20
5.064626
 11
38.19086450000003
 21
5.207684
  0
LINE
  5
14D
100
AcDbEntity
  8
LC-002-002-----0
  6
CONTINUOUS
 62
             7
100
AcDbLine
 10
38.19086450000003
 20
5.207684
 11
38.17955350000003
 21
5.35050700000002
  0
LINE
  5
14C
100
AcDbEntity
  8
LC-002-002-----0
  6
CONTINUOUS
 62
             7
100
AcDbLine
 10
38.17955350000003
 20
5.35050700000002
 11
38.16824350000002
 21
5.49332900000002
  0
LINE
  5
14B
100
AcDbEntity
  8
LC-002-002-----0
  6
CONTINUOUS
 62
             7
100
AcDbLine
 10
59.81147050000004
 20
0.0
 11
59.81147050000004
 21
3.625113
  0
LINE
  5
14A
100
AcDbEntity
  8
LC-002-002-----0
  6
CONTINUOUS
 62
             7
100
AcDbLine
 10
-11.09367549999996
 20
3.625113
 11
-11.09336349999998
 21
3.76197200000001
  0
LINE
  5
149
100
AcDbEntity
  8
LC-002-002-----0
  6
CONTINUOUS
 62
             7
100
AcDbLine
 10
-11.09336349999998
 20
3.76197200000001
 11
-11.09305149999997
 21
3.89883
  0
LINE
  5
148
100
AcDbEntity
  8
LC-002-002-----0
  6
CONTINUOUS
 62
             7
100
AcDbLine
 10
-11.09305149999997
 20
3.89883
 11
-11.09249049999997
 21
4.03562600000001
  0
LINE
  5
147
100
AcDbEntity
  8
LC-002-002-----0
  6
CONTINUOUS
 62
             7
100
AcDbLine
 10
-11.09249049999997
 20
4.03562600000001
 11
-11.09155549999997
 21
4.17232700000002
  0
LINE
  5
146
100
AcDbEntity
  8
LC-002-002-----0
  6
CONTINUOUS
 62
             7
100
AcDbLine
 10
-11.09155549999997
 20
4.17232700000002
 11
-11.09062049999997
 21
4.30902800000001
  0
LINE
  5
145
100
AcDbEntity
  8
LC-002-002-----0
  6
CONTINUOUS
 62
             7
100
AcDbLine
 10
-11.09062049999997
 20
4.30902800000001
 11
-11.08918749999998
 21
4.44547800000001
  0
LINE
  5
144
100
AcDbEntity
  8
LC-002-002-----0
  6
CONTINUOUS
 62
             7
100
AcDbLine
 10
-11.08918749999998
 20
4.44547800000001
 11
-11.08762949999996
 21
4.58186500000002
  0
LINE
  5
143
100
AcDbEntity
  8
LC-002-002-----0
  6
CONTINUOUS
 62
             7
100
AcDbLine
 10
-11.08762949999996
 20
4.58186500000002
 11
-11.08594749999998
 21
4.71815800000002
  0
LINE
  5
142
100
AcDbEntity
  8
LC-002-002-----0
  6
CONTINUOUS
 62
             7
100
AcDbLine
 10
-11.08594749999998
 20
4.71815800000002
 11
-11.08376949999996
 21
4.854074
  0
LINE
  5
141
100
AcDbEntity
  8
LC-002-002-----0
  6
CONTINUOUS
 62
             7
100
AcDbLine
 10
-11.08376949999996
 20
4.854074
 11
-11.08159149999997
 21
4.98999000000001
  0
LINE
  5
140
100
AcDbEntity
  8
LC-002-002-----0
  6
CONTINUOUS
 62
             7
100
AcDbLine
 10
-11.08159149999997
 20
4.98999000000001
 11
-11.07904149999996
 21
5.12553
  0
LINE
  5
13F
100
AcDbEntity
  8
LC-002-002-----0
  6
CONTINUOUS
 62
             7
100
AcDbLine
 10
-11.07904149999996
 20
5.12553
 11
-11.07624449999997
 21
5.260819
  0
LINE
  5
13E
100
AcDbEntity
  8
LC-002-002-----0
  6
CONTINUOUS
 62
             7
100
AcDbLine
 10
-11.07624449999997
 20
5.260819
 11
-11.07344849999998
 21
5.39610900000002
  0
LINE
  5
13D
100
AcDbEntity
  8
LC-002-002-----0
  6
CONTINUOUS
 62
             7
100
AcDbLine
 10
-62.15286749999999
 20
3.625113
 11
-62.15110150000001
 21
3.74190300000001
  0
LINE
  5
13C
100
AcDbEntity
  8
LC-002-002-----0
  6
CONTINUOUS
 62
             7
100
AcDbLine
 10
-62.15110150000001
 20
3.74190300000001
 11
-62.14933649999998
 21
3.85869200000002
  0
LINE
  5
13B
100
AcDbEntity
  8
LC-002-002-----0
  6
CONTINUOUS
 62
             7
100
AcDbLine
 10
-62.14933649999998
 20
3.85869200000002
 11
-62.14615949999998
 21
3.97541800000002
  0
LINE
  5
13A
100
AcDbEntity
  8
LC-002-002-----0
  6
CONTINUOUS
 62
             7
100
AcDbLine
 10
-62.14615949999998
 20
3.97541800000002
 11
-62.14086649999993
 21
4.092049
  0
LINE
  5
139
100
AcDbEntity
  8
LC-002-002-----0
  6
CONTINUOUS
 62
             7
100
AcDbLine
 10
-62.14086649999993
 20
4.092049
 11
-62.1355725
 21
4.20868000000002
  0
LINE
  5
138
100
AcDbEntity
  8
LC-002-002-----0
  6
CONTINUOUS
 62
             7
100
AcDbLine
 10
-62.1355725
 20
4.20868000000002
 11
-62.12746350000001
 21
4.32505900000001
  0
LINE
  5
137
100
AcDbEntity
  8
LC-002-002-----0
  6
CONTINUOUS
 62
             7
100
AcDbLine
 10
-62.12746350000001
 20
4.32505900000001
 11
-62.11865149999997
 21
4.441374
  0
LINE
  5
136
100
AcDbEntity
  8
LC-002-002-----0
  6
CONTINUOUS
 62
             7
100
AcDbLine
 10
-62.11865149999997
 20
4.441374
 11
-62.1091375
 21
4.55759400000002
  0
LINE
  5
135
100
AcDbEntity
  8
LC-002-002-----0
  6
CONTINUOUS
 62
             7
100
AcDbLine
 10
-62.1091375
 20
4.55759400000002
 11
-62.09681949999995
 21
4.67343600000001
  0
LINE
  5
134
100
AcDbEntity
  8
LC-002-002-----0
  6
CONTINUOUS
 62
             7
100
AcDbLine
 10
-62.09681949999995
 20
4.67343600000001
 11
-62.08450149999996
 21
4.789277
  0
LINE
  5
133
100
AcDbEntity
  8
LC-002-002-----0
  6
CONTINUOUS
 62
             7
100
AcDbLine
 10
-62.08450149999996
 20
4.789277
 11
-62.07009249999996
 21
4.904741
  0
LINE
  5
132
100
AcDbEntity
  8
LC-002-002-----0
  6
CONTINUOUS
 62
             7
100
AcDbLine
 10
-62.07009249999996
 20
4.904741
 11
-62.05428950000001
 21
5.01995300000002
  0
LINE
  5
131
100
AcDbEntity
  8
LC-002-002-----0
  6
CONTINUOUS
 62
             7
100
AcDbLine
 10
-62.05428950000001
 20
5.01995300000002
 11
-62.0384875
 21
5.135164
  0
LINE
  5
130
100
AcDbEntity
  8
LC-002-002-----0
  6
CONTINUOUS
 62
             7
100
AcDbLine
 10
5.35956350000004
 20
110.5
 11
5.02525850000004
 21
110.5
  0
LINE
  5
12F
100
AcDbEntity
  8
LC-002-002-----0
  6
CONTINUOUS
 62
             7
100
AcDbLine
 10
-72.32750849999994
 20
5.61344700000001
 11
-55.22055849999995
 21
106.054213
  0
LINE
  5
12E
100
AcDbEntity
  8
LC-002-002-----0
  6
CONTINUOUS
 62
             7
100
AcDbLine
 10
29.37371450000003
 20
110.5
 11
28.10610050000003
 21
110.5
  0
LINE
  5
12D
100
AcDbEntity
  8
LC-002-002-----0
  6
CONTINUOUS
 62
             7
100
AcDbLine
 10
9.96453350000002
 20
110.5
 11
8.40576050000004
 21
110.5
  0
LINE
  5
12C
100
AcDbEntity
  8
LC-002-002-----0
  6
CONTINUOUS
 62
             7
100
AcDbLine
 10
5.02525850000004
 20
110.5
 11
1.50000050000003
 21
110.5
  0
LINE
  5
12B
100
AcDbEntity
  8
LC-002-002-----0
  6
CONTINUOUS
 62
             7
100
AcDbLine
 10
-1.49999949999997
 20
110.5
 11
-5.02525849999998
 21
110.5
  0
LINE
  5
12A
100
AcDbEntity
  8
LC-002-002-----0
  6
CONTINUOUS
 62
             7
100
AcDbLine
 10
-8.40575949999996
 20
110.5
 11
-9.96453349999996
 21
110.5
  0
LINE
  5
129
100
AcDbEntity
  8
LC-002-002-----0
  6
CONTINUOUS
 62
             7
100
AcDbLine
 10
66.40514550000003
 20
0.0
 11
66.40514550000003
 21
3.625113
  0
LINE
  5
128
100
AcDbEntity
  8
LC-002-002-----0
  6
CONTINUOUS
 62
             7
100
AcDbLine
 10
34.11903550000002
 20
113.5
 11
29.37371450000003
 21
113.5
  0
LINE
  5
127
100
AcDbEntity
  8
LC-002-002-----0
  6
CONTINUOUS
 62
             7
100
AcDbLine
 10
-12.90164549999997
 20
105.733977
 11
-12.76839649999997
 21
107.364152
  0
LINE
  5
126
100
AcDbEntity
  8
LC-002-002-----0
  6
CONTINUOUS
 62
             7
100
AcDbLine
 10
-12.76839649999997
 20
107.364152
 11
-12.75729249999998
 21
107.5
  0
LINE
  5
125
100
AcDbEntity
  8
LC-002-002-----0
  6
CONTINUOUS
 62
             7
100
AcDbLine
 10
12.90164550000003
 20
105.733977
 11
12.85351450000002
 21
106.307057
  0
LINE
  5
124
100
AcDbEntity
  8
LC-002-002-----0
  6
CONTINUOUS
 62
             7
100
AcDbLine
 10
12.85351450000002
 20
106.307057
 11
12.80538350000003
 21
106.880137
  0
LINE
  5
123
100
AcDbEntity
  8
LC-002-002-----0
  6
CONTINUOUS
 62
             7
100
AcDbLine
 10
12.80538350000003
 20
106.880137
 11
12.75725350000002
 21
107.453217
  0
LINE
  5
122
100
AcDbEntity
  8
LC-002-002-----0
  6
CONTINUOUS
 62
             7
100
AcDbLine
 10
12.75725350000002
 20
107.453217
 11
12.68213850000004
 21
107.960527
  0
LINE
  5
121
100
AcDbEntity
  8
LC-002-002-----0
  6
CONTINUOUS
 62
             7
100
AcDbLine
 10
12.68213850000004
 20
107.960527
 11
12.59773950000002
 21
108.445207
  0
LINE
  5
120
100
AcDbEntity
  8
LC-002-002-----0
  6
CONTINUOUS
 62
             7
100
AcDbLine
 10
12.59773950000002
 20
108.445207
 11
12.51333950000003
 21
108.92988699999999
  0
LINE
  5
11F
100
AcDbEntity
  8
LC-002-002-----0
  6
CONTINUOUS
 62
             7
100
AcDbLine
 10
12.51333950000003
 20
108.92988699999999
 11
12.41933150000003
 21
109.34453999999999
  0
LINE
  5
11E
100
AcDbEntity
  8
LC-002-002-----0
  6
CONTINUOUS
 62
             7
100
AcDbLine
 10
12.41933150000003
 20
109.34453999999999
 11
12.31524150000004
 21
109.68572500000001
  0
LINE
  5
11D
100
AcDbEntity
  8
LC-002-002-----0
  6
CONTINUOUS
 62
             7
100
AcDbLine
 10
12.31524150000004
 20
109.68572500000001
 11
12.21115250000003
 21
110.02691
  0
LINE
  5
11C
100
AcDbEntity
  8
LC-002-002-----0
  6
CONTINUOUS
 62
             7
100
AcDbLine
 10
12.21115250000003
 20
110.02691
 11
12.11344850000003
 21
110.319321
  0
LINE
  5
11B
100
AcDbEntity
  8
LC-002-002-----0
  6
CONTINUOUS
 62
             7
100
AcDbLine
 10
12.11344850000003
 20
110.319321
 11
12.03394050000003
 21
110.472762
  0
LINE
  5
11A
100
AcDbEntity
  8
LC-002-002-----0
  6
CONTINUOUS
 62
             7
100
AcDbLine
 10
12.03394050000003
 20
110.472762
 11
11.95443250000002
 21
110.62620200000001
  0
LINE
  5
119
100
AcDbEntity
  8
LC-002-002-----0
  6
CONTINUOUS
 62
             7
100
AcDbLine
 10
11.95443250000002
 20
110.62620200000001
 11
11.90996850000002
 21
110.704435
  0
LINE
  5
118
100
AcDbEntity
  8
LC-002-002-----0
  6
CONTINUOUS
 62
             7
100
AcDbLine
 10
12.48843350000004
 20
113.5
 11
9.56843250000003
 21
113.5
  0
LINE
  5
117
100
AcDbEntity
  8
LC-002-002-----0
  6
CONTINUOUS
 62
             7
100
AcDbLine
 10
52.88297950000003
 20
106.043539
 11
52.61032250000002
 21
106.95141700000001
  0
LINE
  5
116
100
AcDbEntity
  8
LC-002-002-----0
  6
CONTINUOUS
 62
             7
100
AcDbLine
 10
52.61032250000002
 20
106.95141700000001
 11
52.33766450000002
 21
107.85929400000001
  0
LINE
  5
115
100
AcDbEntity
  8
LC-002-002-----0
  6
CONTINUOUS
 62
             7
100
AcDbLine
 10
52.33766450000002
 20
107.85929400000001
 11
51.97516050000002
 21
108.723056
  0
LINE
  5
114
100
AcDbEntity
  8
LC-002-002-----0
  6
CONTINUOUS
 62
             7
100
AcDbLine
 10
51.97516050000002
 20
108.723056
 11
51.47788450000002
 21
109.520647
  0
LINE
  5
113
100
AcDbEntity
  8
LC-002-002-----0
  6
CONTINUOUS
 62
             7
100
AcDbLine
 10
51.47788450000002
 20
109.520647
 11
50.98060950000004
 21
110.31823799999999
  0
LINE
  5
112
100
AcDbEntity
  8
LC-002-002-----0
  6
CONTINUOUS
 62
             7
100
AcDbLine
 10
50.98060950000004
 20
110.31823799999999
 11
50.33030550000004
 21
110.97778599999999
  0
LINE
  5
111
100
AcDbEntity
  8
LC-002-002-----0
  6
CONTINUOUS
 62
             7
100
AcDbLine
 10
50.33030550000004
 20
110.97778599999999
 11
49.64174350000002
 21
111.602823
  0
LINE
  5
110
100
AcDbEntity
  8
LC-002-002-----0
  6
CONTINUOUS
 62
             7
100
AcDbLine
 10
49.64174350000002
 20
111.602823
 11
48.92491950000002
 21
112.18279099999999
  0
LINE
  5
10F
100
AcDbEntity
  8
LC-002-002-----0
  6
CONTINUOUS
 62
             7
100
AcDbLine
 10
48.92491950000002
 20
112.18279099999999
 11
48.09504350000003
 21
112.582482
  0
LINE
  5
10E
100
AcDbEntity
  8
LC-002-002-----0
  6
CONTINUOUS
 62
             7
100
AcDbLine
 10
48.09504350000003
 20
112.582482
 11
47.26516850000002
 21
112.98217200000001
  0
LINE
  5
10D
100
AcDbEntity
  8
LC-002-002-----0
  6
CONTINUOUS
 62
             7
100
AcDbLine
 10
47.26516850000002
 20
112.98217200000001
 11
46.38986050000003
 21
113.224653
  0
LINE
  5
10C
100
AcDbEntity
  8
LC-002-002-----0
  6
CONTINUOUS
 62
             7
100
AcDbLine
 10
46.38986050000003
 20
113.224653
 11
45.48426450000002
 21
113.362326
  0
LINE
  5
10B
100
AcDbEntity
  8
LC-002-002-----0
  6
CONTINUOUS
 62
             7
100
AcDbLine
 10
45.48426450000002
 20
113.362326
 11
44.57866750000002
 21
113.5
  0
LINE
  5
10A
100
AcDbEntity
  8
LC-002-002-----0
  6
CONTINUOUS
 62
             7
100
AcDbLine
 10
-1.49999949999997
 20
5.36159500000002
 11
-1.49999949999997
 21
3.625113
  0
LINE
  5
109
100
AcDbEntity
  8
LC-002-002-----0
  6
CONTINUOUS
 62
             7
100
AcDbLine
 10
62.15286750000004
 20
3.625113
 11
62.15110150000004
 21
3.74190300000001
  0
LINE
  5
108
100
AcDbEntity
  8
LC-002-002-----0
  6
CONTINUOUS
 62
             7
100
AcDbLine
 10
62.15110150000004
 20
3.74190300000001
 11
62.14933650000003
 21
3.85869200000002
  0
LINE
  5
107
100
AcDbEntity
  8
LC-002-002-----0
  6
CONTINUOUS
 62
             7
100
AcDbLine
 10
62.14933650000003
 20
3.85869200000002
 11
62.14615950000004
 21
3.97541800000002
  0
LINE
  5
106
100
AcDbEntity
  8
LC-002-002-----0
  6
CONTINUOUS
 62
             7
100
AcDbLine
 10
62.14615950000004
 20
3.97541800000002
 11
62.14086650000002
 21
4.092049
  0
LINE
  5
105
100
AcDbEntity
  8
LC-002-002-----0
  6
CONTINUOUS
 62
             7
100
AcDbLine
 10
62.14086650000002
 20
4.092049
 11
62.13557250000002
 21
4.20868000000002
  0
LINE
  5
104
100
AcDbEntity
  8
LC-002-002-----0
  6
CONTINUOUS
 62
             7
100
AcDbLine
 10
62.13557250000002
 20
4.20868000000002
 11
62.12746450000003
 21
4.32505900000001
  0
LINE
  5
103
100
AcDbEntity
  8
LC-002-002-----0
  6
CONTINUOUS
 62
             7
100
AcDbLine
 10
62.12746450000003
 20
4.32505900000001
 11
62.11865150000003
 21
4.441374
  0
LINE
  5
102
100
AcDbEntity
  8
LC-002-002-----0
  6
CONTINUOUS
 62
             7
100
AcDbLine
 10
62.11865150000003
 20
4.441374
 11
62.10913750000003
 21
4.55759400000002
  0
LINE
  5
101
100
AcDbEntity
  8
LC-002-002-----0
  6
CONTINUOUS
 62
             7
100
AcDbLine
 10
62.10913750000003
 20
4.55759400000002
 11
62.09681950000004
 21
4.67343600000001
  0
LINE
  5
100
100
AcDbEntity
  8
LC-002-002-----0
  6
CONTINUOUS
 62
             7
100
AcDbLine
 10
62.09681950000004
 20
4.67343600000001
 11
62.08450150000002
 21
4.789277
  0
LINE
  5
FF
100
AcDbEntity
  8
LC-002-002-----0
  6
CONTINUOUS
 62
             7
100
AcDbLine
 10
62.08450150000002
 20
4.789277
 11
62.07009250000002
 21
4.904741
  0
LINE
  5
FE
100
AcDbEntity
  8
LC-002-002-----0
  6
CONTINUOUS
 62
             7
100
AcDbLine
 10
62.07009250000002
 20
4.904741
 11
62.05429050000004
 21
5.01995300000002
  0
LINE
  5
FD
100
AcDbEntity
  8
LC-002-002-----0
  6
CONTINUOUS
 62
             7
100
AcDbLine
 10
62.05429050000004
 20
5.01995300000002
 11
62.03848750000003
 21
5.135164
  0
LINE
  5
FC
100
AcDbEntity
  8
LC-002-002-----0
  6
CONTINUOUS
 62
             7
100
AcDbLine
 10
46.24396550000003
 20
0.0
 11
46.24396550000003
 21
3.625113
  0
LINE
  5
FB
100
AcDbEntity
  8
LC-002-002-----0
  6
CONTINUOUS
 62
             7
100
AcDbLine
 10
-37.85329149999998
 20
105.616775
 11
-37.70493849999994
 21
106.263682
  0
LINE
  5
FA
100
AcDbEntity
  8
LC-002-002-----0
  6
CONTINUOUS
 62
             7
100
AcDbLine
 10
-37.70493849999994
 20
106.263682
 11
-37.55658550000001
 21
106.910588
  0
LINE
  5
F9
100
AcDbEntity
  8
LC-002-002-----0
  6
CONTINUOUS
 62
             7
100
AcDbLine
 10
-37.55658550000001
 20
106.910588
 11
-37.36407649999998
 21
107.516294
  0
LINE
  5
F8
100
AcDbEntity
  8
LC-002-002-----0
  6
CONTINUOUS
 62
             7
100
AcDbLine
 10
-37.36407649999998
 20
107.516294
 11
-37.10533549999994
 21
108.060196
  0
LINE
  5
F7
100
AcDbEntity
  8
LC-002-002-----0
  6
CONTINUOUS
 62
             7
100
AcDbLine
 10
-37.10533549999994
 20
108.060196
 11
-36.84659449999995
 21
108.60409900000001
  0
LINE
  5
F6
100
AcDbEntity
  8
LC-002-002-----0
  6
CONTINUOUS
 62
             7
100
AcDbLine
 10
-36.84659449999995
 20
108.60409900000001
 11
-36.5306085
 21
109.027795
  0
LINE
  5
F5
100
AcDbEntity
  8
LC-002-002-----0
  6
CONTINUOUS
 62
             7
100
AcDbLine
 10
-36.5306085
 20
109.027795
 11
-36.20031149999997
 21
109.42143900000001
  0
LINE
  5
F4
100
AcDbEntity
  8
LC-002-002-----0
  6
CONTINUOUS
 62
             7
100
AcDbLine
 10
-36.20031149999997
 20
109.42143900000001
 11
-35.86538549999997
 21
109.781205
  0
LINE
  5
F3
100
AcDbEntity
  8
LC-002-002-----0
  6
CONTINUOUS
 62
             7
100
AcDbLine
 10
-35.86538549999997
 20
109.781205
 11
-35.51194549999994
 21
110.00545700000001
  0
LINE
  5
F2
100
AcDbEntity
  8
LC-002-002-----0
  6
CONTINUOUS
 62
             7
100
AcDbLine
 10
-35.51194549999994
 20
110.00545700000001
 11
-35.15850549999996
 21
110.229708
  0
LINE
  5
F1
100
AcDbEntity
  8
LC-002-002-----0
  6
CONTINUOUS
 62
             7
100
AcDbLine
 10
-35.15850549999996
 20
110.229708
 11
-34.8098765
 21
110.36108400000001
  0
LINE
  5
F0
100
AcDbEntity
  8
LC-002-002-----0
  6
CONTINUOUS
 62
             7
100
AcDbLine
 10
-34.8098765
 20
110.36108400000001
 11
-34.46445650000001
 21
110.430542
  0
LINE
  5
EF
100
AcDbEntity
  8
LC-002-002-----0
  6
CONTINUOUS
 62
             7
100
AcDbLine
 10
-34.46445650000001
 20
110.430542
 11
-34.11903549999997
 21
110.5
  0
LINE
  5
EE
100
AcDbEntity
  8
LC-002-002-----0
  6
CONTINUOUS
 62
             7
100
AcDbLine
 10
75.00000050000003
 20
3.0
 11
75.00000050000003
 21
3.625113
  0
LINE
  5
ED
100
AcDbEntity
  8
LC-002-002-----0
  6
CONTINUOUS
 62
             7
100
AcDbLine
 10
38.28056950000004
 20
113.5
 11
34.11903550000002
 21
113.5
  0
LINE
  5
EC
100
AcDbEntity
  8
LC-002-002-----0
  6
CONTINUOUS
 62
             7
100
AcDbLine
 10
-74.99999949999997
 20
3.0
 11
-74.99999949999997
 21
3.625113
  0
LINE
  5
EB
100
AcDbEntity
  8
LC-002-002-----0
  6
CONTINUOUS
 62
             7
100
AcDbLine
 10
-74.99999949999997
 20
-26.0
 11
-74.99999949999997
 21
-3.0
  0
LINE
  5
EA
100
AcDbEntity
  8
LC-002-002-----0
  6
CONTINUOUS
 62
             7
100
AcDbLine
 10
-12.75725249999996
 20
107.453217
 11
-12.68213849999998
 21
107.960527
  0
LINE
  5
E9
100
AcDbEntity
  8
LC-002-002-----0
  6
CONTINUOUS
 62
             7
100
AcDbLine
 10
-12.68213849999998
 20
107.960527
 11
-12.59773849999996
 21
108.445207
  0
LINE
  5
E8
100
AcDbEntity
  8
LC-002-002-----0
  6
CONTINUOUS
 62
             7
100
AcDbLine
 10
-12.59773849999996
 20
108.445207
 11
-12.51333949999997
 21
108.92988699999999
  0
LINE
  5
E7
100
AcDbEntity
  8
LC-002-002-----0
  6
CONTINUOUS
 62
             7
100
AcDbLine
 10
-12.51333949999997
 20
108.92988699999999
 11
-12.41933149999997
 21
109.34453999999999
  0
LINE
  5
E6
100
AcDbEntity
  8
LC-002-002-----0
  6
CONTINUOUS
 62
             7
100
AcDbLine
 10
-12.41933149999997
 20
109.34453999999999
 11
-12.31524149999999
 21
109.68572500000001
  0
LINE
  5
E5
100
AcDbEntity
  8
LC-002-002-----0
  6
CONTINUOUS
 62
             7
100
AcDbLine
 10
-12.31524149999999
 20
109.68572500000001
 11
-12.21115249999997
 21
110.02691
  0
LINE
  5
E4
100
AcDbEntity
  8
LC-002-002-----0
  6
CONTINUOUS
 62
             7
100
AcDbLine
 10
-12.21115249999997
 20
110.02691
 11
-12.11344849999998
 21
110.319321
  0
LINE
  5
E3
100
AcDbEntity
  8
LC-002-002-----0
  6
CONTINUOUS
 62
             7
100
AcDbLine
 10
-12.11344849999998
 20
110.319321
 11
-12.03394049999997
 21
110.472762
  0
LINE
  5
E2
100
AcDbEntity
  8
LC-002-002-----0
  6
CONTINUOUS
 62
             7
100
AcDbLine
 10
-53.47234849999998
 20
3.625113
 11
-53.47051549999995
 21
3.773584
  0
LINE
  5
E1
100
AcDbEntity
  8
LC-002-002-----0
  6
CONTINUOUS
 62
             7
100
AcDbLine
 10
-53.47051549999995
 20
3.773584
 11
-53.46868349999997
 21
3.922054
  0
LINE
  5
E0
100
AcDbEntity
  8
LC-002-002-----0
  6
CONTINUOUS
 62
             7
100
AcDbLine
 10
-53.46868349999997
 20
3.922054
 11
-53.46538549999994
 21
4.07046200000002
  0
LINE
  5
DF
100
AcDbEntity
  8
LC-002-002-----0
  6
CONTINUOUS
 62
             7
100
AcDbLine
 10
-53.46538549999994
 20
4.07046200000002
 11
-53.45988849999995
 21
4.21877800000001
  0
LINE
  5
DE
100
AcDbEntity
  8
LC-002-002-----0
  6
CONTINUOUS
 62
             7
100
AcDbLine
 10
-53.45988849999995
 20
4.21877800000001
 11
-53.45439249999996
 21
4.36709300000001
  0
LINE
  5
DD
100
AcDbEntity
  8
LC-002-002-----0
  6
CONTINUOUS
 62
             7
100
AcDbLine
 10
-53.45439249999996
 20
4.36709300000001
 11
-53.44596849999996
 21
4.51516100000001
  0
LINE
  5
DC
100
AcDbEntity
  8
LC-002-002-----0
  6
CONTINUOUS
 62
             7
100
AcDbLine
 10
-53.44596849999996
 20
4.51516100000001
 11
-53.43681150000001
 21
4.66316700000002
  0
LINE
  5
DB
100
AcDbEntity
  8
LC-002-002-----0
  6
CONTINUOUS
 62
             7
100
AcDbLine
 10
-53.43681150000001
 20
4.66316700000002
 11
-53.42692449999996
 21
4.81108
  0
LINE
  5
DA
100
AcDbEntity
  8
LC-002-002-----0
  6
CONTINUOUS
 62
             7
100
AcDbLine
 10
-53.42692449999996
 20
4.81108
 11
-53.41411450000001
 21
4.95862100000002
  0
LINE
  5
D9
100
AcDbEntity
  8
LC-002-002-----0
  6
CONTINUOUS
 62
             7
100
AcDbLine
 10
-53.41411450000001
 20
4.95862100000002
 11
-53.40130449999995
 21
5.10616300000001
  0
LINE
  5
D8
100
AcDbEntity
  8
LC-002-002-----0
  6
CONTINUOUS
 62
             7
100
AcDbLine
 10
-53.40130449999995
 20
5.10616300000001
 11
-53.38630749999996
 21
5.25333400000002
  0
LINE
  5
D7
100
AcDbEntity
  8
LC-002-002-----0
  6
CONTINUOUS
 62
             7
100
AcDbLine
 10
-53.38630749999996
 20
5.25333400000002
 11
-53.36985250000001
 21
5.40025800000001
  0
LINE
  5
D6
100
AcDbEntity
  8
LC-002-002-----0
  6
CONTINUOUS
 62
             7
100
AcDbLine
 10
-53.36985250000001
 20
5.40025800000001
 11
-53.35339749999994
 21
5.54718100000002
  0
LINE
  5
D5
100
AcDbEntity
  8
LC-002-002-----0
  6
CONTINUOUS
 62
             7
100
AcDbLine
 10
-5.76256949999998
 20
105.767848
 11
-5.73730849999998
 21
106.363872
  0
LINE
  5
D4
100
AcDbEntity
  8
LC-002-002-----0
  6
CONTINUOUS
 62
             7
100
AcDbLine
 10
-5.73730849999998
 20
106.363872
 11
-5.71204749999998
 21
106.959896
  0
LINE
  5
D3
100
AcDbEntity
  8
LC-002-002-----0
  6
CONTINUOUS
 62
             7
100
AcDbLine
 10
-5.71204749999998
 20
106.959896
 11
-5.68678749999998
 21
107.555921
  0
LINE
  5
D2
100
AcDbEntity
  8
LC-002-002-----0
  6
CONTINUOUS
 62
             7
100
AcDbLine
 10
-5.68678749999998
 20
107.555921
 11
-5.64634849999996
 21
108.0866
  0
LINE
  5
D1
100
AcDbEntity
  8
LC-002-002-----0
  6
CONTINUOUS
 62
             7
100
AcDbLine
 10
-5.64634849999996
 20
108.0866
 11
-5.60139849999996
 21
108.597857
  0
LINE
  5
D0
100
AcDbEntity
  8
LC-002-002-----0
  6
CONTINUOUS
 62
             7
100
AcDbLine
 10
-5.60139849999996
 20
108.597857
 11
-5.55644849999996
 21
109.10911400000001
  0
LINE
  5
CF
100
AcDbEntity
  8
LC-002-002-----0
  6
CONTINUOUS
 62
             7
100
AcDbLine
 10
-5.55644849999996
 20
109.10911400000001
 11
-5.50442649999997
 21
109.546442
  0
LINE
  5
CE
100
AcDbEntity
  8
LC-002-002-----0
  6
CONTINUOUS
 62
             7
100
AcDbLine
 10
-5.50442649999997
 20
109.546442
 11
-5.44642449999998
 21
109.92123599999999
  0
LINE
  5
CD
100
AcDbEntity
  8
LC-002-002-----0
  6
CONTINUOUS
 62
             7
100
AcDbLine
 10
-5.44642449999998
 20
109.92123599999999
 11
-5.38842149999996
 21
110.29603
  0
LINE
  5
CC
100
AcDbEntity
  8
LC-002-002-----0
  6
CONTINUOUS
 62
             7
100
AcDbLine
 10
-5.38842149999996
 20
110.29603
 11
-5.35262749999998
 21
110.5
  0
LINE
  5
CB
100
AcDbEntity
  8
LC-002-002-----0
  6
CONTINUOUS
 62
             7
100
AcDbLine
 10
24.12580150000002
 20
110.5
 11
21.83242350000003
 21
110.5
  0
LINE
  5
CA
100
AcDbEntity
  8
LC-002-002-----0
  6
CONTINUOUS
 62
             7
100
AcDbLine
 10
40.83024250000003
 20
105.98794700000001
 11
40.62770550000002
 21
106.868289
  0
LINE
  5
C9
100
AcDbEntity
  8
LC-002-002-----0
  6
CONTINUOUS
 62
             7
100
AcDbLine
 10
40.62770550000002
 20
106.868289
 11
40.42516950000004
 21
107.74863000000001
  0
LINE
  5
C8
100
AcDbEntity
  8
LC-002-002-----0
  6
CONTINUOUS
 62
             7
100
AcDbLine
 10
40.42516950000004
 20
107.74863000000001
 11
40.15315850000002
 21
108.591796
  0
LINE
  5
C7
100
AcDbEntity
  8
LC-002-002-----0
  6
CONTINUOUS
 62
             7
100
AcDbLine
 10
40.15315850000002
 20
108.591796
 11
39.77693450000004
 21
109.379197
  0
LINE
  5
C6
100
AcDbEntity
  8
LC-002-002-----0
  6
CONTINUOUS
 62
             7
100
AcDbLine
 10
39.77693450000004
 20
109.379197
 11
39.40071050000003
 21
110.16659900000001
  0
LINE
  5
C5
100
AcDbEntity
  8
LC-002-002-----0
  6
CONTINUOUS
 62
             7
100
AcDbLine
 10
39.40071050000003
 20
110.16659900000001
 11
38.89382650000002
 21
110.834937
  0
LINE
  5
C4
100
AcDbEntity
  8
LC-002-002-----0
  6
CONTINUOUS
 62
             7
100
AcDbLine
 10
38.89382650000002
 20
110.834937
 11
38.35427850000002
 21
111.47350900000001
  0
LINE
  5
C3
100
AcDbEntity
  8
LC-002-002-----0
  6
CONTINUOUS
 62
             7
100
AcDbLine
 10
38.35427850000002
 20
111.47350900000001
 11
37.78586050000004
 21
112.07014700000001
  0
LINE
  5
C2
100
AcDbEntity
  8
LC-002-002-----0
  6
CONTINUOUS
 62
             7
100
AcDbLine
 10
37.78586050000004
 20
112.07014700000001
 11
37.10196750000003
 21
112.49905099999999
  0
LINE
  5
C1
100
AcDbEntity
  8
LC-002-002-----0
  6
CONTINUOUS
 62
             7
100
AcDbLine
 10
37.10196750000003
 20
112.49905099999999
 11
36.41807350000002
 21
112.927955
  0
LINE
  5
C0
100
AcDbEntity
  8
LC-002-002-----0
  6
CONTINUOUS
 62
             7
100
AcDbLine
 10
36.41807350000002
 20
112.927955
 11
35.67709750000003
 21
113.191936
  0
LINE
  5
BF
100
AcDbEntity
  8
LC-002-002-----0
  6
CONTINUOUS
 62
             7
100
AcDbLine
 10
35.67709750000003
 20
113.191936
 11
34.89806650000003
 21
113.345968
  0
LINE
  5
BE
100
AcDbEntity
  8
LC-002-002-----0
  6
CONTINUOUS
 62
             7
100
AcDbLine
 10
34.89806650000003
 20
113.345968
 11
34.11903550000002
 21
113.5
  0
LINE
  5
BD
100
AcDbEntity
  8
LC-002-002-----0
  6
CONTINUOUS
 62
             7
100
AcDbLine
 10
-46.7008165
 20
105.575931
 11
-46.59780649999996
 21
105.94240600000001
  0
LINE
  5
BC
100
AcDbEntity
  8
LC-002-002-----0
  6
CONTINUOUS
 62
             7
100
AcDbLine
 10
-46.59780649999996
 20
105.94240600000001
 11
-46.49479749999998
 21
106.308881
  0
LINE
  5
BB
100
AcDbEntity
  8
LC-002-002-----0
  6
CONTINUOUS
 62
             7
100
AcDbLine
 10
-46.49479749999998
 20
106.308881
 11
-46.39178849999999
 21
106.67535599999999
  0
LINE
  5
BA
100
AcDbEntity
  8
LC-002-002-----0
  6
CONTINUOUS
 62
             7
100
AcDbLine
 10
-46.39178849999999
 20
106.67535599999999
 11
-46.28877949999995
 21
107.041831
  0
LINE
  5
B9
100
AcDbEntity
  8
LC-002-002-----0
  6
CONTINUOUS
 62
             7
100
AcDbLine
 10
-46.28877949999995
 20
107.041831
 11
-46.14132749999996
 21
107.378682
  0
LINE
  5
B8
100
AcDbEntity
  8
LC-002-002-----0
  6
CONTINUOUS
 62
             7
100
AcDbLine
 10
-46.14132749999996
 20
107.378682
 11
-45.95854849999998
 21
107.691987
  0
LINE
  5
B7
100
AcDbEntity
  8
LC-002-002-----0
  6
CONTINUOUS
 62
             7
100
AcDbLine
 10
-45.95854849999998
 20
107.691987
 11
-45.77576949999994
 21
108.005291
  0
LINE
  5
B6
100
AcDbEntity
  8
LC-002-002-----0
  6
CONTINUOUS
 62
             7
100
AcDbLine
 10
-45.77576949999994
 20
108.005291
 11
-45.59299049999996
 21
108.318595
  0
LINE
  5
B5
100
AcDbEntity
  8
LC-002-002-----0
  6
CONTINUOUS
 62
             7
100
AcDbLine
 10
-45.59299049999996
 20
108.318595
 11
-45.40351949999993
 21
108.62342200000001
  0
LINE
  5
B4
100
AcDbEntity
  8
LC-002-002-----0
  6
CONTINUOUS
 62
             7
100
AcDbLine
 10
-45.40351949999993
 20
108.62342200000001
 11
-45.16217249999997
 21
108.862537
  0
LINE
  5
B3
100
AcDbEntity
  8
LC-002-002-----0
  6
CONTINUOUS
 62
             7
100
AcDbLine
 10
-45.16217249999997
 20
108.862537
 11
-44.9208265
 21
109.101651
  0
LINE
  5
B2
100
AcDbEntity
  8
LC-002-002-----0
  6
CONTINUOUS
 62
             7
100
AcDbLine
 10
-44.9208265
 20
109.101651
 11
-44.67948049999998
 21
109.340766
  0
LINE
  5
B1
100
AcDbEntity
  8
LC-002-002-----0
  6
CONTINUOUS
 62
             7
100
AcDbLine
 10
-44.67948049999998
 20
109.340766
 11
-44.43813349999996
 21
109.579881
  0
LINE
  5
B0
100
AcDbEntity
  8
LC-002-002-----0
  6
CONTINUOUS
 62
             7
100
AcDbLine
 10
43.16004850000002
 20
5.201503
 11
32.37862950000002
 21
105.642269
  0
LINE
  5
AF
100
AcDbEntity
  8
LC-002-002-----0
  6
CONTINUOUS
 62
             7
100
AcDbLine
 10
26.32462650000002
 20
105.670627
 11
26.21476450000003
 21
106.348232
  0
LINE
  5
AE
100
AcDbEntity
  8
LC-002-002-----0
  6
CONTINUOUS
 62
             7
100
AcDbLine
 10
26.21476450000003
 20
106.348232
 11
26.10490350000003
 21
107.025836
  0
LINE
  5
AD
100
AcDbEntity
  8
LC-002-002-----0
  6
CONTINUOUS
 62
             7
100
AcDbLine
 10
26.10490350000003
 20
107.025836
 11
25.96296050000004
 21
107.65860000000001
  0
LINE
  5
AC
100
AcDbEntity
  8
LC-002-002-----0
  6
CONTINUOUS
 62
             7
100
AcDbLine
 10
25.96296050000004
 20
107.65860000000001
 11
25.77289450000004
 21
108.224101
  0
LINE
  5
AB
100
AcDbEntity
  8
LC-002-002-----0
  6
CONTINUOUS
 62
             7
100
AcDbLine
 10
25.77289450000004
 20
108.224101
 11
25.58282850000003
 21
108.789602
  0
LINE
  5
AA
100
AcDbEntity
  8
LC-002-002-----0
  6
CONTINUOUS
 62
             7
100
AcDbLine
 10
25.58282850000003
 20
108.789602
 11
25.35927750000002
 21
109.21803
  0
LINE
  5
A9
100
AcDbEntity
  8
LC-002-002-----0
  6
CONTINUOUS
 62
             7
100
AcDbLine
 10
25.35927750000002
 20
109.21803
 11
25.12735450000002
 21
109.61219
  0
LINE
  5
A8
100
AcDbEntity
  8
LC-002-002-----0
  6
CONTINUOUS
 62
             7
100
AcDbLine
 10
25.12735450000002
 20
109.61219
 11
24.90144850000002
 21
109.95827800000001
  0
LINE
  5
A7
100
AcDbEntity
  8
LC-002-002-----0
  6
CONTINUOUS
 62
             7
100
AcDbLine
 10
24.90144850000002
 20
109.95827800000001
 11
24.69436150000004
 21
110.154038
  0
LINE
  5
A6
100
AcDbEntity
  8
LC-002-002-----0
  6
CONTINUOUS
 62
             7
100
AcDbLine
 10
24.69436150000004
 20
110.154038
 11
24.48727350000002
 21
110.349797
  0
LINE
  5
A5
100
AcDbEntity
  8
LC-002-002-----0
  6
CONTINUOUS
 62
             7
100
AcDbLine
 10
24.48727350000002
 20
110.349797
 11
24.35248750000002
 21
110.422758
  0
LINE
  5
A4
100
AcDbEntity
  8
LC-002-002-----0
  6
CONTINUOUS
 62
             7
100
AcDbLine
 10
24.35248750000002
 20
110.422758
 11
24.23547150000002
 21
110.465536
  0
LINE
  5
A3
100
AcDbEntity
  8
LC-002-002-----0
  6
CONTINUOUS
 62
             7
100
AcDbLine
 10
24.23547150000002
 20
110.465536
 11
24.12580150000002
 21
110.5
  0
LINE
  5
A2
100
AcDbEntity
  8
LC-002-002-----0
  6
CONTINUOUS
 62
             7
100
AcDbLine
 10
18.36841850000002
 20
110.5
 11
15.22547250000002
 21
110.5
  0
LINE
  5
A1
100
AcDbEntity
  8
LC-002-002-----0
  6
CONTINUOUS
 62
             7
100
AcDbLine
 10
-19.79501450000001
 20
105.701375
 11
-19.70944849999998
 21
106.393154
  0
LINE
  5
A0
100
AcDbEntity
  8
LC-002-002-----0
  6
CONTINUOUS
 62
             7
100
AcDbLine
 10
-19.70944849999998
 20
106.393154
 11
-19.69233549999998
 21
106.53151
  0
LINE
  5
9F
100
AcDbEntity
  8
LC-002-002-----0
  6
CONTINUOUS
 62
             7
100
AcDbLine
 10
-19.69233549999998
 20
106.53151
 11
-19.67522249999993
 21
106.669865
  0
LINE
  5
9E
100
AcDbEntity
  8
LC-002-002-----0
  6
CONTINUOUS
 62
             7
100
AcDbLine
 10
-19.67522249999993
 20
106.669865
 11
-19.65810949999994
 21
106.808221
  0
LINE
  5
9D
100
AcDbEntity
  8
LC-002-002-----0
  6
CONTINUOUS
 62
             7
100
AcDbLine
 10
-19.65810949999994
 20
106.808221
 11
-19.64099649999994
 21
106.946577
  0
LINE
  5
9C
100
AcDbEntity
  8
LC-002-002-----0
  6
CONTINUOUS
 62
             7
100
AcDbLine
 10
-19.64099649999994
 20
106.946577
 11
-19.62388349999995
 21
107.08493300000001
  0
LINE
  5
9B
100
AcDbEntity
  8
LC-002-002-----0
  6
CONTINUOUS
 62
             7
100
AcDbLine
 10
-19.62388349999995
 20
107.08493300000001
 11
-19.60677049999995
 21
107.223288
  0
LINE
  5
9A
100
AcDbEntity
  8
LC-002-002-----0
  6
CONTINUOUS
 62
             7
100
AcDbLine
 10
-19.60677049999995
 20
107.223288
 11
-19.58965749999996
 21
107.361644
  0
LINE
  5
99
100
AcDbEntity
  8
LC-002-002-----0
  6
CONTINUOUS
 62
             7
100
AcDbLine
 10
-19.58965749999996
 20
107.361644
 11
-19.57254449999996
 21
107.5
  0
LINE
  5
98
100
AcDbEntity
  8
LC-002-002-----0
  6
CONTINUOUS
 62
             7
100
AcDbLine
 10
-20.52319949999995
 20
3.625113
 11
-20.52256949999995
 21
3.764556
  0
LINE
  5
97
100
AcDbEntity
  8
LC-002-002-----0
  6
CONTINUOUS
 62
             7
100
AcDbLine
 10
-20.52256949999995
 20
3.764556
 11
-20.52193949999995
 21
3.903999
  0
LINE
  5
96
100
AcDbEntity
  8
LC-002-002-----0
  6
CONTINUOUS
 62
             7
100
AcDbLine
 10
-20.52193949999995
 20
3.903999
 11
-20.52080649999996
 21
4.04338100000001
  0
LINE
  5
95
100
AcDbEntity
  8
LC-002-002-----0
  6
CONTINUOUS
 62
             7
100
AcDbLine
 10
-20.52080649999996
 20
4.04338100000001
 11
-20.51891649999996
 21
4.182672
  0
LINE
  5
94
100
AcDbEntity
  8
LC-002-002-----0
  6
CONTINUOUS
 62
             7
100
AcDbLine
 10
-20.51891649999996
 20
4.182672
 11
-20.51702749999996
 21
4.32196300000001
  0
LINE
  5
93
100
AcDbEntity
  8
LC-002-002-----0
  6
CONTINUOUS
 62
             7
100
AcDbLine
 10
-20.51702749999996
 20
4.32196300000001
 11
-20.51413149999999
 21
4.46101100000001
  0
LINE
  5
92
100
AcDbEntity
  8
LC-002-002-----0
  6
CONTINUOUS
 62
             7
100
AcDbLine
 10
-20.51413149999999
 20
4.46101100000001
 11
-20.51098449999998
 21
4.599998
  0
LINE
  5
91
100
AcDbEntity
  8
LC-002-002-----0
  6
CONTINUOUS
 62
             7
100
AcDbLine
 10
-20.51098449999998
 20
4.599998
 11
-20.50758649999997
 21
4.73889400000002
  0
LINE
  5
90
100
AcDbEntity
  8
LC-002-002-----0
  6
CONTINUOUS
 62
             7
100
AcDbLine
 10
-20.50758649999997
 20
4.73889400000002
 11
-20.50318350000001
 21
4.87742600000001
  0
LINE
  5
8F
100
AcDbEntity
  8
LC-002-002-----0
  6
CONTINUOUS
 62
             7
100
AcDbLine
 10
-20.50318350000001
 20
4.87742600000001
 11
-20.49878149999998
 21
5.01595800000001
  0
LINE
  5
8E
100
AcDbEntity
  8
LC-002-002-----0
  6
CONTINUOUS
 62
             7
100
AcDbLine
 10
-20.49878149999998
 20
5.01595800000001
 11
-20.49362749999997
 21
5.15412600000002
  0
LINE
  5
8D
100
AcDbEntity
  8
LC-002-002-----0
  6
CONTINUOUS
 62
             7
100
AcDbLine
 10
-20.49362749999997
 20
5.15412600000002
 11
-20.48797349999998
 21
5.29205300000001
  0
LINE
  5
8C
100
AcDbEntity
  8
LC-002-002-----0
  6
CONTINUOUS
 62
             7
100
AcDbLine
 10
-20.48797349999998
 20
5.29205300000001
 11
-20.48231949999993
 21
5.429979
  0
LINE
  5
8B
100
AcDbEntity
  8
LC-002-002-----0
  6
CONTINUOUS
 62
             7
100
AcDbLine
 10
-50.37644749999996
 20
5.17600900000002
 11
-37.85329149999998
 21
105.616775
  0
LINE
  5
8A
100
AcDbEntity
  8
LC-002-002-----0
  6
CONTINUOUS
 62
             7
100
AcDbLine
 10
56.81147050000004
 20
0.0
 11
56.81147050000004
 21
3.625113
  0
LINE
  5
89
100
AcDbEntity
  8
LC-002-002-----0
  6
CONTINUOUS
 62
             7
100
AcDbLine
 10
46.70081650000003
 20
105.575931
 11
46.59780750000002
 21
105.94240600000001
  0
LINE
  5
88
100
AcDbEntity
  8
LC-002-002-----0
  6
CONTINUOUS
 62
             7
100
AcDbLine
 10
46.59780750000002
 20
105.94240600000001
 11
46.49479750000003
 21
106.308881
  0
LINE
  5
87
100
AcDbEntity
  8
LC-002-002-----0
  6
CONTINUOUS
 62
             7
100
AcDbLine
 10
46.49479750000003
 20
106.308881
 11
46.39178850000002
 21
106.67535599999999
  0
LINE
  5
86
100
AcDbEntity
  8
LC-002-002-----0
  6
CONTINUOUS
 62
             7
100
AcDbLine
 10
46.39178850000002
 20
106.67535599999999
 11
46.28877950000003
 21
107.041831
  0
LINE
  5
85
100
AcDbEntity
  8
LC-002-002-----0
  6
CONTINUOUS
 62
             7
100
AcDbLine
 10
46.28877950000003
 20
107.041831
 11
46.14132750000002
 21
107.378682
  0
LINE
  5
84
100
AcDbEntity
  8
LC-002-002-----0
  6
CONTINUOUS
 62
             7
100
AcDbLine
 10
46.14132750000002
 20
107.378682
 11
45.95854850000004
 21
107.691987
  0
LINE
  5
83
100
AcDbEntity
  8
LC-002-002-----0
  6
CONTINUOUS
 62
             7
100
AcDbLine
 10
45.95854850000004
 20
107.691987
 11
45.77576950000002
 21
108.005291
  0
LINE
  5
82
100
AcDbEntity
  8
LC-002-002-----0
  6
CONTINUOUS
 62
             7
100
AcDbLine
 10
45.77576950000002
 20
108.005291
 11
45.59299050000004
 21
108.318595
  0
LINE
  5
81
100
AcDbEntity
  8
LC-002-002-----0
  6
CONTINUOUS
 62
             7
100
AcDbLine
 10
45.59299050000004
 20
108.318595
 11
45.40351950000002
 21
108.62342200000001
  0
LINE
  5
80
100
AcDbEntity
  8
LC-002-002-----0
  6
CONTINUOUS
 62
             7
100
AcDbLine
 10
45.40351950000002
 20
108.62342200000001
 11
45.16217250000003
 21
108.862537
  0
LINE
  5
7F
100
AcDbEntity
  8
LC-002-002-----0
  6
CONTINUOUS
 62
             7
100
AcDbLine
 10
45.16217250000003
 20
108.862537
 11
44.92082650000003
 21
109.101651
  0
LINE
  5
7E
100
AcDbEntity
  8
LC-002-002-----0
  6
CONTINUOUS
 62
             7
100
AcDbLine
 10
44.92082650000003
 20
109.101651
 11
44.67948050000004
 21
109.340766
  0
LINE
  5
7D
100
AcDbEntity
  8
LC-002-002-----0
  6
CONTINUOUS
 62
             7
100
AcDbLine
 10
44.67948050000004
 20
109.340766
 11
44.43813450000002
 21
109.579881
  0
LINE
  5
7C
100
AcDbEntity
  8
LC-002-002-----0
  6
CONTINUOUS
 62
             7
100
AcDbLine
 10
29.62723250000002
 20
0.0
 11
29.62723250000002
 21
3.625113
  0
LINE
  5
7B
100
AcDbEntity
  8
LC-002-002-----0
  6
CONTINUOUS
 62
             7
100
AcDbLine
 10
-24.12580149999999
 20
110.5
 11
-21.83242349999998
 21
110.5
  0
LINE
  5
7A
100
AcDbEntity
  8
LC-002-002-----0
  6
CONTINUOUS
 62
             7
100
AcDbLine
 10
72.49554850000001
 20
3.625113
 11
72.49295750000002
 21
3.77879100000001
  0
LINE
  5
79
100
AcDbEntity
  8
LC-002-002-----0
  6
CONTINUOUS
 62
             7
100
AcDbLine
 10
72.49295750000002
 20
3.77879100000001
 11
72.49036650000002
 21
3.932469
  0
LINE
  5
78
100
AcDbEntity
  8
LC-002-002-----0
  6
CONTINUOUS
 62
             7
100
AcDbLine
 10
72.49036650000002
 20
3.932469
 11
72.48570350000003
 21
4.086074
  0
LINE
  5
77
100
AcDbEntity
  8
LC-002-002-----0
  6
CONTINUOUS
 62
             7
100
AcDbLine
 10
72.48570350000003
 20
4.086074
 11
72.47793350000003
 21
4.23956900000002
  0
LINE
  5
76
100
AcDbEntity
  8
LC-002-002-----0
  6
CONTINUOUS
 62
             7
100
AcDbLine
 10
72.47793350000003
 20
4.23956900000002
 11
72.47016250000004
 21
4.39306500000001
  0
LINE
  5
75
100
AcDbEntity
  8
LC-002-002-----0
  6
CONTINUOUS
 62
             7
100
AcDbLine
 10
72.47016250000004
 20
4.39306500000001
 11
72.45825650000003
 21
4.546268
  0
LINE
  5
74
100
AcDbEntity
  8
LC-002-002-----0
  6
CONTINUOUS
 62
             7
100
AcDbLine
 10
72.45825650000003
 20
4.546268
 11
72.44531550000002
 21
4.699399
  0
LINE
  5
73
100
AcDbEntity
  8
LC-002-002-----0
  6
CONTINUOUS
 62
             7
100
AcDbLine
 10
72.44531550000002
 20
4.699399
 11
72.43134350000005
 21
4.85242000000002
  0
LINE
  5
72
100
AcDbEntity
  8
LC-002-002-----0
  6
CONTINUOUS
 62
             7
100
AcDbLine
 10
72.43134350000005
 20
4.85242000000002
 11
72.41324750000004
 21
5.00500400000001
  0
LINE
  5
71
100
AcDbEntity
  8
LC-002-002-----0
  6
CONTINUOUS
 62
             7
100
AcDbLine
 10
72.41324750000004
 20
5.00500400000001
 11
72.39515050000003
 21
5.157588
  0
LINE
  5
70
100
AcDbEntity
  8
LC-002-002-----0
  6
CONTINUOUS
 62
             7
100
AcDbLine
 10
72.39515050000003
 20
5.157588
 11
72.37397250000001
 21
5.30973500000002
  0
LINE
  5
6F
100
AcDbEntity
  8
LC-002-002-----0
  6
CONTINUOUS
 62
             7
100
AcDbLine
 10
72.37397250000001
 20
5.30973500000002
 11
72.3507405
 21
5.461591
  0
LINE
  5
6E
100
AcDbEntity
  8
LC-002-002-----0
  6
CONTINUOUS
 62
             7
100
AcDbLine
 10
72.3507405
 20
5.461591
 11
72.32750850000005
 21
5.61344700000001
  0
LINE
  5
6D
100
AcDbEntity
  8
LC-002-002-----0
  6
CONTINUOUS
 62
             7
100
AcDbLine
 10
-44.57866749999997
 20
113.5
 11
-41.78711349999995
 21
113.5
  0
LINE
  5
6C
100
AcDbEntity
  8
LC-002-002-----0
  6
CONTINUOUS
 62
             7
100
AcDbLine
 10
-66.28430349999999
 20
5.120417
 11
-49.92201149999997
 21
105.561183
  0
LINE
  5
6B
100
AcDbEntity
  8
LC-002-002-----0
  6
CONTINUOUS
 62
             7
100
AcDbLine
 10
53.47234850000004
 20
0.0
 11
53.47234850000004
 21
3.625113
  0
LINE
  5
6A
100
AcDbEntity
  8
LC-002-002-----0
  6
CONTINUOUS
 62
             7
100
AcDbLine
 10
-26.62723249999996
 20
0.0
 11
-26.62723249999996
 21
3.625113
  0
LINE
  5
69
100
AcDbEntity
  8
LC-002-002-----0
  6
CONTINUOUS
 62
             7
100
AcDbLine
 10
-74.19816549999999
 20
5.61990500000002
 11
-56.6392635
 21
106.060672
  0
LINE
  5
68
100
AcDbEntity
  8
LC-002-002-----0
  6
CONTINUOUS
 62
             7
100
AcDbLine
 10
19.79501450000004
 20
105.701375
 11
19.72095850000002
 21
106.29801
  0
LINE
  5
67
100
AcDbEntity
  8
LC-002-002-----0
  6
CONTINUOUS
 62
             7
100
AcDbLine
 10
19.72095850000002
 20
106.29801
 11
19.64690250000004
 21
106.894645
  0
LINE
  5
66
100
AcDbEntity
  8
LC-002-002-----0
  6
CONTINUOUS
 62
             7
100
AcDbLine
 10
19.64690250000004
 20
106.894645
 11
19.57284750000002
 21
107.49128
  0
LINE
  5
65
100
AcDbEntity
  8
LC-002-002-----0
  6
CONTINUOUS
 62
             7
100
AcDbLine
 10
19.57284750000002
 20
107.49128
 11
19.44619950000003
 21
107.994542
  0
LINE
  5
64
100
AcDbEntity
  8
LC-002-002-----0
  6
CONTINUOUS
 62
             7
100
AcDbLine
 10
19.44619950000003
 20
107.994542
 11
19.31760550000004
 21
108.49435
  0
LINE
  5
63
100
AcDbEntity
  8
LC-002-002-----0
  6
CONTINUOUS
 62
             7
100
AcDbLine
 10
19.31760550000004
 20
108.49435
 11
19.18901150000002
 21
108.994157
  0
LINE
  5
62
100
AcDbEntity
  8
LC-002-002-----0
  6
CONTINUOUS
 62
             7
100
AcDbLine
 10
19.18901150000002
 20
108.994157
 11
19.03506550000003
 21
109.352676
  0
LINE
  5
61
100
AcDbEntity
  8
LC-002-002-----0
  6
CONTINUOUS
 62
             7
100
AcDbLine
 10
19.03506550000003
 20
109.352676
 11
18.87917150000004
 21
109.700338
  0
LINE
  5
60
100
AcDbEntity
  8
LC-002-002-----0
  6
CONTINUOUS
 62
             7
100
AcDbLine
 10
18.87917150000004
 20
109.700338
 11
18.72327850000002
 21
110.048
  0
LINE
  5
5F
100
AcDbEntity
  8
LC-002-002-----0
  6
CONTINUOUS
 62
             7
100
AcDbLine
 10
18.72327850000002
 20
110.048
 11
18.59655850000002
 21
110.215233
  0
LINE
  5
5E
100
AcDbEntity
  8
LC-002-002-----0
  6
CONTINUOUS
 62
             7
100
AcDbLine
 10
18.59655850000002
 20
110.215233
 11
18.47046050000003
 21
110.378615
  0
LINE
  5
5D
100
AcDbEntity
  8
LC-002-002-----0
  6
CONTINUOUS
 62
             7
100
AcDbLine
 10
18.47046050000003
 20
110.378615
 11
18.37609950000004
 21
110.492165
  0
LINE
  5
5C
100
AcDbEntity
  8
LC-002-002-----0
  6
CONTINUOUS
 62
             7
100
AcDbLine
 10
18.37609950000004
 20
110.492165
 11
18.33315750000003
 21
110.52498
  0
LINE
  5
5B
100
AcDbEntity
  8
LC-002-002-----0
  6
CONTINUOUS
 62
             7
100
AcDbLine
 10
34.11903550000002
 20
110.5
 11
33.93347150000002
 21
110.5
  0
LINE
  5
5A
100
AcDbEntity
  8
LC-002-002-----0
  6
CONTINUOUS
 62
             7
100
AcDbLine
 10
29.62723250000002
 20
3.625113
 11
29.62628450000003
 21
3.76705100000001
  0
LINE
  5
59
100
AcDbEntity
  8
LC-002-002-----0
  6
CONTINUOUS
 62
             7
100
AcDbLine
 10
29.62628450000003
 20
3.76705100000001
 11
29.62533650000003
 21
3.90898900000002
  0
LINE
  5
58
100
AcDbEntity
  8
LC-002-002-----0
  6
CONTINUOUS
 62
             7
100
AcDbLine
 10
29.62533650000003
 20
3.90898900000002
 11
29.62362950000002
 21
4.05086800000001
  0
LINE
  5
57
100
AcDbEntity
  8
LC-002-002-----0
  6
CONTINUOUS
 62
             7
100
AcDbLine
 10
29.62362950000002
 20
4.05086800000001
 11
29.62078650000004
 21
4.192657
  0
LINE
  5
56
100
AcDbEntity
  8
LC-002-002-----0
  6
CONTINUOUS
 62
             7
100
AcDbLine
 10
29.62078650000004
 20
4.192657
 11
29.61794250000003
 21
4.33444600000001
  0
LINE
  5
55
100
AcDbEntity
  8
LC-002-002-----0
  6
CONTINUOUS
 62
             7
100
AcDbLine
 10
29.61794250000003
 20
4.33444600000001
 11
29.61358350000003
 21
4.47599700000001
  0
LINE
  5
54
100
AcDbEntity
  8
LC-002-002-----0
  6
CONTINUOUS
 62
             7
100
AcDbLine
 10
29.61358350000003
 20
4.47599700000001
 11
29.60884650000003
 21
4.61748800000001
  0
LINE
  5
53
100
AcDbEntity
  8
LC-002-002-----0
  6
CONTINUOUS
 62
             7
100
AcDbLine
 10
29.60884650000003
 20
4.61748800000001
 11
29.60373150000004
 21
4.75889100000001
  0
LINE
  5
52
100
AcDbEntity
  8
LC-002-002-----0
  6
CONTINUOUS
 62
             7
100
AcDbLine
 10
29.60373150000004
 20
4.75889100000001
 11
29.59710350000003
 21
4.89993700000002
  0
LINE
  5
51
100
AcDbEntity
  8
LC-002-002-----0
  6
CONTINUOUS
 62
             7
100
AcDbLine
 10
29.59710350000003
 20
4.89993700000002
 11
29.59047650000002
 21
5.04098300000001
  0
LINE
  5
50
100
AcDbEntity
  8
LC-002-002-----0
  6
CONTINUOUS
 62
             7
100
AcDbLine
 10
29.59047650000002
 20
5.04098300000001
 11
29.58271750000003
 21
5.18167400000002
  0
LINE
  5
4F
100
AcDbEntity
  8
LC-002-002-----0
  6
CONTINUOUS
 62
             7
100
AcDbLine
 10
29.58271750000003
 20
5.18167400000002
 11
29.57420450000004
 21
5.32212800000002
  0
LINE
  5
4E
100
AcDbEntity
  8
LC-002-002-----0
  6
CONTINUOUS
 62
             7
100
AcDbLine
 10
29.57420450000004
 20
5.32212800000002
 11
29.56569050000002
 21
5.462582
  0
LINE
  5
4D
100
AcDbEntity
  8
LC-002-002-----0
  6
CONTINUOUS
 62
             7
100
AcDbLine
 10
-56.81147049999996
 20
0.0
 11
-56.81147049999996
 21
3.625113
  0
LINE
  5
4C
100
AcDbEntity
  8
LC-002-002-----0
  6
CONTINUOUS
 62
             7
100
AcDbLine
 10
5.76256950000004
 20
105.767848
 11
5.73730850000004
 21
106.363872
  0
LINE
  5
4B
100
AcDbEntity
  8
LC-002-002-----0
  6
CONTINUOUS
 62
             7
100
AcDbLine
 10
5.73730850000004
 20
106.363872
 11
5.71204850000004
 21
106.959896
  0
LINE
  5
4A
100
AcDbEntity
  8
LC-002-002-----0
  6
CONTINUOUS
 62
             7
100
AcDbLine
 10
5.71204850000004
 20
106.959896
 11
5.68678750000004
 21
107.555921
  0
LINE
  5
49
100
AcDbEntity
  8
LC-002-002-----0
  6
CONTINUOUS
 62
             7
100
AcDbLine
 10
5.68678750000004
 20
107.555921
 11
5.64634850000002
 21
108.0866
  0
LINE
  5
48
100
AcDbEntity
  8
LC-002-002-----0
  6
CONTINUOUS
 62
             7
100
AcDbLine
 10
5.64634850000002
 20
108.0866
 11
5.60139850000002
 21
108.597857
  0
LINE
  5
47
100
AcDbEntity
  8
LC-002-002-----0
  6
CONTINUOUS
 62
             7
100
AcDbLine
 10
5.60139850000002
 20
108.597857
 11
5.55644850000002
 21
109.10911400000001
  0
LINE
  5
46
100
AcDbEntity
  8
LC-002-002-----0
  6
CONTINUOUS
 62
             7
100
AcDbLine
 10
5.55644850000002
 20
109.10911400000001
 11
5.50442650000002
 21
109.546442
  0
LINE
  5
45
100
AcDbEntity
  8
LC-002-002-----0
  6
CONTINUOUS
 62
             7
100
AcDbLine
 10
5.50442650000002
 20
109.546442
 11
5.44642450000003
 21
109.92123599999999
  0
LINE
  5
44
100
AcDbEntity
  8
LC-002-002-----0
  6
CONTINUOUS
 62
             7
100
AcDbLine
 10
5.44642450000003
 20
109.92123599999999
 11
5.38842150000002
 21
110.29603
  0
LINE
  5
43
100
AcDbEntity
  8
LC-002-002-----0
  6
CONTINUOUS
 62
             7
100
AcDbLine
 10
5.38842150000002
 20
110.29603
 11
5.35262750000004
 21
110.5
  0
LINE
  5
42
100
AcDbEntity
  8
LC-002-002-----0
  6
CONTINUOUS
 62
             7
100
AcDbLine
 10
5.24371150000002
 20
110.94220199999999
 11
5.23559050000003
 21
110.97229900000001
  0
LINE
  5
41
100
AcDbEntity
  8
LC-002-002-----0
  6
CONTINUOUS
 62
             7
100
AcDbLine
 10
12.03397350000003
 20
110.5
 11
9.96453350000002
 21
110.5
  0
LINE
  5
40
100
AcDbEntity
  8
LC-002-002-----0
  6
CONTINUOUS
 62
             7
100
AcDbLine
 10
48.25160250000002
 20
113.490392
 11
48.25160250000002
 21
113.5
  0
LINE
  5
3F
100
AcDbEntity
  8
LC-002-002-----0
  6
CONTINUOUS
 62
             7
100
AcDbLine
 10
-24.99999949999997
 20
115.0
 11
25.00000050000003
 21
115.0
  0
LINE
  5
3E
100
AcDbEntity
  8
LC-002-002-----0
  6
CONTINUOUS
 62
             7
100
AcDbLine
 10
-48.25160249999996
 20
113.5
 11
-48.25160249999996
 21
113.490392
  0
LINE
  5
3D
100
AcDbEntity
  8
LC-002-002-----0
  6
CONTINUOUS
 62
             7
100
AcDbLine
 10
12.50000050000003
 20
113.5
 11
12.48843350000004
 21
113.5
  0
LINE
  5
3C
100
AcDbEntity
  8
LC-002-002-----0
  6
CONTINUOUS
 62
             7
100
AcDbLine
 10
9.56843250000003
 20
113.5
 11
6.29809850000004
 21
113.5
  0
LINE
  5
3B
100
AcDbEntity
  8
LC-002-002-----0
  6
CONTINUOUS
 62
             7
100
AcDbLine
 10
4.82549850000004
 20
113.5
 11
-4.82549849999998
 21
113.5
  0
LINE
  5
3A
100
AcDbEntity
  8
LC-002-002-----0
  6
CONTINUOUS
 62
             7
100
AcDbLine
 10
-6.29809749999998
 20
113.5
 11
-9.56843149999997
 21
113.5
  0
LINE
  5
39
100
AcDbEntity
  8
LC-002-002-----0
  6
CONTINUOUS
 62
             7
100
AcDbLine
 10
-12.48843349999999
 20
113.5
 11
-14.14764649999998
 21
113.5
  0
LINE
  5
38
100
AcDbEntity
  8
LC-002-002-----0
  6
CONTINUOUS
 62
             7
100
AcDbLine
 10
-18.46508850000001
 20
113.5
 11
-18.48479049999995
 21
113.5
  0
LINE
  5
37
100
AcDbEntity
  8
LC-002-002-----0
  6
CONTINUOUS
 62
             7
100
AcDbLine
 10
-37.36925549999998
 20
107.5
 11
-35.10358149999993
 21
107.5
  0
LINE
  5
36
100
AcDbEntity
  8
LC-002-002-----0
  6
CONTINUOUS
 62
             7
100
AcDbLine
 10
-42.08807949999996
 20
107.5
 11
-40.48237049999997
 21
107.5
  0
LINE
  5
35
100
AcDbEntity
  8
LC-002-002-----0
  6
CONTINUOUS
 62
             7
100
AcDbLine
 10
40.48237050000003
 20
107.5
 11
42.08808050000002
 21
107.5
  0
LINE
  5
34
100
AcDbEntity
  8
LC-002-002-----0
  6
CONTINUOUS
 62
             7
100
AcDbLine
 10
45.24140350000002
 20
107.5
 11
46.07055250000002
 21
107.5
  0
LINE
  5
33
100
AcDbEntity
  8
1
  6
PHANTOM
 62
             2
100
AcDbLine
 10
0.0
 20
-33.72039189242099
 11
0.0
 21
119.651940335582
  0
LINE
  5
32
100
AcDbEntity
  8
1
  6
DASHED
 62
             7
100
AcDbLine
 10
-74.99999949999997
 20
3.0
 11
-74.99999949999997
 21
0.0
  0
LINE
  5
31
100
AcDbEntity
  8
LC-002-002-----0
  6
CONTINUOUS
 62
             7
100
AcDbLine
 10
-74.99999949999997
 20
3.0
 11
-92.99999949999997
 21
3.0
  0
LINE
  5
30
100
AcDbEntity
  8
LC-002-002-----0
  6
CONTINUOUS
 62
             7
100
AcDbLine
 10
-74.99999949999997
 20
0.0
 11
-76.30203149999997
 21
0.0
  0
POINT
  5
2F
100
AcDbEntity
  8
LC-003-003-----0
 62
             7
100
AcDbPoint
 10
-74.99999949999997
 20
3.0
  0
POINT
  5
2E
100
AcDbEntity
  8
LC-003-003-----0
 62
             7
100
AcDbPoint
 10
75.00000050000003
 20
3.0
  0
POINT
  5
2D
100
AcDbEntity
  8
LC-003-003-----0
 62
             7
100
AcDbPoint
 10
98.50000050000003
 20
0.0
  0
POINT
  5
2C
100
AcDbEntity
  8
LC-003-003-----0
 62
             7
100
AcDbPoint
 10
25.00000050000003
 20
115.0
  0
ENDBLK
  5
630
100
AcDbEntity
  8
0
100
AcDbBlockEnd
  0
BLOCK
  5
61A
100
AcDbEntity
  8
0
100
AcDbBlockBegin
  2
*D1
 70
             1
 10
0.0
 20
0.0
 30
0.0
  3
*D1
  1

  0
LINE
  5
61B
100
AcDbEntity
  8
0
  6
CONTINUOUS
 62
             4
100
AcDbLine
 10
75.00000050000003
 20
-50.293424003735
 11
-74.99999949999997
 21
-50.293424003735
  0
LINE
  5
61C
100
AcDbEntity
  8
0
  6
CONTINUOUS
 62
             4
100
AcDbLine
 10
-74.99999949999997
 20
3.0
 11
-74.99999949999997
 21
-52.293424003735
  0
LINE
  5
61D
100
AcDbEntity
  8
0
  6
CONTINUOUS
 62
             4
100
AcDbLine
 10
75.00000050000003
 20
3.0
 11
75.00000050000003
 21
-52.293424003735
  0
SOLID
  5
61E
100
AcDbEntity
  8
0
 62
             4
100
AcDbTrace
 10
65.00000050000003
 20
-51.60994897960895
 11
65.00000050000003
 21
-48.97689902786104
 12
75.00000050000003
 22
-50.293424003735
 13
75.00000050000003
 23
-50.293424003735
  0
SOLID
  5
61F
100
AcDbEntity
  8
0
 62
             4
100
AcDbTrace
 10
-64.99999949999997
 20
-48.97689902786104
 11
-64.99999949999997
 21
-51.60994897960896
 12
-74.99999949999997
 22
-50.293424003735
 13
-74.99999949999997
 23
-50.293424003735
  0
MTEXT
  5
621
100
AcDbEntity
  8
0
 62
             1
100
AcDbMText
 10
-36.39498431753088
 20
-48.29344388109593
 30
0.0
 40
10.0
 41
0.0
 71
             7
 72
             1
  1
\C1;Ø\C1;150
  7
CONVERTER_1
 11
0.99999999999706
 21
0.00000242406841
 31
0.0
  0
ENDBLK
  5
622
100
AcDbEntity
  8
0
100
AcDbBlockEnd
  0
BLOCK
  5
626
100
AcDbEntity
  8
0
100
AcDbBlockBegin
  2
*D2
 70
             1
 10
0.0
 20
0.0
 30
0.0
  3
*D2
  1

  0
LINE
  5
627
100
AcDbEntity
  8
0
  6
CONTINUOUS
 62
             4
100
AcDbLine
 10
108.5000005
 20
0.0
 11
108.5000005
 21
115.00000000000003
  0
LINE
  5
628
100
AcDbEntity
  8
0
  6
CONTINUOUS
 62
             4
100
AcDbLine
 10
25.0000005
 20
115.00000000000003
 11
110.5000005
 21
115.00000000000003
  0
LINE
  5
629
100
AcDbEntity
  8
0
  6
CONTINUOUS
 62
             4
100
AcDbLine
 10
98.5000005
 20
0.0
 11
110.5000005
 21
0.0
  0
SOLID
  5
62A
100
AcDbEntity
  8
0
 62
             4
100
AcDbTrace
 10
107.18347552412604
 20
10.0
 11
109.81652547587396
 21
10.0
 12
108.5000005
 22
0.0
 13
108.5000005
 23
0.0
  0
SOLID
  5
62B
100
AcDbEntity
  8
0
 62
             4
100
AcDbTrace
 10
109.81652547587396
 20
105.00000000000003
 11
107.18347552412604
 21
105.00000000000003
 12
108.5000005
 22
115.00000000000003
 13
108.5000005
 23
115.00000000000003
  0
MTEXT
  5
62C
100
AcDbEntity
  8
0
 62
             1
100
AcDbMText
 10
106.5000005
 20
53.462997156969
 30
0.0
 40
10.0
 41
0.0
 71
             7
 72
             1
  1
115
  7
CONVERTER_1
 11
0.0
 21
1.0
 31
0.0
  0
ENDBLK
  5
62D
100
AcDbEntity
  8
0
100
AcDbBlockEnd
  0
ENDSEC
  0
SECTION
  2
ENTITIES
  0
INSERT
  5
2B
100
AcDbEntity
  8
1
100
AcDbBlockReference
  2
HL175_LAUBFANG_EDELSTAL__1
 10
0.0
 20
0.0
  0
ENDSEC
  0
SECTION
  2
OBJECTS
  0
DICTIONARY
  5
19
100
AcDbDictionary
  3
ACAD_GROUP
350
1A
  3
ACAD_MLINESTYLE
350
1B
  0
DICTIONARY
  5
1A
102
{ACAD_REACTORS
330
19
102
}
100
AcDbDictionary
  0
DICTIONARY
  5
1B
102
{ACAD_REACTORS
330
19
102
}
100
AcDbDictionary
  3
STANDARD
350
1C
  0
MLINESTYLE
  5
1C
102
{ACAD_REACTORS
330
1B
102
}
100
AcDbMlineStyle
  2
STANDARD
 70
             0
  3

 62
             0
 51
90.0
 52
90.0
 71
             2
 49
0.5
 62
           256
  6
BYLAYER
 49
-0.5
 62
           256
  6
BYLAYER
  0
ENDSEC
  0
EOF
