  0
SECTION
  2
HEADER
  9
$ACADVER
  1
AC1014
  9
$ACADMAINTVER
 70
             0
  9
$DWGCODEPAGE
  3
ANSI_1252
  9
$INSBASE
 10
0.0
 20
0.0
 30
0.0
  9
$EXTMIN
 10
1.00000000000000E+20
 20
1.00000000000000E+20
 30
1.00000000000000E+20
  9
$EXTMAX
 10
-1.00000000000000E+20
 20
-1.00000000000000E+20
 30
-1.00000000000000E+20
  9
$LIMMIN
 10
0.0
 20
0.0
  9
$LIMMAX
 10
0.0
 20
0.0
  9
$ORTHOMODE
 70
             0
  9
$REGENMODE
 70
             1
  9
$FILLMODE
 70
             1
  9
$QTEXTMODE
 70
             0
  9
$MIRRTEXT
 70
             1
  9
$DRAGMODE
 70
             2
  9
$LTSCALE
 40
1.0
  9
$OSMODE
 70
             0
  9
$ATTMODE
 70
             1
  9
$TEXTSIZE
 40
0.2
  9
$TRACEWID
 40
0.05
  9
$TEXTSTYLE
  7
STANDARD
  9
$CLAYER
  8
0
  9
$CELTYPE
  6
CONTINUOUS
  9
$CECOLOR
 62
           256
  9
$CELTSCALE
 40
1.0
  9
$DELOBJ
 70
             1
  9
$DISPSILH
 70
             0
  9
$DIMSCALE
 40
1.0
  9
$DIMASZ
 40
0.18
  9
$DIMEXO
 40
0.0625
  9
$DIMDLI
 40
0.38
  9
$DIMRND
 40
0.0
  9
$DIMDLE
 40
0.0
  9
$DIMEXE
 40
0.18
  9
$DIMTP
 40
0.0
  9
$DIMTM
 40
0.0
  9
$DIMTXT
 40
0.18
  9
$DIMCEN
 40
0.09
  9
$DIMTSZ
 40
0.0
  9
$DIMTOL
 70
             0
  9
$DIMLIM
 70
             0
  9
$DIMTIH
 70
             1
  9
$DIMTOH
 70
             1
  9
$DIMSE1
 70
             0
  9
$DIMSE2
 70
             0
  9
$DIMTAD
 70
             0
  9
$DIMZIN
 70
             0
  9
$DIMBLK
  1

  9
$DIMASO
 70
             1
  9
$DIMSHO
 70
             1
  9
$DIMPOST
  1

  9
$DIMAPOST
  1

  9
$DIMALT
 70
             0
  9
$DIMALTD
 70
             2
  9
$DIMALTF
 40
25.4
  9
$DIMLFAC
 40
1.0
  9
$DIMTOFL
 70
             0
  9
$DIMTVP
 40
0.0
  9
$DIMTIX
 70
             0
  9
$DIMSOXD
 70
             0
  9
$DIMSAH
 70
             0
  9
$DIMBLK1
  1

  9
$DIMBLK2
  1

  9
$DIMSTYLE
  2
STANDARD
  9
$DIMCLRD
 70
             0
  9
$DIMCLRE
 70
             0
  9
$DIMCLRT
 70
             0
  9
$DIMTFAC
 40
1.0
  9
$DIMGAP
 40
0.09
  9
$DIMJUST
 70
             0
  9
$DIMSD1
 70
             0
  9
$DIMSD2
 70
             0
  9
$DIMTOLJ
 70
             1
  9
$DIMTZIN
 70
             0
  9
$DIMALTZ
 70
             0
  9
$DIMALTTZ
 70
             0
  9
$DIMFIT
 70
             3
  9
$DIMUPT
 70
             0
  9
$DIMUNIT
 70
             2
  9
$DIMDEC
 70
             4
  9
$DIMTDEC
 70
             4
  9
$DIMALTU
 70
             2
  9
$DIMALTTD
 70
             2
  9
$DIMTXSTY
  7
STANDARD
  9
$DIMAUNIT
 70
             0
  9
$LUNITS
 70
             2
  9
$LUPREC
 70
             4
  9
$SKETCHINC
 40
0.1
  9
$FILLETRAD
 40
0.0
  9
$AUNITS
 70
             0
  9
$AUPREC
 70
             0
  9
$MENU
  1
acad
  9
$ELEVATION
 40
0.0
  9
$PELEVATION
 40
0.0
  9
$THICKNESS
 40
0.0
  9
$LIMCHECK
 70
             0
  9
$BLIPMODE
 70
             1
  9
$CHAMFERA
 40
0.0
  9
$CHAMFERB
 40
0.0
  9
$CHAMFERC
 40
0.0
  9
$CHAMFERD
 40
0.0
  9
$SKPOLY
 70
             0
  9
$TDCREATE
 40
0.000000000
  9
$TDUPDATE
 40
0.000000000
  9
$TDINDWG
 40
0.0000000000
  9
$TDUSRTIMER
 40
0.0000000000
  9
$USRTIMER
 70
             1
  9
$ANGBASE
 50
0.0
  9
$ANGDIR
 70
             0
  9
$PDMODE
 70
             0
  9
$PDSIZE
 40
0.0
  9
$PLINEWID
 40
0.0
  9
$COORDS
 70
             0
  9
$SPLFRAME
 70
             0
  9
$SPLINETYPE
 70
             6
  9
$SPLINESEGS
 70
             8
  9
$ATTDIA
 70
             0
  9
$ATTREQ
 70
             1
  9
$HANDLING
 70
             1
  9
$HANDSEED
  5
251
  9
$SURFTAB1
 70
             6
  9
$SURFTAB2
 70
             6
  9
$SURFTYPE
 70
             6
  9
$SURFU
 70
             6
  9
$SURFV
 70
             6
  9
$UCSNAME
  2

  9
$UCSORG
 10
0.0
 20
0.0
 30
0.0
  9
$UCSXDIR
 10
1.0
 20
0.0
 30
0.0
  9
$UCSYDIR
 10
0.0
 20
1.0
 30
0.0
  9
$PUCSNAME
  2

  9
$PUCSORG
 10
0.0
 20
0.0
 30
0.0
  9
$PUCSXDIR
 10
1.0
 20
0.0
 30
0.0
  9
$PUCSYDIR
 10
0.0
 20
1.0
 30
0.0
  9
$USERI1
 70
             0
  9
$USERI2
 70
             0
  9
$USERI3
 70
             0
  9
$USERI4
 70
             0
  9
$USERI5
 70
             0
  9
$USERR1
 40
11.6
  9
$USERR2
 40
0.0
  9
$USERR3
 40
0.0
  9
$USERR4
 40
0.0
  9
$USERR5
 40
0.0
  9
$WORLDVIEW
 70
             1
  9
$SHADEDGE
 70
             3
  9
$SHADEDIF
 70
            70
  9
$TILEMODE
 70
             1
  9
$MAXACTVP
 70
            16
  9
$PINSBASE
 10
0.0
 20
0.0
 30
0.0
  9
$PLIMCHECK
 70
             0
  9
$PEXTMIN
 10
1.00000000000000E+20
 20
1.00000000000000E+20
 30
1.00000000000000E+20
  9
$PEXTMAX
 10
-1.00000000000000E+20
 20
-1.00000000000000E+20
 30
-1.00000000000000E+20
  9
$PLIMMIN
 10
0.0
 20
0.0
  9
$PLIMMAX
 10
12.0
 20
9.0
  9
$UNITMODE
 70
             0
  9
$VISRETAIN
 70
             0
  9
$PLINEGEN
 70
             1
  9
$PSLTSCALE
 70
             0
  9
$TREEDEPTH
 70
          3020
  9
$PICKSTYLE
 70
             1
  9
$CMLSTYLE
  2
STANDARD
  9
$CMLJUST
 70
             0
  9
$CMLSCALE
 40
1.0
  9
$PROXYGRAPHICS
 70
             0
  9
$MEASUREMENT
 70
             1
  0
ENDSEC
  0
SECTION
  2
CLASSES
  0
CLASS
  1
LWPOLYLINE
  2
AcDbPolyline
  3
"AutoCAD"
 90
        0
280
             0
281
             1
  0
CLASS
  1
IMAGE
  2
AcDbRasterImage
  3
ISM
 90
      127
280
             0
281
             1
  0
CLASS
  1
OLE2FRAME
  2
AcDbOle2Frame
  3
""
 90
        0
280
             0
281
             1
  0
CLASS
  1
HATCH
  2
AcDbHatch
  3
"ACAD_SEDONA"
 90
        0
280
             0
281
             1
  0
CLASS
  1
DICTIONARYVAR
  2
AcDbDictionaryVar
  3
"AutoCAD"
 90
        0
280
             0
281
             0
  0
CLASS
  1
RASTERVARIABLES
  2
AcDbRasterVariables
  3
ISM
 90
        0
280
             0
281
             0
  0
CLASS
  1
IMAGEDEF
  2
AcDbRasterImageDef
  3
ISM
 90
        0
280
             0
281
             0
  0
CLASS
  1
IMAGEDEF_REACTOR
  2
AcDbRasterImageDefReactor
  3
ISM
 90
        1
280
             0
281
             0
  0
CLASS
  1
IDBUFFER
  2
AcDbIdBuffer
  3
"Acad"
 90
        0
280
             0
281
             0
  0
CLASS
  1
SPATIAL_FILTER
  2
AcDbSpatialFilter
  3
"Acad"
 90
        0
280
             0
281
             0
  0
CLASS
  1
XRECORD
  2
AcDbXrecord
  3
"<Built In>"
 90
        0
280
             0
281
             0
  0
CLASS
  1
SORTENTSTABLE
  2
AcDbSortentsTable
  3
"AutoCAD"
 90
        0
280
             0
281
             0
  0
CLASS
  1
LAYER_INDEX
  2
AcDbLayerIndex
  3
"Acad"
 90
        0
280
             0
281
             0
  0
CLASS
  1
SPATIAL_INDEX
  2
AcDbSpatialIndex
  3
"Acad"
 90
        0
280
             0
281
             0
  0
CLASS
  1
OBJECT_PTR
  2
CAseDLPNTableRecord
  3
"ASE-LPNTableRecord"
 90
        1
280
             0
281
             0
  0
CLASS
  1
LAYOUT
  2
AcDbLayout
  3
"AutoCAD 2000"
 90
        1
280
             0
281
             0
  0
CLASS
  1
PLOTSETTINGS
  2
AcDbPlotSettings
  3
"AutoCAD 2000"
 90
        1
280
             0
281
             0
  0
CLASS
  1
ACDBDICTIONARYWDFLT
  2
AcDbDictionaryWithDefault
  3
"AutoCAD 2000"
 90
        1
280
             0
281
             0
  0
CLASS
  1
ACDBPLACEHOLDER
  2
AcDbPlaceHolder
  3
"AutoCAD 2000"
 90
        1
280
             0
281
             0
  0
ENDSEC
  0
SECTION
  2
TABLES
  0
TABLE
  2
VPORT
  5
7
100
AcDbSymbolTable
 70
             1
  0
VPORT
  5
15
100
AcDbSymbolTableRecord
100
AcDbViewportTableRecord
  2
*ACTIVE
 70
             0
 10
0.0
 20
0.0
 11
1.0
 21
1.0
 12
16.28775941655844
 22
5.85006851733835
 13
0.0
 23
0.0
 14
1.0
 24
1.0
 15
0.0
 25
0.0
 16
0.0
 26
0.0
 36
1.0
 17
0.0
 27
0.0
 37
0.0
 40
171.98275164479116
 41
1.60267857142857
 42
50.0
 43
0.0
 44
0.0
 50
0.0
 51
0.0
 71
             0
 72
           100
 73
             1
 74
             1
 75
             0
 76
             0
 77
             0
 78
             0
  0
ENDTAB
  0
TABLE
  2
LTYPE
  5
4
100
AcDbSymbolTable
 70
            10
  0
LTYPE
  5
11
100
AcDbSymbolTableRecord
100
AcDbLinetypeTableRecord
  2
BYBLOCK
 70
            64
  3

 72
            65
 73
             0
 40
0.0
  0
LTYPE
  5
12
100
AcDbSymbolTableRecord
100
AcDbLinetypeTableRecord
  2
BYLAYER
 70
            64
  3

 72
            65
 73
             0
 40
0.0
  0
LTYPE
  5
13
100
AcDbSymbolTableRecord
100
AcDbLinetypeTableRecord
  2
CONTINUOUS
 70
            64
  3
Solid line
 72
            65
 73
             0
 40
0.0
  0
LTYPE
  5
1D
100
AcDbSymbolTableRecord
100
AcDbLinetypeTableRecord
  2
DASHED
 70
            64
  3
Dashed
 72
            65
 73
             2
 40
15.0
 49
12.0
 74
             0
 49
-3.0
 74
             0
  0
LTYPE
  5
1E
100
AcDbSymbolTableRecord
100
AcDbLinetypeTableRecord
  2
DOTTED
 70
            64
  3
Dotted
 72
            65
 73
             2
 40
3.5
 49
0.5
 74
             0
 49
-3.0
 74
             0
  0
LTYPE
  5
1F
100
AcDbSymbolTableRecord
100
AcDbLinetypeTableRecord
  2
DOT_CENTER
 70
            64
  3
Dot_Center
 72
            65
 73
             4
 40
2.0
 49
1.25
 74
             0
 49
-0.25
 74
             0
 49
0.25
 74
             0
 49
-0.25
 74
             0
  0
LTYPE
  5
20
100
AcDbSymbolTableRecord
100
AcDbLinetypeTableRecord
  2
LONG_DASHED
 70
            64
  3
Long_Dashed
 72
            65
 73
             2
 40
2.0
 49
1.5
 74
             0
 49
-0.5
 74
             0
  0
LTYPE
  5
21
100
AcDbSymbolTableRecord
100
AcDbLinetypeTableRecord
  2
DASH_CENTER
 70
            64
  3
Dash_Center
 72
            65
 73
             4
 40
36.0
 49
24.0
 74
             0
 49
-3.0
 74
             0
 49
6.0
 74
             0
 49
-3.0
 74
             0
  0
LTYPE
  5
22
100
AcDbSymbolTableRecord
100
AcDbLinetypeTableRecord
  2
PHANTOM
 70
            64
  3
Phantom
 72
            65
 73
             6
 40
2.5
 49
1.25
 74
             0
 49
-0.25
 74
             0
 49
0.25
 74
             0
 49
-0.25
 74
             0
 49
0.25
 74
             0
 49
-0.25
 74
             0
  0
LTYPE
  5
23
100
AcDbSymbolTableRecord
100
AcDbLinetypeTableRecord
  2
CENTER_DASH_DASH
 70
            64
  3
Center_Dash_Dash
 72
            65
 73
             6
 40
22.0
 49
12.0
 74
             0
 49
-3.0
 74
             0
 49
0.5
 74
             0
 49
-3.0
 74
             0
 49
0.5
 74
             0
 49
-3.0
 74
             0
  0
ENDTAB
  0
TABLE
  2
LAYER
  5
2
100
AcDbSymbolTable
 70
             2
  0
LAYER
  5
14
100
AcDbSymbolTableRecord
100
AcDbLayerTableRecord
  2
0
 70
             0
 62
             7
  6
CONTINUOUS
  0
LAYER
  5
24
100
AcDbSymbolTableRecord
100
AcDbLayerTableRecord
  2
1
 70
             0
 62
             7
  6
CONTINUOUS
  0
ENDTAB
  0
TABLE
  2
STYLE
  5
3
100
AcDbSymbolTable
 70
             2
  0
STYLE
  5
17
100
AcDbSymbolTableRecord
100
AcDbTextStyleTableRecord
  2
STANDARD
 70
             0
 40
0.0
 41
1.0
 50
0.0
 71
             0
 42
0.0
  3
txt
  4

  0
STYLE
  5
22A
100
AcDbSymbolTableRecord
100
AcDbTextStyleTableRecord
  2
CONVERTER_1
 70
             0
 40
0.0
 41
0.9
 50
0.0
 71
             0
 42
0.0
  3
txt.shx
  4

  0
ENDTAB
  0
TABLE
  2
VIEW
  5
5
100
AcDbSymbolTable
 70
             0
  0
ENDTAB
  0
TABLE
  2
UCS
  5
6
100
AcDbSymbolTable
 70
             0
  0
ENDTAB
  0
TABLE
  2
APPID
  5
8
100
AcDbSymbolTable
 70
             1
  0
APPID
  5
16
100
AcDbSymbolTableRecord
100
AcDbRegAppTableRecord
  2
ACAD
 70
             0
  0
ENDTAB
  0
TABLE
  2
DIMSTYLE
  5
9
100
AcDbSymbolTable
 70
             5
  0
DIMSTYLE
105
18
100
AcDbSymbolTableRecord
100
AcDbDimStyleTableRecord
  2
STANDARD
 70
             0
  3

  4

  5

  6

  7

 40
1.0
 41
0.18
 42
0.0625
 43
0.38
 44
0.18
 45
0.0
 46
0.0
 47
0.0
 48
0.0
 71
             0
 72
             0
 73
             1
 74
             1
 75
             0
 76
             0
 77
             0
 78
             0
140
0.18
141
0.09
142
0.0
143
25.4
144
1.0
145
0.0
146
1.0
147
0.09
170
             0
171
             2
172
             0
173
             0
174
             0
175
             0
176
             0
177
             0
178
             0
270
             2
271
             4
272
             4
273
             2
274
             2
275
             0
280
             0
281
             0
282
             0
283
             1
284
             0
285
             0
286
             0
287
             0
288
             0
340
17
  0
DIMSTYLE
105
22D
100
AcDbSymbolTableRecord
100
AcDbDimStyleTableRecord
  2
ME10_DIM_0
 70
             0
  3
Ø<>
  4

  5

  6

  7

 40
1.0
 41
7.0
 42
0.0
 43
0.38
 44
2.0
 45
0.0
 46
0.0
 47
0.0
 48
0.0
 71
             0
 72
             0
 73
             0
 74
             0
 75
             0
 76
             0
 77
             1
 78
             8
140
7.0
141
0.09
142
0.0
143
25.4
144
1.0
145
0.0
146
1.0
147
0.625
170
             0
171
             2
172
             0
173
             1
174
             0
175
             0
176
             4
177
             4
178
             1
270
             2
271
             1
272
             4
273
             2
274
             2
275
             0
280
             0
281
             0
282
             0
283
             1
284
             0
285
             0
286
             0
287
             0
288
             0
340
17
  0
DIMSTYLE
105
238
100
AcDbSymbolTableRecord
100
AcDbDimStyleTableRecord
  2
ME10_DIM_1
 70
             0
  3
Ø<>
  4

  5

  6

  7

 40
1.0
 41
7.0
 42
0.0
 43
0.38
 44
2.0
 45
0.0
 46
0.0
 47
0.0
 48
0.0
 71
             0
 72
             0
 73
             0
 74
             0
 75
             0
 76
             0
 77
             1
 78
             8
140
7.0
141
0.09
142
0.0
143
25.4
144
1.0
145
0.0
146
1.0
147
0.625
170
             0
171
             2
172
             0
173
             1
174
             0
175
             0
176
             4
177
             4
178
             1
270
             2
271
             1
272
             4
273
             2
274
             2
275
             0
280
             0
281
             0
282
             0
283
             1
284
             0
285
             0
286
             0
287
             0
288
             0
340
17
  0
DIMSTYLE
105
243
100
AcDbSymbolTableRecord
100
AcDbDimStyleTableRecord
  2
ME10_DIM_2
 70
             0
  3

  4

  5

  6

  7

 40
1.0
 41
7.0
 42
0.0
 43
0.38
 44
2.0
 45
0.0
 46
0.0
 47
0.0
 48
0.0
 71
             0
 72
             0
 73
             0
 74
             0
 75
             0
 76
             0
 77
             1
 78
             8
140
7.0
141
0.09
142
0.0
143
25.4
144
1.0
145
0.0
146
1.0
147
0.625
170
             0
171
             2
172
             0
173
             1
174
             0
175
             0
176
             4
177
             4
178
             1
270
             2
271
             2
272
             4
273
             2
274
             2
275
             0
280
             0
281
             0
282
             0
283
             1
284
             0
285
             0
286
             0
287
             0
288
             0
340
17
  0
DIMSTYLE
105
24E
100
AcDbSymbolTableRecord
100
AcDbDimStyleTableRecord
  2
ME10_DIM_3
 70
             0
  3

  4

  5

  6

  7

 40
1.0
 41
7.0
 42
0.0
 43
0.38
 44
2.0
 45
0.0
 46
0.0
 47
0.0
 48
0.0
 71
             0
 72
             0
 73
             0
 74
             0
 75
             0
 76
             0
 77
             1
 78
             8
140
7.0
141
0.09
142
0.0
143
25.4
144
1.0
145
0.0
146
1.0
147
0.625
170
             0
171
             2
172
             0
173
             1
174
             0
175
             0
176
             4
177
             4
178
             1
270
             2
271
             2
272
             4
273
             2
274
             2
275
             0
280
             0
281
             0
282
             0
283
             1
284
             0
285
             0
286
             0
287
             0
288
             0
340
17
  0
ENDTAB
  0
TABLE
  2
BLOCK_RECORD
  5
1
100
AcDbSymbolTable
 70
             5
  0
BLOCK_RECORD
  5
A
100
AcDbSymbolTableRecord
100
AcDbBlockTableRecord
  2
*MODEL_SPACE
  0
BLOCK_RECORD
  5
B
100
AcDbSymbolTableRecord
100
AcDbBlockTableRecord
  2
*PAPER_SPACE
  0
BLOCK_RECORD
  5
25
100
AcDbSymbolTableRecord
100
AcDbBlockTableRecord
  2
HL_190_ENTW_SSERUNGSRIG__1
  0
BLOCK_RECORD
  5
223
100
AcDbSymbolTableRecord
100
AcDbBlockTableRecord
  2
*D1
  0
BLOCK_RECORD
  5
22F
100
AcDbSymbolTableRecord
100
AcDbBlockTableRecord
  2
*D2
  0
BLOCK_RECORD
  5
23A
100
AcDbSymbolTableRecord
100
AcDbBlockTableRecord
  2
*D3
  0
BLOCK_RECORD
  5
245
100
AcDbSymbolTableRecord
100
AcDbBlockTableRecord
  2
*D4
  0
ENDTAB
  0
ENDSEC
  0
SECTION
  2
BLOCKS
  0
BLOCK
  5
D
100
AcDbEntity
  8
0
100
AcDbBlockBegin
  2
*MODEL_SPACE
 70
             0
 10
0.0
 20
0.0
 30
0.0
  3
*MODEL_SPACE
  1

  0
ENDBLK
  5
E
100
AcDbEntity
  8
0
100
AcDbBlockEnd
  0
BLOCK
  5
F
100
AcDbEntity
 67
             1
  8
0
100
AcDbBlockBegin
  2
*PAPER_SPACE
 70
             0
 10
0.0
 20
0.0
 30
0.0
  3
*PAPER_SPACE
  1

  0
ENDBLK
  5
10
100
AcDbEntity
 67
             1
  8
0
100
AcDbBlockEnd
  0
BLOCK
  5
26
100
AcDbEntity
  8
0
100
AcDbBlockBegin
  2
HL_190_ENTW_SSERUNGSRIG__1
 70
             0
 10
-109.0
 20
-20.0
 30
0.0
  3
HL_190_ENTW_SSERUNGSRIG__1
  1

  0
LINE
  5
220
100
AcDbEntity
  8
1
  6
CONTINUOUS
 62
             7
100
AcDbLine
 10
-98.49999999999275
 20
-21.99999999999999
 11
-98.49999999999275
 21
-22.99999999999999
  0
LINE
  5
21F
100
AcDbEntity
  8
1
  6
CONTINUOUS
 62
             7
100
AcDbLine
 10
-98.49999999999275
 20
34.00000000000001
 11
-98.49999999999275
 21
35.00000000000001
  0
LINE
  5
21E
100
AcDbEntity
  8
1
  6
CONTINUOUS
 62
             7
100
AcDbLine
 10
98.49094948495255
 20
-21.99999999999999
 11
98.49094948495255
 21
-22.99999999999999
  0
LINE
  5
21D
100
AcDbEntity
  8
1
  6
CONTINUOUS
 62
             7
100
AcDbLine
 10
98.49094948495255
 20
34.00000000000001
 11
98.49094948495255
 21
35.00000000000001
  0
LINE
  5
21C
100
AcDbEntity
  8
0
  6
CONTINUOUS
 62
             7
100
AcDbLine
 10
108.9999999999999
 20
27.99999999999999
 11
105.9999999999999
 21
30.99999999999999
  0
LINE
  5
21B
100
AcDbEntity
  8
0
  6
CONTINUOUS
 62
             7
100
AcDbLine
 10
108.9999999999999
 20
27.99999999999999
 11
108.9999999999999
 21
3.0
  0
LINE
  5
21A
100
AcDbEntity
  8
0
  6
CONTINUOUS
 62
             7
100
AcDbLine
 10
106.9999999999999
 20
1.0
 11
108.9999999999999
 21
3.0
  0
LINE
  5
219
100
AcDbEntity
  8
0
  6
CONTINUOUS
 62
             7
100
AcDbLine
 10
-107.5611053004144
 20
27.99999999999999
 11
-104.6066820413777
 21
30.99999999999999
  0
LINE
  5
218
100
AcDbEntity
  8
0
  6
CONTINUOUS
 62
             7
100
AcDbLine
 10
-107.12698485624701
 20
27.99999999999999
 11
-104.1725615972104
 21
30.99999999999999
  0
LINE
  5
217
100
AcDbEntity
  8
0
  6
CONTINUOUS
 62
             7
100
AcDbLine
 10
-107.12698485624701
 20
27.99999999999999
 11
-107.12698485624701
 21
3.0
  0
LINE
  5
216
100
AcDbEntity
  8
0
  6
CONTINUOUS
 62
             7
100
AcDbLine
 10
-107.0
 20
1.0
 11
-109.0
 21
3.0
  0
LINE
  5
215
100
AcDbEntity
  8
0
  6
CONTINUOUS
 62
             7
100
AcDbLine
 10
-105.5914897943899
 20
1.0
 11
-107.5611053004143
 21
3.0
  0
LINE
  5
214
100
AcDbEntity
  8
0
  6
CONTINUOUS
 62
             7
100
AcDbLine
 10
-107.12698485624701
 20
3.0
 11
-107.5611053004143
 21
3.0
  0
LINE
  5
213
100
AcDbEntity
  8
0
  6
CONTINUOUS
 62
             7
100
AcDbLine
 10
-107.5611053004144
 20
27.99999999999999
 11
-107.5611053004143
 21
3.0
  0
LINE
  5
212
100
AcDbEntity
  8
0
  6
CONTINUOUS
 62
             7
100
AcDbLine
 10
-109.0
 20
27.99999999999999
 11
-109.0
 21
3.0
  0
LINE
  5
211
100
AcDbEntity
  8
0
  6
CONTINUOUS
 62
             7
100
AcDbLine
 10
-107.0
 20
1.0
 11
-105.5914897943899
 21
1.0
  0
LINE
  5
210
100
AcDbEntity
  8
0
  6
CONTINUOUS
 62
             7
100
AcDbLine
 10
-105.1573693502226
 20
1.0
 11
-107.12698485624701
 21
3.0
  0
LINE
  5
20F
100
AcDbEntity
  8
0
  6
CONTINUOUS
 62
             7
100
AcDbLine
 10
-107.5611053004144
 20
27.99999999999999
 11
-107.12698485624701
 21
27.99999999999999
  0
LINE
  5
20E
100
AcDbEntity
  8
0
  6
CONTINUOUS
 62
             7
100
AcDbLine
 10
-109.0
 20
27.99999999999999
 11
-106.0
 21
30.99999999999999
  0
LINE
  5
20D
100
AcDbEntity
  8
0
  6
CONTINUOUS
 62
             7
100
AcDbLine
 10
-104.1725615972104
 20
30.99999999999999
 11
-104.6066820413777
 21
30.99999999999999
  0
LINE
  5
20C
100
AcDbEntity
  8
0
  6
CONTINUOUS
 62
             7
100
AcDbLine
 10
-105.5914897943899
 20
1.0
 11
-105.1573693502226
 21
1.0
  0
LINE
  5
20B
100
AcDbEntity
  8
0
  6
CONTINUOUS
 62
             7
100
AcDbLine
 10
-95.93079401729182
 20
30.99999999999999
 11
-99.17989262414922
 21
30.99999999999999
  0
LINE
  5
20A
100
AcDbEntity
  8
0
  6
CONTINUOUS
 62
             7
100
AcDbLine
 10
-92.42369280115055
 20
30.99999999999999
 11
-95.93079401729182
 21
30.99999999999999
  0
LINE
  5
209
100
AcDbEntity
  8
0
  6
CONTINUOUS
 62
             7
100
AcDbLine
 10
-98.50000000000004
 20
1.0
 11
-97.2206238937862
 21
1.0
  0
LINE
  5
208
100
AcDbEntity
  8
0
  6
CONTINUOUS
 62
             7
100
AcDbLine
 10
-95.93079401729182
 20
15.99999999999999
 11
-95.02176901250385
 21
15.99999999999999
  0
LINE
  5
207
100
AcDbEntity
  8
0
  6
CONTINUOUS
 62
             7
100
AcDbLine
 10
-93.77176901250381
 20
28.00000000000003
 11
-95.02176901250385
 21
28.00000000000001
  0
LINE
  5
206
100
AcDbEntity
  8
0
  6
CONTINUOUS
 62
             7
100
AcDbLine
 10
-95.02176901250385
 20
15.99999999999999
 11
-95.02176901250385
 21
3.0
  0
LINE
  5
205
100
AcDbEntity
  8
0
  6
CONTINUOUS
 62
             7
100
AcDbLine
 10
-93.77176901250383
 20
3.0
 11
-95.02176901250385
 21
3.0
  0
LINE
  5
204
100
AcDbEntity
  8
0
  6
CONTINUOUS
 62
             7
100
AcDbLine
 10
-93.28971820493499
 20
1.0
 11
-95.02176901250385
 21
3.0
  0
LINE
  5
203
100
AcDbEntity
  8
0
  6
CONTINUOUS
 62
             7
100
AcDbLine
 10
-92.1321979682549
 20
1.0
 11
-92.03971820493497
 21
1.0
  0
LINE
  5
202
100
AcDbEntity
  8
0
  6
CONTINUOUS
 62
             7
100
AcDbLine
 10
-92.03971820493497
 20
1.0
 11
-93.77176901250383
 21
3.0
  0
LINE
  5
201
100
AcDbEntity
  8
0
  6
CONTINUOUS
 62
             7
100
AcDbLine
 10
-95.02176901250385
 20
28.00000000000001
 11
-95.02176901250385
 21
15.99999999999999
  0
LINE
  5
200
100
AcDbEntity
  8
0
  6
CONTINUOUS
 62
             7
100
AcDbLine
 10
-96.78650344961886
 20
1.0
 11
-93.28971820493499
 21
1.0
  0
LINE
  5
1FF
100
AcDbEntity
  8
0
  6
CONTINUOUS
 62
             7
100
AcDbLine
 10
-93.28971820493499
 20
1.0
 11
-92.98724832656912
 21
1.0
  0
LINE
  5
1FE
100
AcDbEntity
  8
0
  6
CONTINUOUS
 62
             7
100
AcDbLine
 10
-95.02176901250385
 20
28.00000000000001
 11
-92.42369280115055
 21
30.99999999999999
  0
LINE
  5
1FD
100
AcDbEntity
  8
0
  6
CONTINUOUS
 62
             7
100
AcDbLine
 10
-95.93079401729182
 20
30.99999999999999
 11
-95.93079401729182
 21
15.99999999999999
  0
LINE
  5
1FC
100
AcDbEntity
  8
0
  6
CONTINUOUS
 62
             7
100
AcDbLine
 10
-100.1195852449351
 20
1.0
 11
-101.99897048650691
 21
3.0
  0
LINE
  5
1FB
100
AcDbEntity
  8
0
  6
CONTINUOUS
 62
             7
100
AcDbLine
 10
-100.9746356032493
 20
0.99999999999999
 11
-100.1195852449351
 21
1.0
  0
LINE
  5
1FA
100
AcDbEntity
  8
0
  6
CONTINUOUS
 62
             7
100
AcDbLine
 10
-100.9746356032493
 20
0.99999999999999
 11
-102.85402084482109
 21
3.0
  0
LINE
  5
1F9
100
AcDbEntity
  8
0
  6
CONTINUOUS
 62
             7
100
AcDbLine
 10
-100.7674720737253
 20
30.99999999999999
 11
-104.1725615972104
 21
30.99999999999999
  0
LINE
  5
1F8
100
AcDbEntity
  8
0
  6
CONTINUOUS
 62
             7
100
AcDbLine
 10
-100.7674720737253
 20
30.99999999999999
 11
-100.7674720737253
 21
30.22045882338703
  0
LINE
  5
1F7
100
AcDbEntity
  8
0
  6
CONTINUOUS
 62
             7
100
AcDbLine
 10
-100.03494298246341
 20
30.99999999999999
 11
-100.7674720737253
 21
30.99999999999999
  0
LINE
  5
1F6
100
AcDbEntity
  8
0
  6
CONTINUOUS
 62
             7
100
AcDbLine
 10
-102.85402084482109
 20
27.99999999999999
 11
-100.03494298246341
 21
30.99999999999999
  0
LINE
  5
1F5
100
AcDbEntity
  8
0
  6
CONTINUOUS
 62
             7
100
AcDbLine
 10
-101.99897048650691
 20
28.00000000000003
 11
-101.99897048650691
 21
3.0
  0
LINE
  5
1F4
100
AcDbEntity
  8
0
  6
CONTINUOUS
 62
             7
100
AcDbLine
 10
-102.85402084482109
 20
27.99999999999999
 11
-101.99897048650691
 21
28.00000000000003
  0
LINE
  5
1F3
100
AcDbEntity
  8
0
  6
CONTINUOUS
 62
             7
100
AcDbLine
 10
-101.99897048650691
 20
3.0
 11
-102.85402084482109
 21
3.0
  0
LINE
  5
1F2
100
AcDbEntity
  8
0
  6
CONTINUOUS
 62
             7
100
AcDbLine
 10
-102.85402084482109
 20
27.99999999999999
 11
-102.85402084482109
 21
3.0
  0
LINE
  5
1F1
100
AcDbEntity
  8
0
  6
CONTINUOUS
 62
             7
100
AcDbLine
 10
-99.17989262414922
 20
30.99999999999999
 11
-100.03494298246341
 21
30.99999999999999
  0
LINE
  5
1F0
100
AcDbEntity
  8
0
  6
CONTINUOUS
 62
             7
100
AcDbLine
 10
-104.6066820413777
 20
30.99999999999999
 11
-106.0
 21
30.99999999999999
  0
LINE
  5
1EF
100
AcDbEntity
  8
0
  6
CONTINUOUS
 62
             7
100
AcDbLine
 10
-105.1573693502226
 20
1.0
 11
-100.9746356032493
 21
0.99999999999999
  0
LINE
  5
1EE
100
AcDbEntity
  8
0
  6
CONTINUOUS
 62
             7
100
AcDbLine
 10
-100.1195852449351
 20
1.0
 11
-98.50000000000004
 21
1.0
  0
LINE
  5
1ED
100
AcDbEntity
  8
0
  6
CONTINUOUS
 62
             7
100
AcDbLine
 10
-101.99897048650691
 20
28.00000000000003
 11
-99.17989262414922
 21
30.99999999999999
  0
LINE
  5
1EC
100
AcDbEntity
  8
0
  6
CONTINUOUS
 62
             7
100
AcDbLine
 10
-93.77176901250381
 20
28.00000000000003
 11
-91.17369280115051
 21
30.99999999999999
  0
LINE
  5
1EB
100
AcDbEntity
  8
0
  6
CONTINUOUS
 62
             7
100
AcDbLine
 10
-92.03971820493497
 20
1.0
 11
-85.92850227276726
 21
1.0
  0
LINE
  5
1EA
100
AcDbEntity
  8
0
  6
CONTINUOUS
 62
             7
100
AcDbLine
 10
-85.23234985006064
 20
-19.0
 11
-91.37682833163569
 21
-19.0
  0
LINE
  5
1E9
100
AcDbEntity
  8
0
  6
CONTINUOUS
 62
             7
100
AcDbLine
 10
-85.23234985006064
 20
-19.0
 11
-85.92850227276726
 21
-16.0
  0
LINE
  5
1E8
100
AcDbEntity
  8
0
  6
CONTINUOUS
 62
             7
100
AcDbLine
 10
-97.69615242270668
 20
-19.0
 11
-98.50000000000004
 21
-16.0
  0
LINE
  5
1E7
100
AcDbEntity
  8
0
  6
CONTINUOUS
 62
             7
100
AcDbLine
 10
-97.2206238937862
 20
-16.0
 11
-97.2206238937862
 21
1.0
  0
LINE
  5
1E6
100
AcDbEntity
  8
0
  6
CONTINUOUS
 62
             7
100
AcDbLine
 10
-96.78650344961886
 20
-15.99999999999999
 11
-96.78650344961886
 21
1.0
  0
LINE
  5
1E5
100
AcDbEntity
  8
0
  6
CONTINUOUS
 62
             7
100
AcDbLine
 10
-98.50000000000004
 20
-16.0
 11
-98.50000000000004
 21
1.0
  0
LINE
  5
1E4
100
AcDbEntity
  8
0
  6
CONTINUOUS
 62
             7
100
AcDbLine
 10
-97.2206238937862
 20
1.0
 11
-96.78650344961886
 21
1.0
  0
LINE
  5
1E3
100
AcDbEntity
  8
0
  6
CONTINUOUS
 62
             7
100
AcDbLine
 10
-92.9872483265691
 20
-16.0
 11
-92.98724832656912
 21
1.0
  0
LINE
  5
1E2
100
AcDbEntity
  8
0
  6
CONTINUOUS
 62
             7
100
AcDbLine
 10
-96.42898856742761
 20
-19.0
 11
-97.2206238937862
 21
-16.0
  0
LINE
  5
1E1
100
AcDbEntity
  8
0
  6
CONTINUOUS
 62
             7
100
AcDbLine
 10
-96.78650344961886
 20
-15.99999999999999
 11
-97.2206238937862
 21
-16.0
  0
LINE
  5
1E0
100
AcDbEntity
  8
0
  6
CONTINUOUS
 62
             7
100
AcDbLine
 10
-95.99486812326029
 20
-19.0
 11
-96.78650344961886
 21
-15.99999999999999
  0
LINE
  5
1DF
100
AcDbEntity
  8
0
  6
CONTINUOUS
 62
             7
100
AcDbLine
 10
-92.2318786899499
 20
-19.0
 11
-95.99486812326029
 21
-19.0
  0
LINE
  5
1DE
100
AcDbEntity
  8
0
  6
CONTINUOUS
 62
             7
100
AcDbLine
 10
-92.2318786899499
 20
-19.0
 11
-92.9872483265691
 21
-16.0
  0
LINE
  5
1DD
100
AcDbEntity
  8
0
  6
CONTINUOUS
 62
             7
100
AcDbLine
 10
-92.1321979682549
 20
-16.0
 11
-92.9872483265691
 21
-16.0
  0
LINE
  5
1DC
100
AcDbEntity
  8
0
  6
CONTINUOUS
 62
             7
100
AcDbLine
 10
-92.98724832656912
 20
1.0
 11
-92.1321979682549
 21
1.0
  0
LINE
  5
1DB
100
AcDbEntity
  8
0
  6
CONTINUOUS
 62
             7
100
AcDbLine
 10
-91.37682833163569
 20
-19.0
 11
-92.2318786899499
 21
-19.0
  0
LINE
  5
1DA
100
AcDbEntity
  8
0
  6
CONTINUOUS
 62
             7
100
AcDbLine
 10
-95.99486812326029
 20
-19.0
 11
-96.42898856742761
 21
-19.0
  0
LINE
  5
1D9
100
AcDbEntity
  8
0
  6
CONTINUOUS
 62
             7
100
AcDbLine
 10
-96.42898856742761
 20
-19.0
 11
-97.69615242270668
 21
-19.0
  0
LINE
  5
1D8
100
AcDbEntity
  8
0
  6
CONTINUOUS
 62
             7
100
AcDbLine
 10
-85.92850227276726
 20
-16.0
 11
-85.92850227276726
 21
1.0
  0
LINE
  5
1D7
100
AcDbEntity
  8
0
  6
CONTINUOUS
 62
             7
100
AcDbLine
 10
-93.77176901250381
 20
28.00000000000003
 11
-93.77176901250383
 21
3.0
  0
LINE
  5
1D6
100
AcDbEntity
  8
0
  6
CONTINUOUS
 62
             7
100
AcDbLine
 10
-84.30232881207682
 20
27.99999999999999
 11
-84.30232881207682
 21
15.99999999999999
  0
LINE
  5
1D5
100
AcDbEntity
  8
0
  6
CONTINUOUS
 62
             7
100
AcDbLine
 10
-84.67850227276722
 20
-15.99999999999999
 11
-85.92850227276726
 21
-16.0
  0
LINE
  5
1D4
100
AcDbEntity
  8
0
  6
CONTINUOUS
 62
             7
100
AcDbLine
 10
-84.30232881207682
 20
15.99999999999999
 11
-88.17930732796692
 21
15.99999999999999
  0
LINE
  5
1D3
100
AcDbEntity
  8
0
  6
CONTINUOUS
 62
             7
100
AcDbLine
 10
-84.30232881207682
 20
15.99999999999999
 11
-84.30232881207682
 21
3.0
  0
LINE
  5
1D2
100
AcDbEntity
  8
0
  6
CONTINUOUS
 62
             7
100
AcDbLine
 10
93.28971820493486
 20
1.0
 11
92.98724832656906
 21
1.0
  0
LINE
  5
1D1
100
AcDbEntity
  8
0
  6
CONTINUOUS
 62
             7
100
AcDbLine
 10
-92.1321979682549
 20
-16.0
 11
-92.1321979682549
 21
1.0
  0
LINE
  5
1D0
100
AcDbEntity
  8
0
  6
CONTINUOUS
 62
             7
100
AcDbLine
 10
88.17930732796685
 20
30.99999999999999
 11
82.00419548271975
 21
30.99999999999999
  0
LINE
  5
1CF
100
AcDbEntity
  8
0
  6
CONTINUOUS
 62
             7
100
AcDbLine
 10
88.17930732796685
 20
30.99999999999999
 11
88.17930732796695
 21
15.99999999999999
  0
LINE
  5
1CE
100
AcDbEntity
  8
0
  6
CONTINUOUS
 62
             7
100
AcDbLine
 10
92.23187868994985
 20
-19.0
 11
92.98724832656906
 21
-16.0
  0
LINE
  5
1CD
100
AcDbEntity
  8
0
  6
CONTINUOUS
 62
             7
100
AcDbLine
 10
88.17930732796685
 20
30.99999999999999
 11
91.17369280115045
 21
30.99999999999999
  0
LINE
  5
1CC
100
AcDbEntity
  8
0
  6
CONTINUOUS
 62
             7
100
AcDbLine
 10
1.24999999999998
 20
-3.0
 11
14.26709016550823
 21
-3.0
  0
LINE
  5
1CB
100
AcDbEntity
  8
0
  6
CONTINUOUS
 62
             7
100
AcDbLine
 10
15.73374914200836
 20
-19.0
 11
18.1957685245389
 21
-19.0
  0
LINE
  5
1CA
100
AcDbEntity
  8
0
  6
CONTINUOUS
 62
             7
100
AcDbLine
 10
14.70841514352939
 20
10.99999999999999
 11
14.70841514352941
 21
-3.0
  0
LINE
  5
1C9
100
AcDbEntity
  8
0
  6
CONTINUOUS
 62
             7
100
AcDbLine
 10
15.73374914200836
 20
-19.0
 11
15.87333580892734
 21
-15.99999999999999
  0
LINE
  5
1C8
100
AcDbEntity
  8
0
  6
CONTINUOUS
 62
             7
100
AcDbLine
 10
17.69664167443012
 20
27.99999999999999
 11
17.69664167443012
 21
3.0
  0
LINE
  5
1C7
100
AcDbEntity
  8
0
  6
CONTINUOUS
 62
             7
100
AcDbLine
 10
17.34934531909624
 20
1.0
 11
17.69664167443012
 21
3.0
  0
LINE
  5
1C6
100
AcDbEntity
  8
0
  6
CONTINUOUS
 62
             7
100
AcDbLine
 10
20.15866105696063
 20
15.99999999999999
 11
20.15866105696063
 21
3.0
  0
LINE
  5
1C5
100
AcDbEntity
  8
0
  6
CONTINUOUS
 62
             7
100
AcDbLine
 10
17.34934531909624
 20
1.0
 11
15.87333580892734
 21
1.0
  0
LINE
  5
1C4
100
AcDbEntity
  8
0
  6
CONTINUOUS
 62
             7
100
AcDbLine
 10
18.33535519145786
 20
-16.0
 11
15.87333580892734
 21
-15.99999999999999
  0
LINE
  5
1C3
100
AcDbEntity
  8
0
  6
CONTINUOUS
 62
             7
100
AcDbLine
 10
15.87333580892734
 20
-15.99999999999999
 11
15.87333580892734
 21
1.0
  0
LINE
  5
1C2
100
AcDbEntity
  8
0
  6
CONTINUOUS
 62
             7
100
AcDbLine
 10
14.26709016550823
 20
-19.0
 11
15.73374914200836
 21
-19.0
  0
LINE
  5
1C1
100
AcDbEntity
  8
0
  6
CONTINUOUS
 62
             7
100
AcDbLine
 10
14.26709016550823
 20
-3.0
 11
14.70841514352941
 21
-3.0
  0
LINE
  5
1C0
100
AcDbEntity
  8
0
  6
CONTINUOUS
 62
             7
100
AcDbLine
 10
14.26709016550823
 20
-3.0
 11
14.26709016550823
 21
-19.0
  0
LINE
  5
1BF
100
AcDbEntity
  8
0
  6
CONTINUOUS
 62
             7
100
AcDbLine
 10
30.21992253573993
 20
10.99999999999999
 11
30.21992253573994
 21
-3.0
  0
LINE
  5
1BE
100
AcDbEntity
  8
0
  6
CONTINUOUS
 62
             7
100
AcDbLine
 10
44.81321287372057
 20
10.99999999999999
 11
44.81321287372059
 21
-3.0
  0
LINE
  5
1BD
100
AcDbEntity
  8
0
  6
CONTINUOUS
 62
             7
100
AcDbLine
 10
38.4548113984803
 20
15.99999999999999
 11
38.4548113984803
 21
3.0
  0
LINE
  5
1BC
100
AcDbEntity
  8
0
  6
CONTINUOUS
 62
             7
100
AcDbLine
 10
36.10557984651554
 20
27.99999999999999
 11
36.10557984651554
 21
3.00000000000001
  0
LINE
  5
1BB
100
AcDbEntity
  8
0
  6
CONTINUOUS
 62
             7
100
AcDbLine
 10
17.34934531909624
 20
1.0
 11
18.33535519145786
 21
1.0
  0
LINE
  5
1BA
100
AcDbEntity
  8
0
  6
CONTINUOUS
 62
             7
100
AcDbLine
 10
18.1957685245389
 20
-19.0
 11
18.33535519145786
 21
-16.0
  0
LINE
  5
1B9
100
AcDbEntity
  8
0
  6
CONTINUOUS
 62
             7
100
AcDbLine
 10
75.64307918962726
 20
-19.0
 11
76.25886215932745
 21
-16.0
  0
LINE
  5
1B8
100
AcDbEntity
  8
0
  6
CONTINUOUS
 62
             7
100
AcDbLine
 10
34.86359989356072
 20
1.0
 11
32.514368341596
 21
1.0
  0
LINE
  5
1B7
100
AcDbEntity
  8
0
  6
CONTINUOUS
 62
             7
100
AcDbLine
 10
29.35068201583351
 20
-3.0
 11
30.21992253573994
 21
-3.0
  0
LINE
  5
1B6
100
AcDbEntity
  8
0
  6
CONTINUOUS
 62
             7
100
AcDbLine
 10
32.23943627799814
 20
-19.0
 11
29.35068201583351
 21
-19.0
  0
LINE
  5
1B5
100
AcDbEntity
  8
0
  6
CONTINUOUS
 62
             7
100
AcDbLine
 10
32.23943627799814
 20
-19.0
 11
32.514368341596
 21
-15.99999999999999
  0
LINE
  5
1B4
100
AcDbEntity
  8
0
  6
CONTINUOUS
 62
             7
100
AcDbLine
 10
32.23943627799814
 20
-19.0
 11
34.58866782996284
 21
-19.0
  0
LINE
  5
1B3
100
AcDbEntity
  8
0
  6
CONTINUOUS
 62
             7
100
AcDbLine
 10
34.58866782996284
 20
-19.0
 11
34.86359989356072
 21
-16.0
  0
LINE
  5
1B2
100
AcDbEntity
  8
0
  6
CONTINUOUS
 62
             7
100
AcDbLine
 10
29.35068201583351
 20
-3.0
 11
29.35068201583351
 21
-19.0
  0
LINE
  5
1B1
100
AcDbEntity
  8
0
  6
CONTINUOUS
 62
             7
100
AcDbLine
 10
34.86359989356072
 20
-16.0
 11
32.514368341596
 21
-15.99999999999999
  0
LINE
  5
1B0
100
AcDbEntity
  8
0
  6
CONTINUOUS
 62
             7
100
AcDbLine
 10
32.514368341596
 20
-15.99999999999999
 11
32.514368341596
 21
1.0
  0
LINE
  5
1AF
100
AcDbEntity
  8
0
  6
CONTINUOUS
 62
             7
100
AcDbLine
 10
34.86359989356072
 20
-3.0
 11
43.54246824526939
 21
-3.0
  0
LINE
  5
1AE
100
AcDbEntity
  8
0
  6
CONTINUOUS
 62
             7
100
AcDbLine
 10
47.76554445662276
 20
-19.0
 11
43.54246824526939
 21
-19.0
  0
LINE
  5
1AD
100
AcDbEntity
  8
0
  6
CONTINUOUS
 62
             7
100
AcDbLine
 10
43.54246824526939
 20
-3.0
 11
44.81321287372059
 21
-3.0
  0
LINE
  5
1AC
100
AcDbEntity
  8
0
  6
CONTINUOUS
 62
             7
100
AcDbLine
 10
74.03611016541086
 20
-19.0
 11
75.64307918962726
 21
-19.0
  0
LINE
  5
1AB
100
AcDbEntity
  8
0
  6
CONTINUOUS
 62
             7
100
AcDbLine
 10
74.03611016541086
 20
-19.0
 11
67.56598203626055
 21
-19.0
  0
LINE
  5
1AA
100
AcDbEntity
  8
0
  6
CONTINUOUS
 62
             7
100
AcDbLine
 10
67.56598203626055
 20
-3.0
 11
67.56598203626055
 21
-19.0
  0
LINE
  5
1A9
100
AcDbEntity
  8
0
  6
CONTINUOUS
 62
             7
100
AcDbLine
 10
50.3325317547305
 20
-3.0
 11
56.41123861062488
 21
-3.0
  0
LINE
  5
1A8
100
AcDbEntity
  8
0
  6
CONTINUOUS
 62
             7
100
AcDbLine
 10
43.54246824526939
 20
-3.0
 11
43.54246824526939
 21
-19.0
  0
LINE
  5
1A7
100
AcDbEntity
  8
0
  6
CONTINUOUS
 62
             7
100
AcDbLine
 10
34.86359989356072
 20
-16.0
 11
34.86359989356072
 21
-3.0
  0
LINE
  5
1A6
100
AcDbEntity
  8
0
  6
CONTINUOUS
 62
             7
100
AcDbLine
 10
56.41123861062488
 20
-3.0
 11
56.41123861062488
 21
-19.0
  0
LINE
  5
1A5
100
AcDbEntity
  8
0
  6
CONTINUOUS
 62
             7
100
AcDbLine
 10
35.4215395598642
 20
1.0
 11
34.86359989356072
 21
1.0
  0
LINE
  5
1A4
100
AcDbEntity
  8
0
  6
CONTINUOUS
 62
             7
100
AcDbLine
 10
34.86359989356072
 20
-3.0
 11
34.86359989356072
 21
1.0
  0
LINE
  5
1A3
100
AcDbEntity
  8
0
  6
CONTINUOUS
 62
             7
100
AcDbLine
 10
19.81136470162678
 20
1.0
 11
18.33535519145786
 21
1.0
  0
LINE
  5
1A2
100
AcDbEntity
  8
0
  6
CONTINUOUS
 62
             7
100
AcDbLine
 10
18.33535519145786
 20
-3.0
 11
29.35068201583351
 21
-3.0
  0
LINE
  5
1A1
100
AcDbEntity
  8
0
  6
CONTINUOUS
 62
             7
100
AcDbLine
 10
18.33535519145786
 20
-16.0
 11
18.33535519145786
 21
1.0
  0
LINE
  5
1A0
100
AcDbEntity
  8
0
  6
CONTINUOUS
 62
             7
100
AcDbLine
 10
35.4215395598642
 20
1.0
 11
37.77077111182898
 21
1.0
  0
LINE
  5
19F
100
AcDbEntity
  8
0
  6
CONTINUOUS
 62
             7
100
AcDbLine
 10
19.81136470162678
 20
1.0
 11
20.15866105696063
 21
3.0
  0
LINE
  5
19E
100
AcDbEntity
  8
0
  6
CONTINUOUS
 62
             7
100
AcDbLine
 10
20.15866105696063
 20
3.0
 11
17.69664167443012
 21
3.0
  0
LINE
  5
19D
100
AcDbEntity
  8
0
  6
CONTINUOUS
 62
             7
100
AcDbLine
 10
35.4215395598642
 20
1.0
 11
36.10557984651554
 21
3.00000000000001
  0
LINE
  5
19C
100
AcDbEntity
  8
0
  6
CONTINUOUS
 62
             7
100
AcDbLine
 10
38.4548113984803
 20
3.0
 11
36.10557984651554
 21
3.00000000000001
  0
LINE
  5
19B
100
AcDbEntity
  8
0
  6
CONTINUOUS
 62
             7
100
AcDbLine
 10
37.77077111182898
 20
1.0
 11
38.4548113984803
 21
3.0
  0
LINE
  5
19A
100
AcDbEntity
  8
0
  6
CONTINUOUS
 62
             7
100
AcDbLine
 10
78.86876154768376
 20
1.0
 11
78.86876154768376
 21
-3.0
  0
LINE
  5
199
100
AcDbEntity
  8
0
  6
CONTINUOUS
 62
             7
100
AcDbLine
 10
76.66776728776115
 20
-19.0
 11
83.98234985006056
 21
-19.0
  0
LINE
  5
198
100
AcDbEntity
  8
0
  6
CONTINUOUS
 62
             7
100
AcDbLine
 10
52.41746824526948
 20
1.0
 11
53.41746824526948
 21
3.00000000000001
  0
LINE
  5
197
100
AcDbEntity
  8
0
  6
CONTINUOUS
 62
             7
100
AcDbLine
 10
47.76554445662276
 20
-19.0
 11
49.93060796608381
 21
-19.0
  0
LINE
  5
196
100
AcDbEntity
  8
0
  6
CONTINUOUS
 62
             7
100
AcDbLine
 10
47.76554445662276
 20
-19.0
 11
48.16746824526945
 21
-15.99999999999999
  0
LINE
  5
195
100
AcDbEntity
  8
0
  6
CONTINUOUS
 62
             7
100
AcDbLine
 10
48.16746824526945
 20
-15.99999999999999
 11
48.16746824526945
 21
1.0
  0
LINE
  5
194
100
AcDbEntity
  8
0
  6
CONTINUOUS
 62
             7
100
AcDbLine
 10
50.3325317547305
 20
1.0
 11
48.16746824526945
 21
1.0
  0
LINE
  5
193
100
AcDbEntity
  8
0
  6
CONTINUOUS
 62
             7
100
AcDbLine
 10
49.93060796608381
 20
-19.0
 11
50.3325317547305
 21
-16.0
  0
LINE
  5
192
100
AcDbEntity
  8
0
  6
CONTINUOUS
 62
             7
100
AcDbLine
 10
50.3325317547305
 20
-16.0
 11
50.3325317547305
 21
1.0
  0
LINE
  5
191
100
AcDbEntity
  8
0
  6
CONTINUOUS
 62
             7
100
AcDbLine
 10
50.3325317547305
 20
-16.0
 11
48.16746824526945
 21
-15.99999999999999
  0
LINE
  5
190
100
AcDbEntity
  8
0
  6
CONTINUOUS
 62
             7
100
AcDbLine
 10
53.41746824526948
 20
27.99999999999999
 11
53.41746824526948
 21
3.00000000000001
  0
LINE
  5
18F
100
AcDbEntity
  8
0
  6
CONTINUOUS
 62
             7
100
AcDbLine
 10
54.5825317547305
 20
1.0
 11
52.41746824526948
 21
1.0
  0
LINE
  5
18E
100
AcDbEntity
  8
0
  6
CONTINUOUS
 62
             7
100
AcDbLine
 10
52.41746824526948
 20
1.0
 11
50.3325317547305
 21
1.0
  0
LINE
  5
18D
100
AcDbEntity
  8
0
  6
CONTINUOUS
 62
             7
100
AcDbLine
 10
55.5825317547305
 20
27.99999999999999
 11
55.5825317547305
 21
3.00000000000001
  0
LINE
  5
18C
100
AcDbEntity
  8
0
  6
CONTINUOUS
 62
             7
100
AcDbLine
 10
55.5825317547305
 20
3.00000000000001
 11
53.41746824526948
 21
3.00000000000001
  0
LINE
  5
18B
100
AcDbEntity
  8
0
  6
CONTINUOUS
 62
             7
100
AcDbLine
 10
-84.67850227276722
 20
-15.99999999999999
 11
-84.67850227276722
 21
1.0
  0
LINE
  5
18A
100
AcDbEntity
  8
0
  6
CONTINUOUS
 62
             7
100
AcDbLine
 10
-83.98234985006059
 20
-19.0
 11
-84.67850227276722
 21
-15.99999999999999
  0
LINE
  5
189
100
AcDbEntity
  8
0
  6
CONTINUOUS
 62
             7
100
AcDbLine
 10
-85.92850227276726
 20
1.0
 11
-84.67850227276722
 21
1.0
  0
LINE
  5
188
100
AcDbEntity
  8
0
  6
CONTINUOUS
 62
             7
100
AcDbLine
 10
-1.25000000000002
 20
1.0
 11
-1.25000000000002
 21
3.0
  0
LINE
  5
187
100
AcDbEntity
  8
0
  6
CONTINUOUS
 62
             7
100
AcDbLine
 10
-14.26709016550832
 20
-3.0
 11
-1.25000000000002
 21
-3.0
  0
LINE
  5
186
100
AcDbEntity
  8
0
  6
CONTINUOUS
 62
             7
100
AcDbLine
 10
1.24999999999998
 20
-15.99999999999999
 11
-1.25000000000002
 21
-15.99999999999999
  0
LINE
  5
185
100
AcDbEntity
  8
0
  6
CONTINUOUS
 62
             7
100
AcDbLine
 10
-1.25000000000002
 20
-19.0
 11
1.24999999999998
 21
-19.0
  0
LINE
  5
184
100
AcDbEntity
  8
0
  6
CONTINUOUS
 62
             7
100
AcDbLine
 10
-1.25000000000002
 20
-19.0
 11
-1.25000000000002
 21
-15.99999999999999
  0
LINE
  5
183
100
AcDbEntity
  8
0
  6
CONTINUOUS
 62
             7
100
AcDbLine
 10
1.24999999999998
 20
-19.0
 11
1.24999999999998
 21
-15.99999999999999
  0
LINE
  5
182
100
AcDbEntity
  8
0
  6
CONTINUOUS
 62
             7
100
AcDbLine
 10
-43.5424682452695
 20
-3.0
 11
-34.86359989356081
 21
-3.0
  0
LINE
  5
181
100
AcDbEntity
  8
0
  6
CONTINUOUS
 62
             7
100
AcDbLine
 10
1.24999999999998
 20
-15.99999999999999
 11
1.24999999999998
 21
-3.0
  0
LINE
  5
180
100
AcDbEntity
  8
0
  6
CONTINUOUS
 62
             7
100
AcDbLine
 10
1.24999999999998
 20
-3.0
 11
1.24999999999998
 21
1.0
  0
LINE
  5
17F
100
AcDbEntity
  8
0
  6
CONTINUOUS
 62
             7
100
AcDbLine
 10
-1.25000000000006
 20
10.99999999999999
 11
-1.25000000000002
 21
3.0
  0
LINE
  5
17E
100
AcDbEntity
  8
0
  6
CONTINUOUS
 62
             7
100
AcDbLine
 10
-1.25000000000002
 20
-15.99999999999999
 11
-1.25000000000002
 21
-3.0
  0
LINE
  5
17D
100
AcDbEntity
  8
0
  6
CONTINUOUS
 62
             7
100
AcDbLine
 10
-1.25000000000002
 20
-3.0
 11
-1.25000000000002
 21
1.0
  0
LINE
  5
17C
100
AcDbEntity
  8
0
  6
CONTINUOUS
 62
             7
100
AcDbLine
 10
-69.73582979035848
 20
1.0
 11
-71.02140500973157
 21
3.0
  0
LINE
  5
17B
100
AcDbEntity
  8
0
  6
CONTINUOUS
 62
             7
100
AcDbLine
 10
-69.73582979035848
 20
1.0
 11
-67.82071868256102
 21
1.0
  0
LINE
  5
17A
100
AcDbEntity
  8
0
  6
CONTINUOUS
 62
             7
100
AcDbLine
 10
-67.82071868256102
 20
1.0
 11
-64.27213510802291
 21
1.0
  0
LINE
  5
179
100
AcDbEntity
  8
0
  6
CONTINUOUS
 62
             7
100
AcDbLine
 10
-62.35702400022544
 20
-15.99999999999999
 11
-64.27213510802289
 21
-16.0
  0
LINE
  5
178
100
AcDbEntity
  8
0
  6
CONTINUOUS
 62
             7
100
AcDbLine
 10
-62.35702400022544
 20
-15.99999999999999
 11
-62.35702400022544
 21
1.0
  0
LINE
  5
177
100
AcDbEntity
  8
0
  6
CONTINUOUS
 62
             7
100
AcDbLine
 10
-64.27213510802291
 20
1.0
 11
-62.35702400022544
 21
1.0
  0
LINE
  5
176
100
AcDbEntity
  8
0
  6
CONTINUOUS
 62
             7
100
AcDbLine
 10
-63.75543184526217
 20
-19.0
 11
-64.27213510802289
 21
-16.0
  0
LINE
  5
175
100
AcDbEntity
  8
0
  6
CONTINUOUS
 62
             7
100
AcDbLine
 10
-61.84032073746471
 20
-19.0
 11
-62.35702400022544
 21
-15.99999999999999
  0
LINE
  5
174
100
AcDbEntity
  8
0
  6
CONTINUOUS
 62
             7
100
AcDbLine
 10
-69.51287575875718
 20
-3.0
 11
-67.56598203626066
 21
-3.0
  0
LINE
  5
173
100
AcDbEntity
  8
0
  6
CONTINUOUS
 62
             7
100
AcDbLine
 10
-67.56598203626066
 20
-3.0
 11
-64.27213510802289
 21
-3.0
  0
LINE
  5
172
100
AcDbEntity
  8
0
  6
CONTINUOUS
 62
             7
100
AcDbLine
 10
-67.56598203626066
 20
-19.0
 11
-74.03611016541095
 21
-19.0
  0
LINE
  5
171
100
AcDbEntity
  8
0
  6
CONTINUOUS
 62
             7
100
AcDbLine
 10
-67.56598203626066
 20
-3.0
 11
-67.56598203626066
 21
-19.0
  0
LINE
  5
170
100
AcDbEntity
  8
0
  6
CONTINUOUS
 62
             7
100
AcDbLine
 10
-64.27213510802289
 20
-16.0
 11
-64.27213510802291
 21
1.0
  0
LINE
  5
16F
100
AcDbEntity
  8
0
  6
CONTINUOUS
 62
             7
100
AcDbLine
 10
-56.41123861062495
 20
-19.0
 11
-61.84032073746471
 21
-19.0
  0
LINE
  5
16E
100
AcDbEntity
  8
0
  6
CONTINUOUS
 62
             7
100
AcDbLine
 10
-61.84032073746471
 20
-19.0
 11
-63.75543184526217
 21
-19.0
  0
LINE
  5
16D
100
AcDbEntity
  8
0
  6
CONTINUOUS
 62
             7
100
AcDbLine
 10
-67.82071868256102
 20
1.0
 11
-69.10629390193409
 21
3.0
  0
LINE
  5
16C
100
AcDbEntity
  8
0
  6
CONTINUOUS
 62
             7
100
AcDbLine
 10
-69.10629390193409
 20
3.0
 11
-71.02140500973157
 21
3.0
  0
LINE
  5
16B
100
AcDbEntity
  8
0
  6
CONTINUOUS
 62
             7
100
AcDbLine
 10
-58.04487641511315
 20
10.99999999999999
 11
-58.04487641511315
 21
-3.0
  0
LINE
  5
16A
100
AcDbEntity
  8
0
  6
CONTINUOUS
 62
             7
100
AcDbLine
 10
-53.41746824526952
 20
3.0
 11
-55.5825317547306
 21
3.0
  0
LINE
  5
169
100
AcDbEntity
  8
0
  6
CONTINUOUS
 62
             7
100
AcDbLine
 10
-52.4174682452695
 20
1.0
 11
-53.41746824526952
 21
3.0
  0
LINE
  5
168
100
AcDbEntity
  8
0
  6
CONTINUOUS
 62
             7
100
AcDbLine
 10
-53.41746824526949
 20
28.00000000000003
 11
-53.41746824526952
 21
3.0
  0
LINE
  5
167
100
AcDbEntity
  8
0
  6
CONTINUOUS
 62
             7
100
AcDbLine
 10
-44.81321287372059
 20
10.99999999999999
 11
-44.81321287372059
 21
-3.0
  0
LINE
  5
166
100
AcDbEntity
  8
0
  6
CONTINUOUS
 62
             7
100
AcDbLine
 10
-58.04487641511315
 20
-3.0
 11
-56.41123861062495
 21
-3.0
  0
LINE
  5
165
100
AcDbEntity
  8
0
  6
CONTINUOUS
 62
             7
100
AcDbLine
 10
-44.81321287372059
 20
-3.0
 11
-43.5424682452695
 21
-3.0
  0
LINE
  5
164
100
AcDbEntity
  8
0
  6
CONTINUOUS
 62
             7
100
AcDbLine
 10
-56.41123861062495
 20
-3.0
 11
-50.3325317547306
 21
-3.0
  0
LINE
  5
163
100
AcDbEntity
  8
0
  6
CONTINUOUS
 62
             7
100
AcDbLine
 10
-48.16746824526951
 20
-15.99999999999999
 11
-48.16746824526951
 21
1.0
  0
LINE
  5
162
100
AcDbEntity
  8
0
  6
CONTINUOUS
 62
             7
100
AcDbLine
 10
-43.5424682452695
 20
-3.0
 11
-43.5424682452695
 21
-19.0
  0
LINE
  5
161
100
AcDbEntity
  8
0
  6
CONTINUOUS
 62
             7
100
AcDbLine
 10
-56.41123861062495
 20
-3.0
 11
-56.41123861062495
 21
-19.0
  0
LINE
  5
160
100
AcDbEntity
  8
0
  6
CONTINUOUS
 62
             7
100
AcDbLine
 10
-50.3325317547306
 20
1.0
 11
-48.16746824526951
 21
1.0
  0
LINE
  5
15F
100
AcDbEntity
  8
0
  6
CONTINUOUS
 62
             7
100
AcDbLine
 10
-54.5825317547306
 20
1.0
 11
-52.4174682452695
 21
1.0
  0
LINE
  5
15E
100
AcDbEntity
  8
0
  6
CONTINUOUS
 62
             7
100
AcDbLine
 10
-47.76554445662282
 20
-19.0
 11
-48.16746824526951
 21
-15.99999999999999
  0
LINE
  5
15D
100
AcDbEntity
  8
0
  6
CONTINUOUS
 62
             7
100
AcDbLine
 10
-43.5424682452695
 20
-19.0
 11
-47.76554445662282
 21
-19.0
  0
LINE
  5
15C
100
AcDbEntity
  8
0
  6
CONTINUOUS
 62
             7
100
AcDbLine
 10
-47.76554445662282
 20
-19.0
 11
-49.93060796608393
 21
-19.0
  0
LINE
  5
15B
100
AcDbEntity
  8
0
  6
CONTINUOUS
 62
             7
100
AcDbLine
 10
-49.93060796608393
 20
-19.0
 11
-50.3325317547306
 21
-16.0
  0
LINE
  5
15A
100
AcDbEntity
  8
0
  6
CONTINUOUS
 62
             7
100
AcDbLine
 10
-48.16746824526951
 20
-15.99999999999999
 11
-50.3325317547306
 21
-16.0
  0
LINE
  5
159
100
AcDbEntity
  8
0
  6
CONTINUOUS
 62
             7
100
AcDbLine
 10
-50.3325317547306
 20
-16.0
 11
-50.3325317547306
 21
1.0
  0
LINE
  5
158
100
AcDbEntity
  8
0
  6
CONTINUOUS
 62
             7
100
AcDbLine
 10
-52.4174682452695
 20
1.0
 11
-50.3325317547306
 21
1.0
  0
LINE
  5
157
100
AcDbEntity
  8
0
  6
CONTINUOUS
 62
             7
100
AcDbLine
 10
-54.5825317547306
 20
1.0
 11
-55.5825317547306
 21
3.0
  0
LINE
  5
156
100
AcDbEntity
  8
0
  6
CONTINUOUS
 62
             7
100
AcDbLine
 10
-55.5825317547306
 20
28.00000000000003
 11
-55.5825317547306
 21
3.0
  0
LINE
  5
155
100
AcDbEntity
  8
0
  6
CONTINUOUS
 62
             7
100
AcDbLine
 10
-69.10629390193408
 20
27.99999999999999
 11
-69.10629390193409
 21
3.0
  0
LINE
  5
154
100
AcDbEntity
  8
0
  6
CONTINUOUS
 62
             7
100
AcDbLine
 10
-71.02140500973157
 20
27.99999999999999
 11
-71.02140500973157
 21
3.0
  0
LINE
  5
153
100
AcDbEntity
  8
0
  6
CONTINUOUS
 62
             7
100
AcDbLine
 10
-17.34934531909629
 20
1.0
 11
-17.69664167443015
 21
3.0
  0
LINE
  5
152
100
AcDbEntity
  8
0
  6
CONTINUOUS
 62
             7
100
AcDbLine
 10
-29.3506820158336
 20
-19.0
 11
-32.2394362779981
 21
-19.0
  0
LINE
  5
151
100
AcDbEntity
  8
0
  6
CONTINUOUS
 62
             7
100
AcDbLine
 10
-29.3506820158336
 20
-3.0
 11
-29.3506820158336
 21
-19.0
  0
LINE
  5
150
100
AcDbEntity
  8
0
  6
CONTINUOUS
 62
             7
100
AcDbLine
 10
-29.3506820158336
 20
-3.0
 11
-18.33535519145795
 21
-3.0
  0
LINE
  5
14F
100
AcDbEntity
  8
0
  6
CONTINUOUS
 62
             7
100
AcDbLine
 10
-30.21992253573987
 20
-3.0
 11
-29.3506820158336
 21
-3.0
  0
LINE
  5
14E
100
AcDbEntity
  8
0
  6
CONTINUOUS
 62
             7
100
AcDbLine
 10
-32.51436834159598
 20
-15.99999999999999
 11
-34.86359989356081
 21
-16.0
  0
LINE
  5
14D
100
AcDbEntity
  8
0
  6
CONTINUOUS
 62
             7
100
AcDbLine
 10
-34.86359989356081
 20
-16.0
 11
-34.86359989356081
 21
1.0
  0
LINE
  5
14C
100
AcDbEntity
  8
0
  6
CONTINUOUS
 62
             7
100
AcDbLine
 10
-34.58866782996294
 20
-19.0
 11
-34.86359989356081
 21
-16.0
  0
LINE
  5
14B
100
AcDbEntity
  8
0
  6
CONTINUOUS
 62
             7
100
AcDbLine
 10
-32.2394362779981
 20
-19.0
 11
-32.51436834159598
 21
-15.99999999999999
  0
LINE
  5
14A
100
AcDbEntity
  8
0
  6
CONTINUOUS
 62
             7
100
AcDbLine
 10
-32.51436834159598
 20
-15.99999999999999
 11
-32.51436834159598
 21
1.0
  0
LINE
  5
149
100
AcDbEntity
  8
0
  6
CONTINUOUS
 62
             7
100
AcDbLine
 10
-34.86359989356081
 20
1.0
 11
-32.51436834159598
 21
1.0
  0
LINE
  5
148
100
AcDbEntity
  8
0
  6
CONTINUOUS
 62
             7
100
AcDbLine
 10
-32.2394362779981
 20
-19.0
 11
-34.58866782996294
 21
-19.0
  0
LINE
  5
147
100
AcDbEntity
  8
0
  6
CONTINUOUS
 62
             7
100
AcDbLine
 10
-37.770771111829
 20
1.0
 11
-35.42153955986416
 21
1.0
  0
LINE
  5
146
100
AcDbEntity
  8
0
  6
CONTINUOUS
 62
             7
100
AcDbLine
 10
-17.34934531909629
 20
1.0
 11
-15.87333580892738
 21
1.0
  0
LINE
  5
145
100
AcDbEntity
  8
0
  6
CONTINUOUS
 62
             7
100
AcDbLine
 10
-14.70841514352941
 20
-3.0
 11
-14.26709016550832
 21
-3.0
  0
LINE
  5
144
100
AcDbEntity
  8
0
  6
CONTINUOUS
 62
             7
100
AcDbLine
 10
-15.87333580892738
 20
-15.99999999999999
 11
-18.33535519145795
 21
-16.0
  0
LINE
  5
143
100
AcDbEntity
  8
0
  6
CONTINUOUS
 62
             7
100
AcDbLine
 10
-15.87333580892738
 20
-15.99999999999999
 11
-15.87333580892738
 21
1.0
  0
LINE
  5
142
100
AcDbEntity
  8
0
  6
CONTINUOUS
 62
             7
100
AcDbLine
 10
-15.73374914200841
 20
-19.0
 11
-15.87333580892738
 21
-15.99999999999999
  0
LINE
  5
141
100
AcDbEntity
  8
0
  6
CONTINUOUS
 62
             7
100
AcDbLine
 10
-14.26709016550832
 20
-19.0
 11
-15.73374914200841
 21
-19.0
  0
LINE
  5
140
100
AcDbEntity
  8
0
  6
CONTINUOUS
 62
             7
100
AcDbLine
 10
-15.73374914200841
 20
-19.0
 11
-18.19576852453898
 21
-19.0
  0
LINE
  5
13F
100
AcDbEntity
  8
0
  6
CONTINUOUS
 62
             7
100
AcDbLine
 10
-18.33535519145795
 20
-16.0
 11
-18.33535519145795
 21
-3.0
  0
LINE
  5
13E
100
AcDbEntity
  8
0
  6
CONTINUOUS
 62
             7
100
AcDbLine
 10
-18.33535519145795
 20
-3.0
 11
-18.33535519145795
 21
1.0
  0
LINE
  5
13D
100
AcDbEntity
  8
0
  6
CONTINUOUS
 62
             7
100
AcDbLine
 10
-18.19576852453898
 20
-19.0
 11
-18.33535519145795
 21
-16.0
  0
LINE
  5
13C
100
AcDbEntity
  8
0
  6
CONTINUOUS
 62
             7
100
AcDbLine
 10
-14.26709016550832
 20
-3.0
 11
-14.26709016550832
 21
-19.0
  0
LINE
  5
13B
100
AcDbEntity
  8
0
  6
CONTINUOUS
 62
             7
100
AcDbLine
 10
-19.81136470162686
 20
1.0
 11
-18.33535519145795
 21
1.0
  0
LINE
  5
13A
100
AcDbEntity
  8
0
  6
CONTINUOUS
 62
             7
100
AcDbLine
 10
-35.42153955986416
 20
1.0
 11
-34.86359989356081
 21
1.0
  0
LINE
  5
139
100
AcDbEntity
  8
0
  6
CONTINUOUS
 62
             7
100
AcDbLine
 10
-18.33535519145795
 20
1.0
 11
-17.34934531909629
 21
1.0
  0
LINE
  5
138
100
AcDbEntity
  8
0
  6
CONTINUOUS
 62
             7
100
AcDbLine
 10
-19.81136470162686
 20
1.0
 11
-20.15866105696072
 21
3.0
  0
LINE
  5
137
100
AcDbEntity
  8
0
  6
CONTINUOUS
 62
             7
100
AcDbLine
 10
-37.770771111829
 20
1.0
 11
-38.45481139848035
 21
3.0
  0
LINE
  5
136
100
AcDbEntity
  8
0
  6
CONTINUOUS
 62
             7
100
AcDbLine
 10
-36.10557984651549
 20
3.0
 11
-38.45481139848035
 21
3.0
  0
LINE
  5
135
100
AcDbEntity
  8
0
  6
CONTINUOUS
 62
             7
100
AcDbLine
 10
-17.69664167443015
 20
3.0
 11
-20.15866105696072
 21
3.0
  0
LINE
  5
134
100
AcDbEntity
  8
0
  6
CONTINUOUS
 62
             7
100
AcDbLine
 10
-35.42153955986416
 20
1.0
 11
-36.10557984651549
 21
3.0
  0
LINE
  5
133
100
AcDbEntity
  8
0
  6
CONTINUOUS
 62
             7
100
AcDbLine
 10
-30.21992253573987
 20
10.99999999999999
 11
-30.21992253573987
 21
-3.0
  0
LINE
  5
132
100
AcDbEntity
  8
0
  6
CONTINUOUS
 62
             7
100
AcDbLine
 10
-14.70841514352941
 20
10.99999999999999
 11
-14.70841514352941
 21
-3.0
  0
LINE
  5
131
100
AcDbEntity
  8
0
  6
CONTINUOUS
 62
             7
100
AcDbLine
 10
-17.69664167443015
 20
27.99999999999999
 11
-17.69664167443015
 21
3.0
  0
LINE
  5
130
100
AcDbEntity
  8
0
  6
CONTINUOUS
 62
             7
100
AcDbLine
 10
-36.10557984651548
 20
28.00000000000001
 11
-36.10557984651549
 21
3.0
  0
LINE
  5
12F
100
AcDbEntity
  8
0
  6
CONTINUOUS
 62
             7
100
AcDbLine
 10
-20.15866105696072
 20
27.99999999999999
 11
-20.15866105696072
 21
3.0
  0
LINE
  5
12E
100
AcDbEntity
  8
0
  6
CONTINUOUS
 62
             7
100
AcDbLine
 10
-38.45481139848033
 20
27.99999999999999
 11
-38.45481139848035
 21
3.0
  0
LINE
  5
12D
100
AcDbEntity
  8
0
  6
CONTINUOUS
 62
             7
100
AcDbLine
 10
-82.69535978786047
 20
27.99999999999999
 11
-82.69535978786045
 21
3.0
  0
LINE
  5
12C
100
AcDbEntity
  8
0
  6
CONTINUOUS
 62
             7
100
AcDbLine
 10
-76.66776728776119
 20
-3.0
 11
-76.66776728776119
 21
-19.0
  0
LINE
  5
12B
100
AcDbEntity
  8
0
  6
CONTINUOUS
 62
             7
100
AcDbLine
 10
-76.66776728776119
 20
-19.0
 11
-83.98234985006059
 21
-19.0
  0
LINE
  5
12A
100
AcDbEntity
  8
0
  6
CONTINUOUS
 62
             7
100
AcDbLine
 10
-82.77023992583887
 20
1.0
 11
-81.16327090162253
 21
1.0
  0
LINE
  5
129
100
AcDbEntity
  8
0
  6
CONTINUOUS
 62
             7
100
AcDbLine
 10
-76.25886215932755
 20
-16.0
 11
-76.25886215932755
 21
1.0
  0
LINE
  5
128
100
AcDbEntity
  8
0
  6
CONTINUOUS
 62
             7
100
AcDbLine
 10
-76.25886215932755
 20
1.0
 11
-74.65189313511118
 21
1.0
  0
LINE
  5
127
100
AcDbEntity
  8
0
  6
CONTINUOUS
 62
             7
100
AcDbLine
 10
-78.86876154768375
 20
1.0
 11
-78.86876154768375
 21
-3.0
  0
LINE
  5
126
100
AcDbEntity
  8
0
  6
CONTINUOUS
 62
             7
100
AcDbLine
 10
-76.66776728776119
 20
-3.0
 11
-76.25886215932756
 21
-3.0
  0
LINE
  5
125
100
AcDbEntity
  8
0
  6
CONTINUOUS
 62
             7
100
AcDbLine
 10
-78.86876154768375
 20
-3.0
 11
-76.66776728776119
 21
-3.0
  0
LINE
  5
124
100
AcDbEntity
  8
0
  6
CONTINUOUS
 62
             7
100
AcDbLine
 10
-81.16327090162253
 20
1.0
 11
-76.25886215932755
 21
1.0
  0
LINE
  5
123
100
AcDbEntity
  8
0
  6
CONTINUOUS
 62
             7
100
AcDbLine
 10
-82.77023992583887
 20
1.0
 11
-84.30232881207682
 21
3.0
  0
LINE
  5
122
100
AcDbEntity
  8
0
  6
CONTINUOUS
 62
             7
100
AcDbLine
 10
-74.65189313511118
 20
-15.99999999999999
 11
-76.25886215932755
 21
-16.0
  0
LINE
  5
121
100
AcDbEntity
  8
0
  6
CONTINUOUS
 62
             7
100
AcDbLine
 10
-74.65189313511118
 20
-15.99999999999999
 11
-74.65189313511118
 21
1.0
  0
LINE
  5
120
100
AcDbEntity
  8
0
  6
CONTINUOUS
 62
             7
100
AcDbLine
 10
-74.03611016541095
 20
-19.0
 11
-74.65189313511118
 21
-15.99999999999999
  0
LINE
  5
11F
100
AcDbEntity
  8
0
  6
CONTINUOUS
 62
             7
100
AcDbLine
 10
-75.64307918962732
 20
-19.0
 11
-76.25886215932755
 21
-16.0
  0
LINE
  5
11E
100
AcDbEntity
  8
0
  6
CONTINUOUS
 62
             7
100
AcDbLine
 10
-69.51287575875718
 20
1.0
 11
-69.51287575875718
 21
-3.0
  0
LINE
  5
11D
100
AcDbEntity
  8
0
  6
CONTINUOUS
 62
             7
100
AcDbLine
 10
-74.03611016541095
 20
-19.0
 11
-75.64307918962732
 21
-19.0
  0
LINE
  5
11C
100
AcDbEntity
  8
0
  6
CONTINUOUS
 62
             7
100
AcDbLine
 10
-82.69535978786045
 20
3.0
 11
-84.30232881207682
 21
3.0
  0
LINE
  5
11B
100
AcDbEntity
  8
0
  6
CONTINUOUS
 62
             7
100
AcDbLine
 10
-81.16327090162253
 20
1.0
 11
-82.69535978786045
 21
3.0
  0
LINE
  5
11A
100
AcDbEntity
  8
0
  6
CONTINUOUS
 62
             7
100
AcDbLine
 10
-1.25000000000002
 20
1.0
 11
1.24999999999998
 21
1.0
  0
LINE
  5
119
100
AcDbEntity
  8
0
  6
CONTINUOUS
 62
             7
100
AcDbLine
 10
1.24999999999994
 20
10.99999999999999
 11
1.24999999999998
 21
3.0
  0
LINE
  5
118
100
AcDbEntity
  8
0
  6
CONTINUOUS
 62
             7
100
AcDbLine
 10
1.24999999999998
 20
3.0
 11
-1.25000000000002
 21
3.0
  0
LINE
  5
117
100
AcDbEntity
  8
0
  6
CONTINUOUS
 62
             7
100
AcDbLine
 10
1.24999999999998
 20
1.0
 11
1.24999999999998
 21
3.0
  0
LINE
  5
116
100
AcDbEntity
  8
0
  6
CONTINUOUS
 62
             7
100
AcDbLine
 10
-88.17930732796692
 20
30.99999999999999
 11
-88.17930732796692
 21
15.99999999999999
  0
LINE
  5
115
100
AcDbEntity
  8
0
  6
CONTINUOUS
 62
             7
100
AcDbLine
 10
-88.17930732796692
 20
30.99999999999999
 11
-91.17369280115051
 21
30.99999999999999
  0
LINE
  5
114
100
AcDbEntity
  8
0
  6
CONTINUOUS
 62
             7
100
AcDbLine
 10
-55.5825317547306
 20
15.99999999999999
 11
-61.71423639053891
 21
15.99999999999999
  0
LINE
  5
113
100
AcDbEntity
  8
0
  6
CONTINUOUS
 62
             7
100
AcDbLine
 10
-61.71423639053891
 20
15.99999999999999
 11
-64.95541673048126
 21
15.99999999999999
  0
LINE
  5
112
100
AcDbEntity
  8
0
  6
CONTINUOUS
 62
             7
100
AcDbLine
 10
-61.71423639053891
 20
10.99999999999999
 11
-58.04487641511315
 21
10.99999999999999
  0
LINE
  5
111
100
AcDbEntity
  8
0
  6
CONTINUOUS
 62
             7
100
AcDbLine
 10
-38.45481139848035
 20
15.99999999999999
 11
-50.18865898626942
 21
15.99999999999999
  0
LINE
  5
110
100
AcDbEntity
  8
0
  6
CONTINUOUS
 62
             7
100
AcDbLine
 10
-55.5825317547306
 20
10.99999999999999
 11
-58.04487641511315
 21
10.99999999999999
  0
LINE
  5
10F
100
AcDbEntity
  8
0
  6
CONTINUOUS
 62
             7
100
AcDbLine
 10
77.74853700636426
 20
30.99999999999999
 11
77.74853700636426
 21
15.99999999999999
  0
LINE
  5
10E
100
AcDbEntity
  8
0
  6
CONTINUOUS
 62
             7
100
AcDbLine
 10
77.74853700636426
 20
15.99999999999999
 11
71.02140500973145
 21
15.99999999999999
  0
LINE
  5
10D
100
AcDbEntity
  8
0
  6
CONTINUOUS
 62
             7
100
AcDbLine
 10
38.45481139848032
 20
27.99999999999999
 11
38.4548113984803
 21
15.99999999999999
  0
LINE
  5
10C
100
AcDbEntity
  8
0
  6
CONTINUOUS
 62
             7
100
AcDbLine
 10
73.88584869199215
 20
10.99999999999999
 11
73.88584869199215
 21
15.99999999999999
  0
LINE
  5
10B
100
AcDbEntity
  8
0
  6
CONTINUOUS
 62
             7
100
AcDbLine
 10
32.17234819827027
 20
10.99999999999999
 11
32.17234819827027
 21
15.99999999999999
  0
LINE
  5
10A
100
AcDbEntity
  8
0
  6
CONTINUOUS
 62
             7
100
AcDbLine
 10
47.66746824526939
 20
15.99999999999999
 11
38.4548113984803
 21
15.99999999999999
  0
LINE
  5
109
100
AcDbEntity
  8
0
  6
CONTINUOUS
 62
             7
100
AcDbLine
 10
33.89694423544672
 20
15.99999999999999
 11
32.17234819827027
 21
15.99999999999999
  0
LINE
  5
108
100
AcDbEntity
  8
0
  6
CONTINUOUS
 62
             7
100
AcDbLine
 10
32.17234819827027
 20
15.99999999999999
 11
20.15866105696063
 21
15.99999999999999
  0
LINE
  5
107
100
AcDbEntity
  8
0
  6
CONTINUOUS
 62
             7
100
AcDbLine
 10
20.15866105696063
 20
27.99999999999999
 11
20.15866105696063
 21
15.99999999999999
  0
LINE
  5
106
100
AcDbEntity
  8
0
  6
CONTINUOUS
 62
             7
100
AcDbLine
 10
50.18865898626942
 20
15.99999999999999
 11
47.66746824526939
 21
15.99999999999999
  0
LINE
  5
105
100
AcDbEntity
  8
0
  6
CONTINUOUS
 62
             7
100
AcDbLine
 10
47.66746824526939
 20
10.99999999999999
 11
47.66746824526939
 21
15.99999999999999
  0
LINE
  5
104
100
AcDbEntity
  8
0
  6
CONTINUOUS
 62
             7
100
AcDbLine
 10
47.66746824526939
 20
10.99999999999999
 11
44.81321287372057
 21
10.99999999999999
  0
LINE
  5
103
100
AcDbEntity
  8
0
  6
CONTINUOUS
 62
             7
100
AcDbLine
 10
30.21992253573993
 20
10.99999999999999
 11
20.15866105696063
 21
10.99999999999999
  0
LINE
  5
102
100
AcDbEntity
  8
0
  6
CONTINUOUS
 62
             7
100
AcDbLine
 10
44.81321287372057
 20
10.99999999999999
 11
38.4548113984803
 21
10.99999999999999
  0
LINE
  5
101
100
AcDbEntity
  8
0
  6
CONTINUOUS
 62
             7
100
AcDbLine
 10
32.17234819827027
 20
10.99999999999999
 11
30.21992253573993
 21
10.99999999999999
  0
LINE
  5
100
100
AcDbEntity
  8
0
  6
CONTINUOUS
 62
             7
100
AcDbLine
 10
33.89694423544664
 20
30.99999999999999
 11
33.89694423544672
 21
15.99999999999999
  0
LINE
  5
FF
100
AcDbEntity
  8
0
  6
CONTINUOUS
 62
             7
100
AcDbLine
 10
50.18865898626942
 20
30.99999999999999
 11
50.18865898626942
 21
15.99999999999999
  0
LINE
  5
FE
100
AcDbEntity
  8
0
  6
CONTINUOUS
 62
             7
100
AcDbLine
 10
64.9554167304813
 20
30.99999999999999
 11
64.95541673048123
 21
15.99999999999999
  0
LINE
  5
FD
100
AcDbEntity
  8
0
  6
CONTINUOUS
 62
             7
100
AcDbLine
 10
-47.66746824526951
 20
10.99999999999999
 11
-47.66746824526951
 21
15.99999999999999
  0
LINE
  5
FC
100
AcDbEntity
  8
0
  6
CONTINUOUS
 62
             7
100
AcDbLine
 10
-47.66746824526951
 20
10.99999999999999
 11
-44.81321287372059
 21
10.99999999999999
  0
LINE
  5
FB
100
AcDbEntity
  8
0
  6
CONTINUOUS
 62
             7
100
AcDbLine
 10
-50.18865898626942
 20
30.99999999999999
 11
-50.18865898626942
 21
15.99999999999999
  0
LINE
  5
FA
100
AcDbEntity
  8
0
  6
CONTINUOUS
 62
             7
100
AcDbLine
 10
16.57528798671115
 20
15.99999999999999
 11
1.25000000000004
 21
15.99999999999999
  0
LINE
  5
F9
100
AcDbEntity
  8
0
  6
CONTINUOUS
 62
             7
100
AcDbLine
 10
-38.45481139848035
 20
10.99999999999999
 11
-44.81321287372059
 21
10.99999999999999
  0
LINE
  5
F8
100
AcDbEntity
  8
0
  6
CONTINUOUS
 62
             7
100
AcDbLine
 10
-33.89694423544655
 20
30.99999999999999
 11
-33.89694423544655
 21
15.99999999999999
  0
LINE
  5
F7
100
AcDbEntity
  8
0
  6
CONTINUOUS
 62
             7
100
AcDbLine
 10
-16.57528798671115
 20
30.99999999999999
 11
-16.57528798671115
 21
15.99999999999999
  0
LINE
  5
F6
100
AcDbEntity
  8
0
  6
CONTINUOUS
 62
             7
100
AcDbLine
 10
-20.15866105696072
 20
15.99999999999999
 11
-33.89694423544655
 21
15.99999999999999
  0
LINE
  5
F5
100
AcDbEntity
  8
0
  6
CONTINUOUS
 62
             7
100
AcDbLine
 10
-32.17234819827037
 20
10.99999999999999
 11
-32.17234819827037
 21
15.99999999999999
  0
LINE
  5
F4
100
AcDbEntity
  8
0
  6
CONTINUOUS
 62
             7
100
AcDbLine
 10
-32.17234819827037
 20
10.99999999999999
 11
-30.21992253573987
 21
10.99999999999999
  0
LINE
  5
F3
100
AcDbEntity
  8
0
  6
CONTINUOUS
 62
             7
100
AcDbLine
 10
-20.15866105696072
 20
10.99999999999999
 11
-30.21992253573987
 21
10.99999999999999
  0
LINE
  5
F2
100
AcDbEntity
  8
0
  6
CONTINUOUS
 62
             7
100
AcDbLine
 10
-15.6996876312605
 20
10.99999999999999
 11
-15.6996876312605
 21
15.99999999999999
  0
LINE
  5
F1
100
AcDbEntity
  8
0
  6
CONTINUOUS
 62
             7
100
AcDbLine
 10
-15.6996876312605
 20
10.99999999999999
 11
-14.70841514352941
 21
10.99999999999999
  0
LINE
  5
F0
100
AcDbEntity
  8
0
  6
CONTINUOUS
 62
             7
100
AcDbLine
 10
-15.6996876312605
 20
15.99999999999999
 11
-16.57528798671115
 21
15.99999999999999
  0
LINE
  5
EF
100
AcDbEntity
  8
0
  6
CONTINUOUS
 62
             7
100
AcDbLine
 10
-1.25000000000002
 20
15.99999999999999
 11
-15.6996876312605
 21
15.99999999999999
  0
LINE
  5
EE
100
AcDbEntity
  8
0
  6
CONTINUOUS
 62
             7
100
AcDbLine
 10
-1.25000000000006
 20
10.99999999999999
 11
-1.25000000000002
 21
15.99999999999999
  0
LINE
  5
ED
100
AcDbEntity
  8
0
  6
CONTINUOUS
 62
             7
100
AcDbLine
 10
-1.25000000000002
 20
15.99999999999999
 11
-1.25
 21
27.99999999999996
  0
LINE
  5
EC
100
AcDbEntity
  8
0
  6
CONTINUOUS
 62
             7
100
AcDbLine
 10
-1.25000000000006
 20
10.99999999999999
 11
-14.70841514352941
 21
10.99999999999999
  0
LINE
  5
EB
100
AcDbEntity
  8
0
  6
CONTINUOUS
 62
             7
100
AcDbLine
 10
1.24999999999994
 20
10.99999999999999
 11
1.25000000000004
 21
15.99999999999999
  0
LINE
  5
EA
100
AcDbEntity
  8
0
  6
CONTINUOUS
 62
             7
100
AcDbLine
 10
1.25000000000004
 20
15.99999999999999
 11
1.25
 21
27.99999999999996
  0
LINE
  5
E9
100
AcDbEntity
  8
0
  6
CONTINUOUS
 62
             7
100
AcDbLine
 10
14.70841514352939
 20
10.99999999999999
 11
1.24999999999994
 21
10.99999999999999
  0
LINE
  5
E8
100
AcDbEntity
  8
0
  6
CONTINUOUS
 62
             7
100
AcDbLine
 10
15.69968763126041
 20
10.99999999999999
 11
14.70841514352939
 21
10.99999999999999
  0
LINE
  5
E7
100
AcDbEntity
  8
0
  6
CONTINUOUS
 62
             7
100
AcDbLine
 10
15.69968763126041
 20
10.99999999999999
 11
15.69968763126041
 21
15.99999999999999
  0
LINE
  5
E6
100
AcDbEntity
  8
0
  6
CONTINUOUS
 62
             7
100
AcDbLine
 10
16.57528798671117
 20
30.99999999999999
 11
16.57528798671115
 21
15.99999999999999
  0
LINE
  5
E5
100
AcDbEntity
  8
0
  6
CONTINUOUS
 62
             7
100
AcDbLine
 10
-61.71423639053891
 20
10.99999999999999
 11
-61.71423639053891
 21
15.99999999999999
  0
LINE
  5
E4
100
AcDbEntity
  8
0
  6
CONTINUOUS
 62
             7
100
AcDbLine
 10
-64.95541673048126
 20
30.99999999999999
 11
-64.95541673048126
 21
15.99999999999999
  0
LINE
  5
E3
100
AcDbEntity
  8
0
  6
CONTINUOUS
 62
             7
100
AcDbLine
 10
-69.09304218067194
 20
31.00000000000001
 11
-77.74853700636425
 21
30.99999999999999
  0
LINE
  5
E2
100
AcDbEntity
  8
0
  6
CONTINUOUS
 62
             7
100
AcDbLine
 10
-64.95541673048126
 20
30.99999999999999
 11
-67.17793107287449
 21
30.99999999999999
  0
LINE
  5
E1
100
AcDbEntity
  8
0
  6
CONTINUOUS
 62
             7
100
AcDbLine
 10
-67.17793107287449
 20
30.99999999999999
 11
-69.09304218067194
 21
31.00000000000001
  0
LINE
  5
E0
100
AcDbEntity
  8
0
  6
CONTINUOUS
 62
             7
100
AcDbLine
 10
-69.10629390193408
 20
27.99999999999999
 11
-67.17793107287449
 21
30.99999999999999
  0
LINE
  5
DF
100
AcDbEntity
  8
0
  6
CONTINUOUS
 62
             7
100
AcDbLine
 10
-69.10629390193408
 20
27.99999999999999
 11
-71.02140500973157
 21
27.99999999999999
  0
LINE
  5
DE
100
AcDbEntity
  8
0
  6
CONTINUOUS
 62
             7
100
AcDbLine
 10
-53.41746824526949
 20
28.00000000000003
 11
-55.5825317547306
 21
28.00000000000003
  0
LINE
  5
DD
100
AcDbEntity
  8
0
  6
CONTINUOUS
 62
             7
100
AcDbLine
 10
-51.91746824526952
 20
30.99999999999999
 11
-54.0825317547306
 21
31.00000000000001
  0
LINE
  5
DC
100
AcDbEntity
  8
0
  6
CONTINUOUS
 62
             7
100
AcDbLine
 10
-50.18865898626942
 20
30.99999999999999
 11
-51.91746824526952
 21
30.99999999999999
  0
LINE
  5
DB
100
AcDbEntity
  8
0
  6
CONTINUOUS
 62
             7
100
AcDbLine
 10
-1.25000000000004
 20
30.99999999999999
 11
-16.57528798671115
 21
30.99999999999999
  0
LINE
  5
DA
100
AcDbEntity
  8
0
  6
CONTINUOUS
 62
             7
100
AcDbLine
 10
-1.25
 20
27.99999999999996
 11
-1.25000000000004
 21
30.99999999999999
  0
LINE
  5
D9
100
AcDbEntity
  8
0
  6
CONTINUOUS
 62
             7
100
AcDbLine
 10
77.74853700636426
 20
30.99999999999999
 11
69.09304218067186
 21
31.00000000000003
  0
LINE
  5
D8
100
AcDbEntity
  8
0
  6
CONTINUOUS
 62
             7
100
AcDbLine
 10
64.9554167304813
 20
30.99999999999999
 11
67.17793107287446
 21
30.99999999999999
  0
LINE
  5
D7
100
AcDbEntity
  8
0
  6
CONTINUOUS
 62
             7
100
AcDbLine
 10
69.10629390193405
 20
27.99999999999999
 11
67.17793107287446
 21
30.99999999999999
  0
LINE
  5
D6
100
AcDbEntity
  8
0
  6
CONTINUOUS
 62
             7
100
AcDbLine
 10
69.09304218067186
 20
31.00000000000003
 11
67.17793107287446
 21
30.99999999999999
  0
LINE
  5
D5
100
AcDbEntity
  8
0
  6
CONTINUOUS
 62
             7
100
AcDbLine
 10
16.57528798671117
 20
30.99999999999999
 11
1.25000000000004
 21
30.99999999999999
  0
LINE
  5
D4
100
AcDbEntity
  8
0
  6
CONTINUOUS
 62
             7
100
AcDbLine
 10
38.45481139848032
 20
27.99999999999999
 11
36.10557984651554
 21
27.99999999999999
  0
LINE
  5
D3
100
AcDbEntity
  8
0
  6
CONTINUOUS
 62
             7
100
AcDbLine
 10
55.5825317547305
 20
27.99999999999999
 11
53.41746824526948
 21
27.99999999999999
  0
LINE
  5
D2
100
AcDbEntity
  8
0
  6
CONTINUOUS
 62
             7
100
AcDbLine
 10
50.18865898626942
 20
30.99999999999999
 11
51.91746824526948
 21
30.99999999999999
  0
LINE
  5
D1
100
AcDbEntity
  8
0
  6
CONTINUOUS
 62
             7
100
AcDbLine
 10
51.91746824526948
 20
30.99999999999999
 11
54.0825317547305
 21
30.99999999999999
  0
LINE
  5
D0
100
AcDbEntity
  8
0
  6
CONTINUOUS
 62
             7
100
AcDbLine
 10
33.89694423544664
 20
30.99999999999999
 11
35.07951941653852
 21
30.99999999999999
  0
LINE
  5
CF
100
AcDbEntity
  8
0
  6
CONTINUOUS
 62
             7
100
AcDbLine
 10
20.15866105696063
 20
27.99999999999999
 11
17.69664167443012
 21
27.99999999999999
  0
LINE
  5
CE
100
AcDbEntity
  8
0
  6
CONTINUOUS
 62
             7
100
AcDbLine
 10
17.17569714142932
 20
30.99999999999999
 11
19.63771652395982
 21
30.99999999999999
  0
LINE
  5
CD
100
AcDbEntity
  8
0
  6
CONTINUOUS
 62
             7
100
AcDbLine
 10
16.57528798671117
 20
30.99999999999999
 11
17.17569714142932
 21
30.99999999999999
  0
LINE
  5
CC
100
AcDbEntity
  8
0
  6
CONTINUOUS
 62
             7
100
AcDbLine
 10
33.89694423544664
 20
30.99999999999999
 11
19.63771652395982
 21
30.99999999999999
  0
LINE
  5
CB
100
AcDbEntity
  8
0
  6
CONTINUOUS
 62
             7
100
AcDbLine
 10
50.18865898626942
 20
30.99999999999999
 11
37.42875096850329
 21
30.99999999999999
  0
LINE
  5
CA
100
AcDbEntity
  8
0
  6
CONTINUOUS
 62
             7
100
AcDbLine
 10
64.9554167304813
 20
30.99999999999999
 11
54.0825317547305
 21
30.99999999999999
  0
LINE
  5
C9
100
AcDbEntity
  8
0
  6
CONTINUOUS
 62
             7
100
AcDbLine
 10
1.25
 20
27.99999999999996
 11
1.25000000000004
 21
30.99999999999999
  0
LINE
  5
C8
100
AcDbEntity
  8
0
  6
CONTINUOUS
 62
             7
100
AcDbLine
 10
-1.25
 20
27.99999999999996
 11
1.25
 21
27.99999999999996
  0
LINE
  5
C7
100
AcDbEntity
  8
0
  6
CONTINUOUS
 62
             7
100
AcDbLine
 10
77.74853700636426
 20
30.99999999999999
 11
80.39722645850345
 21
30.99999999999999
  0
LINE
  5
C6
100
AcDbEntity
  8
0
  6
CONTINUOUS
 62
             7
100
AcDbLine
 10
80.39722645850345
 20
30.99999999999999
 11
82.00419548271975
 21
30.99999999999999
  0
LINE
  5
C5
100
AcDbEntity
  8
0
  6
CONTINUOUS
 62
             7
100
AcDbLine
 10
82.69535978786045
 20
27.99999999999999
 11
80.39722645850345
 21
30.99999999999999
  0
LINE
  5
C4
100
AcDbEntity
  8
0
  6
CONTINUOUS
 62
             7
100
AcDbLine
 10
84.30232881207675
 20
27.99999999999999
 11
82.00419548271975
 21
30.99999999999999
  0
LINE
  5
C3
100
AcDbEntity
  8
0
  6
CONTINUOUS
 62
             7
100
AcDbLine
 10
-17.69664167443015
 20
27.99999999999999
 11
-20.15866105696072
 21
27.99999999999999
  0
LINE
  5
C2
100
AcDbEntity
  8
0
  6
CONTINUOUS
 62
             7
100
AcDbLine
 10
-36.10557984651548
 20
28.00000000000001
 11
-38.45481139848033
 21
27.99999999999999
  0
LINE
  5
C1
100
AcDbEntity
  8
0
  6
CONTINUOUS
 62
             7
100
AcDbLine
 10
-17.69664167443015
 20
27.99999999999999
 11
-17.17569714142936
 21
30.99999999999999
  0
LINE
  5
C0
100
AcDbEntity
  8
0
  6
CONTINUOUS
 62
             7
100
AcDbLine
 10
-33.89694423544655
 20
30.99999999999999
 11
-35.07951941653848
 21
30.99999999999999
  0
LINE
  5
BF
100
AcDbEntity
  8
0
  6
CONTINUOUS
 62
             7
100
AcDbLine
 10
-16.57528798671115
 20
30.99999999999999
 11
-17.17569714142936
 21
30.99999999999999
  0
LINE
  5
BE
100
AcDbEntity
  8
0
  6
CONTINUOUS
 62
             7
100
AcDbLine
 10
-19.63771652395993
 20
30.99999999999999
 11
-33.89694423544655
 21
30.99999999999999
  0
LINE
  5
BD
100
AcDbEntity
  8
0
  6
CONTINUOUS
 62
             7
100
AcDbLine
 10
-17.17569714142936
 20
30.99999999999999
 11
-19.63771652395993
 21
30.99999999999999
  0
LINE
  5
BC
100
AcDbEntity
  8
0
  6
CONTINUOUS
 62
             7
100
AcDbLine
 10
-35.07951941653848
 20
30.99999999999999
 11
-37.42875096850333
 21
30.99999999999999
  0
LINE
  5
BB
100
AcDbEntity
  8
0
  6
CONTINUOUS
 62
             7
100
AcDbLine
 10
-37.42875096850333
 20
30.99999999999999
 11
-50.18865898626942
 21
30.99999999999999
  0
LINE
  5
BA
100
AcDbEntity
  8
0
  6
CONTINUOUS
 62
             7
100
AcDbLine
 10
-54.0825317547306
 20
31.00000000000001
 11
-64.95541673048126
 21
30.99999999999999
  0
LINE
  5
B9
100
AcDbEntity
  8
0
  6
CONTINUOUS
 62
             7
100
AcDbLine
 10
-84.30232881207682
 20
27.99999999999999
 11
-82.00419548271989
 21
30.99999999999999
  0
LINE
  5
B8
100
AcDbEntity
  8
0
  6
CONTINUOUS
 62
             7
100
AcDbLine
 10
-77.74853700636425
 20
30.99999999999999
 11
-80.39722645850351
 21
30.99999999999999
  0
LINE
  5
B7
100
AcDbEntity
  8
0
  6
CONTINUOUS
 62
             7
100
AcDbLine
 10
-80.39722645850351
 20
30.99999999999999
 11
-82.00419548271989
 21
30.99999999999999
  0
LINE
  5
B6
100
AcDbEntity
  8
0
  6
CONTINUOUS
 62
             7
100
AcDbLine
 10
-73.88584869199224
 20
10.99999999999999
 11
-71.02140500973157
 21
10.99999999999999
  0
LINE
  5
B5
100
AcDbEntity
  8
0
  6
CONTINUOUS
 62
             7
100
AcDbLine
 10
-73.88584869199224
 20
10.99999999999999
 11
-73.88584869199224
 21
15.99999999999999
  0
LINE
  5
B4
100
AcDbEntity
  8
0
  6
CONTINUOUS
 62
             7
100
AcDbLine
 10
-82.69535978786047
 20
27.99999999999999
 11
-84.30232881207682
 21
27.99999999999999
  0
LINE
  5
B3
100
AcDbEntity
  8
0
  6
CONTINUOUS
 62
             7
100
AcDbLine
 10
-77.74853700636425
 20
30.99999999999999
 11
-77.74853700636425
 21
15.99999999999999
  0
LINE
  5
B2
100
AcDbEntity
  8
0
  6
CONTINUOUS
 62
             7
100
AcDbLine
 10
-71.02140500973157
 20
15.99999999999999
 11
-77.74853700636425
 21
15.99999999999999
  0
LINE
  5
B1
100
AcDbEntity
  8
0
  6
CONTINUOUS
 62
             7
100
AcDbLine
 10
-82.00419548271989
 20
30.99999999999999
 11
-88.17930732796692
 21
30.99999999999999
  0
LINE
  5
B0
100
AcDbEntity
  8
0
  6
CONTINUOUS
 62
             7
100
AcDbLine
 10
-83.98234985006059
 20
-19.0
 11
-85.23234985006064
 21
-19.0
  0
LINE
  5
AF
100
AcDbEntity
  8
0
  6
CONTINUOUS
 62
             7
100
AcDbLine
 10
84.30232881207675
 20
15.99999999999999
 11
88.17930732796695
 21
15.99999999999999
  0
LINE
  5
AE
100
AcDbEntity
  8
0
  6
CONTINUOUS
 62
             7
100
AcDbLine
 10
92.13219796825486
 20
-15.99999999999999
 11
92.13219796825486
 21
1.0
  0
LINE
  5
AD
100
AcDbEntity
  8
0
  6
CONTINUOUS
 62
             7
100
AcDbLine
 10
85.23234985006056
 20
-19.0
 11
91.37682833163565
 21
-19.0
  0
LINE
  5
AC
100
AcDbEntity
  8
0
  6
CONTINUOUS
 62
             7
100
AcDbLine
 10
91.37682833163565
 20
-19.0
 11
92.23187868994985
 21
-19.0
  0
LINE
  5
AB
100
AcDbEntity
  8
0
  6
CONTINUOUS
 62
             7
100
AcDbLine
 10
71.02140500973145
 20
28.00000000000003
 11
69.10629390193405
 21
27.99999999999999
  0
LINE
  5
AA
100
AcDbEntity
  8
0
  6
CONTINUOUS
 62
             7
100
AcDbLine
 10
84.30232881207675
 20
27.99999999999999
 11
82.69535978786045
 21
27.99999999999999
  0
LINE
  5
A9
100
AcDbEntity
  8
0
  6
CONTINUOUS
 62
             7
100
AcDbLine
 10
58.04487641511309
 20
10.99999999999999
 11
55.5825317547305
 21
10.99999999999999
  0
LINE
  5
A8
100
AcDbEntity
  8
0
  6
CONTINUOUS
 62
             7
100
AcDbLine
 10
58.04487641511309
 20
10.99999999999999
 11
58.04487641511312
 21
-3.0
  0
LINE
  5
A7
100
AcDbEntity
  8
0
  6
CONTINUOUS
 62
             7
100
AcDbLine
 10
61.71423639053883
 20
11.00000000000001
 11
58.04487641511309
 21
10.99999999999999
  0
LINE
  5
A6
100
AcDbEntity
  8
0
  6
CONTINUOUS
 62
             7
100
AcDbLine
 10
71.02140500973145
 20
15.99999999999999
 11
71.02140500973145
 21
3.0
  0
LINE
  5
A5
100
AcDbEntity
  8
0
  6
CONTINUOUS
 62
             7
100
AcDbLine
 10
61.71423639053883
 20
11.00000000000001
 11
61.71423639053883
 21
15.99999999999999
  0
LINE
  5
A4
100
AcDbEntity
  8
0
  6
CONTINUOUS
 62
             7
100
AcDbLine
 10
73.88584869199215
 20
10.99999999999999
 11
71.02140500973145
 21
10.99999999999999
  0
LINE
  5
A3
100
AcDbEntity
  8
0
  6
CONTINUOUS
 62
             7
100
AcDbLine
 10
69.51287575875716
 20
1.0
 11
69.51287575875716
 21
-3.0
  0
LINE
  5
A2
100
AcDbEntity
  8
0
  6
CONTINUOUS
 62
             7
100
AcDbLine
 10
64.95541673048123
 20
15.99999999999999
 11
55.5825317547305
 21
15.99999999999999
  0
LINE
  5
A1
100
AcDbEntity
  8
0
  6
CONTINUOUS
 62
             7
100
AcDbLine
 10
81.16327090162245
 20
1.0
 11
82.69535978786036
 21
3.0
  0
LINE
  5
A0
100
AcDbEntity
  8
0
  6
CONTINUOUS
 62
             7
100
AcDbLine
 10
82.77023992583875
 20
1.0
 11
84.30232881207675
 21
3.0
  0
LINE
  5
9F
100
AcDbEntity
  8
0
  6
CONTINUOUS
 62
             7
100
AcDbLine
 10
84.30232881207675
 20
3.0
 11
82.69535978786036
 21
3.0
  0
LINE
  5
9E
100
AcDbEntity
  8
0
  6
CONTINUOUS
 62
             7
100
AcDbLine
 10
76.66776728776115
 20
-3.0
 11
78.86876154768376
 21
-3.0
  0
LINE
  5
9D
100
AcDbEntity
  8
0
  6
CONTINUOUS
 62
             7
100
AcDbLine
 10
83.98234985006056
 20
-19.0
 11
85.23234985006056
 21
-19.0
  0
LINE
  5
9C
100
AcDbEntity
  8
0
  6
CONTINUOUS
 62
             7
100
AcDbLine
 10
85.92850227276716
 20
1.0
 11
84.67850227276716
 21
1.0
  0
LINE
  5
9B
100
AcDbEntity
  8
0
  6
CONTINUOUS
 62
             7
100
AcDbLine
 10
84.67850227276716
 20
-16.0
 11
84.67850227276716
 21
1.0
  0
LINE
  5
9A
100
AcDbEntity
  8
0
  6
CONTINUOUS
 62
             7
100
AcDbLine
 10
85.92850227276716
 20
-16.0
 11
84.67850227276716
 21
-16.0
  0
LINE
  5
99
100
AcDbEntity
  8
0
  6
CONTINUOUS
 62
             7
100
AcDbLine
 10
85.23234985006056
 20
-19.0
 11
85.92850227276716
 21
-16.0
  0
LINE
  5
98
100
AcDbEntity
  8
0
  6
CONTINUOUS
 62
             7
100
AcDbLine
 10
82.77023992583875
 20
1.0
 11
81.16327090162245
 21
1.0
  0
LINE
  5
97
100
AcDbEntity
  8
0
  6
CONTINUOUS
 62
             7
100
AcDbLine
 10
81.16327090162245
 20
1.0
 11
76.25886215932745
 21
1.0
  0
LINE
  5
96
100
AcDbEntity
  8
0
  6
CONTINUOUS
 62
             7
100
AcDbLine
 10
85.92850227276716
 20
-16.0
 11
85.92850227276716
 21
1.0
  0
LINE
  5
95
100
AcDbEntity
  8
0
  6
CONTINUOUS
 62
             7
100
AcDbLine
 10
67.82071868256095
 20
1.0
 11
69.10629390193405
 21
3.00000000000001
  0
LINE
  5
94
100
AcDbEntity
  8
0
  6
CONTINUOUS
 62
             7
100
AcDbLine
 10
61.84032073746465
 20
-19.0
 11
56.41123861062488
 21
-19.0
  0
LINE
  5
93
100
AcDbEntity
  8
0
  6
CONTINUOUS
 62
             7
100
AcDbLine
 10
56.41123861062488
 20
-3.0
 11
58.04487641511312
 21
-3.0
  0
LINE
  5
92
100
AcDbEntity
  8
0
  6
CONTINUOUS
 62
             7
100
AcDbLine
 10
64.27213510802281
 20
-3.0
 11
67.56598203626055
 21
-3.0
  0
LINE
  5
91
100
AcDbEntity
  8
0
  6
CONTINUOUS
 62
             7
100
AcDbLine
 10
71.02140500973145
 20
3.0
 11
69.10629390193405
 21
3.00000000000001
  0
LINE
  5
90
100
AcDbEntity
  8
0
  6
CONTINUOUS
 62
             7
100
AcDbLine
 10
76.25886215932745
 20
-3.0
 11
76.66776728776115
 21
-3.0
  0
LINE
  5
8F
100
AcDbEntity
  8
0
  6
CONTINUOUS
 62
             7
100
AcDbLine
 10
64.27213510802281
 20
-16.0
 11
62.35702400022538
 21
-16.0
  0
LINE
  5
8E
100
AcDbEntity
  8
0
  6
CONTINUOUS
 62
             7
100
AcDbLine
 10
67.56598203626055
 20
-3.0
 11
69.51287575875716
 21
-3.0
  0
LINE
  5
8D
100
AcDbEntity
  8
0
  6
CONTINUOUS
 62
             7
100
AcDbLine
 10
64.27213510802281
 20
-16.0
 11
64.27213510802281
 21
-3.0
  0
LINE
  5
8C
100
AcDbEntity
  8
0
  6
CONTINUOUS
 62
             7
100
AcDbLine
 10
63.75543184526208
 20
-19.0
 11
64.27213510802281
 21
-16.0
  0
LINE
  5
8B
100
AcDbEntity
  8
0
  6
CONTINUOUS
 62
             7
100
AcDbLine
 10
74.65189313511115
 20
-16.0
 11
74.65189313511115
 21
1.0
  0
LINE
  5
8A
100
AcDbEntity
  8
0
  6
CONTINUOUS
 62
             7
100
AcDbLine
 10
76.25886215932745
 20
-16.0
 11
76.25886215932745
 21
1.0
  0
LINE
  5
89
100
AcDbEntity
  8
0
  6
CONTINUOUS
 62
             7
100
AcDbLine
 10
76.25886215932745
 20
1.0
 11
74.65189313511115
 21
1.0
  0
LINE
  5
88
100
AcDbEntity
  8
0
  6
CONTINUOUS
 62
             7
100
AcDbLine
 10
76.25886215932745
 20
-16.0
 11
74.65189313511115
 21
-16.0
  0
LINE
  5
87
100
AcDbEntity
  8
0
  6
CONTINUOUS
 62
             7
100
AcDbLine
 10
62.35702400022538
 20
-16.0
 11
62.35702400022538
 21
1.0
  0
LINE
  5
86
100
AcDbEntity
  8
0
  6
CONTINUOUS
 62
             7
100
AcDbLine
 10
64.27213510802281
 20
1.0
 11
62.35702400022538
 21
1.0
  0
LINE
  5
85
100
AcDbEntity
  8
0
  6
CONTINUOUS
 62
             7
100
AcDbLine
 10
64.27213510802281
 20
-3.0
 11
64.27213510802281
 21
1.0
  0
LINE
  5
84
100
AcDbEntity
  8
0
  6
CONTINUOUS
 62
             7
100
AcDbLine
 10
69.73582979035835
 20
1.00000000000001
 11
67.82071868256095
 21
1.0
  0
LINE
  5
83
100
AcDbEntity
  8
0
  6
CONTINUOUS
 62
             7
100
AcDbLine
 10
67.82071868256095
 20
1.0
 11
64.27213510802281
 21
1.0
  0
LINE
  5
82
100
AcDbEntity
  8
0
  6
CONTINUOUS
 62
             7
100
AcDbLine
 10
54.5825317547305
 20
1.0
 11
55.5825317547305
 21
3.00000000000001
  0
LINE
  5
81
100
AcDbEntity
  8
0
  6
CONTINUOUS
 62
             7
100
AcDbLine
 10
61.84032073746465
 20
-19.0
 11
63.75543184526208
 21
-19.0
  0
LINE
  5
80
100
AcDbEntity
  8
0
  6
CONTINUOUS
 62
             7
100
AcDbLine
 10
76.66776728776115
 20
-3.0
 11
76.66776728776115
 21
-19.0
  0
LINE
  5
7F
100
AcDbEntity
  8
0
  6
CONTINUOUS
 62
             7
100
AcDbLine
 10
69.73582979035835
 20
1.00000000000001
 11
71.02140500973145
 21
3.0
  0
LINE
  5
7E
100
AcDbEntity
  8
0
  6
CONTINUOUS
 62
             7
100
AcDbLine
 10
69.10629390193405
 20
27.99999999999999
 11
69.10629390193405
 21
3.00000000000001
  0
LINE
  5
7D
100
AcDbEntity
  8
0
  6
CONTINUOUS
 62
             7
100
AcDbLine
 10
82.69535978786045
 20
27.99999999999999
 11
82.69535978786036
 21
3.0
  0
LINE
  5
7C
100
AcDbEntity
  8
0
  6
CONTINUOUS
 62
             7
100
AcDbLine
 10
84.30232881207675
 20
27.99999999999999
 11
84.30232881207675
 21
3.0
  0
LINE
  5
7B
100
AcDbEntity
  8
0
  6
CONTINUOUS
 62
             7
100
AcDbLine
 10
71.02140500973145
 20
28.00000000000003
 11
71.02140500973145
 21
15.99999999999999
  0
LINE
  5
7A
100
AcDbEntity
  8
0
  6
CONTINUOUS
 62
             7
100
AcDbLine
 10
61.84032073746465
 20
-19.0
 11
62.35702400022538
 21
-16.0
  0
LINE
  5
79
100
AcDbEntity
  8
0
  6
CONTINUOUS
 62
             7
100
AcDbLine
 10
91.37682833163565
 20
-19.0
 11
92.13219796825486
 21
-15.99999999999999
  0
LINE
  5
78
100
AcDbEntity
  8
0
  6
CONTINUOUS
 62
             7
100
AcDbLine
 10
74.03611016541086
 20
-19.0
 11
74.65189313511115
 21
-16.0
  0
LINE
  5
77
100
AcDbEntity
  8
0
  6
CONTINUOUS
 62
             7
100
AcDbLine
 10
83.98234985006056
 20
-19.0
 11
84.67850227276716
 21
-16.0
  0
LINE
  5
76
100
AcDbEntity
  8
0
  6
CONTINUOUS
 62
             7
100
AcDbLine
 10
-91.37682833163569
 20
-19.0
 11
-92.1321979682549
 21
-16.0
  0
LINE
  5
75
100
AcDbEntity
  8
0
  6
CONTINUOUS
 62
             7
100
AcDbLine
 10
-91.17369280115051
 20
30.99999999999999
 11
-92.42369280115055
 21
30.99999999999999
  0
LINE
  5
74
100
AcDbEntity
  8
0
  6
CONTINUOUS
 62
             7
100
AcDbLine
 10
-36.10557984651548
 20
28.00000000000001
 11
-35.07951941653848
 21
30.99999999999999
  0
LINE
  5
73
100
AcDbEntity
  8
0
  6
CONTINUOUS
 62
             7
100
AcDbLine
 10
1.25000000000004
 20
30.99999999999999
 11
-1.25000000000004
 21
30.99999999999999
  0
LINE
  5
72
100
AcDbEntity
  8
0
  6
CONTINUOUS
 62
             7
100
AcDbLine
 10
-82.69535978786047
 20
27.99999999999999
 11
-80.39722645850351
 21
30.99999999999999
  0
LINE
  5
71
100
AcDbEntity
  8
0
  6
CONTINUOUS
 62
             7
100
AcDbLine
 10
17.69664167443012
 20
27.99999999999999
 11
17.17569714142932
 21
30.99999999999999
  0
LINE
  5
70
100
AcDbEntity
  8
0
  6
CONTINUOUS
 62
             7
100
AcDbLine
 10
37.42875096850329
 20
30.99999999999999
 11
35.07951941653852
 21
30.99999999999999
  0
LINE
  5
6F
100
AcDbEntity
  8
0
  6
CONTINUOUS
 62
             7
100
AcDbLine
 10
36.10557984651554
 20
27.99999999999999
 11
35.07951941653852
 21
30.99999999999999
  0
LINE
  5
6E
100
AcDbEntity
  8
0
  6
CONTINUOUS
 62
             7
100
AcDbLine
 10
38.45481139848032
 20
27.99999999999999
 11
37.42875096850329
 21
30.99999999999999
  0
LINE
  5
6D
100
AcDbEntity
  8
0
  6
CONTINUOUS
 62
             7
100
AcDbLine
 10
53.41746824526948
 20
27.99999999999999
 11
51.91746824526948
 21
30.99999999999999
  0
LINE
  5
6C
100
AcDbEntity
  8
0
  6
CONTINUOUS
 62
             7
100
AcDbLine
 10
91.17369280115045
 20
30.99999999999999
 11
92.42369280115045
 21
30.99999999999999
  0
LINE
  5
6B
100
AcDbEntity
  8
0
  6
CONTINUOUS
 62
             7
100
AcDbLine
 10
20.15866105696063
 20
27.99999999999999
 11
19.63771652395982
 21
30.99999999999999
  0
LINE
  5
6A
100
AcDbEntity
  8
0
  6
CONTINUOUS
 62
             7
100
AcDbLine
 10
-20.15866105696072
 20
27.99999999999999
 11
-19.63771652395993
 21
30.99999999999999
  0
LINE
  5
69
100
AcDbEntity
  8
0
  6
CONTINUOUS
 62
             7
100
AcDbLine
 10
-38.45481139848033
 20
27.99999999999999
 11
-37.42875096850333
 21
30.99999999999999
  0
LINE
  5
68
100
AcDbEntity
  8
0
  6
CONTINUOUS
 62
             7
100
AcDbLine
 10
55.5825317547305
 20
27.99999999999999
 11
54.0825317547305
 21
30.99999999999999
  0
LINE
  5
67
100
AcDbEntity
  8
0
  6
CONTINUOUS
 62
             7
100
AcDbLine
 10
-53.41746824526949
 20
28.00000000000003
 11
-51.91746824526952
 21
30.99999999999999
  0
LINE
  5
66
100
AcDbEntity
  8
0
  6
CONTINUOUS
 62
             7
100
AcDbLine
 10
-55.5825317547306
 20
28.00000000000003
 11
-54.0825317547306
 21
31.00000000000001
  0
LINE
  5
65
100
AcDbEntity
  8
0
  6
CONTINUOUS
 62
             7
100
AcDbLine
 10
-71.02140500973157
 20
27.99999999999999
 11
-69.09304218067194
 21
31.00000000000001
  0
LINE
  5
64
100
AcDbEntity
  8
0
  6
CONTINUOUS
 62
             7
100
AcDbLine
 10
92.98724832656906
 20
1.0
 11
92.13219796825486
 21
1.0
  0
LINE
  5
63
100
AcDbEntity
  8
0
  6
CONTINUOUS
 62
             7
100
AcDbLine
 10
92.98724832656906
 20
-16.0
 11
92.13219796825486
 21
-15.99999999999999
  0
LINE
  5
62
100
AcDbEntity
  8
0
  6
CONTINUOUS
 62
             7
100
AcDbLine
 10
92.13219796825486
 20
1.0
 11
92.03971820493486
 21
1.0
  0
LINE
  5
61
100
AcDbEntity
  8
0
  6
CONTINUOUS
 62
             7
100
AcDbLine
 10
92.98724832656906
 20
-16.0
 11
92.98724832656906
 21
1.0
  0
LINE
  5
60
100
AcDbEntity
  8
0
  6
CONTINUOUS
 62
             7
100
AcDbLine
 10
93.77176901250385
 20
27.99999999999999
 11
91.17369280115045
 21
30.99999999999999
  0
LINE
  5
5F
100
AcDbEntity
  8
0
  6
CONTINUOUS
 62
             7
100
AcDbLine
 10
93.77176901250385
 20
27.99999999999999
 11
93.77176901250378
 21
3.0
  0
LINE
  5
5E
100
AcDbEntity
  8
0
  6
CONTINUOUS
 62
             7
100
AcDbLine
 10
92.03971820493486
 20
1.0
 11
93.77176901250378
 21
3.0
  0
LINE
  5
5D
100
AcDbEntity
  8
0
  6
CONTINUOUS
 62
             7
100
AcDbLine
 10
95.02176901250377
 20
28.00000000000003
 11
92.42369280115045
 21
30.99999999999999
  0
LINE
  5
5C
100
AcDbEntity
  8
0
  6
CONTINUOUS
 62
             7
100
AcDbLine
 10
93.77176901250385
 20
27.99999999999999
 11
95.02176901250377
 21
28.00000000000003
  0
LINE
  5
5B
100
AcDbEntity
  8
0
  6
CONTINUOUS
 62
             7
100
AcDbLine
 10
93.28971820493486
 20
1.0
 11
95.02176901250377
 21
3.0
  0
LINE
  5
5A
100
AcDbEntity
  8
0
  6
CONTINUOUS
 62
             7
100
AcDbLine
 10
95.02176901250377
 20
28.00000000000003
 11
95.02176901250377
 21
3.0
  0
LINE
  5
59
100
AcDbEntity
  8
0
  6
CONTINUOUS
 62
             7
100
AcDbLine
 10
92.03971820493486
 20
1.0
 11
85.92850227276716
 21
1.0
  0
LINE
  5
58
100
AcDbEntity
  8
0
  6
CONTINUOUS
 62
             7
100
AcDbLine
 10
95.02176901250377
 20
3.0
 11
93.77176901250378
 21
3.0
  0
LINE
  5
57
100
AcDbEntity
  8
0
  6
CONTINUOUS
 62
             7
100
AcDbLine
 10
95.93079401729176
 20
30.99999999999999
 11
92.42369280115045
 21
30.99999999999999
  0
LINE
  5
56
100
AcDbEntity
  8
0
  6
CONTINUOUS
 62
             7
100
AcDbLine
 10
95.93079401729176
 20
30.99999999999999
 11
95.93079401729185
 21
15.99999999999999
  0
LINE
  5
55
100
AcDbEntity
  8
0
  6
CONTINUOUS
 62
             7
100
AcDbLine
 10
95.93079401729185
 20
15.99999999999999
 11
95.02176901250377
 21
15.99999999999999
  0
LINE
  5
54
100
AcDbEntity
  8
0
  6
CONTINUOUS
 62
             7
100
AcDbLine
 10
92.23187868994985
 20
-19.0
 11
95.99486812326026
 21
-19.0
  0
LINE
  5
53
100
AcDbEntity
  8
0
  6
CONTINUOUS
 62
             7
100
AcDbLine
 10
95.99486812326026
 20
-19.0
 11
96.42898856742755
 21
-19.0
  0
LINE
  5
52
100
AcDbEntity
  8
0
  6
CONTINUOUS
 62
             7
100
AcDbLine
 10
71.02140500973145
 20
28.00000000000003
 11
69.09304218067186
 21
31.00000000000003
  0
LINE
  5
51
100
AcDbEntity
  8
0
  6
CONTINUOUS
 62
             7
100
AcDbLine
 10
96.78650344961875
 20
1.0
 11
93.28971820493486
 21
1.0
  0
LINE
  5
50
100
AcDbEntity
  8
0
  6
CONTINUOUS
 62
             7
100
AcDbLine
 10
104.6066820413777
 20
30.99999999999999
 11
105.9999999999999
 21
30.99999999999999
  0
LINE
  5
4F
100
AcDbEntity
  8
0
  6
CONTINUOUS
 62
             7
100
AcDbLine
 10
107.5611053004143
 20
27.99999999999999
 11
104.6066820413777
 21
30.99999999999999
  0
LINE
  5
4E
100
AcDbEntity
  8
0
  6
CONTINUOUS
 62
             7
100
AcDbLine
 10
107.12698485624701
 20
27.99999999999999
 11
104.1725615972103
 21
30.99999999999999
  0
LINE
  5
4D
100
AcDbEntity
  8
0
  6
CONTINUOUS
 62
             7
100
AcDbLine
 10
102.85402084482109
 20
27.99999999999999
 11
102.85402084482109
 21
3.00000000000001
  0
LINE
  5
4C
100
AcDbEntity
  8
0
  6
CONTINUOUS
 62
             7
100
AcDbLine
 10
101.99897048650691
 20
27.99999999999999
 11
101.99897048650691
 21
3.0
  0
LINE
  5
4B
100
AcDbEntity
  8
0
  6
CONTINUOUS
 62
             7
100
AcDbLine
 10
107.12698485624701
 20
27.99999999999999
 11
107.12698485624701
 21
3.00000000000001
  0
LINE
  5
4A
100
AcDbEntity
  8
0
  6
CONTINUOUS
 62
             7
100
AcDbLine
 10
105.5914897943898
 20
1.0
 11
107.5611053004143
 21
3.00000000000001
  0
LINE
  5
49
100
AcDbEntity
  8
0
  6
CONTINUOUS
 62
             7
100
AcDbLine
 10
105.1573693502226
 20
1.0
 11
107.12698485624701
 21
3.00000000000001
  0
LINE
  5
48
100
AcDbEntity
  8
0
  6
CONTINUOUS
 62
             7
100
AcDbLine
 10
106.9999999999999
 20
1.0
 11
105.5914897943898
 21
1.0
  0
LINE
  5
47
100
AcDbEntity
  8
0
  6
CONTINUOUS
 62
             7
100
AcDbLine
 10
98.49999999999994
 20
-16.0
 11
98.49999999999994
 21
1.0
  0
LINE
  5
46
100
AcDbEntity
  8
0
  6
CONTINUOUS
 62
             7
100
AcDbLine
 10
97.22062389378607
 20
1.0
 11
96.78650344961875
 21
1.0
  0
LINE
  5
45
100
AcDbEntity
  8
0
  6
CONTINUOUS
 62
             7
100
AcDbLine
 10
100.1195852449351
 20
1.0
 11
101.99897048650691
 21
3.0
  0
LINE
  5
44
100
AcDbEntity
  8
0
  6
CONTINUOUS
 62
             7
100
AcDbLine
 10
100.9746356032493
 20
0.99999999999999
 11
102.85402084482109
 21
3.00000000000001
  0
LINE
  5
43
100
AcDbEntity
  8
0
  6
CONTINUOUS
 62
             7
100
AcDbLine
 10
97.22062389378607
 20
-16.0
 11
97.22062389378607
 21
1.0
  0
LINE
  5
42
100
AcDbEntity
  8
0
  6
CONTINUOUS
 62
             7
100
AcDbLine
 10
96.78650344961875
 20
-15.99999999999999
 11
96.78650344961875
 21
1.0
  0
LINE
  5
41
100
AcDbEntity
  8
0
  6
CONTINUOUS
 62
             7
100
AcDbLine
 10
96.42898856742755
 20
-19.0
 11
97.22062389378607
 21
-16.0
  0
LINE
  5
40
100
AcDbEntity
  8
0
  6
CONTINUOUS
 62
             7
100
AcDbLine
 10
102.85402084482109
 20
3.00000000000001
 11
101.99897048650691
 21
3.0
  0
LINE
  5
3F
100
AcDbEntity
  8
0
  6
CONTINUOUS
 62
             7
100
AcDbLine
 10
100.1195852449351
 20
1.0
 11
98.49999999999994
 21
1.0
  0
LINE
  5
3E
100
AcDbEntity
  8
0
  6
CONTINUOUS
 62
             7
100
AcDbLine
 10
100.9746356032493
 20
0.99999999999999
 11
100.1195852449351
 21
1.0
  0
LINE
  5
3D
100
AcDbEntity
  8
0
  6
CONTINUOUS
 62
             7
100
AcDbLine
 10
105.1573693502226
 20
1.0
 11
100.9746356032493
 21
0.99999999999999
  0
LINE
  5
3C
100
AcDbEntity
  8
0
  6
CONTINUOUS
 62
             7
100
AcDbLine
 10
105.5914897943898
 20
1.0
 11
105.1573693502226
 21
1.0
  0
LINE
  5
3B
100
AcDbEntity
  8
0
  6
CONTINUOUS
 62
             7
100
AcDbLine
 10
98.49999999999994
 20
1.0
 11
97.22062389378607
 21
1.0
  0
LINE
  5
3A
100
AcDbEntity
  8
0
  6
CONTINUOUS
 62
             7
100
AcDbLine
 10
97.22062389378607
 20
-16.0
 11
96.78650344961875
 21
-15.99999999999999
  0
LINE
  5
39
100
AcDbEntity
  8
0
  6
CONTINUOUS
 62
             7
100
AcDbLine
 10
101.99897048650691
 20
27.99999999999999
 11
102.85402084482109
 21
27.99999999999999
  0
LINE
  5
38
100
AcDbEntity
  8
0
  6
CONTINUOUS
 62
             7
100
AcDbLine
 10
107.5611053004143
 20
27.99999999999999
 11
107.5611053004143
 21
3.00000000000001
  0
LINE
  5
37
100
AcDbEntity
  8
0
  6
CONTINUOUS
 62
             7
100
AcDbLine
 10
107.12698485624701
 20
27.99999999999999
 11
107.5611053004143
 21
27.99999999999999
  0
LINE
  5
36
100
AcDbEntity
  8
0
  6
CONTINUOUS
 62
             7
100
AcDbLine
 10
101.99897048650691
 20
27.99999999999999
 11
99.17989262414915
 21
30.99999999999999
  0
LINE
  5
35
100
AcDbEntity
  8
0
  6
CONTINUOUS
 62
             7
100
AcDbLine
 10
100.7674720737253
 20
30.99999999999999
 11
104.1725615972103
 21
30.99999999999999
  0
LINE
  5
34
100
AcDbEntity
  8
0
  6
CONTINUOUS
 62
             7
100
AcDbLine
 10
100.7674720737253
 20
30.99999999999999
 11
100.03494298246331
 21
30.99999999999999
  0
LINE
  5
33
100
AcDbEntity
  8
0
  6
CONTINUOUS
 62
             7
100
AcDbLine
 10
100.7674720737253
 20
30.99999999999999
 11
100.7674720737253
 21
30.22045882338696
  0
LINE
  5
32
100
AcDbEntity
  8
0
  6
CONTINUOUS
 62
             7
100
AcDbLine
 10
102.85402084482109
 20
27.99999999999999
 11
100.03494298246331
 21
30.99999999999999
  0
LINE
  5
31
100
AcDbEntity
  8
0
  6
CONTINUOUS
 62
             7
100
AcDbLine
 10
95.93079401729176
 20
30.99999999999999
 11
99.17989262414915
 21
30.99999999999999
  0
LINE
  5
30
100
AcDbEntity
  8
0
  6
CONTINUOUS
 62
             7
100
AcDbLine
 10
100.03494298246331
 20
30.99999999999999
 11
99.17989262414915
 21
30.99999999999999
  0
LINE
  5
2F
100
AcDbEntity
  8
0
  6
CONTINUOUS
 62
             7
100
AcDbLine
 10
104.1725615972103
 20
30.99999999999999
 11
104.6066820413777
 21
30.99999999999999
  0
LINE
  5
2E
100
AcDbEntity
  8
0
  6
CONTINUOUS
 62
             7
100
AcDbLine
 10
107.5611053004143
 20
3.00000000000001
 11
107.12698485624701
 21
3.00000000000001
  0
LINE
  5
2D
100
AcDbEntity
  8
0
  6
CONTINUOUS
 62
             7
100
AcDbLine
 10
97.69615242270666
 20
-19.0
 11
98.49999999999994
 21
-16.0
  0
LINE
  5
2C
100
AcDbEntity
  8
0
  6
CONTINUOUS
 62
             7
100
AcDbLine
 10
96.42898856742755
 20
-19.0
 11
97.69615242270666
 21
-19.0
  0
LINE
  5
2B
100
AcDbEntity
  8
0
  6
CONTINUOUS
 62
             7
100
AcDbLine
 10
95.99486812326026
 20
-19.0
 11
96.78650344961875
 21
-15.99999999999999
  0
LINE
  5
2A
100
AcDbEntity
  8
1
  6
PHANTOM
 62
             2
100
AcDbLine
 10
0.0
 20
-25.79934783143185
 11
0.00000000000001
 21
36.69036434112949
  0
ENDBLK
  5
221
100
AcDbEntity
  8
0
100
AcDbBlockEnd
  0
BLOCK
  5
224
100
AcDbEntity
  8
0
100
AcDbBlockBegin
  2
*D1
 70
             1
 10
0.0
 20
0.0
 30
0.0
  3
*D1
  1

  0
LINE
  5
225
100
AcDbEntity
  8
0
  6
CONTINUOUS
 62
             4
100
AcDbLine
 10
-98.49999999999275
 20
-39.29986296532331
 11
98.49094948495255
 21
-39.29986296532331
  0
LINE
  5
226
100
AcDbEntity
  8
0
  6
CONTINUOUS
 62
             4
100
AcDbLine
 10
98.49094948495255
 20
-21.99999999999999
 11
98.49094948495255
 21
-41.29986296532331
  0
LINE
  5
227
100
AcDbEntity
  8
0
  6
CONTINUOUS
 62
             4
100
AcDbLine
 10
-98.49999999999275
 20
-21.99999999999999
 11
-98.49999999999275
 21
-41.29986296532331
  0
SOLID
  5
228
100
AcDbEntity
  8
0
 62
             4
100
AcDbTrace
 10
-91.49999999999275
 20
-38.37829548221153
 11
-91.49999999999275
 21
-40.22143044843508
 12
-98.49999999999275
 22
-39.29986296532331
 13
-98.49999999999275
 23
-39.29986296532331
  0
SOLID
  5
229
100
AcDbEntity
  8
0
 62
             4
100
AcDbTrace
 10
91.49094948495255
 20
-40.22143044843508
 11
91.49094948495255
 21
-38.37829548221153
 12
98.49094948495255
 22
-39.29986296532331
 13
98.49094948495255
 23
-39.29986296532331
  0
MTEXT
  5
22B
100
AcDbEntity
  8
0
 62
             1
100
AcDbMText
 10
-8.89002285586387
 20
-37.29987687947595
 30
0.0
 40
7.0
 41
0.0
 71
             7
 72
             1
  1
\C1;Ø\C1;197
  7
CONVERTER_1
 11
0.99999999999706
 21
0.00000242406841
 31
0.0
  0
ENDBLK
  5
22C
100
AcDbEntity
  8
0
100
AcDbBlockEnd
  0
BLOCK
  5
230
100
AcDbEntity
  8
0
100
AcDbBlockBegin
  2
*D2
 70
             1
 10
0.0
 20
0.0
 30
0.0
  3
*D2
  1

  0
LINE
  5
231
100
AcDbEntity
  8
0
  6
CONTINUOUS
 62
             4
100
AcDbLine
 10
-98.49999999999275
 20
44.00000000000001
 11
98.49094948495255
 21
44.00000000000001
  0
LINE
  5
232
100
AcDbEntity
  8
0
  6
CONTINUOUS
 62
             4
100
AcDbLine
 10
-98.49999999999275
 20
34.00000000000001
 11
-98.49999999999275
 21
46.00000000000001
  0
LINE
  5
233
100
AcDbEntity
  8
0
  6
CONTINUOUS
 62
             4
100
AcDbLine
 10
98.49094948495255
 20
34.00000000000001
 11
98.49094948495255
 21
46.00000000000001
  0
SOLID
  5
234
100
AcDbEntity
  8
0
 62
             4
100
AcDbTrace
 10
91.49094948495255
 20
43.07843251688824
 11
91.49094948495255
 21
44.92156748311178
 12
98.49094948495255
 22
44.00000000000001
 13
98.49094948495255
 23
44.00000000000001
  0
SOLID
  5
235
100
AcDbEntity
  8
0
 62
             4
100
AcDbTrace
 10
-91.49999999999275
 20
44.92156748311178
 11
-91.49999999999275
 21
43.07843251688824
 12
-98.49999999999275
 22
44.00000000000001
 13
-98.49999999999275
 23
44.00000000000001
  0
MTEXT
  5
236
100
AcDbEntity
  8
0
 62
             1
100
AcDbMText
 10
-8.89002285586387
 20
45.99998608584736
 30
0.0
 40
7.0
 41
0.0
 71
             7
 72
             1
  1
\C1;Ø\C1;197
  7
CONVERTER_1
 11
0.99999999999706
 21
0.00000242406841
 31
0.0
  0
ENDBLK
  5
237
100
AcDbEntity
  8
0
100
AcDbBlockEnd
  0
BLOCK
  5
23B
100
AcDbEntity
  8
0
100
AcDbBlockBegin
  2
*D3
 70
             1
 10
0.0
 20
0.0
 30
0.0
  3
*D3
  1

  0
LINE
  5
23C
100
AcDbEntity
  8
0
  6
CONTINUOUS
 62
             4
100
AcDbLine
 10
123.68791236500191
 20
0.99999999999998
 11
123.68791236500191
 21
30.99999999999999
  0
LINE
  5
23D
100
AcDbEntity
  8
0
  6
CONTINUOUS
 62
             4
100
AcDbLine
 10
104.1725615972103
 20
30.99999999999999
 11
125.68791236500191
 21
30.99999999999999
  0
LINE
  5
23E
100
AcDbEntity
  8
0
  6
CONTINUOUS
 62
             4
100
AcDbLine
 10
100.9746356032493
 20
0.99999999999998
 11
125.68791236500191
 21
0.99999999999998
  0
SOLID
  5
23F
100
AcDbEntity
  8
0
 62
             4
100
AcDbTrace
 10
124.60947984811368
 20
23.99999999999999
 11
122.76634488189013
 21
23.99999999999999
 12
123.68791236500191
 22
30.99999999999999
 13
123.68791236500191
 23
30.99999999999999
  0
SOLID
  5
240
100
AcDbEntity
  8
0
 62
             4
100
AcDbTrace
 10
122.76634488189013
 20
7.99999999999998
 11
124.60947984811368
 21
7.99999999999998
 12
123.68791236500191
 22
0.99999999999998
 13
123.68791236500191
 23
0.99999999999998
  0
MTEXT
  5
241
100
AcDbEntity
  8
0
 62
             1
100
AcDbMText
 10
121.68791236500191
 20
10.41016956718242
 30
0.0
 40
7.0
 41
0.0
 71
             7
 72
             1
  1
30
  7
CONVERTER_1
 11
0.0
 21
1.0
 31
0.0
  0
ENDBLK
  5
242
100
AcDbEntity
  8
0
100
AcDbBlockEnd
  0
BLOCK
  5
246
100
AcDbEntity
  8
0
100
AcDbBlockBegin
  2
*D4
 70
             1
 10
0.0
 20
0.0
 30
0.0
  3
*D4
  1

  0
LINE
  5
247
100
AcDbEntity
  8
0
  6
CONTINUOUS
 62
             4
100
AcDbLine
 10
139.57551883311689
 20
-19.0
 11
139.57551883311689
 21
30.99999999999999
  0
LINE
  5
248
100
AcDbEntity
  8
0
  6
CONTINUOUS
 62
             4
100
AcDbLine
 10
104.1725615972103
 20
30.99999999999999
 11
141.57551883311689
 21
30.99999999999999
  0
LINE
  5
249
100
AcDbEntity
  8
0
  6
CONTINUOUS
 62
             4
100
AcDbLine
 10
95.99486812326026
 20
-19.0
 11
141.57551883311689
 21
-19.0
  0
SOLID
  5
24A
100
AcDbEntity
  8
0
 62
             4
100
AcDbTrace
 10
140.49708631622866
 20
23.99999999999999
 11
138.65395135000512
 21
23.99999999999999
 12
139.57551883311689
 22
30.99999999999999
 13
139.57551883311689
 23
30.99999999999999
  0
SOLID
  5
24B
100
AcDbEntity
  8
0
 62
             4
100
AcDbTrace
 10
138.65395135000512
 20
-12.0
 11
140.49708631622866
 21
-12.0
 12
139.57551883311689
 22
-19.0
 13
139.57551883311689
 23
-19.0
  0
MTEXT
  5
24C
100
AcDbEntity
  8
0
 62
             1
100
AcDbMText
 10
137.57551883311689
 20
2.42160652159931
 30
0.0
 40
7.0
 41
0.0
 71
             7
 72
             1
  1
50
  7
CONVERTER_1
 11
0.0
 21
1.0
 31
0.0
  0
ENDBLK
  5
24D
100
AcDbEntity
  8
0
100
AcDbBlockEnd
  0
ENDSEC
  0
SECTION
  2
ENTITIES
  0
DIMENSION
  5
24F
100
AcDbEntity
  8
1
100
AcDbDimension
  2
*D4
 10
139.57551883311689
 20
30.99999999999999
 11
134.07551883311689
 21
7.67160652159931
 31
0.0
 53
-89.99999999999984
  1
<>
  3
ME10_DIM_3
100
AcDbAlignedDimension
 13
95.99486812326026
 23
-19.0
 14
104.1725615972103
 24
30.99999999999999
 50
-89.99999999999984
100
AcDbRotatedDimension
  0
DIMENSION
  5
244
100
AcDbEntity
  8
1
100
AcDbDimension
  2
*D3
 10
123.68791236500191
 20
30.99999999999999
 11
118.18791236500191
 21
15.66016956718242
 31
0.0
 53
-89.99999999999984
  1
<>
  3
ME10_DIM_2
100
AcDbAlignedDimension
 13
100.9746356032493
 23
0.99999999999999
 14
104.1725615972103
 24
30.99999999999999
 50
-89.99999999999984
100
AcDbRotatedDimension
  0
DIMENSION
  5
239
100
AcDbEntity
  8
1
100
AcDbDimension
  2
*D2
 10
98.49094948495255
 20
44.00000000000001
 11
-0.00002285588073
 21
49.50000000000001
 31
0.0
 53
0.00013888888889
  1
<>
  3
ME10_DIM_1
100
AcDbAlignedDimension
 13
-98.49999999999275
 23
34.00000000000001
 14
98.49094948495255
 24
34.00000000000001
100
AcDbRotatedDimension
  0
DIMENSION
  5
22E
100
AcDbEntity
  8
1
100
AcDbDimension
  2
*D1
 10
-98.49999999999275
 20
-39.29986296532331
 11
-0.00002285588073
 21
-33.79986296532331
 31
0.0
 53
0.00013888888889
  1
<>
  3
ME10_DIM_0
100
AcDbAlignedDimension
 13
98.49094948495255
 23
-21.99999999999999
 14
-98.49999999999275
 24
-21.99999999999999
100
AcDbRotatedDimension
  0
INSERT
  5
29
100
AcDbEntity
  8
0
100
AcDbBlockReference
  2
HL_190_ENTW_SSERUNGSRIG__1
 10
-109.0
 20
-20.0
  0
ENDSEC
  0
SECTION
  2
OBJECTS
  0
DICTIONARY
  5
19
100
AcDbDictionary
  3
ACAD_GROUP
350
1A
  3
ACAD_MLINESTYLE
350
1B
  0
DICTIONARY
  5
1A
102
{ACAD_REACTORS
330
19
102
}
100
AcDbDictionary
  0
DICTIONARY
  5
1B
102
{ACAD_REACTORS
330
19
102
}
100
AcDbDictionary
  3
STANDARD
350
1C
  0
MLINESTYLE
  5
1C
102
{ACAD_REACTORS
330
1B
102
}
100
AcDbMlineStyle
  2
STANDARD
 70
             0
  3

 62
             0
 51
90.0
 52
90.0
 71
             2
 49
0.5
 62
           256
  6
BYLAYER
 49
-0.5
 62
           256
  6
BYLAYER
  0
ENDSEC
  0
EOF
