  0
SECTION
  2
HEADER
  9
$ACADVER
  1
AC1015
  9
$ACADMAINTVER
 70
     6
  9
$DWGCODEPAGE
  3
ANSI_1252
  9
$INSBASE
 10
0.0
 20
0.0
 30
0.0
  9
$EXTMIN
 10
-173.593395230422
 20
443.936641824378
 30
0.0
  9
$EXTMAX
 10
-30.3675220228784
 20
581.139285716161
 30
0.0
  9
$LIMMIN
 10
0.0
 20
0.0
  9
$LIMMAX
 10
12.0
 20
9.0
  9
$ORTHOMODE
 70
     0
  9
$REGENMODE
 70
     1
  9
$FILLMODE
 70
     1
  9
$QTEXTMODE
 70
     0
  9
$MIRRTEXT
 70
     1
  9
$LTSCALE
 40
1.0
  9
$ATTMODE
 70
     1
  9
$TEXTSIZE
 40
0.2
  9
$TRACEWID
 40
0.05
  9
$TEXTSTYLE
  7
Standard
  9
$CLAYER
  8
0
  9
$CELTYPE
  6
ByLayer
  9
$CECOLOR
 62
   256
  9
$CELTSCALE
 40
1.0
  9
$DISPSILH
 70
     0
  9
$DIMSCALE
 40
1.0
  9
$DIMASZ
 40
0.18
  9
$DIMEXO
 40
0.0625
  9
$DIMDLI
 40
0.38
  9
$DIMRND
 40
0.0
  9
$DIMDLE
 40
0.0
  9
$DIMEXE
 40
0.18
  9
$DIMTP
 40
0.0
  9
$DIMTM
 40
0.0
  9
$DIMTXT
 40
0.18
  9
$DIMCEN
 40
0.09
  9
$DIMTSZ
 40
0.0
  9
$DIMTOL
 70
     0
  9
$DIMLIM
 70
     0
  9
$DIMTIH
 70
     1
  9
$DIMTOH
 70
     1
  9
$DIMSE1
 70
     0
  9
$DIMSE2
 70
     0
  9
$DIMTAD
 70
     0
  9
$DIMZIN
 70
     0
  9
$DIMBLK
  1

  9
$DIMASO
 70
     1
  9
$DIMSHO
 70
     1
  9
$DIMPOST
  1

  9
$DIMAPOST
  1

  9
$DIMALT
 70
     0
  9
$DIMALTD
 70
     2
  9
$DIMALTF
 40
25.4
  9
$DIMLFAC
 40
1.0
  9
$DIMTOFL
 70
     0
  9
$DIMTVP
 40
0.0
  9
$DIMTIX
 70
     0
  9
$DIMSOXD
 70
     0
  9
$DIMSAH
 70
     0
  9
$DIMBLK1
  1

  9
$DIMBLK2
  1

  9
$DIMSTYLE
  2
Standard
  9
$DIMCLRD
 70
     0
  9
$DIMCLRE
 70
     0
  9
$DIMCLRT
 70
     0
  9
$DIMTFAC
 40
1.0
  9
$DIMGAP
 40
0.09
  9
$DIMJUST
 70
     0
  9
$DIMSD1
 70
     0
  9
$DIMSD2
 70
     0
  9
$DIMTOLJ
 70
     1
  9
$DIMTZIN
 70
     0
  9
$DIMALTZ
 70
     0
  9
$DIMALTTZ
 70
     0
  9
$DIMUPT
 70
     0
  9
$DIMDEC
 70
     4
  9
$DIMTDEC
 70
     4
  9
$DIMALTU
 70
     2
  9
$DIMALTTD
 70
     2
  9
$DIMTXSTY
  7
Standard
  9
$DIMAUNIT
 70
     0
  9
$DIMADEC
 70
     0
  9
$DIMALTRND
 40
0.0
  9
$DIMAZIN
 70
     0
  9
$DIMDSEP
 70
    46
  9
$DIMATFIT
 70
     3
  9
$DIMFRAC
 70
     0
  9
$DIMLDRBLK
  1

  9
$DIMLUNIT
 70
     2
  9
$DIMLWD
 70
    -2
  9
$DIMLWE
 70
    -2
  9
$DIMTMOVE
 70
     0
  9
$LUNITS
 70
     2
  9
$LUPREC
 70
     4
  9
$SKETCHINC
 40
0.1
  9
$FILLETRAD
 40
0.5
  9
$AUNITS
 70
     0
  9
$AUPREC
 70
     0
  9
$MENU
  1
.
  9
$ELEVATION
 40
0.0
  9
$PELEVATION
 40
0.0
  9
$THICKNESS
 40
0.0
  9
$LIMCHECK
 70
     0
  9
$CHAMFERA
 40
0.5
  9
$CHAMFERB
 40
0.5
  9
$CHAMFERC
 40
1.0
  9
$CHAMFERD
 40
0.0
  9
$SKPOLY
 70
     0
  9
$TDCREATE
 40
2456967.403342407
  9
$TDUCREATE
 40
2456967.361675741
  9
$TDUPDATE
 40
2456967.403342593
  9
$TDUUPDATE
 40
2456967.361675926
  9
$TDINDWG
 40
0.0000000116
  9
$TDUSRTIMER
 40
0.0000000116
  9
$USRTIMER
 70
     1
  9
$ANGBASE
 50
0.0
  9
$ANGDIR
 70
     0
  9
$PDMODE
 70
     0
  9
$PDSIZE
 40
0.0
  9
$PLINEWID
 40
0.0
  9
$SPLFRAME
 70
     0
  9
$SPLINETYPE
 70
     6
  9
$SPLINESEGS
 70
     8
  9
$HANDSEED
  5
210
  9
$SURFTAB1
 70
     6
  9
$SURFTAB2
 70
     6
  9
$SURFTYPE
 70
     6
  9
$SURFU
 70
     6
  9
$SURFV
 70
     6
  9
$UCSBASE
  2

  9
$UCSNAME
  2

  9
$UCSORG
 10
0.0
 20
0.0
 30
0.0
  9
$UCSXDIR
 10
1.0
 20
0.0
 30
0.0
  9
$UCSYDIR
 10
0.0
 20
1.0
 30
0.0
  9
$UCSORTHOREF
  2

  9
$UCSORTHOVIEW
 70
     0
  9
$UCSORGTOP
 10
0.0
 20
0.0
 30
0.0
  9
$UCSORGBOTTOM
 10
0.0
 20
0.0
 30
0.0
  9
$UCSORGLEFT
 10
0.0
 20
0.0
 30
0.0
  9
$UCSORGRIGHT
 10
0.0
 20
0.0
 30
0.0
  9
$UCSORGFRONT
 10
0.0
 20
0.0
 30
0.0
  9
$UCSORGBACK
 10
0.0
 20
0.0
 30
0.0
  9
$PUCSBASE
  2

  9
$PUCSNAME
  2

  9
$PUCSORG
 10
0.0
 20
0.0
 30
0.0
  9
$PUCSXDIR
 10
1.0
 20
0.0
 30
0.0
  9
$PUCSYDIR
 10
0.0
 20
1.0
 30
0.0
  9
$PUCSORTHOREF
  2

  9
$PUCSORTHOVIEW
 70
     0
  9
$PUCSORGTOP
 10
0.0
 20
0.0
 30
0.0
  9
$PUCSORGBOTTOM
 10
0.0
 20
0.0
 30
0.0
  9
$PUCSORGLEFT
 10
0.0
 20
0.0
 30
0.0
  9
$PUCSORGRIGHT
 10
0.0
 20
0.0
 30
0.0
  9
$PUCSORGFRONT
 10
0.0
 20
0.0
 30
0.0
  9
$PUCSORGBACK
 10
0.0
 20
0.0
 30
0.0
  9
$USERI1
 70
     0
  9
$USERI2
 70
     0
  9
$USERI3
 70
     0
  9
$USERI4
 70
     0
  9
$USERI5
 70
     0
  9
$USERR1
 40
18.1
  9
$USERR2
 40
0.0
  9
$USERR3
 40
0.0
  9
$USERR4
 40
0.0
  9
$USERR5
 40
0.0
  9
$WORLDVIEW
 70
     1
  9
$SHADEDGE
 70
     3
  9
$SHADEDIF
 70
    70
  9
$TILEMODE
 70
     1
  9
$MAXACTVP
 70
    64
  9
$PINSBASE
 10
0.0
 20
0.0
 30
0.0
  9
$PLIMCHECK
 70
     0
  9
$PEXTMIN
 10
1.00000000000000E+20
 20
1.00000000000000E+20
 30
1.00000000000000E+20
  9
$PEXTMAX
 10
-1.00000000000000E+20
 20
-1.00000000000000E+20
 30
-1.00000000000000E+20
  9
$PLIMMIN
 10
0.0
 20
0.0
  9
$PLIMMAX
 10
12.0
 20
9.0
  9
$UNITMODE
 70
     0
  9
$VISRETAIN
 70
     1
  9
$PLINEGEN
 70
     0
  9
$PSLTSCALE
 70
     1
  9
$TREEDEPTH
 70
  3020
  9
$CMLSTYLE
  2
Standard
  9
$CMLJUST
 70
     0
  9
$CMLSCALE
 40
1.0
  9
$PROXYGRAPHICS
 70
     1
  9
$MEASUREMENT
 70
     1
  9
$CELWEIGHT
370
    -1
  9
$ENDCAPS
280
     0
  9
$JOINSTYLE
280
     0
  9
$LWDISPLAY
290
     0
  9
$INSUNITS
 70
     1
  9
$HYPERLINKBASE
  1

  9
$STYLESHEET
  1

  9
$XEDIT
290
     1
  9
$CEPSNTYPE
380
     0
  9
$PSTYLEMODE
290
     1
  9
$FINGERPRINTGUID
  2
{7134A275-AAB8-46E3-BF75-A54AE392ED85}
  9
$VERSIONGUID
  2
{FAEB1C32-E019-11D5-929B-00C0DF256EC4}
  9
$EXTNAMES
290
     1
  9
$PSVPSCALE
 40
0.0
  9
$OLESTARTUP
290
     0
  0
ENDSEC
  0
SECTION
  2
CLASSES
  0
CLASS
  1
ACDBDICTIONARYWDFLT
  2
AcDbDictionaryWithDefault
  3
ObjectDBX Classes
 90
        0
280
     0
281
     0
  0
CLASS
  1
VISUALSTYLE
  2
AcDbVisualStyle
  3
ObjectDBX Classes
 90
     4095
280
     0
281
     0
  0
CLASS
  1
MATERIAL
  2
AcDbMaterial
  3
ObjectDBX Classes
 90
     1153
280
     0
281
     0
  0
CLASS
  1
DICTIONARYVAR
  2
AcDbDictionaryVar
  3
ObjectDBX Classes
 90
        0
280
     0
281
     0
  0
CLASS
  1
ACDBPLACEHOLDER
  2
AcDbPlaceHolder
  3
ObjectDBX Classes
 90
        0
280
     0
281
     0
  0
CLASS
  1
LAYOUT
  2
AcDbLayout
  3
ObjectDBX Classes
 90
        0
280
     0
281
     0
  0
ENDSEC
  0
SECTION
  2
TABLES
  0
TABLE
  2
VPORT
  5
8
330
0
100
AcDbSymbolTable
 70
     1
  0
VPORT
  5
29
330
8
100
AcDbSymbolTableRecord
100
AcDbViewportTableRecord
  2
*Active
 70
     0
 10
0.0
 20
0.0
 11
1.0
 21
1.0
 12
-101.9804586266502
 22
512.5379637702695
 13
0.0
 23
0.0
 14
0.5
 24
0.5
 15
0.5
 25
0.5
 16
0.0
 26
0.0
 36
1.0
 17
0.0
 27
0.0
 37
0.0
 40
150.9229082809613
 41
1.60267857142857
 42
50.0
 43
0.0
 44
0.0
 50
0.0
 51
0.0
 71
     0
 72
   100
 73
     1
 74
     3
 75
     0
 76
     0
 77
     0
 78
     0
281
     0
 65
     1
110
0.0
120
0.0
130
0.0
111
1.0
121
0.0
131
0.0
112
0.0
122
1.0
132
0.0
 79
     0
146
0.0
  0
ENDTAB
  0
TABLE
  2
LTYPE
  5
5
330
0
100
AcDbSymbolTable
 70
     8
  0
LTYPE
  5
14
330
5
100
AcDbSymbolTableRecord
100
AcDbLinetypeTableRecord
  2
ByBlock
 70
     0
  3

 72
    65
 73
     0
 40
0.0
  0
LTYPE
  5
15
330
5
100
AcDbSymbolTableRecord
100
AcDbLinetypeTableRecord
  2
ByLayer
 70
     0
  3

 72
    65
 73
     0
 40
0.0
  0
LTYPE
  5
16
330
5
100
AcDbSymbolTableRecord
100
AcDbLinetypeTableRecord
  2
Continuous
 70
     0
  3
Solid line
 72
    65
 73
     0
 40
0.0
  0
LTYPE
  5
3F
330
5
100
AcDbSymbolTableRecord
100
AcDbLinetypeTableRecord
  2
DASHED
 70
     0
  3
Dashed
 72
    65
 73
     2
 40
15.0
 49
7.0
 74
     0
 49
-8.0
 74
     0
  0
LTYPE
  5
40
330
5
100
AcDbSymbolTableRecord
100
AcDbLinetypeTableRecord
  2
DOTTED
 70
     0
  3
Dotted
 72
    65
 73
     2
 40
1.0
 49
0.0
 74
     0
 49
-1.0
 74
     0
  0
LTYPE
  5
41
330
5
100
AcDbSymbolTableRecord
100
AcDbLinetypeTableRecord
  2
DOT_CENTER
 70
     0
  3
Dot_Center
 72
    65
 73
     4
 40
14.0
 49
12.0
 74
     0
 49
-1.0
 74
     0
 49
0.0
 74
     0
 49
-1.0
 74
     0
  0
LTYPE
  5
42
330
5
100
AcDbSymbolTableRecord
100
AcDbLinetypeTableRecord
  2
LONG_DASHED
 70
     0
  3
Long_Dashed
 72
    65
 73
     2
 40
15.0
 49
10.0
 74
     0
 49
-5.0
 74
     0
  0
LTYPE
  5
43
330
5
100
AcDbSymbolTableRecord
100
AcDbLinetypeTableRecord
  2
DASH_CENTER
 70
     0
  3
Dash_Center
 72
    65
 73
     4
 40
14.0
 49
11.0
 74
     0
 49
-1.0
 74
     0
 49
1.0
 74
     0
 49
-1.0
 74
     0
  0
LTYPE
  5
44
330
5
100
AcDbSymbolTableRecord
100
AcDbLinetypeTableRecord
  2
PHANTOM
 70
     0
  3
Phantom
 72
    65
 73
     6
 40
13.0
 49
10.0
 74
     0
 49
-1.0
 74
     0
 49
0.0
 74
     0
 49
-1.0
 74
     0
 49
0.0
 74
     0
 49
-1.0
 74
     0
  0
LTYPE
  5
45
330
5
100
AcDbSymbolTableRecord
100
AcDbLinetypeTableRecord
  2
CENTER_DASH_DASH
 70
     0
  3
Center_Dash_Dash
 72
    65
 73
     6
 40
14.0
 49
9.0
 74
     0
 49
-1.0
 74
     0
 49
1.0
 74
     0
 49
-1.0
 74
     0
 49
1.0
 74
     0
 49
-1.0
 74
     0
  0
ENDTAB
  0
TABLE
  2
LAYER
  5
2
330
0
100
AcDbSymbolTable
 70
     2
  0
LAYER
  5
10
330
2
100
AcDbSymbolTableRecord
100
AcDbLayerTableRecord
  2
0
 70
     0
 62
     7
  6
Continuous
370
    -3
390
F
  0
LAYER
  5
46
330
2
100
AcDbSymbolTableRecord
100
AcDbLayerTableRecord
  2
1
 70
     0
 62
     7
  6
Continuous
370
    -3
390
F
  0
ENDTAB
  0
TABLE
  2
STYLE
  5
3
330
0
100
AcDbSymbolTable
 70
     2
  0
STYLE
  5
11
330
3
100
AcDbSymbolTableRecord
100
AcDbTextStyleTableRecord
  2
Standard
 70
     0
 40
0.0
 41
1.0
 50
0.0
 71
     0
 42
0.2
  3
txt
  4

  0
STYLE
  5
1B5
330
3
100
AcDbSymbolTableRecord
100
AcDbTextStyleTableRecord
  2
CONVERTER_11
 70
     0
 40
0.0
 41
0.9
 50
0.0
 71
     0
 42
0.2
  3
txt.shx
  4

  0
ENDTAB
  0
TABLE
  2
VIEW
  5
6
330
0
100
AcDbSymbolTable
 70
     0
  0
ENDTAB
  0
TABLE
  2
UCS
  5
7
330
0
100
AcDbSymbolTable
 70
     0
  0
ENDTAB
  0
TABLE
  2
APPID
  5
9
330
0
100
AcDbSymbolTable
 70
     1
  0
APPID
  5
12
330
9
100
AcDbSymbolTableRecord
100
AcDbRegAppTableRecord
  2
ACAD
 70
     0
  0
ENDTAB
  0
TABLE
  2
DIMSTYLE
  5
A
330
0
100
AcDbSymbolTable
 70
     5
100
AcDbDimStyleTable
  0
DIMSTYLE
105
27
330
A
100
AcDbSymbolTableRecord
100
AcDbDimStyleTableRecord
  2
Standard
 70
     0
178
     0
340
11
  0
DIMSTYLE
105
1C2
102
{ACAD_REACTORS
330
1C3
102
}
330
A
100
AcDbSymbolTableRecord
100
AcDbDimStyleTableRecord
  2
ME10_DIM_10
 70
     0
 41
7.0
 42
0.0
 44
2.0
 73
     0
 74
     0
 77
     1
 78
     8
140
7.0
147
4.0
172
     1
173
     1
174
     1
175
     1
176
     4
177
     4
271
     2
178
     1
271
     2
340
1B5
  0
DIMSTYLE
105
1CD
102
{ACAD_REACTORS
330
1CE
102
}
330
A
100
AcDbSymbolTableRecord
100
AcDbDimStyleTableRecord
  2
ME10_DIM_11
 70
     0
 41
7.0
 42
0.0
 44
2.0
 73
     0
 74
     0
 77
     1
 78
     8
140
7.0
147
4.0
172
     1
173
     1
174
     1
175
     1
176
     4
177
     4
271
     2
178
     1
271
     2
340
1B5
  0
DIMSTYLE
105
1D8
102
{ACAD_REACTORS
330
1D9
102
}
330
A
100
AcDbSymbolTableRecord
100
AcDbDimStyleTableRecord
  2
ME10_DIM_12
 70
     0
  3
DN<>
 41
7.0
 42
0.0
 44
2.0
 73
     0
 74
     0
 77
     1
 78
     8
140
7.0
147
4.0
172
     1
173
     1
174
     1
175
     1
176
     4
177
     4
271
     2
178
     1
271
     2
340
1B5
  0
DIMSTYLE
105
1E3
102
{ACAD_REACTORS
330
1E4
102
}
330
A
100
AcDbSymbolTableRecord
100
AcDbDimStyleTableRecord
  2
ME10_DIM_13
 70
     0
 41
7.0
 42
0.0
 44
2.0
 73
     0
 74
     0
 77
     1
 78
     8
140
7.0
147
4.0
172
     1
173
     1
174
     1
175
     1
176
     4
177
     4
271
     2
178
     1
271
     2
340
1B5
  0
ENDTAB
  0
TABLE
  2
BLOCK_RECORD
  5
1
330
0
100
AcDbSymbolTable
 70
    15
  0
BLOCK_RECORD
  5
1F
330
1
100
AcDbSymbolTableRecord
100
AcDbBlockTableRecord
  2
*Model_Space
340
22
  0
BLOCK_RECORD
  5
1B
330
1
100
AcDbSymbolTableRecord
100
AcDbBlockTableRecord
  2
*Paper_Space
340
1E
  0
BLOCK_RECORD
  5
23
330
1
100
AcDbSymbolTableRecord
100
AcDbBlockTableRecord
  2
*Paper_Space0
340
26
  0
BLOCK_RECORD
  5
47
330
1
100
AcDbSymbolTableRecord
100
AcDbBlockTableRecord
  2
Dichtstopfen
340
0
102
{BLKREFS
331
51
102
}
  0
BLOCK_RECORD
  5
4A
330
1
100
AcDbSymbolTableRecord
100
AcDbBlockTableRecord
  2
HL19-Anschlussknie-10003
340
0
102
{BLKREFS
331
52
102
}
  0
BLOCK_RECORD
  5
4D
330
1
100
AcDbSymbolTableRecord
100
AcDbBlockTableRecord
  2
Holländermutter_1
340
0
102
{BLKREFS
331
53
102
}
  0
BLOCK_RECORD
  5
50
330
1
100
AcDbSymbolTableRecord
100
AcDbBlockTableRecord
  2
HL19
340
0
102
{BLKREFS
331
66
102
}
  0
BLOCK_RECORD
  5
56
330
1
100
AcDbSymbolTableRecord
100
AcDbBlockTableRecord
  2
Holländer6_4-01047D_1_1
340
0
102
{BLKREFS
331
60
102
}
  0
BLOCK_RECORD
  5
59
330
1
100
AcDbSymbolTableRecord
100
AcDbBlockTableRecord
  2
HL0902_2E-T-Stück
340
0
102
{BLKREFS
331
61
102
}
  0
BLOCK_RECORD
  5
5C
330
1
100
AcDbSymbolTableRecord
100
AcDbBlockTableRecord
  2
Holländer6_4-01047D_1
340
0
102
{BLKREFS
331
62
102
}
  0
BLOCK_RECORD
  5
5F
330
1
100
AcDbSymbolTableRecord
100
AcDbBlockTableRecord
  2
HL0902_2E
340
0
102
{BLKREFS
331
67
102
}
  0
BLOCK_RECORD
  5
65
330
1
100
AcDbSymbolTableRecord
100
AcDbBlockTableRecord
  2
HL19T-40-WEB-Zeichnung
340
0
102
{BLKREFS
331
6B
102
}
  0
BLOCK_RECORD
  5
6A
330
1
100
AcDbSymbolTableRecord
100
AcDbBlockTableRecord
  2
Vordans1
340
0
102
{BLKREFS
331
6E
102
}
  0
BLOCK_RECORD
  5
1B7
330
1
100
AcDbSymbolTableRecord
100
AcDbBlockTableRecord
  2
*D11
340
0
  0
BLOCK_RECORD
  5
1C4
330
1
100
AcDbSymbolTableRecord
100
AcDbBlockTableRecord
  2
*D12
340
0
  0
BLOCK_RECORD
  5
1CF
330
1
100
AcDbSymbolTableRecord
100
AcDbBlockTableRecord
  2
*D13
340
0
  0
BLOCK_RECORD
  5
1DA
330
1
100
AcDbSymbolTableRecord
100
AcDbBlockTableRecord
  2
*D14
340
0
  0
ENDTAB
  0
ENDSEC
  0
SECTION
  2
BLOCKS
  0
BLOCK
  5
20
330
1F
100
AcDbEntity
  8
0
100
AcDbBlockBegin
  2
*Model_Space
 70
     0
 10
0.0
 20
0.0
 30
0.0
  3
*Model_Space
  1

  0
ENDBLK
  5
21
330
1F
100
AcDbEntity
  8
0
100
AcDbBlockEnd
  0
BLOCK
  5
1C
330
1B
100
AcDbEntity
 67
     1
  8
0
100
AcDbBlockBegin
  2
*Paper_Space
 70
     0
 10
0.0
 20
0.0
 30
0.0
  3
*Paper_Space
  1

  0
ENDBLK
  5
1D
330
1B
100
AcDbEntity
 67
     1
  8
0
100
AcDbBlockEnd
  0
BLOCK
  5
24
330
23
100
AcDbEntity
  8
0
100
AcDbBlockBegin
  2
*Paper_Space0
 70
     0
 10
0.0
 20
0.0
 30
0.0
  3
*Paper_Space0
  1

  0
ENDBLK
  5
25
330
23
100
AcDbEntity
  8
0
100
AcDbBlockEnd
  0
BLOCK
  5
48
330
47
100
AcDbEntity
  8
0
100
AcDbBlockBegin
  2
Dichtstopfen
 70
     0
 10
-153.0834940318523
 20
549.1250000018754
 30
0.0
  3
Dichtstopfen
  1

  0
LINE
  5
6F
330
47
100
AcDbEntity
  8
0
  6
Continuous
 62
     7
100
AcDbLine
 10
-153.0834940318523
 20
549.1250000018754
 30
0.0
 11
-151.7834940318523
 21
549.1250000018754
 31
0.0
  0
LINE
  5
70
330
47
100
AcDbEntity
  8
0
  6
Continuous
 62
     7
100
AcDbLine
 10
-151.7834940318523
 20
566.1250000018754
 30
0.0
 11
-151.7834940318523
 21
551.1250000018754
 31
0.0
  0
LINE
  5
71
330
47
100
AcDbEntity
  8
0
  6
Continuous
 62
     7
100
AcDbLine
 10
-151.7834940318523
 20
567.139285716161
 30
0.0
 11
-151.7834940318523
 21
566.1250000018754
 31
0.0
  0
LINE
  5
72
330
47
100
AcDbEntity
  8
0
  6
Continuous
 62
     7
100
AcDbLine
 10
-151.7834940318523
 20
551.1250000018754
 30
0.0
 11
-151.7834940318523
 21
550.1107142875896
 31
0.0
  0
LINE
  5
73
330
47
100
AcDbEntity
  8
0
  6
Continuous
 62
     7
100
AcDbLine
 10
-151.7834940318523
 20
550.1107142875896
 30
0.0
 11
-151.7834940318523
 21
549.1250000018754
 31
0.0
  0
LINE
  5
74
330
47
100
AcDbEntity
  8
0
  6
Continuous
 62
     7
100
AcDbLine
 10
-151.7834940318523
 20
570.6250000018754
 30
0.0
 11
-151.7834940318523
 21
567.139285716161
 31
0.0
  0
LINE
  5
75
330
47
100
AcDbEntity
  8
0
  6
Continuous
 62
     7
100
AcDbLine
 10
-153.0834940318523
 20
570.6250000018754
 30
0.0
 11
-151.7834940318523
 21
570.6250000018754
 31
0.0
  0
LINE
  5
76
330
47
100
AcDbEntity
  8
0
  6
Continuous
 62
     7
100
AcDbLine
 10
-153.0834940318523
 20
570.6250000018754
 30
0.0
 11
-153.0834940318523
 21
549.1250000018754
 31
0.0
  0
ENDBLK
  5
49
330
47
100
AcDbEntity
  8
0
100
AcDbBlockEnd
  0
BLOCK
  5
4B
330
4A
100
AcDbEntity
  8
0
100
AcDbBlockBegin
  2
HL19-Anschlussknie-10003
 70
     0
 10
-151.7834940318523
 20
531.525000001875
 30
0.0
  3
HL19-Anschlussknie-10003
  1

  0
LINE
  5
77
330
4A
100
AcDbEntity
  8
1
  6
DOT_CENTER
 62
     2
100
AcDbLine
 10
-151.7834940318519
 20
558.6250000018756
 30
0.0
 11
-117.9834940318524
 21
558.6250000018753
 31
0.0
  0
LINE
  5
78
330
4A
100
AcDbEntity
  8
1
  6
DOT_CENTER
 62
     2
100
AcDbLine
 10
-94.48349403185239
 20
549.1250000018752
 30
0.0
 11
-94.48349403185239
 21
536.025000001875
 31
0.0
  0
LINE
  5
79
330
4A
100
AcDbEntity
  8
1
  6
DOT_CENTER
 62
     2
100
AcDbLine
 10
-101.9834940318519
 20
558.6250000018754
 30
0.0
 11
-151.7834940318519
 21
558.6250000018756
 31
0.0
  0
LINE
  5
7A
330
4A
100
AcDbEntity
  8
0
  6
Continuous
 62
     7
100
AcDbLine
 10
-96.12848992145942
 20
531.525000001875
 30
0.0
 11
-89.16477413854585
 21
531.525000001875
 31
0.0
  0
LINE
  5
7B
330
4A
100
AcDbEntity
  8
0
  6
Continuous
 62
     7
100
AcDbLine
 10
-86.744942482628
 20
531.525000001875
 30
0.0
 11
-83.89572602358663
 21
531.525000001875
 31
0.0
  0
LINE
  5
7C
330
4A
100
AcDbEntity
  8
0
  6
Continuous
 62
     7
100
AcDbLine
 10
-83.89572602358663
 20
531.525000001875
 30
0.0
 11
-81.07008885304651
 21
531.525000001875
 31
0.0
  0
LINE
  5
7D
330
4A
100
AcDbEntity
  8
0
  6
Continuous
 62
     7
100
AcDbLine
 10
-99.80221392515892
 20
531.525000001875
 30
0.0
 11
-98.68460612422393
 21
531.525000001875
 31
0.0
  0
LINE
  5
7E
330
4A
100
AcDbEntity
  8
0
  6
Continuous
 62
     3
100
AcDbLine
 10
-103.9834940318523
 20
549.1250000018752
 30
0.0
 11
-85.04991042177835
 21
549.1250000018752
 31
0.0
  0
LINE
  5
7F
330
4A
100
AcDbEntity
  8
0
  6
Continuous
 62
     7
100
AcDbLine
 10
-124.9834940318523
 20
549.1250000018753
 30
0.0
 11
-117.9834940318523
 21
546.8750000018753
 31
0.0
  0
LINE
  5
80
330
4A
100
AcDbEntity
  8
0
  6
Continuous
 62
     7
100
AcDbLine
 10
-124.9834940318523
 20
568.1250000018753
 30
0.0
 11
-117.9834940318523
 21
570.3750000018753
 31
0.0
  0
LINE
  5
81
330
4A
100
AcDbEntity
  8
0
  6
Continuous
 62
     7
100
AcDbLine
 10
-109.2834940318523
 20
531.5250000018751
 30
0.0
 11
-107.8968992106582
 21
531.525000001875
 31
0.0
  0
LINE
  5
82
330
4A
100
AcDbEntity
  8
0
  6
Continuous
 62
     7
100
AcDbLine
 10
-107.8968992106582
 20
531.525000001875
 30
0.0
 11
-107.0787535174385
 21
531.525000001875
 31
0.0
  0
LINE
  5
83
330
4A
100
AcDbEntity
  8
0
  6
Continuous
 62
     7
100
AcDbLine
 10
-103.9834940318523
 20
549.1250000018752
 30
0.0
 11
-117.4834940318524
 21
549.1250000018752
 31
0.0
  0
LINE
  5
84
330
4A
100
AcDbEntity
  8
0
  6
Continuous
 62
     7
100
AcDbLine
 10
-117.9834940318524
 20
548.6250000018752
 30
0.0
 11
-117.9834940318523
 21
546.8750000018753
 31
0.0
  0
LINE
  5
85
330
4A
100
AcDbEntity
  8
0
  6
Continuous
 62
     7
100
AcDbLine
 10
-103.9834940318523
 20
549.1250000018752
 30
0.0
 11
-103.9834940318523
 21
536.025000001875
 31
0.0
  0
LINE
  5
86
330
4A
100
AcDbEntity
  8
0
  6
Continuous
 62
     3
100
AcDbLine
 10
-103.9834940318523
 20
549.1250000018752
 30
0.0
 11
-103.9834940318523
 21
568.1158703879022
 31
0.0
  0
LINE
  5
87
330
4A
100
AcDbEntity
  8
0
  6
Continuous
 62
     7
100
AcDbLine
 10
-105.071262040118
 20
531.525000001875
 30
0.0
 11
-99.80221392515892
 21
531.525000001875
 31
0.0
  0
LINE
  5
88
330
4A
100
AcDbEntity
  8
0
  6
Continuous
 62
     7
100
AcDbLine
 10
-103.9834940318523
 20
568.1158703879022
 30
0.0
 11
-103.9834940318523
 21
568.1201949418894
 31
0.0
  0
LINE
  5
89
330
4A
100
AcDbEntity
  8
0
  6
Continuous
 62
     3
100
AcDbLine
 10
-98.98349403185233
 20
567.757526629378
 30
0.0
 11
-98.98349403185233
 21
568.1250000018752
 31
0.0
  0
LINE
  5
8A
330
4A
100
AcDbEntity
  8
0
  6
Continuous
 62
     7
100
AcDbLine
 10
-103.9834940318523
 20
568.1250000018752
 30
0.0
 11
-103.9834940318523
 21
568.1201949418894
 31
0.0
  0
LINE
  5
8B
330
4A
100
AcDbEntity
  8
0
  6
Continuous
 62
     7
100
AcDbLine
 10
-103.9834940318523
 20
568.1250000018752
 30
0.0
 11
-98.98349403185233
 21
568.1250000018752
 31
0.0
  0
LINE
  5
8C
330
4A
100
AcDbEntity
  8
0
  6
Continuous
 62
     7
100
AcDbLine
 10
-103.9834940318523
 20
568.1250000018752
 30
0.0
 11
-117.4834940318524
 21
568.1250000018752
 31
0.0
  0
LINE
  5
8D
330
4A
100
AcDbEntity
  8
0
  6
Continuous
 62
     3
100
AcDbLine
 10
-117.4834940318524
 20
568.1250000018752
 30
0.0
 11
-117.4834940318524
 21
549.1250000018752
 31
0.0
  0
LINE
  5
8E
330
4A
100
AcDbEntity
  8
0
  6
Continuous
 62
     7
100
AcDbLine
 10
-117.9834940318524
 20
568.6250000018752
 30
0.0
 11
-117.9834940318524
 21
548.6250000018752
 31
0.0
  0
LINE
  5
8F
330
4A
100
AcDbEntity
  8
0
  6
Continuous
 62
     7
100
AcDbLine
 10
-117.9834940318523
 20
570.3750000018753
 30
0.0
 11
-117.9834940318524
 21
568.6250000018752
 31
0.0
  0
LINE
  5
90
330
4A
100
AcDbEntity
  8
0
  6
Continuous
 62
     7
100
AcDbLine
 10
-138.4834940318523
 20
549.6250000018754
 30
0.0
 11
-131.4834940318523
 21
548.3750000018753
 31
0.0
  0
LINE
  5
91
330
4A
100
AcDbEntity
  8
0
  6
Continuous
 62
     7
100
AcDbLine
 10
-151.7834940318523
 20
550.1107142875896
 30
0.0
 11
-144.9834940318523
 21
549.6250000018754
 31
0.0
  0
LINE
  5
92
330
4A
100
AcDbEntity
  8
0
  6
Continuous
 62
     7
100
AcDbLine
 10
-144.9834940318523
 20
549.8750000018754
 30
0.0
 11
-138.4834940318523
 21
548.8750000018754
 31
0.0
  0
LINE
  5
93
330
4A
100
AcDbEntity
  8
0
  6
Continuous
 62
     7
100
AcDbLine
 10
-131.4834940318523
 20
549.3750000018753
 30
0.0
 11
-131.4834940318523
 21
548.3750000018753
 31
0.0
  0
LINE
  5
94
330
4A
100
AcDbEntity
  8
0
  6
Continuous
 62
     7
100
AcDbLine
 10
-84.98349403185244
 20
547.647773976759
 30
0.0
 11
-84.98349403185244
 21
536.025000001875
 31
0.0
  0
LINE
  5
95
330
4A
100
AcDbEntity
  8
0
  6
Continuous
 62
     7
100
AcDbLine
 10
-138.4834940318523
 20
567.6250000018754
 30
0.0
 11
-131.4834940318523
 21
568.8750000018754
 31
0.0
  0
LINE
  5
96
330
4A
100
AcDbEntity
  8
0
  6
Continuous
 62
     7
100
AcDbLine
 10
-144.9834940318523
 20
567.3750000018754
 30
0.0
 11
-138.4834940318523
 21
568.3750000018754
 31
0.0
  0
LINE
  5
97
330
4A
100
AcDbEntity
  8
0
  6
Continuous
 62
     7
100
AcDbLine
 10
-138.4834940318523
 20
567.6250000018754
 30
0.0
 11
-138.4834940318523
 21
549.6250000018754
 31
0.0
  0
LINE
  5
98
330
4A
100
AcDbEntity
  8
0
  6
Continuous
 62
     7
100
AcDbLine
 10
-131.4834940318523
 20
567.8750000018753
 30
0.0
 11
-124.9834940318523
 21
569.6250000018753
 31
0.0
  0
LINE
  5
99
330
4A
100
AcDbEntity
  8
0
  6
Continuous
 62
     7
100
AcDbLine
 10
-131.4834940318523
 20
549.3750000018753
 30
0.0
 11
-124.9834940318523
 21
547.6250000018753
 31
0.0
  0
LINE
  5
9A
330
4A
100
AcDbEntity
  8
0
  6
Continuous
 62
     7
100
AcDbLine
 10
-124.9834940318523
 20
568.1250000018753
 30
0.0
 11
-124.9834940318523
 21
549.1250000018753
 31
0.0
  0
LINE
  5
9B
330
4A
100
AcDbEntity
  8
0
  6
Continuous
 62
     7
100
AcDbLine
 10
-124.9834940318523
 20
549.1250000018753
 30
0.0
 11
-124.9834940318523
 21
547.6250000018753
 31
0.0
  0
LINE
  5
9C
330
4A
100
AcDbEntity
  8
0
  6
Continuous
 62
     7
100
AcDbLine
 10
-124.9834940318523
 20
569.6250000018753
 30
0.0
 11
-124.9834940318523
 21
568.1250000018753
 31
0.0
  0
LINE
  5
9D
330
4A
100
AcDbEntity
  8
0
  6
Continuous
 62
     7
100
AcDbLine
 10
-131.4834940318523
 20
567.8750000018753
 30
0.0
 11
-131.4834940318523
 21
549.3750000018753
 31
0.0
  0
LINE
  5
9E
330
4A
100
AcDbEntity
  8
0
  6
Continuous
 62
     7
100
AcDbLine
 10
-131.4834940318523
 20
568.8750000018754
 30
0.0
 11
-131.4834940318523
 21
567.8750000018753
 31
0.0
  0
LINE
  5
9F
330
4A
100
AcDbEntity
  8
0
  6
Continuous
 62
     7
100
AcDbLine
 10
-144.9834940318523
 20
549.8750000018754
 30
0.0
 11
-144.9834940318523
 21
549.6250000018754
 31
0.0
  0
LINE
  5
A0
330
4A
100
AcDbEntity
  8
0
  6
Continuous
 62
     7
100
AcDbLine
 10
-144.9834940318523
 20
567.3750000018754
 30
0.0
 11
-144.9834940318523
 21
549.8750000018754
 31
0.0
  0
LINE
  5
A1
330
4A
100
AcDbEntity
  8
0
  6
Continuous
 62
     7
100
AcDbLine
 10
-144.9834940318523
 20
567.6250000018754
 30
0.0
 11
-144.9834940318523
 21
567.3750000018754
 31
0.0
  0
LINE
  5
A2
330
4A
100
AcDbEntity
  8
0
  6
Continuous
 62
     7
100
AcDbLine
 10
-138.4834940318523
 20
549.6250000018754
 30
0.0
 11
-138.4834940318523
 21
548.8750000018754
 31
0.0
  0
LINE
  5
A3
330
4A
100
AcDbEntity
  8
0
  6
Continuous
 62
     7
100
AcDbLine
 10
-138.4834940318523
 20
568.3750000018754
 30
0.0
 11
-138.4834940318523
 21
567.6250000018754
 31
0.0
  0
LINE
  5
A4
330
4A
100
AcDbEntity
  8
0
  6
Continuous
 62
     7
100
AcDbLine
 10
-151.7834940318523
 20
567.139285716161
 30
0.0
 11
-144.9834940318523
 21
567.6250000018754
 31
0.0
  0
LINE
  5
A5
330
4A
100
AcDbEntity
  8
0
  6
Continuous
 62
     7
100
AcDbLine
 10
-151.7834940318523
 20
566.1250000018754
 30
0.0
 11
-151.7834940318523
 21
551.1250000018754
 31
0.0
  0
LINE
  5
A6
330
4A
100
AcDbEntity
  8
0
  6
Continuous
 62
     7
100
AcDbLine
 10
-151.7834940318523
 20
567.139285716161
 30
0.0
 11
-151.7834940318523
 21
566.1250000018754
 31
0.0
  0
LINE
  5
A7
330
4A
100
AcDbEntity
  8
0
  6
Continuous
 62
     7
100
AcDbLine
 10
-151.7834940318523
 20
551.1250000018754
 30
0.0
 11
-151.7834940318523
 21
550.1107142875896
 31
0.0
  0
ARC
  5
A8
330
4A
100
AcDbEntity
  8
0
  6
Continuous
 62
     3
100
AcDbCircle
 10
-98.98349403185233
 20
553.1250000018752
 30
0.0
 40
14.49999999999998
100
AcDbArc
 50
351.2632254558081
 51
86.05639105237216
  0
ARC
  5
A9
330
4A
100
AcDbEntity
  8
0
  6
Continuous
 62
     3
100
AcDbCircle
 10
-103.9834940318523
 20
549.1250000018752
 30
0.0
 40
19.41513993849805
100
AcDbArc
 50
5.31224378111822
 51
72.0073727270622
  0
ARC
  5
AA
330
4A
100
AcDbEntity
  8
0
  6
Continuous
 62
     3
100
AcDbCircle
 10
-103.9834940318523
 20
549.1250000018752
 30
0.0
 40
18.9193829415731
100
AcDbArc
 50
5.31224378111812
 51
72.00737272706209
  0
ARC
  5
AB
330
4A
100
AcDbEntity
  8
0
  6
Continuous
 62
     7
100
AcDbCircle
 10
-98.98349398451313
 20
553.1249999333877
 30
0.0
 40
15.00000006848746
100
AcDbArc
 50
339.3051762435652
 51
90.00000018082241
  0
ARC
  5
AC
330
4A
100
AcDbEntity
  8
0
  6
Continuous
 62
     7
100
AcDbCircle
 10
-84.4834945821591
 20
547.6477743191596
 30
0.0
 40
0.4999994496934386
100
AcDbArc
 50
160.3363659548886
 51
180.0000392362548
  0
ARC
  5
AD
330
4A
100
AcDbEntity
  8
0
  6
Continuous
 62
     7
100
AcDbCircle
 10
-98.983433346064
 20
553.1251604494655
 30
0.0
 40
15.00000006848746
100
AcDbArc
 50
339.2587702124326
 51
339.3045208257873
  0
ARC
  5
AE
330
4A
100
AcDbEntity
  8
0
  6
Continuous
 62
     7
100
AcDbCircle
 10
-117.4834940318524
 20
548.6250000018752
 30
0.0
 40
0.5
100
AcDbArc
 50
90.0
 51
180.0
  0
ARC
  5
AF
330
4A
100
AcDbEntity
  8
0
  6
Continuous
 62
     7
100
AcDbCircle
 10
-117.4834940318524
 20
568.6250000018752
 30
0.0
 40
0.5
100
AcDbArc
 50
180.0
 51
270.0
  0
SPLINE
  5
B0
330
4A
100
AcDbEntity
  8
0
  6
Continuous
 62
     3
100
AcDbSpline
210
0.0
220
0.0
230
1.0
 70
     8
 71
     3
 72
    15
 73
    11
 74
     9
 42
0.000000001
 43
0.0000000001
 44
0.00000001
 40
0.0
 40
0.0
 40
0.0
 40
0.0
 40
0.0225339386583247
 40
0.0451379671984885
 40
0.0677894290424133
 40
0.0904653369779507
 40
0.113142566822948
 40
0.1357979769746175
 40
0.1584085298077817
 40
0.1809514851256813
 40
0.1809514851256813
 40
0.1809514851256813
 40
0.1809514851256813
 10
-84.95559183599113
 20
547.812942021831
 30
0.0
 10
-84.95815987376552
 20
547.805881968992
 30
0.0
 10
-84.96330392315814
 20
547.7917398987499
 30
0.0
 10
-84.9697966910157
 20
547.7700839642694
 30
0.0
 10
-84.97537650266085
 20
547.7481320537445
 30
0.0
 10
-84.97993494858217
 20
547.7259184280391
 30
0.0
 10
-84.98348360711687
 20
547.7035199642929
 30
0.0
 10
-84.98598461957434
 20
547.681004554973
 30
0.0
 10
-84.98752734157996
 20
547.6584424466566
 30
0.0
 10
-84.98768899393423
 20
547.6433895696543
 30
0.0
 10
-84.9877696917963
 20
547.635874398535
 30
0.0
 11
-84.95559183599113
 21
547.812942021831
 31
0.0
 11
-84.96309138082127
 21
547.7916926634966
 31
0.0
 11
-84.96963816473135
 21
547.7700574665396
 31
0.0
 11
-84.97520349341615
 21
547.7481003296416
 31
0.0
 11
-84.97976648524605
 21
547.7258882625024
 31
0.0
 11
-84.98331040569026
 21
547.7034896598307
 31
0.0
 11
-84.98582686301495
 21
547.6809744411535
 31
0.0
 11
-84.98731183204836
 21
547.6584127039198
 31
0.0
 11
-84.9877696917963
 21
547.635874398535
 31
0.0
  0
SPLINE
  5
B1
330
4A
100
AcDbEntity
  8
0
  6
Continuous
 62
     7
100
AcDbSpline
210
0.0
220
0.0
230
1.0
 70
     8
 71
     3
 72
    11
 73
     7
 74
     5
 42
0.000000001
 43
0.0000000001
 44
0.00000001
 40
0.0
 40
0.0
 40
0.0
 40
0.0
 40
0.0021286613446087
 40
0.0042923540613811
 40
0.0064548359746369
 40
0.0086521058720996
 40
0.0086521058720996
 40
0.0086521058720996
 40
0.0086521058720996
 10
-84.95135450827945
 20
547.8241449293201
 30
0.0
 10
-84.95160410781298
 20
547.8234807241466
 30
0.0
 10
-84.95210740042931
 20
547.8221413776955
 30
0.0
 10
-84.95285269978925
 20
547.820122961585
 30
0.0
 10
-84.95359822945707
 20
547.8180802690385
 30
0.0
 10
-84.95408892250873
 20
547.8167123636641
 30
0.0
 10
-84.95433621965702
 20
547.8160229509282
 30
0.0
 11
-84.95135450827945
 21
547.8241449293201
 31
0.0
 11
-84.95210141311131
 21
547.8221516073713
 31
0.0
 11
-84.95285157306961
 21
547.8201221181723
 31
0.0
 11
-84.95359240323768
 21
547.8180904934835
 31
0.0
 11
-84.95433621965702
 21
547.8160229509282
 31
0.0
  0
SPLINE
  5
B2
330
4A
100
AcDbEntity
  8
0
  6
Continuous
 62
     3
100
AcDbSpline
210
0.0
220
0.0
230
1.0
 70
     8
 71
     3
 72
    29
 73
    25
 74
    23
 42
0.000000001
 43
0.0000000001
 44
0.00000001
 40
0.0
 40
0.0
 40
0.0
 40
0.0
 40
0.0527084690792453
 40
0.1054258032509282
 40
0.1670970726445029
 40
0.2287924239660559
 40
0.3431258331489204
 40
0.4575341731057359
 40
0.5718129148116349
 40
0.6861579494789846
 40
0.8003515316420479
 40
0.914593592172896
 40
1.004886346304396
 40
1.095209331406966
 40
1.185388819133982
 40
1.275584312284009
 40
1.365606742119084
 40
1.455632568025921
 40
1.545453892594919
 40
1.635262055030573
 40
1.662492683603123
 40
1.689719742215042
 40
1.722178568681543
 40
1.754630465060447
 40
1.754630465060447
 40
1.754630465060447
 40
1.754630465060447
 10
-85.14537104362074
 20
550.8766201576592
 30
0.0
 10
-85.14375557486032
 20
550.8591250853677
 30
0.0
 10
-85.14052438018408
 20
550.8241319969338
 30
0.0
 10
-85.13557581649056
 20
550.7686531564573
 30
0.0
 10
-85.13049667427097
 20
550.7101786164328
 30
0.0
 10
-85.12386368930402
 20
550.6312233066332
 30
0.0
 10
-85.11613603245368
 20
550.5347193988172
 30
0.0
 10
-85.10758806477578
 20
550.4206987219239
 30
0.0
 10
-85.09961404600239
 20
550.3066325819586
 30
0.0
 10
-85.09221530065533
 20
550.1925994267993
 30
0.0
 10
-85.08538356267256
 20
550.0785431608024
 30
0.0
 10
-85.07955355657437
 20
549.9724599982044
 30
0.0
 10
-85.0745897499374
 20
549.8742992592518
 30
0.0
 10
-85.07037706187486
 20
549.7841323171103
 30
0.0
 10
-85.06650937333458
 20
549.6939823755326
 30
0.0
 10
-85.06298634459255
 20
549.6039185707539
 30
0.0
 10
-85.05980267508924
 20
549.5138933892397
 30
0.0
 10
-85.05695728652601
 20
549.4239816680342
 30
0.0
 10
-85.05444437831343
 20
549.3341315023026
 30
0.0
 10
-85.05276787981178
 20
549.2651983468538
 30
0.0
 10
-85.05171068908365
 20
549.2171213452796
 30
0.0
 10
-85.05110703674058
 20
549.1881554601387
 30
0.0
 10
-85.05049571806197
 20
549.1574489364968
 30
0.0
 10
-85.05010550176317
 20
549.1358155436208
 30
0.0
 10
-85.04991042177835
 20
549.1250000018752
 30
0.0
 11
-85.14537104362074
 21
550.8766201576592
 31
0.0
 11
-85.1405518922651
 21
550.8241324591309
 31
0.0
 11
-85.13585968149651
 21
550.7716243598918
 31
0.0
 11
-85.13052634333445
 21
550.7101841370754
 31
0.0
 11
-85.12536060082348
 21
550.6487054294952
 31
0.0
 11
-85.11623444133984
 21
550.5347368299103
 31
0.0
 11
-85.10768063976295
 21
550.4206487027851
 31
0.0
 11
-85.09971060157905
 21
550.3066482233297
 31
0.0
 11
-85.09230652390114
 21
550.192543155064
 31
0.0
 11
-85.0854780745117
 21
550.0785539165299
 31
0.0
 11
-85.0792084413915
 21
549.9644840251975
 31
0.0
 11
-85.07464792944596
 21
549.8743065158795
 31
0.0
 11
-85.07043217013583
 21
549.784081968124
 31
0.0
 11
-85.06656634415951
 21
549.6939853788346
 31
0.0
 11
-85.06304043130245
 21
549.6038588293203
 31
0.0
 11
-85.05985839030731
 21
549.513892655169
 31
0.0
 11
-85.05701030606403
 21
549.42391189196
 31
0.0
 11
-85.05449879189445
 21
549.3341256867649
 31
0.0
 11
-85.05231421617856
 21
549.2443440980826
 31
0.0
 11
-85.05171586624178
 21
549.2171200442106
 31
0.0
 11
-85.0511472172158
 21
549.1898989245011
 31
0.0
 11
-85.05050577809956
 21
549.1574464366203
 31
0.0
 11
-85.04991042177835
 21
549.1250000018752
 31
0.0
  0
SPLINE
  5
B3
330
4A
100
AcDbEntity
  8
0
  6
Continuous
 62
     3
100
AcDbSpline
210
0.0
220
0.0
230
1.0
 70
     8
 71
     3
 72
    21
 73
    17
 74
    15
 42
0.000000001
 43
0.0000000001
 44
0.00000001
 40
0.0
 40
0.0
 40
0.0
 40
0.0
 40
0.0573470491628166
 40
0.109544509527786
 40
0.1641092880146767
 40
0.2190064700627758
 40
0.3282740491625461
 40
0.4376740193659826
 40
0.6632821584574302
 40
0.8738298499767829
 40
1.089198697407632
 40
1.308061222054267
 40
1.420862603141849
 40
1.524255987775087
 40
1.653114421015621
 40
1.739676649215435
 40
1.739676649215435
 40
1.739676649215435
 40
1.739676649215435
 10
-84.6517433545365
 20
550.9225190091634
 30
0.0
 10
-84.6523024649064
 20
550.9034114962949
 30
0.0
 10
-84.65337049344612
 20
550.8669122669229
 30
0.0
 10
-84.65513903966504
 20
550.8122376633753
 30
0.0
 10
-84.65705685129421
 20
550.7583852385401
 30
0.0
 10
-84.65986340979937
 20
550.6855293485196
 30
0.0
 10
-84.6637845266118
 20
550.5944248221793
 30
0.0
 10
-84.67103182338981
 20
550.4465096904576
 30
0.0
 10
-84.68158222929338
 20
550.2649590431874
 30
0.0
 10
-84.69672577168731
 20
550.0483083419145
 30
0.0
 10
-84.71414871969192
 20
549.8340846648748
 30
0.0
 10
-84.73101859278052
 20
549.652518113695
 30
0.0
 10
-84.74568428906882
 20
549.5082417221676
 30
0.0
 10
-84.75796962011175
 20
549.393881557409
 30
0.0
 10
-84.76991491758943
 20
549.2882825732158
 30
0.0
 10
-84.77846651123126
 20
549.216986613021
 30
0.0
 10
-84.78190279474285
 20
549.188337842934
 30
0.0
 11
-84.6517433545365
 21
550.9225190091634
 31
0.0
 11
-84.65345151997263
 21
550.8651974056975
 31
0.0
 11
-84.65514124920384
 21
550.8130273023077
 31
0.0
 11
-84.65707922428189
 21
550.7584969501293
 31
0.0
 11
-84.6591933410217
 21
550.703640490966
 31
0.0
 11
-84.66389068455966
 21
550.5944739263758
 31
0.0
 11
-84.66924426770692
 21
550.4852050257462
 31
0.0
 11
-84.6823291128056
 21
550.2599766542554
 31
0.0
 11
-84.6970069605606
 21
550.0499412019154
 31
0.0
 11
-84.71446206086775
 21
549.835280865659
 31
0.0
 11
-84.73470402544524
 21
549.6173564117652
 31
0.0
 11
-84.74611291351022
 21
549.5051334691212
 31
0.0
 11
-84.75714873389944
 21
549.4023307324877
 31
0.0
 11
-84.77167148901128
 21
549.2742932949585
 31
0.0
 11
-84.78190279474285
 21
549.188337842934
 31
0.0
  0
SPLINE
  5
B4
330
4A
100
AcDbEntity
  8
0
  6
Continuous
 62
     3
100
AcDbSpline
210
0.0
220
0.0
230
1.0
 70
     8
 71
     3
 72
    23
 73
    19
 74
    17
 42
0.000000001
 43
0.0000000001
 44
0.00000001
 40
0.0
 40
0.0
 40
0.0
 40
0.0
 40
0.0062492694209339
 40
0.0138924539223437
 40
0.0230942296478726
 40
0.0339457165208255
 40
0.0464885463956991
 40
0.0607247524912537
 40
0.0766252837876646
 40
0.0941324216637631
 40
0.1131649116663668
 40
0.1336193918011953
 40
0.1553749941495841
 40
0.1782953434065338
 40
0.2022329773899896
 40
0.2270320762745236
 40
0.2525323898221158
 40
0.2785723906073296
 40
0.2785723906073296
 40
0.2785723906073296
 40
0.2785723906073296
 10
-85.04991042177835
 20
549.1250000018752
 30
0.0
 10
-85.04851906602046
 20
549.1265580261819
 30
0.0
 10
-85.04542601962258
 20
549.1300216059411
 30
0.0
 10
-85.03907696096921
 20
549.134469643966
 30
0.0
 10
-85.03105135054989
 20
549.1390302734185
 30
0.0
 10
-85.02115272260309
 20
549.1435482832604
 30
0.0
 10
-85.0094392386822
 20
549.1480463871085
 30
0.0
 10
-84.995917182106
 20
549.1524848879708
 30
0.0
 10
-84.98064111285602
 20
549.1568386268823
 30
0.0
 10
-84.96368129511404
 20
549.1610823452047
 30
0.0
 10
-84.9451301497277
 20
549.1651878997885
 30
0.0
 10
-84.92509934898001
 20
549.1691339893921
 30
0.0
 10
-84.90371636842566
 20
549.1728963467741
 30
0.0
 10
-84.88112306452774
 20
549.1764576301662
 30
0.0
 10
-84.85747152658449
 20
549.1798007981434
 30
0.0
 10
-84.83292103600532
 20
549.1829079018529
 30
0.0
 10
-84.80763754656486
 20
549.1857917426476
 30
0.0
 10
-84.7905407195156
 20
549.1874832348158
 30
0.0
 10
-84.78190279474285
 20
549.188337842934
 30
0.0
 11
-85.04991042177835
 21
549.1250000018752
 31
0.0
 11
-85.04558939648305
 21
549.1295146611816
 31
0.0
 11
-85.03945393869554
 21
549.1340725540185
 31
0.0
 11
-85.0314706689451
 21
549.1386485862567
 31
0.0
 11
-85.0216280760747
 21
549.1432178450383
 31
0.0
 11
-85.0099337267668
 21
549.147752684567
 31
0.0
 11
-84.9964189050039
 21
549.1522269612186
 31
0.0
 11
-84.98113517536834
 21
549.1566126766033
 31
0.0
 11
-84.96415716349975
 21
549.1608843256635
 31
0.0
 11
-84.94557848870808
 21
549.1650157316353
 31
0.0
 11
-84.92551264389101
 21
549.168984059559
 31
0.0
 11
-84.90408845111158
 21
549.1727669413941
 31
0.0
 11
-84.8814492618576
 21
549.1763459801384
 31
0.0
 11
-84.85774835418997
 21
549.179704148652
 31
0.0
 11
-84.83314688020852
 21
549.1828286941785
 31
0.0
 11
-84.80780973344035
 21
549.1857087972172
 31
0.0
 11
-84.78190279474285
 21
549.188337842934
 31
0.0
  0
SPLINE
  5
B5
330
4A
100
AcDbEntity
  8
0
  6
Continuous
 62
     3
100
AcDbSpline
210
0.0
220
0.0
230
1.0
 70
    24
 71
     3
 72
    15
 73
    11
 74
     9
 42
0.000000001
 43
0.0000000001
 44
0.00000001
 40
0.0
 40
0.0
 40
0.0
 40
0.0
 40
0.0181151661347309
 40
0.051893882731343
 40
0.1016526848230868
 40
0.1659843479680113
 40
0.2419132447631036
 40
0.325226688086206
 40
0.4112790332238927
 40
0.4957569969249472
 40
0.4957569969249472
 40
0.4957569969249472
 40
0.4957569969249472
 10
-85.14537104362074
 20
550.8766201576592
 30
0.0
 10
-85.13935859017283
 20
550.8771792120114
 30
0.0
 10
-85.1221349251049
 20
550.8787807154575
 30
0.0
 10
-85.08839623174663
 20
550.8819178313661
 30
0.0
 10
-85.03931820698318
 20
550.8864812402275
 30
0.0
 10
-84.9762504680554
 20
550.8923454509425
 30
0.0
 10
-84.90204588849012
 20
550.8992451955347
 30
0.0
 10
-84.82063217883095
 20
550.9068152647445
 30
0.0
 10
-84.7363810197985
 20
550.9146491677509
 30
0.0
 10
-84.67978172969407
 20
550.9199119244184
 30
0.0
 10
-84.6517433545365
 20
550.9225190091634
 30
0.0
 11
-85.14537104362074
 21
550.8766201576592
 31
0.0
 11
-85.12733368327696
 21
550.878297320716
 31
0.0
 11
-85.09370004841702
 21
550.8814246679984
 31
0.0
 11
-85.04415496354574
 21
550.8860315053852
 31
0.0
 11
-84.98009960898662
 21
550.891987547301
 31
0.0
 11
-84.9044968316337
 21
550.8990173001446
 31
0.0
 11
-84.82154122484991
 21
550.9067307391624
 31
0.0
 11
-84.73585848000909
 21
550.9146977549292
 31
0.0
 11
-84.6517433545365
 21
550.9225190091634
 31
0.0
  0
SPLINE
  5
B6
330
4A
100
AcDbEntity
  8
0
  6
Continuous
 62
     3
100
AcDbSpline
210
0.0
220
0.0
230
1.0
 70
     8
 71
     3
 72
    93
 73
    89
 74
    87
 42
0.000000001
 43
0.0000000001
 44
0.00000001
 40
0.0
 40
0.0
 40
0.0
 40
0.0
 40
0.0252833418721716
 40
0.0505648177685197
 40
0.0758193121193831
 40
0.1010682872439667
 40
0.1140915307944895
 40
0.1275756210954104
 40
0.1415173426567456
 40
0.1559134801409884
 40
0.1707608183667507
 40
0.186056142310757
 40
0.2017962371102675
 40
0.2292711914350151
 40
0.2570962595694715
 40
0.2852870171264876
 40
0.3138590397755749
 40
0.342827903224067
 40
0.3722091832004926
 40
0.4020184554376614
 40
0.4369396570100704
 40
0.4714973214048418
 40
0.5056814665674703
 40
0.5394821089427345
 40
0.5728892635604581
 40
0.6058929441214272
 40
0.6384831630834418
 40
0.6706499317506036
 40
0.7023832603627586
 40
0.7336731581905276
 40
0.7645096336293292
 40
0.7948826943032207
 40
0.8183670947025078
 40
0.841551759604161
 40
0.8644272188295001
 40
0.8869840020604055
 40
0.9092126388813313
 40
0.9311036588184414
 40
0.952647591383593
 40
0.9738349661225818
 40
0.9946563126656811
 40
1.015102160784147
 40
1.0351630404528
 40
1.054829481918809
 40
1.07409201577839
 40
1.092941173064108
 40
1.111367485344886
 40
1.129361484837489
 40
1.146913704537824
 40
1.164014678370639
 40
1.176942393118392
 40
1.189656224289439
 40
1.202138771187853
 40
1.214372633907874
 40
1.226340413470244
 40
1.23802471198985
 40
1.249408132876098
 40
1.260473281082799
 40
1.27120276341581
 40
1.281579188919751
 40
1.29158516936854
 40
1.301203319894441
 40
1.31041625980936
 40
1.319206613686271
 40
1.32648620997442
 40
1.333480825348453
 40
1.3401660629216
 40
1.346517536026939
 40
1.352510871717438
 40
1.358121715906948
 40
1.363325741160395
 40
1.368098658964175
 40
1.372416239969757
 40
1.375259513954763
 40
1.37789857106943
 40
1.380299426031749
 40
1.382428265521282
 40
1.384251599276379
 40
1.38573662262617
 40
1.386171413078249
 40
1.386558018929176
 40
1.386807360577323
 40
1.387115994099661
 40
1.387364421693731
 40
1.387620391647132
 40
1.387990606329355
 40
1.388404238376961
 40
1.38869949032451
 40
1.38869949032451
 40
1.38869949032451
 40
1.38869949032451
 10
-84.78190279474285
 20
549.188337842934
 30
0.0
 10
-84.7829167645177
 20
549.1799712809856
 30
0.0
 10
-84.78494463181852
 20
549.1632387748762
 30
0.0
 10
-84.78800913710153
 20
549.1381521500066
 30
0.0
 10
-84.791083899092
 20
549.1130783242896
 30
0.0
 10
-84.79367043410306
 20
549.0920613150511
 30
0.0
 10
-84.79578296749688
 20
549.0749390411357
 30
0.0
 10
-84.79743741464341
 20
549.0615579127791
 30
0.0
 10
-84.79915148950319
 20
549.0477230413389
 30
0.0
 10
-84.80092515755139
 20
549.0334376633366
 30
0.0
 10
-84.80275832507688
 20
549.018705008025
 30
0.0
 10
-84.8046509151755
 20
549.0035283067081
 30
0.0
 10
-84.80706970532714
 20
548.9841754173988
 30
0.0
 10
-84.8100153859282
 20
548.9606793057421
 30
0.0
 10
-84.81349047564538
 20
548.9330668596331
 30
0.0
 10
-84.8170244172106
 20
548.9050932491965
 30
0.0
 10
-84.8206193688813
 20
548.8767430539153
 30
0.0
 10
-84.82427748905386
 20
548.8480008532466
 30
0.0
 10
-84.82800093461142
 20
548.8188512264525
 30
0.0
 10
-84.83198973044155
 20
548.7877352635247
 30
0.0
 10
-84.83621351358
 20
548.7549098462969
 30
0.0
 10
-84.84064015549032
 20
548.720640222151
 30
0.0
 10
-84.8450346313769
 20
548.6867430698729
 30
0.0
 10
-84.84939441471263
 20
548.653228135974
 30
0.0
 10
-84.85371698087945
 20
548.6201051671869
 30
0.0
 10
-84.85799980478953
 20
548.5873839101909
 30
0.0
 10
-84.86224036151661
 20
548.5550741116831
 30
0.0
 10
-84.86643612613376
 20
548.5231855183606
 30
0.0
 10
-84.87058457376172
 20
548.4917278769258
 30
0.0
 10
-84.87468317956319
 20
548.4607109340845
 30
0.0
 10
-84.87872941874298
 20
548.4301444365478
 30
0.0
 10
-84.88243972463948
 20
548.4021580000882
 30
0.0
 10
-84.88581850252497
 20
548.3767005324239
 30
0.0
 10
-84.88887087664725
 20
548.3537208602083
 30
0.0
 10
-84.89188440104013
 20
548.3310479492562
 30
0.0
 10
-84.89485724900553
 20
548.3086911104751
 30
0.0
 10
-84.89778759387654
 20
548.2866596547794
 30
0.0
 10
-84.90067360902854
 20
548.2649628930872
 30
0.0
 10
-84.90351346788219
 20
548.2436101363184
 30
0.0
 10
-84.90630534391092
 20
548.2226106953999
 30
0.0
 10
-84.90904741064834
 20
548.2019738812623
 30
0.0
 10
-84.91173784169665
 20
548.1817090048419
 30
0.0
 10
-84.9143748107362
 20
548.1618253770812
 30
0.0
 10
-84.91695649154042
 20
548.1423323089288
 30
0.0
 10
-84.91948105797826
 20
548.1232391113408
 30
0.0
 10
-84.92194668407332
 20
548.1045550952849
 30
0.0
 10
-84.9243515438682
 20
548.0862895717238
 30
0.0
 10
-84.92669381200807
 20
548.06845185168
 30
0.0
 10
-84.92897166175376
 20
548.0510512460072
 30
0.0
 10
-84.93102319900005
 20
548.035324185913
 30
0.0
 10
-84.93285965200292
 20
548.0211955307856
 30
0.0
 10
-84.93449209087547
 20
548.0085927848367
 30
0.0
 10
-84.93608873819876
 20
547.996218620415
 30
0.0
 10
-84.93764694864682
 20
547.9840902436563
 30
0.0
 10
-84.93916407825942
 20
547.9722248608579
 30
0.0
 10
-84.94063748318737
 20
547.9606396783045
 30
0.0
 10
-84.94206452012642
 20
547.9493519023176
 30
0.0
 10
-84.94344254634323
 20
547.9383787392466
 30
0.0
 10
-84.94476891983808
 20
547.9277373954778
 30
0.0
 10
-84.94604099956474
 20
547.9174450774376
 30
0.0
 10
-84.94725614557403
 20
547.9075189915976
 30
0.0
 10
-84.94841171977191
 20
547.897976344481
 30
0.0
 10
-84.94950508495094
 20
547.888834342648
 30
0.0
 10
-84.95049181946843
 20
547.8804646722772
 30
0.0
 10
-84.95137818387617
 20
547.8728277447599
 30
0.0
 10
-84.95217042872493
 20
547.8658863211572
 30
0.0
 10
-84.95291303971123
 20
547.8592506304063
 30
0.0
 10
-84.95360246217012
 20
547.852944849586
 30
0.0
 10
-84.9542351517502
 20
547.8469931556408
 30
0.0
 10
-84.95480757437797
 20
547.8414197250597
 30
0.0
 10
-84.9553162256519
 20
547.8362487329273
 30
0.0
 10
-84.95575760208196
 20
547.8315043526443
 30
0.0
 10
-84.95609982634579
 20
547.827541134867
 30
0.0
 10
-84.95635617893518
 20
547.8242845459728
 30
0.0
 10
-84.95654168886858
 20
547.8216633390527
 30
0.0
 10
-84.95668576916405
 20
547.8192780457663
 30
0.0
 10
-84.9567841904059
 20
547.8171625724735
 30
0.0
 10
-84.95683203206575
 20
547.8153506063575
 30
0.0
 10
-84.95682877902127
 20
547.8141027115909
 30
0.0
 10
-84.95679618842294
 20
547.8133341602206
 30
0.0
 10
-84.95677336220183
 20
547.8129786549673
 30
0.0
 10
-84.95674097028099
 20
547.8126634348421
 30
0.0
 10
-84.95668185062912
 20
547.812407209226
 30
0.0
 10
-84.95656461198439
 20
547.8121352263618
 30
0.0
 10
-84.9562224529839
 20
547.8120975562639
 30
0.0
 10
-84.95596863721418
 20
547.8123671838889
 30
0.0
 10
-84.9557439359262
 20
547.8126418432835
 30
0.0
 10
-84.9556365630846
 20
547.8128537608884
 30
0.0
 10
-84.95559183599113
 20
547.812942021831
 30
0.0
 11
-84.78190279474285
 21
549.188337842934
 31
0.0
 11
-84.78494867610026
 21
549.1632386500123
 31
0.0
 11
-84.78801216825934
 21
549.1381434704148
 31
0.0
 11
-84.79108593239334
 21
549.113076730321
 31
0.0
 11
-84.79416989651634
 21
549.0880168039419
 31
0.0
 11
-84.79576469856143
 21
549.0750915774829
 31
0.0
 11
-84.79741924432865
 21
549.0617093814917
 31
0.0
 11
-84.7991334532373
 21
549.0478734468319
 31
0.0
 11
-84.80090724470683
 21
549.0335870043674
 31
0.0
 11
-84.80274053815668
 21
549.018853284962
 31
0.0
 11
-84.80463325300616
 21
549.0036755194793
 31
0.0
 11
-84.8065853086747
 21
548.9880569387831
 31
0.0
 11
-84.81000301421672
 21
548.9607953833621
 31
0.0
 11
-84.81347740697043
 21
548.9331880833913
 31
0.0
 11
-84.8170106452945
 21
548.9052196183176
 31
0.0
 11
-84.8206048875475
 21
548.8768745675877
 31
0.0
 11
-84.82426229208806
 21
548.8481375106487
 31
0.0
 11
-84.82798501727477
 21
548.8189930269472
 31
0.0
 11
-84.83177522146622
 21
548.7894256959298
 31
0.0
 11
-84.83623181164575
 21
548.7547900333374
 31
0.0
 11
-84.84065875992802
 21
548.7205170950723
 31
0.0
 11
-84.84505354078559
 21
548.6866166277939
 31
0.0
 11
-84.84941362869093
 21
548.6530983781614
 31
0.0
 11
-84.85373649811663
 21
548.6199720928344
 31
0.0
 11
-84.8580196235352
 21
548.5872475184719
 31
0.0
 11
-84.8622604794192
 21
548.5549344017336
 31
0.0
 11
-84.86645654024113
 21
548.5230424892784
 31
0.0
 11
-84.87060528047354
 21
548.4915815277662
 31
0.0
 11
-84.87470417458891
 21
548.4605612638557
 31
0.0
 11
-84.8787506970599
 21
548.4299914442068
 31
0.0
 11
-84.88274232235892
 21
548.3998818154786
 31
0.0
 11
-84.88583205491747
 21
548.3766015531344
 31
0.0
 11
-84.88888476215199
 21
548.3536187407492
 31
0.0
 11
-84.8918986168887
 21
548.3309426891886
 31
0.0
 11
-84.89487179195379
 21
548.3085827093196
 31
0.0
 11
-84.89780246017341
 21
548.286548112008
 31
0.0
 11
-84.90068879437379
 21
548.2648482081198
 31
0.0
 11
-84.9035289673811
 21
548.2434923085217
 31
0.0
 11
-84.90632115202153
 21
548.2224897240797
 31
0.0
 11
-84.90906352112131
 21
548.2018497656599
 31
0.0
 11
-84.9117542475066
 21
548.1815817441288
 31
0.0
 11
-84.91439150400356
 21
548.1616949703525
 31
0.0
 11
-84.9169734634384
 21
548.142198755197
 31
0.0
 11
-84.91949829863732
 21
548.1231024095287
 31
0.0
 11
-84.92196418242656
 21
548.1044152442141
 31
0.0
 11
-84.92436928763225
 21
548.086146570119
 31
0.0
 11
-84.92671178708056
 21
548.0683056981098
 31
0.0
 11
-84.92898985359771
 21
548.0509019390527
 31
0.0
 11
-84.93120166000995
 21
548.033944603814
 31
0.0
 11
-84.93286788461289
 21
548.0211247167571
 31
0.0
 11
-84.93450094911847
 21
548.0085162036273
 31
0.0
 11
-84.93609820700738
 21
547.996136270498
 31
0.0
 11
-84.9376570117604
 21
547.9840021234423
 31
0.0
 11
-84.93917471685825
 21
547.9721309685337
 31
0.0
 11
-84.94064867578166
 21
547.9605400118451
 31
0.0
 11
-84.94207624201141
 21
547.9492464594498
 31
0.0
 11
-84.94345476902822
 21
547.9382675174212
 31
0.0
 11
-84.94478161031287
 21
547.9276203918323
 31
0.0
 11
-84.94605411934603
 21
547.9173222887564
 31
0.0
 11
-84.94726964960849
 21
547.9073904142666
 31
0.0
 11
-84.94842555458102
 21
547.8978419744365
 31
0.0
 11
-84.9495191877443
 21
547.8886941753389
 31
0.0
 11
-84.9505479025791
 21
547.8799642230471
 31
0.0
 11
-84.95138679121975
 21
547.8727331243806
 31
0.0
 11
-84.95217952213287
 21
547.8657835760586
 31
0.0
 11
-84.95292251585147
 21
547.8591397547417
 31
0.0
 11
-84.9536121929086
 21
547.8528258370908
 31
0.0
 11
-84.95424497383718
 21
547.8468659997669
 31
0.0
 11
-84.95481727917027
 21
547.8412844194311
 31
0.0
 11
-84.95532552944081
 21
547.8361052727436
 31
0.0
 11
-84.95576614518178
 21
547.8313527363656
 31
0.0
 11
-84.95613554692625
 21
547.827050986958
 31
0.0
 11
-84.95635764602481
 21
547.8242164007685
 31
0.0
 11
-84.95654254684271
 21
547.8215838290133
 31
0.0
 11
-84.95668537264707
 21
547.8191872261633
 31
0.0
 11
-84.95678124670494
 21
547.8170605466892
 31
0.0
 11
-84.95682529228333
 21
547.8152377450613
 31
0.0
 11
-84.95681263264942
 21
547.8137527757507
 31
0.0
 11
-84.95679385351382
 21
547.8133183910628
 31
0.0
 11
-84.9567673877923
 21
547.8129326921552
 31
0.0
 11
-84.95673865775281
 21
547.812685011191
 31
0.0
 11
-84.95666531933932
 21
547.8123852176016
 31
0.0
 11
-84.95653548223447
 21
547.8121734191753
 31
0.0
 11
-84.95628254819883
 21
547.8121341217645
 31
0.0
 11
-84.95598551493886
 21
547.8123550959714
 31
0.0
 11
-84.95573299356805
 21
547.8126827007336
 31
0.0
 11
-84.95559183599113
 21
547.812942021831
 31
0.0
  0
SPLINE
  5
B7
330
4A
100
AcDbEntity
  8
0
  6
Continuous
 62
     3
100
AcDbSpline
210
0.0
220
0.0
230
1.0
 70
     8
 71
     3
 72
    21
 73
    17
 74
    15
 42
0.000000001
 43
0.0000000001
 44
0.00000001
 40
0.0
 40
0.0
 40
0.0
 40
0.0
 40
0.0486672759349702
 40
0.0973407715758493
 40
0.2280354993704243
 40
0.3588063011405255
 40
0.4484468835522366
 40
0.5381447345497281
 40
0.6277528065810702
 40
0.7173999591846505
 40
0.8069336945496074
 40
0.8965007361930796
 40
0.9224675135536786
 40
0.9484363054058284
 40
0.9815662288347151
 40
1.014695680614152
 40
1.014695680614152
 40
1.014695680614152
 40
1.014695680614152
 10
-98.13939858976823
 20
567.1191545903437
 30
0.0
 10
-98.15483073899651
 20
567.1241562002579
 30
0.0
 10
-98.18569701414832
 20
567.1341600455191
 30
0.0
 10
-98.2580717768269
 20
567.1573915655226
 30
0.0
 10
-98.3566254411038
 20
567.1886110713051
 30
0.0
 10
-98.4684043015333
 20
567.223294330234
 30
0.0
 10
-98.56727873254492
 20
567.2534473003761
 30
0.0
 10
-98.65313172471487
 20
567.279258541868
 30
0.0
 10
-98.7390875862848
 20
567.3047327820226
 30
0.0
 10
-98.82508984917598
 20
567.3298555287986
 30
0.0
 10
-98.91117587335478
 20
567.3546403071732
 30
0.0
 10
-98.9769362515817
 20
567.373298306094
 30
0.0
 10
-99.0223443077055
 20
567.3860609707219
 30
0.0
 10
-99.04965053481992
 20
567.3937020127042
 30
0.0
 10
-99.07926506960872
 20
567.4019540011867
 30
0.0
 10
-99.10055212888577
 20
567.4078423741964
 30
0.0
 10
-99.11119558472072
 20
567.4107865326686
 30
0.0
 11
-98.13939858976823
 21
567.1191545903437
 31
0.0
 11
-98.1857020640145
 21
567.1341376481325
 31
0.0
 11
-98.23204470232778
 21
567.1490194845211
 31
0.0
 11
-98.35663977573171
 21
567.1884805992627
 31
0.0
 11
-98.48153548274362
 21
567.2272370823704
 31
0.0
 11
-98.56727759326353
 21
567.2533852086058
 31
0.0
 11
-98.6531771936123
 21
567.2792108381295
 31
0.0
 11
-98.73909156741396
 21
567.304673103427
 31
0.0
 11
-98.82514230571898
 21
567.32981037483
 31
0.0
 11
-98.91118105093446
 21
567.354581811941
 31
0.0
 11
-98.99734681251982
 21
567.3790300528989
 31
0.0
 11
-99.02234500007191
 21
567.3860560151849
 31
0.0
 11
-99.04735291417765
 21
567.393054756698
 31
0.0
 11
-99.07926799926415
 21
567.401944029502
 31
0.0
 11
-99.11119558472072
 21
567.4107865326686
 31
0.0
  0
SPLINE
  5
B8
330
4A
100
AcDbEntity
  8
0
  6
Continuous
 62
     3
100
AcDbSpline
210
0.0
220
0.0
230
1.0
 70
    24
 71
     3
 72
    15
 73
    11
 74
     9
 42
0.000000001
 43
0.0000000001
 44
0.00000001
 40
0.0
 40
0.0
 40
0.0
 40
0.0
 40
0.0181151661354624
 40
0.0518938827329557
 40
0.1016526848254359
 40
0.1659843479706502
 40
0.2419132447655955
 40
0.325226688087636
 40
0.4112790332242544
 40
0.4957569969249676
 40
0.4957569969249676
 40
0.4957569969249676
 40
0.4957569969249676
 10
-98.13939858976823
 20
567.1191545903437
 30
0.0
 10
-98.13753336403352
 20
567.124897679338
 30
0.0
 10
-98.13219011711993
 20
567.1413497054771
 30
0.0
 10
-98.12172346159385
 20
567.1735768686771
 30
0.0
 10
-98.10649813043952
 20
567.2204561445504
 30
0.0
 10
-98.08693281144035
 20
567.280698380177
 30
0.0
 10
-98.06391254315295
 20
567.3515785138663
 30
0.0
 10
-98.03865580765738
 20
567.4293448007797
 30
0.0
 10
-98.01251881859511
 20
567.5098214162481
 30
0.0
 10
-97.99496018743368
 20
567.5638849965933
 30
0.0
 10
-97.98626192484332
 20
567.5906672220469
 30
0.0
 11
-98.13939858976823
 21
567.1191545903437
 31
0.0
 11
-98.13380291256419
 21
567.1363838573252
 31
0.0
 11
-98.12336884902672
 21
567.1685106687606
 31
0.0
 11
-98.10799862318977
 21
567.2158360799402
 31
0.0
 11
-98.08812691910052
 21
567.2770216849433
 31
0.0
 11
-98.06467289202925
 21
567.3492373756392
 31
0.0
 11
-98.03893781832772
 21
567.4284764810096
 31
0.0
 11
-98.01235671261446
 21
567.510320545686
 31
0.0
 11
-97.98626192484332
 21
567.5906672220469
 31
0.0
  0
SPLINE
  5
B9
330
4A
100
AcDbEntity
  8
0
  6
Continuous
 62
     3
100
AcDbSpline
210
0.0
220
0.0
230
1.0
 70
     8
 71
     3
 72
    23
 73
    19
 74
    17
 42
0.000000001
 43
0.0000000001
 44
0.00000001
 40
0.0
 40
0.0
 40
0.0
 40
0.0
 40
0.0337650027158118
 40
0.0673550510053086
 40
0.1004788897773677
 40
0.1328329613496096
 40
0.1641099323165006
 40
0.194007436424443
 40
0.2222364202529915
 40
0.2485317744311441
 40
0.2726584627532248
 40
0.2944218490310775
 40
0.3136700682184663
 40
0.3303022287542893
 40
0.3442671748957551
 40
0.3555701219196042
 40
0.3642732676581622
 40
0.3705159170795966
 40
0.3705159170795966
 40
0.3705159170795966
 40
0.3705159170795966
 10
-98.98349403185233
 20
567.757526629378
 30
0.0
 10
-98.98671907668238
 20
567.7467435501975
 30
0.0
 10
-98.9931524423003
 20
567.725233260685
 30
0.0
 10
-99.00298157053754
 20
567.6932147292691
 30
0.0
 10
-99.01285712343628
 20
567.6617031189667
 30
0.0
 10
-99.0227122182512
 20
567.6309937898004
 30
0.0
 10
-99.03245887756854
 20
567.6013800023987
 30
0.0
 10
-99.04200863507081
 20
567.5731499893915
 30
0.0
 10
-99.05127606673263
 20
567.5465786617266
 30
0.0
 10
-99.06017438744465
 20
567.5219173370692
 30
0.0
 10
-99.06862672232326
 20
567.4993880529503
 30
0.0
 10
-99.07655929829187
 20
567.4791754070786
 30
0.0
 10
-99.08390986978559
 20
567.4614201117818
 30
0.0
 10
-99.09063247507271
 20
567.4462258378437
 30
0.0
 10
-99.09666341095382
 20
567.4336190593858
 30
0.0
 10
-99.10204634250026
 20
567.4236647874898
 30
0.0
 10
-99.10656840364258
 20
567.4161361713643
 30
0.0
 10
-99.10983230437738
 20
567.4123626740471
 30
0.0
 10
-99.11119558472072
 20
567.4107865326686
 30
0.0
 11
-98.98349403185233
 21
567.757526629378
 31
0.0
 11
-98.99320823728513
 21
567.7251891987137
 31
0.0
 11
-99.00305867250941
 21
567.6930759572798
 31
0.0
 11
-99.01297025569515
 21
567.661469799421
 31
0.0
 11
-99.02286066510302
 21
567.6306645117476
 31
0.0
 11
-99.03264431203787
 21
567.6009571193257
 31
0.0
 11
-99.04223236972803
 21
567.5726387524912
 31
0.0
 11
-99.05153746761461
 21
567.5459874733567
 31
0.0
 11
-99.06047399038391
 21
567.5212572446885
 31
0.0
 11
-99.06896292665364
 21
567.4986732891476
 31
0.0
 11
-99.07693185793312
 21
567.4784213481636
 31
0.0
 11
-99.08431938704877
 21
567.460647256004
 31
0.0
 11
-99.09107418260541
 21
567.4454485225956
 31
0.0
 11
-99.09715864563547
 21
567.4328787562529
 31
0.0
 11
-99.10254656353851
 21
567.422942612799
 31
0.0
 11
-99.10722595859374
 21
567.4156044933245
 31
0.0
 11
-99.11119558472072
 21
567.4107865326686
 31
0.0
  0
SPLINE
  5
BA
330
4A
100
AcDbEntity
  8
0
  6
Continuous
 62
     3
100
AcDbSpline
210
0.0
220
0.0
230
1.0
 70
     8
 71
     3
 72
    21
 73
    17
 74
    15
 42
0.000000001
 43
0.0000000001
 44
0.00000001
 40
0.0
 40
0.0
 40
0.0
 40
0.0
 40
0.0487860302160095
 40
0.0975652716059302
 40
0.2284011189550476
 40
0.3591430583443164
 40
0.4486175154625171
 40
0.5380149322429234
 40
0.6272290986539543
 40
0.7163737625869023
 40
0.8052971931394588
 40
0.8941440072405329
 40
0.9198808546714439
 40
0.9456111110716837
 40
0.9784191260837195
 40
1.011220419617499
 40
1.011220419617499
 40
1.011220419617499
 40
1.011220419617499
 10
-97.98626192484332
 20
567.5906672220469
 30
0.0
 10
-98.00222417252232
 20
567.5937752533987
 30
0.0
 10
-98.03414644941188
 20
567.5999908693913
 30
0.0
 10
-98.1089188444287
 20
567.6143242208955
 30
0.0
 10
-98.21062012186327
 20
567.6332831237135
 30
0.0
 10
-98.32580566421248
 20
567.6539132064493
 30
0.0
 10
-98.42750158727716
 20
567.6714975299071
 30
0.0
 10
-98.51563007234483
 20
567.6862962784921
 30
0.0
 10
-98.6037204778842
 20
567.7006516189872
 30
0.0
 10
-98.69172279239247
 20
567.7145588302166
 30
0.0
 10
-98.77966956872936
 20
567.7280263614203
 30
0.0
 10
-98.8467719705795
 20
567.7379756637084
 30
0.0
 10
-98.89305829729078
 20
567.7446936821106
 30
0.0
 10
-98.92086411781511
 20
567.7486912835949
 30
0.0
 10
-98.95100803070821
 20
567.7529734015776
 30
0.0
 10
-98.97266610372517
 20
567.7560089952872
 30
0.0
 10
-98.98349403185233
 20
567.757526629378
 30
0.0
 11
-97.98626192484332
 21
567.5906672220469
 31
0.0
 11
-98.03415316285674
 21
567.599968085828
 31
0.0
 11
-98.08205992621754
 21
567.6091526607808
 31
0.0
 11
-98.21067863133511
 21
567.6331369820119
 31
0.0
 11
-98.3393729606783
 21
567.656185286251
 31
0.0
 11
-98.4275390436523
 21
567.6714306231572
 31
0.0
 11
-98.51570206445957
 21
567.686235348657
 31
0.0
 11
-98.6037546698846
 21
567.7005847798113
 31
0.0
 11
-98.69180656840965
 21
567.7145000333941
 31
0.0
 11
-98.77970532527215
 21
567.7279605330882
 31
0.0
 11
-98.86759134141607
 21
567.7409914406461
 31
0.0
 11
-98.8930612950053
 21
567.7446883015517
 31
0.0
 11
-98.91852977000089
 21
567.7483492954779
 31
0.0
 11
-98.9510116647426
 21
567.7529636604577
 31
0.0
 11
-98.98349403185233
 21
567.757526629378
 31
0.0
  0
SPLINE
  5
BB
330
4A
100
AcDbEntity
  8
0
  6
Continuous
 62
     3
100
AcDbSpline
210
0.0
220
0.0
230
1.0
 70
     8
 71
     3
 72
    33
 73
    29
 74
    27
 42
0.000000001
 43
0.0000000001
 44
0.00000001
 40
0.0
 40
0.0
 40
0.0
 40
0.0
 40
0.0198636665457364
 40
0.0397272823433349
 40
0.0595865970067146
 40
0.0794440682653521
 40
0.1195711315651327
 40
0.1588116621954647
 40
0.2414139084777945
 40
0.3171084020951809
 40
0.4560125053188258
 40
0.6321671489334051
 40
0.8678190242401074
 40
1.078199847864183
 40
1.2594389343356
 40
1.704153445118571
 40
2.122299401985635
 40
2.511833848736597
 40
3.147607856117528
 40
3.764379987675104
 40
4.088857214529376
 40
4.390759606507987
 40
4.547634935339826
 40
4.703894547016448
 40
4.782095311332966
 40
4.860431524533701
 40
4.933443940336685
 40
5.01695453353321
 40
5.01695453353321
 40
5.01695453353321
 40
5.01695453353321
 10
-103.9834940318523
 20
568.1201949418894
 30
0.0
 10
-103.9768728120688
 20
568.1201893760621
 30
0.0
 10
-103.9636303894299
 20
568.1201782297823
 30
0.0
 10
-103.9437681934183
 20
568.1201653407373
 30
0.0
 10
-103.9239080840204
 20
568.1201315765186
 30
0.0
 10
-103.8972935573105
 20
568.1200617237782
 30
0.0
 10
-103.8642187475259
 20
568.1199396397597
 30
0.0
 10
-103.8102295034429
 20
568.1196614118863
 30
0.0
 10
-103.7443854121993
 20
568.1191783701175
 30
0.0
 10
-103.6453233931623
 20
568.1181811559766
 30
0.0
 10
-103.5150839280765
 20
568.1164073492969
 30
0.0
 10
-103.3315444446648
 20
568.113002801444
 30
0.0
 10
-103.1242101727156
 20
568.1078815930912
 30
0.0
 10
-102.9152196724605
 20
568.1013702497855
 30
0.0
 10
-102.6366286574514
 20
568.0911330610602
 30
0.0
 10
-102.2889466305082
 20
568.0752812842791
 30
0.0
 10
-101.8721631735788
 20
568.0512779666268
 30
0.0
 10
-101.3921342122759
 20
568.0183127513501
 30
0.0
 10
-100.8466024761427
 20
567.9732730239215
 30
0.0
 10
-100.3234682397105
 20
567.9214194444446
 30
0.0
 10
-99.9116201304011
 20
567.8756117245456
 30
0.0
 10
-99.65236633284262
 20
567.8447205612019
 30
0.0
 10
-99.44893333888659
 20
567.8193182255392
 30
0.0
 10
-99.31955538927788
 20
567.8026629324038
 30
0.0
 10
-99.2161812461105
 20
567.7890578973188
 30
0.0
 10
-99.14033751174559
 20
567.7789334559935
 30
0.0
 10
-99.06275916081887
 20
567.7684277512802
 30
0.0
 10
-99.01107132819804
 20
567.7613192663598
 30
0.0
 10
-98.98349403185233
 20
567.757526629378
 30
0.0
 11
-103.9834940318523
 21
568.1201949418894
 31
0.0
 11
-103.9636303717145
 21
568.120178878009
 31
0.0
 11
-103.94376676319
 21
568.1201618694007
 31
0.0
 11
-103.9239074764776
 21
568.1201285253401
 31
0.0
 11
-103.9040500716697
 21
568.1200771299757
 31
0.0
 11
-103.8639232828404
 21
568.1199286707689
 31
0.0
 11
-103.8246832716856
 21
568.1197267130533
 31
0.0
 11
-103.7420832358006
 21
568.1191222626832
 31
0.0
 11
-103.6663925566003
 21
568.1183616360887
 31
0.0
 11
-103.5275012613308
 21
568.116475840407
 31
0.0
 11
-103.3513767795513
 21
568.1132162224752
 31
0.0
 11
-103.1157965442753
 21
568.1074059686238
 31
0.0
 11
-102.9055176611666
 21
568.1008575087876
 31
0.0
 11
-102.7244007535367
 21
568.0942037648662
 31
0.0
 11
-102.2801470171917
 21
568.0739648276949
 31
0.0
 11
-101.862692113639
 21
568.0499347245486
 31
0.0
 11
-101.47407227256
 21
568.0232569060322
 31
0.0
 11
-100.8404501390732
 21
567.9709923522306
 31
0.0
 11
-100.2266808214883
 21
567.9102051747369
 31
0.0
 11
-99.90419133583391
 21
567.8743443139525
 31
0.0
 11
-99.60440875838111
 21
567.8386307323626
 31
0.0
 11
-99.44874219300792
 21
567.8191939352257
 31
0.0
 11
-99.29376141194942
 21
567.7992434058398
 31
0.0
 11
-99.21622916925647
 21
567.7890399331739
 31
0.0
 11
-99.13858192537182
 21
567.7786732659823
 31
0.0
 11
-99.06623008201947
 21
567.7688741024454
 31
0.0
 11
-98.98349403185233
 21
567.757526629378
 31
0.0
  0
SPLINE
  5
BC
330
4A
100
AcDbEntity
  8
0
  6
Continuous
 62
     3
100
AcDbSpline
210
0.0
220
0.0
230
1.0
 70
     8
 71
     3
 72
    31
 73
    27
 74
    25
 42
0.000000001
 43
0.0000000001
 44
0.00000001
 40
0.0
 40
0.0
 40
0.0
 40
0.0
 40
0.0712424085065722
 40
0.1701478165538635
 40
0.2950383026662868
 40
0.4442448911841965
 40
0.6161088399128561
 40
0.8452700104240154
 40
1.050498175611736
 40
1.228173751817109
 40
1.662357228910401
 40
2.07178108959447
 40
2.45451436986409
 40
3.07686534057535
 40
3.689960889886721
 40
4.005175026634315
 40
4.312177374951613
 40
4.473775349428189
 40
4.624485946430555
 40
4.702760652401643
 40
4.780932965437991
 40
4.796130823983004
 40
4.823412850141817
 40
4.859228234509563
 40
4.898392389537696
 40
4.937558167699571
 40
4.937558167699571
 40
4.937558167699571
 40
4.937558167699571
 10
-103.9834940318523
 20
568.1158703879022
 30
0.0
 10
-103.9597465479091
 20
568.1158294208734
 30
0.0
 10
-103.9030305746164
 20
568.1157315630481
 30
0.0
 10
-103.8046875879745
 20
568.1148104416042
 30
0.0
 10
-103.6803704128361
 20
568.1126705479205
 30
0.0
 10
-103.5317669101813
 20
568.1087130757489
 30
0.0
 10
-103.348477478105
 20
568.1019575184954
 30
0.0
 10
-103.1466296888563
 20
568.0920440265068
 30
0.0
 10
-102.9429935820893
 20
568.0794253927594
 30
0.0
 10
-102.6713532101295
 20
568.0595580235795
 30
0.0
 10
-102.3322825138025
 20
568.0287642188089
 30
0.0
 10
-101.9261334253073
 20
567.9821525700809
 30
0.0
 10
-101.45895807776
 20
567.9181896498617
 30
0.0
 10
-100.9266276082092
 20
567.8305486789883
 30
0.0
 10
-100.4194759769914
 20
567.7302463292617
 30
0.0
 10
-100.0174685251299
 20
567.641049663036
 30
0.0
 10
-99.7632732271671
 20
567.5806086185187
 30
0.0
 10
-99.56297587483402
 20
567.5306302818808
 30
0.0
 10
-99.43688642626635
 20
567.4981902646111
 30
0.0
 10
-99.33786542862309
 20
567.4721567731883
 30
0.0
 10
-99.2825831150789
 20
567.4574111232421
 30
0.0
 10
-99.2437464306428
 20
567.446963580408
 30
0.0
 10
-99.21855045775179
 20
567.440159828606
 30
0.0
 10
-99.18565373263301
 20
567.4312299679971
 30
0.0
 10
-99.14894978525871
 20
567.4212046542367
 30
0.0
 10
-99.12378049078642
 20
567.4142592925416
 30
0.0
 10
-99.11119558472072
 20
567.4107865326686
 30
0.0
 11
-103.9834940318523
 21
568.1158703879022
 31
0.0
 11
-103.9122519005601
 21
568.1156715091978
 31
0.0
 11
-103.8133505340486
 21
568.1147772787084
 31
0.0
 11
-103.6884784767551
 21
568.1126315375618
 31
0.0
 11
-103.5393242731171
 21
568.1086781268864
 31
0.0
 11
-103.367576467572
 21
568.1023608878093
 31
0.0
 11
-103.138690319018
 21
568.091137121093
 31
0.0
 11
-102.9338546523665
 21
568.0784505324873
 31
0.0
 11
-102.7566521308699
 21
568.0654938022681
 31
0.0
 11
-102.3242447337921
 21
568.0262619836278
 31
0.0
 11
-101.9174871842144
 21
567.9796122847993
 31
0.0
 11
-101.5382878318877
 21
567.9277218645461
 31
0.0
 11
-100.9241827435543
 21
567.8267482412582
 31
0.0
 11
-100.322710416403
 21
567.7079324483959
 31
0.0
 11
-100.0149757119905
 21
567.6396733571513
 31
0.0
 11
-99.71629593875102
 21
567.5686745232194
 31
0.0
 11
-99.5595045276891
 21
567.5295547268238
 31
0.0
 11
-99.41354655476351
 21
567.4920053760652
 31
0.0
 11
-99.33784434436524
 21
567.4721029953002
 31
0.0
 11
-99.26231274447574
 21
567.451956339933
 31
0.0
 11
-99.24763664094347
 21
567.4480083176301
 31
0.0
 11
-99.22129790571043
 21
567.4408963598777
 31
0.0
 11
-99.18673335203843
 21
567.4315137532973
 31
0.0
 11
-99.14895481697693
 21
567.421188384113
 31
0.0
 11
-99.11119558472072
 21
567.4107865326686
 31
0.0
  0
SPLINE
  5
BD
330
4A
100
AcDbEntity
  8
0
  6
Continuous
 62
     3
100
AcDbSpline
210
0.0
220
0.0
230
1.0
 70
     8
 71
     3
 72
   218
 73
   214
 74
   212
 42
0.000000001
 43
0.0000000001
 44
0.00000001
 40
0.0
 40
0.0
 40
0.0
 40
0.0
 40
0.0059292191558774
 40
0.0116983988935208
 40
0.0173189501527327
 40
0.022802276612878
 40
0.0281597819564889
 40
0.0334028698696477
 40
0.0385429440412358
 40
0.0435914081639662
 40
0.0485596659344646
 40
0.0534591210531767
 40
0.0583011772256706
 40
0.0630972381612392
 40
0.067858707573442
 40
0.0725969891812304
 40
0.0773234867059774
 40
0.0820496038737548
 40
0.0867867444136502
 40
0.0915463120575985
 40
0.0963397105392411
 40
0.1011783435945709
 40
0.1060736149594913
 40
0.1151611126998073
 40
0.1240969256494853
 40
0.1328800869154258
 40
0.1415096295872719
 40
0.1499845867371632
 40
0.1583039914200616
 40
0.1664668766740738
 40
0.1744722755204326
 40
0.1823192209641632
 40
0.1900067459932695
 40
0.1975338835801961
 40
0.2048996666813606
 40
0.2121031282374825
 40
0.2252281233928694
 40
0.238191548071859
 40
0.2509936437202391
 40
0.2636346517492264
 40
0.276114813534374
 40
0.2884343704159668
 40
0.3005935636998729
 40
0.312592634655895
 40
0.3244318245190815
 40
0.3361113744887692
 40
0.347631525728425
 40
0.3589925193675381
 40
0.3701945964987415
 40
0.3812379981794879
 40
0.3921229654319108
 40
0.402849739242009
 40
0.4134185605613437
 40
0.4238296703048688
 40
0.435409576158586
 40
0.447159654370876
 40
0.4590757822837974
 40
0.4711538373339195
 40
0.4833896970549812
 40
0.4957792390814483
 40
0.5083183411511704
 40
0.521002881110901
 40
0.5338287369178566
 40
0.5467917866442638
 40
0.5598879084826315
 40
0.5731129807483417
 40
0.5864628818838923
 40
0.5999334904652551
 40
0.6135206852051283
 40
0.627220344957871
 40
0.641028348725226
 40
0.6549405756612371
 40
0.6689529050786733
 40
0.6830612164537588
 40
0.6972613894333384
 40
0.7115493038405123
 40
0.7259208396814745
 40
0.740371877153586
 40
0.7548982966511619
 40
0.7694959787745789
 40
0.7841608043373691
 40
0.7988886543755391
 40
0.8136754101560562
 40
0.8285169531862437
 40
0.8434091652238925
 40
0.8557368138464976
 40
0.8678879635722744
 40
0.8798630580935788
 40
0.8916625410228352
 40
0.9032868558927745
 40
0.9147364461561241
 40
0.9260117551839048
 40
0.9371132262669347
 40
0.9480413026140088
 40
0.9587964273511237
 40
0.9693790435228391
 40
0.9797895940901301
 40
0.9900285219299286
 40
1.000096269836378
 40
1.009993280518444
 40
1.01971999660071
 40
1.02927686062189
 40
1.038664315035622
 40
1.047882802208755
 40
1.056932764421683
 40
1.06581464386788
 40
1.074528882652864
 40
1.083075922794081
 40
1.091456206220891
 40
1.099670174772848
 40
1.107718270200839
 40
1.115600934165249
 40
1.123318608236869
 40
1.130871733894498
 40
1.138260752526206
 40
1.14548610542853
 40
1.152548233805696
 40
1.159447578768829
 40
1.166184581336664
 40
1.17275968243387
 40
1.179173322891661
 40
1.185425943446483
 40
1.191517984740424
 40
1.197449887320403
 40
1.203222091638035
 40
1.208835038048984
 40
1.214289166812778
 40
1.21958491809336
 40
1.224722731957732
 40
1.229703048375917
 40
1.23452630722166
 40
1.239192948271947
 40
1.243703411206963
 40
1.251062801732255
 40
1.258248463147633
 40
1.265261991403845
 40
1.272104982336162
 40
1.278779031662424
 40
1.285285734979514
 40
1.291626687759833
 40
1.29780348534942
 40
1.303817722963794
 40
1.309670995685059
 40
1.315364898457448
 40
1.32090102608569
 40
1.326280973229539
 40
1.331506334400228
 40
1.336578703958052
 40
1.341499676107003
 40
1.346270844890633
 40
1.35089380418838
 40
1.355370147710958
 40
1.359701468996071
 40
1.363889361402871
 40
1.367935418108673
 40
1.371841232102803
 40
1.375608396182129
 40
1.379238502945811
 40
1.382733144789676
 40
1.386093913901966
 40
1.389322402256376
 40
1.392420201607382
 40
1.395388903484595
 40
1.398230099186286
 40
1.400945379774845
 40
1.403536336070133
 40
1.406004558644781
 40
1.408351637818113
 40
1.410579163652589
 40
1.41268872594748
 40
1.41468191423683
 40
1.416560317786602
 40
1.418325525592508
 40
1.422985643797187
 40
1.427508135731575
 40
1.431891482463488
 40
1.436134166992797
 40
1.440234674560424
 40
1.444191493017738
 40
1.448003113280065
 40
1.451668029877967
 40
1.455184741638959
 40
1.458551752537493
 40
1.461767572763793
 40
1.464830720085023
 40
1.467739721598379
 40
1.470493116019878
 40
1.473089456719948
 40
1.475527315812157
 40
1.477805289772
 40
1.479922007320884
 40
1.481876140763702
 40
1.483666422757555
 40
1.485291671949457
 40
1.486750833716672
 40
1.488043047994694
 40
1.488719864215073
 40
1.489461486300294
 40
1.489772414569319
 40
1.49006779301197
 40
1.490328669052972
 40
1.490510929041944
 40
1.490604165895432
 40
1.491030248042594
 40
1.49134532299356
 40
1.491578465971575
 40
1.491765145945141
 40
1.492000255663859
 40
1.492256469800274
 40
1.492529963550304
 40
1.492798225008539
 40
1.493038398687446
 40
1.493247713446475
 40
1.493247713446475
 40
1.493247713446475
 40
1.493247713446475
 10
-85.04991042177835
 20
549.1250000018752
 30
0.0
 10
-85.04987554504737
 20
549.1230239032406
 30
0.0
 10
-85.04980674295018
 20
549.1191250439612
 30
0.0
 10
-85.04970471010171
 20
549.1133529623205
 30
0.0
 10
-85.0496051620922
 20
549.1077294908766
 30
0.0
 10
-85.04950786100838
 20
549.1022432259563
 30
0.0
 10
-85.04941258789312
 20
549.0968827659754
 30
0.0
 10
-85.04931911890215
 20
549.0916367094328
 30
0.0
 10
-85.04922723144689
 20
549.0864936548078
 30
0.0
 10
-85.04913670260777
 20
549.0814422005841
 30
0.0
 10
-85.049047309548
 20
549.0764709452443
 30
0.0
 10
-85.04895882940849
 20
549.0715684872716
 30
0.0
 10
-85.04887103933831
 20
549.0667234251489
 30
0.0
 10
-85.04878371648975
 20
549.061924357359
 30
0.0
 10
-85.04869663802279
 20
549.057159882385
 30
0.0
 10
-85.04860958110811
 20
549.0524185987097
 30
0.0
 10
-85.04852232292376
 20
549.0476891048157
 30
0.0
 10
-85.04843464067903
 20
549.0429599991858
 30
0.0
 10
-85.0483463115328
 20
549.0382198803026
 30
0.0
 10
-85.04825711290496
 20
549.0334573466449
 30
0.0
 10
-85.04816682130786
 20
549.0286609967078
 30
0.0
 10
-85.04807521675933
 20
549.0238194289209
 30
0.0
 10
-85.0479559270571
 20
549.0175467623791
 30
0.0
 10
-85.04780972000667
 20
549.009908634194
 30
0.0
 10
-85.04763734179788
 20
549.0009748063719
 30
0.0
 10
-85.04746655886392
 20
548.9921936279751
 30
0.0
 10
-85.0472974566583
 20
548.9835660646418
 30
0.0
 10
-85.04713011424938
 20
548.9750930821307
 30
0.0
 10
-85.04696461237145
 20
548.9667756461688
 30
0.0
 10
-85.04680103132388
 20
548.9586147224921
 30
0.0
 10
-85.0466394515185
 20
548.9506112768333
 30
0.0
 10
-85.04647995333725
 20
548.942766274927
 30
0.0
 10
-85.04632261716935
 20
548.9350806825059
 30
0.0
 10
-85.0461675233994
 20
548.9275554653057
 30
0.0
 10
-85.04601475241898
 20
548.9201915890568
 30
0.0
 10
-85.04582204372394
 20
548.9109621874104
 30
0.0
 10
-85.04558830294461
 20
548.8998673553928
 30
0.0
 10
-85.04531210415391
 20
548.8869067927695
 30
0.0
 10
-85.04503624030217
 20
548.8741075890547
 30
0.0
 10
-85.04476079349509
 20
548.8614695017668
 30
0.0
 10
-85.04448584582585
 20
548.8489922884179
 30
0.0
 10
-85.04421147939085
 20
548.8366757065227
 30
0.0
 10
-85.04393777628539
 20
548.8245195135944
 30
0.0
 10
-85.04366481860477
 20
548.8125234671472
 30
0.0
 10
-85.0433926884441
 20
548.8006873246945
 30
0.0
 10
-85.04312146789842
 20
548.7890108437509
 30
0.0
 10
-85.04285123906227
 20
548.7774937818292
 30
0.0
 10
-85.04258208403026
 20
548.7661358964441
 30
0.0
 10
-85.04231408489673
 20
548.7549369451087
 30
0.0
 10
-85.04204732375497
 20
548.7438966853372
 30
0.0
 10
-85.04178188270164
 20
548.7330148746435
 30
0.0
 10
-85.04151784381929
 20
548.7222912705416
 30
0.0
 10
-85.04125528924102
 20
548.7117256305438
 30
0.0
 10
-85.04098321860198
 20
548.7008757621594
 30
0.0
 10
-85.04069859425798
 20
548.6896323327849
 30
0.0
 10
-85.04039826984311
 20
548.6778874677861
 30
0.0
 10
-85.04009057730187
 20
548.6659766875864
 30
0.0
 10
-85.03977545962945
 20
548.6539041184367
 30
0.0
 10
-85.0394528597639
 20
548.6416738865878
 30
0.0
 10
-85.03912272065797
 20
548.629290118292
 30
0.0
 10
-85.03878498525987
 20
548.6167569397998
 30
0.0
 10
-85.03843959651834
 20
548.6040784773625
 30
0.0
 10
-85.03808649738163
 20
548.5912588572306
 30
0.0
 10
-85.03772563079815
 20
548.5783022056556
 30
0.0
 10
-85.03735693971605
 20
548.565212648888
 30
0.0
 10
-85.03698036708371
 20
548.5519943131782
 30
0.0
 10
-85.03659585584973
 20
548.538651324777
 30
0.0
 10
-85.03620334896306
 20
548.5251878099347
 30
0.0
 10
-85.0358027893729
 20
548.5116078949014
 30
0.0
 10
-85.03539412002924
 20
548.4979157059271
 30
0.0
 10
-85.03497728388234
 20
548.4841153692615
 30
0.0
 10
-85.03455222388354
 20
548.470211011155
 30
0.0
 10
-85.03411888298457
 20
548.4562067578561
 30
0.0
 10
-85.03367720413817
 20
548.4421067356146
 30
0.0
 10
-85.03322713029812
 20
548.4279150706792
 30
0.0
 10
-85.03276860441905
 20
548.413635889299
 30
0.0
 10
-85.03230156945696
 20
548.3992733177223
 30
0.0
 10
-85.03182596836874
 20
548.3848314821978
 30
0.0
 10
-85.03134174411308
 20
548.3703145089727
 30
0.0
 10
-85.03084883964846
 20
548.3557265242953
 30
0.0
 10
-85.03034719794101
 20
548.3410716544123
 30
0.0
 10
-85.02983676193544
 20
548.3263540255723
 30
0.0
 10
-85.02931747466405
 20
548.311577764017
 30
0.0
 10
-85.02878927883894
 20
548.2967469960101
 30
0.0
 10
-85.02828351548054
 20
548.2827356527661
 30
0.0
 10
-85.02780421339402
 20
548.2696207377272
 30
0.0
 10
-85.02735543862381
 20
548.2574777297174
 30
0.0
 10
-85.02690824542422
 20
548.245510839701
 30
0.0
 10
-85.02646275391459
 20
548.2337196212909
 30
0.0
 10
-85.02601908447527
 20
548.2221036280971
 30
0.0
 10
-85.02557735741752
 20
548.2106624137308
 30
0.0
 10
-85.02513769307119
 20
548.199395531803
 30
0.0
 10
-85.02470021176045
 20
548.1883025359238
 30
0.0
 10
-85.02426503381147
 20
548.1773829797048
 30
0.0
 10
-85.02383227954927
 20
548.1666364167562
 30
0.0
 10
-85.02340206929927
 20
548.156062400689
 30
0.0
 10
-85.02297452338644
 20
548.1456604851141
 30
0.0
 10
-85.02254976213582
 20
548.1354302236426
 30
0.0
 10
-85.0221279058722
 20
548.125371169885
 30
0.0
 10
-85.02170907492012
 20
548.1154828774525
 30
0.0
 10
-85.0212933896041
 20
548.1057648999557
 30
0.0
 10
-85.02088097024823
 20
548.0962167910055
 30
0.0
 10
-85.02047193717665
 20
548.0868381042131
 30
0.0
 10
-85.02006641071294
 20
548.0776283931895
 30
0.0
 10
-85.0196645111807
 20
548.0685872115452
 30
0.0
 10
-85.0192663589031
 20
548.0597141128917
 30
0.0
 10
-85.01887207420303
 20
548.0510086508397
 30
0.0
 10
-85.01848177740305
 20
548.0424703790004
 30
0.0
 10
-85.01809558882522
 20
548.0340988509844
 30
0.0
 10
-85.0177136287916
 20
548.0258936204035
 30
0.0
 10
-85.0173360176232
 20
548.0178542408687
 30
0.0
 10
-85.01696287564098
 20
548.0099802659903
 30
0.0
 10
-85.01659432316531
 20
548.0022712493808
 30
0.0
 10
-85.01623048051582
 20
547.9947267446503
 30
0.0
 10
-85.01587146801155
 20
547.9873463054105
 30
0.0
 10
-85.01551740597094
 20
547.9801294852733
 30
0.0
 10
-85.0151684147113
 20
547.9730758378488
 30
0.0
 10
-85.0148246145495
 20
547.9661849167496
 30
0.0
 10
-85.014486125801
 20
547.9594562755867
 30
0.0
 10
-85.01415306878044
 20
547.9528894679715
 30
0.0
 10
-85.01382556380102
 20
547.9464840475162
 30
0.0
 10
-85.01350373117464
 20
547.9402395678321
 30
0.0
 10
-85.01318769121164
 20
547.9341555825307
 30
0.0
 10
-85.01287756422055
 20
547.9282316452251
 30
0.0
 10
-85.01257347050795
 20
547.9224673095259
 30
0.0
 10
-85.01227553037765
 20
547.9168621290465
 30
0.0
 10
-85.01198386413296
 20
547.9114156573988
 30
0.0
 10
-85.0116985920669
 20
547.9061274481954
 30
0.0
 10
-85.0114198344943
 20
547.9009970550482
 30
0.0
 10
-85.01114771163716
 20
547.8960240315738
 30
0.0
 10
-85.01088234402899
 20
547.891207931373
 30
0.0
 10
-85.01062385107382
 20
547.8865483081023
 30
0.0
 10
-85.01031651313515
 20
547.881044717843
 30
0.0
 10
-85.00995928007283
 20
547.8747029326338
 30
0.0
 10
-85.00955068835387
 20
547.8675283640126
 30
0.0
 10
-85.00914751596467
 20
547.8605259002317
 30
0.0
 10
-85.00874983909499
 20
547.8536939411999
 30
0.0
 10
-85.00835773554573
 20
547.8470308867218
 30
0.0
 10
-85.0079712827008
 20
547.8405351366274
 30
0.0
 10
-85.00759055805129
 20
547.8342050907414
 30
0.0
 10
-85.00721563905961
 20
547.8280391488895
 30
0.0
 10
-85.00684660319479
 20
547.8220357108975
 30
0.0
 10
-85.00648352792325
 20
547.8161931765908
 30
0.0
 10
-85.00612649071098
 20
547.810509945796
 30
0.0
 10
-85.00577556902303
 20
547.8049844183384
 30
0.0
 10
-85.00543084032347
 20
547.7996149940451
 30
0.0
 10
-85.0050923820753
 20
547.7944000727423
 30
0.0
 10
-85.00476027174021
 20
547.7893380542565
 30
0.0
 10
-85.0044345867787
 20
547.7844273384144
 30
0.0
 10
-85.00411540464985
 20
547.7796663250434
 30
0.0
 10
-85.00380280281095
 20
547.77505341397
 30
0.0
 10
-85.00349685871771
 20
547.7705870050229
 30
0.0
 10
-85.00319764982356
 20
547.7662654980287
 30
0.0
 10
-85.00290525358
 20
547.7620872928163
 30
0.0
 10
-85.00261974743562
 20
547.7580507892135
 30
0.0
 10
-85.00234120883628
 20
547.7541543870498
 30
0.0
 10
-85.00206971522465
 20
547.7503964861537
 30
0.0
 10
-85.00180534403944
 20
547.7467754863553
 30
0.0
 10
-85.00154817271513
 20
547.7432897874847
 30
0.0
 10
-85.00129827868125
 20
547.7399377893726
 30
0.0
 10
-85.00105573936148
 20
547.73671789185
 30
0.0
 10
-85.00082063217266
 20
547.7336284947495
 30
0.0
 10
-85.00059303452402
 20
547.7306679979035
 30
0.0
 10
-85.00037302381483
 20
547.7278348011465
 30
0.0
 10
-85.00016067743465
 20
547.725127304313
 30
0.0
 10
-84.99995607275547
 20
547.7225439072397
 30
0.0
 10
-84.99975928714707
 20
547.7200830097635
 30
0.0
 10
-84.99957039791241
 20
547.7177430117271
 30
0.0
 10
-84.99938948249381
 20
547.7155223129615
 30
0.0
 10
-84.9992166177402
 20
547.7134193133463
 30
0.0
 10
-84.99905188240018
 20
547.7114324126092
 30
0.0
 10
-84.99889534854422
 20
547.7095600110091
 30
0.0
 10
-84.99866297609127
 20
547.7068018723973
 30
0.0
 10
-84.99835223358349
 20
547.7031658516789
 30
0.0
 10
-84.99795851575111
 20
547.6986610357661
 30
0.0
 10
-84.99756800663177
 20
547.6942956231848
 30
0.0
 10
-84.99718080239138
 20
547.6900711479124
 30
0.0
 10
-84.99679701369341
 20
547.6859891425116
 30
0.0
 10
-84.9964167478218
 20
547.6820511398005
 30
0.0
 10
-84.99604011331253
 20
547.6782586723994
 30
0.0
 10
-84.99566721886104
 20
547.6746132728111
 30
0.0
 10
-84.99529817370977
 20
547.6711164733506
 30
0.0
 10
-84.99493308769256
 20
547.6677698061009
 30
0.0
 10
-84.99457207140897
 20
547.6645748028322
 30
0.0
 10
-84.99421523642421
 20
547.6615329949022
 30
0.0
 10
-84.99386269554628
 20
547.6586459131054
 30
0.0
 10
-84.99351456319259
 20
547.6559150874635
 30
0.0
 10
-84.99317095592153
 20
547.6533420469008
 30
0.0
 10
-84.99283199308455
 20
547.6509283188136
 30
0.0
 10
-84.99249779807006
 20
547.6486754282028
 30
0.0
 10
-84.99216849904084
 20
547.6465848969821
 30
0.0
 10
-84.99184423362675
 20
547.6446582405252
 30
0.0
 10
-84.99152514401337
 20
547.6428969695701
 30
0.0
 10
-84.99121140901322
 20
547.6413025676735
 30
0.0
 10
-84.9909031653974
 20
547.6398765345897
 30
0.0
 10
-84.9906357360777
 20
547.6387653707384
 30
0.0
 10
-84.99040236447617
 20
547.6378924304196
 30
0.0
 10
-84.99024028966761
 20
547.6373391256087
 30
0.0
 10
-84.99010344711533
 20
547.6369111443723
 30
0.0
 10
-84.99001078220847
 20
547.636637320488
 30
0.0
 10
-84.98992756444702
 20
547.6364056304035
 30
0.0
 10
-84.98986423183433
 20
547.636238413682
 30
0.0
 10
-84.98977801381659
 20
547.6360210524964
 30
0.0
 10
-84.98966033784004
 20
547.6357680983781
 30
0.0
 10
-84.98947813742531
 20
547.6354970276478
 30
0.0
 10
-84.98929163448905
 20
547.6353316181464
 30
0.0
 10
-84.98907850752744
 20
547.635258620388
 30
0.0
 10
-84.98884739437462
 20
547.6353001588852
 30
0.0
 10
-84.988624111304
 20
547.6354258813008
 30
0.0
 10
-84.98841026928842
 20
547.635585204637
 30
0.0
 10
-84.98820201079191
 20
547.6357382332608
 30
0.0
 10
-84.98799297921815
 20
547.6358694970558
 30
0.0
 10
-84.98784063410434
 20
547.635872836432
 30
0.0
 10
-84.9877696917963
 20
547.635874398535
 30
0.0
 11
-85.04991042177835
 21
549.1250000018752
 31
0.0
 11
-85.04980576468365
 21
549.1190717137046
 31
0.0
 11
-85.04970380310918
 21
549.1133034350432
 31
0.0
 11
-85.04960431430118
 21
549.1076837643723
 31
0.0
 11
-85.04950707550589
 21
549.1022013001731
 31
0.0
 11
-85.04941186396954
 21
549.0968446409269
 31
0.0
 11
-85.04931845693842
 21
549.0916023851147
 31
0.0
 11
-85.04922663165873
 21
549.0864631312179
 31
0.0
 11
-85.04913616537668
 21
549.0814154777177
 31
0.0
 11
-85.04904683533857
 21
549.0764480230952
 31
0.0
 11
-85.04895841879062
 21
549.0715493658319
 31
0.0
 11
-85.04887069297908
 21
549.0667081044087
 31
0.0
 11
-85.04878343515016
 21
549.061912837307
 31
0.0
 11
-85.04869642255014
 21
549.0571521630081
 31
0.0
 11
-85.04860943242521
 21
549.0524146799928
 31
0.0
 11
-85.04852224202163
 21
549.0476889867427
 31
0.0
 11
-85.04843462858568
 21
549.0429636817391
 31
0.0
 11
-85.0483463693636
 21
549.0382273634631
 31
0.0
 11
-85.04825724160156
 21
549.0334686303956
 31
0.0
 11
-85.04816702254587
 21
549.0286760810184
 31
0.0
 11
-85.04807548944274
 21
549.0238383138121
 31
0.0
 11
-85.04798241953841
 21
549.0189439272585
 31
0.0
 11
-85.04780851162269
 21
549.0098580937117
 31
0.0
 11
-85.04763612258097
 21
549.0009239437742
 31
0.0
 11
-85.04746533280911
 21
548.9921424431797
 31
0.0
 11
-85.04729622270285
 21
548.9835145576619
 31
0.0
 11
-85.04712887265802
 21
548.9750412529545
 31
0.0
 11
-85.04696336307043
 21
548.9667234947913
 31
0.0
 11
-85.04679977433584
 21
548.9585622489058
 31
0.0
 11
-85.04663818685006
 21
548.9505584810319
 31
0.0
 11
-85.04647868100889
 21
548.942713156903
 31
0.0
 11
-85.04632133720811
 21
548.935027242253
 31
0.0
 11
-85.04616623584354
 21
548.9275017028158
 31
0.0
 11
-85.04601345731095
 21
548.9201375043247
 31
0.0
 11
-85.04586308200612
 21
548.9129356125135
 31
0.0
 11
-85.04558662691151
 21
548.8998135292027
 31
0.0
 11
-85.04531042477966
 21
548.886853047275
 31
0.0
 11
-85.04503455770957
 21
548.8740539242444
 31
0.0
 11
-85.04475910780013
 21
548.861415917624
 31
0.0
 11
-85.04448415715035
 21
548.8489387849276
 31
0.0
 11
-85.04420978785922
 21
548.836622283669
 31
0.0
 11
-85.04393608202567
 21
548.8244661713616
 31
0.0
 11
-85.04366312174866
 21
548.812470205519
 31
0.0
 11
-85.04339098912719
 21
548.800634143655
 31
0.0
 11
-85.04311976626019
 21
548.7889577432829
 31
0.0
 11
-85.04284953524666
 21
548.777440761917
 31
0.0
 11
-85.04258037818553
 21
548.76608295707
 31
0.0
 11
-85.04231237717579
 21
548.754884086256
 31
0.0
 11
-85.0420456143164
 21
548.7438439069886
 31
0.0
 11
-85.04178017170629
 21
548.7329621767814
 31
0.0
 11
-85.04151613144452
 21
548.7222386531482
 31
0.0
 11
-85.04125357562995
 21
548.7116730936021
 31
0.0
 11
-85.0409925863616
 21
548.7012652556572
 31
0.0
 11
-85.04069953303221
 21
548.689689058556
 31
0.0
 11
-85.04039916815192
 21
548.6779428200548
 31
0.0
 11
-85.04009143463298
 21
548.6660306664077
 31
0.0
 11
-85.03977627538774
 21
548.6539567238685
 31
0.0
 11
-85.0394536333284
 21
548.6417251186914
 31
0.0
 11
-85.03912345136723
 21
548.6293399771303
 31
0.0
 11
-85.03878567241655
 21
548.6168054254395
 31
0.0
 11
-85.03844023938859
 21
548.6041255898725
 31
0.0
 11
-85.03808709519564
 21
548.5913045966836
 31
0.0
 11
-85.03772618274996
 21
548.578346572127
 31
0.0
 11
-85.03735744496383
 21
548.5652556424563
 31
0.0
 11
-85.03698082474952
 21
548.5520359339257
 31
0.0
 11
-85.03659626501931
 21
548.5386915727895
 31
0.0
 11
-85.03620370868546
 21
548.5252266853014
 31
0.0
 11
-85.03580309866024
 21
548.5116453977154
 31
0.0
 11
-85.03539437785591
 21
548.4979518362856
 31
0.0
 11
-85.03497748918475
 21
548.4841501272659
 31
0.0
 11
-85.03455237555909
 21
548.4702443969107
 31
0.0
 11
-85.03411897989113
 21
548.4562387714736
 31
0.0
 11
-85.03367724509314
 21
548.4421373772088
 31
0.0
 11
-85.03322711407743
 21
548.4279443403702
 31
0.0
 11
-85.03276852975624
 21
548.4136637872118
 31
0.0
 11
-85.03230143504189
 21
548.3992998439879
 31
0.0
 11
-85.03182577284657
 21
548.3848566369521
 31
0.0
 11
-85.03134148608262
 21
548.3703382923588
 31
0.0
 11
-85.03084851766229
 21
548.3557489364616
 31
0.0
 11
-85.03034681049786
 21
548.3410926955149
 31
0.0
 11
-85.02983630750158
 21
548.3263736957726
 31
0.0
 11
-85.02931695158573
 21
548.3115960634885
 31
0.0
 11
-85.0287886856626
 21
548.296763924917
 31
0.0
 11
-85.02825145264444
 21
548.2818814063118
 31
0.0
 11
-85.02780120886175
 21
548.2695619825801
 31
0.0
 11
-85.02735242628151
 21
548.2574191232036
 31
0.0
 11
-85.02690522523159
 21
548.2454523817926
 31
0.0
 11
-85.0264597260398
 21
548.2336613119578
 31
0.0
 11
-85.02601604903408
 21
548.2220454673095
 31
0.0
 11
-85.02557431454223
 21
548.210604401458
 31
0.0
 11
-85.02513464289216
 21
548.1993376680141
 31
0.0
 11
-85.02469715441167
 21
548.188244820588
 31
0.0
 11
-85.02426196942868
 21
548.17732541279
 31
0.0
 11
-85.02382920827102
 21
548.166578998231
 31
0.0
 11
-85.02339899126657
 21
548.156005130521
 31
0.0
 11
-85.02297143874317
 21
548.1456033632704
 31
0.0
 11
-85.02254667102869
 21
548.1353732500902
 31
0.0
 11
-85.022124808451
 21
548.1253143445903
 31
0.0
 11
-85.02170597133797
 21
548.1154262003814
 31
0.0
 11
-85.02129028001742
 21
548.1057083710738
 31
0.0
 11
-85.02087785481726
 21
548.0961604102781
 31
0.0
 11
-85.02046881606532
 21
548.0867818716046
 31
0.0
 11
-85.02006328408947
 21
548.0775723086638
 31
0.0
 11
-85.0196613792176
 21
548.0685312750662
 31
0.0
 11
-85.0192632217775
 21
548.0596583244221
 31
0.0
 11
-85.0188689320971
 21
548.0509530103421
 31
0.0
 11
-85.01847863050425
 21
548.0424148864366
 31
0.0
 11
-85.01809243732677
 21
548.0340435063159
 31
0.0
 11
-85.0177104728926
 21
548.0258384235908
 31
0.0
 11
-85.01733285752951
 21
548.0177991918713
 31
0.0
 11
-85.01695971156543
 21
548.0099253647683
 31
0.0
 11
-85.01659115532814
 21
548.0022164958915
 31
0.0
 11
-85.01622730914562
 21
547.9946721388521
 31
0.0
 11
-85.01586829334563
 21
547.9872918472604
 31
0.0
 11
-85.01551422825611
 21
547.9800751747266
 31
0.0
 11
-85.01516523420484
 21
547.9730216748612
 31
0.0
 11
-85.01482143151975
 21
547.9661309012748
 31
0.0
 11
-85.01448294052867
 21
547.9594024075777
 31
0.0
 11
-85.01414988155945
 21
547.9528357473804
 31
0.0
 11
-85.01382237493998
 21
547.9464304742933
 31
0.0
 11
-85.0135005409981
 21
547.9401861419268
 31
0.0
 11
-85.01318450006168
 21
547.9341023038916
 31
0.0
 11
-85.0128743724586
 21
547.9281785137979
 31
0.0
 11
-85.01257027851669
 21
547.9224143252561
 31
0.0
 11
-85.0122723385638
 21
547.9168092918768
 31
0.0
 11
-85.01198067292788
 21
547.9113629672705
 31
0.0
 11
-85.01169540193669
 21
547.9060749050475
 31
0.0
 11
-85.01141664591812
 21
547.900944658818
 31
0.0
 11
-85.01114452520007
 21
547.895971782193
 31
0.0
 11
-85.01087916011035
 21
547.8911558287826
 31
0.0
 11
-85.01062067097682
 21
547.8864963521972
 31
0.0
 11
-85.0103691781274
 21
547.8819929060475
 31
0.0
 11
-85.00995525065696
 21
547.8746451653794
 31
0.0
 11
-85.00954666445317
 21
547.8674711297466
 31
0.0
 11
-85.00914349699772
 21
547.8604691989718
 31
0.0
 11
-85.00874582577244
 21
547.8536377728785
 31
0.0
 11
-85.00835372825907
 21
547.8469752512897
 31
0.0
 11
-85.0079672819393
 21
547.8404800340285
 31
0.0
 11
-85.007586564295
 21
547.8341505209186
 31
0.0
 11
-85.00721165280785
 21
547.8279851117827
 31
0.0
 11
-85.00684262495965
 21
547.8219822064443
 31
0.0
 11
-85.00647955823214
 21
547.8161402047264
 31
0.0
 11
-85.00612253010708
 21
547.8104575064524
 31
0.0
 11
-85.00577161806623
 21
547.8049325114453
 31
0.0
 11
-85.00542689959137
 21
547.7995636195283
 31
0.0
 11
-85.00508845216424
 21
547.794349230525
 31
0.0
 11
-85.00475635326661
 21
547.7892877442583
 31
0.0
 11
-85.0044306803802
 21
547.7843775605514
 31
0.0
 11
-85.00411151098682
 21
547.7796170792275
 31
0.0
 11
-85.00379892256821
 21
547.7750047001099
 31
0.0
 11
-85.00349299260611
 21
547.7705388230218
 31
0.0
 11
-85.00319379858229
 21
547.7662178477862
 31
0.0
 11
-85.00290141797856
 21
547.7620401742266
 31
0.0
 11
-85.00261592827661
 21
547.758004202166
 31
0.0
 11
-85.0023374069582
 21
547.7541083314277
 31
0.0
 11
-85.00206593150513
 21
547.7503509618348
 31
0.0
 11
-85.00180157939914
 21
547.7467304932106
 31
0.0
 11
-85.001544428122
 21
547.7432453253786
 31
0.0
 11
-85.00129455515547
 21
547.7398938581615
 31
0.0
 11
-85.00105203798131
 21
547.7366744913827
 31
0.0
 11
-85.00081695408124
 21
547.7335856248656
 31
0.0
 11
-85.00058938093704
 21
547.7306256584329
 31
0.0
 11
-85.0003693960305
 21
547.7277929919082
 31
0.0
 11
-85.00015707684334
 21
547.7250860251147
 31
0.0
 11
-84.99995250085735
 21
547.7225031578755
 31
0.0
 11
-84.99975574555424
 21
547.7200427900138
 31
0.0
 11
-84.99956688841586
 21
547.7177033213532
 31
0.0
 11
-84.99938600692388
 21
547.7154831517162
 31
0.0
 11
-84.99921317856013
 21
547.7133806809265
 31
0.0
 11
-84.99904848080628
 21
547.7113943088073
 31
0.0
 11
-84.99889199114413
 21
547.7095224351813
 31
0.0
 11
-84.9987437870555
 21
547.7077634598724
 31
0.0
 11
-84.99834681051522
 21
547.7031202808705
 31
0.0
 11
-84.99795291521843
 21
547.69861497514
 31
0.0
 11
-84.99756220731139
 21
547.6942490759387
 31
0.0
 11
-84.99717479294036
 21
547.6900241165246
 31
0.0
 11
-84.99679077825152
 21
547.6859416301548
 31
0.0
 11
-84.99641026939115
 21
547.6820031500878
 31
0.0
 11
-84.99603337250545
 21
547.678210209581
 31
0.0
 11
-84.99566019374068
 21
547.6745643418924
 31
0.0
 11
-84.99529083924308
 21
547.6710670802796
 31
0.0
 11
-84.99492541515886
 21
547.6677199580005
 31
0.0
 11
-84.99456402763424
 21
547.6645245083128
 31
0.0
 11
-84.99420678281552
 21
547.6614822644742
 31
0.0
 11
-84.99385378684887
 21
547.6585947597428
 31
0.0
 11
-84.99350514588058
 21
547.6558635273761
 31
0.0
 11
-84.99316096605685
 21
547.653290100632
 31
0.0
 11
-84.9928213535239
 21
547.6508760127682
 31
0.0
 11
-84.99248641442797
 21
547.6486227970427
 31
0.0
 11
-84.99215625491536
 21
547.6465319867132
 31
0.0
 11
-84.99183098113221
 21
547.644605115037
 31
0.0
 11
-84.99151069922482
 21
547.6428437152725
 31
0.0
 11
-84.9911955153394
 21
547.6412493206774
 31
0.0
 11
-84.9908855356222
 21
547.6398234645094
 31
0.0
 11
-84.99058086621943
 21
547.6385676800261
 31
0.0
 11
-84.99040547467686
 21
547.6379139841995
 31
0.0
 11
-84.99019584170952
 21
547.6372026067086
 31
0.0
 11
-84.99010101017272
 21
547.6369064925864
 31
0.0
 11
-84.99000617396433
 21
547.6366267519512
 31
0.0
 11
-84.98991786930152
 21
547.636381274851
 31
0.0
 11
-84.98985313098456
 21
547.6362108988255
 31
0.0
 11
-84.98981860494831
 21
547.6361242894142
 31
0.0
 11
-84.98963341107908
 21
547.6357405518119
 31
0.0
 11
-84.98945071825881
 21
547.6354838474629
 31
0.0
 11
-84.98927056441495
 21
547.6353358616655
 31
0.0
 11
-84.98909298747503
 21
547.6352782797185
 31
0.0
 11
-84.98886009008304
 21
547.6353104575442
 31
0.0
 11
-84.98863212209595
 21
547.6354274033954
 31
0.0
 11
-84.98840909089374
 21
547.635585693846
 31
0.0
 11
-84.98819100385641
 21
547.63574190547
 31
0.0
 11
-84.98797786836393
 21
547.6358526148417
 31
0.0
 11
-84.9877696917963
 21
547.635874398535
 31
0.0
  0
SPLINE
  5
BE
330
4A
100
AcDbEntity
  8
0
  6
Continuous
 62
     3
100
AcDbSpline
210
0.0
220
0.0
230
1.0
 70
     8
 71
     3
 72
    17
 73
    13
 74
    11
 42
0.000000001
 43
0.0000000001
 44
0.00000001
 40
0.0
 40
0.0
 40
0.0
 40
0.0
 40
0.0007701338217733
 40
0.0015249255698792
 40
0.0022535620822725
 40
0.0029557290599072
 40
0.0042873125256514
 40
0.0055211300601134
 40
0.0076945797808009
 40
0.0094749459559338
 40
0.0110596726369379
 40
0.0126444192645953
 40
0.0126444192645953
 40
0.0126444192645953
 40
0.0126444192645953
 10
-84.9877696917963
 20
547.635874398535
 30
0.0
 10
-84.98768191138876
 20
547.6361156364426
 30
0.0
 10
-84.98750808559438
 20
547.6365933015234
 30
0.0
 10
-84.9872562927688
 20
547.6373010358969
 30
0.0
 10
-84.98701015658999
 20
547.6379867292317
 30
0.0
 10
-84.98669827554758
 20
547.6388530981171
 30
0.0
 10
-84.98632993399647
 20
547.6398781141605
 30
0.0
 10
-84.98579560473668
 20
547.6413646140161
 30
0.0
 10
-84.98521092708248
 20
547.6429919809864
 30
0.0
 10
-84.9845869392961
 20
547.6447295145887
 30
0.0
 10
-84.98402943733498
 20
547.6462824199316
 30
0.0
 10
-84.98367250568171
 20
547.6472767907102
 30
0.0
 10
-84.98349403185244
 20
547.647773976759
 30
0.0
 11
-84.9877696917963
 21
547.635874398535
 31
0.0
 11
-84.9875072246497
 21
547.6365984268917
 31
0.0
 11
-84.98725303939625
 21
547.6373091310796
 31
0.0
 11
-84.98700707921259
 21
547.6379949989657
 31
0.0
 11
-84.98676939051961
 21
547.638655712634
 31
0.0
 11
-84.9863189028826
 21
547.6399087790402
 31
0.0
 11
-84.98590158428613
 21
547.6410698780451
 31
0.0
 11
-84.9851666852515
 21
547.6431153137202
 31
0.0
 11
-84.98456493802234
 21
547.6447909043598
 31
0.0
 11
-84.98402946076658
 21
547.6462824212932
 31
0.0
 11
-84.98349403185244
 21
547.647773976759
 31
0.0
  0
ENDBLK
  5
4C
330
4A
100
AcDbEntity
  8
0
100
AcDbBlockEnd
  0
BLOCK
  5
4E
330
4D
100
AcDbEntity
  8
0
100
AcDbBlockBegin
  2
Holländermutter_1
 70
     0
 10
-114.6334940318539
 20
518.5250000018751
 30
0.0
  3
Holländermutter_1
  1

  0
LINE
  5
BF
330
4D
100
AcDbEntity
  8
1
  6
DOT_CENTER
 62
     2
100
AcDbLine
 10
-94.48349403185199
 20
551.1250000018752
 30
0.0
 11
-94.48349403185728
 21
510.1250000018754
 31
0.0
  0
LINE
  5
C0
330
4D
100
AcDbEntity
  8
0
  6
Continuous
 62
     7
100
AcDbLine
 10
-74.3334940318507
 20
518.5250000018751
 30
0.0
 11
-82.68625409033893
 21
518.5250000018751
 31
0.0
  0
LINE
  5
C1
330
4D
100
AcDbEntity
  8
0
  6
Continuous
 62
     3
100
AcDbLine
 10
-74.3334940318507
 20
520.525000001875
 30
0.0
 11
-82.68625409033905
 21
520.525000001875
 31
0.0
  0
LINE
  5
C2
330
4D
100
AcDbEntity
  8
0
  6
Continuous
 62
     7
100
AcDbLine
 10
-80.5933739716906
 20
521.025000001875
 30
0.0
 11
-82.97898957275862
 21
521.0250000018751
 31
0.0
  0
LINE
  5
C3
330
4D
100
AcDbEntity
  8
0
  6
Continuous
 62
     7
100
AcDbLine
 10
-74.3334940318507
 20
518.5250000018751
 30
0.0
 11
-74.3334940318507
 21
520.525000001875
 31
0.0
  0
LINE
  5
C4
330
4D
100
AcDbEntity
  8
0
  6
Continuous
 62
     7
100
AcDbLine
 10
-98.68460612422393
 20
531.525000001875
 30
0.0
 11
-98.68460612422402
 21
521.025000001875
 31
0.0
  0
LINE
  5
C5
330
4D
100
AcDbEntity
  8
0
  6
Continuous
 62
     7
100
AcDbLine
 10
-96.12848992145942
 20
531.525000001875
 30
0.0
 11
-89.16477413854585
 21
531.525000001875
 31
0.0
  0
LINE
  5
C6
330
4D
100
AcDbEntity
  8
0
  6
Continuous
 62
     7
100
AcDbLine
 10
-86.744942482628
 20
531.525000001875
 30
0.0
 11
-83.89572602358663
 21
531.525000001875
 31
0.0
  0
LINE
  5
C7
330
4D
100
AcDbEntity
  8
0
  6
Continuous
 62
     7
100
AcDbLine
 10
-83.89572602358663
 20
531.525000001875
 30
0.0
 11
-81.07008885304651
 21
531.525000001875
 31
0.0
  0
LINE
  5
C8
330
4D
100
AcDbEntity
  8
0
  6
Continuous
 62
     7
100
AcDbLine
 10
-99.80221392515892
 20
531.525000001875
 30
0.0
 11
-98.68460612422393
 21
531.525000001875
 31
0.0
  0
LINE
  5
C9
330
4D
100
AcDbEntity
  8
0
  6
Continuous
 62
     7
100
AcDbLine
 10
-96.04569290532152
 20
521.025000001875
 30
0.0
 11
-96.04569290532152
 21
530.7250000018748
 31
0.0
  0
LINE
  5
CA
330
4D
100
AcDbEntity
  8
0
  6
Continuous
 62
     7
100
AcDbLine
 10
-96.12848992145942
 20
531.525000001875
 30
0.0
 11
-96.12848992145942
 21
521.025000001875
 31
0.0
  0
LINE
  5
CB
330
4D
100
AcDbEntity
  8
0
  6
Continuous
 62
     7
100
AcDbLine
 10
-89.08197712240792
 20
530.7250000018748
 30
0.0
 11
-96.04569290532152
 21
530.7250000018748
 31
0.0
  0
LINE
  5
CC
330
4D
100
AcDbEntity
  8
0
  6
Continuous
 62
     7
100
AcDbLine
 10
-89.08197712240792
 20
521.025000001875
 30
0.0
 11
-89.08197712240792
 21
530.7250000018748
 31
0.0
  0
LINE
  5
CD
330
4D
100
AcDbEntity
  8
0
  6
Continuous
 62
     7
100
AcDbLine
 10
-86.26822760127214
 20
521.025000001875
 30
0.0
 11
-86.26822760127214
 21
530.7250000018748
 31
0.0
  0
LINE
  5
CE
330
4D
100
AcDbEntity
  8
0
  6
Continuous
 62
     7
100
AcDbLine
 10
-86.744942482628
 20
531.525000001875
 30
0.0
 11
-86.74494248262795
 21
521.025000001875
 31
0.0
  0
LINE
  5
CF
330
4D
100
AcDbEntity
  8
0
  6
Continuous
 62
     3
100
AcDbLine
 10
-76.08349403185065
 20
535.025000001875
 30
0.0
 11
-83.71082827880781
 21
535.025000001875
 31
0.0
  0
LINE
  5
D0
330
4D
100
AcDbEntity
  8
0
  6
Continuous
 62
     7
100
AcDbLine
 10
-84.29629924364713
 20
536.025000001875
 30
0.0
 11
-111.8834940318538
 21
536.025000001875
 31
0.0
  0
LINE
  5
D1
330
4D
100
AcDbEntity
  8
0
  6
Continuous
 62
     3
100
AcDbLine
 10
-83.71082827880781
 20
535.025000001875
 30
0.0
 11
-112.883494031854
 21
535.025000001875
 31
0.0
  0
LINE
  5
D2
330
4D
100
AcDbEntity
  8
0
  6
Continuous
 62
     7
100
AcDbLine
 10
-112.883494031854
 20
531.525000001875
 30
0.0
 11
-113.6834940318543
 21
530.7250000018748
 31
0.0
  0
LINE
  5
D3
330
4D
100
AcDbEntity
  8
0
  6
Continuous
 62
     7
100
AcDbLine
 10
-111.1770502713138
 20
531.525000001875
 30
0.0
 11
-109.2834940318523
 21
531.5250000018751
 31
0.0
  0
LINE
  5
D4
330
4D
100
AcDbEntity
  8
0
  6
Continuous
 62
     7
100
AcDbLine
 10
-114.6334940318539
 20
518.5250000018751
 30
0.0
 11
-114.6334940318539
 21
520.525000001875
 31
0.0
  0
LINE
  5
D5
330
4D
100
AcDbEntity
  8
0
  6
Continuous
 62
     7
100
AcDbLine
 10
-111.8371506342706
 20
521.025000001875
 30
0.0
 11
-111.8371506342706
 21
530.7250000018748
 31
0.0
  0
LINE
  5
D6
330
4D
100
AcDbEntity
  8
0
  6
Continuous
 62
     7
100
AcDbLine
 10
-112.0980113030298
 20
531.525000001875
 30
0.0
 11
-112.09801130303
 21
521.025000001875
 31
0.0
  0
LINE
  5
D7
330
4D
100
AcDbEntity
  8
0
  6
Continuous
 62
     7
100
AcDbLine
 10
-112.09801130303
 20
521.025000001875
 30
0.0
 11
-112.9080324270757
 21
521.025000001875
 31
0.0
  0
LINE
  5
D8
330
4D
100
AcDbEntity
  8
0
  6
Continuous
 62
     7
100
AcDbLine
 10
-112.9080324270757
 20
521.025000001875
 30
0.0
 11
-113.6834940318543
 21
521.025000001875
 31
0.0
  0
LINE
  5
D9
330
4D
100
AcDbEntity
  8
0
  6
Continuous
 62
     7
100
AcDbLine
 10
-112.883494031854
 20
531.525000001875
 30
0.0
 11
-112.0980113030298
 21
531.525000001875
 31
0.0
  0
LINE
  5
DA
330
4D
100
AcDbEntity
  8
0
  6
Continuous
 62
     7
100
AcDbLine
 10
-113.6834940318543
 20
530.7250000018748
 30
0.0
 11
-113.6834940318543
 21
521.025000001875
 31
0.0
  0
LINE
  5
DB
330
4D
100
AcDbEntity
  8
0
  6
Continuous
 62
     7
100
AcDbLine
 10
-112.9080324270757
 20
521.025000001875
 30
0.0
 11
-112.9080324270757
 21
530.7250000018748
 31
0.0
  0
LINE
  5
DC
330
4D
100
AcDbEntity
  8
0
  6
Continuous
 62
     7
100
AcDbLine
 10
-112.883494031854
 20
535.025000001875
 30
0.0
 11
-112.883494031854
 21
531.525000001875
 31
0.0
  0
LINE
  5
DD
330
4D
100
AcDbEntity
  8
0
  6
Continuous
 62
     7
100
AcDbLine
 10
-112.9080324270757
 20
530.7250000018748
 30
0.0
 11
-113.6834940318543
 21
530.7250000018748
 31
0.0
  0
LINE
  5
DE
330
4D
100
AcDbEntity
  8
0
  6
Continuous
 62
     7
100
AcDbLine
 10
-89.08197712240792
 20
521.025000001875
 30
0.0
 11
-96.04569290532152
 21
521.025000001875
 31
0.0
  0
LINE
  5
DF
330
4D
100
AcDbEntity
  8
0
  6
Continuous
 62
     7
100
AcDbLine
 10
-82.68625409033893
 20
518.5250000018751
 30
0.0
 11
-114.6334940318539
 21
518.5250000018751
 31
0.0
  0
LINE
  5
E0
330
4D
100
AcDbEntity
  8
0
  6
Continuous
 62
     3
100
AcDbLine
 10
-82.68625409033905
 20
520.525000001875
 30
0.0
 11
-114.6334940318539
 21
520.525000001875
 31
0.0
  0
LINE
  5
E1
330
4D
100
AcDbEntity
  8
0
  6
Continuous
 62
     7
100
AcDbLine
 10
-113.6834940318543
 20
521.025000001875
 30
0.0
 11
-114.1334940318539
 21
521.0250000018751
 31
0.0
  0
LINE
  5
E2
330
4D
100
AcDbEntity
  8
0
  6
Continuous
 62
     7
100
AcDbLine
 10
-107.0787535174386
 20
521.025000001875
 30
0.0
 11
-107.7388538803953
 21
521.025000001875
 31
0.0
  0
LINE
  5
E3
330
4D
100
AcDbEntity
  8
0
  6
Continuous
 62
     7
100
AcDbLine
 10
-111.8371506342706
 20
521.025000001875
 30
0.0
 11
-112.09801130303
 21
521.025000001875
 31
0.0
  0
LINE
  5
E4
330
4D
100
AcDbEntity
  8
0
  6
Continuous
 62
     7
100
AcDbLine
 10
-107.7388538803953
 20
521.025000001875
 30
0.0
 11
-111.8371506342706
 21
521.025000001875
 31
0.0
  0
LINE
  5
E5
330
4D
100
AcDbEntity
  8
0
  6
Continuous
 62
     7
100
AcDbLine
 10
-98.68460612422402
 20
521.025000001875
 30
0.0
 11
-99.01791236691392
 21
521.025000001875
 31
0.0
  0
LINE
  5
E6
330
4D
100
AcDbEntity
  8
0
  6
Continuous
 62
     7
100
AcDbLine
 10
-105.404568282808
 20
521.025000001875
 30
0.0
 11
-107.0787535174386
 21
521.025000001875
 31
0.0
  0
LINE
  5
E7
330
4D
100
AcDbEntity
  8
0
  6
Continuous
 62
     7
100
AcDbLine
 10
-99.01791236691392
 20
521.025000001875
 30
0.0
 11
-105.404568282808
 21
521.025000001875
 31
0.0
  0
LINE
  5
E8
330
4D
100
AcDbEntity
  8
0
  6
Continuous
 62
     7
100
AcDbLine
 10
-96.12848992145942
 20
521.025000001875
 30
0.0
 11
-98.68460612422402
 21
521.025000001875
 31
0.0
  0
LINE
  5
E9
330
4D
100
AcDbEntity
  8
0
  6
Continuous
 62
     7
100
AcDbLine
 10
-86.26822760127214
 20
521.025000001875
 30
0.0
 11
-86.74494248262795
 21
521.025000001875
 31
0.0
  0
LINE
  5
EA
330
4D
100
AcDbEntity
  8
0
  6
Continuous
 62
     7
100
AcDbLine
 10
-82.97898957275862
 20
521.0250000018751
 30
0.0
 11
-86.26822760127214
 21
521.025000001875
 31
0.0
  0
LINE
  5
EB
330
4D
100
AcDbEntity
  8
0
  6
Continuous
 62
     7
100
AcDbLine
 10
-86.74494248262795
 20
521.025000001875
 30
0.0
 11
-89.08197712240792
 21
521.025000001875
 31
0.0
  0
LINE
  5
EC
330
4D
100
AcDbEntity
  8
0
  6
Continuous
 62
     7
100
AcDbLine
 10
-96.04569290532152
 20
521.025000001875
 30
0.0
 11
-96.12848992145942
 21
521.025000001875
 31
0.0
  0
LINE
  5
ED
330
4D
100
AcDbEntity
  8
0
  6
Continuous
 62
     7
100
AcDbLine
 10
-109.2834940318523
 20
531.5250000018751
 30
0.0
 11
-107.8968992106582
 21
531.525000001875
 31
0.0
  0
LINE
  5
EE
330
4D
100
AcDbEntity
  8
0
  6
Continuous
 62
     7
100
AcDbLine
 10
-107.8968992106582
 20
531.525000001875
 30
0.0
 11
-107.0787535174385
 21
531.525000001875
 31
0.0
  0
LINE
  5
EF
330
4D
100
AcDbEntity
  8
0
  6
Continuous
 62
     7
100
AcDbLine
 10
-107.0787535174385
 20
531.525000001875
 30
0.0
 11
-107.0787535174386
 21
521.025000001875
 31
0.0
  0
LINE
  5
F0
330
4D
100
AcDbEntity
  8
0
  6
Continuous
 62
     7
100
AcDbLine
 10
-107.7388538803953
 20
521.025000001875
 30
0.0
 11
-107.7388538803953
 21
530.7250000018748
 31
0.0
  0
LINE
  5
F1
330
4D
100
AcDbEntity
  8
0
  6
Continuous
 62
     7
100
AcDbLine
 10
-107.7388538803953
 20
530.7250000018748
 30
0.0
 11
-111.8371506342706
 21
530.7250000018748
 31
0.0
  0
LINE
  5
F2
330
4D
100
AcDbEntity
  8
0
  6
Continuous
 62
     7
100
AcDbLine
 10
-105.404568282808
 20
521.025000001875
 30
0.0
 11
-105.404568282808
 21
530.7250000018748
 31
0.0
  0
LINE
  5
F3
330
4D
100
AcDbEntity
  8
0
  6
Continuous
 62
     7
100
AcDbLine
 10
-105.071262040118
 20
531.525000001875
 30
0.0
 11
-99.80221392515892
 21
531.525000001875
 31
0.0
  0
LINE
  5
F4
330
4D
100
AcDbEntity
  8
0
  6
Continuous
 62
     7
100
AcDbLine
 10
-99.01791236691392
 20
530.7250000018748
 30
0.0
 11
-105.404568282808
 21
530.7250000018748
 31
0.0
  0
LINE
  5
F5
330
4D
100
AcDbEntity
  8
0
  6
Continuous
 62
     7
100
AcDbLine
 10
-99.01791236691392
 20
521.025000001875
 30
0.0
 11
-99.01791236691392
 21
530.7250000018748
 31
0.0
  0
LINE
  5
F6
330
4D
100
AcDbEntity
  8
0
  6
Continuous
 62
     7
100
AcDbLine
 10
-74.8334940318507
 20
521.0250000018751
 30
0.0
 11
-75.28349403185041
 21
521.025000001875
 31
0.0
  0
LINE
  5
F7
330
4D
100
AcDbEntity
  8
0
  6
Continuous
 62
     7
100
AcDbLine
 10
-75.34715335031655
 20
521.025000001875
 30
0.0
 11
-75.82661727386494
 21
521.025000001875
 31
0.0
  0
LINE
  5
F8
330
4D
100
AcDbEntity
  8
0
  6
Continuous
 62
     7
100
AcDbLine
 10
-75.28349403185041
 20
521.025000001875
 30
0.0
 11
-75.34715335031655
 21
521.025000001875
 31
0.0
  0
LINE
  5
F9
330
4D
100
AcDbEntity
  8
0
  6
Continuous
 62
     7
100
AcDbLine
 10
-75.82661727386494
 20
521.025000001875
 30
0.0
 11
-78.6920363029032
 21
521.025000001875
 31
0.0
  0
LINE
  5
FA
330
4D
100
AcDbEntity
  8
0
  6
Continuous
 62
     7
100
AcDbLine
 10
-78.6920363029032
 20
521.025000001875
 30
0.0
 11
-79.43493368199785
 21
521.025000001875
 31
0.0
  0
LINE
  5
FB
330
4D
100
AcDbEntity
  8
0
  6
Continuous
 62
     7
100
AcDbLine
 10
-79.43493368199785
 20
521.025000001875
 30
0.0
 11
-80.5933739716906
 21
521.025000001875
 31
0.0
  0
LINE
  5
FC
330
4D
100
AcDbEntity
  8
0
  6
Continuous
 62
     7
100
AcDbLine
 10
-80.5933739716906
 20
521.025000001875
 30
0.0
 11
-80.5933739716906
 21
530.7250000018748
 31
0.0
  0
LINE
  5
FD
330
4D
100
AcDbEntity
  8
0
  6
Continuous
 62
     7
100
AcDbLine
 10
-77.08349403185082
 20
536.025000001875
 30
0.0
 11
-84.29629924364713
 21
536.025000001875
 31
0.0
  0
LINE
  5
FE
330
4D
100
AcDbEntity
  8
0
  6
Continuous
 62
     7
100
AcDbLine
 10
-76.08349403185065
 20
535.025000001875
 30
0.0
 11
-76.08349403185065
 21
531.525000001875
 31
0.0
  0
LINE
  5
FF
330
4D
100
AcDbEntity
  8
0
  6
Continuous
 62
     7
100
AcDbLine
 10
-75.82661727386494
 20
530.7250000018748
 30
0.0
 11
-78.6920363029032
 21
530.7250000018748
 31
0.0
  0
LINE
  5
100
330
4D
100
AcDbEntity
  8
0
  6
Continuous
 62
     7
100
AcDbLine
 10
-76.08349403185065
 20
531.525000001875
 30
0.0
 11
-75.28349403185041
 21
530.7250000018748
 31
0.0
  0
LINE
  5
101
330
4D
100
AcDbEntity
  8
0
  6
Continuous
 62
     7
100
AcDbLine
 10
-75.34715335031655
 20
521.025000001875
 30
0.0
 11
-75.34715335031655
 21
530.7250000018748
 31
0.0
  0
LINE
  5
102
330
4D
100
AcDbEntity
  8
0
  6
Continuous
 62
     7
100
AcDbLine
 10
-75.82661727386494
 20
521.025000001875
 30
0.0
 11
-75.82661727386494
 21
530.7250000018748
 31
0.0
  0
LINE
  5
103
330
4D
100
AcDbEntity
  8
0
  6
Continuous
 62
     7
100
AcDbLine
 10
-76.15717447436231
 20
531.525000001875
 30
0.0
 11
-76.15717447436231
 21
531.0811160501981
 31
0.0
  0
LINE
  5
104
330
4D
100
AcDbEntity
  8
0
  6
Continuous
 62
     7
100
AcDbLine
 10
-75.28349403185041
 20
530.7250000018748
 30
0.0
 11
-75.28349403185041
 21
521.025000001875
 31
0.0
  0
LINE
  5
105
330
4D
100
AcDbEntity
  8
0
  6
Continuous
 62
     7
100
AcDbLine
 10
-75.28349403185041
 20
530.7250000018748
 30
0.0
 11
-75.34715335031655
 21
530.7250000018748
 31
0.0
  0
LINE
  5
106
330
4D
100
AcDbEntity
  8
0
  6
Continuous
 62
     7
100
AcDbLine
 10
-76.15717447436231
 20
531.525000001875
 30
0.0
 11
-76.08349403185065
 21
531.525000001875
 31
0.0
  0
LINE
  5
107
330
4D
100
AcDbEntity
  8
0
  6
Continuous
 62
     7
100
AcDbLine
 10
-78.6920363029032
 20
521.025000001875
 30
0.0
 11
-78.6920363029032
 21
530.7250000018748
 31
0.0
  0
LINE
  5
108
330
4D
100
AcDbEntity
  8
0
  6
Continuous
 62
     7
100
AcDbLine
 10
-79.4349336819979
 20
531.525000001875
 30
0.0
 11
-79.43493368199785
 21
521.025000001875
 31
0.0
  0
LINE
  5
109
330
4D
100
AcDbEntity
  8
0
  6
Continuous
 62
     7
100
AcDbLine
 10
-80.5933739716906
 20
530.7250000018748
 30
0.0
 11
-86.26822760127214
 21
530.7250000018748
 31
0.0
  0
LINE
  5
10A
330
4D
100
AcDbEntity
  8
0
  6
Continuous
 62
     7
100
AcDbLine
 10
-79.4349336819979
 20
531.525000001875
 30
0.0
 11
-76.56951465295964
 21
531.525000001875
 31
0.0
  0
ARC
  5
10B
330
4D
100
AcDbEntity
  8
0
  6
Continuous
 62
     7
100
AcDbCircle
 10
-74.8334940318507
 20
520.5250000018749
 30
0.0
 40
0.5
100
AcDbArc
 50
0.00000000001303
 51
90.0
  0
ARC
  5
10C
330
4D
100
AcDbEntity
  8
0
  6
Continuous
 62
     7
100
AcDbCircle
 10
-114.1334940318539
 20
520.5250000018749
 30
0.0
 40
0.5000000000002274
100
AcDbArc
 50
90.0
 51
179.999999999987
  0
ARC
  5
10D
330
4D
100
AcDbEntity
  8
0
  6
Continuous
 62
     7
100
AcDbCircle
 10
-111.8834940318538
 20
535.0250000018751
 30
0.0
 40
0.9999999999998863
100
AcDbArc
 50
90.0
 51
180.0000000000065
  0
ARC
  5
10E
330
4D
100
AcDbEntity
  8
0
  6
Continuous
 62
     7
100
AcDbCircle
 10
-77.08349403185082
 20
535.0250000018751
 30
0.0
 40
1.000000000000171
100
AcDbArc
 50
359.9999999999935
 51
90.0
  0
SPLINE
  5
10F
330
4D
100
AcDbEntity
  8
0
  6
Continuous
 62
     7
100
AcDbSpline
210
0.0
220
0.0
230
1.0
 70
     8
 71
     3
 72
    11
 73
     7
 74
     5
 42
0.000000001
 43
0.0000000001
 44
0.00000001
 40
0.0
 40
0.0
 40
0.0
 40
0.0
 40
0.2153713400934032
 40
0.4332684251823496
 40
0.6487053627681768
 40
0.8666562575180887
 40
0.8666562575180887
 40
0.8666562575180887
 40
0.8666562575180887
 10
-98.68460612422393
 20
531.525000001875
 30
0.0
 10
-98.71223157245217
 20
531.4587376229084
 30
0.0
 10
-98.7678064295847
 20
531.3254357740236
 30
0.0
 10
-98.85097903538681
 20
531.1258363111676
 30
0.0
 10
-98.9344590820917
 20
530.9254334438779
 30
0.0
 10
-98.98998724234646
 20
530.7920690205867
 30
0.0
 10
-99.01791236691392
 20
530.7250000018748
 30
0.0
 11
-98.68460612422393
 21
531.525000001875
 31
0.0
 11
-98.76747650550945
 21
531.32621037931
 31
0.0
 11
-98.85129054957693
 21
531.1250777223198
 31
0.0
 11
-98.93413132556883
 21
530.9262046977287
 31
0.0
 11
-99.01791236691392
 21
530.7250000018748
 31
0.0
  0
SPLINE
  5
110
330
4D
100
AcDbEntity
  8
0
  6
Continuous
 62
     7
100
AcDbSpline
210
0.0
220
0.0
230
1.0
 70
     8
 71
     3
 72
    11
 73
     7
 74
     5
 42
0.000000001
 43
0.0000000001
 44
0.00000001
 40
0.0
 40
0.0
 40
0.0
 40
0.0
 40
0.2019882481740318
 40
0.4022130966702334
 40
0.6044879926463546
 40
0.8042731794100285
 40
0.8042731794100285
 40
0.8042731794100285
 40
0.8042731794100285
 10
-96.04569290532152
 20
530.7250000018748
 30
0.0
 10
-96.05261979970227
 20
530.7919721483402
 30
0.0
 10
-96.06641313010729
 20
530.9253317588774
 30
0.0
 10
-96.08715287331
 20
531.1257575558811
 30
0.0
 10
-96.1078237428491
 20
531.3254522047355
 30
0.0
 10
-96.12162968751727
 20
531.4587592326441
 30
0.0
 10
-96.12848992145942
 20
531.525000001875
 30
0.0
 11
-96.04569290532152
 21
530.7250000018748
 31
0.0
 11
-96.06647521795625
 21
530.9259162726994
 31
0.0
 11
-96.08708363712313
 21
531.1250777223198
 31
0.0
 11
-96.10791093858529
 21
531.3262775161968
 31
0.0
 11
-96.12848992145942
 21
531.525000001875
 31
0.0
  0
SPLINE
  5
111
330
4D
100
AcDbEntity
  8
0
  6
Continuous
 62
     7
100
AcDbSpline
210
0.0
220
0.0
230
1.0
 70
     8
 71
     3
 72
    11
 73
     7
 74
     5
 42
0.000000001
 43
0.0000000001
 44
0.00000001
 40
0.0
 40
0.0
 40
0.0
 40
0.0
 40
0.2001685344640306
 40
0.4020600827397995
 40
0.6019565075092814
 40
0.8042731794100315
 40
0.8042731794100315
 40
0.8042731794100315
 40
0.8042731794100315
 10
-89.16477413854585
 20
531.525000001875
 30
0.0
 10
-89.15790074249128
 20
531.4586321297597
 30
0.0
 10
-89.14409480041624
 20
531.3253251015826
 30
0.0
 10
-89.12343520992006
 20
531.1257393447206
 30
0.0
 10
-89.10270861291505
 20
530.9254406522483
 30
0.0
 10
-89.08891528058243
 20
530.7920810419106
 30
0.0
 10
-89.08197712240792
 20
530.7250000018748
 30
0.0
 11
-89.16477413854585
 21
531.525000001875
 31
0.0
 11
-89.14415567649301
 21
531.3258962068029
 31
0.0
 11
-89.1233678542095
 21
531.1250777223198
 31
0.0
 11
-89.10279323229409
 21
530.926242952803
 31
0.0
 11
-89.08197712240792
 21
530.7250000018748
 31
0.0
  0
SPLINE
  5
112
330
4D
100
AcDbEntity
  8
0
  6
Continuous
 62
     7
100
AcDbSpline
210
0.0
220
0.0
230
1.0
 70
     8
 71
     3
 72
    11
 73
     7
 74
     5
 42
0.000000001
 43
0.0000000001
 44
0.00000001
 40
0.0
 40
0.0
 40
0.0
 40
0.0
 40
0.234225873782983
 40
0.4656770463018054
 40
0.699609357927614
 40
0.9312664005113804
 40
0.9312664005113804
 40
0.9312664005113804
 40
0.9312664005113804
 10
-86.26822760127214
 20
530.7250000018748
 30
0.0
 10
-86.3081752776236
 20
530.7920815514263
 30
0.0
 10
-86.38759741249288
 20
530.9254499772143
 30
0.0
 10
-86.50695884678325
 20
531.1257910450594
 30
0.0
 10
-86.6259107230293
 20
531.3253793888048
 30
0.0
 10
-86.70539470077843
 20
531.4586769354664
 30
0.0
 10
-86.744942482628
 20
531.525000001875
 30
0.0
 11
-86.26822760127214
 21
530.7250000018748
 31
0.0
 11
-86.38807765406665
 21
530.9262404669779
 31
0.0
 11
-86.50654026905204
 21
531.1250777223198
 31
0.0
 11
-86.626306538128
 21
531.3260263904295
 31
0.0
 11
-86.744942482628
 21
531.525000001875
 31
0.0
  0
SPLINE
  5
113
330
4D
100
AcDbEntity
  8
0
  6
Continuous
 62
     7
100
AcDbSpline
210
0.0
220
0.0
230
1.0
 70
     8
 71
     3
 72
    11
 73
     7
 74
     5
 42
0.000000001
 43
0.0000000001
 44
0.00000001
 40
0.0
 40
0.0
 40
0.0
 40
0.0
 40
0.2314119087605188
 40
0.4655893542097113
 40
0.697296236608088
 40
0.9312664005114103
 40
0.9312664005114103
 40
0.9312664005114103
 40
0.9312664005114103
 10
-81.07008885304651
 20
531.525000001875
 30
0.0
 10
-81.03058291662198
 20
531.4587471187472
 30
0.0
 10
-80.95109893270211
 20
531.3254495757661
 30
0.0
 10
-80.8321034015243
 20
531.1257880232074
 30
0.0
 10
-80.71270016264627
 20
530.9253767477439
 30
0.0
 10
-80.63327803339803
 20
530.7920083186092
 30
0.0
 10
-80.5933739716906
 20
530.7250000018748
 30
0.0
 11
-81.07008885304651
 21
531.525000001875
 31
0.0
 11
-80.95157842783541
 21
531.326236950397
 31
0.0
 11
-80.83168663947032
 21
531.1250777223198
 31
0.0
 11
-80.71309316361342
 21
530.9260207786185
 31
0.0
 11
-80.5933739716906
 21
530.7250000018748
 31
0.0
  0
SPLINE
  5
114
330
4D
100
AcDbEntity
  8
0
  6
Continuous
 62
     7
100
AcDbSpline
210
0.0
220
0.0
230
1.0
 70
     8
 71
     3
 72
    11
 73
     7
 74
     5
 42
0.000000001
 43
0.0000000001
 44
0.00000001
 40
0.0
 40
0.0
 40
0.0
 40
0.0
 40
0.2605626095361347
 40
0.5186081246005434
 40
0.779398246273143
 40
1.03717526797673
 40
1.03717526797673
 40
1.03717526797673
 40
1.03717526797673
 10
-111.8371506342706
 20
530.7250000018748
 30
0.0
 10
-111.781894328043
 20
530.7920103986727
 30
0.0
 10
-111.6719154926206
 20
530.925383846976
 30
0.0
 10
-111.5065855465295
 20
531.1257878043195
 30
0.0
 10
-111.3418143916285
 20
531.3254490257029
 30
0.0
 10
-111.2317584910975
 20
531.4587411747224
 30
0.0
 10
-111.1770502713138
 20
531.525000001875
 30
0.0
 11
-111.8371506342706
 21
530.7250000018748
 31
0.0
 11
-111.6713738926173
 21
530.926024740192
 31
0.0
 11
-111.5071624491919
 21
531.1250777223198
 31
0.0
 11
-111.341166686468
 21
531.3262167148616
 31
0.0
 11
-111.1770502713138
 21
531.525000001875
 31
0.0
  0
SPLINE
  5
115
330
4D
100
AcDbEntity
  8
0
  6
Continuous
 62
     7
100
AcDbSpline
210
0.0
220
0.0
230
1.0
 70
     8
 71
     3
 72
    11
 73
     7
 74
     5
 42
0.000000001
 43
0.0000000001
 44
0.00000001
 40
0.0
 40
0.0
 40
0.0
 40
0.0
 40
0.2829547171859473
 40
0.5692389813379704
 40
0.852440640575485
 40
1.138478932852641
 40
1.138478932852641
 40
1.138478932852641
 40
1.138478932852641
 10
-112.0980113030298
 20
531.525000001875
 30
0.0
 10
-112.1651402176014
 20
531.4587456502187
 30
0.0
 10
-112.3001879465686
 20
531.325457316832
 30
0.0
 10
-112.5023723128244
 20
531.1258052871387
 30
0.0
 10
-112.7052552414855
 20
530.9253978273447
 30
0.0
 10
-112.8402158570957
 20
530.7920208284095
 30
0.0
 10
-112.9080324270757
 20
530.7250000018748
 30
0.0
 11
-112.0980113030298
 21
531.525000001875
 31
0.0
 11
-112.2993896519894
 21
531.3262284431734
 31
0.0
 11
-112.5030979419589
 21
531.1250777223198
 31
0.0
 11
-112.7045747467434
 21
530.9260544148159
 31
0.0
 11
-112.9080324270757
 21
530.7250000018748
 31
0.0
  0
SPLINE
  5
116
330
4D
100
AcDbEntity
  8
0
  6
Continuous
 62
     7
100
AcDbSpline
210
0.0
220
0.0
230
1.0
 70
     8
 71
     3
 72
    11
 73
     7
 74
     5
 42
0.000000001
 43
0.0000000001
 44
0.00000001
 40
0.0
 40
0.0
 40
0.0
 40
0.0
 40
0.2577632169563919
 40
0.5185671433761967
 40
0.7765459267979227
 40
1.037175267976738
 40
1.037175267976738
 40
1.037175267976738
 40
1.037175267976738
 10
-107.0787535174385
 20
531.525000001875
 30
0.0
 10
-107.133458807613
 20
531.4587447232361
 30
0.0
 10
-107.2435147085122
 20
531.3254525745211
 30
0.0
 10
-107.4082717060266
 20
531.1258085100205
 30
0.0
 10
-107.5736045850335
 20
530.9254010068919
 30
0.0
 10
-107.683583421947
 20
530.7920275598177
 30
0.0
 10
-107.7388538803953
 20
530.7250000018748
 30
0.0
 11
-107.0787535174385
 21
531.525000001875
 31
0.0
 11
-107.2428611446939
 21
531.32622736117
 31
0.0
 11
-107.4088656953166
 21
531.1250777223198
 31
0.0
 11
-107.5730346776796
 21
530.9260762199973
 31
0.0
 11
-107.7388538803953
 21
530.7250000018748
 31
0.0
  0
SPLINE
  5
117
330
4D
100
AcDbEntity
  8
0
  6
Continuous
 62
     7
100
AcDbSpline
210
0.0
220
0.0
230
1.0
 70
     8
 71
     3
 72
    11
 73
     7
 74
     5
 42
0.000000001
 43
0.0000000001
 44
0.00000001
 40
0.0
 40
0.0
 40
0.0
 40
0.0
 40
0.2177333555664781
 40
0.4333878323357334
 40
0.6511507266010431
 40
0.8666562575180762
 40
0.8666562575180762
 40
0.8666562575180762
 40
0.8666562575180762
 10
-105.404568282808
 20
530.7250000018748
 30
0.0
 10
-105.3766710327383
 20
530.792002079146
 30
0.0
 10
-105.3211428767025
 20
530.9253665041933
 30
0.0
 10
-105.237680043022
 20
531.1257280857794
 30
0.0
 10
-105.1544795534869
 20
531.3253944862289
 30
0.0
 10
-105.09890469936
 20
531.4586963363671
 30
0.0
 10
-105.071262040118
 20
531.525000001875
 30
0.0
 11
-105.404568282808
 21
530.7250000018748
 31
0.0
 11
-105.3208708773431
 21
530.9260038785661
 31
0.0
 11
-105.237946465471
 21
531.1250777223198
 31
0.0
 11
-105.1541840464909
 21
531.3260865163713
 31
0.0
 11
-105.071262040118
 21
531.525000001875
 31
0.0
  0
SPLINE
  5
118
330
4D
100
AcDbEntity
  8
0
  6
Continuous
 62
     7
100
AcDbSpline
210
0.0
220
0.0
230
1.0
 70
     8
 71
     3
 72
    11
 73
     7
 74
     5
 42
0.000000001
 43
0.0000000001
 44
0.00000001
 40
0.0
 40
0.0
 40
0.0
 40
0.0
 40
0.2713846983666202
 40
0.5458606052217458
 40
0.8174477218871846
 40
1.091740156799377
 40
1.091740156799377
 40
1.091740156799377
 40
1.091740156799377
 10
-76.56951465295964
 20
531.525000001875
 30
0.0
 10
-76.50793620941296
 20
531.4587324359371
 30
0.0
 10
-76.38407792384075
 20
531.325442472841
 30
0.0
 10
-76.19864599635936
 20
531.1257883853286
 30
0.0
 10
-76.01258718776043
 20
530.9253937287355
 30
0.0
 10
-75.88881171397817
 20
530.7920182455819
 30
0.0
 10
-75.82661727386494
 20
530.7250000018748
 30
0.0
 11
-76.56951465295964
 21
531.525000001875
 31
0.0
 11
-76.38478769851085
 21
531.3261895222514
 31
0.0
 11
-76.1979961907453
 21
531.1250777223198
 31
0.0
 11
-76.01320854260513
 21
530.9260473552034
 31
0.0
 11
-75.82661727386494
 21
530.7250000018748
 31
0.0
  0
SPLINE
  5
119
330
4D
100
AcDbEntity
  8
0
  6
Continuous
 62
     7
100
AcDbSpline
210
0.0
220
0.0
230
1.0
 70
     8
 71
     3
 72
    11
 73
     7
 74
     5
 42
0.000000001
 43
0.0000000001
 44
0.00000001
 40
0.0
 40
0.0
 40
0.0
 40
0.0
 40
0.2863565541711857
 40
0.5692399515146791
 40
0.8552100500440163
 40
1.138478932852545
 40
1.138478932852545
 40
1.138478932852545
 40
1.138478932852545
 10
-75.34715335031655
 20
530.7250000018748
 30
0.0
 10
-75.4150453800117
 20
530.79209539614
 30
0.0
 10
-75.55000600213356
 20
530.9254723884885
 30
0.0
 10
-75.75281444904164
 20
531.1258062334659
 30
0.0
 10
-75.95492330837062
 20
531.3253837432239
 30
0.0
 10
-76.0899710299833
 20
531.4586720840646
 30
0.0
 10
-76.15717447436231
 20
531.525000001875
 30
0.0
 11
-75.34715335031655
 21
530.7250000018748
 31
0.0
 11
-75.55083742941324
 21
530.926278098149
 31
0.0
 11
-75.75208783543331
 21
531.1250777223198
 31
0.0
 11
-75.95557255622143
 21
531.3260077242105
 31
0.0
 11
-76.15717447436231
 21
531.525000001875
 31
0.0
  0
SPLINE
  5
11A
330
4D
100
AcDbEntity
  8
0
  6
Continuous
 62
     7
100
AcDbSpline
210
0.0
220
0.0
230
1.0
 70
     8
 71
     3
 72
    11
 73
     7
 74
     5
 42
0.000000001
 43
0.0000000001
 44
0.00000001
 40
0.0
 40
0.0
 40
0.0
 40
0.0
 40
0.274336588961873
 40
0.545879551577674
 40
0.8203582477076626
 40
1.091740156799381
 40
1.091740156799381
 40
1.091740156799381
 40
1.091740156799381
 10
-78.6920363029032
 20
530.7250000018748
 30
0.0
 10
-78.75424075520509
 20
530.792029033357
 30
0.0
 10
-78.87801622993805
 20
530.9254045156288
 30
0.0
 10
-79.06407567408873
 20
531.1257998508523
 30
0.0
 10
-79.24949758566015
 20
531.3254431540449
 30
0.0
 10
-79.37335587131135
 20
531.4587331170676
 30
0.0
 10
-79.4349336819979
 20
531.525000001875
 30
0.0
 11
-78.6920363029032
 21
530.7250000018748
 31
0.0
 11
-78.87865761102142
 21
530.9260797159186
 31
0.0
 11
-79.06341521978362
 21
531.1250777223198
 31
0.0
 11
-79.25020862595903
 21
531.3261915658009
 31
0.0
 11
-79.4349336819979
 21
531.525000001875
 31
0.0
  0
ENDBLK
  5
4F
330
4D
100
AcDbEntity
  8
0
100
AcDbBlockEnd
  0
BLOCK
  5
54
330
50
100
AcDbEntity
  8
0
100
AcDbBlockBegin
  2
HL19
 70
     0
 10
-153.0834940318523
 20
518.5250000018751
 30
0.0
  3
HL19
  1

  0
INSERT
  5
51
330
50
100
AcDbEntity
  8
0
100
AcDbBlockReference
  2
Dichtstopfen
 10
-153.0834940318523
 20
549.1250000018754
 30
0.0
  0
INSERT
  5
52
330
50
100
AcDbEntity
  8
0
100
AcDbBlockReference
  2
HL19-Anschlussknie-10003
 10
-151.7834940318523
 20
531.525000001875
 30
0.0
  0
INSERT
  5
53
330
50
100
AcDbEntity
  8
0
100
AcDbBlockReference
  2
Holländermutter_1
 10
-114.6334940318539
 20
518.5250000018751
 30
0.0
  0
ENDBLK
  5
55
330
50
100
AcDbEntity
  8
0
100
AcDbBlockEnd
  0
BLOCK
  5
57
330
56
100
AcDbEntity
  8
0
100
AcDbBlockBegin
  2
Holländer6_4-01047D_1_1
 70
     0
 10
-70.41650673374994
 20
461.3750000018754
 30
0.0
  3
Holländer6_4-01047D_1_1
  1

  0
LINE
  5
11B
330
56
100
AcDbEntity
  8
1
  6
DOT_CENTER
 62
     2
100
AcDbLine
 10
-50.91650673374992
 20
489.8750000018753
 30
0.0
 11
-51.9700432088172
 21
489.8750000018753
 31
0.0
  0
LINE
  5
11C
330
56
100
AcDbEntity
  8
0
  6
Continuous
 62
     7
100
AcDbLine
 10
-70.41650673374994
 20
518.3750000018754
 30
0.0
 11
-67.91650673374994
 21
518.3750000018754
 31
0.0
  0
LINE
  5
11D
330
56
100
AcDbEntity
  8
0
  6
Continuous
 62
     7
100
AcDbLine
 10
-50.91650673374994
 20
514.4431483492973
 30
0.0
 11
-51.97004320881501
 21
518.3750000018672
 31
0.0
  0
LINE
  5
11E
330
56
100
AcDbEntity
  8
0
  6
Continuous
 62
     7
100
AcDbLine
 10
-67.91650673374994
 20
471.8265091638885
 30
0.0
 11
-67.91650673374994
 21
469.7224567380588
 31
0.0
  0
LINE
  5
11F
330
56
100
AcDbEntity
  8
0
  6
Continuous
 62
     7
100
AcDbLine
 10
-67.91650673374994
 20
487.8750000018754
 30
0.0
 11
-67.91650673374994
 21
472.6043266231937
 31
0.0
  0
LINE
  5
120
330
56
100
AcDbEntity
  8
0
  6
Continuous
 62
     7
100
AcDbLine
 10
-67.91650673374994
 20
472.6043266231937
 30
0.0
 11
-67.91650673374994
 21
471.8265091638885
 31
0.0
  0
LINE
  5
121
330
56
100
AcDbEntity
  8
0
  6
Continuous
 62
     7
100
AcDbLine
 10
-67.91650673374994
 20
489.8750000018754
 30
0.0
 11
-67.91650673374994
 21
487.8750000018754
 31
0.0
  0
LINE
  5
122
330
56
100
AcDbEntity
  8
0
  6
Continuous
 62
     7
100
AcDbLine
 10
-67.91650673374994
 20
507.145673380557
 30
0.0
 11
-67.91650673374994
 21
491.8750000018754
 31
0.0
  0
LINE
  5
123
330
56
100
AcDbEntity
  8
0
  6
Continuous
 62
     7
100
AcDbLine
 10
-67.91650673374994
 20
491.8750000018754
 30
0.0
 11
-67.91650673374994
 21
489.8750000018754
 31
0.0
  0
LINE
  5
124
330
56
100
AcDbEntity
  8
0
  6
Continuous
 62
     7
100
AcDbLine
 10
-67.91650673374994
 20
469.7224567380588
 30
0.0
 11
-67.91650673374994
 21
468.9980820391423
 31
0.0
  0
LINE
  5
125
330
56
100
AcDbEntity
  8
0
  6
Continuous
 62
     7
100
AcDbLine
 10
-67.91650673374994
 20
471.8265091638885
 30
0.0
 11
-51.7280817681617
 21
471.8265091641197
 31
0.0
  0
LINE
  5
126
330
56
100
AcDbEntity
  8
0
  6
Continuous
 62
     7
100
AcDbLine
 10
-67.91650673374994
 20
489.8750000018754
 30
0.0
 11
-51.97004320881734
 21
489.8750000018765
 31
0.0
  0
LINE
  5
127
330
56
100
AcDbEntity
  8
0
  6
Continuous
 62
     7
100
AcDbLine
 10
-67.91650673374994
 20
491.8750000018754
 30
0.0
 11
-51.72808176815454
 21
491.8750000021602
 31
0.0
  0
LINE
  5
128
330
56
100
AcDbEntity
  8
0
  6
Continuous
 62
     7
100
AcDbLine
 10
-67.91650673374994
 20
487.8750000018754
 30
0.0
 11
-51.7280817681617
 21
487.8750000016555
 31
0.0
  0
LINE
  5
129
330
56
100
AcDbEntity
  8
0
  6
Continuous
 62
     7
100
AcDbLine
 10
-51.4341448239548
 20
507.1456733805567
 30
0.0
 11
-51.43414482395491
 21
491.8750000018754
 31
0.0
  0
LINE
  5
12A
330
56
100
AcDbEntity
  8
0
  6
Continuous
 62
     7
100
AcDbLine
 10
-67.91650673374994
 20
472.6043266231937
 30
0.0
 11
-51.43414482395491
 21
472.6043266231937
 31
0.0
  0
LINE
  5
12B
330
56
100
AcDbEntity
  8
0
  6
Continuous
 62
     7
100
AcDbLine
 10
-51.4341448239548
 20
487.8750000018754
 30
0.0
 11
-51.43414482395491
 21
472.6043266231937
 31
0.0
  0
LINE
  5
12C
330
56
100
AcDbEntity
  8
0
  6
Continuous
 62
     7
100
AcDbLine
 10
-51.72808176815454
 20
491.8750000021602
 30
0.0
 11
-51.43414482395491
 21
491.8750000018754
 31
0.0
  0
LINE
  5
12D
330
56
100
AcDbEntity
  8
0
  6
Continuous
 62
     7
100
AcDbLine
 10
-67.91650673374994
 20
518.3750000018754
 30
0.0
 11
-51.97004320881501
 21
518.3750000018672
 31
0.0
  0
LINE
  5
12E
330
56
100
AcDbEntity
  8
0
  6
Continuous
 62
     7
100
AcDbLine
 10
-67.91650673374994
 20
518.3750000018754
 30
0.0
 11
-67.91650673374994
 21
517.3994205253229
 31
0.0
  0
LINE
  5
12F
330
56
100
AcDbEntity
  8
0
  6
Continuous
 62
     7
100
AcDbLine
 10
-50.91650673374994
 20
465.3068516544536
 30
0.0
 11
-50.91650673374994
 21
514.4431483492973
 31
0.0
  0
LINE
  5
130
330
56
100
AcDbEntity
  8
0
  6
Continuous
 62
     7
100
AcDbLine
 10
-51.4341448239548
 20
487.8750000018754
 30
0.0
 11
-51.7280817681617
 21
487.8750000016555
 31
0.0
  0
LINE
  5
131
330
56
100
AcDbEntity
  8
0
  6
Continuous
 62
     7
100
AcDbLine
 10
-67.91650673374994
 20
516.2994205253231
 30
0.0
 11
-51.43414482395491
 21
516.2994205253231
 31
0.0
  0
LINE
  5
132
330
56
100
AcDbEntity
  8
0
  6
Continuous
 62
     7
100
AcDbLine
 10
-67.91650673374994
 20
510.027543265692
 30
0.0
 11
-67.91650673374994
 21
507.9234908398622
 31
0.0
  0
LINE
  5
133
330
56
100
AcDbEntity
  8
0
  6
Continuous
 62
     7
100
AcDbLine
 10
-67.91650673374994
 20
507.9234908398622
 30
0.0
 11
-67.91650673374994
 21
507.145673380557
 31
0.0
  0
LINE
  5
134
330
56
100
AcDbEntity
  8
0
  6
Continuous
 62
     7
100
AcDbLine
 10
-67.91650673374994
 20
510.7519179646084
 30
0.0
 11
-67.91650673374994
 21
510.027543265692
 31
0.0
  0
LINE
  5
135
330
56
100
AcDbEntity
  8
0
  6
Continuous
 62
     7
100
AcDbLine
 10
-67.91650673374994
 20
507.9234908398622
 30
0.0
 11
-51.72808176818563
 21
507.923490839866
 31
0.0
  0
LINE
  5
136
330
56
100
AcDbEntity
  8
0
  6
Continuous
 62
     7
100
AcDbLine
 10
-67.91650673374994
 20
510.027543265692
 30
0.0
 11
-51.97004320883161
 21
510.0275432658077
 31
0.0
  0
LINE
  5
137
330
56
100
AcDbEntity
  8
0
  6
Continuous
 62
     7
100
AcDbLine
 10
-67.91650673374994
 20
507.145673380557
 30
0.0
 11
-51.4341448239548
 21
507.1456733805567
 31
0.0
  0
LINE
  5
138
330
56
100
AcDbEntity
  8
0
  6
Continuous
 62
     7
100
AcDbLine
 10
-67.91650673374994
 20
510.7519179646084
 30
0.0
 11
-51.72808176818614
 21
510.7519179646085
 31
0.0
  0
LINE
  5
139
330
56
100
AcDbEntity
  8
0
  6
Continuous
 62
     7
100
AcDbLine
 10
-51.43414482395491
 20
516.2994205253231
 30
0.0
 11
-51.4341448239548
 21
509.9741005053031
 31
0.0
  0
LINE
  5
13A
330
56
100
AcDbEntity
  8
0
  6
Continuous
 62
     7
100
AcDbLine
 10
-67.91650673374994
 20
516.2994205253231
 30
0.0
 11
-67.91650673374994
 21
510.7519179646084
 31
0.0
  0
LINE
  5
13B
330
56
100
AcDbEntity
  8
0
  6
Continuous
 62
     7
100
AcDbLine
 10
-67.91650673374994
 20
517.3994205253229
 30
0.0
 11
-51.72808176819075
 21
517.3994205253429
 31
0.0
  0
LINE
  5
13C
330
56
100
AcDbEntity
  8
0
  6
Continuous
 62
     7
100
AcDbLine
 10
-67.91650673374994
 20
517.3994205253229
 30
0.0
 11
-67.91650673374994
 21
516.2994205253231
 31
0.0
  0
LINE
  5
13D
330
56
100
AcDbEntity
  8
0
  6
Continuous
 62
     7
100
AcDbLine
 10
-50.91650673374994
 20
465.3068516544536
 30
0.0
 11
-51.97004320881723
 21
461.3750000018754
 31
0.0
  0
LINE
  5
13E
330
56
100
AcDbEntity
  8
0
  6
Continuous
 62
     7
100
AcDbLine
 10
-67.91650673374994
 20
461.3750000018754
 30
0.0
 11
-51.97004320881723
 21
461.3750000018754
 31
0.0
  0
LINE
  5
13F
330
56
100
AcDbEntity
  8
0
  6
Continuous
 62
     7
100
AcDbLine
 10
-70.41650673374994
 20
461.3750000018754
 30
0.0
 11
-67.91650673374994
 21
461.3750000018754
 31
0.0
  0
LINE
  5
140
330
56
100
AcDbEntity
  8
0
  6
Continuous
 62
     7
100
AcDbLine
 10
-67.91650673374994
 20
462.3505794784278
 30
0.0
 11
-67.91650673374994
 21
461.3750000018754
 31
0.0
  0
LINE
  5
141
330
56
100
AcDbEntity
  8
0
  6
Continuous
 62
     7
100
AcDbLine
 10
-67.91650673374994
 20
468.9980820391423
 30
0.0
 11
-67.91650673374994
 21
463.4505794784279
 31
0.0
  0
LINE
  5
142
330
56
100
AcDbEntity
  8
0
  6
Continuous
 62
     7
100
AcDbLine
 10
-67.91650673374994
 20
463.4505794784279
 30
0.0
 11
-67.91650673374994
 21
462.3505794784278
 31
0.0
  0
LINE
  5
143
330
56
100
AcDbEntity
  8
0
  6
Continuous
 62
     7
100
AcDbLine
 10
-67.91650673374994
 20
462.3505794784278
 30
0.0
 11
-51.7280817681862
 21
462.3505794784275
 31
0.0
  0
LINE
  5
144
330
56
100
AcDbEntity
  8
0
  6
Continuous
 62
     7
100
AcDbLine
 10
-67.91650673374994
 20
468.9980820391423
 30
0.0
 11
-51.7280817681862
 21
468.9980820391421
 31
0.0
  0
LINE
  5
145
330
56
100
AcDbEntity
  8
0
  6
Continuous
 62
     7
100
AcDbLine
 10
-67.91650673374994
 20
469.7224567380588
 30
0.0
 11
-51.97004320881723
 21
469.7224567380586
 31
0.0
  0
LINE
  5
146
330
56
100
AcDbEntity
  8
0
  6
Continuous
 62
     7
100
AcDbLine
 10
-67.91650673374994
 20
463.4505794784279
 30
0.0
 11
-51.43414482395491
 21
463.4505794784279
 31
0.0
  0
LINE
  5
147
330
56
100
AcDbEntity
  8
0
  6
Continuous
 62
     7
100
AcDbLine
 10
-51.43414482395491
 20
469.7758994984475
 30
0.0
 11
-51.43414482395491
 21
463.4505794784279
 31
0.0
  0
LINE
  5
148
330
56
100
AcDbEntity
  8
0
  6
Continuous
 62
     7
100
AcDbLine
 10
-70.41650673374994
 20
489.8750000018754
 30
0.0
 11
-70.41650673374994
 21
461.3750000018754
 31
0.0
  0
LINE
  5
149
330
56
100
AcDbEntity
  8
0
  6
Continuous
 62
     7
100
AcDbLine
 10
-70.41650673374994
 20
518.3750000018754
 30
0.0
 11
-70.41650673374994
 21
489.8750000018754
 31
0.0
  0
SPLINE
  5
14A
330
56
100
AcDbEntity
  8
0
  6
Continuous
 62
     7
100
AcDbSpline
210
0.0
220
0.0
230
1.0
 70
     8
 71
     3
 72
    11
 73
     7
 74
     5
 42
0.000000001
 43
0.0000000001
 44
0.00000001
 40
0.0
 40
0.0
 40
0.0
 40
0.0
 40
0.501550156262755
 40
1.007320239518009
 40
1.508723467615803
 40
2.014613029070783
 40
2.014613029070783
 40
2.014613029070783
 40
2.014613029070783
 10
-51.7280817681617
 20
487.8750000016555
 30
0.0
 10
-51.74675856645515
 20
488.0411372730196
 30
0.0
 10
-51.78426932024483
 20
488.3748096546157
 30
0.0
 10
-51.84367178252013
 20
488.8741996987991
 30
0.0
 10
-51.90533486622263
 20
489.3747727138835
 30
0.0
 10
-51.94840980650986
 20
489.7077632096807
 30
0.0
 10
-51.97004320881734
 20
489.8750000018765
 30
0.0
 11
-51.7280817681617
 21
487.8750000016555
 31
0.0
 11
-51.78464520560442
 21
488.3733504173448
 31
0.0
 11
-51.84419449396444
 21
488.8756026044216
 31
0.0
 11
-51.90565350321668
 21
489.3732249385037
 31
0.0
 11
-51.97004320881734
 21
489.8750000018765
 31
0.0
  0
SPLINE
  5
14B
330
56
100
AcDbEntity
  8
0
  6
Continuous
 62
     7
100
AcDbSpline
210
0.0
220
0.0
230
1.0
 70
     8
 71
     3
 72
    11
 73
     7
 74
     5
 42
0.000000001
 43
0.0000000001
 44
0.00000001
 40
0.0
 40
0.0
 40
0.0
 40
0.0
 40
0.5059657671264631
 40
1.007443884632992
 40
1.513133581019519
 40
2.014613029164509
 40
2.014613029164509
 40
2.014613029164509
 40
2.014613029164509
 10
-51.97004320881734
 20
489.8750000018765
 30
0.0
 10
-51.94840658102898
 20
490.0422619905129
 30
0.0
 10
-51.90532524577223
 20
490.3753024440223
 30
0.0
 10
-51.84365984594675
 20
490.8758989225573
 30
0.0
 10
-51.78426095708021
 20
491.3752638095589
 30
0.0
 10
-51.74675589896491
 20
491.7088861489056
 30
0.0
 10
-51.72808176815454
 20
491.8750000021602
 30
0.0
 11
-51.97004320881734
 21
489.8750000018765
 31
0.0
 11
-51.90564398223906
 21
490.3768506740302
 31
0.0
 11
-51.844176334108
 21
490.8745473995767
 31
0.0
 11
-51.78463705512282
 21
491.3767198234921
 31
0.0
 11
-51.72808176815454
 21
491.8750000021602
 31
0.0
  0
SPLINE
  5
14C
330
56
100
AcDbEntity
  8
0
  6
Continuous
 62
     7
100
AcDbSpline
210
0.0
220
0.0
230
1.0
 70
     8
 71
     3
 72
    11
 73
     7
 74
     5
 42
0.000000001
 43
0.0000000001
 44
0.00000001
 40
0.0
 40
0.0
 40
0.0
 40
0.0
 40
0.5317905395530388
 40
1.058900041193889
 40
1.590625763591095
 40
2.117947694141804
 40
2.117947694141804
 40
2.117947694141804
 40
2.117947694141804
 10
-51.97004320881723
 20
469.7224567380586
 30
0.0
 10
-51.94840965629222
 20
469.8983955451626
 30
0.0
 10
-51.90533299347236
 20
470.2487244758112
 30
0.0
 10
-51.84367032849391
 20
470.7753375168458
 30
0.0
 10
-51.78426764727857
 20
471.3007116225139
 30
0.0
 10
-51.74675839854442
 20
471.6517298576734
 30
0.0
 10
-51.7280817681617
 20
471.8265091641197
 30
0.0
 11
-51.97004320881723
 21
469.7224567380586
 31
0.0
 11
-51.90565380484055
 21
470.2503347378225
 31
0.0
 11
-51.84419449396444
 21
470.7738489972991
 31
0.0
 11
-51.78464540195635
 21
471.3022296835013
 31
0.0
 11
-51.7280817681617
 21
471.8265091641197
 31
0.0
  0
SPLINE
  5
14D
330
56
100
AcDbEntity
  8
0
  6
Continuous
 62
     7
100
AcDbSpline
210
0.0
220
0.0
230
1.0
 70
     8
 71
     3
 72
    11
 73
     7
 74
     5
 42
0.000000001
 43
0.0000000001
 44
0.00000001
 40
0.0
 40
0.0
 40
0.0
 40
0.0
 40
0.2085154766859233
 40
0.4157533508130598
 40
0.624515453725436
 40
0.8315040150852635
 40
0.8315040150852635
 40
0.8315040150852635
 40
0.8315040150852635
 10
-51.7280817681617
 20
471.8265091641197
 30
0.0
 10
-51.70350964424635
 20
471.8915259145741
 30
0.0
 10
-51.65451596715118
 20
472.0211610543422
 30
0.0
 10
-51.58092553938831
 20
472.2158915211905
 30
0.0
 10
-51.50751812073494
 20
472.4101470450696
 30
0.0
 10
-51.45853292993161
 20
472.5397844344776
 30
0.0
 10
-51.43414482395491
 20
472.6043266231937
 30
0.0
 11
-51.7280817681617
 21
471.8265091641197
 31
0.0
 11
-51.65436614283911
 21
472.0215596975742
 31
0.0
 11
-51.58110565009582
 21
472.215416440237
 31
0.0
 11
-51.50730993061065
 21
472.4107003550845
 31
0.0
 11
-51.43414482395491
 21
472.6043266231937
 31
0.0
  0
SPLINE
  5
14E
330
56
100
AcDbEntity
  8
0
  6
Continuous
 62
     7
100
AcDbSpline
210
0.0
220
0.0
230
1.0
 70
     8
 71
     3
 72
    11
 73
     7
 74
     5
 42
0.000000001
 43
0.0000000001
 44
0.00000001
 40
0.0
 40
0.0
 40
0.0
 40
0.0
 40
0.249545434052795
 40
0.5016279561586481
 40
0.7520652866190192
 40
1.005194341227155
 40
1.005194341227155
 40
1.005194341227155
 40
1.005194341227155
 10
-51.72808176819075
 20
517.3994205253429
 30
0.0
 10
-51.74676300292095
 20
517.4804782267705
 30
0.0
 10
-51.78431541612271
 20
517.6434177267429
 30
0.0
 10
-51.8437100534361
 20
517.8869739867456
 30
0.0
 10
-51.90538668758843
 20
518.1311938174158
 30
0.0
 10
-51.94841436463895
 20
518.2934421851003
 30
0.0
 10
-51.97004320881501
 20
518.3750000018672
 30
0.0
 11
-51.72808176819075
 21
517.3994205253429
 31
0.0
 11
-51.78463623183788
 21
517.6424730223963
 31
0.0
 11
-51.84417449208354
 21
517.8874236165348
 31
0.0
 11
-51.90564339516281
 21
518.1302001197013
 31
0.0
 11
-51.97004320881501
 21
518.3750000018672
 31
0.0
  0
SPLINE
  5
14F
330
56
100
AcDbEntity
  8
0
  6
Continuous
 62
     7
100
AcDbSpline
210
0.0
220
0.0
230
1.0
 70
     8
 71
     3
 72
    11
 73
     7
 74
     5
 42
0.000000001
 43
0.0000000001
 44
0.00000001
 40
0.0
 40
0.0
 40
0.0
 40
0.0
 40
0.2833787597128177
 40
0.5692975783765648
 40
0.8527006989424759
 40
1.138595155243007
 40
1.138595155243007
 40
1.138595155243007
 40
1.138595155243007
 10
-51.43414482395491
 20
516.2994205253231
 30
0.0
 10
-51.45852807361452
 20
516.3906787886832
 30
0.0
 10
-51.50751314615938
 20
516.5740133028517
 30
0.0
 10
-51.58088862619844
 20
516.8486125729817
 30
0.0
 10
-51.65448387832323
 20
517.124021104485
 30
0.0
 10
-51.70347766522397
 20
517.3073532895245
 30
0.0
 10
-51.72808176819075
 20
517.3994205253429
 30
0.0
 11
-51.43414482395491
 21
516.2994205253231
 31
0.0
 11
-51.50729541387184
 21
516.5731950907071
 31
0.0
 11
-51.5811056472603
 21
516.8494225699942
 31
0.0
 11
-51.65427025772737
 21
517.1232186045195
 31
0.0
 11
-51.72808176819075
 21
517.3994205253429
 31
0.0
  0
SPLINE
  5
150
330
56
100
AcDbEntity
  8
0
  6
Continuous
 62
     7
100
AcDbSpline
210
0.0
220
0.0
230
1.0
 70
     8
 71
     3
 72
    11
 73
     7
 74
     5
 42
0.000000001
 43
0.0000000001
 44
0.00000001
 40
0.0
 40
0.0
 40
0.0
 40
0.0
 40
0.2065986951788796
 40
0.415750656251329
 40
0.6227383320443562
 40
0.8315040153104065
 40
0.8315040153104065
 40
0.8315040153104065
 40
0.8315040153104065
 10
-51.4341448239548
 20
509.9741005053031
 30
0.0
 10
-51.45848699396342
 20
510.0385211280242
 30
0.0
 10
-51.50747218265037
 20
510.1681585153735
 30
0.0
 10
-51.58085011604306
 20
510.3623360230189
 30
0.0
 10
-51.65448648213864
 20
510.5571880550486
 30
0.0
 10
-51.70348015949643
 20
510.6868231976563
 30
0.0
 10
-51.72808176818614
 20
510.7519179646085
 30
0.0
 11
-51.4341448239548
 21
509.9741005053031
 31
0.0
 11
-51.50717211951193
 21
510.1673620766339
 31
0.0
 11
-51.5811056472603
 21
510.3630106807568
 31
0.0
 11
-51.65427769048169
 21
510.5566333809267
 31
0.0
 11
-51.72808176818614
 21
510.7519179646085
 31
0.0
  0
SPLINE
  5
151
330
56
100
AcDbEntity
  8
0
  6
Continuous
 62
     7
100
AcDbSpline
210
0.0
220
0.0
230
1.0
 70
     8
 71
     3
 72
    11
 73
     7
 74
     5
 42
0.000000001
 43
0.0000000001
 44
0.00000001
 40
0.0
 40
0.0
 40
0.0
 40
0.0
 40
0.5272377354554859
 40
1.058875348040188
 40
1.586070475944635
 40
2.117947694053735
 40
2.117947694053735
 40
2.117947694053735
 40
2.117947694053735
 10
-51.72808176818563
 20
507.923490839866
 30
0.0
 10
-51.74675537773703
 20
508.098242244146
 30
0.0
 10
-51.78425844583334
 20
508.4492033774845
 30
0.0
 10
-51.84365725072038
 20
508.9745488431411
 30
0.0
 10
-51.90532256596128
 20
509.5011898318394
 30
0.0
 10
-51.94840616630143
 20
509.8515757772375
 30
0.0
 10
-51.97004320883161
 20
510.0275432658077
 30
0.0
 11
-51.72808176818563
 21
507.923490839866
 31
0.0
 11
-51.78463617091158
 21
508.4476866327205
 31
0.0
 11
-51.84417479537632
 21
508.9759798310141
 31
0.0
 11
-51.90564350321326
 21
509.4995792016131
 31
0.0
 11
-51.97004320883161
 21
510.0275432658077
 31
0.0
  0
SPLINE
  5
152
330
56
100
AcDbEntity
  8
0
  6
Continuous
 62
     7
100
AcDbSpline
210
0.0
220
0.0
230
1.0
 70
     8
 71
     3
 72
    11
 73
     7
 74
     5
 42
0.000000001
 43
0.0000000001
 44
0.00000001
 40
0.0
 40
0.0
 40
0.0
 40
0.0
 40
0.1928380068524295
 40
0.3832924081631256
 40
0.574668044971079
 40
0.7637891594275911
 40
0.7637891594275911
 40
0.7637891594275911
 40
0.7637891594275911
 10
-51.97004320883161
 20
510.0275432658077
 30
0.0
 10
-51.94842198430131
 20
510.088078098162
 30
0.0
 10
-51.90544680199601
 20
510.208399517211
 30
0.0
 10
-51.84375984846764
 20
510.3897571946873
 30
0.0
 10
-51.78436964804906
 20
510.5705774598202
 30
0.0
 10
-51.74677012839299
 20
510.6917103740834
 30
0.0
 10
-51.72808176818614
 20
510.7519179646085
 30
0.0
 11
-51.97004320883161
 21
510.0275432658077
 31
0.0
 11
-51.90564304757912
 21
510.2093099187904
 31
0.0
 11
-51.84417448707694
 21
510.3895722140566
 31
0.0
 11
-51.78463592101552
 21
510.5714507272589
 31
0.0
 11
-51.72808176818614
 21
510.7519179646085
 31
0.0
  0
SPLINE
  5
153
330
56
100
AcDbEntity
  8
0
  6
Continuous
 62
     7
100
AcDbSpline
210
0.0
220
0.0
230
1.0
 70
     8
 71
     3
 72
    11
 73
     7
 74
     5
 42
0.000000001
 43
0.0000000001
 44
0.00000001
 40
0.0
 40
0.0
 40
0.0
 40
0.0
 40
0.2071560750732545
 40
0.4157506562515415
 40
0.6222701070511838
 40
0.8315040153139507
 40
0.8315040153139507
 40
0.8315040153139507
 40
0.8315040153139507
 10
-51.4341448239548
 20
507.1456733805567
 30
0.0
 10
-51.4585526672172
 20
507.2102678025106
 30
0.0
 10
-51.50753785755366
 20
507.3399051892368
 30
0.0
 10
-51.58086062420416
 20
507.5339366967606
 30
0.0
 10
-51.65443130685848
 20
507.7286149334086
 30
0.0
 10
-51.70342498300241
 20
507.8582500764759
 30
0.0
 10
-51.72808176818563
 20
507.923490839866
 30
0.0
 11
-51.4341448239548
 21
507.1456733805567
 31
0.0
 11
-51.50736914387801
 21
507.3394563478464
 31
0.0
 11
-51.5811056472603
 21
507.5345835560106
 31
0.0
 11
-51.65411216471838
 21
507.7277682654658
 31
0.0
 11
-51.72808176818563
 21
507.923490839866
 31
0.0
  0
SPLINE
  5
154
330
56
100
AcDbEntity
  8
0
  6
Continuous
 62
     7
100
AcDbSpline
210
0.0
220
0.0
230
1.0
 70
     8
 71
     3
 72
    11
 73
     7
 74
     5
 42
0.000000001
 43
0.0000000001
 44
0.00000001
 40
0.0
 40
0.0
 40
0.0
 40
0.0
 40
0.2863544832372355
 40
0.5692975658629207
 40
0.8552131512824139
 40
1.138595155223107
 40
1.138595155223107
 40
1.138595155223107
 40
1.138595155223107
 10
-51.7280817681862
 20
462.3505794784275
 30
0.0
 10
-51.70343807574049
 20
462.442794857885
 30
0.0
 10
-51.65444429072846
 20
462.6261270396333
 30
0.0
 10
-51.58084932075417
 20
462.901534527172
 30
0.0
 10
-51.5075134262483
 20
463.1759856526015
 30
0.0
 10
-51.45852835276186
 20
463.3593201703079
 30
0.0
 10
-51.43414482395491
 20
463.4505794784279
 30
0.0
 11
-51.7280817681862
 21
462.3505794784275
 31
0.0
 11
-51.65415149211202
 21
462.6272258309241
 31
0.0
 11
-51.58110565009582
 21
462.9005774231455
 31
0.0
 11
-51.50729625135018
 21
463.1768017787745
 31
0.0
 11
-51.43414482395491
 21
463.4505794784279
 31
0.0
  0
SPLINE
  5
155
330
56
100
AcDbEntity
  8
0
  6
Continuous
 62
     7
100
AcDbSpline
210
0.0
220
0.0
230
1.0
 70
     8
 71
     3
 72
    11
 73
     7
 74
     5
 42
0.000000001
 43
0.0000000001
 44
0.00000001
 40
0.0
 40
0.0
 40
0.0
 40
0.0
 40
0.2088047505030617
 40
0.4157533510381877
 40
0.6249156959941545
 40
0.8315040153103916
 40
0.8315040153103916
 40
0.8315040153103916
 40
0.8315040153103916
 10
-51.7280817681862
 20
468.9980820391421
 30
0.0
 10
-51.70347555574224
 20
469.0631889875832
 30
0.0
 10
-51.65448187943267
 20
469.1928241277286
 30
0.0
 10
-51.58084429100809
 20
469.3876793951828
 30
0.0
 10
-51.50747096102728
 20
469.5818447212099
 30
0.0
 10
-51.45848577142747
 20
469.7114821110723
 30
0.0
 10
-51.43414482395491
 20
469.7758994984475
 30
0.0
 11
-51.7280817681862
 21
468.9980820391421
 31
0.0
 11
-51.6542638795263
 21
469.1934031674065
 31
0.0
 11
-51.58110565009582
 21
469.3869893154908
 31
0.0
 11
-51.50716845182033
 21
469.5826476331232
 31
0.0
 11
-51.43414482395491
 21
469.7758994984475
 31
0.0
  0
SPLINE
  5
156
330
56
100
AcDbEntity
  8
0
  6
Continuous
 62
     7
100
AcDbSpline
210
0.0
220
0.0
230
1.0
 70
     8
 71
     3
 72
    11
 73
     7
 74
     5
 42
0.000000001
 43
0.0000000001
 44
0.00000001
 40
0.0
 40
0.0
 40
0.0
 40
0.0
 40
0.2531284479272346
 40
0.5035651259850147
 40
0.7556497837986427
 40
1.005194341255056
 40
1.005194341255056
 40
1.005194341255056
 40
1.005194341255056
 10
-51.97004320881723
 20
461.3750000018754
 30
0.0
 10
-51.94841441598624
 20
461.4565576230373
 30
0.0
 10
-51.90538684553778
 20
461.6188055847819
 30
0.0
 10
-51.84371013080029
 20
461.8630256964458
 30
0.0
 10
-51.78431544284273
 20
462.1065821523592
 30
0.0
 10
-51.74676293665865
 20
462.2695220615976
 30
0.0
 10
-51.7280817681862
 20
462.3505794784275
 30
0.0
 11
-51.97004320881723
 21
461.3750000018754
 31
0.0
 11
-51.90564354681083
 21
461.619799296612
 31
0.0
 11
-51.84417479537962
 21
461.8625751651853
 31
0.0
 11
-51.78463602895596
 21
462.1075278341817
 31
0.0
 11
-51.7280817681862
 21
462.3505794784275
 31
0.0
  0
SPLINE
  5
157
330
56
100
AcDbEntity
  8
0
  6
Continuous
 62
     7
100
AcDbSpline
210
0.0
220
0.0
230
1.0
 70
     8
 71
     3
 72
    11
 73
     7
 74
     5
 42
0.000000001
 43
0.0000000001
 44
0.00000001
 40
0.0
 40
0.0
 40
0.0
 40
0.0
 40
0.1891238412955422
 40
0.3805025774743026
 40
0.5709539496454389
 40
0.7637891595230187
 40
0.7637891595230187
 40
0.7637891595230187
 40
0.7637891595230187
 10
-51.7280817681862
 20
468.9980820391421
 30
0.0
 10
-51.74677040112215
 20
469.0582904967766
 30
0.0
 10
-51.78437050308784
 20
469.1794252638442
 30
0.0
 10
-51.8437610481441
 20
469.360246397475
 30
0.0
 10
-51.90544776022204
 20
469.5416031967068
 30
0.0
 10
-51.9484222950117
 20
469.6619227847656
 30
0.0
 10
-51.97004320881723
 20
469.7224567380586
 30
0.0
 11
-51.7280817681862
 21
468.9980820391421
 31
0.0
 11
-51.7846367530305
 21
469.178551873356
 31
0.0
 11
-51.8441763341296
 21
469.3604333154924
 31
0.0
 11
-51.9056439661334
 21
469.5406927269636
 31
0.0
 11
-51.97004320881723
 21
469.7224567380586
 31
0.0
  0
ENDBLK
  5
58
330
56
100
AcDbEntity
  8
0
100
AcDbBlockEnd
  0
BLOCK
  5
5A
330
59
100
AcDbEntity
  8
0
100
AcDbBlockBegin
  2
HL0902_2E-T-Stück
 70
     0
 10
-118.5504813299547
 20
466.4033121653931
 30
0.0
  3
HL0902_2E-T-Stück
  1

  0
LINE
  5
158
330
59
100
AcDbEntity
  8
1
  6
DOT_CENTER
 62
     2
100
AcDbLine
 10
-94.48349403185233
 20
512.025000001875
 30
0.0
 11
-94.48349403185233
 21
520.525000001875
 31
0.0
  0
LINE
  5
159
330
59
100
AcDbEntity
  8
1
  6
DOT_CENTER
 62
     2
100
AcDbLine
 10
-139.689578102345
 20
489.8750000018754
 30
0.0
 11
-48.9458602204729
 21
489.8750000018753
 31
0.0
  0
LINE
  5
15A
330
59
100
AcDbEntity
  8
1
  6
Continuous
 62
     2
100
AcDbLine
 10
-109.6289940318523
 20
518.1495000018859
 30
0.0
 11
-109.6289940318523
 21
517.0250000018859
 31
0.0
  0
LINE
  5
15B
330
59
100
AcDbEntity
  8
1
  6
Continuous
 62
     2
100
AcDbLine
 10
-79.3379940318523
 20
518.1495000018859
 30
0.0
 11
-79.3379940318523
 21
517.0250000018859
 31
0.0
  0
LINE
  5
15C
330
59
100
AcDbEntity
  8
0
  6
Continuous
 62
     7
100
AcDbLine
 10
-70.98819457023262
 20
466.9750000018758
 30
0.0
 11
-70.41650673374994
 21
466.4033121653931
 31
0.0
  0
LINE
  5
15D
330
59
100
AcDbEntity
  8
0
  6
Continuous
 62
     7
100
AcDbLine
 10
-117.9787934934829
 20
466.9750000018758
 30
0.0
 11
-118.5504813299547
 21
466.4033121654039
 31
0.0
  0
LINE
  5
15E
330
59
100
AcDbEntity
  8
0
  6
Continuous
 62
     7
100
AcDbLine
 10
-70.98819457023262
 20
466.9750000018758
 30
0.0
 11
-70.98819457023262
 21
467.7250000018758
 31
0.0
  0
LINE
  5
15F
330
59
100
AcDbEntity
  8
0
  6
Continuous
 62
     7
100
AcDbLine
 10
-70.98819457023262
 20
512.775000001875
 30
0.0
 11
-70.41650673374994
 21
513.3466878383578
 31
0.0
  0
LINE
  5
160
330
59
100
AcDbEntity
  8
0
  6
Continuous
 62
     7
100
AcDbLine
 10
-109.9834940318523
 20
517.0250000018859
 30
0.0
 11
-111.1079940318523
 21
518.1495000018859
 31
0.0
  0
LINE
  5
161
330
59
100
AcDbEntity
  8
0
  6
Continuous
 62
     7
100
AcDbLine
 10
-78.98349403185233
 20
517.0250000018859
 30
0.0
 11
-77.85899403185232
 21
518.1495000018859
 31
0.0
  0
LINE
  5
162
330
59
100
AcDbEntity
  8
0
  6
Continuous
 62
     7
100
AcDbLine
 10
-79.93349403184214
 20
517.0250000018859
 30
0.0
 11
-109.0334940318625
 21
517.0250000018859
 31
0.0
  0
LINE
  5
163
330
59
100
AcDbEntity
  8
0
  6
Continuous
 62
     7
100
AcDbLine
 10
-78.98349403185233
 20
517.0250000018859
 30
0.0
 11
-79.93349403184214
 21
517.0250000018859
 31
0.0
  0
LINE
  5
164
330
59
100
AcDbEntity
  8
0
  6
Continuous
 62
     7
100
AcDbLine
 10
-109.0334940318625
 20
517.0250000018859
 30
0.0
 11
-109.9834940318523
 21
517.0250000018859
 31
0.0
  0
LINE
  5
165
330
59
100
AcDbEntity
  8
0
  6
Continuous
 62
     7
100
AcDbLine
 10
-111.1079940318523
 20
518.1495000018859
 30
0.0
 11
-77.85899403185232
 21
518.1495000018859
 31
0.0
  0
LINE
  5
166
330
59
100
AcDbEntity
  8
0
  6
Continuous
 62
     7
100
AcDbLine
 10
-117.9787934934829
 20
512.775000001875
 30
0.0
 11
-118.5504813299547
 21
513.346687838347
 31
0.0
  0
LINE
  5
167
330
59
100
AcDbEntity
  8
0
  6
Continuous
 62
     7
100
AcDbLine
 10
-117.9787934934829
 20
512.025000001875
 30
0.0
 11
-109.0334940318625
 21
512.025000001875
 31
0.0
  0
LINE
  5
168
330
59
100
AcDbEntity
  8
0
  6
Continuous
 62
     7
100
AcDbLine
 10
-117.9787934934829
 20
467.7250000018758
 30
0.0
 11
-70.98819457023262
 21
467.7250000018758
 31
0.0
  0
LINE
  5
169
330
59
100
AcDbEntity
  8
0
  6
Continuous
 62
     7
100
AcDbLine
 10
-117.9787934934829
 20
467.7250000018758
 30
0.0
 11
-117.9787934934829
 21
512.025000001875
 31
0.0
  0
LINE
  5
16A
330
59
100
AcDbEntity
  8
0
  6
Continuous
 62
     7
100
AcDbLine
 10
-117.9787934934829
 20
512.025000001875
 30
0.0
 11
-117.9787934934829
 21
512.775000001875
 31
0.0
  0
LINE
  5
16B
330
59
100
AcDbEntity
  8
0
  6
Continuous
 62
     7
100
AcDbLine
 10
-117.9787934934829
 20
466.9750000018758
 30
0.0
 11
-117.9787934934829
 21
467.7250000018758
 31
0.0
  0
LINE
  5
16C
330
59
100
AcDbEntity
  8
0
  6
Continuous
 62
     7
100
AcDbLine
 10
-111.1079940318523
 20
518.5250000018751
 30
0.0
 11
-111.1079940318523
 21
518.1495000018859
 31
0.0
  0
LINE
  5
16D
330
59
100
AcDbEntity
  8
0
  6
Continuous
 62
     7
100
AcDbLine
 10
-109.0334940318625
 20
517.0250000018859
 30
0.0
 11
-109.0334940318625
 21
512.025000001875
 31
0.0
  0
LINE
  5
16E
330
59
100
AcDbEntity
  8
0
  6
Continuous
 62
     7
100
AcDbLine
 10
-70.98819457023262
 20
467.7250000018758
 30
0.0
 11
-70.98819457023262
 21
512.025000001875
 31
0.0
  0
LINE
  5
16F
330
59
100
AcDbEntity
  8
0
  6
Continuous
 62
     7
100
AcDbLine
 10
-70.98819457023262
 20
512.025000001875
 30
0.0
 11
-70.98819457023262
 21
512.775000001875
 31
0.0
  0
LINE
  5
170
330
59
100
AcDbEntity
  8
0
  6
Continuous
 62
     7
100
AcDbLine
 10
-77.85899403185232
 20
518.5250000018751
 30
0.0
 11
-77.85899403185232
 21
518.1495000018859
 31
0.0
  0
LINE
  5
171
330
59
100
AcDbEntity
  8
0
  6
Continuous
 62
     7
100
AcDbLine
 10
-79.93349403184214
 20
517.0250000018859
 30
0.0
 11
-79.93349403184214
 21
512.025000001875
 31
0.0
  0
LINE
  5
172
330
59
100
AcDbEntity
  8
0
  6
Continuous
 62
     7
100
AcDbLine
 10
-79.93349403184214
 20
512.025000001875
 30
0.0
 11
-70.98819457023262
 21
512.025000001875
 31
0.0
  0
SPLINE
  5
173
330
59
100
AcDbEntity
  8
0
  6
Continuous
 62
     7
100
AcDbSpline
210
0.0
220
0.0
230
1.0
 70
     8
 71
     3
 72
    25
 73
    21
 74
    19
 42
0.000000001
 43
0.0000000001
 44
0.00000001
 40
0.0
 40
0.0
 40
0.0
 40
0.0
 40
0.0443692382635322
 40
0.0887384742785461
 40
0.2207250138646541
 40
0.3522571845090089
 40
0.8657528576229268
 40
1.370116426826964
 40
2.630414098456592
 40
3.835863199771031
 40
4.989608935150704
 40
6.331043276279106
 40
7.610420300637289
 40
8.833527146234115
 40
10.00646078825905
 40
11.21383369193869
 40
12.38471895588784
 40
13.52708901200607
 40
14.64925715409706
 40
15.75975932414443
 40
15.75975932414443
 40
15.75975932414443
 40
15.75975932414443
 10
-109.0334940318625
 20
512.025000001875
 30
0.0
 10
-109.0211311361961
 20
512.0168824024386
 30
0.0
 10
-108.9964053381696
 20
512.0006472151293
 30
0.0
 10
-108.9348692898044
 20
511.9603161264599
 30
0.0
 10
-108.8489607599724
 20
511.9041688239847
 30
0.0
 10
-108.6318657238621
 20
511.7629128687465
 30
0.0
 10
-108.309683223856
 20
511.5555688659242
 30
0.0
 10
-107.6676936913616
 20
511.1499532830961
 30
0.0
 10
-106.8226640022436
 20
510.6339197513105
 30
0.0
 10
-105.7778227745614
 20
510.03038147353
 30
0.0
 10
-104.6934631847218
 20
509.4420245974281
 30
0.0
 10
-103.568638404876
 20
508.8776269679566
 30
0.0
 10
-102.4014945431539
 20
508.34806429348
 30
0.0
 10
-101.2647152555393
 20
507.8901257103311
 30
0.0
 10
-100.1303432403711
 20
507.493802252853
 30
0.0
 10
-98.993366175756
 20
507.1622539751801
 30
0.0
 10
-97.84888646641335
 20
506.8992123035907
 30
0.0
 10
-96.71834057748377
 20
506.7134031814343
 30
0.0
 10
-95.59808662428094
 20
506.5973698275367
 30
0.0
 10
-94.85372844235572
 20
506.5830304168463
 30
0.0
 10
-94.48349403185233
 20
506.5758981813054
 30
0.0
 11
-109.0334940318625
 21
512.025000001875
 31
0.0
 11
-108.9964019337793
 21
512.0006524117273
 31
0.0
 11
-108.9592935554409
 21
511.9763296416688
 31
0.0
 11
-108.8488094565274
 21
511.9041236169922
 31
0.0
 11
-108.7385605439607
 21
511.8323887643016
 31
0.0
 11
-108.3067361270458
 21
511.5545300249644
 31
0.0
 11
-107.880327041023
 21
511.2851642860487
 31
0.0
 11
-106.8043796141347
 21
510.6288965388092
 31
0.0
 11
-105.7602184203207
 21
510.0265387233649
 31
0.0
 11
-104.7458022618051
 21
509.4769124138377
 31
0.0
 11
-103.5462782271518
 21
508.8764224609145
 31
0.0
 11
-102.3807078440755
 21
508.3489271958009
 31
0.0
 11
-101.2457554151537
 21
507.8929959044819
 31
0.0
 11
-100.1380852429636
 21
507.5071978729426
 31
0.0
 11
-98.97867412228577
 21
507.1702777259915
 31
0.0
 11
-97.83724224450637
 21
506.9093072800878
 31
0.0
 11
-96.71005680595475
 21
506.723666938496
 31
0.0
 11
-95.59338500296028
 21
506.6127371044805
 31
0.0
 11
-94.48349403185233
 21
506.5758981813054
 31
0.0
  0
SPLINE
  5
174
330
59
100
AcDbEntity
  8
0
  6
Continuous
 62
     7
100
AcDbSpline
210
0.0
220
0.0
230
1.0
 70
     8
 71
     3
 72
    25
 73
    21
 74
    19
 42
0.000000001
 43
0.0000000001
 44
0.00000001
 40
0.0
 40
0.0
 40
0.0
 40
0.0
 40
1.109590355828514
 40
2.230819016253672
 40
3.372201086566159
 40
4.542029928166976
 40
5.748259363739763
 40
6.921189753449553
 40
8.144278708912193
 40
9.423626781304154
 40
10.765024414378
 40
11.91978590841487
 40
13.12634618010517
 40
14.3878603561391
 40
14.89291047327086
 40
15.40711879049426
 40
15.53881628855152
 40
15.6710086648269
 40
15.71538467694502
 40
15.75976069131264
 40
15.75976069131264
 40
15.75976069131264
 40
15.75976069131264
 10
-94.48349403185233
 20
506.5758981813054
 30
0.0
 10
-94.11356372250621
 20
506.5830186655715
 30
0.0
 10
-93.36982296818061
 20
506.5973343341842
 30
0.0
 10
-92.25050364574247
 20
506.7131755971217
 30
0.0
 10
-91.12091641569793
 20
506.8986765130222
 30
0.0
 10
-89.97742828405825
 20
507.1612807548841
 30
0.0
 10
-88.84108805639039
 20
507.4923856517784
 30
0.0
 10
-87.7069992107777
 20
507.8883438405383
 30
0.0
 10
-86.57015018526258
 20
508.3460656111637
 30
0.0
 10
-85.40294523574059
 20
508.875427153247
 30
0.0
 10
-84.27775721273369
 20
509.4398078071122
 30
0.0
 10
-83.19271966185781
 20
510.0283772770638
 30
0.0
 10
-82.14686804542256
 20
510.6323954042584
 30
0.0
 10
-81.30095813369228
 20
511.1489160096145
 30
0.0
 10
-80.65822168207933
 20
511.5549818090765
 30
0.0
 10
-80.33559819911123
 20
511.7626042849984
 30
0.0
 10
-80.11819969216711
 20
511.9040562569092
 30
0.0
 10
-80.03218560858396
 20
511.9602723308948
 30
0.0
 10
-79.9705883904858
 20
512.0006434970732
 30
0.0
 10
-79.94585881582574
 20
512.0168811630867
 30
0.0
 10
-79.93349403184214
 20
512.025000001875
 30
0.0
 11
-94.48349403185233
 21
506.5758981813054
 31
0.0
 11
-93.37451337478254
 21
506.6126767663437
 31
0.0
 11
-92.25876757809561
 21
506.7234243653412
 31
0.0
 11
-91.13253305426795
 21
506.9087587441228
 31
0.0
 11
-89.99208621577583
 21
507.1692976685129
 31
0.0
 11
-88.8337034750956
 21
507.5056589043358
 31
0.0
 11
-87.72595560268823
 21
507.8912238835393
 31
0.0
 11
-86.59093514911905
 21
508.3469377910826
 31
0.0
 11
-85.42530517825868
 21
508.8742311283547
 31
0.0
 11
-84.2257287539777
 21
509.4745343967445
 31
0.0
 11
-83.21035793423047
 21
510.0245309489088
 31
0.0
 11
-82.16518860484273
 21
510.6273648918511
 31
0.0
 11
-81.0881733080227
 21
511.2842180467725
 31
0.0
 11
-80.66117722235921
 21
511.5539400585682
 31
0.0
 11
-80.22875019915693
 21
511.8321792773528
 31
0.0
 11
-80.11836237567127
 21
511.9040037809641
 31
0.0
 11
-80.0077058451883
 21
511.9763222162781
 31
0.0
 11
-79.97059179589473
 21
512.0006486952286
 31
0.0
 11
-79.93349403184214
 21
512.025000001875
 31
0.0
  0
ENDBLK
  5
5B
330
59
100
AcDbEntity
  8
0
100
AcDbBlockEnd
  0
BLOCK
  5
5D
330
5C
100
AcDbEntity
  8
0
100
AcDbBlockBegin
  2
Holländer6_4-01047D_1
 70
     0
 10
-138.0504813299547
 20
461.3750000018754
 30
0.0
  3
Holländer6_4-01047D_1
  1

  0
LINE
  5
175
330
5C
100
AcDbEntity
  8
0
  6
Continuous
 62
     7
100
AcDbLine
 10
-138.0504813299547
 20
465.3068516544536
 30
0.0
 11
-136.9969448548875
 21
461.3750000018754
 31
0.0
  0
LINE
  5
176
330
5C
100
AcDbEntity
  8
0
  6
Continuous
 62
     7
100
AcDbLine
 10
-121.0504813299547
 20
468.9980820391424
 30
0.0
 11
-121.0504813299547
 21
469.7224567380588
 31
0.0
  0
LINE
  5
177
330
5C
100
AcDbEntity
  8
0
  6
Continuous
 62
     7
100
AcDbLine
 10
-121.0504813299547
 20
463.4505794784278
 30
0.0
 11
-121.0504813299547
 21
468.9980820391424
 31
0.0
  0
LINE
  5
178
330
5C
100
AcDbEntity
  8
0
  6
Continuous
 62
     7
100
AcDbLine
 10
-121.0504813299547
 20
462.3505794784278
 30
0.0
 11
-121.0504813299547
 21
463.4505794784278
 31
0.0
  0
LINE
  5
179
330
5C
100
AcDbEntity
  8
0
  6
Continuous
 62
     7
100
AcDbLine
 10
-121.0504813299547
 20
461.3750000018754
 30
0.0
 11
-121.0504813299547
 21
462.3505794784278
 31
0.0
  0
LINE
  5
17A
330
5C
100
AcDbEntity
  8
0
  6
Continuous
 62
     7
100
AcDbLine
 10
-121.0504813299547
 20
461.3750000018754
 30
0.0
 11
-136.9969448548875
 21
461.3750000018754
 31
0.0
  0
LINE
  5
17B
330
5C
100
AcDbEntity
  8
0
  6
Continuous
 62
     7
100
AcDbLine
 10
-118.5504813299547
 20
461.3750000018754
 30
0.0
 11
-121.0504813299547
 21
461.3750000018754
 31
0.0
  0
LINE
  5
17C
330
5C
100
AcDbEntity
  8
0
  6
Continuous
 62
     7
100
AcDbLine
 10
-121.0504813299547
 20
463.4505794784278
 30
0.0
 11
-137.5328432397498
 21
463.4505794784282
 31
0.0
  0
LINE
  5
17D
330
5C
100
AcDbEntity
  8
0
  6
Continuous
 62
     7
100
AcDbLine
 10
-121.0504813299547
 20
471.8265091638885
 30
0.0
 11
-137.2389062955185
 21
471.8265091638885
 31
0.0
  0
LINE
  5
17E
330
5C
100
AcDbEntity
  8
0
  6
Continuous
 62
     7
100
AcDbLine
 10
-121.0504813299547
 20
469.7224567380588
 30
0.0
 11
-136.9969448549303
 21
469.722456738392
 31
0.0
  0
LINE
  5
17F
330
5C
100
AcDbEntity
  8
0
  6
Continuous
 62
     7
100
AcDbLine
 10
-137.5328432397498
 20
463.4505794784282
 30
0.0
 11
-137.5328432397498
 21
469.7758994984479
 31
0.0
  0
LINE
  5
180
330
5C
100
AcDbEntity
  8
0
  6
Continuous
 62
     7
100
AcDbLine
 10
-121.0504813299547
 20
462.3505794784278
 30
0.0
 11
-137.2389062955239
 21
462.3505794784514
 31
0.0
  0
LINE
  5
181
330
5C
100
AcDbEntity
  8
0
  6
Continuous
 62
     7
100
AcDbLine
 10
-121.0504813299547
 20
487.8750000018754
 30
0.0
 11
-137.2389062955242
 21
487.8750000018754
 31
0.0
  0
LINE
  5
182
330
5C
100
AcDbEntity
  8
0
  6
Continuous
 62
     7
100
AcDbLine
 10
-121.0504813299547
 20
472.6043266231937
 30
0.0
 11
-137.5328432397498
 21
472.604326623194
 31
0.0
  0
LINE
  5
183
330
5C
100
AcDbEntity
  8
0
  6
Continuous
 62
     7
100
AcDbLine
 10
-121.0504813299547
 20
507.9234908398623
 30
0.0
 11
-137.2389062955455
 21
507.9234908398623
 31
0.0
  0
LINE
  5
184
330
5C
100
AcDbEntity
  8
0
  6
Continuous
 62
     7
100
AcDbLine
 10
-121.0504813299547
 20
507.1456733805571
 30
0.0
 11
-137.5328432397497
 21
507.1456733805571
 31
0.0
  0
LINE
  5
185
330
5C
100
AcDbEntity
  8
0
  6
Continuous
 62
     7
100
AcDbLine
 10
-121.0504813299547
 20
516.2994205253231
 30
0.0
 11
-137.5328432397497
 21
516.2994205253231
 31
0.0
  0
LINE
  5
186
330
5C
100
AcDbEntity
  8
0
  6
Continuous
 62
     7
100
AcDbLine
 10
-118.5504813299547
 20
461.3750000018754
 30
0.0
 11
-118.5504813299547
 21
518.3750000018754
 31
0.0
  0
LINE
  5
187
330
5C
100
AcDbEntity
  8
0
  6
Continuous
 62
     7
100
AcDbLine
 10
-118.5504813299547
 20
518.3750000018754
 30
0.0
 11
-121.0504813299547
 21
518.3750000018754
 31
0.0
  0
LINE
  5
188
330
5C
100
AcDbEntity
  8
0
  6
Continuous
 62
     7
100
AcDbLine
 10
-121.0504813299547
 20
517.3994205253229
 30
0.0
 11
-121.0504813299547
 21
518.3750000018754
 31
0.0
  0
LINE
  5
189
330
5C
100
AcDbEntity
  8
0
  6
Continuous
 62
     7
100
AcDbLine
 10
-121.0504813299547
 20
517.3994205253229
 30
0.0
 11
-137.2389062955214
 21
517.3994205253107
 31
0.0
  0
LINE
  5
18A
330
5C
100
AcDbEntity
  8
0
  6
Continuous
 62
     7
100
AcDbLine
 10
-121.0504813299547
 20
518.3750000018754
 30
0.0
 11
-136.9969448548897
 21
518.3750000018672
 31
0.0
  0
LINE
  5
18B
330
5C
100
AcDbEntity
  8
0
  6
Continuous
 62
     7
100
AcDbLine
 10
-121.0504813299547
 20
491.8750000018754
 30
0.0
 11
-137.2389062955455
 21
491.8750000020931
 31
0.0
  0
LINE
  5
18C
330
5C
100
AcDbEntity
  8
0
  6
Continuous
 62
     7
100
AcDbLine
 10
-121.0504813299547
 20
489.8750000018754
 30
0.0
 11
-136.9969448548875
 21
489.8750000018754
 31
0.0
  0
LINE
  5
18D
330
5C
100
AcDbEntity
  8
0
  6
Continuous
 62
     7
100
AcDbLine
 10
-121.0504813299547
 20
510.027543265692
 30
0.0
 11
-136.9969448548875
 21
510.027543265692
 31
0.0
  0
LINE
  5
18E
330
5C
100
AcDbEntity
  8
0
  6
Continuous
 62
     7
100
AcDbLine
 10
-121.0504813299547
 20
507.9234908398623
 30
0.0
 11
-121.0504813299547
 21
510.027543265692
 31
0.0
  0
LINE
  5
18F
330
5C
100
AcDbEntity
  8
0
  6
Continuous
 62
     7
100
AcDbLine
 10
-121.0504813299547
 20
510.027543265692
 30
0.0
 11
-121.0504813299547
 21
510.7519179646084
 31
0.0
  0
LINE
  5
190
330
5C
100
AcDbEntity
  8
0
  6
Continuous
 62
     7
100
AcDbLine
 10
-121.0504813299547
 20
491.8750000018754
 30
0.0
 11
-121.0504813299547
 21
507.1456733805571
 31
0.0
  0
LINE
  5
191
330
5C
100
AcDbEntity
  8
0
  6
Continuous
 62
     7
100
AcDbLine
 10
-121.0504813299547
 20
489.8750000018754
 30
0.0
 11
-121.0504813299547
 21
491.8750000018754
 31
0.0
  0
LINE
  5
192
330
5C
100
AcDbEntity
  8
0
  6
Continuous
 62
     7
100
AcDbLine
 10
-121.0504813299547
 20
507.1456733805571
 30
0.0
 11
-121.0504813299547
 21
507.9234908398623
 31
0.0
  0
LINE
  5
193
330
5C
100
AcDbEntity
  8
0
  6
Continuous
 62
     7
100
AcDbLine
 10
-121.0504813299547
 20
469.7224567380588
 30
0.0
 11
-121.0504813299547
 21
471.8265091638885
 31
0.0
  0
LINE
  5
194
330
5C
100
AcDbEntity
  8
0
  6
Continuous
 62
     7
100
AcDbLine
 10
-121.0504813299547
 20
472.6043266231937
 30
0.0
 11
-121.0504813299547
 21
487.8750000018754
 31
0.0
  0
LINE
  5
195
330
5C
100
AcDbEntity
  8
0
  6
Continuous
 62
     7
100
AcDbLine
 10
-121.0504813299547
 20
487.8750000018754
 30
0.0
 11
-121.0504813299547
 21
489.8750000018754
 31
0.0
  0
LINE
  5
196
330
5C
100
AcDbEntity
  8
0
  6
Continuous
 62
     7
100
AcDbLine
 10
-121.0504813299547
 20
471.8265091638885
 30
0.0
 11
-121.0504813299547
 21
472.6043266231937
 31
0.0
  0
LINE
  5
197
330
5C
100
AcDbEntity
  8
0
  6
Continuous
 62
     7
100
AcDbLine
 10
-121.0504813299547
 20
516.2994205253231
 30
0.0
 11
-121.0504813299547
 21
517.3994205253229
 31
0.0
  0
LINE
  5
198
330
5C
100
AcDbEntity
  8
0
  6
Continuous
 62
     7
100
AcDbLine
 10
-121.0504813299547
 20
510.7519179646084
 30
0.0
 11
-121.0504813299547
 21
516.2994205253231
 31
0.0
  0
LINE
  5
199
330
5C
100
AcDbEntity
  8
0
  6
Continuous
 62
     7
100
AcDbLine
 10
-138.0504813299547
 20
514.4431483492973
 30
0.0
 11
-136.9969448548897
 21
518.3750000018672
 31
0.0
  0
LINE
  5
19A
330
5C
100
AcDbEntity
  8
0
  6
Continuous
 62
     7
100
AcDbLine
 10
-121.0504813299547
 20
468.9980820391424
 30
0.0
 11
-137.2389062955185
 21
468.9980820391424
 31
0.0
  0
LINE
  5
19B
330
5C
100
AcDbEntity
  8
0
  6
Continuous
 62
     7
100
AcDbLine
 10
-137.5328432397497
 20
509.9741005053033
 30
0.0
 11
-137.5328432397497
 21
516.2994205253231
 31
0.0
  0
LINE
  5
19C
330
5C
100
AcDbEntity
  8
0
  6
Continuous
 62
     7
100
AcDbLine
 10
-121.0504813299547
 20
510.7519179646084
 30
0.0
 11
-137.2389062955242
 21
510.7519179646084
 31
0.0
  0
LINE
  5
19D
330
5C
100
AcDbEntity
  8
0
  6
Continuous
 62
     7
100
AcDbLine
 10
-137.5328432397498
 20
491.8750000018754
 30
0.0
 11
-137.5328432397497
 21
507.1456733805571
 31
0.0
  0
LINE
  5
19E
330
5C
100
AcDbEntity
  8
0
  6
Continuous
 62
     7
100
AcDbLine
 10
-137.2389062955242
 20
487.8750000018754
 30
0.0
 11
-137.5328432397497
 21
487.8750000018754
 31
0.0
  0
LINE
  5
19F
330
5C
100
AcDbEntity
  8
0
  6
Continuous
 62
     7
100
AcDbLine
 10
-137.5328432397498
 20
472.604326623194
 30
0.0
 11
-137.5328432397497
 21
487.8750000018754
 31
0.0
  0
LINE
  5
1A0
330
5C
100
AcDbEntity
  8
0
  6
Continuous
 62
     7
100
AcDbLine
 10
-137.5328432397498
 20
491.8750000018754
 30
0.0
 11
-137.2389062955455
 21
491.8750000020931
 31
0.0
  0
LINE
  5
1A1
330
5C
100
AcDbEntity
  8
0
  6
Continuous
 62
     7
100
AcDbLine
 10
-138.0504813299547
 20
514.4431483492973
 30
0.0
 11
-138.0504813299547
 21
499.2768233383216
 31
0.0
  0
LINE
  5
1A2
330
5C
100
AcDbEntity
  8
0
  6
Continuous
 62
     7
100
AcDbLine
 10
-138.0504813299547
 20
499.2768233383216
 30
0.0
 11
-138.0504813299547
 21
465.3068516544536
 31
0.0
  0
SPLINE
  5
1A3
330
5C
100
AcDbEntity
  8
0
  6
Continuous
 62
     7
100
AcDbSpline
210
0.0
220
0.0
230
1.0
 70
     8
 71
     3
 72
    11
 73
     7
 74
     5
 42
0.000000001
 43
0.0000000001
 44
0.00000001
 40
0.0
 40
0.0
 40
0.0
 40
0.0
 40
0.2495736531888356
 40
0.5016880144495646
 40
0.7520940832111512
 40
1.005194341229106
 40
1.005194341229106
 40
1.005194341229106
 40
1.005194341229106
 10
-137.2389062955239
 20
462.3505794784514
 30
0.0
 10
-137.2202229216608
 20
462.2695126168381
 30
0.0
 10
-137.1826659589238
 20
462.1065536206969
 30
0.0
 10
-137.1232686084297
 20
461.8629881401529
 30
0.0
 10
-137.0615938555228
 20
461.6187775380206
 30
0.0
 10
-137.018571262496
 20
461.4565485339354
 30
0.0
 10
-136.9969448548875
 20
461.3750000018754
 30
0.0
 11
-137.2389062955239
 21
462.3505794784514
 31
0.0
 11
-137.1823453008932
 21
462.1074995280686
 31
0.0
 11
-137.1227991044282
 21
461.8625180967495
 31
0.0
 11
-137.0613374705304
 21
461.6197720012533
 31
0.0
 11
-136.9969448548875
 21
461.3750000018754
 31
0.0
  0
SPLINE
  5
1A4
330
5C
100
AcDbEntity
  8
0
  6
Continuous
 62
     7
100
AcDbSpline
210
0.0
220
0.0
230
1.0
 70
     8
 71
     3
 72
    11
 73
     7
 74
     5
 42
0.000000001
 43
0.0000000001
 44
0.00000001
 40
0.0
 40
0.0
 40
0.0
 40
0.0
 40
0.2072252952952363
 40
0.4157506562514426
 40
0.6227725010030244
 40
0.8315040153105607
 40
0.8315040153105607
 40
0.8315040153105607
 40
0.8315040153105607
 10
-137.5328432397498
 20
472.604326623194
 30
0.0
 10
-137.5084272406104
 20
472.5397106173617
 30
0.0
 10
-137.4594420500521
 20
472.4100732307199
 30
0.0
 10
-137.3860600853135
 20
472.2158850707282
 30
0.0
 10
-137.3124975551525
 20
472.0212284192387
 30
0.0
 10
-137.2635038776852
 20
471.8915932766722
 30
0.0
 10
-137.2389062955185
 20
471.8265091638885
 30
0.0
 11
-137.5328432397498
 21
472.604326623194
 31
0.0
 11
-137.459594451647
 21
472.4104789044773
 31
0.0
 11
-137.3858824164443
 21
472.2154164477402
 31
0.0
 11
-137.312698293895
 21
472.0217617849739
 31
0.0
 11
-137.2389062955185
 21
471.8265091638885
 31
0.0
  0
SPLINE
  5
1A5
330
5C
100
AcDbEntity
  8
0
  6
Continuous
 62
     7
100
AcDbSpline
210
0.0
220
0.0
230
1.0
 70
     8
 71
     3
 72
    11
 73
     7
 74
     5
 42
0.000000001
 43
0.0000000001
 44
0.00000001
 40
0.0
 40
0.0
 40
0.0
 40
0.0
 40
0.2829185423878323
 40
0.5692975783771435
 40
0.8530599562808949
 40
1.13859515519893
 40
1.13859515519893
 40
1.13859515519893
 40
1.13859515519893
 10
-137.5328432397498
 20
463.4505794784282
 30
0.0
 10
-137.5084995899026
 20
463.3594694216353
 30
0.0
 10
-137.45951451842
 20
463.1761349071833
 30
0.0
 10
-137.3861081270726
 20
462.9014199428897
 30
0.0
 10
-137.3124732687609
 20
462.625863206538
 30
0.0
 10
-137.2634794811379
 20
462.4425310217064
 30
0.0
 10
-137.2389062955239
 20
462.3505794784514
 30
0.0
 11
-137.5328432397498
 21
463.4505794784282
 31
0.0
 11
-137.4598114522291
 21
463.1772495319561
 31
0.0
 11
-137.3858824164443
 21
462.9005774337565
 31
0.0
 11
-137.3126250561473
 21
462.6264343209924
 31
0.0
 11
-137.2389062955239
 21
462.3505794784514
 31
0.0
  0
SPLINE
  5
1A6
330
5C
100
AcDbEntity
  8
0
  6
Continuous
 62
     7
100
AcDbSpline
210
0.0
220
0.0
230
1.0
 70
     8
 71
     3
 72
    11
 73
     7
 74
     5
 42
0.000000001
 43
0.0000000001
 44
0.00000001
 40
0.0
 40
0.0
 40
0.0
 40
0.0
 40
0.527297931301657
 40
1.058999240863982
 40
1.586130202394198
 40
2.117947693582209
 40
2.117947693582209
 40
2.117947693582209
 40
2.117947693582209
 10
-137.2389062955185
 20
471.8265091638885
 30
0.0
 10
-137.2202305261935
 20
471.6517378107692
 30
0.0
 10
-137.1827230143157
 20
471.3007356193369
 30
0.0
 10
-137.1233215201353
 20
470.7753704211326
 30
0.0
 10
-137.0616581029227
 20
470.2487494136318
 30
0.0
 10
-137.0185794927744
 20
469.8984044636299
 30
0.0
 10
-136.9969448549303
 20
469.722456738392
 30
0.0
 11
-137.2389062955185
 21
471.8265091638885
 31
0.0
 11
-137.1823452929843
 21
471.3022535379071
 31
0.0
 11
-137.1227991044096
 21
470.7738970918707
 31
0.0
 11
-137.0613374620799
 21
470.2503614988357
 31
0.0
 11
-136.9969448549303
 21
469.722456738392
 31
0.0
  0
SPLINE
  5
1A7
330
5C
100
AcDbEntity
  8
0
  6
Continuous
 62
     7
100
AcDbSpline
210
0.0
220
0.0
230
1.0
 70
     8
 71
     3
 72
    11
 73
     7
 74
     5
 42
0.000000001
 43
0.0000000001
 44
0.00000001
 40
0.0
 40
0.0
 40
0.0
 40
0.0
 40
0.2066241854728732
 40
0.4157506562514429
 40
0.622175484605339
 40
0.8315040153105617
 40
0.8315040153105617
 40
0.8315040153105617
 40
0.8315040153105617
 10
-137.5328432397498
 20
469.7758994984479
 30
0.0
 10
-137.5084980663567
 20
469.7114709274759
 30
0.0
 10
-137.4595128776109
 20
469.5818335401489
 30
0.0
 10
-137.3862012648046
 20
469.3878315354184
 30
0.0
 10
-137.3125679070546
 20
469.1929874497645
 30
0.0
 10
-137.2635742311749
 20
469.0633523065983
 30
0.0
 10
-137.2389062955185
 20
468.9980820391424
 30
0.0
 11
-137.5328432397498
 21
469.7758994984479
 31
0.0
 11
-137.4598069338055
 21
469.5826140824529
 31
0.0
 11
-137.3858824164443
 21
469.3869893229941
 31
0.0
 11
-137.3129093496813
 21
469.1938931260139
 31
0.0
 11
-137.2389062955185
 21
468.9980820391424
 31
0.0
  0
SPLINE
  5
1A8
330
5C
100
AcDbEntity
  8
0
  6
Continuous
 62
     7
100
AcDbSpline
210
0.0
220
0.0
230
1.0
 70
     8
 71
     3
 72
    11
 73
     7
 74
     5
 42
0.000000001
 43
0.0000000001
 44
0.00000001
 40
0.0
 40
0.0
 40
0.0
 40
0.0
 40
0.2865310722138603
 40
0.569297565850045
 40
0.855127192177054
 40
1.138595155209981
 40
1.138595155209981
 40
1.138595155209981
 40
1.138595155209981
 10
-137.2389062955214
 20
517.3994205253107
 30
0.0
 10
-137.2635651850465
 20
517.3071482784578
 30
0.0
 10
-137.3125589696982
 20
517.1238160966182
 30
0.0
 10
-137.3861465413477
 20
516.8484362905026
 30
0.0
 10
-137.4594672408345
 20
516.5740420330234
 30
0.0
 10
-137.5084523145167
 20
516.3907075153697
 30
0.0
 10
-137.5328432397497
 20
516.2994205253231
 30
0.0
 11
-137.2389062955214
 21
517.3994205253107
 31
0.0
 11
-137.3128821617445
 21
517.1226035703376
 31
0.0
 11
-137.3858824136089
 21
516.8494225806053
 31
0.0
 11
-137.4596696225191
 21
516.573281270607
 31
0.0
 11
-137.5328432397497
 21
516.2994205253231
 31
0.0
  0
SPLINE
  5
1A9
330
5C
100
AcDbEntity
  8
0
  6
Continuous
 62
     7
100
AcDbSpline
210
0.0
220
0.0
230
1.0
 70
     8
 71
     3
 72
    11
 73
     7
 74
     5
 42
0.000000001
 43
0.0000000001
 44
0.00000001
 40
0.0
 40
0.0
 40
0.0
 40
0.0
 40
0.5015315204939275
 40
1.007274189603225
 40
1.508700241307797
 40
2.014613029076974
 40
2.014613029076974
 40
2.014613029076974
 40
2.014613029076974
 10
-137.2389062955455
 20
491.8750000020931
 30
0.0
 10
-137.2202302004906
 20
491.7088689027614
 30
0.0
 10
-137.1827211801468
 20
491.3752117730378
 30
0.0
 10
-137.1233198002729
 20
490.8758293972096
 30
0.0
 10
-137.061656129621
 20
490.3752501951843
 30
0.0
 10
-137.018579240285
 20
490.0422444735562
 30
0.0
 10
-136.9969448548875
 20
489.8750000018754
 30
0.0
 11
-137.2389062955455
 21
491.8750000020931
 31
0.0
 11
-137.1823450062369
 21
491.3766680980106
 31
0.0
 11
-137.1227991044226
 21
490.8744431155709
 31
0.0
 11
-137.0613374623406
 21
490.3767981096387
 31
0.0
 11
-136.9969448548875
 21
489.8750000018754
 31
0.0
  0
SPLINE
  5
1AA
330
5C
100
AcDbEntity
  8
0
  6
Continuous
 62
     7
100
AcDbSpline
210
0.0
220
0.0
230
1.0
 70
     8
 71
     3
 72
    11
 73
     7
 74
     5
 42
0.000000001
 43
0.0000000001
 44
0.00000001
 40
0.0
 40
0.0
 40
0.0
 40
0.0
 40
0.5318786664574768
 40
1.059075053790948
 40
1.590709881597603
 40
2.117947693944067
 40
2.117947693944067
 40
2.117947693944067
 40
2.117947693944067
 10
-136.9969448548875
 20
510.027543265692
 30
0.0
 10
-137.0185819557437
 20
509.8515752978724
 30
0.0
 10
-137.0616656650558
 20
509.5011884564786
 30
0.0
 10
-137.1233309673959
 20
508.9745474920938
 30
0.0
 10
-137.1827297112112
 20
508.4492025054607
 30
0.0
 10
-137.2202326833137
 20
508.0982422696327
 30
0.0
 10
-137.2389062955455
 20
507.9234908398623
 30
0.0
 11
-136.9969448548875
 21
510.027543265692
 31
0.0
 11
-137.0613447326392
 21
509.4995777634106
 31
0.0
 11
-137.122813577904
 21
508.9759771408671
 31
0.0
 11
-137.1823518843669
 21
508.4476867091421
 31
0.0
 11
-137.2389062955455
 21
507.9234908398623
 31
0.0
  0
SPLINE
  5
1AB
330
5C
100
AcDbEntity
  8
0
  6
Continuous
 62
     7
100
AcDbSpline
210
0.0
220
0.0
230
1.0
 70
     8
 71
     3
 72
    11
 73
     7
 74
     5
 42
0.000000001
 43
0.0000000001
 44
0.00000001
 40
0.0
 40
0.0
 40
0.0
 40
0.0
 40
0.505970984900932
 40
1.007459252549151
 40
1.51314117310606
 40
2.014613028882665
 40
2.014613028882665
 40
2.014613028882665
 40
2.014613028882665
 10
-136.9969448548875
 20
489.8750000018754
 30
0.0
 10
-137.0185817033728
 20
489.7077362880297
 30
0.0
 10
-137.0616636909677
 20
489.3746907535639
 30
0.0
 10
-137.1233293485501
 20
488.8740917568126
 30
0.0
 10
-137.1827279726111
 20
488.3747285900527
 30
0.0
 10
-137.2202324510972
 20
488.0411113405781
 30
0.0
 10
-137.2389062955242
 20
487.8750000018754
 30
0.0
 11
-136.9969448548875
 21
489.8750000018754
 31
0.0
 11
-137.0613447333614
 21
489.3731441528159
 31
0.0
 11
-137.1228135766277
 21
488.8754373476133
 31
0.0
 11
-137.1823518837134
 21
488.3732726387586
 31
0.0
 11
-137.2389062955242
 21
487.8750000018754
 31
0.0
  0
SPLINE
  5
1AC
330
5C
100
AcDbEntity
  8
0
  6
Continuous
 62
     7
100
AcDbSpline
210
0.0
220
0.0
230
1.0
 70
     8
 71
     3
 72
    11
 73
     7
 74
     5
 42
0.000000001
 43
0.0000000001
 44
0.00000001
 40
0.0
 40
0.0
 40
0.0
 40
0.0
 40
0.1928381508258319
 40
0.3832923927754256
 40
0.574668040102974
 40
0.7637891598318728
 40
0.7637891598318728
 40
0.7637891598318728
 40
0.7637891598318728
 10
-136.9969448549303
 20
469.722456738392
 30
0.0
 10
-137.0185660954083
 20
469.6619218607712
 30
0.0
 10
-137.0615412756013
 20
469.5416004464116
 30
0.0
 10
-137.1232282279211
 20
469.3602427702483
 30
0.0
 10
-137.1826184135576
 20
469.1794225506313
 30
0.0
 10
-137.2202179347852
 20
469.0582896313441
 30
0.0
 10
-137.2389062955185
 20
468.9980820391424
 30
0.0
 11
-136.9969448549303
 21
469.722456738392
 31
0.0
 11
-137.0613450632974
 21
469.5406899493593
 31
0.0
 11
-137.1228135716213
 21
469.360427804672
 31
0.0
 11
-137.1823521410804
 21
469.178549281513
 31
0.0
 11
-137.2389062955185
 21
468.9980820391424
 31
0.0
  0
SPLINE
  5
1AD
330
5C
100
AcDbEntity
  8
0
  6
Continuous
 62
     7
100
AcDbSpline
210
0.0
220
0.0
230
1.0
 70
     8
 71
     3
 72
    11
 73
     7
 74
     5
 42
0.000000001
 43
0.0000000001
 44
0.00000001
 40
0.0
 40
0.0
 40
0.0
 40
0.0
 40
0.2086970452179368
 40
0.4157533510284878
 40
0.6242603825496342
 40
0.8315040153006561
 40
0.8315040153006561
 40
0.8315040153006561
 40
0.8315040153006561
 10
-137.2389062955455
 20
507.9234908398623
 30
0.0
 10
-137.2634998158037
 20
507.8584174748237
 30
0.0
 10
-137.3124934923991
 20
507.7287823347896
 30
0.0
 10
-137.3860538620292
 20
507.5341314012209
 30
0.0
 10
-137.4594398884406
 20
507.339932493399
 30
0.0
 10
-137.5084250799997
 20
507.2102951042768
 30
0.0
 10
-137.5328432397497
 20
507.1456733805571
 30
0.0
 11
-137.2389062955455
 21
507.9234908398623
 31
0.0
 11
-137.3126861084717
 21
507.7282704621163
 31
0.0
 11
-137.3858824136089
 21
507.5345835635138
 31
0.0
 11
-137.4595879696658
 21
507.3395382528801
 31
0.0
 11
-137.5328432397497
 21
507.1456733805571
 31
0.0
  0
SPLINE
  5
1AE
330
5C
100
AcDbEntity
  8
0
  6
Continuous
 62
     7
100
AcDbSpline
210
0.0
220
0.0
230
1.0
 70
     8
 71
     3
 72
    11
 73
     7
 74
     5
 42
0.000000001
 43
0.0000000001
 44
0.00000001
 40
0.0
 40
0.0
 40
0.0
 40
0.0
 40
0.2086772176604029
 40
0.4157533510360135
 40
0.6242823851954008
 40
0.8315040153081287
 40
0.8315040153081287
 40
0.8315040153081287
 40
0.8315040153081287
 10
-137.2389062955242
 20
510.7519179646084
 30
0.0
 10
-137.2634974792732
 20
510.6868507819691
 30
0.0
 10
-137.3124911559341
 20
510.5572156419572
 30
0.0
 10
-137.3860541184365
 20
510.3625578477963
 30
0.0
 10
-137.4594424809654
 20
510.1683527574241
 30
0.0
 10
-137.5084276724595
 20
510.0387153682776
 30
0.0
 10
-137.5328432397497
 20
509.9741005053033
 30
0.0
 11
-137.2389062955242
 21
510.7519179646084
 31
0.0
 11
-137.3126790990762
 21
510.5567161341186
 31
0.0
 11
-137.3858824136089
 21
510.3630106882599
 31
0.0
 11
-137.459595747227
 21
510.1679447954584
 31
0.0
 11
-137.5328432397497
 21
509.9741005053033
 31
0.0
  0
SPLINE
  5
1AF
330
5C
100
AcDbEntity
  8
0
  6
Continuous
 62
     7
100
AcDbSpline
210
0.0
220
0.0
230
1.0
 70
     8
 71
     3
 72
    11
 73
     7
 74
     5
 42
0.000000001
 43
0.0000000001
 44
0.00000001
 40
0.0
 40
0.0
 40
0.0
 40
0.0
 40
0.1891436942017158
 40
0.3805424591511063
 40
0.5709736799467537
 40
0.7637891594626169
 40
0.7637891594626169
 40
0.7637891594626169
 40
0.7637891594626169
 10
-137.2389062955242
 20
510.7519179646084
 30
0.0
 10
-137.2202156771554
 20
510.6917031938717
 30
0.0
 10
-137.1826115866639
 20
510.5705557446981
 30
0.0
 10
-137.123218615265
 20
510.3897284833578
 30
0.0
 10
-137.0615336804427
 20
510.208378071747
 30
0.0
 10
-137.0185635768316
 20
510.0880710179097
 30
0.0
 10
-136.9969448548875
 20
510.027543265692
 30
0.0
 11
-137.2389062955242
 21
510.7519179646084
 31
0.0
 11
-137.182345253128
 21
510.5714292237826
 31
0.0
 11
-137.1227990860405
 21
510.389528862983
 31
0.0
 11
-137.0613376181106
 21
510.209288640336
 31
0.0
 11
-136.9969448548875
 21
510.027543265692
 31
0.0
  0
SPLINE
  5
1B0
330
5C
100
AcDbEntity
  8
0
  6
Continuous
 62
     7
100
AcDbSpline
210
0.0
220
0.0
230
1.0
 70
     8
 71
     3
 72
    11
 73
     7
 74
     5
 42
0.000000001
 43
0.0000000001
 44
0.00000001
 40
0.0
 40
0.0
 40
0.0
 40
0.0
 40
0.2531290456074016
 40
0.5035664058644735
 40
0.7556489314394765
 40
1.00519434126019
 40
1.00519434126019
 40
1.00519434126019
 40
1.00519434126019
 10
-136.9969448548897
 20
518.3750000018672
 30
0.0
 10
-137.0185736983019
 20
518.2934421880019
 30
0.0
 10
-137.0616013771395
 20
518.1311938136193
 30
0.0
 10
-137.123278013212
 20
517.8869739750911
 30
0.0
 10
-137.1826726510205
 20
517.6434177121092
 30
0.0
 10
-137.220225062626
 20
517.480478218872
 30
0.0
 10
-137.2389062955214
 20
517.3994205253107
 30
0.0
 11
-136.9969448548897
 21
518.3750000018672
 31
0.0
 11
-137.0613446662921
 21
518.1302001284164
 31
0.0
 11
-137.1228135766306
 21
517.8874235963509
 31
0.0
 11
-137.1823518374826
 21
517.6424729987897
 31
0.0
 11
-137.2389062955214
 21
517.3994205253107
 31
0.0
  0
ENDBLK
  5
5E
330
5C
100
AcDbEntity
  8
0
100
AcDbBlockEnd
  0
BLOCK
  5
63
330
5F
100
AcDbEntity
  8
0
100
AcDbBlockBegin
  2
HL0902_2E
 70
     0
 10
-138.0504813299547
 20
461.3750000018754
 30
0.0
  3
HL0902_2E
  1

  0
INSERT
  5
60
330
5F
100
AcDbEntity
  8
0
100
AcDbBlockReference
  2
Holländer6_4-01047D_1_1
 10
-70.41650673374994
 20
461.3750000018754
 30
0.0
  0
INSERT
  5
61
330
5F
100
AcDbEntity
  8
0
100
AcDbBlockReference
  2
HL0902_2E-T-Stück
 10
-118.5504813299547
 20
466.4033121653931
 30
0.0
  0
INSERT
  5
62
330
5F
100
AcDbEntity
  8
0
100
AcDbBlockReference
  2
Holländer6_4-01047D_1
 10
-138.0504813299547
 20
461.3750000018754
 30
0.0
  0
ENDBLK
  5
64
330
5F
100
AcDbEntity
  8
0
100
AcDbBlockEnd
  0
BLOCK
  5
68
330
65
100
AcDbEntity
  8
0
100
AcDbBlockBegin
  2
HL19T-40-WEB-Zeichnung
 70
     0
 10
-153.0834940318523
 20
461.3750000018754
 30
0.0
  3
HL19T-40-WEB-Zeichnung
  1

  0
INSERT
  5
66
330
65
100
AcDbEntity
  8
0
100
AcDbBlockReference
  2
HL19
 10
-153.0834940318523
 20
518.5250000018751
 30
0.0
  0
INSERT
  5
67
330
65
100
AcDbEntity
  8
0
100
AcDbBlockReference
  2
HL0902_2E
 10
-138.0504813299547
 20
461.3750000018754
 30
0.0
  0
ENDBLK
  5
69
330
65
100
AcDbEntity
  8
0
100
AcDbBlockEnd
  0
BLOCK
  5
6C
330
6A
100
AcDbEntity
  8
0
100
AcDbBlockBegin
  2
Vordans1
 70
     0
 10
-102.000000000666
 20
516.00000000094
 30
0.0
  3
Vordans1
  1

  0
INSERT
  5
6B
330
6A
100
AcDbEntity
  8
0
100
AcDbBlockReference
  2
HL19T-40-WEB-Zeichnung
 10
-153.0834940318523
 20
461.3750000018754
 30
0.0
  0
LINE
  5
1B1
330
6A
100
AcDbEntity
  8
1
  6
Continuous
 62
     7
100
AcDbLine
 10
-139.218702632598
 20
513.7765000018754
 30
0.0
 11
-140.218702632598
 21
513.7765000018754
 31
0.0
  0
LINE
  5
1B2
330
6A
100
AcDbEntity
  8
1
  6
Continuous
 62
     7
100
AcDbLine
 10
-140.218702632598
 20
465.7765000018754
 30
0.0
 11
-139.218702632598
 21
465.7765000018754
 31
0.0
  0
LINE
  5
1B3
330
6A
100
AcDbEntity
  8
1
  6
Continuous
 62
     7
100
AcDbLine
 10
-50.3473176234344
 20
509.8750000018754
 30
0.0
 11
-49.3473176234344
 21
509.8750000018754
 31
0.0
  0
LINE
  5
1B4
330
6A
100
AcDbEntity
  8
1
  6
Continuous
 62
     7
100
AcDbLine
 10
-49.3473176234344
 20
469.8750000018754
 30
0.0
 11
-50.3473176234344
 21
469.8750000018754
 31
0.0
  0
MTEXT
  5
1B6
330
6A
100
AcDbEntity
  8
1
 62
     1
100
AcDbMText
 10
-102.0000000006649
 20
456.37500000094
 30
0.0
 40
3.5
 41
0.0
 71
     2
 72
     1
  1
 
  7
CONVERTER_11
 73
     1
 44
1.32052821128451
  0
DIMENSION
  5
1C3
330
6A
100
AcDbEntity
  8
1
100
AcDbDimension
  2
*D11
 10
-162.593395230422
 20
550.1107142875896
 30
0.0
 11
-170.093395230422
 21
536.641268940394
 31
0.0
 70
    32
  1
3/4"
 71
     5
 42
-1.0
 53
90.0
  3
ME10_DIM_10
100
AcDbAlignedDimension
 13
-151.7834940318523
 23
567.139285716161
 33
0.0
 14
-151.7834940318523
 24
550.1107142875896
 34
0.0
 50
90.0
100
AcDbRotatedDimension
  0
DIMENSION
  5
1CE
330
6A
100
AcDbEntity
  8
1
100
AcDbDimension
  2
*D12
 10
-138.0504813299547
 20
445.936641824378
 30
0.0
 11
-93.8170814052166
 21
453.436641824378
 31
0.0
 70
    32
  1
88
 71
     5
 42
-1.0
 53
0.00013888888889
  3
ME10_DIM_11
100
AcDbAlignedDimension
 13
-50.91650673374994
 23
465.3068516544536
 33
0.0
 14
-138.0504813299547
 24
465.3068516544536
 34
0.0
100
AcDbRotatedDimension
  0
DIMENSION
  5
1D9
330
6A
100
AcDbEntity
  8
1
100
AcDbDimension
  2
*D13
 10
-32.3675220228784
 20
469.8750000018754
 30
0.0
 11
-39.8675220228784
 21
490.715887069606
 31
0.0
 70
    32
  1
<>
 71
     5
 42
-1.0
 53
90.0
  3
ME10_DIM_12
100
AcDbAlignedDimension
 13
-49.3473176234344
 23
509.8750000018754
 33
0.0
 14
-49.3473176234344
 24
469.8750000018754
 34
0.0
 50
90.0
100
AcDbRotatedDimension
  0
DIMENSION
  5
1E4
330
6A
100
AcDbEntity
  8
1
100
AcDbDimension
  2
*D14
 10
-151.591009383611
 20
465.7765000018754
 30
0.0
 11
-159.091009383611
 21
489.870253047365
 31
0.0
 70
    32
  1
6/4"
 71
     5
 42
-1.0
 53
90.0
  3
ME10_DIM_13
100
AcDbAlignedDimension
 13
-140.218702632598
 23
513.7765000018754
 33
0.0
 14
-140.218702632598
 24
465.7765000018754
 34
0.0
 50
90.0
100
AcDbRotatedDimension
  0
ENDBLK
  5
6D
330
6A
100
AcDbEntity
  8
0
100
AcDbBlockEnd
  0
BLOCK
  5
1C0
330
1B7
100
AcDbEntity
  8
0
100
AcDbBlockBegin
  2
*D11
 70
     1
 10
0.0
 20
0.0
 30
0.0
  3
*D11
  1

  0
LINE
  5
1B8
330
1B7
100
AcDbEntity
  8
1
  6
Continuous
 62
     4
100
AcDbLine
 10
-162.593395230422
 20
567.139285716161
 30
0.0
 11
-162.593395230422
 21
581.139285716161
 31
0.0
  0
LINE
  5
1B9
330
1B7
100
AcDbEntity
  8
1
  6
Continuous
 62
     4
100
AcDbLine
 10
-162.593395230422
 20
550.1107142875896
 30
0.0
 11
-162.593395230422
 21
567.139285716161
 31
0.0
  0
LINE
  5
1BA
330
1B7
100
AcDbEntity
  8
1
  6
Continuous
 62
     4
100
AcDbLine
 10
-162.593395230422
 20
527.1912689403939
 30
0.0
 11
-162.593395230422
 21
550.1107142875896
 31
0.0
  0
LINE
  5
1BB
330
1B7
100
AcDbEntity
  8
1
  6
Continuous
 62
     4
100
AcDbLine
 10
-151.7834940318523
 20
567.139285716161
 30
0.0
 11
-164.593395230422
 21
567.139285716161
 31
0.0
  0
LINE
  5
1BC
330
1B7
100
AcDbEntity
  8
1
  6
Continuous
 62
     4
100
AcDbLine
 10
-151.7834940318523
 20
550.1107142875896
 30
0.0
 11
-164.593395230422
 21
550.1107142875896
 31
0.0
  0
SOLID
  5
1BD
330
1B7
100
AcDbEntity
  8
1
 62
     4
100
AcDbTrace
 10
-161.6718277473102
 20
543.1107142875896
 30
0.0
 11
-163.5149627135338
 21
543.1107142875896
 31
0.0
 12
-162.593395230422
 22
550.1107142875896
 32
0.0
 13
-162.593395230422
 23
550.1107142875896
 33
0.0
  0
SOLID
  5
1BE
330
1B7
100
AcDbEntity
  8
1
 62
     4
100
AcDbTrace
 10
-163.5149627135338
 20
574.139285716161
 30
0.0
 11
-161.6718277473102
 21
574.139285716161
 31
0.0
 12
-162.593395230422
 22
567.139285716161
 32
0.0
 13
-162.593395230422
 23
567.139285716161
 33
0.0
  0
MTEXT
  5
1BF
330
1B7
100
AcDbEntity
  8
1
 62
     1
100
AcDbMText
 10
-166.593395230422
 20
527.1912689403939
 30
0.0
 40
7.0
 41
0.0
 71
     7
 72
     1
  1
3/4"
  7
CONVERTER_11
 11
0.0
 21
1.0
 31
0.0
 73
     1
 44
0.60024009603842
  0
ENDBLK
  5
1C1
330
1B7
100
AcDbEntity
  8
0
100
AcDbBlockEnd
  0
BLOCK
  5
1CB
330
1C4
100
AcDbEntity
  8
0
100
AcDbBlockBegin
  2
*D12
 70
     1
 10
0.0
 20
0.0
 30
0.0
  3
*D12
  1

  0
LINE
  5
1C5
330
1C4
100
AcDbEntity
  8
1
  6
Continuous
 62
     4
100
AcDbLine
 10
-138.0504813299547
 20
445.936641824378
 30
0.0
 11
-50.91650673374994
 21
445.936641824378
 31
0.0
  0
LINE
  5
1C6
330
1C4
100
AcDbEntity
  8
1
  6
Continuous
 62
     4
100
AcDbLine
 10
-50.91650673374994
 20
465.3068516544536
 30
0.0
 11
-50.91650673374994
 21
443.936641824378
 31
0.0
  0
LINE
  5
1C7
330
1C4
100
AcDbEntity
  8
1
  6
Continuous
 62
     4
100
AcDbLine
 10
-138.0504813299547
 20
465.3068516544536
 30
0.0
 11
-138.0504813299547
 21
443.936641824378
 31
0.0
  0
SOLID
  5
1C8
330
1C4
100
AcDbEntity
  8
1
 62
     4
100
AcDbTrace
 10
-131.0504813299547
 20
446.8582093074897
 30
0.0
 11
-131.0504813299547
 21
445.0150743412663
 31
0.0
 12
-138.0504813299547
 22
445.936641824378
 32
0.0
 13
-138.0504813299547
 23
445.936641824378
 33
0.0
  0
SOLID
  5
1C9
330
1C4
100
AcDbEntity
  8
1
 62
     4
100
AcDbTrace
 10
-57.91650673374994
 20
445.0150743412663
 30
0.0
 11
-57.91650673374994
 21
446.8582093074897
 31
0.0
 12
-50.91650673374994
 22
445.936641824378
 32
0.0
 13
-50.91650673374994
 23
445.936641824378
 33
0.0
  0
MTEXT
  5
1CA
330
1C4
100
AcDbEntity
  8
1
 62
     1
100
AcDbMText
 10
-99.0670814052166
 20
449.936641824378
 30
0.0
 40
7.0
 41
0.0
 71
     7
 72
     1
  1
88
  7
CONVERTER_11
 11
0.9999999999970619
 21
2.424068405545306E-6
 31
0.0
 73
     1
 44
0.60024009603842
  0
ENDBLK
  5
1CC
330
1C4
100
AcDbEntity
  8
0
100
AcDbBlockEnd
  0
BLOCK
  5
1D6
330
1CF
100
AcDbEntity
  8
0
100
AcDbBlockBegin
  2
*D13
 70
     1
 10
0.0
 20
0.0
 30
0.0
  3
*D13
  1

  0
LINE
  5
1D0
330
1CF
100
AcDbEntity
  8
1
  6
Continuous
 62
     4
100
AcDbLine
 10
-32.3675220228784
 20
469.8750000018754
 30
0.0
 11
-32.3675220228784
 21
509.8750000018754
 31
0.0
  0
LINE
  5
1D1
330
1CF
100
AcDbEntity
  8
1
  6
Continuous
 62
     4
100
AcDbLine
 10
-49.3473176234344
 20
509.8750000018754
 30
0.0
 11
-30.3675220228784
 21
509.8750000018754
 31
0.0
  0
LINE
  5
1D2
330
1CF
100
AcDbEntity
  8
1
  6
Continuous
 62
     4
100
AcDbLine
 10
-49.3473176234344
 20
469.8750000018754
 30
0.0
 11
-30.3675220228784
 21
469.8750000018754
 31
0.0
  0
SOLID
  5
1D3
330
1CF
100
AcDbEntity
  8
1
 62
     4
100
AcDbTrace
 10
-33.28908950599017
 20
476.8750000018754
 30
0.0
 11
-31.44595453976662
 21
476.8750000018754
 31
0.0
 12
-32.3675220228784
 22
469.8750000018754
 32
0.0
 13
-32.3675220228784
 23
469.8750000018754
 33
0.0
  0
SOLID
  5
1D4
330
1CF
100
AcDbEntity
  8
1
 62
     4
100
AcDbTrace
 10
-31.44595453976663
 20
502.8750000018754
 30
0.0
 11
-33.28908950599017
 21
502.8750000018754
 31
0.0
 12
-32.3675220228784
 22
509.8750000018754
 32
0.0
 13
-32.3675220228784
 23
509.8750000018754
 33
0.0
  0
MTEXT
  5
1D5
330
1CF
100
AcDbEntity
  8
1
 62
     1
100
AcDbMText
 10
-36.3675220228784
 20
481.685887069606
 30
0.0
 40
7.0
 41
0.0
 71
     7
 72
     1
  1
\C1;DN\C1;40
  7
CONVERTER_11
 11
0.0
 21
1.0
 31
0.0
 73
     1
 44
0.60024009603842
  0
ENDBLK
  5
1D7
330
1CF
100
AcDbEntity
  8
0
100
AcDbBlockEnd
  0
BLOCK
  5
1E1
330
1DA
100
AcDbEntity
  8
0
100
AcDbBlockBegin
  2
*D14
 70
     1
 10
0.0
 20
0.0
 30
0.0
  3
*D14
  1

  0
LINE
  5
1DB
330
1DA
100
AcDbEntity
  8
1
  6
Continuous
 62
     4
100
AcDbLine
 10
-151.591009383611
 20
465.7765000018754
 30
0.0
 11
-151.591009383611
 21
513.7765000018754
 31
0.0
  0
LINE
  5
1DC
330
1DA
100
AcDbEntity
  8
1
  6
Continuous
 62
     4
100
AcDbLine
 10
-140.218702632598
 20
513.7765000018754
 30
0.0
 11
-153.591009383611
 21
513.7765000018754
 31
0.0
  0
LINE
  5
1DD
330
1DA
100
AcDbEntity
  8
1
  6
Continuous
 62
     4
100
AcDbLine
 10
-140.218702632598
 20
465.7765000018754
 30
0.0
 11
-153.591009383611
 21
465.7765000018754
 31
0.0
  0
SOLID
  5
1DE
330
1DA
100
AcDbEntity
  8
1
 62
     4
100
AcDbTrace
 10
-152.5125768667228
 20
472.7765000018754
 30
0.0
 11
-150.6694419004992
 21
472.7765000018754
 31
0.0
 12
-151.591009383611
 22
465.7765000018754
 32
0.0
 13
-151.591009383611
 23
465.7765000018754
 33
0.0
  0
SOLID
  5
1DF
330
1DA
100
AcDbEntity
  8
1
 62
     4
100
AcDbTrace
 10
-150.6694419004992
 20
506.7765000018754
 30
0.0
 11
-152.5125768667228
 21
506.7765000018754
 31
0.0
 12
-151.591009383611
 22
513.7765000018754
 32
0.0
 13
-151.591009383611
 23
513.7765000018754
 33
0.0
  0
MTEXT
  5
1E0
330
1DA
100
AcDbEntity
  8
1
 62
     1
100
AcDbMText
 10
-155.591009383611
 20
480.420253047365
 30
0.0
 40
7.0
 41
0.0
 71
     7
 72
     1
  1
6/4"
  7
CONVERTER_11
 11
0.0
 21
1.0
 31
0.0
 73
     1
 44
0.60024009603842
  0
ENDBLK
  5
1E2
330
1DA
100
AcDbEntity
  8
0
100
AcDbBlockEnd
  0
ENDSEC
  0
SECTION
  2
ENTITIES
  0
INSERT
  5
6E
330
1F
100
AcDbEntity
  8
0
100
AcDbBlockReference
  2
Vordans1
 10
-102.000000000666
 20
516.00000000094
 30
0.0
  0
ENDSEC
  0
SECTION
  2
OBJECTS
  0
DICTIONARY
  5
C
330
0
100
AcDbDictionary
281
     1
  3
ACAD_GROUP
350
D
  3
ACAD_LAYOUT
350
1A
  3
ACAD_MATERIAL
350
3B
  3
ACAD_MLEADERSTYLE
350
1E7
  3
ACAD_MLINESTYLE
350
17
  3
ACAD_PLOTSETTINGS
350
19
  3
ACAD_PLOTSTYLENAME
350
E
  3
ACAD_VISUALSTYLE
350
2A
  3
AcDbVariableDictionary
350
1E5
  0
DICTIONARY
  5
D
102
{ACAD_REACTORS
330
C
102
}
330
C
100
AcDbDictionary
281
     1
  0
DICTIONARY
  5
1A
102
{ACAD_REACTORS
330
C
102
}
330
C
100
AcDbDictionary
281
     1
  3
Layout1
350
1E
  3
Layout2
350
26
  3
Model
350
22
  0
DICTIONARY
  5
3B
102
{ACAD_REACTORS
330
C
102
}
330
C
100
AcDbDictionary
281
     1
  3
ByBlock
350
3D
  3
ByLayer
350
3C
  3
Global
350
3E
  0
DICTIONARY
  5
1E7
102
{ACAD_REACTORS
330
C
102
}
330
C
100
AcDbDictionary
281
     1
  0
DICTIONARY
  5
17
102
{ACAD_REACTORS
330
C
102
}
330
C
100
AcDbDictionary
281
     1
  3
Standard
350
18
  0
DICTIONARY
  5
19
102
{ACAD_REACTORS
330
C
102
}
330
C
100
AcDbDictionary
281
     1
  0
ACDBDICTIONARYWDFLT
  5
E
102
{ACAD_REACTORS
330
C
102
}
330
C
100
AcDbDictionary
281
     1
  3
Normal
350
F
100
AcDbDictionaryWithDefault
340
F
  0
DICTIONARY
  5
2A
102
{ACAD_REACTORS
330
C
102
}
330
C
100
AcDbDictionary
281
     1
  3
2dWireframe
350
2F
  3
3D Hidden
350
31
  3
3dWireframe
350
30
  3
Basic
350
32
  3
Brighten
350
36
  3
ColorChange
350
3A
  3
Conceptual
350
34
  3
Dim
350
35
  3
Facepattern
350
39
  3
Flat
350
2B
  3
FlatWithEdges
350
2C
  3
Gouraud
350
2D
  3
GouraudWithEdges
350
2E
  3
Linepattern
350
38
  3
Realistic
350
33
  3
Thicken
350
37
  0
DICTIONARY
  5
1E5
102
{ACAD_REACTORS
330
C
102
}
330
C
100
AcDbDictionary
281
     1
  3
DIMASSOC
350
1E8
  3
HIDETEXT
350
1E9
  0
LAYOUT
  5
1E
102
{ACAD_REACTORS
330
1A
102
}
330
1A
100
AcDbPlotSettings
  1

  2
none_device
  4

  6

 40
0.0
 41
0.0
 42
0.0
 43
0.0
 44
0.0
 45
0.0
 46
0.0
 47
0.0
 48
0.0
 49
0.0
140
0.0
141
0.0
142
1.0
143
1.0
 70
   688
 72
     0
 73
     0
 74
     5
  7

 75
    16
147
1.0
148
0.0
149
0.0
100
AcDbLayout
  1
Layout1
 70
     1
 71
     1
 10
0.0
 20
0.0
 11
12.0
 21
9.0
 12
0.0
 22
0.0
 32
0.0
 14
1.00000000000000E+20
 24
1.00000000000000E+20
 34
1.00000000000000E+20
 15
-1.00000000000000E+20
 25
-1.00000000000000E+20
 35
-1.00000000000000E+20
146
0.0
 13
0.0
 23
0.0
 33
0.0
 16
1.0
 26
0.0
 36
0.0
 17
0.0
 27
1.0
 37
0.0
 76
     0
330
1B
  0
LAYOUT
  5
26
102
{ACAD_REACTORS
330
1A
102
}
330
1A
100
AcDbPlotSettings
  1

  2
none_device
  4

  6

 40
0.0
 41
0.0
 42
0.0
 43
0.0
 44
0.0
 45
0.0
 46
0.0
 47
0.0
 48
0.0
 49
0.0
140
0.0
141
0.0
142
1.0
143
1.0
 70
   688
 72
     0
 73
     0
 74
     5
  7

 75
    16
147
1.0
148
0.0
149
0.0
100
AcDbLayout
  1
Layout2
 70
     1
 71
     2
 10
0.0
 20
0.0
 11
0.0
 21
0.0
 12
0.0
 22
0.0
 32
0.0
 14
0.0
 24
0.0
 34
0.0
 15
0.0
 25
0.0
 35
0.0
146
0.0
 13
0.0
 23
0.0
 33
0.0
 16
1.0
 26
0.0
 36
0.0
 17
0.0
 27
1.0
 37
0.0
 76
     0
330
23
  0
LAYOUT
  5
22
102
{ACAD_REACTORS
330
1A
102
}
330
1A
100
AcDbPlotSettings
  1

  2
none_device
  4

  6

 40
0.0
 41
0.0
 42
0.0
 43
0.0
 44
0.0
 45
0.0
 46
0.0
 47
0.0
 48
0.0
 49
0.0
140
0.0
141
0.0
142
1.0
143
1.0
 70
  1712
 72
     0
 73
     0
 74
     0
  7

 75
     0
147
1.0
148
0.0
149
0.0
100
AcDbLayout
  1
Model
 70
     1
 71
     0
 10
0.0
 20
0.0
 11
12.0
 21
9.0
 12
0.0
 22
0.0
 32
0.0
 14
-173.593395230422
 24
443.936641824378
 34
0.0
 15
-30.3675220228784
 25
581.139285716161
 35
0.0
146
0.0
 13
0.0
 23
0.0
 33
0.0
 16
1.0
 26
0.0
 36
0.0
 17
0.0
 27
1.0
 37
0.0
 76
     0
330
1F
331
29
  0
MATERIAL
  5
3D
102
{ACAD_REACTORS
330
3B
102
}
102
{ACAD_XDICTIONARY
360
20C
102
}
330
3B
100
AcDbMaterial
  1
ByBlock
  0
MATERIAL
  5
3C
102
{ACAD_REACTORS
330
3B
102
}
102
{ACAD_XDICTIONARY
360
20A
102
}
330
3B
100
AcDbMaterial
  1
ByLayer
  0
MATERIAL
  5
3E
102
{ACAD_REACTORS
330
3B
102
}
102
{ACAD_XDICTIONARY
360
20E
102
}
330
3B
100
AcDbMaterial
  1
Global
  0
MLINESTYLE
  5
18
102
{ACAD_REACTORS
330
17
102
}
330
17
100
AcDbMlineStyle
  2
Standard
 70
     0
  3

 62
   256
 51
90.0
 52
90.0
 71
     2
 49
0.5
 62
   256
  6
BYLAYER
 49
-0.5
 62
   256
  6
BYLAYER
  0
ACDBPLACEHOLDER
  5
F
102
{ACAD_REACTORS
330
E
102
}
330
E
  0
VISUALSTYLE
  5
2F
102
{ACAD_REACTORS
330
2A
102
}
102
{ACAD_XDICTIONARY
360
1F2
102
}
330
2A
100
AcDbVisualStyle
  2
2dWireframe
 70
     4
 71
     0
 72
     2
 73
     0
 90
        0
 40
-0.6
 41
-30.0
 62
     5
 63
     7
 74
     1
 91
        4
 64
     7
 65
   257
 75
     1
175
     1
 42
1.0
 92
        0
 66
   257
 43
1.0
 76
     1
 77
     6
 78
     2
 67
     7
 79
     5
170
     0
171
     0
290
     0
174
     0
 93
        1
 44
0.0
173
     0
291
     0
 45
0.0
1001
ACAD
1000
AcDbSavedByObjectVersion
1070
     0
  0
VISUALSTYLE
  5
31
102
{ACAD_REACTORS
330
2A
102
}
102
{ACAD_XDICTIONARY
360
1F6
102
}
330
2A
100
AcDbVisualStyle
  2
3D Hidden
 70
     6
 71
     1
 72
     2
 73
     2
 90
        0
 40
-0.6
 41
-30.0
 62
     5
 63
     7
 74
     2
 91
        2
 64
     7
 65
   257
 75
     2
175
     1
 42
40.0
 92
        0
 66
   257
 43
1.0
 76
     1
 77
     6
 78
     2
 67
     7
 79
     3
170
     0
171
     0
290
     0
174
     0
 93
        1
 44
0.0
173
     0
291
     0
 45
0.0
1001
ACAD
1000
AcDbSavedByObjectVersion
1070
     0
  0
VISUALSTYLE
  5
30
102
{ACAD_REACTORS
330
2A
102
}
102
{ACAD_XDICTIONARY
360
1F4
102
}
330
2A
100
AcDbVisualStyle
  2
3dWireframe
 70
     5
 71
     0
 72
     2
 73
     0
 90
        0
 40
-0.6
 41
-30.0
 62
     5
 63
     7
 74
     1
 91
        4
 64
     7
 65
   257
 75
     1
175
     1
 42
1.0
 92
        0
 66
   257
 43
1.0
 76
     1
 77
     6
 78
     2
 67
     7
 79
     5
170
     0
171
     0
290
     0
174
     0
 93
        1
 44
0.0
173
     0
291
     0
 45
0.0
1001
ACAD
1000
AcDbSavedByObjectVersion
1070
     0
  0
VISUALSTYLE
  5
32
102
{ACAD_REACTORS
330
2A
102
}
102
{ACAD_XDICTIONARY
360
1F8
102
}
330
2A
100
AcDbVisualStyle
  2
Basic
 70
     7
 71
     1
 72
     0
 73
     1
 90
        0
 40
-0.6
 41
-30.0
 62
     5
 63
     7
 74
     0
 91
        4
 64
     7
 65
   257
 75
     1
175
     1
 42
1.0
 92
        8
 66
     7
 43
1.0
 76
     1
 77
     6
 78
     2
 67
     7
 79
     5
170
     0
171
     0
290
     0
174
     0
 93
        1
 44
0.0
173
     0
291
     1
 45
0.0
1001
ACAD
1000
AcDbSavedByObjectVersion
1070
     0
  0
VISUALSTYLE
  5
36
102
{ACAD_REACTORS
330
2A
102
}
102
{ACAD_XDICTIONARY
360
200
102
}
330
2A
100
AcDbVisualStyle
  2
Brighten
 70
    12
 71
     2
 72
     2
 73
     0
 90
        0
 40
-0.6
 41
-30.0
 62
     5
 63
     7
 74
     1
 91
        4
 64
     7
 65
   257
 75
     1
175
     1
 42
1.0
 92
        8
 66
     7
 43
1.0
 76
     1
 77
     6
 78
     2
 67
     7
 79
     5
170
     0
171
     0
290
     0
174
     0
 93
        1
 44
50.0
173
     0
291
     1
 45
0.0
1001
ACAD
1000
AcDbSavedByObjectVersion
1070
     0
  0
VISUALSTYLE
  5
3A
102
{ACAD_REACTORS
330
2A
102
}
102
{ACAD_XDICTIONARY
360
208
102
}
330
2A
100
AcDbVisualStyle
  2
ColorChange
 70
    16
 71
     2
 72
     2
 73
     3
 90
        0
 40
-0.6
 41
-30.0
 62
     5
 63
     8
 74
     1
 91
        4
 64
     7
 65
   257
 75
     1
175
     1
 42
1.0
 92
        8
 66
     8
 43
1.0
 76
     1
 77
     6
 78
     2
 67
     7
 79
     5
170
     0
171
     0
290
     0
174
     0
 93
        1
 44
0.0
173
     0
291
     1
 45
0.0
1001
ACAD
1000
AcDbSavedByObjectVersion
1070
     0
  0
VISUALSTYLE
  5
34
102
{ACAD_REACTORS
330
2A
102
}
102
{ACAD_XDICTIONARY
360
1FC
102
}
330
2A
100
AcDbVisualStyle
  2
Conceptual
 70
     9
 71
     3
 72
     2
 73
     0
 90
        0
 40
-0.6
 41
-30.0
 62
     5
 63
     7
 74
     2
 91
        2
 64
     7
 65
   257
 75
     1
175
     1
 42
40.0
 92
        8
 66
     7
 43
1.0
 76
     1
 77
     6
 78
     2
 67
     7
 79
     3
170
     0
171
     0
290
     0
174
     0
 93
        1
 44
0.0
173
     0
291
     0
 45
0.0
1001
ACAD
1000
AcDbSavedByObjectVersion
1070
     0
  0
VISUALSTYLE
  5
35
102
{ACAD_REACTORS
330
2A
102
}
102
{ACAD_XDICTIONARY
360
1FE
102
}
330
2A
100
AcDbVisualStyle
  2
Dim
 70
    11
 71
     2
 72
     2
 73
     0
 90
        0
 40
-0.6
 41
-30.0
 62
     5
 63
     7
 74
     1
 91
        4
 64
     7
 65
   257
 75
     1
175
     1
 42
1.0
 92
        8
 66
     7
 43
1.0
 76
     1
 77
     6
 78
     2
 67
     7
 79
     5
170
     0
171
     0
290
     0
174
     0
 93
        1
 44
-50.0
173
     0
291
     1
 45
0.0
1001
ACAD
1000
AcDbSavedByObjectVersion
1070
     0
  0
VISUALSTYLE
  5
39
102
{ACAD_REACTORS
330
2A
102
}
102
{ACAD_XDICTIONARY
360
206
102
}
330
2A
100
AcDbVisualStyle
  2
Facepattern
 70
    15
 71
     2
 72
     2
 73
     0
 90
        0
 40
-0.6
 41
-30.0
 62
     5
 63
     7
 74
     1
 91
        4
 64
     7
 65
   257
 75
     1
175
     1
 42
1.0
 92
        8
 66
     7
 43
1.0
 76
     1
 77
     6
 78
     2
 67
     7
 79
     5
170
     0
171
     0
290
     0
174
     0
 93
        1
 44
0.0
173
     0
291
     1
 45
0.0
1001
ACAD
1000
AcDbSavedByObjectVersion
1070
     0
  0
VISUALSTYLE
  5
2B
102
{ACAD_REACTORS
330
2A
102
}
102
{ACAD_XDICTIONARY
360
1EA
102
}
330
2A
100
AcDbVisualStyle
  2
Flat
 70
     0
 71
     2
 72
     1
 73
     1
 90
        2
 40
-0.6
 41
30.0
 62
     5
 63
     7
 74
     0
 91
        4
 64
     7
 65
   257
 75
     1
175
     1
 42
1.0
 92
        8
 66
     7
 43
1.0
 76
     1
 77
     6
 78
     2
 67
     7
 79
     5
170
     0
171
     0
290
     0
174
     0
 93
       13
 44
0.0
173
     0
291
     1
 45
0.0
1001
ACAD
1000
AcDbSavedByObjectVersion
1070
     0
  0
VISUALSTYLE
  5
2C
102
{ACAD_REACTORS
330
2A
102
}
102
{ACAD_XDICTIONARY
360
1EC
102
}
330
2A
100
AcDbVisualStyle
  2
FlatWithEdges
 70
     1
 71
     2
 72
     1
 73
     1
 90
        2
 40
-0.6
 41
30.0
 62
     5
 63
     7
 74
     1
 91
        4
 64
     7
 65
   257
 75
     1
175
     1
 42
1.0
 92
        0
 66
   257
 43
1.0
 76
     1
 77
     6
 78
     2
 67
     7
 79
     5
170
     0
171
     0
290
     0
174
     0
 93
       13
 44
0.0
173
     0
291
     1
 45
0.0
1001
ACAD
1000
AcDbSavedByObjectVersion
1070
     0
  0
VISUALSTYLE
  5
2D
102
{ACAD_REACTORS
330
2A
102
}
102
{ACAD_XDICTIONARY
360
1EE
102
}
330
2A
100
AcDbVisualStyle
  2
Gouraud
 70
     2
 71
     2
 72
     2
 73
     1
 90
        2
 40
-0.6
 41
30.0
 62
     5
 63
     7
 74
     0
 91
        4
 64
     7
 65
   257
 75
     1
175
     1
 42
1.0
 92
        0
 66
     7
 43
1.0
 76
     1
 77
     6
 78
     2
 67
     7
 79
     5
170
     0
171
     0
290
     0
174
     0
 93
       13
 44
0.0
173
     0
291
     1
 45
0.0
1001
ACAD
1000
AcDbSavedByObjectVersion
1070
     0
  0
VISUALSTYLE
  5
2E
102
{ACAD_REACTORS
330
2A
102
}
102
{ACAD_XDICTIONARY
360
1F0
102
}
330
2A
100
AcDbVisualStyle
  2
GouraudWithEdges
 70
     3
 71
     2
 72
     2
 73
     1
 90
        2
 40
-0.6
 41
30.0
 62
     5
 63
     7
 74
     1
 91
        4
 64
     7
 65
   257
 75
     1
175
     1
 42
1.0
 92
        0
 66
   257
 43
1.0
 76
     1
 77
     6
 78
     2
 67
     7
 79
     5
170
     0
171
     0
290
     0
174
     0
 93
       13
 44
0.0
173
     0
291
     1
 45
0.0
1001
ACAD
1000
AcDbSavedByObjectVersion
1070
     0
  0
VISUALSTYLE
  5
38
102
{ACAD_REACTORS
330
2A
102
}
102
{ACAD_XDICTIONARY
360
204
102
}
330
2A
100
AcDbVisualStyle
  2
Linepattern
 70
    14
 71
     2
 72
     2
 73
     0
 90
        0
 40
-0.6
 41
-30.0
 62
     5
 63
     7
 74
     1
 91
        4
 64
     7
 65
   257
 75
     7
175
     7
 42
1.0
 92
        8
 66
     7
 43
1.0
 76
     1
 77
     6
 78
     2
 67
     7
 79
     5
170
     0
171
     0
290
     0
174
     0
 93
        1
 44
0.0
173
     0
291
     1
 45
0.0
1001
ACAD
1000
AcDbSavedByObjectVersion
1070
     0
  0
VISUALSTYLE
  5
33
102
{ACAD_REACTORS
330
2A
102
}
102
{ACAD_XDICTIONARY
360
1FA
102
}
330
2A
100
AcDbVisualStyle
  2
Realistic
 70
     8
 71
     2
 72
     2
 73
     0
 90
        0
 40
-0.6
 41
-30.0
 62
     5
 63
     7
 74
     1
 91
        0
 64
     7
 65
   257
 75
     1
175
     1
 42
1.0
 92
        8
 66
     8
 43
1.0
 76
     1
 77
     6
 78
     2
 67
     7
 79
     5
170
     0
171
     0
290
     0
174
     0
 93
       13
 44
0.0
173
     0
291
     0
 45
0.0
1001
ACAD
1000
AcDbSavedByObjectVersion
1070
     0
  0
VISUALSTYLE
  5
37
102
{ACAD_REACTORS
330
2A
102
}
102
{ACAD_XDICTIONARY
360
202
102
}
330
2A
100
AcDbVisualStyle
  2
Thicken
 70
    13
 71
     2
 72
     2
 73
     0
 90
        0
 40
-0.6
 41
-30.0
 62
     5
 63
     7
 74
     1
 91
        4
 64
     7
 65
   257
 75
     1
175
     1
 42
1.0
 92
       12
 66
     7
 43
1.0
 76
     1
 77
     6
 78
     2
 67
     7
 79
     5
170
     0
171
     0
290
     0
174
     0
 93
        1
 44
0.0
173
     0
291
     1
 45
0.0
1001
ACAD
1000
AcDbSavedByObjectVersion
1070
     0
  0
DICTIONARYVAR
  5
1E8
102
{ACAD_REACTORS
330
1E5
102
}
330
1E5
100
DictionaryVariables
280
     0
  1
2
  0
DICTIONARYVAR
  5
1E9
102
{ACAD_REACTORS
330
1E5
102
}
330
1E5
100
DictionaryVariables
280
     0
  1
1
  0
DICTIONARY
  5
20C
330
3D
100
AcDbDictionary
280
     1
281
     1
  3
ACAD_XREC_ROUNDTRIP
360
20D
  0
DICTIONARY
  5
20A
330
3C
100
AcDbDictionary
280
     1
281
     1
  3
ACAD_XREC_ROUNDTRIP
360
20B
  0
DICTIONARY
  5
20E
330
3E
100
AcDbDictionary
280
     1
281
     1
  3
ACAD_XREC_ROUNDTRIP
360
20F
  0
DICTIONARY
  5
1F2
330
2F
100
AcDbDictionary
280
     1
281
     1
  3
ACAD_XREC_ROUNDTRIP
360
1F3
  0
DICTIONARY
  5
1F6
330
31
100
AcDbDictionary
280
     1
281
     1
  3
ACAD_XREC_ROUNDTRIP
360
1F7
  0
DICTIONARY
  5
1F4
330
30
100
AcDbDictionary
280
     1
281
     1
  3
ACAD_XREC_ROUNDTRIP
360
1F5
  0
DICTIONARY
  5
1F8
330
32
100
AcDbDictionary
280
     1
281
     1
  3
ACAD_XREC_ROUNDTRIP
360
1F9
  0
DICTIONARY
  5
200
330
36
100
AcDbDictionary
280
     1
281
     1
  3
ACAD_XREC_ROUNDTRIP
360
201
  0
DICTIONARY
  5
208
330
3A
100
AcDbDictionary
280
     1
281
     1
  3
ACAD_XREC_ROUNDTRIP
360
209
  0
DICTIONARY
  5
1FC
330
34
100
AcDbDictionary
280
     1
281
     1
  3
ACAD_XREC_ROUNDTRIP
360
1FD
  0
DICTIONARY
  5
1FE
330
35
100
AcDbDictionary
280
     1
281
     1
  3
ACAD_XREC_ROUNDTRIP
360
1FF
  0
DICTIONARY
  5
206
330
39
100
AcDbDictionary
280
     1
281
     1
  3
ACAD_XREC_ROUNDTRIP
360
207
  0
DICTIONARY
  5
1EA
330
2B
100
AcDbDictionary
280
     1
281
     1
  3
ACAD_XREC_ROUNDTRIP
360
1EB
  0
DICTIONARY
  5
1EC
330
2C
100
AcDbDictionary
280
     1
281
     1
  3
ACAD_XREC_ROUNDTRIP
360
1ED
  0
DICTIONARY
  5
1EE
330
2D
100
AcDbDictionary
280
     1
281
     1
  3
ACAD_XREC_ROUNDTRIP
360
1EF
  0
DICTIONARY
  5
1F0
330
2E
100
AcDbDictionary
280
     1
281
     1
  3
ACAD_XREC_ROUNDTRIP
360
1F1
  0
DICTIONARY
  5
204
330
38
100
AcDbDictionary
280
     1
281
     1
  3
ACAD_XREC_ROUNDTRIP
360
205
  0
DICTIONARY
  5
1FA
330
33
100
AcDbDictionary
280
     1
281
     1
  3
ACAD_XREC_ROUNDTRIP
360
1FB
  0
DICTIONARY
  5
202
330
37
100
AcDbDictionary
280
     1
281
     1
  3
ACAD_XREC_ROUNDTRIP
360
203
  0
XRECORD
  5
20D
102
{ACAD_REACTORS
330
20C
102
}
330
20C
100
AcDbXrecord
280
     1
102
MATERIAL
148
0.0
149
0.0
149
0.0
 93
        0
 94
      127
282
     0
 72
     1
 77
     1
171
     1
175
     1
179
     1
273
     0
  0
XRECORD
  5
20B
102
{ACAD_REACTORS
330
20A
102
}
330
20A
100
AcDbXrecord
280
     1
102
MATERIAL
148
0.0
149
0.0
149
0.0
 93
        0
 94
      127
282
     0
 72
     1
 77
     1
171
     1
175
     1
179
     1
273
     0
  0
XRECORD
  5
20F
102
{ACAD_REACTORS
330
20E
102
}
330
20E
100
AcDbXrecord
280
     1
102
MATERIAL
148
0.0
149
0.0
149
0.0
 93
        0
 94
      127
282
     0
 72
     1
 77
     1
171
     1
175
     1
179
     1
273
     0
  0
XRECORD
  5
1F3
102
{ACAD_REACTORS
330
1F2
102
}
330
1F2
100
AcDbXrecord
280
     1
102
RTVSPropertyOp0
 70
     1
102
RTVSPropertyOp1
 70
     1
102
RTVSPropertyOp2
 70
     1
102
RTVSPropertyOp3
 70
     1
102
RTVSPropertyOp4
 70
     1
102
RTVSPropertyOp5
 70
     1
102
RTVSPropertyOp6
 70
     1
102
RTVSPropertyOp7
 70
     1
102
RTVSPropertyOp8
 70
     1
102
RTVSPropertyOp9
 70
     1
102
RTVSPropertyOp10
 70
     1
102
RTVSPropertyOp11
 70
     1
102
RTVSPropertyOp12
 70
     1
102
RTVSPropertyOp13
 70
     1
102
RTVSPropertyOp14
 70
     1
102
RTVSPropertyOp15
 70
     1
102
RTVSPropertyOp16
 70
     1
102
RTVSPropertyOp17
 70
     1
102
RTVSPropertyOp18
 70
     1
102
RTVSPropertyOp19
 70
     1
102
RTVSPropertyOp20
 70
     1
102
RTVSPropertyOp21
 70
     1
102
RTVSPropertyOp22
 70
     1
102
RTVSPropertyOp23
 70
     1
102
RTVSPropertyOp24
 70
     1
102
RTVSPropertyOp25
 70
     1
102
RTVSPropertyOp26
 70
     1
102
RTVSPropertyOp27
 70
     1
102
RTVSPropertyOp28
 70
     1
102
RTVSPropertyOp29
 70
     1
102
RTVSPropertyOp30
 70
     1
102
RTVSPropertyOp31
 70
     1
102
RTVSPropertyOp32
 70
     1
  0
XRECORD
  5
1F7
102
{ACAD_REACTORS
330
1F6
102
}
330
1F6
100
AcDbXrecord
280
     1
102
RTVSPropertyOp0
 70
     1
102
RTVSPropertyOp1
 70
     1
102
RTVSPropertyOp2
 70
     1
102
RTVSPropertyOp3
 70
     1
102
RTVSPropertyOp4
 70
     1
102
RTVSPropertyOp5
 70
     1
102
RTVSPropertyOp6
 70
     1
102
RTVSPropertyOp7
 70
     1
102
RTVSPropertyOp8
 70
     1
102
RTVSPropertyOp9
 70
     1
102
RTVSPropertyOp10
 70
     1
102
RTVSPropertyOp11
 70
     1
102
RTVSPropertyOp12
 70
     1
102
RTVSPropertyOp13
 70
     1
102
RTVSPropertyOp14
 70
     1
102
RTVSPropertyOp15
 70
     1
102
RTVSPropertyOp16
 70
     1
102
RTVSPropertyOp17
 70
     1
102
RTVSPropertyOp18
 70
     1
102
RTVSPropertyOp19
 70
     1
102
RTVSPropertyOp20
 70
     1
102
RTVSPropertyOp21
 70
     1
102
RTVSPropertyOp22
 70
     1
102
RTVSPropertyOp23
 70
     1
102
RTVSPropertyOp24
 70
     1
102
RTVSPropertyOp25
 70
     1
102
RTVSPropertyOp26
 70
     1
102
RTVSPropertyOp27
 70
     1
102
RTVSPropertyOp28
 70
     1
102
RTVSPropertyOp29
 70
     1
102
RTVSPropertyOp30
 70
     1
102
RTVSPropertyOp31
 70
     1
102
RTVSPropertyOp32
 70
     1
  0
XRECORD
  5
1F5
102
{ACAD_REACTORS
330
1F4
102
}
330
1F4
100
AcDbXrecord
280
     1
102
RTVSPropertyOp0
 70
     1
102
RTVSPropertyOp1
 70
     1
102
RTVSPropertyOp2
 70
     1
102
RTVSPropertyOp3
 70
     1
102
RTVSPropertyOp4
 70
     1
102
RTVSPropertyOp5
 70
     1
102
RTVSPropertyOp6
 70
     1
102
RTVSPropertyOp7
 70
     1
102
RTVSPropertyOp8
 70
     1
102
RTVSPropertyOp9
 70
     1
102
RTVSPropertyOp10
 70
     1
102
RTVSPropertyOp11
 70
     1
102
RTVSPropertyOp12
 70
     1
102
RTVSPropertyOp13
 70
     1
102
RTVSPropertyOp14
 70
     1
102
RTVSPropertyOp15
 70
     1
102
RTVSPropertyOp16
 70
     1
102
RTVSPropertyOp17
 70
     1
102
RTVSPropertyOp18
 70
     1
102
RTVSPropertyOp19
 70
     1
102
RTVSPropertyOp20
 70
     1
102
RTVSPropertyOp21
 70
     1
102
RTVSPropertyOp22
 70
     1
102
RTVSPropertyOp23
 70
     1
102
RTVSPropertyOp24
 70
     1
102
RTVSPropertyOp25
 70
     1
102
RTVSPropertyOp26
 70
     1
102
RTVSPropertyOp27
 70
     1
102
RTVSPropertyOp28
 70
     1
102
RTVSPropertyOp29
 70
     1
102
RTVSPropertyOp30
 70
     1
102
RTVSPropertyOp31
 70
     1
102
RTVSPropertyOp32
 70
     1
  0
XRECORD
  5
1F9
102
{ACAD_REACTORS
330
1F8
102
}
330
1F8
100
AcDbXrecord
280
     1
102
RTVSPropertyOp0
 70
     1
102
RTVSPropertyOp1
 70
     1
102
RTVSPropertyOp2
 70
     1
102
RTVSPropertyOp3
 70
     1
102
RTVSPropertyOp4
 70
     1
102
RTVSPropertyOp5
 70
     1
102
RTVSPropertyOp6
 70
     1
102
RTVSPropertyOp7
 70
     1
102
RTVSPropertyOp8
 70
     1
102
RTVSPropertyOp9
 70
     1
102
RTVSPropertyOp10
 70
     1
102
RTVSPropertyOp11
 70
     1
102
RTVSPropertyOp12
 70
     1
102
RTVSPropertyOp13
 70
     1
102
RTVSPropertyOp14
 70
     1
102
RTVSPropertyOp15
 70
     1
102
RTVSPropertyOp16
 70
     1
102
RTVSPropertyOp17
 70
     1
102
RTVSPropertyOp18
 70
     1
102
RTVSPropertyOp19
 70
     1
102
RTVSPropertyOp20
 70
     1
102
RTVSPropertyOp21
 70
     1
102
RTVSPropertyOp22
 70
     1
102
RTVSPropertyOp23
 70
     1
102
RTVSPropertyOp24
 70
     1
102
RTVSPropertyOp25
 70
     1
102
RTVSPropertyOp26
 70
     1
102
RTVSPropertyOp27
 70
     1
102
RTVSPropertyOp28
 70
     1
102
RTVSPropertyOp29
 70
     1
102
RTVSPropertyOp30
 70
     1
102
RTVSPropertyOp31
 70
     1
102
RTVSPropertyOp32
 70
     1
  0
XRECORD
  5
201
102
{ACAD_REACTORS
330
200
102
}
330
200
100
AcDbXrecord
280
     1
102
RTVSPropertyOp0
 70
     1
102
RTVSPropertyOp1
 70
     1
102
RTVSPropertyOp2
 70
     1
102
RTVSPropertyOp3
 70
     1
102
RTVSPropertyOp4
 70
     1
102
RTVSPropertyOp5
 70
     1
102
RTVSPropertyOp6
 70
     1
102
RTVSPropertyOp7
 70
     1
102
RTVSPropertyOp8
 70
     1
102
RTVSPropertyOp9
 70
     1
102
RTVSPropertyOp10
 70
     1
102
RTVSPropertyOp11
 70
     1
102
RTVSPropertyOp12
 70
     1
102
RTVSPropertyOp13
 70
     1
102
RTVSPropertyOp14
 70
     1
102
RTVSPropertyOp15
 70
     1
102
RTVSPropertyOp16
 70
     1
102
RTVSPropertyOp17
 70
     1
102
RTVSPropertyOp18
 70
     1
102
RTVSPropertyOp19
 70
     1
102
RTVSPropertyOp20
 70
     1
102
RTVSPropertyOp21
 70
     1
102
RTVSPropertyOp22
 70
     1
102
RTVSPropertyOp23
 70
     1
102
RTVSPropertyOp24
 70
     1
102
RTVSPropertyOp25
 70
     1
102
RTVSPropertyOp26
 70
     1
102
RTVSPropertyOp27
 70
     1
102
RTVSPropertyOp28
 70
     1
102
RTVSPropertyOp29
 70
     1
102
RTVSPropertyOp30
 70
     1
102
RTVSPropertyOp31
 70
     1
102
RTVSPropertyOp32
 70
     1
  0
XRECORD
  5
209
102
{ACAD_REACTORS
330
208
102
}
330
208
100
AcDbXrecord
280
     1
102
RTVSPropertyOp0
 70
     1
102
RTVSPropertyOp1
 70
     1
102
RTVSPropertyOp2
 70
     1
102
RTVSPropertyOp3
 70
     1
102
RTVSPropertyOp4
 70
     1
102
RTVSPropertyOp5
 70
     1
102
RTVSPropertyOp6
 70
     1
102
RTVSPropertyOp7
 70
     1
102
RTVSPropertyOp8
 70
     1
102
RTVSPropertyOp9
 70
     1
102
RTVSPropertyOp10
 70
     1
102
RTVSPropertyOp11
 70
     1
102
RTVSPropertyOp12
 70
     1
102
RTVSPropertyOp13
 70
     1
102
RTVSPropertyOp14
 70
     1
102
RTVSPropertyOp15
 70
     1
102
RTVSPropertyOp16
 70
     1
102
RTVSPropertyOp17
 70
     1
102
RTVSPropertyOp18
 70
     1
102
RTVSPropertyOp19
 70
     1
102
RTVSPropertyOp20
 70
     1
102
RTVSPropertyOp21
 70
     1
102
RTVSPropertyOp22
 70
     1
102
RTVSPropertyOp23
 70
     1
102
RTVSPropertyOp24
 70
     1
102
RTVSPropertyOp25
 70
     1
102
RTVSPropertyOp26
 70
     1
102
RTVSPropertyOp27
 70
     1
102
RTVSPropertyOp28
 70
     1
102
RTVSPropertyOp29
 70
     1
102
RTVSPropertyOp30
 70
     1
102
RTVSPropertyOp31
 70
     1
102
RTVSPropertyOp32
 70
     1
  0
XRECORD
  5
1FD
102
{ACAD_REACTORS
330
1FC
102
}
330
1FC
100
AcDbXrecord
280
     1
102
RTVSPropertyOp0
 70
     1
102
RTVSPropertyOp1
 70
     1
102
RTVSPropertyOp2
 70
     1
102
RTVSPropertyOp3
 70
     1
102
RTVSPropertyOp4
 70
     1
102
RTVSPropertyOp5
 70
     1
102
RTVSPropertyOp6
 70
     1
102
RTVSPropertyOp7
 70
     1
102
RTVSPropertyOp8
 70
     1
102
RTVSPropertyOp9
 70
     1
102
RTVSPropertyOp10
 70
     1
102
RTVSPropertyOp11
 70
     1
102
RTVSPropertyOp12
 70
     1
102
RTVSPropertyOp13
 70
     1
102
RTVSPropertyOp14
 70
     1
102
RTVSPropertyOp15
 70
     1
102
RTVSPropertyOp16
 70
     1
102
RTVSPropertyOp17
 70
     1
102
RTVSPropertyOp18
 70
     1
102
RTVSPropertyOp19
 70
     1
102
RTVSPropertyOp20
 70
     1
102
RTVSPropertyOp21
 70
     1
102
RTVSPropertyOp22
 70
     1
102
RTVSPropertyOp23
 70
     1
102
RTVSPropertyOp24
 70
     1
102
RTVSPropertyOp25
 70
     1
102
RTVSPropertyOp26
 70
     1
102
RTVSPropertyOp27
 70
     1
102
RTVSPropertyOp28
 70
     1
102
RTVSPropertyOp29
 70
     1
102
RTVSPropertyOp30
 70
     1
102
RTVSPropertyOp31
 70
     1
102
RTVSPropertyOp32
 70
     1
  0
XRECORD
  5
1FF
102
{ACAD_REACTORS
330
1FE
102
}
330
1FE
100
AcDbXrecord
280
     1
102
RTVSPropertyOp0
 70
     1
102
RTVSPropertyOp1
 70
     1
102
RTVSPropertyOp2
 70
     1
102
RTVSPropertyOp3
 70
     1
102
RTVSPropertyOp4
 70
     1
102
RTVSPropertyOp5
 70
     1
102
RTVSPropertyOp6
 70
     1
102
RTVSPropertyOp7
 70
     1
102
RTVSPropertyOp8
 70
     1
102
RTVSPropertyOp9
 70
     1
102
RTVSPropertyOp10
 70
     1
102
RTVSPropertyOp11
 70
     1
102
RTVSPropertyOp12
 70
     1
102
RTVSPropertyOp13
 70
     1
102
RTVSPropertyOp14
 70
     1
102
RTVSPropertyOp15
 70
     1
102
RTVSPropertyOp16
 70
     1
102
RTVSPropertyOp17
 70
     1
102
RTVSPropertyOp18
 70
     1
102
RTVSPropertyOp19
 70
     1
102
RTVSPropertyOp20
 70
     1
102
RTVSPropertyOp21
 70
     1
102
RTVSPropertyOp22
 70
     1
102
RTVSPropertyOp23
 70
     1
102
RTVSPropertyOp24
 70
     1
102
RTVSPropertyOp25
 70
     1
102
RTVSPropertyOp26
 70
     1
102
RTVSPropertyOp27
 70
     1
102
RTVSPropertyOp28
 70
     1
102
RTVSPropertyOp29
 70
     1
102
RTVSPropertyOp30
 70
     1
102
RTVSPropertyOp31
 70
     1
102
RTVSPropertyOp32
 70
     1
  0
XRECORD
  5
207
102
{ACAD_REACTORS
330
206
102
}
330
206
100
AcDbXrecord
280
     1
102
RTVSPropertyOp0
 70
     1
102
RTVSPropertyOp1
 70
     1
102
RTVSPropertyOp2
 70
     1
102
RTVSPropertyOp3
 70
     1
102
RTVSPropertyOp4
 70
     1
102
RTVSPropertyOp5
 70
     1
102
RTVSPropertyOp6
 70
     1
102
RTVSPropertyOp7
 70
     1
102
RTVSPropertyOp8
 70
     1
102
RTVSPropertyOp9
 70
     1
102
RTVSPropertyOp10
 70
     1
102
RTVSPropertyOp11
 70
     1
102
RTVSPropertyOp12
 70
     1
102
RTVSPropertyOp13
 70
     1
102
RTVSPropertyOp14
 70
     1
102
RTVSPropertyOp15
 70
     1
102
RTVSPropertyOp16
 70
     1
102
RTVSPropertyOp17
 70
     1
102
RTVSPropertyOp18
 70
     1
102
RTVSPropertyOp19
 70
     1
102
RTVSPropertyOp20
 70
     1
102
RTVSPropertyOp21
 70
     1
102
RTVSPropertyOp22
 70
     1
102
RTVSPropertyOp23
 70
     1
102
RTVSPropertyOp24
 70
     1
102
RTVSPropertyOp25
 70
     1
102
RTVSPropertyOp26
 70
     1
102
RTVSPropertyOp27
 70
     1
102
RTVSPropertyOp28
 70
     1
102
RTVSPropertyOp29
 70
     1
102
RTVSPropertyOp30
 70
     1
102
RTVSPropertyOp31
 70
     1
102
RTVSPropertyOp32
 70
     1
  0
XRECORD
  5
1EB
102
{ACAD_REACTORS
330
1EA
102
}
330
1EA
100
AcDbXrecord
280
     1
102
RTVSPropertyOp0
 70
     1
102
RTVSPropertyOp1
 70
     1
102
RTVSPropertyOp2
 70
     1
102
RTVSPropertyOp3
 70
     1
102
RTVSPropertyOp4
 70
     1
102
RTVSPropertyOp5
 70
     1
102
RTVSPropertyOp6
 70
     1
102
RTVSPropertyOp7
 70
     1
102
RTVSPropertyOp8
 70
     1
102
RTVSPropertyOp9
 70
     1
102
RTVSPropertyOp10
 70
     1
102
RTVSPropertyOp11
 70
     1
102
RTVSPropertyOp12
 70
     1
102
RTVSPropertyOp13
 70
     1
102
RTVSPropertyOp14
 70
     1
102
RTVSPropertyOp15
 70
     1
102
RTVSPropertyOp16
 70
     1
102
RTVSPropertyOp17
 70
     1
102
RTVSPropertyOp18
 70
     1
102
RTVSPropertyOp19
 70
     1
102
RTVSPropertyOp20
 70
     1
102
RTVSPropertyOp21
 70
     1
102
RTVSPropertyOp22
 70
     1
102
RTVSPropertyOp23
 70
     1
102
RTVSPropertyOp24
 70
     1
102
RTVSPropertyOp25
 70
     1
102
RTVSPropertyOp26
 70
     1
102
RTVSPropertyOp27
 70
     1
102
RTVSPropertyOp28
 70
     1
102
RTVSPropertyOp29
 70
     1
102
RTVSPropertyOp30
 70
     1
102
RTVSPropertyOp31
 70
     1
102
RTVSPropertyOp32
 70
     1
  0
XRECORD
  5
1ED
102
{ACAD_REACTORS
330
1EC
102
}
330
1EC
100
AcDbXrecord
280
     1
102
RTVSPropertyOp0
 70
     1
102
RTVSPropertyOp1
 70
     1
102
RTVSPropertyOp2
 70
     1
102
RTVSPropertyOp3
 70
     1
102
RTVSPropertyOp4
 70
     1
102
RTVSPropertyOp5
 70
     1
102
RTVSPropertyOp6
 70
     1
102
RTVSPropertyOp7
 70
     1
102
RTVSPropertyOp8
 70
     1
102
RTVSPropertyOp9
 70
     1
102
RTVSPropertyOp10
 70
     1
102
RTVSPropertyOp11
 70
     1
102
RTVSPropertyOp12
 70
     1
102
RTVSPropertyOp13
 70
     1
102
RTVSPropertyOp14
 70
     1
102
RTVSPropertyOp15
 70
     1
102
RTVSPropertyOp16
 70
     1
102
RTVSPropertyOp17
 70
     1
102
RTVSPropertyOp18
 70
     1
102
RTVSPropertyOp19
 70
     1
102
RTVSPropertyOp20
 70
     1
102
RTVSPropertyOp21
 70
     1
102
RTVSPropertyOp22
 70
     1
102
RTVSPropertyOp23
 70
     1
102
RTVSPropertyOp24
 70
     1
102
RTVSPropertyOp25
 70
     1
102
RTVSPropertyOp26
 70
     1
102
RTVSPropertyOp27
 70
     1
102
RTVSPropertyOp28
 70
     1
102
RTVSPropertyOp29
 70
     1
102
RTVSPropertyOp30
 70
     1
102
RTVSPropertyOp31
 70
     1
102
RTVSPropertyOp32
 70
     1
  0
XRECORD
  5
1EF
102
{ACAD_REACTORS
330
1EE
102
}
330
1EE
100
AcDbXrecord
280
     1
102
RTVSPropertyOp0
 70
     1
102
RTVSPropertyOp1
 70
     1
102
RTVSPropertyOp2
 70
     1
102
RTVSPropertyOp3
 70
     1
102
RTVSPropertyOp4
 70
     1
102
RTVSPropertyOp5
 70
     1
102
RTVSPropertyOp6
 70
     1
102
RTVSPropertyOp7
 70
     1
102
RTVSPropertyOp8
 70
     1
102
RTVSPropertyOp9
 70
     1
102
RTVSPropertyOp10
 70
     1
102
RTVSPropertyOp11
 70
     1
102
RTVSPropertyOp12
 70
     1
102
RTVSPropertyOp13
 70
     1
102
RTVSPropertyOp14
 70
     1
102
RTVSPropertyOp15
 70
     1
102
RTVSPropertyOp16
 70
     1
102
RTVSPropertyOp17
 70
     1
102
RTVSPropertyOp18
 70
     1
102
RTVSPropertyOp19
 70
     1
102
RTVSPropertyOp20
 70
     1
102
RTVSPropertyOp21
 70
     1
102
RTVSPropertyOp22
 70
     1
102
RTVSPropertyOp23
 70
     1
102
RTVSPropertyOp24
 70
     1
102
RTVSPropertyOp25
 70
     1
102
RTVSPropertyOp26
 70
     1
102
RTVSPropertyOp27
 70
     1
102
RTVSPropertyOp28
 70
     1
102
RTVSPropertyOp29
 70
     1
102
RTVSPropertyOp30
 70
     1
102
RTVSPropertyOp31
 70
     1
102
RTVSPropertyOp32
 70
     1
  0
XRECORD
  5
1F1
102
{ACAD_REACTORS
330
1F0
102
}
330
1F0
100
AcDbXrecord
280
     1
102
RTVSPropertyOp0
 70
     1
102
RTVSPropertyOp1
 70
     1
102
RTVSPropertyOp2
 70
     1
102
RTVSPropertyOp3
 70
     1
102
RTVSPropertyOp4
 70
     1
102
RTVSPropertyOp5
 70
     1
102
RTVSPropertyOp6
 70
     1
102
RTVSPropertyOp7
 70
     1
102
RTVSPropertyOp8
 70
     1
102
RTVSPropertyOp9
 70
     1
102
RTVSPropertyOp10
 70
     1
102
RTVSPropertyOp11
 70
     1
102
RTVSPropertyOp12
 70
     1
102
RTVSPropertyOp13
 70
     1
102
RTVSPropertyOp14
 70
     1
102
RTVSPropertyOp15
 70
     1
102
RTVSPropertyOp16
 70
     1
102
RTVSPropertyOp17
 70
     1
102
RTVSPropertyOp18
 70
     1
102
RTVSPropertyOp19
 70
     1
102
RTVSPropertyOp20
 70
     1
102
RTVSPropertyOp21
 70
     1
102
RTVSPropertyOp22
 70
     1
102
RTVSPropertyOp23
 70
     1
102
RTVSPropertyOp24
 70
     1
102
RTVSPropertyOp25
 70
     1
102
RTVSPropertyOp26
 70
     1
102
RTVSPropertyOp27
 70
     1
102
RTVSPropertyOp28
 70
     1
102
RTVSPropertyOp29
 70
     1
102
RTVSPropertyOp30
 70
     1
102
RTVSPropertyOp31
 70
     1
102
RTVSPropertyOp32
 70
     1
  0
XRECORD
  5
205
102
{ACAD_REACTORS
330
204
102
}
330
204
100
AcDbXrecord
280
     1
102
RTVSPropertyOp0
 70
     1
102
RTVSPropertyOp1
 70
     1
102
RTVSPropertyOp2
 70
     1
102
RTVSPropertyOp3
 70
     1
102
RTVSPropertyOp4
 70
     1
102
RTVSPropertyOp5
 70
     1
102
RTVSPropertyOp6
 70
     1
102
RTVSPropertyOp7
 70
     1
102
RTVSPropertyOp8
 70
     1
102
RTVSPropertyOp9
 70
     1
102
RTVSPropertyOp10
 70
     1
102
RTVSPropertyOp11
 70
     1
102
RTVSPropertyOp12
 70
     1
102
RTVSPropertyOp13
 70
     1
102
RTVSPropertyOp14
 70
     1
102
RTVSPropertyOp15
 70
     1
102
RTVSPropertyOp16
 70
     1
102
RTVSPropertyOp17
 70
     1
102
RTVSPropertyOp18
 70
     1
102
RTVSPropertyOp19
 70
     1
102
RTVSPropertyOp20
 70
     1
102
RTVSPropertyOp21
 70
     1
102
RTVSPropertyOp22
 70
     1
102
RTVSPropertyOp23
 70
     1
102
RTVSPropertyOp24
 70
     1
102
RTVSPropertyOp25
 70
     1
102
RTVSPropertyOp26
 70
     1
102
RTVSPropertyOp27
 70
     1
102
RTVSPropertyOp28
 70
     1
102
RTVSPropertyOp29
 70
     1
102
RTVSPropertyOp30
 70
     1
102
RTVSPropertyOp31
 70
     1
102
RTVSPropertyOp32
 70
     1
  0
XRECORD
  5
1FB
102
{ACAD_REACTORS
330
1FA
102
}
330
1FA
100
AcDbXrecord
280
     1
102
RTVSPropertyOp0
 70
     1
102
RTVSPropertyOp1
 70
     1
102
RTVSPropertyOp2
 70
     1
102
RTVSPropertyOp3
 70
     1
102
RTVSPropertyOp4
 70
     1
102
RTVSPropertyOp5
 70
     1
102
RTVSPropertyOp6
 70
     1
102
RTVSPropertyOp7
 70
     1
102
RTVSPropertyOp8
 70
     1
102
RTVSPropertyOp9
 70
     1
102
RTVSPropertyOp10
 70
     1
102
RTVSPropertyOp11
 70
     1
102
RTVSPropertyOp12
 70
     1
102
RTVSPropertyOp13
 70
     1
102
RTVSPropertyOp14
 70
     1
102
RTVSPropertyOp15
 70
     1
102
RTVSPropertyOp16
 70
     1
102
RTVSPropertyOp17
 70
     1
102
RTVSPropertyOp18
 70
     1
102
RTVSPropertyOp19
 70
     1
102
RTVSPropertyOp20
 70
     1
102
RTVSPropertyOp21
 70
     1
102
RTVSPropertyOp22
 70
     1
102
RTVSPropertyOp23
 70
     1
102
RTVSPropertyOp24
 70
     1
102
RTVSPropertyOp25
 70
     1
102
RTVSPropertyOp26
 70
     1
102
RTVSPropertyOp27
 70
     1
102
RTVSPropertyOp28
 70
     1
102
RTVSPropertyOp29
 70
     1
102
RTVSPropertyOp30
 70
     1
102
RTVSPropertyOp31
 70
     1
102
RTVSPropertyOp32
 70
     1
  0
XRECORD
  5
203
102
{ACAD_REACTORS
330
202
102
}
330
202
100
AcDbXrecord
280
     1
102
RTVSPropertyOp0
 70
     1
102
RTVSPropertyOp1
 70
     1
102
RTVSPropertyOp2
 70
     1
102
RTVSPropertyOp3
 70
     1
102
RTVSPropertyOp4
 70
     1
102
RTVSPropertyOp5
 70
     1
102
RTVSPropertyOp6
 70
     1
102
RTVSPropertyOp7
 70
     1
102
RTVSPropertyOp8
 70
     1
102
RTVSPropertyOp9
 70
     1
102
RTVSPropertyOp10
 70
     1
102
RTVSPropertyOp11
 70
     1
102
RTVSPropertyOp12
 70
     1
102
RTVSPropertyOp13
 70
     1
102
RTVSPropertyOp14
 70
     1
102
RTVSPropertyOp15
 70
     1
102
RTVSPropertyOp16
 70
     1
102
RTVSPropertyOp17
 70
     1
102
RTVSPropertyOp18
 70
     1
102
RTVSPropertyOp19
 70
     1
102
RTVSPropertyOp20
 70
     1
102
RTVSPropertyOp21
 70
     1
102
RTVSPropertyOp22
 70
     1
102
RTVSPropertyOp23
 70
     1
102
RTVSPropertyOp24
 70
     1
102
RTVSPropertyOp25
 70
     1
102
RTVSPropertyOp26
 70
     1
102
RTVSPropertyOp27
 70
     1
102
RTVSPropertyOp28
 70
     1
102
RTVSPropertyOp29
 70
     1
102
RTVSPropertyOp30
 70
     1
102
RTVSPropertyOp31
 70
     1
102
RTVSPropertyOp32
 70
     1
  0
ENDSEC
  0
EOF
