  0
SECTION
  2
HEADER
  9
$ACADVER
  1
AC1014
  9
$ACADMAINTVER
 70
             0
  9
$DWGCODEPAGE
  3
ANSI_1252
  9
$INSBASE
 10
0.0
 20
0.0
 30
0.0
  9
$EXTMIN
 10
-168.6918755293141
 20
-144.06927357416441
 30
0.0
  9
$EXTMAX
 10
183.106701921107
 20
42.6310084193997
 30
0.0
  9
$LIMMIN
 10
0.0
 20
0.0
  9
$LIMMAX
 10
0.0
 20
0.0
  9
$ORTHOMODE
 70
             0
  9
$REGENMODE
 70
             1
  9
$FILLMODE
 70
             1
  9
$QTEXTMODE
 70
             0
  9
$MIRRTEXT
 70
             1
  9
$DRAGMODE
 70
             2
  9
$LTSCALE
 40
1.0
  9
$OSMODE
 70
             0
  9
$ATTMODE
 70
             1
  9
$TEXTSIZE
 40
0.2
  9
$TRACEWID
 40
0.05
  9
$TEXTSTYLE
  7
STANDARD
  9
$CLAYER
  8
0
  9
$CELTYPE
  6
CONTINUOUS
  9
$CECOLOR
 62
           256
  9
$CELTSCALE
 40
1.0
  9
$DELOBJ
 70
             1
  9
$DISPSILH
 70
             0
  9
$DIMSCALE
 40
1.0
  9
$DIMASZ
 40
0.18
  9
$DIMEXO
 40
0.0625
  9
$DIMDLI
 40
0.38
  9
$DIMRND
 40
0.0
  9
$DIMDLE
 40
0.0
  9
$DIMEXE
 40
0.18
  9
$DIMTP
 40
0.0
  9
$DIMTM
 40
0.0
  9
$DIMTXT
 40
0.18
  9
$DIMCEN
 40
0.09
  9
$DIMTSZ
 40
0.0
  9
$DIMTOL
 70
             0
  9
$DIMLIM
 70
             0
  9
$DIMTIH
 70
             1
  9
$DIMTOH
 70
             1
  9
$DIMSE1
 70
             0
  9
$DIMSE2
 70
             0
  9
$DIMTAD
 70
             0
  9
$DIMZIN
 70
             0
  9
$DIMBLK
  1

  9
$DIMASO
 70
             1
  9
$DIMSHO
 70
             1
  9
$DIMPOST
  1

  9
$DIMAPOST
  1

  9
$DIMALT
 70
             0
  9
$DIMALTD
 70
             2
  9
$DIMALTF
 40
25.4
  9
$DIMLFAC
 40
1.0
  9
$DIMTOFL
 70
             0
  9
$DIMTVP
 40
0.0
  9
$DIMTIX
 70
             0
  9
$DIMSOXD
 70
             0
  9
$DIMSAH
 70
             0
  9
$DIMBLK1
  1

  9
$DIMBLK2
  1

  9
$DIMSTYLE
  2
STANDARD
  9
$DIMCLRD
 70
             0
  9
$DIMCLRE
 70
             0
  9
$DIMCLRT
 70
             0
  9
$DIMTFAC
 40
1.0
  9
$DIMGAP
 40
0.09
  9
$DIMJUST
 70
             0
  9
$DIMSD1
 70
             0
  9
$DIMSD2
 70
             0
  9
$DIMTOLJ
 70
             1
  9
$DIMTZIN
 70
             0
  9
$DIMALTZ
 70
             0
  9
$DIMALTTZ
 70
             0
  9
$DIMFIT
 70
             3
  9
$DIMUPT
 70
             0
  9
$DIMUNIT
 70
             2
  9
$DIMDEC
 70
             4
  9
$DIMTDEC
 70
             4
  9
$DIMALTU
 70
             2
  9
$DIMALTTD
 70
             2
  9
$DIMTXSTY
  7
STANDARD
  9
$DIMAUNIT
 70
             0
  9
$LUNITS
 70
             2
  9
$LUPREC
 70
             4
  9
$SKETCHINC
 40
0.1
  9
$FILLETRAD
 40
0.0
  9
$AUNITS
 70
             0
  9
$AUPREC
 70
             0
  9
$MENU
  1
acad
  9
$ELEVATION
 40
0.0
  9
$PELEVATION
 40
0.0
  9
$THICKNESS
 40
0.0
  9
$LIMCHECK
 70
             0
  9
$BLIPMODE
 70
             1
  9
$CHAMFERA
 40
0.0
  9
$CHAMFERB
 40
0.0
  9
$CHAMFERC
 40
0.0
  9
$CHAMFERD
 40
0.0
  9
$SKPOLY
 70
             0
  9
$TDCREATE
 40
0.000000000
  9
$TDUPDATE
 40
0.000000000
  9
$TDINDWG
 40
0.0000000000
  9
$TDUSRTIMER
 40
0.0000000000
  9
$USRTIMER
 70
             1
  9
$ANGBASE
 50
0.0
  9
$ANGDIR
 70
             0
  9
$PDMODE
 70
             0
  9
$PDSIZE
 40
0.0
  9
$PLINEWID
 40
0.0
  9
$COORDS
 70
             0
  9
$SPLFRAME
 70
             0
  9
$SPLINETYPE
 70
             6
  9
$SPLINESEGS
 70
             8
  9
$ATTDIA
 70
             0
  9
$ATTREQ
 70
             1
  9
$HANDLING
 70
             1
  9
$HANDSEED
  5
121
  9
$SURFTAB1
 70
             6
  9
$SURFTAB2
 70
             6
  9
$SURFTYPE
 70
             6
  9
$SURFU
 70
             6
  9
$SURFV
 70
             6
  9
$UCSNAME
  2

  9
$UCSORG
 10
0.0
 20
0.0
 30
0.0
  9
$UCSXDIR
 10
1.0
 20
0.0
 30
0.0
  9
$UCSYDIR
 10
0.0
 20
1.0
 30
0.0
  9
$PUCSNAME
  2

  9
$PUCSORG
 10
0.0
 20
0.0
 30
0.0
  9
$PUCSXDIR
 10
1.0
 20
0.0
 30
0.0
  9
$PUCSYDIR
 10
0.0
 20
1.0
 30
0.0
  9
$USERI1
 70
             0
  9
$USERI2
 70
             0
  9
$USERI3
 70
             0
  9
$USERI4
 70
             0
  9
$USERI5
 70
             0
  9
$USERR1
 40
12.01
  9
$USERR2
 40
0.0
  9
$USERR3
 40
0.0
  9
$USERR4
 40
0.0
  9
$USERR5
 40
0.0
  9
$WORLDVIEW
 70
             1
  9
$SHADEDGE
 70
             3
  9
$SHADEDIF
 70
            70
  9
$TILEMODE
 70
             1
  9
$MAXACTVP
 70
            16
  9
$PINSBASE
 10
0.0
 20
0.0
 30
0.0
  9
$PLIMCHECK
 70
             0
  9
$PEXTMIN
 10
1.00000000000000E+20
 20
1.00000000000000E+20
 30
1.00000000000000E+20
  9
$PEXTMAX
 10
-1.00000000000000E+20
 20
-1.00000000000000E+20
 30
-1.00000000000000E+20
  9
$PLIMMIN
 10
0.0
 20
0.0
  9
$PLIMMAX
 10
12.0
 20
9.0
  9
$UNITMODE
 70
             0
  9
$VISRETAIN
 70
             0
  9
$PLINEGEN
 70
             1
  9
$PSLTSCALE
 70
             0
  9
$TREEDEPTH
 70
          3020
  9
$PICKSTYLE
 70
             1
  9
$CMLSTYLE
  2
STANDARD
  9
$CMLJUST
 70
             0
  9
$CMLSCALE
 40
1.0
  9
$PROXYGRAPHICS
 70
             0
  9
$MEASUREMENT
 70
             1
  0
ENDSEC
  0
SECTION
  2
CLASSES
  0
CLASS
  1
LWPOLYLINE
  2
AcDbPolyline
  3
"AutoCAD"
 90
        0
280
             0
281
             1
  0
CLASS
  1
IMAGE
  2
AcDbRasterImage
  3
ISM
 90
      127
280
             0
281
             1
  0
CLASS
  1
OLE2FRAME
  2
AcDbOle2Frame
  3
""
 90
        0
280
             0
281
             1
  0
CLASS
  1
HATCH
  2
AcDbHatch
  3
"ACAD_SEDONA"
 90
        0
280
             0
281
             1
  0
CLASS
  1
DICTIONARYVAR
  2
AcDbDictionaryVar
  3
"AutoCAD"
 90
        0
280
             0
281
             0
  0
CLASS
  1
RASTERVARIABLES
  2
AcDbRasterVariables
  3
ISM
 90
        0
280
             0
281
             0
  0
CLASS
  1
IMAGEDEF
  2
AcDbRasterImageDef
  3
ISM
 90
        0
280
             0
281
             0
  0
CLASS
  1
IMAGEDEF_REACTOR
  2
AcDbRasterImageDefReactor
  3
ISM
 90
        1
280
             0
281
             0
  0
CLASS
  1
IDBUFFER
  2
AcDbIdBuffer
  3
"Acad"
 90
        0
280
             0
281
             0
  0
CLASS
  1
SPATIAL_FILTER
  2
AcDbSpatialFilter
  3
"Acad"
 90
        0
280
             0
281
             0
  0
CLASS
  1
XRECORD
  2
AcDbXrecord
  3
"<Built In>"
 90
        0
280
             0
281
             0
  0
CLASS
  1
SORTENTSTABLE
  2
AcDbSortentsTable
  3
"AutoCAD"
 90
        0
280
             0
281
             0
  0
CLASS
  1
LAYER_INDEX
  2
AcDbLayerIndex
  3
"Acad"
 90
        0
280
             0
281
             0
  0
CLASS
  1
SPATIAL_INDEX
  2
AcDbSpatialIndex
  3
"Acad"
 90
        0
280
             0
281
             0
  0
CLASS
  1
OBJECT_PTR
  2
CAseDLPNTableRecord
  3
"ASE-LPNTableRecord"
 90
        1
280
             0
281
             0
  0
CLASS
  1
LAYOUT
  2
AcDbLayout
  3
"AutoCAD 2000"
 90
        0
280
             0
281
             0
  0
CLASS
  1
PLOTSETTINGS
  2
AcDbPlotSettings
  3
"AutoCAD 2000"
 90
        0
280
             0
281
             0
  0
CLASS
  1
ACDBDICTIONARYWDFLT
  2
AcDbDictionaryWithDefault
  3
"AutoCAD 2000"
 90
        0
280
             0
281
             0
  0
CLASS
  1
ACDBPLACEHOLDER
  2
AcDbPlaceHolder
  3
"AutoCAD 2000"
 90
        0
280
             0
281
             0
  0
ENDSEC
  0
SECTION
  2
TABLES
  0
TABLE
  2
VPORT
  5
7
100
AcDbSymbolTable
 70
             1
  0
VPORT
  5
15
100
AcDbSymbolTableRecord
100
AcDbViewportTableRecord
  2
*ACTIVE
 70
             0
 10
0.0
 20
0.0
 11
1.0
 21
1.0
 12
7.20741319589645
 22
-50.71913257738235
 13
0.0
 23
0.0
 14
1.0
 24
1.0
 15
0.0
 25
0.0
 16
0.0
 26
0.0
 36
1.0
 17
0.0
 27
0.0
 37
0.0
 40
241.45729661221117
 41
1.60267857142857
 42
50.0
 43
0.0
 44
0.0
 50
0.0
 51
0.0
 71
             0
 72
           100
 73
             1
 74
             1
 75
             0
 76
             0
 77
             0
 78
             0
  0
ENDTAB
  0
TABLE
  2
LTYPE
  5
4
100
AcDbSymbolTable
 70
            10
  0
LTYPE
  5
11
100
AcDbSymbolTableRecord
100
AcDbLinetypeTableRecord
  2
BYBLOCK
 70
            64
  3

 72
            65
 73
             0
 40
0.0
  0
LTYPE
  5
12
100
AcDbSymbolTableRecord
100
AcDbLinetypeTableRecord
  2
BYLAYER
 70
            64
  3

 72
            65
 73
             0
 40
0.0
  0
LTYPE
  5
13
100
AcDbSymbolTableRecord
100
AcDbLinetypeTableRecord
  2
CONTINUOUS
 70
            64
  3
Solid line
 72
            65
 73
             0
 40
0.0
  0
LTYPE
  5
1D
100
AcDbSymbolTableRecord
100
AcDbLinetypeTableRecord
  2
DASHED
 70
            64
  3
Dashed
 72
            65
 73
             2
 40
15.0
 49
7.0
 74
             0
 49
-8.0
 74
             0
  0
LTYPE
  5
1E
100
AcDbSymbolTableRecord
100
AcDbLinetypeTableRecord
  2
DOTTED
 70
            64
  3
Dotted
 72
            65
 73
             2
 40
1.0
 49
0.0
 74
             0
 49
-1.0
 74
             0
  0
LTYPE
  5
1F
100
AcDbSymbolTableRecord
100
AcDbLinetypeTableRecord
  2
DOT_CENTER
 70
            64
  3
Dot_Center
 72
            65
 73
             4
 40
14.0
 49
12.0
 74
             0
 49
-1.0
 74
             0
 49
0.0
 74
             0
 49
-1.0
 74
             0
  0
LTYPE
  5
20
100
AcDbSymbolTableRecord
100
AcDbLinetypeTableRecord
  2
LONG_DASHED
 70
            64
  3
Long_Dashed
 72
            65
 73
             2
 40
15.0
 49
10.0
 74
             0
 49
-5.0
 74
             0
  0
LTYPE
  5
21
100
AcDbSymbolTableRecord
100
AcDbLinetypeTableRecord
  2
DASH_CENTER
 70
            64
  3
Dash_Center
 72
            65
 73
             4
 40
14.0
 49
11.0
 74
             0
 49
-1.0
 74
             0
 49
1.0
 74
             0
 49
-1.0
 74
             0
  0
LTYPE
  5
22
100
AcDbSymbolTableRecord
100
AcDbLinetypeTableRecord
  2
PHANTOM
 70
            64
  3
Phantom
 72
            65
 73
             6
 40
13.0
 49
10.0
 74
             0
 49
-1.0
 74
             0
 49
0.0
 74
             0
 49
-1.0
 74
             0
 49
0.0
 74
             0
 49
-1.0
 74
             0
  0
LTYPE
  5
23
100
AcDbSymbolTableRecord
100
AcDbLinetypeTableRecord
  2
CENTER_DASH_DASH
 70
            64
  3
Center_Dash_Dash
 72
            65
 73
             6
 40
14.0
 49
9.0
 74
             0
 49
-1.0
 74
             0
 49
1.0
 74
             0
 49
-1.0
 74
             0
 49
1.0
 74
             0
 49
-1.0
 74
             0
  0
ENDTAB
  0
TABLE
  2
LAYER
  5
2
100
AcDbSymbolTable
 70
             2
  0
LAYER
  5
14
100
AcDbSymbolTableRecord
100
AcDbLayerTableRecord
  2
0
 70
             0
 62
             7
  6
CONTINUOUS
  0
LAYER
  5
24
100
AcDbSymbolTableRecord
100
AcDbLayerTableRecord
  2
1
 70
             0
 62
             7
  6
CONTINUOUS
  0
ENDTAB
  0
TABLE
  2
STYLE
  5
3
100
AcDbSymbolTable
 70
             2
  0
STYLE
  5
17
100
AcDbSymbolTableRecord
100
AcDbTextStyleTableRecord
  2
STANDARD
 70
             0
 40
0.0
 41
1.0
 50
0.0
 71
             0
 42
0.0
  3
txt
  4

  0
STYLE
  5
C0
100
AcDbSymbolTableRecord
100
AcDbTextStyleTableRecord
  2
CONVERTER_1
 70
             0
 40
0.0
 41
0.9
 50
0.0
 71
             0
 42
0.0
  3
txt.shx
  4

  0
ENDTAB
  0
TABLE
  2
VIEW
  5
5
100
AcDbSymbolTable
 70
             0
  0
ENDTAB
  0
TABLE
  2
UCS
  5
6
100
AcDbSymbolTable
 70
             0
  0
ENDTAB
  0
TABLE
  2
APPID
  5
8
100
AcDbSymbolTable
 70
             1
  0
APPID
  5
16
100
AcDbSymbolTableRecord
100
AcDbRegAppTableRecord
  2
ACAD
 70
             0
  0
ENDTAB
  0
TABLE
  2
DIMSTYLE
  5
9
100
AcDbSymbolTable
 70
            10
  0
DIMSTYLE
105
18
100
AcDbSymbolTableRecord
100
AcDbDimStyleTableRecord
  2
STANDARD
 70
             0
  3

  4

  5

  6

  7

 40
1.0
 41
0.18
 42
0.0625
 43
0.38
 44
0.18
 45
0.0
 46
0.0
 47
0.0
 48
0.0
 71
             0
 72
             0
 73
             1
 74
             1
 75
             0
 76
             0
 77
             0
 78
             0
140
0.18
141
0.09
142
0.0
143
25.4
144
1.0
145
0.0
146
1.0
147
0.09
170
             0
171
             2
172
             0
173
             0
174
             0
175
             0
176
             0
177
             0
178
             0
270
             2
271
             4
272
             4
273
             2
274
             2
275
             0
280
             0
281
             0
282
             0
283
             1
284
             0
285
             0
286
             0
287
             3
288
             0
340
17
  0
DIMSTYLE
105
C3
100
AcDbSymbolTableRecord
100
AcDbDimStyleTableRecord
  2
ME10_DIM_0
 70
             0
  3
Ø<>
  4

  5

  6

  7

 40
1.0
 41
10.0
 42
0.0
 43
0.38
 44
2.0
 45
0.0
 46
0.0
 47
0.0
 48
0.0
 71
             0
 72
             0
 73
             0
 74
             0
 75
             0
 76
             0
 77
             1
 78
             8
140
10.0
141
0.09
142
0.0
143
25.4
144
1.0
145
0.0
146
1.0
147
0.625
170
             0
171
             2
172
             1
173
             1
174
             0
175
             0
176
             4
177
             4
178
             1
270
             2
271
             2
272
             4
273
             2
274
             2
275
             0
280
             0
281
             0
282
             0
283
             1
284
             0
285
             0
286
             0
287
             3
288
             0
340
C0
  0
DIMSTYLE
105
CF
100
AcDbSymbolTableRecord
100
AcDbDimStyleTableRecord
  2
ME10_DIM_1
 70
             0
  3
DN<>
  4

  5

  6

  7

 40
1.0
 41
10.0
 42
0.0
 43
0.38
 44
2.0
 45
0.0
 46
0.0
 47
0.0
 48
0.0
 71
             0
 72
             0
 73
             0
 74
             0
 75
             0
 76
             0
 77
             1
 78
             8
140
10.0
141
0.09
142
0.0
143
25.4
144
1.0
145
0.0
146
1.0
147
0.625
170
             0
171
             2
172
             1
173
             1
174
             0
175
             0
176
             4
177
             4
178
             1
270
             2
271
             2
272
             4
273
             2
274
             2
275
             0
280
             0
281
             0
282
             0
283
             1
284
             0
285
             0
286
             0
287
             3
288
             0
340
C0
  0
DIMSTYLE
105
DB
100
AcDbSymbolTableRecord
100
AcDbDimStyleTableRecord
  2
ME10_DIM_2
 70
             0
  3
DN<>
  4

  5

  6

  7

 40
1.0
 41
10.0
 42
0.0
 43
0.38
 44
2.0
 45
0.0
 46
0.0
 47
0.0
 48
0.0
 71
             0
 72
             0
 73
             0
 74
             0
 75
             0
 76
             0
 77
             1
 78
             8
140
10.0
141
0.09
142
0.0
143
25.4
144
1.0
145
0.0
146
1.0
147
0.625
170
             0
171
             2
172
             1
173
             1
174
             0
175
             0
176
             4
177
             4
178
             1
270
             2
271
             2
272
             4
273
             2
274
             2
275
             0
280
             0
281
             0
282
             0
283
             1
284
             0
285
             0
286
             0
287
             3
288
             0
340
C0
  0
DIMSTYLE
105
E7
100
AcDbSymbolTableRecord
100
AcDbDimStyleTableRecord
  2
ME10_DIM_3
 70
             0
  3
DN<>
  4

  5

  6

  7

 40
1.0
 41
10.0
 42
0.0
 43
0.38
 44
2.0
 45
0.0
 46
0.0
 47
0.0
 48
0.0
 71
             0
 72
             0
 73
             0
 74
             0
 75
             0
 76
             0
 77
             1
 78
             8
140
10.0
141
0.09
142
0.0
143
25.4
144
1.0
145
0.0
146
1.0
147
0.625
170
             0
171
             2
172
             1
173
             1
174
             0
175
             0
176
             4
177
             4
178
             1
270
             2
271
             2
272
             4
273
             2
274
             2
275
             0
280
             0
281
             0
282
             0
283
             1
284
             0
285
             0
286
             0
287
             3
288
             0
340
C0
  0
DIMSTYLE
105
F2
100
AcDbSymbolTableRecord
100
AcDbDimStyleTableRecord
  2
ME10_DIM_4
 70
             0
  3
Ø<>
  4

  5

  6

  7

 40
1.0
 41
10.0
 42
0.0
 43
0.38
 44
2.0
 45
0.0
 46
0.0
 47
0.0
 48
0.0
 71
             0
 72
             0
 73
             0
 74
             0
 75
             0
 76
             0
 77
             1
 78
             8
140
10.0
141
0.09
142
0.0
143
25.4
144
1.0
145
0.0
146
1.0
147
0.625
170
             0
171
             2
172
             1
173
             1
174
             0
175
             0
176
             4
177
             4
178
             1
270
             2
271
             2
272
             4
273
             2
274
             2
275
             0
280
             0
281
             0
282
             0
283
             1
284
             0
285
             0
286
             0
287
             3
288
             0
340
C0
  0
DIMSTYLE
105
FD
100
AcDbSymbolTableRecord
100
AcDbDimStyleTableRecord
  2
ME10_DIM_5
 70
             0
  3

  4

  5

  6

  7

 40
1.0
 41
10.0
 42
0.0
 43
0.38
 44
2.0
 45
0.0
 46
0.0
 47
0.0
 48
0.0
 71
             0
 72
             0
 73
             0
 74
             0
 75
             0
 76
             0
 77
             1
 78
             8
140
10.0
141
0.09
142
0.0
143
25.4
144
1.0
145
0.0
146
1.0
147
0.625
170
             0
171
             2
172
             1
173
             1
174
             0
175
             0
176
             4
177
             4
178
             1
270
             2
271
             2
272
             4
273
             2
274
             2
275
             0
280
             0
281
             0
282
             0
283
             1
284
             0
285
             0
286
             0
287
             3
288
             0
340
C0
  0
DIMSTYLE
105
108
100
AcDbSymbolTableRecord
100
AcDbDimStyleTableRecord
  2
ME10_DIM_6
 70
             0
  3

  4

  5

  6

  7

 40
1.0
 41
10.0
 42
0.0
 43
0.38
 44
2.0
 45
0.0
 46
0.0
 47
0.0
 48
0.0
 71
             0
 72
             0
 73
             0
 74
             0
 75
             0
 76
             0
 77
             1
 78
             8
140
10.0
141
0.09
142
0.0
143
25.4
144
1.0
145
0.0
146
1.0
147
0.625
170
             0
171
             2
172
             1
173
             1
174
             0
175
             0
176
             4
177
             4
178
             1
270
             2
271
             2
272
             4
273
             2
274
             2
275
             0
280
             0
281
             0
282
             0
283
             1
284
             0
285
             0
286
             0
287
             3
288
             0
340
C0
  0
DIMSTYLE
105
113
100
AcDbSymbolTableRecord
100
AcDbDimStyleTableRecord
  2
ME10_DIM_7
 70
             0
  3

  4

  5

  6

  7

 40
1.0
 41
10.0
 42
0.0
 43
0.38
 44
2.0
 45
0.0
 46
0.0
 47
0.0
 48
0.0
 71
             0
 72
             0
 73
             0
 74
             0
 75
             0
 76
             0
 77
             1
 78
             8
140
10.0
141
0.09
142
0.0
143
25.4
144
1.0
145
0.0
146
1.0
147
0.625
170
             0
171
             2
172
             1
173
             1
174
             0
175
             0
176
             4
177
             4
178
             1
270
             2
271
             2
272
             4
273
             2
274
             2
275
             0
280
             0
281
             0
282
             0
283
             1
284
             0
285
             0
286
             0
287
             3
288
             0
340
C0
  0
DIMSTYLE
105
11E
100
AcDbSymbolTableRecord
100
AcDbDimStyleTableRecord
  2
ME10_DIM_8
 70
             0
  3

  4

  5

  6

  7

 40
1.0
 41
10.0
 42
0.0
 43
0.38
 44
2.0
 45
0.0
 46
0.0
 47
0.0
 48
0.0
 71
             0
 72
             0
 73
             0
 74
             0
 75
             0
 76
             0
 77
             1
 78
             8
140
10.0
141
0.09
142
0.0
143
25.4
144
1.0
145
0.0
146
1.0
147
0.625
170
             0
171
             2
172
             1
173
             1
174
             0
175
             0
176
             4
177
             4
178
             1
270
             2
271
             2
272
             4
273
             2
274
             2
275
             0
280
             0
281
             0
282
             0
283
             1
284
             0
285
             0
286
             0
287
             3
288
             0
340
C0
  0
ENDTAB
  0
TABLE
  2
BLOCK_RECORD
  5
1
100
AcDbSymbolTable
 70
            10
  0
BLOCK_RECORD
  5
A
100
AcDbSymbolTableRecord
100
AcDbBlockTableRecord
  2
*MODEL_SPACE
  0
BLOCK_RECORD
  5
B
100
AcDbSymbolTableRecord
100
AcDbBlockTableRecord
  2
*PAPER_SPACE
  0
BLOCK_RECORD
  5
25
100
AcDbSymbolTableRecord
100
AcDbBlockTableRecord
  2
HL300K_BODENABLAUFK_RPLETT
  0
BLOCK_RECORD
  5
B9
100
AcDbSymbolTableRecord
100
AcDbBlockTableRecord
  2
*D1
  0
BLOCK_RECORD
  5
C5
100
AcDbSymbolTableRecord
100
AcDbBlockTableRecord
  2
*D2
  0
BLOCK_RECORD
  5
D1
100
AcDbSymbolTableRecord
100
AcDbBlockTableRecord
  2
*D3
  0
BLOCK_RECORD
  5
DD
100
AcDbSymbolTableRecord
100
AcDbBlockTableRecord
  2
*D4
  0
BLOCK_RECORD
  5
E9
100
AcDbSymbolTableRecord
100
AcDbBlockTableRecord
  2
*D5
  0
BLOCK_RECORD
  5
F4
100
AcDbSymbolTableRecord
100
AcDbBlockTableRecord
  2
*D6
  0
BLOCK_RECORD
  5
FF
100
AcDbSymbolTableRecord
100
AcDbBlockTableRecord
  2
*D7
  0
BLOCK_RECORD
  5
10A
100
AcDbSymbolTableRecord
100
AcDbBlockTableRecord
  2
*D8
  0
BLOCK_RECORD
  5
115
100
AcDbSymbolTableRecord
100
AcDbBlockTableRecord
  2
*D9
  0
ENDTAB
  0
ENDSEC
  0
SECTION
  2
BLOCKS
  0
BLOCK
  5
D
100
AcDbEntity
  8
0
100
AcDbBlockBegin
  2
*MODEL_SPACE
 70
             0
 10
0.0
 20
0.0
 30
0.0
  3
*MODEL_SPACE
  1

  0
ENDBLK
  5
E
100
AcDbEntity
  8
0
100
AcDbBlockEnd
  0
BLOCK
  5
F
100
AcDbEntity
 67
             1
  8
0
100
AcDbBlockBegin
  2
*PAPER_SPACE
 70
             0
 10
0.0
 20
0.0
 30
0.0
  3
*PAPER_SPACE
  1

  0
ENDBLK
  5
10
100
AcDbEntity
 67
             1
  8
0
100
AcDbBlockEnd
  0
BLOCK
  5
26
100
AcDbEntity
  8
0
100
AcDbBlockBegin
  2
HL300K_BODENABLAUFK_RPLETT
 70
             0
 10
-109.0000000000001
 20
-123.1412531137121
 30
0.0
  3
HL300K_BODENABLAUFK_RPLETT
  1

  0
SPLINE
  5
B6
100
AcDbEntity
  8
0
  6
CONTINUOUS
 62
             7
100
AcDbSpline
210
0.0
220
0.0
230
1.0
 70
             0
 71
             3
 72
            26
 73
            22
 74
            67
 42
0.00000000001
 43
0.00000000001
 44
0.00000000001
 40
72.309667922291581
 40
72.309667922291581
 40
72.309667922291581
 40
72.309667922291581
 40
72.318632739735378
 40
72.318632739735378
 40
72.318632739735378
 40
75.247415174858119
 40
75.247415174858119
 40
75.247415174858119
 40
81.961477748603627
 40
81.961477748603627
 40
81.961477748603627
 40
92.090426089167266
 40
92.090426089167266
 40
92.090426089167266
 40
102.6688422556683
 40
102.6688422556683
 40
102.6688422556683
 40
112.9208726135488
 40
112.9208726135488
 40
112.9208726135488
 40
120.9170908264356
 40
120.9170908264356
 40
120.9170908264356
 40
120.9170908264356
 10
-54.000000000000057
 20
-77.141253113712082
 30
0.0
 10
-53.998744556286063
 20
-77.138541355329693
 30
0.0
 10
-53.997489244765042
 20
-77.135829535754681
 30
0.0
 10
-53.996234065436852
 20
-77.133117654987075
 30
0.0
 10
-53.57845070964774
 20
-76.230474803727191
 30
0.0
 10
-53.183233599394242
 20
-75.338161735063608
 30
0.0
 10
-52.810210512485838
 20
-74.455336880989179
 30
0.0
 10
-51.903014717741939
 20
-72.308298203706528
 30
0.0
 10
-51.125914422812457
 20
-70.214598897789756
 30
0.0
 10
-50.474563051088751
 20
-68.162536308210548
 30
0.0
 10
-49.403830538299957
 20
-64.789226251113121
 30
0.0
 10
-48.668595666280737
 20
-61.514850950818392
 30
0.0
 10
-48.257689394561737
 20
-58.2897964942199
 30
0.0
 10
-47.806925581244457
 20
-54.751914633886422
 30
0.0
 10
-47.743855628388047
 20
-51.252944289994922
 30
0.0
 10
-48.067324828709133
 20
-47.729029616581407
 30
0.0
 10
-48.369724318193732
 20
-44.434651056986311
 30
0.0
 10
-49.011601522034447
 20
-41.100456833890398
 30
0.0
 10
-50.003216347520549
 20
-37.673300767463587
 30
0.0
 10
-50.711681719947542
 20
-35.224747824766148
 30
0.0
 10
-51.600957460302453
 20
-32.720839223387337
 30
0.0
 10
-52.678268764263748
 20
-30.141253113712079
 30
0.0
 11
-54.000000000000057
 21
-77.141253113712082
 31
0.0
 11
-53.998116933573783
 21
-77.137185430244017
 31
0.0
 11
-53.996234065436852
 21
-77.133117654987075
 31
0.0
 11
-53.687121903661215
 21
-76.458059201278857
 31
0.0
 11
-53.386437188131083
 21
-75.786795519043579
 31
0.0
 11
-53.094145023016068
 21
-75.119247711280579
 31
0.0
 11
-52.810210512485838
 21
-74.455336880989179
 31
0.0
 11
-52.512624303700662
 21
-73.741616801143024
 31
0.0
 11
-52.224639024312381
 21
-73.03175146769415
 31
0.0
 11
-51.946218900027908
 21
-72.325644562494105
 31
0.0
 11
-51.677328156554161
 21
-71.623199767394539
 31
0.0
 11
-51.417931019598065
 21
-70.924320764247071
 31
0.0
 11
-51.167991714866552
 21
-70.228911234903336
 31
0.0
 11
-50.927474468066549
 21
-69.536874861214912
 31
0.0
 11
-50.696343504904974
 21
-68.848115325033447
 31
0.0
 11
-50.474563051088751
 21
-68.162536308210548
 31
0.0
 11
-50.233421428405833
 21
-67.385813796901402
 31
0.0
 11
-50.004160461952871
 21
-66.612468266726509
 31
0.0
 11
-49.786749649115919
 21
-65.842364222247269
 31
0.0
 11
-49.581158487281058
 21
-65.075366168025056
 31
0.0
 11
-49.387356473834345
 21
-64.311338608621256
 31
0.0
 11
-49.205313106161846
 21
-63.550146048597263
 31
0.0
 11
-49.034997881649616
 21
-62.791652992514443
 31
0.0
 11
-48.876380297683752
 21
-62.035723944934212
 31
0.0
 11
-48.729429851650266
 21
-61.282223410417899
 31
0.0
 11
-48.594116040935276
 21
-60.531015893526956
 31
0.0
 11
-48.4704083629248
 21
-59.781965898822691
 31
0.0
 11
-48.358276315004929
 21
-59.034937930866548
 31
0.0
 11
-48.257689394561737
 21
-58.2897964942199
 31
0.0
 11
-48.167030817740134
 21
-57.532251266074333
 31
0.0
 11
-48.088237895450227
 21
-56.775757580314057
 31
0.0
 11
-48.021308102821898
 21
-56.020175810453793
 31
0.0
 11
-47.966238914984956
 21
-55.265366330008142
 31
0.0
 11
-47.923027807069275
 21
-54.511189512491825
 31
0.0
 11
-47.891672254204686
 21
-53.757505731419428
 31
0.0
 11
-47.872169731521055
 21
-53.004175360305659
 31
0.0
 11
-47.864517714148192
 21
-52.251058772665161
 31
0.0
 11
-47.868713677215979
 21
-51.498016342012562
 31
0.0
 11
-47.884755095854267
 21
-50.744908441862577
 31
0.0
 11
-47.912639445192866
 21
-49.991595445729786
 31
0.0
 11
-47.952364200361643
 21
-49.237937727128894
 31
0.0
 11
-48.003926836490457
 21
-48.483795659574554
 31
0.0
 11
-48.067324828709133
 21
-47.729029616581407
 31
0.0
 11
-48.137324545810877
 21
-47.022462562248762
 31
0.0
 11
-48.217738872041508
 21
-46.314560452226232
 31
0.0
 11
-48.308590241600633
 21
-45.605207077665803
 31
0.0
 11
-48.409901088687853
 21
-44.894286229719405
 31
0.0
 11
-48.521693847502796
 21
-44.181681699539055
 31
0.0
 11
-48.643990952245062
 21
-43.467277278276732
 31
0.0
 11
-48.77681483711428
 21
-42.750956757084396
 31
0.0
 11
-48.920187936310022
 21
-42.032603927114003
 31
0.0
 11
-49.07413268403198
 21
-41.312102579517585
 31
0.0
 11
-49.238671514479691
 21
-40.589336505447065
 31
0.0
 11
-49.413826861852783
 21
-39.864189496054401
 31
0.0
 11
-49.599621160350893
 21
-39.136545342491637
 31
0.0
 11
-49.796076844173612
 21
-38.406287835910703
 31
0.0
 11
-50.003216347520549
 21
-37.673300767463587
 31
0.0
 11
-50.221187495482162
 21
-36.937053893044293
 31
0.0
 11
-50.450050616693517
 21
-36.197363748006431
 31
0.0
 11
-50.689849062328697
 21
-35.454108401252313
 31
0.0
 11
-50.940626183561768
 21
-34.707165921684229
 31
0.0
 11
-51.202425331566779
 21
-33.956414378204521
 31
0.0
 11
-51.475289857517822
 21
-33.201731839715457
 31
0.0
 11
-51.759263112588997
 21
-32.442996375119385
 31
0.0
 11
-52.054388447954302
 21
-31.680086053318579
 31
0.0
 11
-52.360709214787875
 21
-30.912878943215375
 31
0.0
 11
-52.678268764263748
 21
-30.141253113712079
 31
0.0
  0
SPLINE
  5
B5
100
AcDbEntity
  8
0
  6
CONTINUOUS
 62
             7
100
AcDbSpline
210
0.0
220
0.0
230
1.0
 70
             0
 71
             3
 72
            14
 73
            10
 74
             7
 42
0.00000000001
 43
0.00000000001
 44
0.00000000001
 40
3.5259200547050709
 40
3.5259200547050709
 40
3.5259200547050709
 40
3.5259200547050709
 40
5.9091858059483418
 40
5.9091858059483418
 40
5.9091858059483418
 40
6.5221783093116503
 40
6.5221783093116503
 40
6.5221783093116503
 40
6.728364042233653
 40
6.728364042233653
 40
6.728364042233653
 40
6.728364042233653
 10
-62.37988457828385
 20
-30.141253113712079
 30
0.0
 10
-62.641099302690151
 20
-29.400592006502521
 30
0.0
 10
-62.915523417941358
 20
-28.65522718731123
 30
0.0
 10
-63.20328673126906
 20
-27.904804247730951
 30
0.0
 10
-63.276052849390247
 20
-27.715046339987591
 30
0.0
 10
-63.349846011465047
 20
-27.52451097400742
 30
0.0
 10
-63.424680020296449
 20
-27.333189189315451
 30
0.0
 10
-63.449715679665047
 20
-27.269182635261469
 30
0.0
 10
-63.474822339566259
 20
-27.205203943393681
 30
0.0
 10
-63.500000000000057
 20
-27.141253113712079
 30
0.0
 11
-62.37988457828385
 21
-30.141253113712079
 31
0.0
 11
-62.78162993393093
 21
-29.026689367860534
 31
0.0
 11
-63.20328673126906
 21
-27.904804247730951
 31
0.0
 11
-63.31320791676643
 21
-27.619583172378928
 31
0.0
 11
-63.424680020296449
 21
-27.333189189315451
 31
0.0
 11
-63.4622867597488
 21
-27.237200254874125
 31
0.0
 11
-63.500000000000057
 21
-27.141253113712079
 31
0.0
  0
SPLINE
  5
B4
100
AcDbEntity
  8
0
  6
CONTINUOUS
 62
             7
100
AcDbSpline
210
0.0
220
0.0
230
1.0
 70
             0
 71
             3
 72
            14
 73
            10
 74
             7
 42
0.00000000001
 43
0.00000000001
 44
0.00000000001
 40
17.487638922619212
 40
17.487638922619212
 40
17.487638922619212
 40
17.487638922619212
 40
17.69397663621206
 40
17.69397663621206
 40
17.69397663621206
 40
18.307493066672212
 40
18.307493066672212
 40
18.307493066672212
 40
20.690082927508421
 40
20.690082927508421
 40
20.690082927508421
 40
20.690082927508421
 10
63.499999999999922
 20
-27.141253113712079
 30
0.0
 10
63.474803780731932
 20
-27.20525108188588
 30
0.0
 10
63.449678666943257
 20
-27.269276953362159
 30
0.0
 10
63.424624658633917
 20
-27.33333072814094
 30
0.0
 10
63.349902712686401
 20
-27.524366934310269
 30
0.0
 10
63.276043489446877
 20
-27.715066527454841
 30
0.0
 10
63.203044727379911
 20
-27.905435347207931
 30
0.0
 10
62.91536671342574
 20
-28.65565250753663
 30
0.0
 10
62.641023491519881
 20
-29.400806965132318
 30
0.0
 10
62.379884577098281
 20
-30.141253117073081
 30
0.0
 11
63.499999999999922
 21
-27.141253113712079
 31
0.0
 11
63.462259000207425
 21
-27.237270993449641
 31
0.0
 11
63.424624658633917
 21
-27.33333072814094
 31
0.0
 11
63.313188499051712
 21
-27.619633307580525
 31
0.0
 11
63.203044727379911
 21
-27.905435347207931
 31
0.0
 11
62.781512489914377
 21
-29.027008360285979
 31
0.0
 11
62.379884577098281
 21
-30.141253117073081
 31
0.0
  0
SPLINE
  5
B3
100
AcDbEntity
  8
0
  6
CONTINUOUS
 62
             7
100
AcDbSpline
210
0.0
220
0.0
230
1.0
 70
             0
 71
             3
 72
            26
 73
            22
 74
            67
 42
0.00000000001
 43
0.00000000001
 44
0.00000000001
 40
7.2450035623685807
 40
7.2450035623685807
 40
7.2450035623685807
 40
7.2450035623685807
 40
15.241221775255431
 40
15.241221775255431
 40
15.241221775255431
 40
25.493252133135851
 40
25.493252133135851
 40
25.493252133135851
 40
36.07166829963689
 40
36.07166829963689
 40
36.07166829963689
 40
46.200616640200522
 40
46.200616640200522
 40
46.200616640200522
 40
52.914679213946009
 40
52.914679213946009
 40
52.914679213946009
 40
55.843461649068772
 40
55.843461649068772
 40
55.843461649068772
 40
55.852426466512561
 40
55.852426466512561
 40
55.852426466512561
 40
55.852426466512561
 10
52.678268764263613
 20
-30.141253113712079
 30
0.0
 10
51.600957460313957
 20
-32.720839223359327
 30
0.0
 10
50.71168171995491
 20
-35.224747824740177
 30
0.0
 10
50.003216347520393
 20
-37.673300767463637
 30
0.0
 10
49.011601522026581
 20
-41.100456833916887
 30
0.0
 10
48.369724318191111
 20
-44.434651057012523
 30
0.0
 10
48.06732482870899
 20
-47.729029616581407
 30
0.0
 10
47.743855628388381
 20
-51.252944289989152
 30
0.0
 10
47.806925581243597
 20
-54.751914633880808
 30
0.0
 10
48.257689394561552
 20
-58.289796494219907
 30
0.0
 10
48.668595666278271
 20
-61.514850950800032
 30
0.0
 10
49.403830538293711
 20
-64.789226251094163
 30
0.0
 10
50.474563051088523
 20
-68.162536308210548
 30
0.0
 10
51.125914422820372
 20
-70.214598897815236
 30
0.0
 10
51.903014717752967
 20
-72.308298203733159
 30
0.0
 10
52.810210512485646
 20
-74.455336880989165
 30
0.0
 10
53.183233599896653
 20
-75.338161736253042
 30
0.0
 10
53.57845071021093
 20
-76.230474804944464
 30
0.0
 10
53.996234065436717
 20
-77.133117654987075
 30
0.0
 10
53.997489244764857
 20
-77.135829535754681
 30
0.0
 10
53.998744556285921
 20
-77.138541355329693
 30
0.0
 10
53.999999999999922
 20
-77.141253113712082
 30
0.0
 11
52.678268764263613
 21
-30.141253113712079
 31
0.0
 11
52.360709214790774
 21
-30.912878943207872
 31
0.0
 11
52.054388447959361
 21
-31.680086053305331
 31
0.0
 11
51.759263112595399
 21
-32.442996375102119
 31
0.0
 11
51.475289857524885
 21
-33.201731839695881
 31
0.0
 11
51.202425331573821
 21
-33.95641437818427
 31
0.0
 11
50.940626183568213
 21
-34.707165921664959
 31
0.0
 11
50.689849062334069
 21
-35.454108401235587
 31
0.0
 11
50.450050616697368
 21
-36.197363747993805
 31
0.0
 11
50.221187495484145
 21
-36.937053893037259
 31
0.0
 11
50.003216347520393
 21
-37.673300767463637
 31
0.0
 11
49.796076844171992
 21
-38.406287835916018
 31
0.0
 11
49.599621160348171
 21
-39.136545342501385
 31
0.0
 11
49.413826861849309
 21
-39.864189496067794
 31
0.0
 11
49.238671514475733
 21
-40.589336505463244
 31
0.0
 11
49.074132684027795
 21
-41.312102579535761
 31
0.0
 11
48.920187936305872
 21
-42.032603927133387
 31
0.0
 11
48.776814837110308
 21
-42.750956757104156
 31
0.0
 11
48.64399095224146
 21
-43.467277278296088
 31
0.0
 11
48.521693847499655
 21
-44.181681699557181
 31
0.0
 11
48.409901088685267
 21
-44.894286229735499
 31
0.0
 11
48.308590241598665
 21
-45.605207077679054
 31
0.0
 11
48.217738872040179
 21
-46.314560452235874
 31
0.0
 11
48.137324545810174
 21
-47.022462562253985
 31
0.0
 11
48.06732482870899
 21
-47.729029616581407
 31
0.0
 11
48.003926836490386
 21
-48.48379565957341
 31
0.0
 11
47.952364200361622
 21
-49.237937727126784
 31
0.0
 11
47.912639445192838
 21
-49.991595445726901
 31
0.0
 11
47.884755095854189
 21
-50.744908441859046
 31
0.0
 11
47.868713677215872
 21
-51.49801634200864
 31
0.0
 11
47.864517714148022
 21
-52.251058772660969
 31
0.0
 11
47.872169731520806
 21
-53.004175360301403
 31
0.0
 11
47.891672254204387
 21
-53.757505731415272
 31
0.0
 11
47.923027807068934
 21
-54.511189512487924
 31
0.0
 11
47.966238914984572
 21
-55.265366330004689
 31
0.0
 11
48.021308102821493
 21
-56.02017581045093
 31
0.0
 11
48.088237895449865
 21
-56.775757580311996
 31
0.0
 11
48.167030817739835
 21
-57.53225126607321
 31
0.0
 11
48.257689394561552
 21
-58.289796494219907
 31
0.0
 11
48.358276315004204
 21
-59.03493793086264
 31
0.0
 11
48.4704083629235
 21
-59.781965898815486
 31
0.0
 11
48.5941160409334
 21
-60.531015893517086
 31
0.0
 11
48.729429851647886
 21
-61.282223410406054
 31
0.0
 11
48.876380297680903
 21
-62.035723944921003
 31
0.0
 11
49.034997881646433
 21
-62.791652992500552
 31
0.0
 11
49.205313106158435
 21
-63.550146048583336
 31
0.0
 11
49.387356473830884
 21
-64.311338608607969
 31
0.0
 11
49.581158487277733
 21
-65.075366168013062
 31
0.0
 11
49.786749649112942
 21
-65.842364222237237
 31
0.0
 11
50.004160461950519
 21
-66.612468266719148
 31
0.0
 11
50.233421428404398
 21
-67.385813796897381
 31
0.0
 11
50.474563051088523
 21
-68.162536308210548
 31
0.0
 11
50.696343504907261
 21
-68.848115325041022
 31
0.0
 11
50.927474468070905
 21
-69.53687486122827
 31
0.0
 11
51.16799171487245
 21
-70.228911234920574
 31
0.0
 11
51.417931019604893
 21
-70.924320764266326
 31
0.0
 11
51.677328156561238
 21
-71.62319976741388
 31
0.0
 11
51.946218900034495
 21
-72.325644562511599
 31
0.0
 11
52.224639024317653
 21
-73.031751467707807
 31
0.0
 11
52.512624303703703
 21
-73.741616801150883
 31
0.0
 11
52.810210512485646
 21
-74.455336880989165
 31
0.0
 11
53.094145023307142
 21
-75.119247711953548
 31
0.0
 11
53.386437188530643
 21
-75.786795519946082
 31
0.0
 11
53.687121903969391
 21
-76.458059201959642
 31
0.0
 11
53.996234065436717
 21
-77.133117654987075
 31
0.0
 11
53.998116933573627
 21
-77.137185430244045
 31
0.0
 11
53.999999999999922
 21
-77.141253113712082
 31
0.0
  0
SPLINE
  5
B2
100
AcDbEntity
  8
0
  6
CONTINUOUS
 62
             7
100
AcDbSpline
210
0.0
220
0.0
230
1.0
 70
             0
 71
             3
 72
           122
 73
           118
 74
           650
 42
0.00000000001
 43
0.00000000001
 44
0.00000000001
 40
15.683043582725739
 40
15.683043582725739
 40
15.683043582725739
 40
15.683043582725739
 40
15.70923605858292
 40
15.70923605858292
 40
15.70923605858292
 40
15.8083458817691
 40
15.8083458817691
 40
15.8083458817691
 40
15.844512872211141
 40
15.844512872211141
 40
15.844512872211141
 40
15.88514917146054
 40
15.88514917146054
 40
15.88514917146054
 40
15.97982621142544
 40
15.97982621142544
 40
15.97982621142544
 40
16.09198299328531
 40
16.09198299328531
 40
16.09198299328531
 40
16.15444879274931
 40
16.15444879274931
 40
16.15444879274931
 40
16.221234366519329
 40
16.221234366519329
 40
16.221234366519329
 40
16.530208503967561
 40
16.530208503967561
 40
16.530208503967561
 40
16.902084873495259
 40
16.902084873495259
 40
16.902084873495259
 40
17.33033876031255
 40
17.33033876031255
 40
17.33033876031255
 40
17.810060027875259
 40
17.810060027875259
 40
17.810060027875259
 40
18.331241210424551
 40
18.331241210424551
 40
18.331241210424551
 40
19.476505857414669
 40
19.476505857414669
 40
19.476505857414669
 40
19.775905323742691
 40
19.775905323742691
 40
19.775905323742691
 40
20.0788873027604
 40
20.0788873027604
 40
20.0788873027604
 40
20.23119124145822
 40
20.23119124145822
 40
20.23119124145822
 40
20.383891668055998
 40
20.383891668055998
 40
20.383891668055998
 40
20.690263707780211
 40
20.690263707780211
 40
20.690263707780211
 40
21.30154305536141
 40
21.30154305536141
 40
21.30154305536141
 40
21.903637067116691
 40
21.903637067116691
 40
21.903637067116691
 40
22.48758762049502
 40
22.48758762049502
 40
22.48758762049502
 40
23.04454597654922
 40
23.04454597654922
 40
23.04454597654922
 40
23.178530760815931
 40
23.178530760815931
 40
23.178530760815931
 40
23.31019085990533
 40
23.31019085990533
 40
23.31019085990533
 40
23.566205540358219
 40
23.566205540358219
 40
23.566205540358219
 40
23.811283557458239
 40
23.811283557458239
 40
23.811283557458239
 40
24.044952898034818
 40
24.044952898034818
 40
24.044952898034818
 40
24.474810788897329
 40
24.474810788897329
 40
24.474810788897329
 40
24.84658328730503
 40
24.84658328730503
 40
24.84658328730503
 40
25.15515816942705
 40
25.15515816942705
 40
25.15515816942705
 40
25.221923885795238
 40
25.221923885795238
 40
25.221923885795238
 40
25.28445690138426
 40
25.28445690138426
 40
25.28445690138426
 40
25.396576806643221
 40
25.396576806643221
 40
25.396576806643221
 40
25.490921844143578
 40
25.490921844143578
 40
25.490921844143578
 40
25.567239635912401
 40
25.567239635912401
 40
25.567239635912401
 40
25.625213210829351
 40
25.625213210829351
 40
25.625213210829351
 40
25.664602202554079
 40
25.664602202554079
 40
25.664602202554079
 40
25.688694342760169
 40
25.688694342760169
 40
25.688694342760169
 40
25.688694342760169
 10
-77.999999999999943
 20
-8.9681246722397674
 30
0.0
 10
-77.991273225562651
 20
-8.9683906009894088
 30
0.0
 10
-77.982546454547247
 20
-8.9686566419896963
 30
0.0
 10
-77.97381968695376
 20
-8.9689227952398198
 30
0.0
 10
-77.942599044726535
 20
-8.9698749777416253
 30
0.0
 10
-77.913831141291354
 20
-8.9707523874913306
 30
0.0
 10
-77.874755989790941
 20
-8.9719461963562992
 30
0.0
 10
-77.864698234181333
 20
-8.9722534770026243
 30
0.0
 10
-77.852555896670339
 20
-8.9726245467922752
 30
0.0
 10
-77.83860587966106
 20
-8.9730510652124451
 30
0.0
 10
-77.817464749973254
 20
-8.9736974501759335
 30
0.0
 10
-77.813362247823449
 20
-8.9738245144068571
 30
0.0
 10
-77.797988389025647
 20
-8.9742872844564374
 30
0.0
 10
-77.769378322865037
 20
-8.9751484788976086
 30
0.0
 10
-77.737836578316745
 20
-8.9760788820462096
 30
0.0
 10
-77.703353653403354
 20
-8.9771172504692061
 30
0.0
 10
-77.668893286135045
 20
-8.9781549396242326
 30
0.0
 10
-77.631580888483739
 20
-8.979297885719717
 30
0.0
 10
-77.591250633574845
 20
-8.980589100053777
 30
0.0
 10
-77.56705170635334
 20
-8.9813638534434403
 30
0.0
 10
-77.561835702831843
 20
-8.9815465964089185
 30
0.0
 10
-77.528817472475652
 20
-8.9826081339368784
 30
0.0
 10
-77.507256041180852
 20
-8.9833013348815882
 30
0.0
 10
-77.485010184140236
 20
-8.9840086813717193
 30
0.0
 10
-77.462065677426438
 20
-8.9847319542117816
 30
0.0
 10
-77.370650171418532
 20
-8.9876136179355228
 30
0.0
 10
-77.268050331428356
 20
-8.9907510544196896
 30
0.0
 10
-77.15323850649736
 20
-8.9942604021477734
 30
0.0
 10
-77.041125940933654
 20
-8.9976872440909688
 30
0.0
 10
-76.916700809274744
 20
-9.0014890936610925
 30
0.0
 10
-76.78153806176195
 20
-9.0056976463737612
 30
0.0
 10
-76.769871916437239
 20
-9.0060608942986278
 30
0.0
 10
-76.590855704951139
 20
-9.0116431984602627
 30
0.0
 10
-76.353494171318658
 20
-9.0191072979204137
 30
0.0
 10
-76.219542950690652
 20
-9.023319544185739
 30
0.0
 10
-76.056347565580751
 20
-9.0284661940967794
 30
0.0
 10
-75.874012012600559
 20
-9.0342516984024996
 30
0.0
 10
-75.707063619876749
 20
-9.0395489683487398
 30
0.0
 10
-75.533099099675042
 20
-9.0450852461780471
 30
0.0
 10
-75.353096975424251
 20
-9.0509054993852374
 30
0.0
 10
-74.998797951539245
 20
-9.0623615310217929
 30
0.0
 10
-74.622012974802857
 20
-9.074779831359848
 30
0.0
 10
-74.208432204020255
 20
-9.0879683013808403
 30
0.0
 10
-74.157903637586344
 20
-9.0895795815241485
 30
0.0
 10
-74.071749772124349
 20
-9.0923140766215909
 30
0.0
 10
-73.909190276680448
 20
-9.0976791501102241
 30
0.0
 10
-73.80982405540874
 20
-9.1009586083661418
 30
0.0
 10
-73.708974324817035
 20
-9.1043266827710596
 30
0.0
 10
-73.606375741871545
 20
-9.1077507116027903
 30
0.0
 10
-73.556080759099444
 20
-9.1094292091624851
 30
0.0
 10
-73.505339389087254
 20
-9.1111220251256952
 30
0.0
 10
-73.454156326547434
 20
-9.1128241050288068
 30
0.0
 10
-73.436732197689849
 20
-9.1134035400623077
 30
0.0
 10
-73.381351945985557
 20
-9.1152426830607709
 30
0.0
 10
-73.301540336931851
 20
-9.1179015045687493
 30
0.0
 10
-73.215812425916141
 20
-9.1207574200971777
 30
0.0
 10
-73.111866321314039
 20
-9.1242269182214244
 30
0.0
 10
-72.995339108819138
 20
-9.128130601522372
 30
0.0
 10
-72.909087898739358
 20
-9.1310200331089106
 30
0.0
 10
-72.688866585820449
 20
-9.1383992911138279
 30
0.0
 10
-72.384406560408451
 20
-9.1487184220044639
 30
0.0
 10
-72.100242875293048
 20
-9.1583496445503556
 30
0.0
 10
-71.892593359378139
 20
-9.1654618809088788
 30
0.0
 10
-71.782662083878535
 20
-9.1692313513319732
 30
0.0
 10
-71.592496123639052
 20
-9.1757520158047896
 30
0.0
 10
-71.392633377919537
 20
-9.1826392404922075
 30
0.0
 10
-71.199058273955359
 20
-9.1893519555296734
 30
0.0
 10
-71.013636401837459
 20
-9.1957819362645523
 30
0.0
 10
-70.822386939806336
 20
-9.2024488174597394
 30
0.0
 10
-70.642437994099737
 20
-9.2087548399492789
 30
0.0
 10
-70.570095686658448
 20
-9.2112899602072957
 30
0.0
 10
-70.520718982434346
 20
-9.2130259957180556
 30
0.0
 10
-70.508535637179449
 20
-9.2134539052649984
 30
0.0
 10
-70.464170907357243
 20
-9.2150121054999374
 30
0.0
 10
-70.420311039551336
 20
-9.2165438871074343
 30
0.0
 10
-70.376955984572845
 20
-9.2180557139614052
 30
0.0
 10
-70.289676380491358
 20
-9.2210992264034815
 30
0.0
 10
-70.204429375441833
 20
-9.2240623309789953
 30
0.0
 10
-70.121097657800533
 20
-9.2270018073619156
 30
0.0
 10
-69.994179965047948
 20
-9.231478752887341
 30
0.0
 10
-69.92459594600615
 20
-9.2340382074135903
 30
0.0
 10
-69.876178571003749
 20
-9.2358258604413379
 30
0.0
 10
-69.80030727232446
 20
-9.238627159702105
 30
0.0
 10
-69.722139591711738
 20
-9.2415030567968444
 30
0.0
 10
-69.642666996509945
 20
-9.2444110179923769
 30
0.0
 10
-69.501063267921353
 20
-9.2495924034351873
 30
0.0
 10
-69.355907247412659
 20
-9.254853962181528
 30
0.0
 10
-69.213089930930636
 20
-9.2599461754133472
 30
0.0
 10
-68.999351708539052
 20
-9.2675671042406123
 30
0.0
 10
-68.875500732744143
 20
-9.2717891779418409
 30
0.0
 10
-68.841545555896658
 20
-9.2729674395716017
 30
0.0
 10
-68.73010007934235
 20
-9.2768346533818402
 30
0.0
 10
-68.627301977251534
 20
-9.2807270589492674
 30
0.0
 10
-68.533175828233652
 20
-9.2842160492120627
 30
0.0
 10
-68.498789851456735
 20
-9.2854906401668842
 30
0.0
 10
-68.482443312725252
 20
-9.2860855017123072
 30
0.0
 10
-68.466455255423057
 20
-9.2866708300616665
 30
0.0
 10
-68.445424340804351
 20
-9.287440779174716
 30
0.0
 10
-68.42458648891656
 20
-9.2882046064725188
 30
0.0
 10
-68.403964192874554
 20
-9.2889610569032186
 30
0.0
 10
-68.365972349113548
 20
-9.290354643074096
 30
0.0
 10
-68.328672746079633
 20
-9.2917246351473466
 30
0.0
 10
-68.29191974077844
 20
-9.2930737092387687
 30
0.0
 10
-68.230068778271345
 20
-9.2953440414296722
 30
0.0
 10
-68.215145255116653
 20
-9.2958891421364598
 30
0.0
 10
-68.197638083620944
 20
-9.296531341596534
 30
0.0
 10
-68.171014732407741
 20
-9.2975079414875381
 30
0.0
 10
-68.145527298723039
 20
-9.2984467462905656
 30
0.0
 10
-68.121371912544532
 20
-9.2993378472173589
 30
0.0
 10
-68.101415226281034
 20
-9.300074056586709
 30
0.0
 10
-68.082314697144938
 20
-9.300779659930555
 30
0.0
 10
-68.063437800136654
 20
-9.3014765402773492
 30
0.0
 10
-68.052341627146234
 20
-9.3018861788359573
 30
0.0
 10
-68.042043690756145
 20
-9.3022712881229097
 30
0.0
 10
-68.024074623034039
 20
-9.3029021955825471
 30
0.0
 10
-68.007819026792134
 20
-9.3034729417719575
 30
0.0
 10
-68.000000000000057
 20
-9.3037300404527628
 30
0.0
 10
-68.000000140752633
 20
-9.3038190393817786
 30
0.0
 11
-77.999999999999943
 21
-8.9681246722397674
 31
0.0
 11
-77.986909840910428
 21
-8.9685236495521128
 31
0.0
 11
-77.97381968695376
 21
-8.9689227952398198
 31
0.0
 11
-77.967162441112947
 21
-8.9691258324217955
 31
0.0
 11
-77.960552378266797
 21
-8.9693274359740442
 31
0.0
 11
-77.953961597569446
 21
-8.9695284612286361
 31
0.0
 11
-77.947362198174957
 21
-8.969729763517643
 31
0.0
 11
-77.940726279237452
 21
-8.9699321981731384
 31
0.0
 11
-77.934025939911038
 21
-8.9701366205271906
 31
0.0
 11
-77.927233279349807
 21
-8.9703438859118734
 31
0.0
 11
-77.920320396707865
 21
-8.9705548496592602
 31
0.0
 11
-77.913259391139306
 21
-8.9707703671014158
 31
0.0
 11
-77.906022361798236
 21
-8.9709912935704175
 31
0.0
 11
-77.898581407838762
 21
-8.9712184843983351
 31
0.0
 11
-77.890908628414977
 21
-8.9714527949172389
 31
0.0
 11
-77.882976122681029
 21
-8.9716950804592059
 31
0.0
 11
-77.874755989790941
 21
-8.9719461963562992
 31
0.0
 11
-77.86955467878326
 21
-8.9721051138279204
 31
0.0
 11
-77.864013629192101
 21
-8.9722744311425178
 31
0.0
 11
-77.85814053275088
 21
-8.9724539166191803
 31
0.0
 11
-77.851943081193028
 21
-8.9726433385769973
 31
0.0
 11
-77.845428966251944
 21
-8.9728424653350558
 31
0.0
 11
-77.83860587966106
 21
-8.9730510652124451
 31
0.0
 11
-77.835046201375064
 21
-8.9731599163080169
 31
0.0
 11
-77.831805692660367
 21
-8.9732590298592303
 31
0.0
 11
-77.828849779955974
 21
-8.973349450067051
 31
0.0
 11
-77.826143889700916
 21
-8.9734322211324287
 31
0.0
 11
-77.823653448334184
 21
-8.9735083872563308
 31
0.0
 11
-77.821343882294812
 21
-8.9735789926397089
 31
0.0
 11
-77.819180618021818
 21
-8.9736450814835216
 31
0.0
 11
-77.817129081954207
 21
-8.9737076979887327
 31
0.0
 11
-77.815154700530996
 21
-8.973767886356292
 31
0.0
 11
-77.813222900191178
 21
-8.9738266907871616
 31
0.0
 11
-77.811299107373841
 21
-8.9738851554823036
 31
0.0
 11
-77.80934874851792
 21
-8.9739443246426696
 31
0.0
 11
-77.80733725006246
 21
-8.974005242469218
 31
0.0
 11
-77.80523003844651
 21
-8.9740689531629148
 31
0.0
 11
-77.802992540109031
 21
-8.9741365009247094
 31
0.0
 11
-77.800590181489085
 21
-8.9742089299555658
 31
0.0
 11
-77.797988389025647
 21
-8.9742872844564374
 31
0.0
 11
-77.787122173232447
 21
-8.9746135522264563
 31
0.0
 11
-77.775981001239103
 21
-8.9749467624913173
 31
0.0
 11
-77.764564761694317
 21
-8.9752873694295374
 31
0.0
 11
-77.75287334324679
 21
-8.9756358272196373
 31
0.0
 11
-77.740906634545254
 21
-8.9759925900401356
 31
0.0
 11
-77.72866452423834
 21
-8.9763581120695495
 31
0.0
 11
-77.716146900974792
 21
-8.9767328474863977
 31
0.0
 11
-77.703353653403354
 21
-8.9771172504692061
 31
0.0
 11
-77.690297002872924
 21
-8.9775114018278668
 31
0.0
 11
-77.676971031210385
 21
-8.9779159250633445
 31
0.0
 11
-77.663373795132088
 21
-8.9783313242142917
 31
0.0
 11
-77.649503351354312
 21
-8.978758103319354
 31
0.0
 11
-77.635357756593393
 21
-8.9791967664171839
 31
0.0
 11
-77.620935067565654
 21
-8.9796478175464323
 31
0.0
 11
-77.606233340987345
 21
-8.9801117607457464
 31
0.0
 11
-77.591250633574845
 21
-8.980589100053777
 31
0.0
 11
-77.588064048816022
 21
-8.9806912168868713
 31
0.0
 11
-77.585086426775575
 21
-8.980786823525932
 31
0.0
 11
-77.582291404671423
 21
-8.9808767487491235
 31
0.0
 11
-77.579652619721585
 21
-8.9809618213346152
 31
0.0
 11
-77.577143709143968
 21
-8.9810428700605751
 31
0.0
 11
-77.574738310156548
 21
-8.9811207237051676
 31
0.0
 11
-77.572410059977273
 21
-8.9811962110465604
 31
0.0
 11
-77.570132595824091
 21
-8.981270160862918
 31
0.0
 11
-77.567879554914995
 21
-8.9813434019324117
 31
0.0
 11
-77.565624574467876
 21
-8.9814167630332058
 31
0.0
 11
-77.563341291700738
 21
-8.9814910729434647
 31
0.0
 11
-77.561003343831544
 21
-8.9815671604413598
 31
0.0
 11
-77.558584368078229
 21
-8.9816458543050572
 31
0.0
 11
-77.556058001658741
 21
-8.9817279833127213
 31
0.0
 11
-77.553397881791042
 21
-8.981814376242518
 31
0.0
 11
-77.550577645693096
 21
-8.9819058618726171
 31
0.0
 11
-77.54757093058285
 21
-8.9820032689811846
 31
0.0
 11
-77.544351373678296
 21
-8.9821074263463885
 31
0.0
 11
-77.540892612197311
 21
-8.9822191627463912
 31
0.0
 11
-77.537168283357914
 21
-8.9823393069593624
 31
0.0
 11
-77.53315202437804
 21
-8.9824686877634701
 31
0.0
 11
-77.528817472475652
 21
-8.9826081339368784
 31
0.0
 11
-77.512517846928361
 21
-8.9831307147602466
 31
0.0
 11
-77.495960228233173
 21
-8.9836587671135728
 31
0.0
 11
-77.479143282896928
 21
-8.9841924579472767
 31
0.0
 11
-77.462065677426438
 21
-8.9847319542117816
 31
0.0
 11
-77.443633147282583
 21
-8.9853117316714037
 31
0.0
 11
-77.424900541297504
 21
-8.9858985362063883
 31
0.0
 11
-77.405866032536167
 21
-8.9864925742851458
 31
0.0
 11
-77.386527794063497
 21
-8.9870940523760936
 31
0.0
 11
-77.366883998944488
 21
-8.9877031769476456
 31
0.0
 11
-77.34693282024412
 21
-8.9883201544682176
 31
0.0
 11
-77.326672431027319
 21
-8.9889451914062271
 31
0.0
 11
-77.306101004359064
 21
-8.989578494230086
 31
0.0
 11
-77.285216713304322
 21
-8.9902202694082103
 31
0.0
 11
-77.264017730928032
 21
-8.9908707234090137
 31
0.0
 11
-77.242502230295173
 21
-8.991530062700912
 31
0.0
 11
-77.220668384470713
 21
-8.9921984937523227
 31
0.0
 11
-77.198514366519618
 21
-8.9928762230316615
 31
0.0
 11
-77.17603834950684
 21
-8.9935634570073386
 31
0.0
 11
-77.15323850649736
 21
-8.9942604021477734
 31
0.0
 11
-77.130652292488605
 21
-8.9949507800293684
 31
0.0
 11
-77.10774054329552
 21
-8.9956512144619314
 31
0.0
 11
-77.084506058829646
 21
-8.9963617617930467
 31
0.0
 11
-77.060951639002525
 21
-8.997082478370297
 31
0.0
 11
-77.03708008372567
 21
-8.997813420541263
 31
0.0
 11
-77.012894192910665
 21
-8.9985546446535309
 31
0.0
 11
-76.988396766469009
 21
-8.9993062070546852
 31
0.0
 11
-76.963590604312273
 21
-9.0000681640923084
 31
0.0
 11
-76.938478506351998
 21
-9.0008405721139813
 31
0.0
 11
-76.913063272499699
 21
-9.0016234874672882
 31
0.0
 11
-76.887347702666929
 21
-9.0024169664998137
 31
0.0
 11
-76.861334596765232
 21
-9.0032210655591403
 31
0.0
 11
-76.835026754706135
 21
-9.0040358409928523
 31
0.0
 11
-76.808426976401194
 21
-9.0048613491485305
 31
0.0
 11
-76.78153806176195
 21
-9.0056976463737612
 31
0.0
 11
-76.780718463979142
 21
-9.00572317501965
 31
0.0
 11
-76.779558678007419
 21
-9.005759315301562
 31
0.0
 11
-76.778062857357924
 21
-9.0058059400566854
 31
0.0
 11
-76.776235155541656
 21
-9.0058629221222031
 31
0.0
 11
-76.77407972606963
 21
-9.0059301343352978
 31
0.0
 11
-76.771600722452959
 21
-9.0060074495331524
 31
0.0
 11
-76.768802298202701
 21
-9.0060947405529568
 31
0.0
 11
-76.765688606829826
 21
-9.0061918802318868
 31
0.0
 11
-76.762263801845478
 21
-9.0062987414071358
 31
0.0
 11
-76.758532036760656
 21
-9.0064151969158832
 31
0.0
 11
-76.754497465086402
 21
-9.0065411195953118
 31
0.0
 11
-76.750164240333788
 21
-9.0066763822826097
 31
0.0
 11
-76.745536516013885
 21
-9.0068208578149562
 31
0.0
 11
-76.740618445637722
 21
-9.0069744190295413
 31
0.0
 11
-76.735414182716326
 21
-9.0071369387635425
 31
0.0
 11
-76.729927880760769
 21
-9.0073082898541497
 31
0.0
 11
-76.724163693282122
 21
-9.0074883451385439
 31
0.0
 11
-76.7181257737914
 21
-9.0076769774539116
 31
0.0
 11
-76.711818275799686
 21
-9.0078740596374338
 31
0.0
 11
-76.705245352818011
 21
-9.0080794645262987
 31
0.0
 11
-76.69841115835743
 21
-9.0082930649576873
 31
0.0
 11
-76.691319845928987
 21
-9.0085147337687843
 31
0.0
 11
-76.683975569043739
 21
-9.008744343796776
 31
0.0
 11
-76.676382481212741
 21
-9.0089817678788453
 31
0.0
 11
-76.668544735947023
 21
-9.0092268788521732
 31
0.0
 11
-76.660466486757684
 21
-9.0094795495539497
 31
0.0
 11
-76.652151887155725
 21
-9.0097396528213558
 31
0.0
 11
-76.643605090652215
 21
-9.0100070614915744
 31
0.0
 11
-76.634830250758185
 21
-9.0102816484017918
 31
0.0
 11
-76.625831520984718
 21
-9.0105632863891909
 31
0.0
 11
-76.616613054842858
 21
-9.0108518482909581
 31
0.0
 11
-76.607179005843648
 21
-9.0111472069442762
 31
0.0
 11
-76.597533527498157
 21
-9.0114492351863298
 31
0.0
 11
-76.587680773317416
 21
-9.0117578058543018
 31
0.0
 11
-76.57762489681248
 21
-9.0120727917853785
 31
0.0
 11
-76.567370051494393
 21
-9.012394065816741
 31
0.0
 11
-76.556920390874197
 21
-9.0127215007855739
 31
0.0
 11
-76.546280068462977
 21
-9.0130549695290672
 31
0.0
 11
-76.535453237771748
 21
-9.0133943448843965
 31
0.0
 11
-76.524444052311594
 21
-9.0137394996887537
 31
0.0
 11
-76.513256665593531
 21
-9.0140903067793161
 31
0.0
 11
-76.501895231128614
 21
-9.0144466389932703
 31
0.0
 11
-76.490363902427902
 21
-9.0148083691678025
 31
0.0
 11
-76.478666833002492
 21
-9.0151753701400974
 31
0.0
 11
-76.466808176363372
 21
-9.0155475147473361
 31
0.0
 11
-76.454792086021627
 21
-9.0159246758267049
 31
0.0
 11
-76.44262271548827
 21
-9.0163067262153866
 31
0.0
 11
-76.430304218274401
 21
-9.0166935387505678
 31
0.0
 11
-76.417840747891006
 21
-9.0170849862694276
 31
0.0
 11
-76.405236457849213
 21
-9.0174809416091559
 31
0.0
 11
-76.392495501660008
 21
-9.0178812776069339
 31
0.0
 11
-76.379622032834504
 21
-9.0182858670999462
 31
0.0
 11
-76.366620204883702
 21
-9.0186945829253791
 31
0.0
 11
-76.353494171318658
 21
-9.0191072979204137
 31
0.0
 11
-76.335857257495263
 21
-9.0196619961307665
 31
0.0
 11
-76.317893634481521
 21
-9.0202271467457908
 31
0.0
 11
-76.299608284933797
 21
-9.020802604019158
 31
0.0
 11
-76.281006191508382
 21
-9.0213882222045498
 31
0.0
 11
-76.26209233686167
 21
-9.0219838555556429
 31
0.0
 11
-76.242871703649982
 21
-9.0225893583261136
 31
0.0
 11
-76.223349274529625
 21
-9.0232045847696387
 31
0.0
 11
-76.203530032156976
 21
-9.0238293891399035
 31
0.0
 11
-76.183418959188373
 21
-9.0244636256905739
 31
0.0
 11
-76.163021038280107
 21
-9.0251071486753336
 31
0.0
 11
-76.142341252088585
 21
-9.0257598123478591
 31
0.0
 11
-76.121384583270085
 21
-9.0264214709618287
 31
0.0
 11
-76.100156014480987
 21
-9.027091978770919
 31
0.0
 11
-76.078660528377611
 21
-9.0277711900288082
 31
0.0
 11
-76.056903107616279
 21
-9.0284589589891695
 31
0.0
 11
-76.034888734853368
 21
-9.0291551399056882
 31
0.0
 11
-76.012622392745172
 21
-9.0298595870320337
 31
0.0
 11
-75.990109063948083
 21
-9.0305721546218898
 31
0.0
 11
-75.967353731118379
 21
-9.0312926969289293
 31
0.0
 11
-75.944361376912454
 21
-9.032021068206836
 31
0.0
 11
-75.921136983986599
 21
-9.0327571227092776
 31
0.0
 11
-75.897685534997208
 21
-9.0335007146899429
 31
0.0
 11
-75.874012012600559
 21
-9.0342516984024996
 31
0.0
 11
-75.828307414372091
 21
-9.035702367987863
 31
0.0
 11
-75.782259320070779
 21
-9.0371650919122626
 31
0.0
 11
-75.73587214077142
 21
-9.0386400728841583
 31
0.0
 11
-75.689150287548813
 21
-9.0401275136120169
 31
0.0
 11
-75.642098171477798
 21
-9.041627616804309
 31
0.0
 11
-75.594720203633187
 21
-9.0431405851694979
 31
0.0
 11
-75.547020795089736
 21
-9.0446666214160487
 31
0.0
 11
-75.499004356922342
 21
-9.0462059282524354
 31
0.0
 11
-75.450675300205745
 21
-9.0477587083871178
 31
0.0
 11
-75.402038036014758
 21
-9.0493251645285611
 31
0.0
 11
-75.353096975424251
 21
-9.0509054993852374
 31
0.0
 11
-75.310472244154525
 21
-9.0522848297770526
 31
0.0
 11
-75.267626152758396
 21
-9.0536733241823821
 31
0.0
 11
-75.224553206256886
 21
-9.0550709088351962
 31
0.0
 11
-75.18124790967093
 21
-9.0564775099694792
 31
0.0
 11
-75.137704768021521
 21
-9.0578930538192015
 31
0.0
 11
-75.093918286329654
 21
-9.059317466618344
 31
0.0
 11
-75.049882969616291
 21
-9.0607506746008806
 31
0.0
 11
-75.005593322902428
 21
-9.0621926040007921
 31
0.0
 11
-74.961043851209041
 21
-9.0636431810520506
 31
0.0
 11
-74.916229059557125
 21
-9.065102331988637
 31
0.0
 11
-74.871143452967615
 21
-9.0665699830445252
 31
0.0
 11
-74.825781536461548
 21
-9.0680460604536943
 31
0.0
 11
-74.780137815059859
 21
-9.0695304904501164
 31
0.0
 11
-74.734206793783613
 21
-9.0710231992677777
 31
0.0
 11
-74.687982977653661
 21
-9.0725241131406484
 31
0.0
 11
-74.641460871691095
 21
-9.0740331583027043
 31
0.0
 11
-74.594634980916823
 21
-9.0755502609879262
 31
0.0
 11
-74.54749981035188
 21
-9.0770753474302897
 31
0.0
 11
-74.500049865017218
 21
-9.0786083438637704
 31
0.0
 11
-74.452279649933843
 21
-9.0801491765223474
 31
0.0
 11
-74.404183670122691
 21
-9.0816977716399929
 31
0.0
 11
-74.355756430604771
 21
-9.0832540554506895
 31
0.0
 11
-74.306992436401089
 21
-9.0848179541884129
 31
0.0
 11
-74.257886192532581
 21
-9.0863893940871368
 31
0.0
 11
-74.208432204020255
 21
-9.0879683013808403
 31
0.0
 11
-74.204138150116776
 21
-9.0881052070687609
 31
0.0
 11
-74.199673919889207
 21
-9.0882475066740955
 31
0.0
 11
-74.195034268953449
 21
-9.0883953940450155
 31
0.0
 11
-74.19021395292539
 21
-9.0885490630297046
 31
0.0
 11
-74.185207727420888
 21
-9.0887087074763411
 31
0.0
 11
-74.180010348055802
 21
-9.0888745212331035
 31
0.0
 11
-74.174616570446034
 21
-9.0890466981481683
 31
0.0
 11
-74.169021150207428
 21
-9.0892254320697177
 31
0.0
 11
-74.163218842955914
 21
-9.0894109168459263
 31
0.0
 11
-74.157204404307294
 21
-9.0896033463249744
 31
0.0
 11
-74.150972589877512
 21
-9.0898029143550421
 31
0.0
 11
-74.144518155282384
 21
-9.090009814784306
 31
0.0
 11
-74.137835856137855
 21
-9.0902242414609447
 31
0.0
 11
-74.130920448059726
 21
-9.0904463882331417
 31
0.0
 11
-74.123766686663913
 21
-9.0906764489490683
 31
0.0
 11
-74.116369327566289
 21
-9.0909146174569067
 31
0.0
 11
-74.108723126382728
 21
-9.0911610876048368
 31
0.0
 11
-74.100822838729101
 21
-9.0914160532410353
 31
0.0
 11
-74.092663220221269
 21
-9.0916797082136807
 31
0.0
 11
-74.084239026475146
 21
-9.091952246370953
 31
0.0
 11
-74.075545013106563
 21
-9.0922338615610307
 31
0.0
 11
-74.06657593573145
 21
-9.0925247476320905
 31
0.0
 11
-74.057326549965609
 21
-9.0928250984323142
 31
0.0
 11
-74.047791611424969
 21
-9.093135107809875
 31
0.0
 11
-74.037965875725376
 21
-9.0934549696129565
 31
0.0
 11
-74.02784409848276
 21
-9.093784877689739
 31
0.0
 11
-74.017421035312935
 21
-9.0941250258883937
 31
0.0
 11
-74.006691441831777
 21
-9.0944756080571061
 31
0.0
 11
-73.995650073655213
 21
-9.0948368180440511
 31
0.0
 11
-73.984291686399047
 21
-9.0952088496974071
 31
0.0
 11
-73.972611035679236
 21
-9.0955918968653577
 31
0.0
 11
-73.960602877111597
 21
-9.0959861533960762
 31
0.0
 11
-73.948261966312032
 21
-9.0963918131377461
 31
0.0
 11
-73.935583058896398
 21
-9.0968090699385407
 31
0.0
 11
-73.92256091048057
 21
-9.0972381176466399
 31
0.0
 11
-73.909190276680448
 21
-9.0976791501102241
 31
0.0
 11
-73.859382311827957
 21
-9.0993261127055902
 31
0.0
 11
-73.809319724782313
 21
-9.1009869373890613
 31
0.0
 11
-73.75899514490365
 21
-9.1026607168905773
 31
0.0
 11
-73.708401201552206
 21
-9.1043465439400784
 31
0.0
 11
-73.657530524088116
 21
-9.1060435112675027
 31
0.0
 11
-73.606375741871545
 21
-9.1077507116027903
 31
0.0
 11
-73.555932137230997
 21
-9.1094337947612996
 31
0.0
 11
-73.50519198436649
 21
-9.1111253003080197
 31
0.0
 11
-73.454156326547434
 21
-9.1128241050288068
 31
0.0
 11
-73.451978175310543
 21
-9.1128965283014374
 31
0.0
 11
-73.449467752420759
 21
-9.1129799821991124
 31
0.0
 11
-73.446629674889522
 21
-9.113074316506955
 31
0.0
 11
-73.443468559728274
 21
-9.1131793810100827
 31
0.0
 11
-73.439989023948456
 21
-9.1132950254936151
 31
0.0
 11
-73.436195684561483
 21
-9.1134210997426717
 31
0.0
 11
-73.43209315857878
 21
-9.1135574535423736
 31
0.0
 11
-73.427686063011834
 21
-9.1137039366778403
 31
0.0
 11
-73.422979014872055
 21
-9.1138603989341931
 31
0.0
 11
-73.417976631170845
 21
-9.1140266900965496
 31
0.0
 11
-73.412683528919686
 21
-9.1142026599500312
 31
0.0
 11
-73.407104325129978
 21
-9.114388158279759
 31
0.0
 11
-73.401243636813192
 21
-9.114583034870849
 31
0.0
 11
-73.395106080980725
 21
-9.1147871395084241
 31
0.0
 11
-73.388696274644019
 21
-9.1150003219776021
 31
0.0
 11
-73.382018834814545
 21
-9.1152224320635042
 31
0.0
 11
-73.375078378503702
 21
-9.1154533195512517
 31
0.0
 11
-73.367879522722944
 21
-9.1156928342259658
 31
0.0
 11
-73.360426884483729
 21
-9.1159408258727641
 31
0.0
 11
-73.352725080797399
 21
-9.1161971442767591
 31
0.0
 11
-73.344778728675493
 21
-9.1164616392230844
 31
0.0
 11
-73.336592445129384
 21
-9.1167341604968506
 31
0.0
 11
-73.32817084717054
 21
-9.1170145578831825
 31
0.0
 11
-73.319518551810361
 21
-9.1173026811671924
 31
0.0
 11
-73.310640176060332
 21
-9.1175983801340088
 31
0.0
 11
-73.301540336931851
 21
-9.1179015045687493
 31
0.0
 11
-73.287084631363385
 21
-9.1183831410496108
 31
0.0
 11
-73.272297351310513
 21
-9.1188759556058887
 31
0.0
 11
-73.257184296244091
 21
-9.1193797636723399
 31
0.0
 11
-73.241751265634988
 21
-9.1198943806837178
 31
0.0
 11
-73.226004058954089
 21
-9.1204196220747722
 31
0.0
 11
-73.209948475672292
 21
-9.1209553032802599
 31
0.0
 11
-73.193590315260451
 21
-9.1215012397349362
 31
0.0
 11
-73.176935377189466
 21
-9.1220572468735526
 31
0.0
 11
-73.159989460930191
 21
-9.1226231401308659
 31
0.0
 11
-73.142758365953497
 21
-9.1231987349416244
 31
0.0
 11
-73.125247891730325
 21
-9.1237838467405918
 31
0.0
 11
-73.107463837731501
 21
-9.1243782909625164
 31
0.0
 11
-73.089412003427896
 21
-9.1249818830421496
 31
0.0
 11
-73.071098188290392
 21
-9.1255944384142467
 31
0.0
 11
-73.052528191789889
 21
-9.1262157725135609
 31
0.0
 11
-73.033707813397271
 21
-9.1268457007748545
 31
0.0
 11
-73.014642852583393
 21
-9.1274840386328737
 31
0.0
 11
-72.995339108819138
 21
-9.128130601522372
 31
0.0
 11
-72.989774417634521
 21
-9.1283170231096182
 31
0.0
 11
-72.983863544074339
 21
-9.1285150528628041
 31
0.0
 11
-72.977609186239235
 21
-9.1287246066915628
 31
0.0
 11
-72.971014042229825
 21
-9.1289456005055403
 31
0.0
 11
-72.964080810146669
 21
-9.129177950214368
 31
0.0
 11
-72.956812188090396
 21
-9.1294215717276916
 31
0.0
 11
-72.949210874161622
 21
-9.1296763809551464
 31
0.0
 11
-72.941279566460921
 21
-9.1299422938063728
 31
0.0
 11
-72.933020963088936
 21
-9.1302192261910111
 31
0.0
 11
-72.924437762146212
 21
-9.1305070940186965
 31
0.0
 11
-72.915532661733423
 21
-9.1308058131990713
 31
0.0
 11
-72.906308359951126
 21
-9.1311152996417757
 31
0.0
 11
-72.896767554899938
 21
-9.1314354692564432
 31
0.0
 11
-72.886912944680489
 21
-9.1317662379527178
 31
0.0
 11
-72.876747227393338
 21
-9.1321075216402399
 31
0.0
 11
-72.866273101139143
 21
-9.1324592362286428
 31
0.0
 11
-72.855493264018449
 21
-9.1328212976275704
 31
0.0
 11
-72.8444104141319
 21
-9.1331936217466581
 31
0.0
 11
-72.833027249580113
 21
-9.1335761244955478
 31
0.0
 11
-72.821346468463645
 21
-9.1339687217838765
 31
0.0
 11
-72.809370768883142
 21
-9.1343713295212865
 31
0.0
 11
-72.797102848939204
 21
-9.1347838636174146
 31
0.0
 11
-72.784545406732406
 21
-9.1352062399819012
 31
0.0
 11
-72.771701140363362
 21
-9.1356383745243797
 31
0.0
 11
-72.758572747932732
 21
-9.1360801831544993
 31
0.0
 11
-72.745162927541031
 21
-9.13653158178189
 31
0.0
 11
-72.731474377288919
 21
-9.1369924863161938
 31
0.0
 11
-72.71750979527701
 21
-9.137462812667053
 31
0.0
 11
-72.703271879605879
 21
-9.1379424767441026
 31
0.0
 11
-72.688763328376126
 21
-9.1384313944569833
 31
0.0
 11
-72.673986839688411
 21
-9.1389294817153335
 31
0.0
 11
-72.658945111643263
 21
-9.1394366544287955
 31
0.0
 11
-72.643640842341341
 21
-9.1399528285070026
 31
0.0
 11
-72.628076729883219
 21
-9.1404779198595989
 31
0.0
 11
-72.612255472369526
 21
-9.1410118443962194
 31
0.0
 11
-72.59617976790085
 21
-9.1415545180265081
 31
0.0
 11
-72.579852314577778
 21
-9.1421058566600983
 31
0.0
 11
-72.563275810500954
 21
-9.1426657762066306
 31
0.0
 11
-72.546452953770967
 21
-9.1432341925757488
 31
0.0
 11
-72.52938644248843
 21
-9.1438110216770898
 31
0.0
 11
-72.512078974753933
 21
-9.1443961794202888
 31
0.0
 11
-72.494533248668077
 21
-9.144989581714988
 31
0.0
 11
-72.476751962331477
 21
-9.145591144470826
 31
0.0
 11
-72.458737813844735
 21
-9.1462007835974415
 31
0.0
 11
-72.440493501308453
 21
-9.1468184150044749
 31
0.0
 11
-72.422021722823246
 21
-9.1474439546015613
 31
0.0
 11
-72.403325176489716
 21
-9.1480773182983466
 31
0.0
 11
-72.384406560408451
 21
-9.1487184220044639
 31
0.0
 11
-72.363750954466084
 21
-9.1494186381391422
 31
0.0
 11
-72.343370296798554
 21
-9.1501097915312517
 31
0.0
 11
-72.323266433351634
 21
-9.1507918104656625
 31
0.0
 11
-72.303441210071043
 21
-9.1514646232272412
 31
0.0
 11
-72.283896472902583
 21
-9.1521281581008633
 31
0.0
 11
-72.264634067791974
 21
-9.1527823433713973
 31
0.0
 11
-72.245655840684975
 21
-9.1534271073237079
 31
0.0
 11
-72.226963637527376
 21
-9.1540623782426724
 31
0.0
 11
-72.208559304264867
 21
-9.1546880844131522
 31
0.0
 11
-72.190444686843222
 21
-9.1553041541200244
 31
0.0
 11
-72.17262163120823
 21
-9.1559105156481557
 31
0.0
 11
-72.15509198330561
 21
-9.1565070972824198
 31
0.0
 11
-72.137857589081122
 21
-9.1570938273076781
 31
0.0
 11
-72.120920294480527
 21
-9.1576706340088077
 31
0.0
 11
-72.104281945449586
 21
-9.1582374456706752
 31
0.0
 11
-72.087944387934016
 21
-9.1587941905781491
 31
0.0
 11
-72.071909467879607
 21
-9.1593407970161032
 31
0.0
 11
-72.056179031232119
 21
-9.1598771932694056
 31
0.0
 11
-72.040754923937271
 21
-9.1604033076229268
 31
0.0
 11
-72.025638991940824
 21
-9.1609190683615349
 31
0.0
 11
-72.010833081188579
 21
-9.1614244037701003
 31
0.0
 11
-71.996339037626228
 21
-9.1619192421334912
 31
0.0
 11
-71.982158707199531
 21
-9.1624035117365814
 31
0.0
 11
-71.968293935854319
 21
-9.1628771408642411
 31
0.0
 11
-71.954746569536226
 21
-9.1633400578013315
 31
0.0
 11
-71.941518454191069
 21
-9.16379219083273
 31
0.0
 11
-71.928611435764623
 21
-9.1642334682433066
 31
0.0
 11
-71.916027360202634
 21
-9.1646638183179316
 31
0.0
 11
-71.903768073450806
 21
-9.1650831693414681
 31
0.0
 11
-71.891835421454942
 21
-9.1654914495987914
 31
0.0
 11
-71.880231250160776
 21
-9.16588858737477
 31
0.0
 11
-71.868957405514081
 21
-9.1662745109542776
 31
0.0
 11
-71.858015733460562
 21
-9.1666491486221737
 31
0.0
 11
-71.847408079946035
 21
-9.1670124286633392
 31
0.0
 11
-71.83713629091622
 21
-9.1673642793626406
 31
0.0
 11
-71.827202212316848
 21
-9.1677046290049411
 31
0.0
 11
-71.817607690093737
 21
-9.1680334058751214
 31
0.0
 11
-71.808354570192577
 21
-9.1683505382580428
 31
0.0
 11
-71.799444698559171
 21
-9.1686559544385808
 31
0.0
 11
-71.790879921139208
 21
-9.1689495827015985
 31
0.0
 11
-71.782662083878535
 21
-9.1692313513319732
 31
0.0
 11
-71.738612774798924
 21
-9.1707423807658479
 31
0.0
 11
-71.694262854565906
 21
-9.1722649465117616
 31
0.0
 11
-71.649655976599334
 21
-9.17379757090964
 31
0.0
 11
-71.604835794319087
 21
-9.175338776299407
 31
0.0
 11
-71.559845961144944
 21
-9.1768870850209829
 31
0.0
 11
-71.514730130496815
 21
-9.1784410194142971
 31
0.0
 11
-71.469531955794551
 21
-9.1799991018192699
 31
0.0
 11
-71.424295090457946
 21
-9.1815598545758217
 31
0.0
 11
-71.379063187906951
 21
-9.1831218000238852
 31
0.0
 11
-71.333879901561318
 21
-9.1846834605033774
 31
0.0
 11
-71.28878888484094
 21
-9.186243358354222
 31
0.0
 11
-71.24383379116567
 21
-9.1878000159163467
 31
0.0
 11
-71.199058273955359
 21
-9.1893519555296734
 31
0.0
 11
-71.159242059860816
 21
-9.1907332167294822
 31
0.0
 11
-71.119284902283994
 21
-9.1921204229306301
 31
0.0
 11
-71.079224253352308
 21
-9.1935122670795408
 31
0.0
 11
-71.039097565193075
 21
-9.1949074421226573
 31
0.0
 11
-70.998942289933566
 21
-9.1963046410063942
 31
0.0
 11
-70.958795879701213
 21
-9.1977025566771911
 31
0.0
 11
-70.918695786623317
 21
-9.1990998820814767
 31
0.0
 11
-70.878679462827193
 21
-9.2004953101656817
 31
0.0
 11
-70.838784360440272
 21
-9.2018875338762349
 31
0.0
 11
-70.799047931589826
 21
-9.203275246159567
 31
0.0
 11
-70.759507628403185
 21
-9.2046571399621051
 31
0.0
 11
-70.720200903007736
 21
-9.2060319082302851
 31
0.0
 11
-70.68116520753081
 21
-9.2073982439105322
 31
0.0
 11
-70.642437994099737
 21
-9.2087548399492789
 31
0.0
 11
-70.634193532636147
 21
-9.2090437786288284
 31
0.0
 11
-70.626157764881938
 21
-9.2093254510664639
 31
0.0
 11
-70.618335547831578
 21
-9.2095996834884435
 31
0.0
 11
-70.610731738479544
 21
-9.2098663021210232
 31
0.0
 11
-70.603351193820259
 21
-9.2101251331904646
 31
0.0
 11
-70.59619877084819
 21
-9.2103760029230202
 31
0.0
 11
-70.589279326557772
 21
-9.2106187375449498
 31
0.0
 11
-70.582597717943486
 21
-9.2108531632825112
 31
0.0
 11
-70.576158801999767
 21
-9.2110791063619608
 31
0.0
 11
-70.569967435721082
 21
-9.2112963930095546
 31
0.0
 11
-70.564028476101853
 21
-9.2115048494515541
 31
0.0
 11
-70.558346780136588
 21
-9.211704301914212
 31
0.0
 11
-70.552927204819696
 21
-9.2118945766237914
 31
0.0
 11
-70.547774607145655
 21
-9.2120754998065468
 31
0.0
 11
-70.542893844108889
 21
-9.2122468976887308
 31
0.0
 11
-70.538289772703862
 21
-9.2124085964966085
 31
0.0
 11
-70.533967249925055
 21
-9.2125604224564341
 31
0.0
 11
-70.529931132766876
 21
-9.212702201794464
 31
0.0
 11
-70.526186278223804
 21
-9.2128337607369577
 31
0.0
 11
-70.522737543290319
 21
-9.2129549255101715
 31
0.0
 11
-70.519589784960843
 21
-9.213065522340365
 31
0.0
 11
-70.516747860229813
 21
-9.2131653774537909
 31
0.0
 11
-70.514216626091724
 21
-9.2132543170767107
 31
0.0
 11
-70.512000939540982
 21
-9.2133321674353805
 31
0.0
 11
-70.510105657572083
 21
-9.2133987547560565
 31
0.0
 11
-70.508535637179449
 21
-9.2134539052649984
 31
0.0
 11
-70.464339192874192
 21
-9.2150035386935265
 31
0.0
 11
-70.420479312315621
 21
-9.2165369961201886
 31
0.0
 11
-70.376955984572845
 21
-9.2180557139614052
 31
0.0
 11
-70.33348502267539
 21
-9.2195710323957556
 31
0.0
 11
-70.290349568627065
 21
-9.221074526732183
 31
0.0
 11
-70.247546363771619
 21
-9.2225677741838439
 31
0.0
 11
-70.205072149452874
 21
-9.2240523519639108
 31
0.0
 11
-70.162923667014567
 21
-9.2255298372855457
 31
0.0
 11
-70.121097657800533
 21
-9.2270018073619156
 31
0.0
 11
-70.109365990122015
 21
-9.2274159383191812
 31
0.0
 11
-70.097963639557008
 21
-9.2278190437596379
 31
0.0
 11
-70.086883983724519
 21
-9.2282113334652944
 31
0.0
 11
-70.076120400243681
 21
-9.22859301721817
 31
0.0
 11
-70.065666266733558
 21
-9.2289643048002734
 31
0.0
 11
-70.055514960813227
 21
-9.2293254059936185
 31
0.0
 11
-70.045659860101765
 21
-9.2296765305802175
 31
0.0
 11
-70.036094342218249
 21
-9.2300178883420863
 31
0.0
 11
-70.026811784781771
 21
-9.2303496890612369
 31
0.0
 11
-70.017805565411393
 21
-9.2306721425196816
 31
0.0
 11
-70.009069061726208
 21
-9.2309854584994326
 31
0.0
 11
-70.000595651345293
 21
-9.231289846782504
 31
0.0
 11
-69.992378711887696
 21
-9.2315855171509096
 31
0.0
 11
-69.984411620972551
 21
-9.2318726793866617
 31
0.0
 11
-69.976687756218894
 21
-9.2321515432717725
 31
0.0
 11
-69.969200495245829
 21
-9.2324223185882559
 31
0.0
 11
-69.96194321567242
 21
-9.2326852151181278
 31
0.0
 11
-69.954909295117744
 21
-9.232940442643395
 31
0.0
 11
-69.948092111200879
 21
-9.233188210946075
 31
0.0
 11
-69.941485041540915
 21
-9.2334287298081801
 31
0.0
 11
-69.935081463756902
 21
-9.2336622090117206
 31
0.0
 11
-69.928874755467959
 21
-9.233888858338716
 31
0.0
 11
-69.92285829429315
 21
-9.2341088875711748
 31
0.0
 11
-69.917025457851551
 21
-9.2343225064911092
 31
0.0
 11
-69.911369623762241
 21
-9.234529924880535
 31
0.0
 11
-69.905884169644295
 21
-9.2347313525214645
 31
0.0
 11
-69.900562473116793
 21
-9.2349269991959098
 31
0.0
 11
-69.895397911798824
 21
-9.2351170746858848
 31
0.0
 11
-69.890383863309438
 21
-9.2353017887734001
 31
0.0
 11
-69.885513705267755
 21
-9.2354813512404714
 31
0.0
 11
-69.880780815292837
 21
-9.2356559718691145
 31
0.0
 11
-69.876178571003749
 21
-9.2358258604413379
 31
0.0
 11
-69.843524595904299
 21
-9.2370308604766524
 31
0.0
 11
-69.810606774632419
 21
-9.2382442509102987
 31
0.0
 11
-69.777442450640223
 21
-9.2394652877119583
 31
0.0
 11
-69.744048967379797
 21
-9.2406932268513149
 31
0.0
 11
-69.710443668303228
 21
-9.2419273242980502
 31
0.0
 11
-69.676643896862572
 21
-9.2431668360218424
 31
0.0
 11
-69.642666996509945
 21
-9.2444110179923769
 31
0.0
 11
-69.589410590456922
 21
-9.2463573083155932
 31
0.0
 11
-69.535890192145132
 21
-9.2483081908373634
 31
0.0
 11
-69.48217483668337
 21
-9.2502607415090452
 31
0.0
 11
-69.428333559180331
 21
-9.2522120362819855
 31
0.0
 11
-69.374435394744793
 21
-9.2541591511075332
 31
0.0
 11
-69.320549378485495
 21
-9.2560991619370441
 31
0.0
 11
-69.266744545511173
 21
-9.2580291447218634
 31
0.0
 11
-69.213089930930636
 21
-9.2599461754133472
 31
0.0
 11
-69.196825821751972
 21
-9.2605257028368051
 31
0.0
 11
-69.180916298237577
 21
-9.2610918584596398
 31
0.0
 11
-69.165361361252479
 21
-9.2616446781937594
 31
0.0
 11
-69.150161011661723
 21
-9.2621841979510648
 31
0.0
 11
-69.135315250330393
 21
-9.2627104536434626
 31
0.0
 11
-69.120824078123547
 21
-9.2632234811828607
 31
0.0
 11
-69.106687495906186
 21
-9.2637233164811654
 31
0.0
 11
-69.092905504543424
 21
-9.2642099954502797
 31
0.0
 11
-69.079478104900289
 21
-9.2646835540021044
 31
0.0
 11
-69.066405297841797
 21
-9.2651440280485566
 31
0.0
 11
-69.053687084233076
 21
-9.2655914535015373
 31
0.0
 11
-69.041323464939126
 21
-9.2660258662729476
 31
0.0
 11
-69.029314440825004
 21
-9.2664473022746954
 31
0.0
 11
-69.017660012755798
 21
-9.2668557974186889
 31
0.0
 11
-69.00636018159652
 21
-9.267251387616831
 31
0.0
 11
-68.995414948212229
 21
-9.2676341087810279
 31
0.0
 11
-68.984824313468025
 21
-9.268003996823186
 31
0.0
 11
-68.974588278228907
 21
-9.2683610876552098
 31
0.0
 11
-68.964706843359949
 21
-9.268705417189004
 31
0.0
 11
-68.95518000972622
 21
-9.2690370213364801
 31
0.0
 11
-68.946007778192737
 21
-9.2693559360095357
 31
0.0
 11
-68.93719014962457
 21
-9.2696621971200788
 31
0.0
 11
-68.928727124886805
 21
-9.2699558405800211
 31
0.0
 11
-68.920618704844429
 21
-9.2702369023012565
 31
0.0
 11
-68.912864890362556
 21
-9.2705054181957021
 31
0.0
 11
-68.905465682306243
 21
-9.2707614241752587
 31
0.0
 11
-68.898421081540462
 21
-9.2710049561518275
 31
0.0
 11
-68.891731088930356
 21
-9.2712360500373219
 31
0.0
 11
-68.885395705340926
 21
-9.271454741743641
 31
0.0
 11
-68.879414931637257
 21
-9.2716610671826949
 31
0.0
 11
-68.873788768684392
 21
-9.2718550622663898
 31
0.0
 11
-68.868517217347375
 21
-9.2720367629066267
 31
0.0
 11
-68.863600278491248
 21
-9.2722062050153138
 31
0.0
 11
-68.859037952981126
 21
-9.2723634245043591
 31
0.0
 11
-68.854830241681981
 21
-9.272508457285662
 31
0.0
 11
-68.850977145458913
 21
-9.2726413392711322
 31
0.0
 11
-68.847478665176965
 21
-9.2727621063726744
 31
0.0
 11
-68.844334801701208
 21
-9.2728707945021984
 31
0.0
 11
-68.841545555896658
 21
-9.2729674395716017
 31
0.0
 11
-68.815980883875568
 21
-9.2738601256313462
 31
0.0
 11
-68.79072328635597
 21
-9.2747525355484814
 31
0.0
 11
-68.765772830461984
 21
-9.275643498798491
 31
0.0
 11
-68.741129583317729
 21
-9.2765318448568514
 31
0.0
 11
-68.716793612047283
 21
-9.2774164031990409
 31
0.0
 11
-68.692764983774751
 21
-9.278296003300543
 31
0.0
 11
-68.669043765624252
 21
-9.2791694746368343
 31
0.0
 11
-68.645630024719907
 21
-9.2800356466834018
 31
0.0
 11
-68.622523828185749
 21
-9.2808933489157095
 31
0.0
 11
-68.59972524314594
 21
-9.2817414108092535
 31
0.0
 11
-68.577234336724615
 21
-9.2825786618395068
 31
0.0
 11
-68.555051176045794
 21
-9.2834039314819492
 31
0.0
 11
-68.533175828233652
 21
-9.2842160492120627
 31
0.0
 11
-68.527608832223805
 21
-9.2844223021640833
 31
0.0
 11
-68.522357709596918
 21
-9.2846166570367288
 31
0.0
 11
-68.517404270068354
 21
-9.2847998033322714
 31
0.0
 11
-68.512730323353537
 21
-9.2849724305529868
 31
0.0
 11
-68.508317679167902
 21
-9.2851352282011597
 31
0.0
 11
-68.504148147226843
 21
-9.2852888857790585
 31
0.0
 11
-68.500203537245781
 21
-9.285434092788968
 31
0.0
 11
-68.496465658940139
 21
-9.2855715387331585
 31
0.0
 11
-68.492916322025337
 21
-9.2857019131139129
 31
0.0
 11
-68.489537336216756
 21
-9.2858259054335033
 31
0.0
 11
-68.486310511229874
 21
-9.2859442051942107
 31
0.0
 11
-68.483217656780056
 21
-9.2860575018983109
 31
0.0
 11
-68.480240582582724
 21
-9.2861664850480778
 31
0.0
 11
-68.477361098353313
 21
-9.2862718441457943
 31
0.0
 11
-68.474561013807232
 21
-9.2863742686937343
 31
0.0
 11
-68.471822138659888
 21
-9.286474448194177
 31
0.0
 11
-68.469126282626675
 21
-9.2865730721493929
 31
0.0
 11
-68.466455255423057
 21
-9.2866708300616665
 31
0.0
 11
-68.435056492182554
 21
-9.2878210054883219
 31
0.0
 11
-68.403964192874554
 21
-9.2889610569032186
 31
0.0
 11
-68.375597829518341
 21
-9.2900018644523819
 31
0.0
 11
-68.347477402404067
 21
-9.2910340751007894
 31
0.0
 11
-68.319589257501008
 21
-9.2920579397343008
 31
0.0
 11
-68.29191974077844
 21
-9.2930737092387687
 31
0.0
 11
-68.285686734002041
 21
-9.2933024916943339
 31
0.0
 11
-68.279776344303897
 21
-9.2935194140368633
 31
0.0
 11
-68.274176391335203
 21
-9.2937249245824614
 31
0.0
 11
-68.268874694747211
 21
-9.2939194716472286
 31
0.0
 11
-68.26385907419116
 21
-9.2941035035472694
 31
0.0
 11
-68.259117349318245
 21
-9.2942774685986826
 31
0.0
 11
-68.25463733977972
 21
-9.2944418151175725
 31
0.0
 11
-68.250406865226836
 21
-9.2945969914200468
 31
0.0
 11
-68.246413745310775
 21
-9.2947434458222009
 31
0.0
 11
-68.242645799682805
 21
-9.2948816266401426
 31
0.0
 11
-68.239090847994134
 21
-9.295011982189969
 31
0.0
 11
-68.235736709895988
 21
-9.295134960787788
 31
0.0
 11
-68.232571205039619
 21
-9.2952510107497002
 31
0.0
 11
-68.229582153076237
 21
-9.2953605803918045
 31
0.0
 11
-68.226757373657065
 21
-9.2954641180302069
 31
0.0
 11
-68.224084686433372
 21
-9.2955620719810135
 31
0.0
 11
-68.221551911056352
 21
-9.2956548905603178
 31
0.0
 11
-68.219146867177244
 21
-9.2957430220842312
 31
0.0
 11
-68.216857374447287
 21
-9.2958269148688508
 31
0.0
 11
-68.214671252517661
 21
-9.2959070172302773
 31
0.0
 11
-68.212576321039691
 21
-9.2959837774846221
 31
0.0
 11
-68.21056039966453
 21
-9.2960576439479823
 31
0.0
 11
-68.20861130804343
 21
-9.2961290649364603
 31
0.0
 11
-68.206716865827602
 21
-9.2961984887661533
 31
0.0
 11
-68.204864892668326
 21
-9.2962663637531762
 31
0.0
 11
-68.203043208216783
 21
-9.2963331382136207
 31
0.0
 11
-68.201239632124199
 21
-9.2963992604635912
 31
0.0
 11
-68.199441984041854
 21
-9.2964651788191954
 31
0.0
 11
-68.197638083620944
 21
-9.296531341596534
 31
0.0
 11
-68.181801952036267
 21
-9.2971126868502729
 31
0.0
 11
-68.16624785489735
 21
-9.2976844856610619
 31
0.0
 11
-68.150985206443139
 21
-9.2982462624070621
 31
0.0
 11
-68.136023420912565
 21
-9.2987975414664419
 31
0.0
 11
-68.121371912544532
 21
-9.2993378472173589
 31
0.0
 11
-68.106555044105178
 21
-9.2998846075369084
 31
0.0
 11
-68.091999935369884
 21
-9.3004219421308125
 31
0.0
 11
-68.077647287119959
 21
-9.3009519025329865
 31
0.0
 11
-68.063437800136654
 21
-9.3014765402773492
 31
0.0
 11
-68.060675485563621
 21
-9.3015785953300014
 31
0.0
 11
-68.057917023321423
 21
-9.3016805669666276
 31
0.0
 11
-68.055133005882468
 21
-9.3017833938241878
 31
0.0
 11
-68.05229402571922
 21
-9.3018880145396405
 31
0.0
 11
-68.049370675304161
 21
-9.3019953677499458
 31
0.0
 11
-68.046333547109711
 21
-9.3021063920920604
 31
0.0
 11
-68.043153233608393
 21
-9.3022220262029496
 31
0.0
 11
-68.039800327272587
 21
-9.3023432087195683
 31
0.0
 11
-68.036245420574815
 21
-9.3024708782788785
 31
0.0
 11
-68.032459105987485
 21
-9.3026059735178404
 31
0.0
 11
-68.028411975983076
 21
-9.3027494330734086
 31
0.0
 11
-68.024074623034039
 21
-9.3029021955825471
 31
0.0
 11
-68.02018612854431
 21
-9.3030384320358284
 31
0.0
 11
-68.016647014025082
 21
-9.3031621052170763
 31
0.0
 11
-68.013455135719681
 21
-9.3032737205004423
 31
0.0
 11
-68.010608349871504
 21
-9.3033737832600849
 31
0.0
 11
-68.008104512723961
 21
-9.3034627988701537
 31
0.0
 11
-68.005941480520391
 21
-9.303541272704809
 31
0.0
 11
-68.004117109504236
 21
-9.3036097101382094
 31
0.0
 11
-68.002629255918833
 21
-9.3036686165445062
 31
0.0
 11
-68.001475776007595
 21
-9.3037184972978562
 31
0.0
 11
-68.000654526013889
 21
-9.3037598577724143
 31
0.0
 11
-68.000163362181098
 21
-9.3037932033423374
 31
0.0
 11
-68.000000140752633
 21
-9.3038190393817786
 31
0.0
  0
SPLINE
  5
B1
100
AcDbEntity
  8
0
  6
CONTINUOUS
 62
             7
100
AcDbSpline
210
0.0
220
0.0
230
1.0
 70
             0
 71
             3
 72
            11
 73
             7
 74
             5
 42
0.00000000001
 43
0.00000000001
 44
0.00000000001
 40
0.0
 40
0.0
 40
0.0
 40
0.0
 40
0.0589912092506838
 40
0.0589912092506838
 40
0.0589912092506838
 40
0.1200966848191123
 40
0.1200966848191123
 40
0.1200966848191123
 40
0.1200966848191123
 10
-77.978447125234851
 20
-9.0859383606047004
 30
0.0
 10
-77.979371334285247
 20
-9.0662029302011575
 30
0.0
 10
-77.98163115206296
 20
-9.046646063651707
 30
0.0
 10
-77.985133203173348
 20
-9.0273600304983859
 30
0.0
 10
-77.988332879457857
 20
-9.0097391960337347
 30
0.0
 10
-77.993031093520557
 20
-8.9898019933278874
 30
0.0
 10
-77.999999999999943
 20
-8.9681246722397674
 30
0.0
 11
-77.978447125234851
 21
-9.0859383606047004
 31
0.0
 11
-77.980823473431599
 21
-9.0564806715827082
 31
0.0
 11
-77.985133203173348
 21
-9.0273600304983859
 31
0.0
 11
-77.991153140263577
 21
-8.9992635338528775
 31
0.0
 11
-77.999999999999943
 21
-8.9681246722397674
 31
0.0
  0
SPLINE
  5
B0
100
AcDbEntity
  8
0
  6
CONTINUOUS
 62
             7
100
AcDbSpline
210
0.0
220
0.0
230
1.0
 70
             0
 71
             3
 72
            29
 73
            25
 74
            31
 42
0.00000000001
 43
0.00000000001
 44
0.00000000001
 40
0.0000095350960052
 40
0.0000095350960052
 40
0.0000095350960052
 40
0.0000095350960052
 40
0.0254036638708168
 40
0.0254036638708168
 40
0.0254036638708168
 40
0.8431985077450532
 40
0.8431985077450532
 40
0.8431985077450532
 40
2.6324592513616119
 40
2.6324592513616119
 40
2.6324592513616119
 40
4.9751210664231547
 40
4.9751210664231547
 40
4.9751210664231547
 40
7.3156352652052492
 40
7.3156352652052492
 40
7.3156352652052492
 40
9.1050507457603462
 40
9.1050507457603462
 40
9.1050507457603462
 40
9.9218335461473295
 40
9.9218335461473295
 40
9.9218335461473295
 40
9.9463666938868407
 40
9.9463666938868407
 40
9.9463666938868407
 40
9.9463666938868407
 10
-68.039440440924437
 20
-9.4678986849053786
 30
0.0
 10
-68.04789784874265
 20
-9.4675471717769852
 30
0.0
 10
-68.056355261252548
 20
-9.467195771565585
 30
0.0
 10
-68.064812678453933
 20
-9.4668444842711779
 30
0.0
 10
-68.240063795682033
 20
-9.4595652535857369
 30
0.0
 10
-68.52440114015684
 20
-9.4477856888419609
 30
0.0
 10
-68.881912891074251
 20
-9.4331453020355127
 30
0.0
 10
-69.573916679365055
 20
-9.4048072037601287
 30
0.0
 10
-70.183759134565349
 20
-9.3803403471806632
 30
0.0
 10
-70.669719461840543
 20
-9.3610246692141175
 30
0.0
 10
-71.548002836599835
 20
-9.326115155251685
 30
0.0
 10
-72.341270171466533
 20
-9.2953295771818603
 30
0.0
 10
-73.010599603748744
 20
-9.2696800152463368
 30
0.0
 10
-73.91058669292795
 20
-9.2351913561919048
 30
0.0
 10
-74.706264799432432
 20
-9.2054008060073329
 30
0.0
 10
-75.349454879084533
 20
-9.1815769249491268
 30
0.0
 10
-75.978365329086245
 20
-9.158281964048598
 30
0.0
 10
-76.578640046345157
 20
-9.1363594756582103
 30
0.0
 10
-77.137673991281645
 20
-9.1161551541731569
 30
0.0
 10
-77.399457867932654
 20
-9.1066938939914337
 30
0.0
 10
-77.672768232758159
 20
-9.0968673722511255
 30
0.0
 10
-77.953929637350058
 20
-9.0868147884828829
 30
0.0
 10
-77.96210213134745
 20
-9.0865225909082454
 30
0.0
 10
-77.970274627309038
 20
-9.0862304482821799
 30
0.0
 10
-77.978447125234851
 20
-9.0859383606047004
 30
0.0
 11
-68.039440440924437
 21
-9.4678986849053786
 31
0.0
 11
-68.052126556170492
 21
-9.4673714999005334
 31
0.0
 11
-68.064812678453933
 21
-9.4668444842711779
 31
0.0
 11
-68.182766401493964
 21
-9.4619500218688781
 31
0.0
 11
-68.325177051674615
 21
-9.4560541758683705
 31
0.0
 11
-68.490320861597269
 21
-9.449235642845446
 31
0.0
 11
-68.676474063863338
 21
-9.4415731193758958
 31
0.0
 11
-68.881912891074251
 21
-9.4331453020355127
 31
0.0
 11
-69.286922037719208
 21
-9.4166172315691306
 31
0.0
 11
-69.670209866270355
 21
-9.4010796960817817
 31
0.0
 11
-70.029773778575674
 21
-9.3865941325454862
 31
0.0
 11
-70.363611176483118
 21
-9.3732219779322605
 31
0.0
 11
-70.669719461840543
 21
-9.3610246692141175
 31
0.0
 11
-71.186176187007462
 21
-9.3405819297857047
 31
0.0
 11
-71.680360813190958
 21
-9.321177514823118
 31
0.0
 11
-72.15040509098182
 21
-9.3028600041779619
 31
0.0
 11
-72.594440770970806
 21
-9.2856779777018321
 31
0.0
 11
-73.010599603748744
 21
-9.2696800152463368
 31
0.0
 11
-73.451677681985004
 21
-9.2528330677557591
 31
0.0
 11
-73.874032622992758
 21
-9.236804376195062
 31
0.0
 11
-74.276326119989307
 21
-9.2216291783491471
 31
0.0
 11
-74.657219866191909
 21
-9.2073427120029159
 31
0.0
 11
-75.015375554817894
 21
-9.1939802149412753
 31
0.0
 11
-75.349454879084533
 21
-9.1815769249491268
 31
0.0
 11
-75.968353231520894
 21
-9.1587522583814298
 31
0.0
 11
-76.565359975555452
 21
-9.1369193944638702
 31
0.0
 11
-77.137673991281645
 21
-9.1161551541731569
 31
0.0
 11
-77.538535241338025
 21
-9.1017067176729647
 31
0.0
 11
-77.953929637350058
 21
-9.0868147884828829
 31
0.0
 11
-77.9661883798193
 21
-9.0863765333323574
 31
0.0
 11
-77.978447125234851
 21
-9.0859383606047004
 31
0.0
  0
SPLINE
  5
AF
100
AcDbEntity
  8
0
  6
CONTINUOUS
 62
             7
100
AcDbSpline
210
0.0
220
0.0
230
1.0
 70
             0
 71
             3
 72
            11
 73
             7
 74
             5
 42
0.00000000001
 43
0.00000000001
 44
0.00000000001
 40
5.163924947757434
 40
5.163924947757434
 40
5.163924947757434
 40
5.163924947757434
 40
5.1649165827477859
 40
5.1649165827477859
 40
5.1649165827477859
 40
5.1658721159080434
 40
5.1658721159080434
 40
5.1658721159080434
 40
5.1658721159080434
 10
31.50039042527531
 20
-9.2156501372912771
 30
0.0
 10
31.500261200288151
 20
-9.2153374247578057
 30
0.0
 10
31.500163137942589
 20
-9.2150220027472471
 30
0.0
 10
31.50009761220932
 20
-9.2147038776466559
 30
0.0
 10
31.500032992246741
 20
-9.214390150030539
 30
0.0
 10
31.499999999999901
 20
-9.2140737178206962
 30
0.0
 10
31.499999999999901
 20
-9.2137545878591141
 30
0.0
 11
31.50039042527531
 21
-9.2156501372912771
 31
0.0
 11
31.500220131522109
 21
-9.2151790371816382
 31
0.0
 11
31.50009761220932
 21
-9.2147038776466559
 31
0.0
 11
31.500024573618635
 21
-9.2142312586324326
 31
0.0
 11
31.499999999999901
 21
-9.2137545878591141
 31
0.0
  0
SPLINE
  5
AE
100
AcDbEntity
  8
0
  6
CONTINUOUS
 62
             7
100
AcDbSpline
210
0.0
220
0.0
230
1.0
 70
             0
 71
             3
 72
            11
 73
             7
 74
             5
 42
0.00000000001
 43
0.00000000001
 44
0.00000000001
 40
0.0
 40
0.0
 40
0.0
 40
0.0
 40
0.0759618766698964
 40
0.0759618766698964
 40
0.0759618766698964
 40
0.1560061991937284
 40
0.1560061991937284
 40
0.1560061991937284
 40
0.1560061991937284
 10
31.534719350115211
 20
-9.3670881199613092
 30
0.0
 10
31.533705325610558
 20
-9.3454352993826149
 30
0.0
 10
31.5308682813952
 20
-9.3200587085287196
 30
0.0
 10
31.524560817489739
 20
-9.2918806652757269
 30
0.0
 10
31.518722477518921
 20
-9.2657983921642142
 30
0.0
 10
31.510580496235249
 20
-9.2403091678386033
 30
0.0
 10
31.50039042527531
 20
-9.2156501372912771
 30
0.0
 11
31.534719350115211
 21
-9.3670881199613092
 31
0.0
 11
31.531625123577772
 21
-9.3319313511213782
 31
0.0
 11
31.524560817489739
 21
-9.2918806652757269
 31
0.0
 11
31.514107520503444
 21
-9.2532316853219321
 31
0.0
 11
31.50039042527531
 21
-9.2156501372912771
 31
0.0
  0
SPLINE
  5
AD
100
AcDbEntity
  8
0
  6
CONTINUOUS
 62
             7
100
AcDbSpline
210
0.0
220
0.0
230
1.0
 70
             0
 71
             3
 72
           101
 73
            97
 74
           104
 42
0.00000000001
 43
0.00000000001
 44
0.00000000001
 40
5.2263526751783171
 40
5.2263526751783171
 40
5.2263526751783171
 40
5.2263526751783171
 40
5.2569366935566038
 40
5.2569366935566038
 40
5.2569366935566038
 40
5.3579462025882574
 40
5.3579462025882574
 40
5.3579462025882574
 40
5.5312420663702078
 40
5.5312420663702078
 40
5.5312420663702078
 40
6.0848177301861401
 40
6.0848177301861401
 40
6.0848177301861401
 40
6.455606917306838
 40
6.455606917306838
 40
6.455606917306838
 40
6.8826656174630694
 40
6.8826656174630694
 40
6.8826656174630694
 40
6.9973925746789636
 40
6.9973925746789636
 40
6.9973925746789636
 40
7.1152151894838376
 40
7.1152151894838376
 40
7.1152151894838376
 40
7.3595534569223773
 40
7.3595534569223773
 40
7.3595534569223773
 40
7.4857262436458427
 40
7.4857262436458427
 40
7.4857262436458427
 40
7.5497416034204452
 40
7.5497416034204452
 40
7.5497416034204452
 40
7.6144287255993373
 40
7.6144287255993373
 40
7.6144287255993373
 40
7.8797281029976762
 40
7.8797281029976762
 40
7.8797281029976762
 40
9.021728247016263
 40
9.021728247016263
 40
9.021728247016263
 40
10.237194692053929
 40
10.237194692053929
 40
10.237194692053929
 40
10.390159232360681
 40
10.390159232360681
 40
10.390159232360681
 40
10.542842610759919
 40
10.542842610759919
 40
10.542842610759919
 40
10.84747744214236
 40
10.84747744214236
 40
10.84747744214236
 40
11.14972120730925
 40
11.14972120730925
 40
11.14972120730925
 40
11.44852381544894
 40
11.44852381544894
 40
11.44852381544894
 40
12.58780204905924
 40
12.58780204905924
 40
12.58780204905924
 40
13.588709679908691
 40
13.588709679908691
 40
13.588709679908691
 40
13.80969899706364
 40
13.80969899706364
 40
13.80969899706364
 40
14.017319252737749
 40
14.017319252737749
 40
14.017319252737749
 40
14.21082835952638
 40
14.21082835952638
 40
14.21082835952638
 40
14.30195789967982
 40
14.30195789967982
 40
14.30195789967982
 40
14.38936529423002
 40
14.38936529423002
 40
14.38936529423002
 40
14.942845855657181
 40
14.942845855657181
 40
14.942845855657181
 40
15.037897628032781
 40
15.037897628032781
 40
15.037897628032781
 40
15.115285481672689
 40
15.115285481672689
 40
15.115285481672689
 40
15.21548533831178
 40
15.21548533831178
 40
15.21548533831178
 40
15.244676383614941
 40
15.244676383614941
 40
15.244676383614941
 40
15.244676383614941
 10
31.499999999999901
 20
-9.2137545878591141
 30
0.0
 10
31.499999999999901
 20
-9.2094528568567569
 30
0.0
 10
31.505986477479968
 20
-9.2041698758023784
 30
0.0
 10
31.525516967175729
 20
-9.1980193719153363
 30
0.0
 10
31.54317603003307
 20
-9.1924582141339641
 30
0.0
 10
31.57313969659107
 20
-9.1857971972050905
 30
0.0
 10
31.624500513085909
 20
-9.1781721217307677
 30
0.0
 10
31.662023592047401
 20
-9.1726014098800306
 30
0.0
 10
31.716269025894281
 20
-9.1657278700002109
 30
0.0
 10
31.796581936634229
 20
-9.1577901575277281
 30
0.0
 10
31.891540574335661
 20
-9.1484049371950391
 30
0.0
 10
32.058598770265363
 20
-9.1339765266611437
 30
0.0
 10
32.348607740539812
 20
-9.116697037242389
 30
0.0
 10
32.436636461035071
 20
-9.1114520569133077
 30
0.0
 10
32.559092208935382
 20
-9.104564929034666
 30
0.0
 10
32.718854686843407
 20
-9.0966732726937494
 30
0.0
 10
32.865723409463897
 20
-9.0894185186280652
 30
0.0
 10
33.011105442895172
 20
-9.0829435900561748
 30
0.0
 10
33.145474317608553
 20
-9.0773296962321979
 30
0.0
 10
33.187891550453202
 20
-9.0755575161644231
 30
0.0
 10
33.230596221037331
 20
-9.0738176249553391
 30
0.0
 10
33.260104825647034
 20
-9.0726265255550658
 30
0.0
 10
33.29948527526232
 20
-9.0710369542913725
 30
0.0
 10
33.338720158471013
 20
-9.0694799560359343
 30
0.0
 10
33.377834848937617
 20
-9.067956575196888
 30
0.0
 10
33.459766829362103
 20
-9.0647656101759679
 30
0.0
 10
33.541070360337237
 20
-9.0617260822921537
 30
0.0
 10
33.622003108154651
 20
-9.058845692765658
 30
0.0
 10
33.664169495551
 20
-9.0573449946687674
 30
0.0
 10
33.706188035400807
 20
-9.0558891738965315
 30
0.0
 10
33.748100289856261
 20
-9.0544788705603878
 30
0.0
 10
33.77239826460719
 20
-9.0536612692335723
 30
0.0
 10
33.791236175664451
 20
-9.0530407946508831
 30
0.0
 10
33.812080463227737
 20
-9.0523567261531355
 30
0.0
 10
33.834285010116233
 20
-9.0516280166212084
 30
0.0
 10
33.855850960667972
 20
-9.0509254031895807
 30
0.0
 10
33.876733251582621
 20
-9.0502494337068526
 30
0.0
 10
33.974125123758057
 20
-9.0470968134447673
 30
0.0
 10
34.063137599626792
 20
-9.0443136071118886
 30
0.0
 10
34.141901414650157
 20
-9.0419073466339199
 30
0.0
 10
34.644198361399532
 20
-9.0265620095548229
 30
0.0
 10
35.038554098126667
 20
-9.0171101038928754
 30
0.0
 10
35.283497795640372
 20
-9.011632716128517
 30
0.0
 10
35.683443408429902
 20
-9.0026892028716361
 30
0.0
 10
36.090217913514991
 20
-8.9952843370684263
 30
0.0
 10
36.498748086547842
 20
-8.9887948738740988
 30
0.0
 10
36.548952381175852
 20
-8.9879973833980102
 30
0.0
 10
36.599922484730271
 20
-8.9872020010989786
 30
0.0
 10
36.651694004446021
 20
-8.9864081721781019
 30
0.0
 10
36.676500348989677
 20
-8.9860278087306256
 30
0.0
 10
36.729864049345913
 20
-8.9852063265115305
 30
0.0
 10
36.804360796194231
 20
-8.9841582671131448
 30
0.0
 10
36.905931512074567
 20
-8.9827293168853259
 30
0.0
 10
37.007406802103532
 20
-8.9814328067458291
 30
0.0
 10
37.108970243993411
 20
-8.9802293710912977
 30
0.0
 10
37.209911847566246
 20
-8.9790333036628738
 30
0.0
 10
37.310650632657932
 20
-8.9779326093145499
 30
0.0
 10
37.411195529847902
 20
-8.9768890368019925
 30
0.0
 10
37.470317036108071
 20
-8.9762754046778497
 30
0.0
 10
37.576117307992632
 20
-8.9751983767086045
 30
0.0
 10
37.709984483526647
 20
-8.974035374475676
 30
0.0
 10
38.04336415929999
 20
-8.9711390609784161
 30
0.0
 10
38.435734550581067
 20
-8.9687075464291581
 30
0.0
 10
38.849245876780337
 20
-8.9682153281954413
 30
0.0
 10
39.238339695622152
 20
-8.9677521750479343
 30
0.0
 10
39.571124608742203
 20
-8.9690961939980127
 30
0.0
 10
39.850145210146273
 20
-8.9714965209331581
 30
0.0
 10
39.951412617054167
 20
-8.9723676927506801
 30
0.0
 10
40.027300305922857
 20
-8.9732208740667545
 30
0.0
 10
40.071123139621122
 20
-8.9737332948780164
 30
0.0
 10
40.142847185899093
 20
-8.9745719648333591
 30
0.0
 10
40.212039503354461
 20
-8.9754708747145173
 30
0.0
 10
40.278725326464297
 20
-8.9764672355551056
 30
0.0
 10
40.345791611378161
 20
-8.9774692809209
 30
0.0
 10
40.410262839775477
 20
-8.978568997415195
 30
0.0
 10
40.472205510845072
 20
-8.9798041048067176
 30
0.0
 10
40.516108769693112
 20
-8.9806795149008991
 30
0.0
 10
40.547185360395517
 20
-8.9813926712341754
 30
0.0
 10
40.563313959463201
 20
-8.9817632748004712
 30
0.0
 10
40.593903834652771
 20
-8.9824661701226205
 30
0.0
 10
40.622996441674893
 20
-8.9831653942293741
 30
0.0
 10
40.650696196786647
 20
-8.9838597351008218
 30
0.0
 10
40.876341667161782
 20
-8.9895159176881805
 30
0.0
 10
41.063090158327732
 20
-8.9961882396725628
 30
0.0
 10
41.203775338428862
 20
-9.0044964835473706
 30
0.0
 10
41.223279499641251
 20
-9.0056483129569074
 30
0.0
 10
41.259571410496797
 20
-9.0078709661451057
 30
0.0
 10
41.298611894242292
 20
-9.0108755521242756
 30
0.0
 10
41.326314259224233
 20
-9.0130075476691331
 30
0.0
 10
41.352252695169241
 20
-9.015288956542264
 30
0.0
 10
41.375694100577462
 20
-9.0177277575982089
 30
0.0
 10
41.421077027026911
 20
-9.0224493144766882
 30
0.0
 10
41.454147906994422
 20
-9.0274535542608163
 30
0.0
 10
41.474717737621177
 20
-9.0327215754519727
 30
0.0
 10
41.493777229373272
 20
-9.0376027924276769
 30
0.0
 10
41.499999999999901
 20
-9.0421719230776318
 30
0.0
 10
41.499999999999901
 20
-9.0461712602926099
 30
0.0
 11
31.499999999999901
 21
-9.2137545878591141
 31
0.0
 11
31.50227540118717
 21
-9.209129985625319
 31
0.0
 11
31.510221239524629
 21
-9.2038764894055891
 31
0.0
 11
31.525516967175729
 21
-9.1980193719153363
 31
0.0
 11
31.547614325571669
 21
-9.1920966240700572
 31
0.0
 11
31.579935318931646
 21
-9.1854708147046811
 31
0.0
 11
31.624500513085909
 21
-9.1781721217307677
 31
0.0
 11
31.655924281379409
 21
-9.1737535365784559
 31
0.0
 11
31.694495037943145
 21
-9.1688687648624025
 31
0.0
 11
31.741088887965351
 21
-9.1635401805297718
 31
0.0
 11
31.796581936634229
 21
-9.1577901575277281
 31
0.0
 11
31.84184100859056
 21
-9.1534655444903699
 31
0.0
 11
31.896818123527314
 21
-9.1485617439295339
 31
0.0
 11
31.962402807090847
 21
-9.1431171018157666
 31
0.0
 11
32.039484584927507
 21
-9.1371699641196216
 31
0.0
 11
32.128952982683657
 21
-9.1307586768116451
 31
0.0
 11
32.23169752600564
 21
-9.1239215858623837
 31
0.0
 11
32.348607740539812
 21
-9.116697037242389
 31
0.0
 11
32.421129343902869
 21
-9.1124653621282743
 31
0.0
 11
32.506831054661824
 21
-9.1076776584725074
 31
0.0
 11
32.605982844935674
 21
-9.1023937030645232
 31
0.0
 11
32.718854686843407
 21
-9.0966732726937494
 31
0.0
 11
32.864875014196059
 21
-9.0896814682094842
 31
0.0
 11
33.007787222193976
 21
-9.0832275938886617
 31
0.0
 11
33.145474317608553
 21
-9.0773296962321979
 31
0.0
 11
33.187487974006586
 21
-9.0755874088562134
 31
0.0
 11
33.226696921405633
 21
-9.0739814258193832
 31
0.0
 11
33.260104825647034
 21
-9.0726265255550658
 31
0.0
 11
33.319069496973079
 21
-9.0702667289667342
 31
0.0
 11
33.377834848937617
 21
-9.067956575196888
 31
0.0
 11
33.500293690773788
 21
-9.0632846681708639
 31
0.0
 11
33.622003108154651
 21
-9.058845692765658
 31
0.0
 11
33.685146998858293
 21
-9.0566283836277428
 31
0.0
 11
33.748100289856261
 21
-9.0544788705603878
 31
0.0
 11
33.781385509237367
 21
-9.0533677235458612
 31
0.0
 11
33.812080463227737
 21
-9.0523567261531355
 31
0.0
 11
33.84490270339537
 21
-9.0512833024115444
 31
0.0
 11
33.876733251582621
 21
-9.0502494337068526
 31
0.0
 11
34.016302854548414
 21
-9.0457985052513425
 31
0.0
 11
34.141901414650157
 21
-9.0419073466339199
 31
0.0
 11
34.325122027748122
 21
-9.036425351948969
 31
0.0
 11
34.497737166126903
 21
-9.0314733791915707
 31
0.0
 11
34.659260843506942
 21
-9.0270289410939117
 31
0.0
 11
34.80920707360864
 21
-9.0230695503881915
 31
0.0
 11
34.947089870152418
 21
-9.0195727198066002
 31
0.0
 11
35.072423246858683
 21
-9.0165159620813249
 31
0.0
 11
35.184721217447866
 21
-9.0138767899445682
 31
0.0
 11
35.283497795640372
 21
-9.011632716128517
 31
0.0
 11
35.887903731002858
 21
-8.9992935262278504
 31
0.0
 11
36.498748086547842
 21
-8.9887948738740988
 31
0.0
 11
36.574633336089029
 21
-8.9876001499428959
 31
0.0
 11
36.651694004446021
 21
-8.9864081721781019
 31
0.0
 11
36.675537262235487
 21
-8.9860435420351958
 31
0.0
 11
36.709393499455885
 21
-8.9855336056272144
 31
0.0
 11
36.752566687108391
 21
-8.9848984762284374
 31
0.0
 11
36.804360796194231
 21
-8.9841582671131448
 31
0.0
 11
36.956668247840241
 21
-8.9821092511372385
 31
0.0
 11
37.108970243993411
 21
-8.9802293710912977
 31
0.0
 11
37.26023165181423
 21
-8.9785020183531934
 31
0.0
 11
37.411195529847902
 21
-8.9768890368019925
 31
0.0
 11
37.452120990583126
 21
-8.9764682693987439
 31
0.0
 11
37.503355985693418
 21
-8.9759544032285845
 31
0.0
 11
37.56400714580397
 21
-8.9753655545274142
 31
0.0
 11
37.633181101539975
 21
-8.9747198395311401
 31
0.0
 11
37.709984483526647
 21
-8.974035374475676
 31
0.0
 11
37.91678837660686
 21
-8.9723651582300192
 31
0.0
 11
38.135933251940642
 21
-8.970877269605527
 31
0.0
 11
38.365602320059679
 21
-8.9696424844758393
 31
0.0
 11
38.60397879149567
 21
-8.9687315787145963
 31
0.0
 11
38.849245876780337
 21
-8.9682153281954413
 31
0.0
 11
39.075965456150861
 21
-8.9681482900457468
 31
0.0
 11
39.289293038660446
 21
-8.968478931722073
 31
0.0
 11
39.489350764821339
 21
-8.9691712117470139
 31
0.0
 11
39.676260775145863
 21
-8.9701890886431777
 31
0.0
 11
39.850145210146273
 21
-8.9714965209331581
 31
0.0
 11
39.92123261292717
 21
-8.9721414832959763
 31
0.0
 11
39.982175889837301
 21
-8.972749439532933
 31
0.0
 11
40.032348309270645
 21
-8.9732901299562204
 31
0.0
 11
40.071123139621122
 21
-8.9737332948780164
 31
0.0
 11
40.17681356673075
 21
-8.9750411311345921
 31
0.0
 11
40.278725326464297
 21
-8.9764672355551056
 31
0.0
 11
40.377386773846283
 21
-8.9780482719212635
 31
0.0
 11
40.472205510845072
 21
-8.9798041048067176
 31
0.0
 11
40.511754646107939
 21
-8.9806187525729655
 31
0.0
 11
40.542281264053912
 21
-8.9812851647194822
 31
0.0
 11
40.563313959463201
 21
-8.9817632748004712
 31
0.0
 11
40.608088873154109
 21
-8.9828147128696596
 31
0.0
 11
40.650696196786647
 21
-8.9838597351008218
 31
0.0
 11
40.781358510851781
 21
-8.9873803396408274
 31
0.0
 11
40.902341565977643
 21
-8.9911745671958005
 31
0.0
 11
41.013301378235163
 21
-8.9952721673254299
 31
0.0
 11
41.113893963695254
 21
-8.9997028895893898
 31
0.0
 11
41.203775338428862
 21
-9.0044964835473706
 31
0.0
 11
41.228355446679593
 21
-9.0059945545502504
 31
0.0
 11
41.261007570969497
 21
-9.0081423100749731
 31
0.0
 11
41.298611894242292
 21
-9.0108755521242756
 31
0.0
 11
41.33875085725002
 21
-9.0141866027945845
 31
0.0
 11
41.375694100577462
 21
-9.0177277575982089
 31
0.0
 11
41.41696601142705
 21
-9.0225428420563993
 31
0.0
 11
41.449987890653375
 21
-9.0275421814519952
 31
0.0
 11
41.474717737621177
 21
-9.0327215754519727
 31
0.0
 11
41.489743283461038
 21
-9.0374892189446765
 31
0.0
 11
41.497680781994774
 21
-9.0419915366403902
 31
0.0
 11
41.499999999999901
 21
-9.0461712602926099
 31
0.0
  0
SPLINE
  5
AC
100
AcDbEntity
  8
0
  6
CONTINUOUS
 62
             7
100
AcDbSpline
210
0.0
220
0.0
230
1.0
 70
             0
 71
             3
 72
            11
 73
             7
 74
             5
 42
0.00000000001
 43
0.00000000001
 44
0.00000000001
 40
0.0324691674349628
 40
0.0324691674349628
 40
0.0324691674349628
 40
0.0324691674349628
 40
0.0997660882903367
 40
0.0997660882903367
 40
0.0997660882903367
 40
0.1643482375848207
 40
0.1643482375848207
 40
0.1643482375848207
 40
0.1643482375848207
 10
41.499755107308431
 20
-9.0475527399605369
 30
0.0
 10
41.492289769418562
 20
-9.068693622595589
 30
0.0
 10
41.486318160138921
 20
-9.0903621930235801
 30
0.0
 10
41.481988380732062
 20
-9.1124158341982024
 30
0.0
 10
41.477347206698781
 20
-9.1360555574129876
 30
0.0
 10
41.475091422119242
 20
-9.15759591875144
 30
0.0
 10
41.474206876244487
 20
-9.1764833476941305
 30
0.0
 11
41.499755107308431
 21
-9.0475527399605369
 31
0.0
 11
41.489695909589116
 21
-9.0796420026270308
 31
0.0
 11
41.481988380732062
 21
-9.1124158341982024
 31
0.0
 11
41.476688892928827
 21
-9.146231701298202
 31
0.0
 11
41.474206876244487
 21
-9.1764833476941305
 31
0.0
  0
SPLINE
  5
AB
100
AcDbEntity
  8
0
  6
CONTINUOUS
 62
             7
100
AcDbSpline
210
0.0
220
0.0
230
1.0
 70
             0
 71
             3
 72
            11
 73
             7
 74
             5
 42
0.00000000001
 43
0.00000000001
 44
0.00000000001
 40
20.90598714069651
 40
20.90598714069651
 40
20.90598714069651
 40
20.90598714069651
 40
20.906679765167851
 40
20.906679765167851
 40
20.906679765167851
 40
20.907396561385269
 40
20.907396561385269
 40
20.907396561385269
 40
20.907396561385269
 10
41.499999999999901
 20
-9.0461712602926099
 30
0.0
 10
41.499999999999901
 20
-9.0464017597012401
 30
0.0
 10
41.499979380700587
 20
-9.0466315187353246
 30
0.0
 10
41.499938795431227
 20
-9.0468605043044192
 30
0.0
 10
41.49989776543142
 20
-9.0470919990809904
 30
0.0
 10
41.499836320334687
 20
-9.0473227550514537
 30
0.0
 10
41.499755107308431
 20
-9.0475527399605369
 30
0.0
 11
41.499999999999901
 21
-9.0461712602926099
 31
0.0
 11
41.499984617191572
 21
-9.0465164499883404
 31
0.0
 11
41.499938795431227
 21
-9.0468605043044192
 31
0.0
 11
41.499862020004734
 21
-9.0472071883327843
 31
0.0
 11
41.499755107308431
 21
-9.0475527399605369
 31
0.0
  0
SPLINE
  5
AA
100
AcDbEntity
  8
0
  6
CONTINUOUS
 62
             7
100
AcDbSpline
210
0.0
220
0.0
230
1.0
 70
             0
 71
             3
 72
            18
 73
            14
 74
            38
 42
0.00000000001
 43
0.00000000001
 44
0.00000000001
 40
10.926282696839531
 40
10.926282696839531
 40
10.926282696839531
 40
10.926282696839531
 40
11.03309760507312
 40
11.03309760507312
 40
12.620412885792771
 40
12.620412885792771
 40
14.206929498492361
 40
14.206929498492361
 40
14.998754019845389
 40
14.998754019845389
 40
15.79049395787621
 40
15.79049395787621
 40
16.401798166416089
 40
16.401798166416089
 40
16.401798166416089
 40
16.401798166416089
 10
41.474206876244487
 20
-9.1764833476941305
 30
0.0
 10
41.474257719260791
 20
-9.1753971342657792
 30
0.0
 10
41.473961735694772
 20
-9.1743176181429931
 30
0.0
 10
41.463755151054663
 20
-9.1573047928965821
 30
0.0
 10
41.377552198008701
 20
-9.1430623061926894
 30
0.0
 10
41.057770354089612
 20
-9.11878069435339
 30
0.0
 10
40.826122239457902
 20
-9.1088786554300185
 30
0.0
 10
40.38310496795124
 20
-9.0977832504329399
 30
0.0
 10
40.220339474965847
 20
-9.0947285442005921
 30
0.0
 10
39.867094089147152
 20
-9.0899380084465378
 30
0.0
 10
39.677126547773867
 20
-9.0882089146955138
 30
0.0
 10
39.319725197792572
 20
-9.0863449256852675
 30
0.0
 10
39.157369491786561
 20
-9.0859383238867508
 30
0.0
 10
38.989223516237807
 20
-9.0859383606047004
 30
0.0
 11
41.474206876244487
 21
-9.1764833476941305
 31
0.0
 11
41.474022931455686
 21
-9.1748590705541826
 31
0.0
 11
41.473318210534302
 21
-9.1732449595130134
 31
0.0
 11
41.468812128348468
 21
-9.1689400338188669
 31
0.0
 11
41.460518846434091
 21
-9.1647210980185356
 31
0.0
 11
41.448451490363489
 21
-9.1605899595308333
 31
0.0
 11
41.43262318570892
 21
-9.1565484257745791
 31
0.0
 11
41.413047058042665
 21
-9.1525983041685812
 31
0.0
 11
41.389736232937004
 21
-9.1487414021316589
 31
0.0
 11
41.362703835964226
 21
-9.144979527082624
 31
0.0
 11
41.33196299269661
 21
-9.141314486440292
 31
0.0
 11
41.297526828706438
 21
-9.1377480876234767
 31
0.0
 11
41.259408469565997
 21
-9.1342821380509953
 31
0.0
 11
41.217621040847561
 21
-9.1309184451416563
 31
0.0
 11
41.167519834629907
 21
-9.1273444561922652
 31
0.0
 11
41.113158318615461
 21
-9.1239061995416364
 31
0.0
 11
41.054584028679848
 21
-9.1206052647766302
 31
0.0
 11
40.991844500698718
 21
-9.1174432414841107
 31
0.0
 11
40.924987270547703
 21
-9.1144217192509434
 31
0.0
 11
40.85405987410244
 21
-9.1115422876639975
 31
0.0
 11
40.779109847238551
 21
-9.1088065363101283
 31
0.0
 11
40.70018472583169
 21
-9.1062160547762119
 31
0.0
 11
40.617332045757465
 21
-9.1037724326491052
 31
0.0
 11
40.530599342891541
 21
-9.1014772595156739
 31
0.0
 11
40.440281419634985
 21
-9.0993377304686049
 31
0.0
 11
40.34636584328581
 21
-9.0973525944687967
 31
0.0
 11
40.248920029082242
 21
-9.0955228118794054
 31
0.0
 11
40.148011392262461
 21
-9.0938493430635923
 31
0.0
 11
40.043707348064686
 21
-9.092333148384526
 31
0.0
 11
39.936149996423012
 21
-9.0909760795300976
 31
0.0
 11
39.825466322613167
 21
-9.0897793991561056
 31
0.0
 11
39.711735032256357
 21
-9.0887436446581162
 31
0.0
 11
39.595034830973788
 21
-9.0878693534316959
 31
0.0
 11
39.475444424386694
 21
-9.0871570628724125
 31
0.0
 11
39.357423886580577
 21
-9.0866240151037925
 31
0.0
 11
39.236994001170238
 21
-9.0862431465241471
 31
0.0
 11
39.114234100330904
 21
-9.0860145605517051
 31
0.0
 11
38.989223516237807
 21
-9.0859383606047004
 31
0.0
  0
SPLINE
  5
A9
100
AcDbEntity
  8
0
  6
CONTINUOUS
 62
             7
100
AcDbSpline
210
0.0
220
0.0
230
1.0
 70
             0
 71
             3
 72
            32
 73
            28
 74
            35
 42
0.00000000001
 43
0.00000000001
 44
0.00000000001
 40
16.401798166416089
 40
16.401798166416089
 40
16.401798166416089
 40
16.401798166416089
 40
16.582099277502721
 40
16.582099277502721
 40
17.373715715763382
 40
17.373715715763382
 40
18.165306972486128
 40
18.165306972486128
 40
18.957003077802302
 40
18.957003077802302
 40
20.543019542153601
 40
20.543019542153601
 40
22.129717839381978
 40
22.129717839381978
 40
22.922157482029409
 40
22.922157482029409
 40
23.71482837671957
 40
23.71482837671957
 40
24.50751588706283
 40
24.50751588706283
 40
25.30040424993976
 40
25.30040424993976
 40
26.093135184211409
 40
26.093135184211409
 40
26.886010688137539
 40
26.886010688137539
 40
27.343396767407299
 40
27.343396767407299
 40
27.343396767407299
 40
27.343396767407299
 10
38.989223516237807
 20
-9.0859383606047004
 30
0.0
 10
38.93962970387291
 20
-9.0859383714344801
 30
0.0
 10
38.889532181226421
 20
-9.0859737567835737
 30
0.0
 10
38.616882036877413
 20
-9.0863553421584982
 30
0.0
 10
38.386161012558091
 20
-9.0873476956877255
 30
0.0
 10
37.911412202627922
 20
-9.0906826535119762
 30
0.0
 10
37.668069855502111
 20
-9.093020421750964
 30
0.0
 10
37.173612878610321
 20
-9.099006610903956
 30
0.0
 10
36.923209930339482
 20
-9.1026466140603191
 30
0.0
 10
36.168188046205202
 20
-9.11544893480837
 30
0.0
 10
35.664952152051093
 20
-9.126412393384328
 30
0.0
 10
34.693598302769267
 20
-9.1526006751224998
 30
0.0
 10
34.231142644370472
 20
-9.1676770691842506
 30
0.0
 10
33.596455821779927
 20
-9.1926065191549498
 30
0.0
 10
33.395746089863373
 20
-9.201260287242647
 30
0.0
 10
33.019103021229391
 20
-9.2191406412556489
 30
0.0
 10
32.843721574093273
 20
-9.2283416027917582
 30
0.0
 10
32.521908979163477
 20
-9.2471181128856301
 30
0.0
 10
32.375943006182553
 20
-9.2566666083483256
 30
0.0
 10
32.116374025225753
 20
-9.2759297608024269
 30
0.0
 10
32.003154136619571
 20
-9.2856166630270565
 30
0.0
 10
31.811845943906821
 20
-9.3049305946450289
 30
0.0
 10
31.734026926353579
 20
-9.3145297489135999
 30
0.0
 10
31.615372234507671
 20
-9.3334437735715596
 30
0.0
 10
31.574714777154981
 20
-9.3427312381053014
 30
0.0
 10
31.540608912447599
 20
-9.3569700016412582
 30
0.0
 10
31.5344850272228
 20
-9.3620845411293203
 30
0.0
 10
31.534719350115211
 20
-9.3670881199613092
 30
0.0
 11
38.989223516237807
 21
-9.0859383606047004
 31
0.0
 11
38.914457728987436
 21
-9.085964911276859
 31
0.0
 11
38.838952660363695
 21
-9.0860445449560068
 31
0.0
 11
38.499608080091306
 21
-9.0870211074520544
 31
0.0
 11
38.148782832060206
 21
-9.0890152011217538
 31
0.0
 11
37.788510843186629
 21
-9.0920172181286318
 31
0.0
 11
37.420857739042688
 21
-9.0960133181184908
 31
0.0
 11
37.047892488059823
 21
-9.1009852921745988
 31
0.0
 11
36.671813738586501
 21
-9.1069093443854818
 31
0.0
 11
36.168957739902382
 21
-9.1162459279016588
 31
0.0
 11
35.670200172431734
 21
-9.1271326457734823
 31
0.0
 11
35.179379601903236
 21
-9.139503720254547
 31
0.0
 11
34.81966474324679
 21
-9.1496908649024
 31
0.0
 11
34.470182348203217
 21
-9.1605800011362426
 31
0.0
 11
34.132417765109672
 21
-9.1721308308443881
 31
0.0
 11
33.80785634230331
 21
-9.184303055915148
 31
0.0
 11
33.498989263379983
 21
-9.1970128293841444
 31
0.0
 11
33.207452029806674
 21
-9.2101991599652209
 31
0.0
 11
33.023481440770496
 21
-9.2192244574438291
 31
0.0
 11
32.848491287059403
 21
-9.2284066783906091
 31
0.0
 11
32.682816963037716
 21
-9.237729759443285
 31
0.0
 11
32.526936164721839
 21
-9.2471685942504074
 31
0.0
 11
32.381295798564992
 21
-9.2566967945523952
 31
0.0
 11
32.246174956130744
 21
-9.2662969644972204
 31
0.0
 11
32.121937159803508
 21
-9.2759447189407211
 31
0.0
 11
32.008970114544447
 21
-9.2856100809880999
 31
0.0
 11
31.907490543222508
 21
-9.2952745876302885
 31
0.0
 11
31.817812674831821
 21
-9.3049084529352548
 31
0.0
 11
31.740167749641188
 21
-9.3144852716431341
 31
0.0
 11
31.674704989675753
 21
-9.3239858989876261
 31
0.0
 11
31.621610419779326
 21
-9.3333837372340867
 31
0.0
 11
31.581044564425678
 21
-9.3426485708559639
 31
0.0
 11
31.553085939613979
 21
-9.3517610019288036
 31
0.0
 11
31.539135888592547
 21
-9.3595015937752315
 31
0.0
 11
31.534719350115211
 21
-9.3670881199613092
 31
0.0
  0
SPLINE
  5
A8
100
AcDbEntity
  8
0
  6
CONTINUOUS
 62
             7
100
AcDbSpline
210
0.0
220
0.0
230
1.0
 70
             0
 71
             3
 72
            11
 73
             7
 74
             5
 42
0.00000000001
 43
0.00000000001
 44
0.00000000001
 40
10.411517186037001
 40
10.411517186037001
 40
10.411517186037001
 40
10.411517186037001
 40
10.412202991121969
 40
10.412202991121969
 40
10.412202991121969
 40
10.412867584010471
 40
10.412867584010471
 40
10.412867584010471
 40
10.412867584010471
 10
-41.499765714555537
 20
-9.0476351899648932
 30
0.0
 10
-41.499844043292853
 20
-9.047413542878104
 30
0.0
 10
-41.499902487568249
 20
-9.0471927690949769
 30
0.0
 10
-41.499941412885448
 20
-9.0469728742434654
 30
0.0
 10
-41.499980584578651
 20
-9.0467515875775177
 30
0.0
 10
-41.500000000000142
 20
-9.0465311313755024
 30
0.0
 10
-41.500000000000142
 20
-9.0463115110025853
 30
0.0
 11
-41.499765714555537
 21
-9.0476351899648932
 31
0.0
 11
-41.49986834000304
 21
-9.0473033750159519
 31
0.0
 11
-41.499941412885448
 21
-9.0469728742434654
 31
0.0
 11
-41.499985395827736
 21
-9.0466415677631371
 31
0.0
 11
-41.500000000000142
 21
-9.0463115110025853
 31
0.0
  0
SPLINE
  5
A7
100
AcDbEntity
  8
0
  6
CONTINUOUS
 62
             7
100
AcDbSpline
210
0.0
220
0.0
230
1.0
 70
             0
 71
             3
 72
            11
 73
             7
 74
             5
 42
0.00000000001
 43
0.00000000001
 44
0.00000000001
 40
0.0
 40
0.0
 40
0.0
 40
0.0
 40
0.0644484404557361
 40
0.0644484404557361
 40
0.0644484404557361
 40
0.1318005924947324
 40
0.1318005924947324
 40
0.1318005924947324
 40
0.1318005924947324
 10
-41.474206903849449
 20
-9.1764834043075325
 30
0.0
 10
-41.475217591561147
 20
-9.1549099425250517
 30
0.0
 10
-41.477849500280463
 20
-9.1335571519691428
 30
0.0
 10
-41.481974583490143
 20
-9.1125486882594799
 30
0.0
 10
-41.485708117859559
 20
-9.0935343272582543
 30
0.0
 10
-41.491289098271153
 20
-9.0716214990707726
 30
0.0
 10
-41.499765714555537
 20
-9.0476351899648932
 30
0.0
 11
-41.474206903849449
 21
-9.1764834043075325
 31
0.0
 11
-41.476922845358047
 21
-9.1443041720061995
 31
0.0
 11
-41.481974583490143
 21
-9.1125486882594799
 31
0.0
 11
-41.489091493304727
 21
-9.0819564196514317
 31
0.0
 11
-41.499765714555537
 21
-9.0476351899648932
 31
0.0
  0
SPLINE
  5
A6
100
AcDbEntity
  8
0
  6
CONTINUOUS
 62
             7
100
AcDbSpline
210
0.0
220
0.0
230
1.0
 70
             0
 71
             3
 72
            18
 73
            14
 74
            15
 42
0.00000000001
 43
0.00000000001
 44
0.00000000001
 40
16.401798166416089
 40
16.401798166416089
 40
16.401798166416089
 40
16.401798166416089
 40
16.582099277502721
 40
16.582099277502721
 40
17.373715715763382
 40
17.373715715763382
 40
18.165306972486128
 40
18.165306972486128
 40
18.957003077802302
 40
18.957003077802302
 40
20.543019542153601
 40
20.543019542153601
 40
21.87715872656111
 40
21.87715872656111
 40
21.87715872656111
 40
21.87715872656111
 10
-38.989223608996951
 20
-9.0859383606047004
 30
0.0
 10
-39.038817429471642
 20
-9.0859383714344801
 30
0.0
 10
-39.087925225720063
 20
-9.0859737567835737
 30
0.0
 10
-39.349899284432162
 20
-9.0863553421584982
 30
0.0
 10
-39.552850458156662
 20
-9.0873476956877255
 30
0.0
 10
-39.934394647495139
 20
-9.0906826535119762
 30
0.0
 10
-40.11243792617546
 20
-9.093020421750964
 30
0.0
 10
-40.44002397110134
 20
-9.099006610903956
 30
0.0
 10
-40.589090703969653
 20
-9.1026466140603191
 30
0.0
 10
-40.988666003681743
 20
-9.11544893480837
 30
0.0
 10
-41.188581669761533
 20
-9.126412393384328
 30
0.0
 10
-41.421451993357039
 20
-9.1505159969528336
 30
0.0
 10
-41.474841849669843
 20
-9.1629277183248092
 30
0.0
 10
-41.474206903849449
 20
-9.1764834043075325
 30
0.0
 11
-38.989223608996951
 21
-9.0859383606047004
 31
0.0
 11
-39.063246974120922
 21
-9.085964911276859
 31
0.0
 11
-39.136524218395301
 21
-9.0860445449560068
 31
0.0
 11
-39.448549879161568
 21
-9.0870211074520544
 31
0.0
 11
-39.743625587130715
 21
-9.0890152011217538
 31
0.0
 11
-40.020042926258142
 21
-9.0920172181286318
 31
0.0
 11
-40.276220101922618
 21
-9.0960133181184908
 31
0.0
 11
-40.51071244943396
 21
-9.1009852921745988
 31
0.0
 11
-40.72213546833612
 21
-9.1069093443854818
 31
0.0
 11
-40.966208360227867
 21
-9.1162459279016588
 31
0.0
 11
-41.164355217084122
 21
-9.1271326457734858
 31
0.0
 11
-41.315059916713288
 21
-9.1395037202545559
 31
0.0
 11
-41.403746713179963
 21
-9.1509730162861782
 31
0.0
 11
-41.456871455692202
 21
-9.1633185020862804
 31
0.0
 11
-41.474206903849449
 21
-9.1764834043075325
 31
0.0
  0
SPLINE
  5
A5
100
AcDbEntity
  8
0
  6
CONTINUOUS
 62
             7
100
AcDbSpline
210
0.0
220
0.0
230
1.0
 70
             0
 71
             3
 72
            11
 73
             7
 74
             5
 42
0.00000000001
 43
0.00000000001
 44
0.00000000001
 40
26.135247432902279
 40
26.135247432902279
 40
26.135247432902279
 40
26.135247432902279
 40
26.136194885210251
 40
26.136194885210251
 40
26.136194885210251
 40
26.13717605109046
 40
26.13717605109046
 40
26.13717605109046
 40
26.13717605109046
 10
-31.500000000026251
 20
-9.2137535926567296
 30
0.0
 10
-31.500000000026251
 20
-9.2140645662405518
 30
0.0
 10
-31.500031400912551
 20
-9.2143783589044688
 30
0.0
 10
-31.500096446637141
 20
-9.2146948948097105
 30
0.0
 10
-31.500160752291048
 20
-9.2150078292643514
 30
0.0
 10
-31.50025721971674
 20
-9.2153199325154986
 30
0.0
 10
-31.500385864023539
 20
-9.2156312528207422
 30
0.0
 11
-31.500000000026251
 21
-9.2137535926567296
 31
0.0
 11
-31.500023831184972
 21
-9.2142221578626895
 31
0.0
 11
-31.500096446637141
 21
-9.2146948948097105
 31
0.0
 11
-31.500217028335506
 21
-9.2151636791212503
 31
0.0
 11
-31.500385864023539
 21
-9.2156312528207422
 31
0.0
  0
SPLINE
  5
A4
100
AcDbEntity
  8
0
  6
CONTINUOUS
 62
             7
100
AcDbSpline
210
0.0
220
0.0
230
1.0
 70
             0
 71
             3
 72
            30
 73
            26
 74
           118
 42
0.00000000001
 43
0.00000000001
 44
0.00000000001
 40
5.4578524664351633
 40
5.4578524664351633
 40
5.4578524664351633
 40
5.4578524664351633
 40
5.4807276085683583
 40
5.4807276085683583
 40
6.2732386778042972
 40
6.2732386778042972
 40
7.0662332597407698
 40
7.0662332597407698
 40
7.8590691337847289
 40
7.8590691337847289
 40
8.6521895849851873
 40
8.6521895849851873
 40
9.4450993720894445
 40
9.4450993720894445
 40
11.03309760507312
 40
11.03309760507312
 40
12.620412885792771
 40
12.620412885792771
 40
14.206929498492361
 40
14.206929498492361
 40
14.998754019845389
 40
14.998754019845389
 40
15.79049395787621
 40
15.79049395787621
 40
16.401798166416089
 40
16.401798166416089
 40
16.401798166416089
 40
16.401798166416089
 10
-31.534719379362539
 20
-9.3670880896713982
 30
0.0
 10
-31.534707652950839
 20
-9.3668376901962915
 30
0.0
 10
-31.53471184928074
 20
-9.366587001631359
 30
0.0
 10
-31.535429126842541
 20
-9.3576409556576294
 30
0.0
 10
-31.55524042927874
 20
-9.3486265102142738
 30
0.0
 10
-31.63276614498395
 20
-9.3301267534172894
 30
0.0
 10
-31.690391567996841
 20
-9.3206679427547954
 30
0.0
 10
-31.842330940121339
 20
-9.3015142429733686
 30
0.0
 10
-31.936418040107242
 20
-9.2918470822265249
 30
0.0
 10
-32.15926010860035
 20
-9.272496756050586
 30
0.0
 10
-32.287705431023063
 20
-9.2628415392945271
 30
0.0
 10
-32.576353142108843
 20
-9.2437393852564753
 30
0.0
 10
-32.736129416447447
 20
-9.2343199885201273
 30
0.0
 10
-33.258230878015638
 20
-9.2066546689559203
 30
0.0
 10
-33.659963872794442
 20
-9.1891919844852197
 30
0.0
 10
-34.54272406375955
 20
-9.1573047928965821
 30
0.0
 10
-35.018584231474527
 20
-9.1430623061926894
 30
0.0
 10
-36.006547185097759
 20
-9.11878069435339
 30
0.0
 10
-36.512889518833447
 20
-9.1088786554300185
 30
0.0
 10
-37.264580348187543
 20
-9.0977832504329399
 30
0.0
 10
-37.512531745863441
 20
-9.0947285442005921
 30
0.0
 10
-37.999498872512333
 20
-9.0899380084465378
 30
0.0
 10
-38.237813434735763
 20
-9.0882089146955138
 30
0.0
 10
-38.647344638778947
 20
-9.0863449256852675
 30
0.0
 10
-38.821077605952162
 20
-9.0859383238867508
 30
0.0
 10
-38.989223608996951
 20
-9.0859383606047004
 30
0.0
 11
-31.534719379362539
 21
-9.3670880896713982
 31
0.0
 11
-31.53471373226304
 21
-9.3667122738936825
 31
0.0
 11
-31.534731972047041
 21
-9.3663360259951194
 31
0.0
 11
-31.535395878620768
 21
-9.3639567899710556
 31
0.0
 11
-31.537006807932805
 21
-9.3615621082827332
 31
0.0
 11
-31.539563973747494
 21
-9.3591523720479906
 31
0.0
 11
-31.543066589829234
 21
-9.3567279723846788
 31
0.0
 11
-31.547513869942389
 21
-9.3542893004106418
 31
0.0
 11
-31.552905027851338
 21
-9.3518367472437252
 31
0.0
 11
-31.559239277320454
 21
-9.3493707040017782
 31
0.0
 11
-31.566515832114106
 21
-9.3468915618026447
 31
0.0
 11
-31.574733905996681
 21
-9.3443997117641722
 31
0.0
 11
-31.583892712732542
 21
-9.341895545004208
 31
0.0
 11
-31.593991466086074
 21
-9.3393794526405962
 31
0.0
 11
-31.605033377519291
 21
-9.3368509444649526
 31
0.0
 11
-31.6170077877075
 21
-9.3343126085865649
 31
0.0
 11
-31.629912447763619
 21
-9.3317648377046272
 31
0.0
 11
-31.64374510880058
 21
-9.3292080245183406
 31
0.0
 11
-31.658503521931308
 21
-9.3266425617269011
 31
0.0
 11
-31.674185438268726
 21
-9.3240688420295061
 31
0.0
 11
-31.690788608925761
 21
-9.3214872581253587
 31
0.0
 11
-31.708310785015332
 21
-9.3188982027136475
 31
0.0
 11
-31.726749717650367
 21
-9.3163020684935773
 31
0.0
 11
-31.746103157943779
 21
-9.3136992481643404
 31
0.0
 11
-31.76636885700853
 21
-9.3110901344251413
 31
0.0
 11
-31.78753455997715
 21
-9.3084763286545105
 31
0.0
 11
-31.809595367874774
 21
-9.3058583803178916
 31
0.0
 11
-31.832547624463125
 21
-9.3032366725994589
 31
0.0
 11
-31.856387673503942
 21
-9.3006115886833918
 31
0.0
 11
-31.88111185875896
 21
-9.2979835117538627
 31
0.0
 11
-31.906716523989907
 21
-9.2953528249950566
 31
0.0
 11
-31.933198012958535
 21
-9.292719911591151
 31
0.0
 11
-31.960552669426562
 21
-9.2900851547263184
 31
0.0
 11
-31.988776837155726
 21
-9.2874489375847382
 31
0.0
 11
-32.017866859907755
 21
-9.2848116433505901
 31
0.0
 11
-32.047819081444409
 21
-9.2821736552080516
 31
0.0
 11
-32.078632851548875
 21
-9.2795350994708627
 31
0.0
 11
-32.11028482145305
 21
-9.2768979848837798
 31
0.0
 11
-32.14277000276163
 21
-9.2742626774365053
 31
0.0
 11
-32.176083407079254
 21
-9.2716295431187419
 31
0.0
 11
-32.210220046010598
 21
-9.2689989479201973
 31
0.0
 11
-32.245174931160342
 21
-9.2663712578305759
 31
0.0
 11
-32.280943074133148
 21
-9.2637468388395767
 31
0.0
 11
-32.317519486533683
 21
-9.2611260569369094
 31
0.0
 11
-32.354899179966623
 21
-9.2585092781122764
 31
0.0
 11
-32.393077166036619
 21
-9.2558968683553786
 31
0.0
 11
-32.432048456348383
 21
-9.2532891936559256
 31
0.0
 11
-32.475802636441173
 21
-9.2504282391362871
 31
0.0
 11
-32.520476872092509
 21
-9.2475755632182537
 31
0.0
 11
-32.56606292354622
 21
-9.2447316198036411
 31
0.0
 11
-32.612552551046193
 21
-9.2418968627942775
 31
0.0
 11
-32.659937514836258
 21
-9.2390717460919749
 31
0.0
 11
-32.708209575160268
 21
-9.2362567235985509
 31
0.0
 11
-32.757360492262059
 21
-9.2334522492158264
 31
0.0
 11
-32.807382026385525
 21
-9.2306587768456261
 31
0.0
 11
-32.858265937774476
 21
-9.227876760389762
 31
0.0
 11
-32.910003986672791
 21
-9.2251066537500535
 31
0.0
 11
-32.968534868685971
 21
-9.2220405733928406
 31
0.0
 11
-33.028042443900766
 21
-9.2189933549337741
 31
0.0
 11
-33.088512551751421
 21
-9.2159655398946398
 31
0.0
 11
-33.149931031672217
 21
-9.2129576697972162
 31
0.0
 11
-33.212283723097428
 21
-9.2099702861632959
 31
0.0
 11
-33.275556465461321
 21
-9.2070039305146594
 31
0.0
 11
-33.339735098198148
 21
-9.2040591443730939
 31
0.0
 11
-33.404805460742189
 21
-9.2011364692603816
 31
0.0
 11
-33.470753392527733
 21
-9.1982364466983135
 31
0.0
 11
-33.537564732989019
 21
-9.1953596182086681
 31
0.0
 11
-33.605225321560326
 21
-9.192506525313231
 31
0.0
 11
-33.673720997675943
 21
-9.1896777095337931
 31
0.0
 11
-33.743037600770101
 21
-9.1868737123921331
 31
0.0
 11
-33.81316097027711
 21
-9.1840950754100419
 31
0.0
 11
-33.884076945631207
 21
-9.1813423401092997
 31
0.0
 11
-33.955771366266688
 21
-9.1786160480116941
 31
0.0
 11
-34.028230071617791
 21
-9.175916740639007
 31
0.0
 11
-34.101438901118811
 21
-9.1732449595130277
 31
0.0
 11
-34.190152095376924
 21
-9.1700796807206437
 31
0.0
 11
-34.279758259744206
 21
-9.1669603861850213
 31
0.0
 11
-34.37022836419451
 21
-9.1638877886985899
 31
0.0
 11
-34.461533378701695
 21
-9.1608626010537737
 31
0.0
 11
-34.553644273239613
 21
-9.1578855360429987
 31
0.0
 11
-34.646532017782128
 21
-9.154957306458698
 31
0.0
 11
-34.740167582303073
 21
-9.152078625093294
 31
0.0
 11
-34.834521936776326
 21
-9.1492502047392144
 31
0.0
 11
-34.92956605117574
 21
-9.1464727581888887
 31
0.0
 11
-35.025270895475153
 21
-9.143746998234743
 31
0.0
 11
-35.121607439648436
 21
-9.1410736376692032
 31
0.0
 11
-35.218546653669435
 21
-9.1384533892846971
 31
0.0
 11
-35.316059507512023
 21
-9.1358869658736523
 31
0.0
 11
-35.41411697115003
 21
-9.1333750802284968
 31
0.0
 11
-35.512690014557322
 21
-9.1309184451416563
 31
0.0
 11
-35.677747619050066
 21
-9.1269556957725868
 31
0.0
 11
-35.843586855611704
 21
-9.1231607351930464
 31
0.0
 11
-36.010064529407785
 21
-9.1195357439062867
 31
0.0
 11
-36.177037445603851
 21
-9.1160829024155436
 31
0.0
 11
-36.344362409365424
 21
-9.1128043912240653
 31
0.0
 11
-36.511896225858074
 21
-9.1097023908350963
 31
0.0
 11
-36.679495700247337
 21
-9.1067790817518777
 31
0.0
 11
-36.847017637698748
 21
-9.1040366444776559
 31
0.0
 11
-37.014318843377865
 21
-9.1014772595156739
 31
0.0
 11
-37.13924715758651
 21
-9.0996836228394589
 31
0.0
 11
-37.263730878329262
 21
-9.097997092404027
 31
0.0
 11
-37.387710429995849
 21
-9.0964182239750979
 31
0.0
 11
-37.511126236976011
 21
-9.0949475733183931
 31
0.0
 11
-37.633918723659484
 21
-9.0935856961996286
 31
0.0
 11
-37.756028314435994
 21
-9.092333148384526
 31
0.0
 11
-37.860051161774102
 21
-9.0913474708182953
 31
0.0
 11
-37.963406636663613
 21
-9.0904435457718851
 31
0.0
 11
-38.066058713086925
 21
-9.0896215690891609
 31
0.0
 11
-38.167971365026411
 21
-9.0888817366139829
 31
0.0
 11
-38.269108566464453
 21
-9.0882242441902257
 31
0.0
 11
-38.369434291383421
 21
-9.0876492876617458
 31
0.0
 11
-38.468912513765702
 21
-9.0871570628724125
 31
0.0
 11
-38.557732869571353
 21
-9.0867847940016322
 31
0.0
 11
-38.64574537111789
 21
-9.0864801450047299
 31
0.0
 11
-38.732925357119498
 21
-9.0862431465241471
 31
0.0
 11
-38.819248166290414
 21
-9.0860738292023235
 31
0.0
 11
-38.904689137344818
 21
-9.08597222368169
 31
0.0
 11
-38.989223608996951
 21
-9.0859383606047004
 31
0.0
  0
SPLINE
  5
A3
100
AcDbEntity
  8
0
  6
CONTINUOUS
 62
             7
100
AcDbSpline
210
0.0
220
0.0
230
1.0
 70
             0
 71
             3
 72
            11
 73
             7
 74
             5
 42
0.00000000001
 43
0.00000000001
 44
0.00000000001
 40
0.0112597008230501
 40
0.0112597008230501
 40
0.0112597008230501
 40
0.0112597008230501
 40
0.0913490800702803
 40
0.0913490800702803
 40
0.0913490800702803
 40
0.1672853339513882
 40
0.1672853339513882
 40
0.1672853339513882
 40
0.1672853339513882
 10
-31.500385864023539
 20
-9.2156312528207422
 30
0.0
 10
-31.512208523657151
 20
-9.2442421886466946
 30
0.0
 10
-31.519700626028349
 20
-9.2701589830984972
 30
0.0
 10
-31.524566840805551
 20
-9.2919055981141696
 30
0.0
 10
-31.53007253975964
 20
-9.3165100023646659
 30
0.0
 10
-31.533527492334539
 20
-9.3416371764784571
 30
0.0
 10
-31.534719379362539
 20
-9.3670880896713982
 30
0.0
 11
-31.500385864023539
 21
-9.2156312528207422
 31
0.0
 11
-31.515085019235698
 21
-9.2563425457713109
 31
0.0
 11
-31.524566840805551
 21
-9.2919055981141696
 31
0.0
 11
-31.531260789556327
 21
-9.3291794030393653
 31
0.0
 11
-31.534719379362539
 21
-9.3670880896713982
 31
0.0
  0
SPLINE
  5
A2
100
AcDbEntity
  8
0
  6
CONTINUOUS
 62
             7
100
AcDbSpline
210
0.0
220
0.0
230
1.0
 70
             0
 71
             3
 72
           110
 73
           106
 74
           104
 42
0.00000000001
 43
0.00000000001
 44
0.00000000001
 40
10.45980076873842
 40
10.45980076873842
 40
10.45980076873842
 40
10.45980076873842
 40
10.489833902663211
 40
10.489833902663211
 40
10.489833902663211
 40
10.591035755100799
 40
10.591035755100799
 40
10.591035755100799
 40
10.7645444286981
 40
10.7645444286981
 40
10.7645444286981
 40
11.00919911167956
 40
11.00919911167956
 40
11.00919911167956
 40
11.15666156552658
 40
11.15666156552658
 40
11.15666156552658
 40
11.195995747660231
 40
11.195995747660231
 40
11.195995747660231
 40
11.23628900093348
 40
11.23628900093348
 40
11.23628900093348
 40
11.31985796657246
 40
11.31985796657246
 40
11.31985796657246
 40
11.498633096567071
 40
11.498633096567071
 40
11.498633096567071
 40
11.59360960188978
 40
11.59360960188978
 40
11.59360960188978
 40
11.64243607284619
 40
11.64243607284619
 40
11.64243607284619
 40
11.692135298437471
 40
11.692135298437471
 40
11.692135298437471
 40
12.12087745169568
 40
12.12087745169568
 40
12.12087745169568
 40
13.121099416037151
 40
13.121099416037151
 40
13.121099416037151
 40
13.67581760070034
 40
13.67581760070034
 40
13.67581760070034
 40
14.25721012589068
 40
14.25721012589068
 40
14.25721012589068
 40
14.85664077515332
 40
14.85664077515332
 40
14.85664077515332
 40
15.00814976812612
 40
15.00814976812612
 40
15.00814976812612
 40
15.1603043963361
 40
15.1603043963361
 40
15.1603043963361
 40
15.46602838216327
 40
15.46602838216327
 40
15.46602838216327
 40
16.677104289930671
 40
16.677104289930671
 40
16.677104289930671
 40
17.816895855395082
 40
17.816895855395082
 40
17.816895855395082
 40
18.82070386216968
 40
18.82070386216968
 40
18.82070386216968
 40
19.04199362753452
 40
19.04199362753452
 40
19.04199362753452
 40
19.095125122491371
 40
19.095125122491371
 40
19.095125122491371
 40
19.14741324126032
 40
19.14741324126032
 40
19.14741324126032
 40
19.249456696644881
 40
19.249456696644881
 40
19.249456696644881
 40
19.442900429977971
 40
19.442900429977971
 40
19.442900429977971
 40
19.534029515582649
 40
19.534029515582649
 40
19.534029515582649
 40
19.621312567456439
 40
19.621312567456439
 40
19.621312567456439
 40
19.931360204176968
 40
19.931360204176968
 40
19.931360204176968
 40
20.17457147194505
 40
20.17457147194505
 40
20.17457147194505
 40
20.347470970988422
 40
20.347470970988422
 40
20.347470970988422
 40
20.447994792326931
 40
20.447994792326931
 40
20.447994792326931
 40
20.478120002154679
 40
20.478120002154679
 40
20.478120002154679
 40
20.478120002154679
 10
-41.500000000000142
 20
-9.0463115110025853
 30
0.0
 10
-41.500000000000142
 20
-9.0416209680758044
 30
0.0
 10
-41.491143539913651
 20
-9.0370554984274065
 30
0.0
 10
-41.473853138421127
 20
-9.032670744989332
 30
0.0
 10
-41.452773861715343
 20
-9.027325153040664
 30
0.0
 10
-41.419171803634747
 20
-9.0222511672613734
 30
0.0
 10
-41.373835826306127
 20
-9.0175450556232306
 30
0.0
 10
-41.335052465402043
 20
-9.013519139852292
 30
0.0
 10
-41.28058784060886
 20
-9.0090283898013865
 30
0.0
 10
-41.20083665811876
 20
-9.0043885292584207
 30
0.0
 10
-41.130503073065853
 20
-9.0002965770648302
 30
0.0
 10
-41.048733706883439
 20
-8.9965666868868652
 30
0.0
 10
-40.956444766268653
 20
-8.9931193254715538
 30
0.0
 10
-40.911233672538458
 20
-8.991430510115876
 30
0.0
 10
-40.862245253370332
 20
-8.9897627095116945
 30
0.0
 10
-40.809067461523853
 20
-8.9881142114122099
 30
0.0
 10
-40.796316729508327
 20
-8.9877189419441663
 30
0.0
 10
-40.783215913313462
 20
-8.9873213962777356
 30
0.0
 10
-40.769751361255459
 20
-8.986921744961009
 30
0.0
 10
-40.757924580527458
 20
-8.9865707055450343
 30
0.0
 10
-40.742532852474739
 20
-8.9861211442544402
 30
0.0
 10
-40.729475060311053
 20
-8.9857531377641635
 30
0.0
 10
-40.702412694863462
 20
-8.984990441743065
 30
0.0
 10
-40.674580238918537
 20
-8.9842607585866574
 30
0.0
 10
-40.645934917576056
 20
-8.9835598362109579
 30
0.0
 10
-40.589007308626549
 20
-8.9821668745321404
 30
0.0
 10
-40.529445826575937
 20
-8.9809016069310275
 30
0.0
 10
-40.467201074587848
 20
-8.9797259196911909
 30
0.0
 10
-40.436204534344739
 20
-8.9791404528738354
 30
0.0
 10
-40.40455178886765
 20
-8.9785773741342609
 30
0.0
 10
-40.372239688590952
 20
-8.978031970174726
 30
0.0
 10
-40.356128715587857
 20
-8.9777600290631057
 30
0.0
 10
-40.33985546365605
 20
-8.9774925097243141
 30
0.0
 10
-40.323419824548147
 20
-8.9772288282875081
 30
0.0
 10
-40.307003626035339
 20
-8.9769654587414607
 30
0.0
 10
-40.290438767228238
 20
-8.9767054340210564
 30
0.0
 10
-40.273726681930157
 20
-8.9764512672793586
 30
0.0
 10
-40.141944120647253
 20
-8.9744470443702085
 30
0.0
 10
-39.999061782887338
 20
-8.9727676342946694
 30
0.0
 10
-39.845014257162347
 20
-8.9714527305143008
 30
0.0
 10
-39.625987773291463
 20
-8.9695831857079895
 30
0.0
 10
-39.293925590214059
 20
-8.9676707720683453
 30
0.0
 10
-38.844800413664359
 20
-8.9682205130120281
 30
0.0
 10
-38.69387489596545
 20
-8.9684052497866844
 30
0.0
 10
-38.507964745940647
 20
-8.9688945721172786
 30
0.0
 10
-38.290085380741033
 20
-8.9700108774036664
 30
0.0
 10
-38.026707004853137
 20
-8.9713602969462301
 30
0.0
 10
-37.816771899778047
 20
-8.97311505916052
 30
0.0
 10
-37.708707073600351
 20
-8.974044012099327
 30
0.0
 10
-37.509790683657542
 20
-8.9757539483621258
 30
0.0
 10
-37.310306633944833
 20
-8.977715232719504
 30
0.0
 10
-37.109308631959038
 20
-8.9802299727535626
 30
0.0
 10
-37.05744078604684
 20
-8.9808789053166151
 30
0.0
 10
-37.017580347201552
 20
-8.9814093737564207
 30
0.0
 10
-36.957812723578343
 20
-8.9822206492535486
 30
0.0
 10
-36.90637771679036
 20
-8.9829188192354366
 30
0.0
 10
-36.855675654872037
 20
-8.9836210694070076
 30
0.0
 10
-36.805672689202247
 20
-8.9843278678438594
 30
0.0
 10
-36.700542730597647
 20
-8.9858138935107661
 30
0.0
 10
-36.598803250248039
 20
-8.9873157785780222
 30
0.0
 10
-36.499982002840447
 20
-8.9888389918052383
 30
0.0
 10
-35.944059874927149
 20
-8.9974078771487598
 30
0.0
 10
-35.558553344469352
 20
-9.0054610164885673
 30
0.0
 10
-35.289120138335527
 20
-9.0115038529607148
 30
0.0
 10
-34.987558787411963
 20
-9.0182672580959036
 30
0.0
 10
-34.584971057137949
 20
-9.0281401419904768
 30
0.0
 10
-34.14972514134854
 20
-9.0414782358509456
 30
0.0
 10
-33.963202148159837
 20
-9.0471942255938274
 30
0.0
 10
-33.593192685630036
 20
-9.0589547857153576
 30
0.0
 10
-33.146566471015433
 20
-9.0774757545213163
 30
0.0
 10
-33.065791816732542
 20
-9.0808253672474279
 30
0.0
 10
-32.991926174004249
 20
-9.0840059718608757
 30
0.0
 10
-32.925479499729143
 20
-9.0869461229075341
 30
0.0
 10
-32.905258274584753
 20
-9.087840877339147
 30
0.0
 10
-32.88528156445426
 20
-9.0887333069439364
 30
0.0
 10
-32.872400843887533
 20
-9.0893150744237801
 30
0.0
 10
-32.854116926098563
 20
-9.0901408813899423
 30
0.0
 10
-32.836679663738948
 20
-9.0909424355724866
 30
0.0
 10
-32.820167703383447
 20
-9.0917121641978298
 30
0.0
 10
-32.787205986680142
 20
-9.0932487217198172
 30
0.0
 10
-32.753226803958341
 20
-9.0948777768869604
 30
0.0
 10
-32.718241708836842
 20
-9.0966063819626584
 30
0.0
 10
-32.659410887494658
 20
-9.0995131985949342
 30
0.0
 10
-32.594855711540447
 20
-9.1028438039855644
 30
0.0
 10
-32.525059155586632
 20
-9.1066521434042613
 30
0.0
 10
-32.496416304202647
 20
-9.1082149955894351
 30
0.0
 10
-32.466042318642252
 20
-9.1099045974287378
 30
0.0
 10
-32.434071386406259
 20
-9.111724933260831
 30
0.0
 10
-32.404248617980052
 20
-9.113422958628945
 30
0.0
 10
-32.376301751444863
 20
-9.1150453171118784
 30
0.0
 10
-32.346935858471262
 20
-9.1167971413002959
 30
0.0
 10
-32.24557870648394
 20
-9.1228436085634854
 30
0.0
 10
-32.139257354105141
 20
-9.1297308617417485
 30
0.0
 10
-32.037569718831051
 20
-9.137311705119771
 30
0.0
 10
-31.928164438748649
 20
-9.1454679012078941
 30
0.0
 10
-31.850090623875051
 20
-9.1524900192147953
 30
0.0
 10
-31.79523759475525
 20
-9.1579222309201356
 30
0.0
 10
-31.739211308688649
 20
-9.1634706327469928
 30
0.0
 10
-31.676564091192049
 20
-9.1704173568470537
 30
0.0
 10
-31.62355643095815
 20
-9.1783127974877345
 30
0.0
 10
-31.584379406361549
 20
-9.184148178087753
 30
0.0
 10
-31.548070001675239
 20
-9.1908570499387565
 30
0.0
 10
-31.525069724070349
 20
-9.1981620192499349
 30
0.0
 10
-31.509148327367541
 20
-9.2032187110126245
 30
0.0
 10
-31.50000000002635
 20
-9.2084380196993436
 30
0.0
 10
-31.500000000026251
 20
-9.2137535926567296
 30
0.0
 11
-41.500000000000142
 21
-9.0463115110025853
 31
0.0
 11
-41.493410469770325
 21
-9.039376456937692
 31
0.0
 11
-41.473853138421127
 21
-9.032670744989332
 31
0.0
 11
-41.448628818372882
 21
-9.0274192539108924
 31
0.0
 11
-41.41523128010293
 21
-9.0223702264946546
 31
0.0
 11
-41.373835826306127
 21
-9.0175450556232306
 31
0.0
 11
-41.3294696258165
 21
-9.0133758885659301
 31
0.0
 11
-41.272514739665731
 21
-9.0089669928304072
 31
0.0
 11
-41.20083665811876
 21
-9.0043885292584207
 31
0.0
 11
-41.086873970529417
 21
-8.9985122058231326
 31
0.0
 11
-40.956444766268653
 21
-8.9931193254715538
 31
0.0
 11
-40.885743625689862
 21
-8.9906016494708094
 31
0.0
 11
-40.809067461523853
 21
-8.9881142114122099
 31
0.0
 11
-40.789677093905567
 21
-8.9875196213798638
 31
0.0
 11
-40.769751361255459
 21
-8.986921744961009
 31
0.0
 11
-40.75007484007164
 21
-8.9863438040154495
 31
0.0
 11
-40.729475060311053
 21
-8.9857531377641635
 31
0.0
 11
-40.688298597404142
 21
-8.9846333218705361
 31
0.0
 11
-40.645934917576056
 21
-8.9835598362109579
 31
0.0
 11
-40.55856192472141
 21
-8.9815614000364548
 31
0.0
 11
-40.467201074587848
 21
-8.9797259196911909
 31
0.0
 11
-40.420213716601992
 21
-8.9788639213612758
 31
0.0
 11
-40.372239688590952
 21
-8.978031970174726
 31
0.0
 11
-40.347951506358847
 21
-8.9776273018530617
 31
0.0
 11
-40.323419824548147
 21
-8.9772288282875081
 31
0.0
 11
-40.298684210783634
 21
-8.9768365967318022
 31
0.0
 11
-40.273726681930157
 21
-8.9764512672793586
 31
0.0
 11
-40.067719831212024
 21
-8.9736935042235348
 31
0.0
 11
-39.845014257162347
 21
-8.9714527305143008
 31
0.0
 11
-39.744213469679487
 21
-8.9706561756787
 31
0.0
 11
-39.62950112787513
 21
-8.9698981912498041
 31
0.0
 11
-39.500806783453115
 21
-8.9692225968792201
 31
0.0
 11
-39.358059988117212
 21
-8.968673212218544
 31
0.0
 11
-39.201190293571258
 21
-8.9682938569193844
 31
0.0
 11
-39.030127251519033
 21
-8.9681283506333447
 31
0.0
 11
-38.844800413664359
 21
-8.9682205130120281
 31
0.0
 11
-38.725093772722062
 21
-8.9684212128441327
 31
0.0
 11
-38.592550590015456
 21
-8.9687663570159479
 31
0.0
 11
-38.447453560902474
 21
-8.9692861702837128
 31
0.0
 11
-38.290085380741033
 21
-8.9700108774036664
 31
0.0
 11
-38.163073997809654
 21
-8.9707136659533919
 31
0.0
 11
-38.046315021349429
 21
-8.9714498129498725
 31
0.0
 11
-37.941153646029363
 21
-8.9721851197279054
 31
0.0
 11
-37.848935066518493
 21
-8.9728853876222932
 31
0.0
 11
-37.77100447748581
 21
-8.9735164179678328
 31
0.0
 11
-37.708707073600351
 21
-8.974044012099327
 31
0.0
 11
-37.409788457295818
 21
-8.9768351910122224
 31
0.0
 11
-37.109308631959038
 21
-8.9802299727535626
 31
0.0
 11
-37.060261233148964
 21
-8.9808542050970352
 31
0.0
 11
-37.012126640862419
 21
-8.9814881882873561
 31
0.0
 11
-36.957812723578343
 21
-8.9822206492535486
 31
0.0
 11
-36.881205690970972
 21
-8.9832710228780925
 31
0.0
 11
-36.805672689202247
 21
-8.9843278678438594
 31
0.0
 11
-36.650461579322474
 21
-8.9865694844894328
 31
0.0
 11
-36.499982002840447
 21
-8.9888389918052383
 31
0.0
 11
-36.299393298751475
 21
-8.9920252291587595
 31
0.0
 11
-36.114144233410698
 21
-8.9951456009861825
 31
0.0
 11
-35.943597983304855
 21
-8.9981825929492611
 31
0.0
 11
-35.787117724920684
 21
-9.0011186907097418
 31
0.0
 11
-35.644066634744931
 21
-9.0039363799293781
 31
0.0
 11
-35.513807889264328
 21
-9.0066181462699184
 31
0.0
 11
-35.395704664965614
 21
-9.0091464753931128
 31
0.0
 11
-35.289120138335527
 21
-9.0115038529607148
 31
0.0
 11
-35.130237117343782
 21
-9.0151463256619913
 31
0.0
 11
-34.956415482955705
 21
-9.0193169262455708
 31
0.0
 11
-34.769554351666727
 21
-9.0240255361338502
 31
0.0
 11
-34.571552839972263
 21
-9.0292820367492368
 31
0.0
 11
-34.364310064367729
 21
-9.0350963095141346
 31
0.0
 11
-34.14972514134854
 21
-9.0414782358509456
 31
0.0
 11
-34.071386820568925
 21
-9.0439064693627174
 31
0.0
 11
-33.977099022787691
 21
-9.0469097700776313
 31
0.0
 11
-33.868114127503908
 21
-9.0504965267258353
 31
0.0
 11
-33.745684514216698
 21
-9.0546751280374771
 31
0.0
 11
-33.611062562425147
 21
-9.0594539627426993
 31
0.0
 11
-33.465500651628354
 21
-9.0648414195716498
 31
0.0
 11
-33.310251161325418
 21
-9.0708458872544728
 31
0.0
 11
-33.146566471015433
 21
-9.0774757545213163
 31
0.0
 11
-33.030649992869357
 21
-9.0823644868442184
 31
0.0
 11
-32.925479499729143
 21
-9.0869461229075341
 31
0.0
 11
-32.896187482591714
 21
-9.0882479687725706
 31
0.0
 11
-32.872400843887533
 21
-9.0893150744237801
 31
0.0
 11
-32.845619789597933
 21
-9.0905346486886103
 31
0.0
 11
-32.820167703383447
 21
-9.0917121641978298
 31
0.0
 11
-32.769963473016972
 21
-9.0940872552476026
 31
0.0
 11
-32.718241708836842
 21
-9.0966063819626584
 31
0.0
 11
-32.625762582691095
 21
-9.1012911916385519
 31
0.0
 11
-32.525059155586632
 21
-9.1066521434042613
 31
0.0
 11
-32.480813301315933
 21
-9.1090919819649496
 31
0.0
 11
-32.434071386406259
 21
-9.111724933260831
 31
0.0
 11
-32.390332294144038
 21
-9.1142408627229496
 31
0.0
 11
-32.346935858471262
 21
-9.1167971413002959
 31
0.0
 11
-32.192376719883697
 21
-9.1264790321669711
 31
0.0
 11
-32.037569718831051
 21
-9.137311705119771
 31
0.0
 11
-31.961263679129413
 21
-9.143209090229691
 31
0.0
 11
-31.895946562682177
 21
-9.1486384621634969
 31
0.0
 11
-31.840857993290417
 21
-9.1535570870255292
 31
0.0
 11
-31.79523759475525
 21
-9.1579222309201356
 31
0.0
 11
-31.708265028169439
 21
-9.1672373746487512
 31
0.0
 11
-31.62355643095815
 21
-9.1783127974877345
 31
0.0
 11
-31.585722002152799
 21
-9.1844290679939782
 31
0.0
 11
-31.552119654881224
 21
-9.1910660229362531
 31
0.0
 11
-31.525069724070349
 21
-9.1981620192499349
 31
0.0
 11
-31.50656433828479
 21
-9.2058607255053211
 31
0.0
 11
-31.500000000026251
 21
-9.2137535926567296
 31
0.0
  0
SPLINE
  5
A1
100
AcDbEntity
  8
0
  6
CONTINUOUS
 62
             7
100
AcDbSpline
210
0.0
220
0.0
230
1.0
 70
             0
 71
             3
 72
            11
 73
             7
 74
             5
 42
0.00000000001
 43
0.00000000001
 44
0.00000000001
 40
0.0011989591184277
 40
0.0011989591184277
 40
0.0011989591184277
 40
0.0011989591184277
 40
0.0882404229875098
 40
0.0882404229875098
 40
0.0882404229875098
 40
0.1708590214321162
 40
0.1708590214321162
 40
0.1708590214321162
 40
0.1708590214321162
 10
-68.000000140752633
 20
-9.3038190393817786
 30
0.0
 10
-68.010078050658052
 20
-9.3265955319779721
 30
0.0
 10
-68.020280594806337
 20
-9.3543104898377294
 30
0.0
 10
-68.027852252862147
 20
-9.3861875116435272
 30
0.0
 10
-68.03419197686145
 20
-9.4128780355261341
 30
0.0
 10
-68.038143127755944
 20
-9.4401966685227023
 30
0.0
 10
-68.039440440924437
 20
-9.4678986849053786
 30
0.0
 11
-68.000000140752633
 21
-9.3038190393817786
 31
0.0
 11
-68.014866041250997
 21
-9.3415905770590513
 31
0.0
 11
-68.027852252862147
 21
-9.3861875116435272
 31
0.0
 11
-68.035537250954846
 21
-9.4266637885869287
 31
0.0
 11
-68.039440440924437
 21
-9.4678986849053786
 31
0.0
  0
SPLINE
  5
A0
100
AcDbEntity
  8
0
  6
CONTINUOUS
 62
             7
100
AcDbSpline
210
0.0
220
0.0
230
1.0
 70
             0
 71
             3
 72
            11
 73
             7
 74
             5
 42
0.00000000001
 43
0.00000000001
 44
0.00000000001
 40
0.0419587402701112
 40
0.0419587402701112
 40
0.0419587402701112
 40
0.0419587402701112
 40
0.1030751190178642
 40
0.1030751190178642
 40
0.1030751190178642
 40
0.162055425173695
 40
0.162055425173695
 40
0.162055425173695
 40
0.162055425173695
 10
77.999999999999801
 20
-8.968124672239739
 30
0.0
 10
77.99302972245161
 20
-8.9898062581405895
 30
0.0
 10
77.98833099958928
 20
-9.0097471380371559
 30
0.0
 10
77.985131254238141
 20
-9.0273707641501346
 30
0.0
 10
77.981243013228848
 20
-9.0487865014245443
 30
0.0
 10
77.979266415191447
 20
-9.0684433578075243
 30
0.0
 10
77.978447125234737
 20
-9.0859383606048851
 30
0.0
 11
77.999999999999801
 21
-8.968124672239739
 31
0.0
 11
77.991151677545076
 21
-8.9992694531153887
 31
0.0
 11
77.985131254238141
 21
-9.0273707641501346
 31
0.0
 11
77.980638333091719
 21
-9.0581248378064032
 31
0.0
 11
77.978447125234737
 21
-9.0859383606048851
 31
0.0
  0
SPLINE
  5
9F
100
AcDbEntity
  8
0
  6
CONTINUOUS
 62
             7
100
AcDbSpline
210
0.0
220
0.0
230
1.0
 70
             0
 71
             3
 72
           104
 73
           100
 74
           646
 42
0.00000000001
 43
0.00000000001
 44
0.00000000001
 40
0.001177232761516
 40
0.001177232761516
 40
0.001177232761516
 40
0.001177232761516
 40
0.0264656580914258
 40
0.0264656580914258
 40
0.0264656580914258
 40
0.1249130597640304
 40
0.1249130597640304
 40
0.1249130597640304
 40
0.2959790112817737
 40
0.2959790112817737
 40
0.2959790112817737
 40
0.3497918594847054
 40
0.3497918594847054
 40
0.3497918594847054
 40
0.4079422492463989
 40
0.4079422492463989
 40
0.4079422492463989
 40
0.5371293845626974
 40
0.5371293845626974
 40
0.5371293845626974
 40
0.6828854549654126
 40
0.6828854549654126
 40
0.6828854549654126
 40
0.8449504554253329
 40
0.8449504554253329
 40
0.8449504554253329
 40
1.2177214739852329
 40
1.2177214739852329
 40
1.2177214739852329
 40
1.6467773452809349
 40
1.6467773452809349
 40
1.6467773452809349
 40
2.1253082737407278
 40
2.1253082737407278
 40
2.1253082737407278
 40
2.3810690872285249
 40
2.3810690872285249
 40
2.3810690872285249
 40
2.646875913557424
 40
2.646875913557424
 40
2.646875913557424
 40
3.2042380738722041
 40
3.2042380738722041
 40
3.2042380738722041
 40
3.7886089051079068
 40
3.7886089051079068
 40
3.7886089051079068
 40
4.3912866419333687
 40
4.3912866419333687
 40
4.3912866419333687
 40
5.003229971212666
 40
5.003229971212666
 40
5.003229971212666
 40
5.6150868810200834
 40
5.6150868810200834
 40
5.6150868810200834
 40
6.2177247783102656
 40
6.2177247783102656
 40
6.2177247783102656
 40
6.5128609228386978
 40
6.5128609228386978
 40
6.5128609228386978
 40
6.6582453206086862
 40
6.6582453206086862
 40
6.6582453206086862
 40
6.8021670439539559
 40
6.8021670439539559
 40
6.8021670439539559
 40
7.0849474182413514
 40
7.0849474182413514
 40
7.0849474182413514
 40
7.2234064080677438
 40
7.2234064080677438
 40
7.2234064080677438
 40
7.3597168492097262
 40
7.3597168492097262
 40
7.3597168492097262
 40
8.3632642377371127
 40
8.3632642377371127
 40
8.3632642377371127
 40
8.7916826323822388
 40
8.7916826323822388
 40
8.7916826323822388
 40
9.1643132167279191
 40
9.1643132167279191
 40
9.1643132167279191
 40
9.4719065411262982
 40
9.4719065411262982
 40
9.4719065411262982
 40
9.7126254875077827
 40
9.7126254875077827
 40
9.7126254875077827
 40
9.8833344333489688
 40
9.8833344333489688
 40
9.8833344333489688
 40
9.9815013511673865
 40
9.9815013511673865
 40
9.9815013511673865
 40
10.00682861590845
 40
10.00682861590845
 40
10.00682861590845
 40
10.00682861590845
 10
68.000000140752491
 20
-9.3038190393817501
 30
0.0
 10
68.000046775429681
 20
-9.3039244356789368
 30
0.0
 10
68.011612164191817
 20
-9.3035323994057251
 30
0.0
 10
68.025276166185961
 20
-9.3030340688602564
 30
0.0
 10
68.051269607870907
 20
-9.3020860796855658
 30
0.0
 10
68.093682276902257
 20
-9.3004295201592413
 30
0.0
 10
68.123651036147507
 20
-9.299256110402581
 30
0.0
 10
68.168036545123101
 20
-9.2975182209938083
 30
0.0
 10
68.224580532472999
 20
-9.2955014322338343
 30
0.0
 10
68.294600999366168
 20
-9.2929584661023057
 30
0.0
 10
68.311799723481869
 20
-9.2923338519734386
 30
0.0
 10
68.32972751277336
 20
-9.2916808648686668
 30
0.0
 10
68.348378049608556
 20
-9.2909959424873136
 30
0.0
 10
68.367164049215418
 20
-9.2903060453706416
 30
0.0
 10
68.386541881879097
 20
-9.289584810549627
 30
0.0
 10
68.406488429963147
 20
-9.2888392237920243
 30
0.0
 10
68.447188448784118
 20
-9.28731788812334
 30
0.0
 10
68.490251395807078
 20
-9.2856953494643335
 30
0.0
 10
68.535585904563519
 20
-9.2840269895783649
 30
0.0
 10
68.607393909310076
 20
-9.2813843758631975
 30
0.0
 10
68.651212369059536
 20
-9.2798695079277422
 30
0.0
 10
68.68124957499991
 20
-9.2788387334495468
 30
0.0
 10
68.731152896530091
 20
-9.2771262216296009
 30
0.0
 10
68.784904063039761
 20
-9.2752595043547643
 30
0.0
 10
68.843216775936497
 20
-9.2732094312566176
 30
0.0
 10
68.955345375555908
 20
-9.2692673778999222
 30
0.0
 10
69.078841455887357
 20
-9.2648406662606675
 30
0.0
 10
69.215748453130146
 20
-9.2598539791834469
 30
0.0
 10
69.424734663091485
 20
-9.2522418859119568
 30
0.0
 10
69.6064864952438
 20
-9.2454533911889598
 30
0.0
 10
69.644513020406137
 20
-9.2440464038467098
 30
0.0
 10
69.795643528604231
 20
-9.2384545515501202
 30
0.0
 10
69.954650278138658
 20
-9.2329426908659684
 30
0.0
 10
70.12274176272544
 20
-9.2270443027582303
 30
0.0
 10
70.21596443847973
 20
-9.2237730869474177
 30
0.0
 10
70.230594627946388
 20
-9.2232385625318472
 30
0.0
 10
70.3783438300661
 20
-9.2180344825619329
 30
0.0
 10
70.465708205239196
 20
-9.2149573004966499
 30
0.0
 10
70.555034078232751
 20
-9.2118191959691558
 30
0.0
 10
70.643986764886535
 20
-9.2087017462279448
 30
0.0
 10
70.8651059631989
 20
-9.2009523682891086
 30
0.0
 10
71.041385867604106
 20
-9.1948186369534994
 30
0.0
 10
71.201010612766908
 20
-9.1892850606577952
 30
0.0
 10
71.506445436404491
 20
-9.178696809455019
 30
0.0
 10
71.73337963756002
 20
-9.1709199322262123
 30
0.0
 10
71.785034424801168
 20
-9.1691492158483925
 30
0.0
 10
71.828313282376499
 20
-9.1676656247619661
 30
0.0
 10
72.078934844391128
 20
-9.1590711232699391
 30
0.0
 10
72.387362316166616
 20
-9.1486172284085399
 30
0.0
 10
72.643090414907348
 20
-9.1399495353462186
 30
0.0
 10
72.864216651712567
 20
-9.1325240088310693
 30
0.0
 10
72.99895854816188
 20
-9.1280093705391323
 30
0.0
 10
73.105110363060689
 20
-9.1244526664928856
 30
0.0
 10
73.320009162898572
 20
-9.1172601518436664
 30
0.0
 10
73.610476326114977
 20
-9.1076407249474585
 30
0.0
 10
73.826831410791485
 20
-9.1004756743523672
 30
0.0
 10
74.019874995078098
 20
-9.0941226074282042
 30
0.0
 10
74.212787735863031
 20
-9.0878064715937796
 30
0.0
 10
74.292649819951848
 20
-9.0851917154658395
 30
0.0
 10
74.392750256861618
 20
-9.0819201051245244
 30
0.0
 10
74.507766664479519
 20
-9.0781744773076696
 30
0.0
 10
74.590086579807078
 20
-9.0754936444498355
 30
0.0
 10
74.590209329218737
 20
-9.0754941384402628
 30
0.0
 10
74.653074080799456
 20
-9.0734439514500025
 30
0.0
 10
74.701580062604137
 20
-9.071862042186936
 30
0.0
 10
74.749518270265938
 20
-9.0702948261550773
 30
0.0
 10
74.796919110147869
 20
-9.0687460819772951
 30
0.0
 10
74.89326588138546
 20
-9.0655981103089545
 30
0.0
 10
74.987386056469973
 20
-9.0625266663636239
 30
0.0
 10
75.079550335090005
 20
-9.059562974511195
 30
0.0
 10
75.126171865599545
 20
-9.0580637835861637
 30
0.0
 10
75.172288314933681
 20
-9.0565923126376759
 30
0.0
 10
75.217939058409186
 20
-9.0551524565082957
 30
0.0
 10
75.263708168249465
 20
-9.0537088670216264
 30
0.0
 10
75.309128396703656
 20
-9.0522999102692268
 30
0.0
 10
75.354182861063919
 20
-9.0508906960152302
 30
0.0
 10
75.725530166748058
 20
-9.0392756890722126
 30
0.0
 10
76.056970509040298
 20
-9.0285344271248675
 30
0.0
 10
76.35722375446025
 20
-9.019011090020058
 30
0.0
 10
76.470557178993019
 20
-9.0154164164452197
 30
0.0
 10
76.590267350445217
 20
-9.0116483034168198
 30
0.0
 10
76.785433135887217
 20
-9.0056306466787674
 30
0.0
 10
76.921114999336027
 20
-9.001447091257063
 30
0.0
 10
77.045141225435771
 20
-8.9976581185380837
 30
0.0
 10
77.157887335546064
 20
-8.9941667267836181
 30
0.0
 10
77.356080755724747
 20
-8.9880293010904069
 30
0.0
 10
77.405801802427007
 20
-8.9863212148977851
 30
0.0
 10
77.465326824454792
 20
-8.9844404620787941
 30
0.0
 10
77.557164868065641
 20
-8.9815387469088108
 30
0.0
 10
77.63718407005031
 20
-8.9792051928278909
 30
0.0
 10
77.705934150950029
 20
-8.97711116314143
 30
0.0
 10
77.718696350699375
 20
-8.9767224446877094
 30
0.0
 10
77.774655166027998
 20
-8.9750040101176012
 30
0.0
 10
77.876563267125078
 20
-8.9718911160836399
 30
0.0
 10
77.921475718997598
 20
-8.9705192162839182
 30
0.0
 10
77.954243952548211
 20
-8.9695194987361901
 30
0.0
 10
77.974684492875369
 20
-8.968896318723921
 30
0.0
 10
77.983122993637707
 20
-8.9686390503286475
 30
0.0
 10
77.991561496012537
 20
-8.9683818348339059
 30
0.0
 10
77.999999999999801
 20
-8.968124672239739
 30
0.0
 11
68.000000140752491
 21
-9.3038190393817501
 31
0.0
 11
68.000211089796551
 21
-9.3038347094731151
 31
0.0
 11
68.000805262315126
 21
-9.3038337874339803
 31
0.0
 11
68.001756931933571
 21
-9.3038173414617962
 31
0.0
 11
68.003040372277184
 21
-9.3037864397540062
 31
0.0
 11
68.004629856971363
 21
-9.3037421505080573
 31
0.0
 11
68.006499659641449
 21
-9.3036855419213964
 31
0.0
 11
68.008624053912769
 21
-9.3036176821914687
 31
0.0
 11
68.010977313410663
 21
-9.3035396395157157
 31
0.0
 11
68.013533711760473
 21
-9.303452482091588
 31
0.0
 11
68.016267522587583
 21
-9.3033572781165361
 31
0.0
 11
68.01915301951729
 21
-9.3032550957879963
 31
0.0
 11
68.022164476174993
 21
-9.3031470033034243
 31
0.0
 11
68.025276166185961
 21
-9.3030340688602564
 31
0.0
 11
68.030685225513608
 21
-9.3028353765228875
 31
0.0
 11
68.036480818660038
 21
-9.3026199075896923
 31
0.0
 11
68.042611633381441
 21
-9.3023897806742166
 31
0.0
 11
68.049026357434045
 21
-9.3021471143900101
 31
0.0
 11
68.055673678574067
 21
-9.3018940273506256
 31
0.0
 11
68.062502284557681
 21
-9.3016326381696057
 31
0.0
 11
68.069460863141146
 21
-9.3013650654605051
 31
0.0
 11
68.076498102080635
 21
-9.3010934278368698
 31
0.0
 11
68.083562689132378
 21
-9.3008198439122509
 31
0.0
 11
68.090603312052522
 21
-9.300546432300191
 31
0.0
 11
68.097568658597396
 21
-9.30027531161425
 31
0.0
 11
68.104407416523074
 21
-9.3000086004679652
 31
0.0
 11
68.111068273585886
 21
-9.2997484174748966
 31
0.0
 11
68.117499917541963
 21
-9.2994968812485865
 31
0.0
 11
68.123651036147507
 21
-9.299256110402581
 31
0.0
 11
68.133348796122192
 21
-9.2988793465457569
 31
0.0
 11
68.143421636341216
 21
-9.2984935042583103
 31
0.0
 11
68.153872438731327
 21
-9.2980980428448632
 31
0.0
 11
68.16470408521927
 21
-9.2976924216100354
 31
0.0
 11
68.175919457731823
 21
-9.2972760998584487
 31
0.0
 11
68.187521438195731
 21
-9.2968485368947231
 31
0.0
 11
68.199512908537727
 21
-9.296409192023475
 31
0.0
 11
68.211896750684616
 21
-9.2959575245493316
 31
0.0
 11
68.224675846563102
 21
-9.2954929937769073
 31
0.0
 11
68.23785307809996
 21
-9.295015059010824
 31
0.0
 11
68.251431327221923
 21
-9.2945231795557
 31
0.0
 11
68.265413475855809
 21
-9.2940168147161621
 31
0.0
 11
68.279802405928294
 21
-9.2934954237968235
 31
0.0
 11
68.294600999366168
 21
-9.2929584661023057
 31
0.0
 11
68.307636643460413
 21
-9.2924846299117263
 31
0.0
 11
68.320945094717544
 21
-9.291999819889492
 31
0.0
 11
68.334525760859606
 21
-9.2915037020699174
 31
0.0
 11
68.348378049608556
 21
-9.2909959424873136
 31
0.0
 11
68.367360470692276
 21
-9.2902958582013326
 31
0.0
 11
68.38673230989464
 21
-9.2895764345052925
 31
0.0
 11
68.406488429963147
 21
-9.2888392237920243
 31
0.0
 11
68.427034927064227
 21
-9.2880703787722076
 31
0.0
 11
68.447972707574834
 21
-9.2872862049696536
 31
0.0
 11
68.469299233537527
 21
-9.2864882407666762
 31
0.0
 11
68.491011966994847
 21
-9.2856780245455912
 31
0.0
 11
68.51310836998934
 21
-9.2848570946887161
 31
0.0
 11
68.535585904563519
 21
-9.2840269895783649
 31
0.0
 11
68.54614895972442
 21
-9.2836389751578974
 31
0.0
 11
68.556302827928761
 21
-9.2832673941848842
 31
0.0
 11
68.566058165394921
 21
-9.2829117639200831
 31
0.0
 11
68.575425628341307
 21
-9.2825716016242499
 31
0.0
 11
68.584415872986298
 21
-9.2822464245581475
 31
0.0
 11
68.593039555548287
 21
-9.2819357499825301
 31
0.0
 11
68.601307332245653
 21
-9.2816390951581589
 31
0.0
 11
68.609229859296818
 21
-9.2813559773457897
 31
0.0
 11
68.616817792920145
 21
-9.2810859138061801
 31
0.0
 11
68.624081789334028
 21
-9.2808284218000914
 31
0.0
 11
68.631032504756888
 21
-9.2805830185882794
 31
0.0
 11
68.637680595407062
 21
-9.2803492214315035
 31
0.0
 11
68.644036717502985
 21
-9.2801265475905197
 31
0.0
 11
68.65011152726305
 21
-9.2799145143260908
 31
0.0
 11
68.655915680905608
 21
-9.2797126388989675
 31
0.0
 11
68.661459834649094
 21
-9.2795204385699144
 31
0.0
 11
68.666754644711872
 21
-9.2793374305996892
 31
0.0
 11
68.671810767312337
 21
-9.279163132249046
 31
0.0
 11
68.676638858668895
 21
-9.2789970607787478
 31
0.0
 11
68.68124957499991
 21
-9.2788387334495468
 31
0.0
 11
68.700145082255204
 21
-9.2781892562020563
 31
0.0
 11
68.719409688665692
 21
-9.2775249805872892
 31
0.0
 11
68.739051757919739
 21
-9.2768455649993644
 31
0.0
 11
68.759079653705754
 21
-9.2761506678324075
 31
0.0
 11
68.779501739712046
 21
-9.2754399474805336
 31
0.0
 11
68.800326379627023
 21
-9.2747130623378631
 31
0.0
 11
68.821561937139052
 21
-9.2739696707985182
 31
0.0
 11
68.843216775936497
 21
-9.2732094312566176
 31
0.0
 11
68.867419069742013
 21
-9.272357259850363
 31
0.0
 11
68.891973815805912
 21
-9.2714900872784138
 31
0.0
 11
68.916885482283121
 21
-9.2706077488531129
 31
0.0
 11
68.942158537328652
 21
-9.2697100798868011
 31
0.0
 11
68.967797449097432
 21
-9.2687969156918211
 31
0.0
 11
68.993806685744417
 21
-9.2678680915805174
 31
0.0
 11
69.020190715424562
 21
-9.2669234428652292
 31
0.0
 11
69.046954006292808
 21
-9.2659628048583009
 31
0.0
 11
69.074101026504124
 21
-9.2649860128720736
 31
0.0
 11
69.101636244213466
 21
-9.2639929022188898
 31
0.0
 11
69.12956412757579
 21
-9.2629833082110942
 31
0.0
 11
69.157889144746022
 21
-9.2619570661610258
 31
0.0
 11
69.186615763879161
 21
-9.2609140113810291
 31
0.0
 11
69.215748453130146
 21
-9.2598539791834469
 31
0.0
 11
69.229953943347255
 21
-9.2593363025680766
 31
0.0
 11
69.244066824373519
 21
-9.2588214994673326
 31
0.0
 11
69.258078891081425
 21
-9.2583098909209998
 31
0.0
 11
69.271981938343572
 21
-9.2578017979688578
 31
0.0
 11
69.285767761032574
 21
-9.2572975416506935
 31
0.0
 11
69.29942815402093
 21
-9.2567974430062918
 31
0.0
 11
69.312954912181254
 21
-9.2563018230754377
 31
0.0
 11
69.326339830386118
 21
-9.2558110028979144
 31
0.0
 11
69.339574703508063
 21
-9.2553253035135068
 31
0.0
 11
69.352651326419675
 21
-9.254845045962
 31
0.0
 11
69.365561493993525
 21
-9.2543705512831771
 31
0.0
 11
69.37829700110214
 21
-9.2539021405168214
 31
0.0
 11
69.39084964261815
 21
-9.2534401347027195
 31
0.0
 11
69.40321121341411
 21
-9.2529848548806548
 31
0.0
 11
69.415373508362563
 21
-9.2525366220904139
 31
0.0
 11
69.427328322336095
 21
-9.2520957573717748
 31
0.0
 11
69.439067450207261
 21
-9.2516625817645295
 31
0.0
 11
69.450582686848662
 21
-9.2512374163084594
 31
0.0
 11
69.461865827132854
 21
-9.2508205820433478
 31
0.0
 11
69.47290866593238
 21
-9.2504124000089796
 31
0.0
 11
69.48370299811981
 21
-9.2500131912451398
 31
0.0
 11
69.494240618567773
 21
-9.2496232767916133
 31
0.0
 11
69.504513322148767
 21
-9.2492429776881835
 31
0.0
 11
69.51451290373538
 21
-9.2488726149746316
 31
0.0
 11
69.524231158200223
 21
-9.2485125096907517
 31
0.0
 11
69.533659880415811
 21
-9.2481629828763197
 31
0.0
 11
69.54279086525473
 21
-9.2478243555711188
 31
0.0
 11
69.551615907589579
 21
-9.247496948814943
 31
0.0
 11
69.560126802292885
 21
-9.2471810836475665
 31
0.0
 11
69.56831534423722
 21
-9.2468770811087762
 31
0.0
 11
69.576173328295198
 21
-9.2465852622383622
 31
0.0
 11
69.583692549339332
 21
-9.2463059480761025
 31
0.0
 11
69.590864802242208
 21
-9.2460394596617803
 31
0.0
 11
69.597681881876412
 21
-9.2457861180351877
 31
0.0
 11
69.604135583114527
 21
-9.245546244236106
 31
0.0
 11
69.610217700829068
 21
-9.2453201593043168
 31
0.0
 11
69.615920029892635
 21
-9.245108184279605
 31
0.0
 11
69.621234365177813
 21
-9.2449106402017556
 31
0.0
 11
69.626152501557115
 21
-9.2447278481105535
 31
0.0
 11
69.630666233903185
 21
-9.2445601290457837
 31
0.0
 11
69.634767357088549
 21
-9.2444078040472313
 31
0.0
 11
69.638447665985794
 21
-9.2442711941546776
 31
0.0
 11
69.641698955467447
 21
-9.2441506204079076
 31
0.0
 11
69.644513020406137
 21
-9.2440464038467098
 31
0.0
 11
69.685926618402902
 21
-9.2425229859808287
 31
0.0
 11
69.727736221576635
 21
-9.2410014316252447
 31
0.0
 11
69.769947277682576
 21
-9.2394796377640169
 31
0.0
 11
69.81256523447604
 21
-9.2379555013812062
 31
0.0
 11
69.855595539712311
 21
-9.2364269194608717
 31
0.0
 11
69.89904364114669
 21
-9.2348917889870723
 31
0.0
 11
69.942914986534461
 21
-9.2333480069438707
 31
0.0
 11
69.98721502363091
 21
-9.2317934703153242
 31
0.0
 11
70.031949200191377
 21
-9.2302260760854971
 31
0.0
 11
70.077122963971121
 21
-9.2286437212384449
 31
0.0
 11
70.12274176272544
 21
-9.2270443027582303
 31
0.0
 11
70.129269722156366
 21
-9.2268151987575564
 31
0.0
 11
70.135547505613445
 21
-9.2265948034377718
 31
0.0
 11
70.14159225850473
 21
-9.2263825170056393
 31
0.0
 11
70.147421126238342
 21
-9.2261777396679161
 31
0.0
 11
70.153051254222305
 21
-9.2259798716313561
 31
0.0
 11
70.158499787864741
 21
-9.2257883131027238
 31
0.0
 11
70.163783872573717
 21
-9.2256024642887731
 31
0.0
 11
70.168920653757297
 21
-9.2254217253962629
 31
0.0
 11
70.173927276823562
 21
-9.2252454966319508
 31
0.0
 11
70.178820887180592
 21
-9.2250731782025976
 31
0.0
 11
70.183618630236467
 21
-9.2249041703149608
 31
0.0
 11
70.18833765139928
 21
-9.2247378731757959
 31
0.0
 11
70.19299509607707
 21
-9.2245736869918638
 31
0.0
 11
70.197608109677958
 21
-9.2244110119699201
 31
0.0
 11
70.202193837609997
 21
-9.2242492483167275
 31
0.0
 11
70.206769425281237
 21
-9.22408779623904
 31
0.0
 11
70.211352018099817
 21
-9.2239260559436183
 31
0.0
 11
70.215958761473772
 21
-9.2237634276372198
 31
0.0
 11
70.220606800811197
 21
-9.223599311526602
 31
0.0
 11
70.225313281520158
 21
-9.2234331078185239
 31
0.0
 11
70.230095349008735
 21
-9.2232642167197447
 31
0.0
 11
70.234970148685022
 21
-9.2230920384370201
 31
0.0
 11
70.239954825957057
 21
-9.2229159731771091
 31
0.0
 11
70.245066526232961
 21
-9.2227354211467727
 31
0.0
 11
70.250322394920786
 21
-9.2225497825527647
 31
0.0
 11
70.255739577428628
 21
-9.222358457601846
 31
0.0
 11
70.26133521916455
 21
-9.2221608465007758
 31
0.0
 11
70.26712646553662
 21
-9.2219563494563079
 31
0.0
 11
70.27313046195296
 21
-9.2217443666752068
 31
0.0
 11
70.279364353821592
 21
-9.2215242983642263
 31
0.0
 11
70.285845286550639
 21
-9.2212955447301255
 31
0.0
 11
70.292590405548125
 21
-9.2210575059796618
 31
0.0
 11
70.299616856222187
 21
-9.2208095823195961
 31
0.0
 11
70.306941783980847
 21
-9.2205511739566823
 31
0.0
 11
70.314582334232227
 21
-9.2202816810976849
 31
0.0
 11
70.322555652384409
 21
-9.2200005039493558
 31
0.0
 11
70.330878883845429
 21
-9.2197070427184578
 31
0.0
 11
70.339569174023381
 21
-9.2194006976117446
 31
0.0
 11
70.348643668326346
 21
-9.2190808688359773
 31
0.0
 11
70.358119512162418
 21
-9.218746956597915
 31
0.0
 11
70.368013850939633
 21
-9.218398361104315
 31
0.0
 11
70.3783438300661
 21
-9.2180344825619329
 31
0.0
 11
70.422178667081383
 21
-9.2164911923298884
 31
0.0
 11
70.466275568062315
 21
-9.2149400143888194
 31
0.0
 11
70.510569680671068
 21
-9.2133832147734118
 31
0.0
 11
70.554996152569871
 21
-9.211823059518343
 31
0.0
 11
70.599490131420978
 21
-9.2102618146582955
 31
0.0
 11
70.643986764886535
 21
-9.2087017462279448
 31
0.0
 11
70.670307643857882
 21
-9.2077795109875211
 31
0.0
 11
70.696208888315425
 21
-9.2068723960057266
 31
0.0
 11
70.721701320966915
 21
-9.2059800113338035
 31
0.0
 11
70.746795764519987
 21
-9.205101967022987
 31
0.0
 11
70.771503041682422
 21
-9.2042378731245247
 31
0.0
 11
70.795833975161884
 21
-9.2033873396896499
 31
0.0
 11
70.819799387666109
 21
-9.2025499767696015
 31
0.0
 11
70.843410101902819
 21
-9.201725394415627
 31
0.0
 11
70.866676940579708
 21
-9.200913202678958
 31
0.0
 11
70.889610726404484
 21
-9.2001130116108403
 31
0.0
 11
70.912222282084855
 21
-9.1993244312625038
 31
0.0
 11
70.93452243032857
 21
-9.1985470716852014
 31
0.0
 11
70.956521993843296
 21
-9.1977805429301647
 31
0.0
 11
70.97823179533674
 21
-9.1970244550486306
 31
0.0
 11
70.999662657516637
 21
-9.1962784180918451
 31
0.0
 11
71.020825403090711
 21
-9.1955420421110503
 31
0.0
 11
71.041730854766641
 21
-9.1948149371574761
 31
0.0
 11
71.062389835252176
 21
-9.1940967132823701
 31
0.0
 11
71.082813167254997
 21
-9.193386980536971
 31
0.0
 11
71.103011673482825
 21
-9.1926853489725122
 31
0.0
 11
71.122996176643369
 21
-9.1919914286402413
 31
0.0
 11
71.142777499444321
 21
-9.1913048295913935
 31
0.0
 11
71.162366464593447
 21
-9.190625161877211
 31
0.0
 11
71.181773894798397
 21
-9.1899520355489326
 31
0.0
 11
71.201010612766908
 21
-9.1892850606577952
 31
0.0
 11
71.219997199794477
 21
-9.1886269844888631
 31
0.0
 11
71.238774107532223
 21
-9.1879764029346038
 31
0.0
 11
71.257336085394613
 21
-9.1873334893232972
 31
0.0
 11
71.275677882796217
 21
-9.1866984169832229
 31
0.0
 11
71.293794249151546
 21
-9.1860713592426659
 31
0.0
 11
71.311679933875155
 21
-9.1854524894299026
 31
0.0
 11
71.329329686381499
 21
-9.184841980873216
 31
0.0
 11
71.346738256085189
 21
-9.1842400069008896
 31
0.0
 11
71.363900392400723
 21
-9.183646740841203
 31
0.0
 11
71.380810844742598
 21
-9.1830623560224343
 31
0.0
 11
71.397464362525383
 21
-9.1824870257728683
 31
0.0
 11
71.413855695163576
 21
-9.181920923420785
 31
0.0
 11
71.429979592071732
 21
-9.1813642222944658
 31
0.0
 11
71.445830802664361
 21
-9.1808170957221922
 31
0.0
 11
71.461404076355976
 21
-9.1802797170322403
 31
0.0
 11
71.476694162561131
 21
-9.1797522595528989
 31
0.0
 11
71.491695810694324
 21
-9.1792348966124422
 31
0.0
 11
71.506403770170124
 21
-9.1787278015391589
 31
0.0
 11
71.520812790403042
 21
-9.1782311476613234
 31
0.0
 11
71.534917620807576
 21
-9.1777451083072172
 31
0.0
 11
71.548713010798295
 21
-9.1772698568051254
 31
0.0
 11
71.56219370978971
 21
-9.1768055664833277
 31
0.0
 11
71.57535446719632
 21
-9.1763524106701038
 31
0.0
 11
71.588190032432706
 21
-9.1759105626937369
 31
0.0
 11
71.600695154913353
 21
-9.1754801958825034
 31
0.0
 11
71.612864584052787
 21
-9.1750614835646864
 31
0.0
 11
71.624693069265589
 21
-9.1746545990685746
 31
0.0
 11
71.636175359966245
 21
-9.1742597157224388
 31
0.0
 11
71.647306205569251
 21
-9.1738770068545641
 31
0.0
 11
71.658080355489176
 21
-9.1735066457932319
 31
0.0
 11
71.66849255914056
 21
-9.1731488058667221
 31
0.0
 11
71.678537565937916
 21
-9.1728036604033214
 31
0.0
 11
71.68821012529574
 21
-9.1724713827312989
 31
0.0
 11
71.697504986628587
 21
-9.1721521461789433
 31
0.0
 11
71.706416899351012
 21
-9.1718461240745413
 31
0.0
 11
71.714940612877498
 21
-9.1715534897463655
 31
0.0
 11
71.723070876622572
 21
-9.1712744165226958
 31
0.0
 11
71.730802440000787
 21
-9.1710090777318207
 31
0.0
 11
71.738130052426669
 21
-9.1707576467020147
 31
0.0
 11
71.745048463314731
 21
-9.1705202967615662
 31
0.0
 11
71.751552422079499
 21
-9.1702972012387463
 31
0.0
 11
71.757636678135526
 21
-9.1700885334618469
 31
0.0
 11
71.763295980897283
 21
-9.1698944667591391
 31
0.0
 11
71.76852507977938
 21
-9.1697151744589114
 31
0.0
 11
71.773318724196258
 21
-9.1695508298894399
 31
0.0
 11
71.777671663562529
 21
-9.1694016063790116
 31
0.0
 11
71.781578647292633
 21
-9.169267677255899
 31
0.0
 11
71.785034424801168
 21
-9.1691492158483925
 31
0.0
 11
71.787760258450376
 21
-9.169055772079906
 31
0.0
 11
71.790939791057099
 21
-9.1689467737558878
 31
0.0
 11
71.794566641613372
 21
-9.1688224449681517
 31
0.0
 11
71.798634429111203
 21
-9.1686830098085199
 31
0.0
 11
71.803136772542658
 21
-9.1685286923688061
 31
0.0
 11
71.808067290899729
 21
-9.1683597167408255
 31
0.0
 11
71.813419603174495
 21
-9.1681763070164024
 31
0.0
 11
71.819187328358964
 21
-9.167978687287345
 31
0.0
 11
71.825364085445187
 21
-9.1677670816454757
 31
0.0
 11
71.831943493425172
 21
-9.1675417141826117
 31
0.0
 11
71.838919171290996
 21
-9.1673028089905682
 31
0.0
 11
71.84628473803464
 21
-9.1670505901611641
 31
0.0
 11
71.854033812648197
 21
-9.1667852817862148
 31
0.0
 11
71.862160014123631
 21
-9.1665071079575355
 31
0.0
 11
71.870656961453037
 21
-9.166216292766947
 31
0.0
 11
71.87951827362842
 21
-9.1659130603062664
 31
0.0
 11
71.888737569641819
 21
-9.1655976346673089
 31
0.0
 11
71.898308468485283
 21
-9.1652702399418935
 31
0.0
 11
71.908224589150819
 21
-9.1649311002218337
 31
0.0
 11
71.918479550630465
 21
-9.1645804395989501
 31
0.0
 11
71.929066971916285
 21
-9.1642184821650581
 31
0.0
 11
71.939980472000272
 21
-9.1638454520119783
 31
0.0
 11
71.951213669874491
 21
-9.163461573231519
 31
0.0
 11
71.962760184530978
 21
-9.1630670699155079
 31
0.0
 11
71.974613634961742
 21
-9.162662166155755
 31
0.0
 11
71.986767640158831
 21
-9.162247086044081
 31
0.0
 11
71.999215819114269
 21
-9.1618220536722994
 31
0.0
 11
72.01195179082012
 21
-9.1613872931322309
 31
0.0
 11
72.024969174268378
 21
-9.1609430285156925
 31
0.0
 11
72.038261588451121
 21
-9.1604894839144997
 31
0.0
 11
72.051822652360343
 21
-9.1600268834204677
 31
0.0
 11
72.065645984988095
 21
-9.1595554511254189
 31
0.0
 11
72.079725205326412
 21
-9.1590754111211652
 31
0.0
 11
72.094053932367316
 21
-9.1585869874995254
 31
0.0
 11
72.108625785102859
 21
-9.1580904043523166
 31
0.0
 11
72.123434382525062
 21
-9.1575858857713577
 31
0.0
 11
72.138473343625961
 21
-9.157073655848464
 31
0.0
 11
72.153736287397606
 21
-9.1565539386754509
 31
0.0
 11
72.169216832832007
 21
-9.1560269583441389
 31
0.0
 11
72.184908598921211
 21
-9.1554929389463453
 31
0.0
 11
72.200805204657257
 21
-9.1549521045738835
 31
0.0
 11
72.216900269032152
 21
-9.1544046793185743
 31
0.0
 11
72.233187411037989
 21
-9.1538508872722311
 31
0.0
 11
72.249660249666732
 21
-9.1532909525266746
 31
0.0
 11
72.266312403910476
 21
-9.1527250991737219
 31
0.0
 11
72.283137492761199
 21
-9.1521535513051884
 31
0.0
 11
72.300129135210966
 21
-9.1515765330128893
 31
0.0
 11
72.317280950251828
 21
-9.1509942683886436
 31
0.0
 11
72.334586556875763
 21
-9.1504069815242683
 31
0.0
 11
72.352039574074851
 21
-9.1498148965115806
 31
0.0
 11
72.369633620841128
 21
-9.1492182374423994
 31
0.0
 11
72.387362316166616
 21
-9.1486172284085399
 31
0.0
 11
72.40983544546738
 21
-9.1478556980342596
 31
0.0
 11
72.432121075411715
 21
-9.147100869631938
 31
0.0
 11
72.454211301082267
 21
-9.1463529979423068
 31
0.0
 11
72.476098217561741
 21
-9.1456123377061118
 31
0.0
 11
72.497773919932811
 21
-9.1448791436640917
 31
0.0
 11
72.519230503278123
 21
-9.1441536705569852
 31
0.0
 11
72.540460062680395
 21
-9.1434361731255329
 31
0.0
 11
72.561454693222302
 21
-9.1427269061104806
 31
0.0
 11
72.58220648998649
 21
-9.1420261242525598
 31
0.0
 11
72.602707548055633
 21
-9.1413340822925182
 31
0.0
 11
72.622949962512436
 21
-9.1406510349710928
 31
0.0
 11
72.642925828439559
 21
-9.139977237029024
 31
0.0
 11
72.662627240919647
 21
-9.1393129432070523
 31
0.0
 11
72.68204629503542
 21
-9.1386584082459166
 31
0.0
 11
72.701175085869551
 21
-9.1380138868863607
 31
0.0
 11
72.720005708504701
 21
-9.1373796338691236
 31
0.0
 11
72.738530258023516
 21
-9.1367559039349402
 31
0.0
 11
72.756740829508743
 21
-9.1361429518245618
 31
0.0
 11
72.774629518043014
 21
-9.1355410322787201
 31
0.0
 11
72.79218841870896
 21
-9.1349504000381518
 31
0.0
 11
72.809409626589371
 21
-9.1343713098436119
 31
0.0
 11
72.826285236766807
 21
-9.133804016435823
 31
0.0
 11
72.842807344324015
 21
-9.1332487745555397
 31
0.0
 11
72.858968044343641
 21
-9.1327058389434956
 31
0.0
 11
72.874759431908373
 21
-9.1321754643404311
 31
0.0
 11
72.890173602100859
 21
-9.1316579054870886
 31
0.0
 11
72.905202650003815
 21
-9.1311534171242066
 31
0.0
 11
72.919838670699903
 21
-9.1306622539925257
 31
0.0
 11
72.934073759271811
 21
-9.1301846708327918
 31
0.0
 11
72.947900010802158
 21
-9.129720922385733
 31
0.0
 11
72.961309520373675
 21
-9.1292712633921003
 31
0.0
 11
72.974294383069008
 21
-9.1288359485926271
 31
0.0
 11
72.986846693970847
 21
-9.1284152327280577
 31
0.0
 11
72.99895854816188
 21
-9.1280093705391323
 31
0.0
 11
73.007564278585463
 21
-9.1277210465225345
 31
0.0
 11
73.016618238358021
 21
-9.1274177474471223
 31
0.0
 11
73.026116799550394
 21
-9.1270996055003497
 31
0.0
 11
73.036056334233379
 21
-9.1267667528696759
 31
0.0
 11
73.04643321447783
 21
-9.1264193217425564
 31
0.0
 11
73.057243812354599
 21
-9.1260574443064488
 31
0.0
 11
73.06848449993447
 21
-9.1256812527488123
 31
0.0
 11
73.080151649288325
 21
-9.1252908792570988
 31
0.0
 11
73.092241632486932
 21
-9.1248864560187695
 31
0.0
 11
73.104750821601186
 21
-9.1244681152212763
 31
0.0
 11
73.117675588701871
 21
-9.1240359890520839
 31
0.0
 11
73.131012305859841
 21
-9.1235902096986443
 31
0.0
 11
73.144757345145933
 21
-9.1231309093484132
 31
0.0
 11
73.158907078630961
 21
-9.1226582201888498
 31
0.0
 11
73.173457878385761
 21
-9.1221722744074114
 31
0.0
 11
73.188406116481175
 21
-9.1216732041915503
 31
0.0
 11
73.203748164987999
 21
-9.1211611417287308
 31
0.0
 11
73.219480395977129
 21
-9.1206362192064052
 31
0.0
 11
73.235599181519319
 21
-9.1200985688120291
 31
0.0
 11
73.25210089368548
 21
-9.1195483227330669
 31
0.0
 11
73.268981904546365
 21
-9.1189856131569655
 31
0.0
 11
73.286238586172871
 21
-9.1184105722711912
 31
0.0
 11
73.303867310635752
 21
-9.1178233322631907
 31
0.0
 11
73.321864450005918
 21
-9.1172240253204322
 31
0.0
 11
73.340226376354153
 21
-9.1166127836303623
 31
0.0
 11
73.358949461751322
 21
-9.1159897393804457
 31
0.0
 11
73.37803007826821
 21
-9.1153550247581325
 31
0.0
 11
73.397464597975699
 21
-9.1147087719508875
 31
0.0
 11
73.417249392944569
 21
-9.1140511131461608
 31
0.0
 11
73.43738083524569
 21
-9.1133821805314099
 31
0.0
 11
73.457855296949901
 21
-9.1127021062941012
 31
0.0
 11
73.478669150127985
 21
-9.1120110226216759
 31
0.0
 11
73.499818766850822
 21
-9.1113090617016042
 31
0.0
 11
73.521300519189197
 21
-9.1105963557213361
 31
0.0
 11
73.543110779213976
 21
-9.1098730368683309
 31
0.0
 11
73.56524591899597
 21
-9.1091392373300444
 31
0.0
 11
73.587702310606034
 21
-9.1083950892939356
 31
0.0
 11
73.610476326114977
 21
-9.1076407249474585
 31
0.0
 11
73.64632363440397
 21
-9.106453935319065
 31
0.0
 11
73.681763096653725
 21
-9.1052813850461227
 31
0.0
 11
73.716818561276696
 21
-9.104122276749429
 31
0.0
 11
73.751513876685323
 21
-9.1029758130497846
 31
0.0
 11
73.785872891292016
 21
-9.1018411965679942
 31
0.0
 11
73.819919453509229
 21
-9.1007176299248567
 31
0.0
 11
73.853677411749402
 21
-9.0996043157411712
 31
0.0
 11
73.88717061442496
 21
-9.0985004566377423
 31
0.0
 11
73.920422909948329
 21
-9.097405255235369
 31
0.0
 11
73.953458146732004
 21
-9.0963179141548558
 31
0.0
 11
73.98630017318834
 21
-9.095237636017
 31
0.0
 11
74.01897283772982
 21
-9.094163623442606
 31
0.0
 11
74.051499988768882
 21
-9.0930950790524729
 31
0.0
 11
74.083905474717938
 21
-9.0920312054674035
 31
0.0
 11
74.116213143989455
 21
-9.0909712053081968
 31
0.0
 11
74.148446844995846
 21
-9.0899142811956573
 31
0.0
 11
74.180630426149577
 21
-9.0888596357505858
 31
0.0
 11
74.212787735863031
 21
-9.0878064715937796
 31
0.0
 11
74.227090048201063
 21
-9.087338262700829
 31
0.0
 11
74.241806033996255
 21
-9.0868566399855002
 31
0.0
 11
74.25692919329083
 21
-9.0863618267371145
 31
0.0
 11
74.272453026126968
 21
-9.0858540462449913
 31
0.0
 11
74.288371032546848
 21
-9.0853335217984519
 31
0.0
 11
74.304676712592709
 21
-9.0848004766868122
 31
0.0
 11
74.321363566306729
 21
-9.0842551341993953
 31
0.0
 11
74.33842509373109
 21
-9.0836977176255171
 31
0.0
 11
74.355854794908041
 21
-9.0831284502544989
 31
0.0
 11
74.373646169879748
 21
-9.0825475553756601
 31
0.0
 11
74.391792718688393
 21
-9.0819552562783237
 31
0.0
 11
74.410287941376197
 21
-9.0813517762518039
 31
0.0
 11
74.429125337985354
 21
-9.080737338585422
 31
0.0
 11
74.44829840855806
 21
-9.0801121665684956
 31
0.0
 11
74.467800653136521
 21
-9.0794764834903496
 31
0.0
 11
74.487625571762962
 21
-9.0788305126403035
 31
0.0
 11
74.507766664479519
 21
-9.0781744773076696
 31
0.0
 11
74.515027887818079
 21
-9.0779380201299293
 31
0.0
 11
74.521860433085479
 21
-9.0777155460523105
 31
0.0
 11
74.528288499157767
 21
-9.0775062650242511
 31
0.0
 11
74.534336284911006
 21
-9.0773093869951893
 31
0.0
 11
74.540027989221272
 21
-9.0771241219145669
 31
0.0
 11
74.545387810964556
 21
-9.0769496797318254
 31
0.0
 11
74.550439949016933
 21
-9.0767852703964014
 31
0.0
 11
74.555208602254439
 21
-9.0766301038577382
 31
0.0
 11
74.55971796955312
 21
-9.0764833900652739
 31
0.0
 11
74.563992249789052
 21
-9.0763443389684486
 31
0.0
 11
74.568055641838257
 21
-9.0762121605167021
 31
0.0
 11
74.57193234457678
 21
-9.0760860646594761
 31
0.0
 11
74.57564655688067
 21
-9.0759652613462087
 31
0.0
 11
74.579222477626004
 21
-9.0758489605263435
 31
0.0
 11
74.582684305688772
 21
-9.0757363721493132
 31
0.0
 11
74.58605623994508
 21
-9.0756267061645648
 31
0.0
 11
74.589362479270918
 21
-9.0755191725215347
 31
0.0
 11
74.592627222542376
 21
-9.0754129811696664
 31
0.0
 11
74.595874668635503
 21
-9.0753073420583981
 31
0.0
 11
74.599129016426332
 21
-9.0752014651371677
 31
0.0
 11
74.602414464790911
 21
-9.0750945603554172
 31
0.0
 11
74.605755212605274
 21
-9.0749858376625863
 31
0.0
 11
74.609175458745483
 21
-9.0748745070081167
 31
0.0
 11
74.612699402087586
 21
-9.0747597783414466
 31
0.0
 11
74.616351241507644
 21
-9.0746408616120142
 31
0.0
 11
74.620155175881678
 21
-9.0745169667692629
 31
0.0
 11
74.62413540408572
 21
-9.0743873037626308
 31
0.0
 11
74.628316124995862
 21
-9.0742510825415579
 31
0.0
 11
74.632721537488138
 21
-9.0741075130554876
 31
0.0
 11
74.63737584043858
 21
-9.0739558052538563
 31
0.0
 11
74.642303232723265
 21
-9.0737951690861056
 31
0.0
 11
74.647527913218198
 21
-9.073624814501672
 31
0.0
 11
74.653074080799456
 21
-9.0734439514500025
 31
0.0
 11
74.701391930718103
 21
-9.0718670798796666
 31
0.0
 11
74.749338021511051
 21
-9.0703008434907737
 31
0.0
 11
74.796919110147869
 21
-9.0687460819772951
 31
0.0
 11
74.844908199326539
 21
-9.0671786180106437
 31
0.0
 11
74.892533708582164
 21
-9.0656247760081019
 31
0.0
 11
74.939803157350511
 21
-9.0640854233132782
 31
0.0
 11
74.98672406506742
 21
-9.062561427269781
 31
0.0
 11
75.033303951168648
 21
-9.0610536552212171
 31
0.0
 11
75.079550335090005
 21
-9.059562974511195
 31
0.0
 11
75.126004963552802
 21
-9.0580731678317736
 31
0.0
 11
75.172131621302412
 21
-9.0566027066572836
 31
0.0
 11
75.217939058409186
 21
-9.0551524565082957
 31
0.0
 11
75.263591249168627
 21
-9.0537191190354225
 31
0.0
 11
75.309007100624498
 21
-9.052301116666321
 31
0.0
 11
75.354182861063919
 21
-9.0508906960152302
 31
0.0
 11
75.402393867352501
 21
-9.0493806784731881
 31
0.0
 11
75.450156542766663
 21
-9.0478807408102018
 31
0.0
 11
75.497475187396788
 21
-9.0463910527541529
 31
0.0
 11
75.544354101333127
 21
-9.0449117840329123
 31
0.0
 11
75.590797584666078
 21
-9.0434431043743597
 31
0.0
 11
75.636809937485978
 21
-9.0419851835063731
 31
0.0
 11
75.682395459883125
 21
-9.0405381911568305
 31
0.0
 11
75.727558451947885
 21
-9.0391022970536063
 31
0.0
 11
75.772303213770584
 21
-9.0376776709245803
 31
0.0
 11
75.81663404544156
 21
-9.0362644824976268
 31
0.0
 11
75.860555247051153
 21
-9.0348629015006239
 31
0.0
 11
75.904071118689671
 21
-9.0334730976614512
 31
0.0
 11
75.947185960447513
 21
-9.0320952407079833
 31
0.0
 11
75.989904072414959
 21
-9.0307295003680963
 31
0.0
 11
76.032229754682334
 21
-9.0293760463696664
 31
0.0
 11
76.074167307340034
 21
-9.0280350484405787
 31
0.0
 11
76.115721030478369
 21
-9.026706676308704
 31
0.0
 11
76.156895224187622
 21
-9.0253910997019169
 31
0.0
 11
76.197694188558202
 21
-9.0240884883480987
 31
0.0
 11
76.238122223680435
 21
-9.0227990119751293
 31
0.0
 11
76.278183629644616
 21
-9.0215228403108796
 31
0.0
 11
76.317882706541113
 21
-9.020260143083231
 31
0.0
 11
76.35722375446025
 21
-9.019011090020058
 31
0.0
 11
76.367869553005661
 21
-9.0186735178913437
 31
0.0
 11
76.378565364020872
 21
-9.01833454936979
 31
0.0
 11
76.389323836224278
 21
-9.0179938043093504
 31
0.0
 11
76.400157618334134
 21
-9.0176509025639842
 31
0.0
 11
76.411079359068822
 21
-9.0173054639876487
 31
0.0
 11
76.422101707146666
 21
-9.0169571084342959
 31
0.0
 11
76.433237311286021
 21
-9.0166054557578903
 31
0.0
 11
76.444498820205212
 21
-9.0162501258123857
 31
0.0
 11
76.455898882622535
 21
-9.0158907384517377
 31
0.0
 11
76.467450147256386
 21
-9.0155269135299054
 31
0.0
 11
76.479165262825077
 21
-9.0151582709008462
 31
0.0
 11
76.491056878046919
 21
-9.0147844304185138
 31
0.0
 11
76.503137641640265
 21
-9.0144050119368675
 31
0.0
 11
76.515420202323483
 21
-9.0140196353098663
 31
0.0
 11
76.527917208814884
 21
-9.013627920391464
 31
0.0
 11
76.540641309832765
 21
-9.0132294870356162
 31
0.0
 11
76.553605154095536
 21
-9.0128239550962856
 31
0.0
 11
76.566821390321479
 21
-9.0124109444274279
 31
0.0
 11
76.580302667228935
 21
-9.0119900748829949
 31
0.0
 11
76.594061633536242
 21
-9.0115609663169458
 31
0.0
 11
76.608110937961769
 21
-9.0111232385832416
 31
0.0
 11
76.622463229223825
 21
-9.0106765115358378
 31
0.0
 11
76.637131156040709
 21
-9.0102204050286847
 31
0.0
 11
76.652127367130817
 21
-9.0097545389157467
 31
0.0
 11
76.667464511212472
 21
-9.0092785330509813
 31
0.0
 11
76.683155237004001
 21
-9.0087920072883421
 31
0.0
 11
76.69921219322373
 21
-9.0082945814817883
 31
0.0
 11
76.71564802859001
 21
-9.007785875485272
 31
0.0
 11
76.73247539182114
 21
-9.0072655091527558
 31
0.0
 11
76.749706931635501
 21
-9.0067331023381954
 31
0.0
 11
76.767355296751447
 21
-9.006188274895548
 31
0.0
 11
76.785433135887217
 21
-9.0056306466787674
 31
0.0
 11
76.816537601264244
 21
-9.0046721710869893
 31
0.0
 11
76.847229282578851
 21
-9.0037274394371245
 31
0.0
 11
76.877509205378715
 21
-9.0027961868177346
 31
0.0
 11
76.907378395211481
 21
-9.0018781483173829
 31
0.0
 11
76.936837877624754
 21
-9.0009730590246306
 31
0.0
 11
76.965888678166181
 21
-9.0000806540280376
 31
0.0
 11
76.994531822383408
 21
-8.9992006684161687
 31
0.0
 11
77.022768335824068
 21
-8.9983328372775873
 31
0.0
 11
77.050599244035766
 21
-8.9974768957008493
 31
0.0
 11
77.07802557256619
 21
-8.9966325787745234
 31
0.0
 11
77.105048346962974
 21
-8.9957996215871674
 31
0.0
 11
77.131668592773707
 21
-8.9949777592273445
 31
0.0
 11
77.157887335546064
 21
-8.9941667267836181
 31
0.0
 11
77.171172310511409
 21
-8.9937550755625164
 31
0.0
 11
77.184008292138756
 21
-8.9933568274874478
 31
0.0
 11
77.196406428743401
 21
-8.9929716584125927
 31
0.0
 11
77.208377868640682
 21
-8.9925992441921494
 31
0.0
 11
77.219933760145963
 21
-8.9922392606803037
 31
0.0
 11
77.231085251574527
 21
-8.9918913837312431
 31
0.0
 11
77.241843491241696
 21
-8.9915552891991535
 31
0.0
 11
77.25221962746285
 21
-8.9912306529382313
 31
0.0
 11
77.26222480855327
 21
-8.9909171508026624
 31
0.0
 11
77.271870182828309
 21
-8.9906144586466326
 31
0.0
 11
77.28116689860326
 21
-8.9903222523243347
 31
0.0
 11
77.29012610419349
 21
-8.9900402076899582
 31
0.0
 11
77.298758947914322
 21
-8.9897680005976905
 31
0.0
 11
77.307076578081052
 21
-8.9895053069017212
 31
0.0
 11
77.315090143009016
 21
-8.9892518024562378
 31
0.0
 11
77.322810791013552
 21
-8.9890071631154296
 31
0.0
 11
77.330249670409984
 21
-8.9887710647334895
 31
0.0
 11
77.337417929513634
 21
-8.9885431831646017
 31
0.0
 11
77.344326716639841
 21
-8.9883231942629571
 31
0.0
 11
77.350987180103914
 21
-8.9881107738827453
 31
0.0
 11
77.357410468221204
 21
-8.9879055978781537
 31
0.0
 11
77.36360772930702
 21
-8.9877073421033735
 31
0.0
 11
77.369590111676672
 21
-8.9875156824125906
 31
0.0
 11
77.375368763645554
 21
-8.9873302946599996
 31
0.0
 11
77.380954833528904
 21
-8.9871508546997845
 31
0.0
 11
77.386359469642102
 21
-8.9869770383861347
 31
0.0
 11
77.391593820300471
 21
-8.9868085215732414
 31
0.0
 11
77.396669033819336
 21
-8.9866449801152903
 31
0.0
 11
77.401596258514019
 21
-8.9864860898664745
 31
0.0
 11
77.406386642699843
 21
-8.9863315266809813
 31
0.0
 11
77.411051334692132
 21
-8.9861809664130003
 31
0.0
 11
77.415601482806238
 21
-8.9860340849167173
 31
0.0
 11
77.420048235357456
 21
-8.9858905580463269
 31
0.0
 11
77.424402740661122
 21
-8.9857500616560131
 31
0.0
 11
77.428676147032604
 21
-8.9856122715999671
 31
0.0
 11
77.432879602787153
 21
-8.9854768637323801
 31
0.0
 11
77.437024256240164
 21
-8.985343513907436
 31
0.0
 11
77.441121255706918
 21
-8.9852118979793278
 31
0.0
 11
77.445181749502765
 21
-8.9850816918022431
 31
0.0
 11
77.449216885943031
 21
-8.9849525712303713
 31
0.0
 11
77.453237813343037
 21
-8.9848242121179016
 31
0.0
 11
77.457255680018136
 21
-8.9846962903190235
 31
0.0
 11
77.461281634283608
 21
-8.9845684816879245
 31
0.0
 11
77.465326824454792
 21
-8.9844404620787941
 31
0.0
 11
77.486310667426025
 21
-8.9837807716166154
 31
0.0
 11
77.506876407837595
 21
-8.9831403550482847
 31
0.0
 11
77.527025546974571
 21
-8.9825183148680363
 31
0.0
 11
77.546759586121937
 21
-8.9819137535700992
 31
0.0
 11
77.566080026564777
 21
-8.9813257736487095
 31
0.0
 11
77.584988369588146
 21
-8.9807534775981033
 31
0.0
 11
77.603486116477043
 21
-8.9801959679125112
 31
0.0
 11
77.621574768516609
 21
-8.9796523470861764
 31
0.0
 11
77.639255826991757
 21
-8.9791217176133173
 31
0.0
 11
77.65653079318767
 21
-8.9786031819881824
 31
0.0
 11
77.673401168389304
 21
-8.9780958427049988
 31
0.0
 11
77.689868453881758
 21
-8.9775988022580044
 31
0.0
 11
77.705934150950029
 21
-8.97711116314143
 31
0.0
 11
77.707673134845635
 21
-8.9770581301460517
 31
0.0
 11
77.709827863276132
 21
-8.9769923070145072
 31
0.0
 11
77.712399393266892
 21
-8.9769136688853592
 31
0.0
 11
77.715388781843288
 21
-8.9768221908971526
 31
0.0
 11
77.718797086030662
 21
-8.97671784818845
 31
0.0
 11
77.722625362854359
 21
-8.9766006158978051
 31
0.0
 11
77.726874669339736
 21
-8.9764704691637665
 31
0.0
 11
77.731546062512123
 21
-8.9763273831248949
 31
0.0
 11
77.736640599396878
 21
-8.9761713329197406
 31
0.0
 11
77.742159337019402
 21
-8.9760022936868609
 31
0.0
 11
77.748103332405009
 21
-8.9758202405648113
 31
0.0
 11
77.754473642579043
 21
-8.9756251486921421
 31
0.0
 11
77.761271324566863
 21
-8.9754169932074088
 31
0.0
 11
77.768497435393868
 21
-8.9751957492491741
 31
0.0
 11
77.776153032085318
 21
-8.974961391955981
 31
0.0
 11
77.78423917166667
 21
-8.9747138964663922
 31
0.0
 11
77.792756911163181
 21
-8.9744532379189543
 31
0.0
 11
77.801707307600296
 21
-8.9741793914522354
 31
0.0
 11
77.811091418003272
 21
-8.9738923322047732
 31
0.0
 11
77.820910299397525
 21
-8.9735920353151357
 31
0.0
 11
77.831165008808398
 21
-8.9732784759218678
 31
0.0
 11
77.84185660326122
 21
-8.9729516291635303
 31
0.0
 11
77.852986139781393
 21
-8.9726114701786788
 31
0.0
 11
77.864554675394217
 21
-8.9722579741058635
 31
0.0
 11
77.876563267125078
 21
-8.9718911160836399
 31
0.0
 11
77.88671201774406
 21
-8.9715811325900834
 31
0.0
 11
77.896429111613614
 21
-8.9712843745618631
 31
0.0
 11
77.905714047664347
 21
-8.9710008538932566
 31
0.0
 11
77.914566324826893
 21
-8.9707305824785184
 31
0.0
 11
77.922985442031916
 21
-8.9704735722119189
 31
0.0
 11
77.930970898209978
 21
-8.9702298349877267
 31
0.0
 11
77.938522192291742
 21
-8.9699993827001947
 31
0.0
 11
77.945638823207844
 21
-8.9697822272436021
 31
0.0
 11
77.952320289888931
 21
-8.9695783805122087
 31
0.0
 11
77.958566091265567
 21
-8.9693878544002761
 31
0.0
 11
77.964375726268443
 21
-8.969210660802073
 31
0.0
 11
77.96974869382818
 21
-8.969046811611868
 31
0.0
 11
77.974684492875369
 21
-8.968896318723921
 31
0.0
 11
77.987342245228234
 21
-8.968510455806415
 31
0.0
 11
77.999999999999801
 21
-8.968124672239739
 31
0.0
  0
SPLINE
  5
9E
100
AcDbEntity
  8
0
  6
CONTINUOUS
 62
             7
100
AcDbSpline
210
0.0
220
0.0
230
1.0
 70
             0
 71
             3
 72
            11
 73
             7
 74
             5
 42
0.00000000001
 43
0.00000000001
 44
0.00000000001
 40
0.0
 40
0.0
 40
0.0
 40
0.0
 40
0.0826186009046223
 40
0.0826186009046223
 40
0.0826186009046223
 40
0.1696600623135875
 40
0.1696600623135875
 40
0.1696600623135875
 40
0.1696600623135875
 10
68.039440440924295
 20
-9.4678986849053786
 30
0.0
 10
68.038350407567222
 20
-9.4446227923579897
 30
0.0
 10
68.035171234423345
 20
-9.417000753276767
 30
0.0
 10
68.027852252292845
 20
-9.3861875092473781
 30
0.0
 10
68.021140379536448
 20
-9.3579302229950372
 30
0.0
 10
68.011751354727608
 20
-9.3303772682818362
 30
0.0
 10
68.000000140752491
 20
-9.3038190393817501
 30
0.0
 11
68.039440440924295
 21
-9.4678986849053786
 31
0.0
 11
68.0359822023986
 21
-9.4298696038821284
 31
0.0
 11
68.027852252292845
 21
-9.3861875092473781
 31
0.0
 11
68.015815949479688
 21
-9.3443661278074686
 31
0.0
 11
68.000000140752491
 21
-9.3038190393817501
 31
0.0
  0
SPLINE
  5
9D
100
AcDbEntity
  8
0
  6
CONTINUOUS
 62
             7
100
AcDbSpline
210
0.0
220
0.0
230
1.0
 70
             0
 71
             3
 72
            29
 73
            25
 74
            36
 42
0.00000000001
 43
0.00000000001
 44
0.00000000001
 40
16.401798166416089
 40
16.401798166416089
 40
16.401798166416089
 40
16.401798166416089
 40
16.426681955023739
 40
16.426681955023739
 40
16.426681955023739
 40
17.24508916466835
 40
17.24508916466835
 40
17.24508916466835
 40
19.03282908671514
 40
19.03282908671514
 40
19.03282908671514
 40
21.374548637784251
 40
21.374548637784251
 40
21.374548637784251
 40
23.716195210386719
 40
23.716195210386719
 40
23.716195210386719
 40
25.505591648468229
 40
25.505591648468229
 40
25.505591648468229
 40
26.32326820300063
 40
26.32326820300063
 40
26.32326820300063
 40
26.34815532530946
 40
26.34815532530946
 40
26.34815532530946
 40
26.34815532530946
 10
77.978447125234737
 20
-9.0859383606048851
 30
0.0
 10
77.970157821386138
 20
-9.0862346170341795
 30
0.0
 10
77.961868519321712
 20
-9.086530923376074
 30
0.0
 10
77.953579219041458
 20
-9.0868272796304268
 30
0.0
 10
77.77856388132524
 20
-9.0930843686710574
 30
0.0
 10
77.489595422858471
 20
-9.1034364658497395
 30
0.0
 10
77.135700234665265
 20
-9.1162266236275684
 30
0.0
 10
76.40667310632989
 20
-9.1425744585425264
 30
0.0
 10
75.797014488233771
 20
-9.1649995651151812
 30
0.0
 10
75.349155587391721
 20
-9.1815878667533184
 30
0.0
 10
74.463096170517687
 20
-9.2144067319110263
 30
0.0
 10
73.680022188487484
 20
-9.2440260691282958
 30
0.0
 10
73.009095861883807
 20
-9.2697375967096463
 30
0.0
 10
72.101365087498891
 20
-9.3045240463041807
 30
0.0
 10
71.317154762015548
 20
-9.3352903397004354
 30
0.0
 10
70.669230247369427
 20
-9.3610441306220196
 30
0.0
 10
70.128168988680898
 20
-9.3825503064450686
 30
0.0
 10
69.526928130486738
 20
-9.4067308581012981
 30
0.0
 10
68.881288116995506
 20
-9.4331708418274047
 30
0.0
 10
68.761960848840772
 20
-9.4380574829310575
 30
0.0
 10
68.450320612964958
 20
-9.4508298160621109
 30
0.0
 10
68.064306097079097
 20
-9.4668652436607488
 30
0.0
 10
68.056017538152531
 20
-9.4672095586569185
 30
0.0
 10
68.047728986100935
 20
-9.467554039071814
 30
0.0
 10
68.039440440924295
 20
-9.4678986849053786
 30
0.0
 11
77.978447125234737
 21
-9.0859383606048851
 31
0.0
 11
77.966013170799968
 21
-9.0863827826832591
 31
0.0
 11
77.953579219041458
 21
-9.0868272796304268
 31
0.0
 11
77.835287853049863
 21
-9.0910596784510602
 31
0.0
 11
77.69200100484727
 21
-9.0961953457429576
 31
0.0
 11
77.526071941202872
 21
-9.1021547480242546
 31
0.0
 11
77.339853928885844
 21
-9.1088583518130832
 31
0.0
 11
77.135700234665265
 21
-9.1162266236275684
 31
0.0
 11
76.78133048712408
 21
-9.1290647855908187
 31
0.0
 11
76.448034135928708
 21
-9.1411959907027889
 31
0.0
 11
76.136989825718487
 21
-9.1525670701692512
 31
0.0
 11
75.849376201132728
 21
-9.1631248551959814
 31
0.0
 11
75.586371906810712
 21
-9.1728161769887464
 31
0.0
 11
75.349155587391721
 21
-9.1815878667533184
 31
0.0
 11
74.829951487213222
 21
-9.2008895762415275
 31
0.0
 11
74.335903677985215
 21
-9.2193894015026459
 31
0.0
 11
73.867451946295645
 21
-9.2370533450152941
 31
0.0
 11
73.425036078732532
 21
-9.2538474092580891
 31
0.0
 11
73.009095861883807
 21
-9.2697375967096463
 31
0.0
 11
72.479381974016533
 21
-9.2901191089523643
 31
0.0
 11
71.979925731258547
 21
-9.3094881510862226
 31
0.0
 11
71.511339870982752
 21
-9.3277970904899661
 31
0.0
 11
71.074237130562096
 21
-9.3449982945423216
 31
0.0
 11
70.669230247369427
 21
-9.3610441306220196
 31
0.0
 11
70.252397197886481
 21
-9.3776687244617261
 31
0.0
 11
69.814476215233469
 21
-9.3952573082610655
 31
0.0
 11
69.356946716054978
 21
-9.4137709810422283
 31
0.0
 11
68.881288116995506
 21
-9.4331708418274047
 31
0.0
 11
68.806144414717821
 21
-9.4362499024668853
 31
0.0
 11
68.702224625811937
 21
-9.4405148396231606
 31
0.0
 11
68.572804824936483
 21
-9.4458372478084591
 31
0.0
 11
68.421161086750089
 21
-9.4520887215350022
 31
0.0
 11
68.250569485911413
 21
-9.4591408553150238
 31
0.0
 11
68.064306097079097
 21
-9.4668652436607488
 31
0.0
 11
68.051873263845479
 21
-9.4673818402190406
 31
0.0
 11
68.039440440924295
 21
-9.4678986849053786
 31
0.0
  0
SPLINE
  5
9C
100
AcDbEntity
  8
0
  6
CONTINUOUS
 62
             7
100
AcDbSpline
210
0.0
220
0.0
230
1.0
 70
             0
 71
             3
 72
            10
 73
             6
 74
             5
 42
0.00000000001
 43
0.00000000001
 44
0.00000000001
 40
0.0
 40
0.0
 40
0.0
 40
0.0
 40
1.0
 40
1.0
 40
2.0
 40
2.0
 40
2.0
 40
2.0
 10
2.476647127011717
 20
2.0975997001426809
 30
0.0
 10
2.476647127011717
 20
2.177161469016085
 30
0.0
 10
2.4453330948424679
 20
2.2534730682050399
 30
0.0
 10
2.333866803446043
 20
2.3659904007922279
 30
0.0
 10
2.2582680422904389
 20
2.397599700142663
 30
0.0
 10
2.1794494717703121
 20
2.397599700142663
 30
0.0
 11
2.476647127011717
 21
2.0975997001426809
 31
0.0
 11
2.4540234677148156
 21
2.2124043807880862
 31
0.0
 11
2.3895999491442552
 21
2.3097317344986337
 31
0.0
 11
2.2931817447655014
 21
2.3747627171807464
 31
0.0
 11
2.1794494717703121
 21
2.397599700142663
 31
0.0
  0
SPLINE
  5
9B
100
AcDbEntity
  8
0
  6
CONTINUOUS
 62
             7
100
AcDbSpline
210
0.0
220
0.0
230
1.0
 70
             0
 71
             3
 72
             8
 73
             4
 74
             3
 42
0.00000000001
 43
0.00000000001
 44
0.00000000001
 40
0.0
 40
0.0
 40
0.0
 40
0.0
 40
1.0
 40
1.0
 40
1.0
 40
1.0
 10
-2.1794507953015061
 20
2.3975997001396929
 30
0.0
 10
-2.179449471770369
 20
2.397599700142663
 30
0.0
 10
-2.1794507953015061
 20
2.3975997001396929
 30
0.0
 10
-2.179449471770369
 20
2.397599700142663
 30
0.0
 11
-2.1794507953015061
 21
2.3975997001396929
 31
0.0
 11
-2.1794501335359375
 21
2.397599700141178
 31
0.0
 11
-2.179449471770369
 21
2.397599700142663
 31
0.0
  0
SPLINE
  5
9A
100
AcDbEntity
  8
0
  6
CONTINUOUS
 62
             7
100
AcDbSpline
210
0.0
220
0.0
230
1.0
 70
             0
 71
             3
 72
            10
 73
             6
 74
             5
 42
0.00000000001
 43
0.00000000001
 44
0.00000000001
 40
0.0
 40
0.0
 40
0.0
 40
0.0
 40
1.0
 40
1.0
 40
2.0
 40
2.0
 40
2.0
 40
2.0
 10
-2.4766471270117449
 20
2.0975997001426809
 30
0.0
 10
-2.4766471270117449
 20
2.1771612375830358
 30
0.0
 10
-2.4453332765617399
 20
2.2534726342313292
 30
0.0
 10
-2.333867557603639
 20
2.365989890062409
 30
0.0
 10
-2.258269136549643
 20
2.3975993458227118
 30
0.0
 10
-2.1794507953015061
 20
2.3975997001396929
 30
0.0
 11
-2.4766471270117449
 21
2.0975997001426809
 31
0.0
 11
-2.4540235943518613
 21
2.2124040722165805
 31
0.0
 11
-2.3896004170826894
 21
2.3097312621468689
 31
0.0
 11
-2.2931826618555053
 21
2.3747623337427406
 31
0.0
 11
-2.1794507953015061
 21
2.3975997001396929
 31
0.0
  0
ARC
  5
99
100
AcDbEntity
  8
0
  6
CONTINUOUS
 62
             7
100
AcDbCircle
 10
-39.00000000000006
 20
-108.1412531137121
 40
15.0
100
AcDbArc
 50
180.0
 51
-90.0
  0
ARC
  5
98
100
AcDbEntity
  8
0
  6
CONTINUOUS
 62
             7
100
AcDbCircle
 10
38.99999999999992
 20
-108.1412531137121
 40
15.0
100
AcDbArc
 50
-90.0
 51
0.0
  0
ARC
  5
97
100
AcDbEntity
  8
0
  6
CONTINUOUS
 62
             7
100
AcDbCircle
 10
-92.00000000000006
 20
-4.57686752333187
 40
2.00000000000005
100
AcDbArc
 50
-118.39622586017066
 51
-92.83308941900602
  0
ARC
  5
96
100
AcDbEntity
  8
0
  6
CONTINUOUS
 62
             7
100
AcDbCircle
 10
32.47713248467635
 20
-18.80240029985734
 40
0.50000000000001
100
AcDbArc
 50
-177.31874025173914
 51
-90.0
  0
ARC
  5
95
100
AcDbEntity
  8
0
  6
CONTINUOUS
 62
             7
100
AcDbCircle
 10
40.52286751532346
 20
-18.80240029985734
 40
0.5
100
AcDbArc
 50
-90.0
 51
-2.68125974826095
  0
ARC
  5
94
100
AcDbEntity
  8
0
  6
CONTINUOUS
 62
             7
100
AcDbCircle
 10
-32.47713248467656
 20
-18.80240029985734
 40
0.5
100
AcDbArc
 50
-90.0
 51
-2.6812597482609
  0
ARC
  5
93
100
AcDbEntity
  8
0
  6
CONTINUOUS
 62
             7
100
AcDbCircle
 10
-40.52286751532364
 20
-18.80240029985734
 40
0.5
100
AcDbArc
 50
-177.31874025173906
 51
-90.0
  0
ARC
  5
92
100
AcDbEntity
  8
0
  6
CONTINUOUS
 62
             7
100
AcDbCircle
 10
-68.97713248467656
 20
-18.80240029985734
 40
0.5
100
AcDbArc
 50
-90.0
 51
-2.68125974825958
  0
ARC
  5
91
100
AcDbEntity
  8
0
  6
CONTINUOUS
 62
             7
100
AcDbCircle
 10
-77.02286751532364
 20
-18.80240029985734
 40
0.5
100
AcDbArc
 50
-177.31874025174028
 51
-90.0
  0
ARC
  5
90
100
AcDbEntity
  8
0
  6
CONTINUOUS
 62
             7
100
AcDbCircle
 10
77.02286751532347
 20
-18.80240029985734
 40
0.5
100
AcDbArc
 50
-90.0
 51
-2.68125974826095
  0
ARC
  5
8F
100
AcDbEntity
  8
0
  6
CONTINUOUS
 62
             7
100
AcDbCircle
 10
68.97713248467636
 20
-18.80240029985734
 40
0.5
100
AcDbArc
 50
-177.31874025173906
 51
-90.0
  0
ARC
  5
8E
100
AcDbEntity
  8
0
  6
CONTINUOUS
 62
             7
100
AcDbCircle
 10
-82.00000000000006
 20
-5.07173828911418
 40
1.99999999999965
100
AcDbArc
 50
-92.8330894191068
 51
-90.0
  0
ARC
  5
8D
100
AcDbEntity
  8
0
  6
CONTINUOUS
 62
             7
100
AcDbCircle
 10
81.99999999999992
 20
-5.07173828911418
 40
1.99999999999964
100
AcDbArc
 50
-90.0
 51
-87.16691058089279
  0
ARC
  5
8C
100
AcDbEntity
  8
0
  6
CONTINUOUS
 62
             7
100
AcDbCircle
 10
91.99999999999992
 20
-4.57686752333187
 40
2.00000000000002
100
AcDbArc
 50
-87.16691058099562
 51
-61.60377413983151
  0
ARC
  5
8B
100
AcDbEntity
  8
0
  6
CONTINUOUS
 62
             7
100
AcDbCircle
 10
2.17944947177031
 20
2.09759970014268
 40
0.3
100
AcDbArc
 50
0.0
 51
90.0
  0
ARC
  5
8A
100
AcDbEntity
  8
0
  6
CONTINUOUS
 62
             7
100
AcDbCircle
 10
-2.17944947177034
 20
2.09759970014268
 40
0.29999999999998
100
AcDbArc
 50
90.00000000000553
 51
180.0
  0
LINE
  5
89
100
AcDbEntity
  8
1
  6
DOT_CENTER
 62
             2
100
AcDbLine
 10
-55.00000000000009
 20
3.00000000000002
 11
-55.00000000000009
 21
5.00000000000002
  0
LINE
  5
88
100
AcDbEntity
  8
1
  6
DOT_CENTER
 62
             2
100
AcDbLine
 10
55.0
 20
5.00000000000002
 11
55.0
 21
3.00000000000002
  0
LINE
  5
87
100
AcDbEntity
  8
1
  6
PHANTOM
 62
             2
100
AcDbLine
 10
-44.0467779480463
 20
-52.14125311371208
 11
-113.67346615995299
 21
-52.14125311371208
  0
LINE
  5
86
100
AcDbEntity
  8
1
  6
PHANTOM
 62
             2
100
AcDbLine
 10
169.106701921107
 20
-52.14125311371208
 11
43.90272295120459
 21
-52.14125311371208
  0
LINE
  5
85
100
AcDbEntity
  8
1
  6
PHANTOM
 62
             2
100
AcDbLine
 10
-0.00000000000009
 20
-128.2207719888824
 11
0.0
 21
3.3544667106454
  0
LINE
  5
84
100
AcDbEntity
  8
0
  6
CONTINUOUS
 62
             7
100
AcDbLine
 10
114.9999999999999
 20
-27.14125311371208
 11
114.9999999999999
 21
-77.14125311371208
  0
LINE
  5
83
100
AcDbEntity
  8
0
  6
CONTINUOUS
 62
             7
100
AcDbLine
 10
164.99999999999969
 20
-32.14125311371208
 11
119.9999999999998
 21
-32.14125311371208
  0
LINE
  5
82
100
AcDbEntity
  8
0
  6
CONTINUOUS
 62
             7
100
AcDbLine
 10
164.99999999999969
 20
-72.14125311371208
 11
119.9999999999998
 21
-72.14125311371208
  0
LINE
  5
81
100
AcDbEntity
  8
0
  6
CONTINUOUS
 62
             7
100
AcDbLine
 10
119.9999999999998
 20
-72.14125311371208
 11
114.9999999999999
 21
-77.14125311371208
  0
LINE
  5
80
100
AcDbEntity
  8
0
  6
CONTINUOUS
 62
             7
100
AcDbLine
 10
114.9999999999999
 20
-77.14125311371208
 11
53.99999999999992
 21
-77.14125311371208
  0
LINE
  5
7F
100
AcDbEntity
  8
0
  6
CONTINUOUS
 62
             7
100
AcDbLine
 10
-39.00000000000006
 20
-123.1412531137121
 11
38.99999999999992
 21
-123.1412531137121
  0
LINE
  5
7E
100
AcDbEntity
  8
0
  6
CONTINUOUS
 62
             7
100
AcDbLine
 10
-54.00000000000006
 20
-108.1412531137121
 11
-54.00000000000006
 21
-77.14125311371208
  0
LINE
  5
7D
100
AcDbEntity
  8
0
  6
CONTINUOUS
 62
             7
100
AcDbLine
 10
53.99999999999992
 20
-108.1412531137121
 11
53.99999999999992
 21
-77.14125311371208
  0
LINE
  5
7C
100
AcDbEntity
  8
0
  6
CONTINUOUS
 62
             7
100
AcDbLine
 10
-54.00000000000006
 20
-108.1412531137121
 11
53.99999999999992
 21
-108.1412531137121
  0
LINE
  5
7B
100
AcDbEntity
  8
0
  6
CONTINUOUS
 62
             7
100
AcDbLine
 10
119.9999999999998
 20
-32.14125311371208
 11
119.9999999999998
 21
-72.14125311371208
  0
LINE
  5
7A
100
AcDbEntity
  8
0
  6
CONTINUOUS
 62
             7
100
AcDbLine
 10
164.99999999999969
 20
-32.14125311371208
 11
164.99999999999969
 21
-72.14125311371208
  0
LINE
  5
79
100
AcDbEntity
  8
0
  6
CONTINUOUS
 62
             7
100
AcDbLine
 10
52.67826876426361
 20
-30.14125311371208
 11
62.37988457709828
 21
-30.14125311707308
  0
LINE
  5
78
100
AcDbEntity
  8
0
  6
CONTINUOUS
 62
             7
100
AcDbLine
 10
-52.67826876426375
 20
-30.14125311371208
 11
52.67826876426361
 21
-30.14125311371208
  0
LINE
  5
77
100
AcDbEntity
  8
0
  6
CONTINUOUS
 62
             7
100
AcDbLine
 10
119.9999999999998
 20
-32.14125311371208
 11
114.9999999999999
 21
-27.14125311371208
  0
LINE
  5
76
100
AcDbEntity
  8
0
  6
CONTINUOUS
 62
             7
100
AcDbLine
 10
114.9999999999999
 20
-27.14125311371208
 11
63.49999999999992
 21
-27.14125311371208
  0
LINE
  5
75
100
AcDbEntity
  8
0
  6
CONTINUOUS
 62
             7
100
AcDbLine
 10
-54.00000000000006
 20
-77.14125311371208
 11
-106.5000000000001
 21
-77.14125311371208
  0
LINE
  5
74
100
AcDbEntity
  8
0
  6
CONTINUOUS
 62
             7
100
AcDbLine
 10
-63.50000000000006
 20
-27.14125311371208
 11
-106.5000000000001
 21
-27.14125311371208
  0
LINE
  5
73
100
AcDbEntity
  8
0
  6
CONTINUOUS
 62
             7
100
AcDbLine
 10
-63.50000000000006
 20
-23.64125311371185
 11
63.49999999999992
 21
-23.64125311371185
  0
LINE
  5
72
100
AcDbEntity
  8
0
  6
CONTINUOUS
 62
             7
100
AcDbLine
 10
-63.50000000000006
 20
-23.64125311371185
 11
-63.50000000000006
 21
-27.14125311371208
  0
LINE
  5
71
100
AcDbEntity
  8
0
  6
CONTINUOUS
 62
             7
100
AcDbLine
 10
-62.37988457828385
 20
-30.14125311371208
 11
-52.67826876426375
 21
-30.14125311371208
  0
LINE
  5
70
100
AcDbEntity
  8
0
  6
CONTINUOUS
 62
             7
100
AcDbLine
 10
63.49999999999992
 20
-23.64125311371185
 11
63.49999999999992
 21
-27.14125311371208
  0
LINE
  5
6F
100
AcDbEntity
  8
0
  6
CONTINUOUS
 62
             7
100
AcDbLine
 10
-106.5000000000001
 20
-27.14125311371208
 11
-106.5000000000001
 21
-77.14125311371208
  0
LINE
  5
6E
100
AcDbEntity
  8
0
  6
CONTINUOUS
 62
             7
100
AcDbLine
 10
-110.0000000000001
 20
-28.07907528722103
 11
-106.5000000000001
 21
-27.14125311371208
  0
LINE
  5
6D
100
AcDbEntity
  8
0
  6
CONTINUOUS
 62
             7
100
AcDbLine
 10
-110.0000000000001
 20
-76.20343094020313
 11
-106.5000000000001
 21
-77.14125311371208
  0
LINE
  5
6C
100
AcDbEntity
  8
0
  6
CONTINUOUS
 62
             7
100
AcDbLine
 10
-110.0000000000001
 20
-28.07907528722103
 11
-110.0000000000001
 21
-76.20343094020313
  0
LINE
  5
6B
100
AcDbEntity
  8
0
  6
CONTINUOUS
 62
             7
100
AcDbLine
 10
-100.0000000000001
 20
-6.15318836594977
 11
99.99999999999992
 21
-6.15318836594979
  0
LINE
  5
6A
100
AcDbEntity
  8
0
  6
CONTINUOUS
 62
             7
100
AcDbLine
 10
-97.14318836594984
 20
-0.14318836594978
 11
-99.99999999999994
 21
-0.1431883659498
  0
LINE
  5
69
100
AcDbEntity
  8
0
  6
CONTINUOUS
 62
             7
100
AcDbLine
 10
-100.0000000000001
 20
-6.15318836594977
 11
-99.99999999999994
 21
-0.1431883659498
  0
LINE
  5
68
100
AcDbEntity
  8
0
  6
CONTINUOUS
 62
             7
100
AcDbLine
 10
97.14318836594967
 20
-0.14318836594978
 11
-97.14318836594984
 21
-0.14318836594978
  0
LINE
  5
67
100
AcDbEntity
  8
0
  6
CONTINUOUS
 62
             7
100
AcDbLine
 10
-97.00000000000006
 20
0.00000000000003
 11
-97.14318836594984
 21
-0.14318836594978
  0
LINE
  5
66
100
AcDbEntity
  8
0
  6
CONTINUOUS
 62
             7
100
AcDbLine
 10
96.99999999999992
 20
0.00000000000003
 11
2.47944947177031
 21
0.00000000000001
  0
LINE
  5
65
100
AcDbEntity
  8
0
  6
CONTINUOUS
 62
             7
100
AcDbLine
 10
-2.47944947177038
 20
0.00000000000003
 11
-97.00000000000006
 21
0.00000000000003
  0
LINE
  5
64
100
AcDbEntity
  8
0
  6
CONTINUOUS
 62
             7
100
AcDbLine
 10
2.47944947177031
 20
0.00000000000001
 11
-2.47944947177038
 21
0.00000000000003
  0
LINE
  5
63
100
AcDbEntity
  8
0
  6
CONTINUOUS
 62
             7
100
AcDbLine
 10
-92.95113252912185
 20
-6.33622732509119
 11
-97.00000000000006
 21
-6.33622732509119
  0
LINE
  5
62
100
AcDbEntity
  8
0
  6
CONTINUOUS
 62
             7
100
AcDbLine
 10
92.95113252912162
 20
-6.33622732509119
 11
-92.95113252912185
 21
-6.33622732509119
  0
LINE
  5
61
100
AcDbEntity
  8
0
  6
CONTINUOUS
 62
             7
100
AcDbLine
 10
-78.00000000000006
 20
-7.07173828911382
 11
-82.00000000000006
 21
-7.07173828911382
  0
LINE
  5
60
100
AcDbEntity
  8
0
  6
CONTINUOUS
 62
             7
100
AcDbLine
 10
67.99999999999992
 20
-7.07173828911382
 11
63.49999999999992
 21
-7.07173828911382
  0
LINE
  5
5F
100
AcDbEntity
  8
0
  6
CONTINUOUS
 62
             7
100
AcDbLine
 10
77.99999999999992
 20
-7.07173828911382
 11
67.99999999999992
 21
-7.07173828911382
  0
LINE
  5
5E
100
AcDbEntity
  8
0
  6
CONTINUOUS
 62
             7
100
AcDbLine
 10
81.99999999999992
 20
-7.07173828911382
 11
77.99999999999992
 21
-7.07173828911382
  0
LINE
  5
5D
100
AcDbEntity
  8
0
  6
CONTINUOUS
 62
             7
100
AcDbLine
 10
-92.09885318289534
 20
-6.57442304151692
 11
92.09885318289514
 21
-6.57442304151692
  0
LINE
  5
5C
100
AcDbEntity
  8
0
  6
CONTINUOUS
 62
             7
100
AcDbLine
 10
82.09885318289871
 20
-7.06929380729868
 11
92.09885318289514
 21
-6.57442304151692
  0
LINE
  5
5B
100
AcDbEntity
  8
0
  6
CONTINUOUS
 62
             7
100
AcDbLine
 10
-82.09885318289884
 20
-7.06929380729869
 11
-92.09885318289534
 21
-6.57442304151692
  0
LINE
  5
5A
100
AcDbEntity
  8
0
  6
CONTINUOUS
 62
             7
100
AcDbLine
 10
-82.09885318289884
 20
-7.06929380729869
 11
82.09885318289871
 21
-7.06929380729868
  0
LINE
  5
59
100
AcDbEntity
  8
0
  6
CONTINUOUS
 62
             7
100
AcDbLine
 10
-68.00000000000006
 20
-7.07173828911382
 11
-78.00000000000006
 21
-7.07173828911382
  0
LINE
  5
58
100
AcDbEntity
  8
0
  6
CONTINUOUS
 62
             7
100
AcDbLine
 10
-77.99999999999994
 20
-8.96812467223977
 11
-78.00000000000006
 21
-7.07173828911382
  0
LINE
  5
57
100
AcDbEntity
  8
0
  6
CONTINUOUS
 62
             7
100
AcDbLine
 10
-77.52232012985664
 20
-18.82579016595679
 11
-77.97844712523485
 21
-9.0859383606047
  0
LINE
  5
56
100
AcDbEntity
  8
0
  6
CONTINUOUS
 62
             7
100
AcDbLine
 10
-63.50000000000006
 20
-23.64125311371185
 11
63.49999999999992
 21
-23.64125311371185
  0
LINE
  5
55
100
AcDbEntity
  8
0
  6
CONTINUOUS
 62
             7
100
AcDbLine
 10
-41.50000000000006
 20
-7.07173828911382
 11
-63.50000000000006
 21
-7.07173828911382
  0
LINE
  5
54
100
AcDbEntity
  8
0
  6
CONTINUOUS
 62
             7
100
AcDbLine
 10
31.4999999999999
 20
-7.07173828911382
 11
-31.50000000000004
 21
-7.07173828911382
  0
LINE
  5
53
100
AcDbEntity
  8
0
  6
CONTINUOUS
 62
             7
100
AcDbLine
 10
41.4999999999999
 20
-7.07173828911382
 11
31.4999999999999
 21
-7.07173828911382
  0
LINE
  5
52
100
AcDbEntity
  8
0
  6
CONTINUOUS
 62
             7
100
AcDbLine
 10
63.49999999999992
 20
-7.07173828911382
 11
41.4999999999999
 21
-7.07173828911382
  0
LINE
  5
51
100
AcDbEntity
  8
0
  6
CONTINUOUS
 62
             7
100
AcDbLine
 10
-31.50000000000004
 20
-7.07173828911382
 11
-41.50000000000006
 21
-7.07173828911382
  0
LINE
  5
50
100
AcDbEntity
  8
0
  6
CONTINUOUS
 62
             7
100
AcDbLine
 10
41.02232012985646
 20
-18.8257901659568
 11
41.47420687624449
 21
-9.17648334769413
  0
LINE
  5
4F
100
AcDbEntity
  8
0
  6
CONTINUOUS
 62
             7
100
AcDbLine
 10
31.97767987014334
 20
-18.8257901659568
 11
31.53471935011521
 21
-9.36708811996131
  0
LINE
  5
4E
100
AcDbEntity
  8
0
  6
CONTINUOUS
 62
             7
100
AcDbLine
 10
32.47713248467635
 20
-19.30240029985734
 11
40.52286751532346
 21
-19.30240029985734
  0
LINE
  5
4D
100
AcDbEntity
  8
0
  6
CONTINUOUS
 62
             7
100
AcDbLine
 10
31.97767987014334
 20
-18.8257901659568
 11
41.02232012985646
 21
-18.8257901659568
  0
LINE
  5
4C
100
AcDbEntity
  8
0
  6
CONTINUOUS
 62
             7
100
AcDbLine
 10
41.4999999999999
 20
-9.04617126029261
 11
41.4999999999999
 21
-7.07173828911382
  0
LINE
  5
4B
100
AcDbEntity
  8
0
  6
CONTINUOUS
 62
             7
100
AcDbLine
 10
31.4999999999999
 20
-9.21375458785911
 11
31.4999999999999
 21
-7.07173828911382
  0
LINE
  5
4A
100
AcDbEntity
  8
0
  6
CONTINUOUS
 62
             7
100
AcDbLine
 10
-40.52286751532364
 20
-19.30240029985734
 11
-32.47713248467656
 21
-19.30240029985734
  0
LINE
  5
49
100
AcDbEntity
  8
0
  6
CONTINUOUS
 62
             7
100
AcDbLine
 10
-41.02232012985664
 20
-18.8257901659568
 11
-31.97767987014355
 21
-18.8257901659568
  0
LINE
  5
48
100
AcDbEntity
  8
0
  6
CONTINUOUS
 62
             7
100
AcDbLine
 10
-63.50000000000006
 20
-23.64125311371185
 11
-63.50000000000006
 21
-7.07173828911382
  0
LINE
  5
47
100
AcDbEntity
  8
0
  6
CONTINUOUS
 62
             7
100
AcDbLine
 10
-31.50000000002625
 20
-9.21375359265673
 11
-31.50000000000004
 21
-7.07173828911382
  0
LINE
  5
46
100
AcDbEntity
  8
0
  6
CONTINUOUS
 62
             7
100
AcDbLine
 10
-31.97767987014355
 20
-18.8257901659568
 11
-31.53471937936254
 21
-9.3670880896714
  0
LINE
  5
45
100
AcDbEntity
  8
0
  6
CONTINUOUS
 62
             7
100
AcDbLine
 10
-41.02232012985664
 20
-18.8257901659568
 11
-41.47420690384945
 21
-9.17648340430753
  0
LINE
  5
44
100
AcDbEntity
  8
0
  6
CONTINUOUS
 62
             7
100
AcDbLine
 10
-41.50000000000014
 20
-9.04631151100259
 11
-41.50000000000006
 21
-7.07173828911382
  0
LINE
  5
43
100
AcDbEntity
  8
0
  6
CONTINUOUS
 62
             7
100
AcDbLine
 10
-77.02286751532364
 20
-19.30240029985734
 11
-68.97713248467656
 21
-19.30240029985734
  0
LINE
  5
42
100
AcDbEntity
  8
0
  6
CONTINUOUS
 62
             7
100
AcDbLine
 10
-68.47767987014353
 20
-18.82579016595679
 11
-68.03944044092444
 21
-9.46789868490538
  0
LINE
  5
41
100
AcDbEntity
  8
0
  6
CONTINUOUS
 62
             7
100
AcDbLine
 10
-77.52232012985664
 20
-18.82579016595679
 11
-68.47767987014353
 21
-18.82579016595679
  0
LINE
  5
40
100
AcDbEntity
  8
0
  6
CONTINUOUS
 62
             7
100
AcDbLine
 10
-68.00000014075263
 20
-9.30381903938178
 11
-68.00000000000006
 21
-7.07173828911382
  0
LINE
  5
3F
100
AcDbEntity
  8
0
  6
CONTINUOUS
 62
             7
100
AcDbLine
 10
-63.50000000000006
 20
-7.07173828911382
 11
-68.00000000000006
 21
-7.07173828911382
  0
LINE
  5
3E
100
AcDbEntity
  8
0
  6
CONTINUOUS
 62
             7
100
AcDbLine
 10
63.49999999999992
 20
-23.64125311371185
 11
63.49999999999992
 21
-7.07173828911382
  0
LINE
  5
3D
100
AcDbEntity
  8
0
  6
CONTINUOUS
 62
             7
100
AcDbLine
 10
68.00000014075249
 20
-9.30381903938175
 11
67.99999999999992
 21
-7.07173828911382
  0
LINE
  5
3C
100
AcDbEntity
  8
0
  6
CONTINUOUS
 62
             7
100
AcDbLine
 10
68.47767987014336
 20
-18.8257901659568
 11
68.0394404409243
 21
-9.46789868490538
  0
LINE
  5
3B
100
AcDbEntity
  8
0
  6
CONTINUOUS
 62
             7
100
AcDbLine
 10
68.47767987014336
 20
-18.8257901659568
 11
77.52232012985647
 21
-18.8257901659568
  0
LINE
  5
3A
100
AcDbEntity
  8
0
  6
CONTINUOUS
 62
             7
100
AcDbLine
 10
68.97713248467636
 20
-19.30240029985734
 11
77.02286751532347
 21
-19.30240029985734
  0
LINE
  5
39
100
AcDbEntity
  8
0
  6
CONTINUOUS
 62
             7
100
AcDbLine
 10
77.9999999999998
 20
-8.96812467223974
 11
77.99999999999992
 21
-7.07173828911382
  0
LINE
  5
38
100
AcDbEntity
  8
0
  6
CONTINUOUS
 62
             7
100
AcDbLine
 10
77.52232012985647
 20
-18.8257901659568
 11
77.97844712523474
 21
-9.08593836060489
  0
LINE
  5
37
100
AcDbEntity
  8
0
  6
CONTINUOUS
 62
             7
100
AcDbLine
 10
96.99999999999992
 20
-6.33622732509119
 11
92.95113252912162
 21
-6.33622732509119
  0
LINE
  5
36
100
AcDbEntity
  8
0
  6
CONTINUOUS
 62
             7
100
AcDbLine
 10
-97.00000000000006
 20
-6.33622732509119
 11
-100.0000000000001
 21
-6.15318836594977
  0
LINE
  5
35
100
AcDbEntity
  8
0
  6
CONTINUOUS
 62
             7
100
AcDbLine
 10
96.99999999999992
 20
0.00000000000003
 11
97.14318836594967
 21
-0.14318836594978
  0
LINE
  5
34
100
AcDbEntity
  8
0
  6
CONTINUOUS
 62
             7
100
AcDbLine
 10
-2.47944947177038
 20
0.00000000000003
 11
-2.47944947177038
 21
2.09759970014268
  0
LINE
  5
33
100
AcDbEntity
  8
0
  6
CONTINUOUS
 62
             7
100
AcDbLine
 10
2.47944947177031
 20
0.00000000000001
 11
2.47944947177031
 21
2.09759970014268
  0
LINE
  5
32
100
AcDbEntity
  8
0
  6
CONTINUOUS
 62
             7
100
AcDbLine
 10
99.99999999999992
 20
-0.14318836594977
 11
97.14318836594967
 21
-0.14318836594978
  0
LINE
  5
31
100
AcDbEntity
  8
0
  6
CONTINUOUS
 62
             7
100
AcDbLine
 10
99.99999999999992
 20
-6.15318836594979
 11
99.99999999999992
 21
-0.14318836594977
  0
LINE
  5
30
100
AcDbEntity
  8
0
  6
CONTINUOUS
 62
             7
100
AcDbLine
 10
96.99999999999992
 20
-6.33622732509119
 11
99.99999999999992
 21
-6.15318836594979
  0
LINE
  5
2F
100
AcDbEntity
  8
0
  6
CONTINUOUS
 62
             7
100
AcDbLine
 10
2.47664712701172
 20
2.09759970014268
 11
2.47944947177031
 21
2.09759970014268
  0
LINE
  5
2E
100
AcDbEntity
  8
0
  6
CONTINUOUS
 62
             7
100
AcDbLine
 10
2.47664712701172
 20
0.00000000000003
 11
2.47664712701172
 21
2.09759970014268
  0
LINE
  5
2D
100
AcDbEntity
  8
0
  6
CONTINUOUS
 62
             7
100
AcDbLine
 10
-2.47664712701174
 20
2.09759970014268
 11
2.47664712701172
 21
2.09759970014268
  0
LINE
  5
2C
100
AcDbEntity
  8
0
  6
CONTINUOUS
 62
             7
100
AcDbLine
 10
-2.47944947177038
 20
2.09759970014268
 11
-2.47664712701174
 21
2.09759970014268
  0
LINE
  5
2B
100
AcDbEntity
  8
0
  6
CONTINUOUS
 62
             7
100
AcDbLine
 10
-2.47664712701177
 20
0.00000000000003
 11
-2.47664712701174
 21
2.09759970014268
  0
LINE
  5
2A
100
AcDbEntity
  8
0
  6
CONTINUOUS
 62
             7
100
AcDbLine
 10
-2.17944947177037
 20
2.39759970014266
 11
2.17944947177031
 21
2.39759970014266
  0
ENDBLK
  5
B7
100
AcDbEntity
  8
0
100
AcDbBlockEnd
  0
BLOCK
  5
BA
100
AcDbEntity
  8
0
100
AcDbBlockBegin
  2
*D1
 70
             1
 10
0.0
 20
0.0
 30
0.0
  3
*D1
  1

  0
LINE
  5
BB
100
AcDbEntity
  8
0
  6
CONTINUOUS
 62
             4
100
AcDbLine
 10
-100.0000000000001
 20
30.6310084193997
 11
99.9999999999999
 21
30.6310084193997
  0
LINE
  5
BC
100
AcDbEntity
  8
0
  6
CONTINUOUS
 62
             4
100
AcDbLine
 10
-100.0000000000001
 20
-6.15318836594977
 11
-100.0000000000001
 21
32.6310084193997
  0
LINE
  5
BD
100
AcDbEntity
  8
0
  6
CONTINUOUS
 62
             4
100
AcDbLine
 10
99.9999999999999
 20
-0.14318836594977
 11
99.9999999999999
 21
32.6310084193997
  0
SOLID
  5
BE
100
AcDbEntity
  8
0
 62
             4
100
AcDbTrace
 10
89.9999999999999
 20
29.31448344352574
 11
89.9999999999999
 21
31.94753339527366
 12
99.9999999999999
 22
30.6310084193997
 13
99.9999999999999
 23
30.6310084193997
  0
SOLID
  5
BF
100
AcDbEntity
  8
0
 62
             4
100
AcDbTrace
 10
-90.0000000000001
 20
31.94753339527366
 11
-90.0000000000001
 21
29.31448344352574
 12
-100.0000000000001
 22
30.6310084193997
 13
-100.0000000000001
 23
30.6310084193997
  0
MTEXT
  5
C1
100
AcDbEntity
  8
0
 62
             1
100
AcDbMText
 10
-27.38888609500851
 20
32.63098854203877
 30
0.0
 40
10.0
 41
0.0
 71
             7
 72
             1
  1
\C1;Ø\C1;200
  7
CONVERTER_1
 11
0.99999999999706
 21
0.00000242406841
 31
0.0
  0
ENDBLK
  5
C2
100
AcDbEntity
  8
0
100
AcDbBlockEnd
  0
BLOCK
  5
C6
100
AcDbEntity
  8
0
100
AcDbBlockBegin
  2
*D2
 70
             1
 10
0.0
 20
0.0
 30
0.0
  3
*D2
  1

  0
LINE
  5
C7
100
AcDbEntity
  8
0
  6
CONTINUOUS
 62
             4
100
AcDbLine
 10
-91.32618075185702
 20
-77.14125311371208
 11
-91.32618075185702
 21
-27.14125311371208
  0
LINE
  5
C8
100
AcDbEntity
  8
0
  6
CONTINUOUS
 62
             4
100
AcDbLine
 10
-91.32618075185702
 20
-117.2286158829593
 11
-91.32618075185702
 21
-77.14125311371208
  0
LINE
  5
C9
100
AcDbEntity
  8
0
  6
CONTINUOUS
 62
             4
100
AcDbLine
 10
-106.5000000000001
 20
-27.14125311371208
 11
-89.32618075185702
 21
-27.14125311371208
  0
LINE
  5
CA
100
AcDbEntity
  8
0
  6
CONTINUOUS
 62
             4
100
AcDbLine
 10
-106.50000000000009
 20
-77.14125311371208
 11
-89.32618075185702
 21
-77.14125311371208
  0
SOLID
  5
CB
100
AcDbEntity
  8
0
 62
             4
100
AcDbTrace
 10
-92.64270572773098
 20
-67.14125311371208
 11
-90.00965577598306
 21
-67.14125311371208
 12
-91.32618075185702
 22
-77.14125311371208
 13
-91.32618075185702
 23
-77.14125311371208
  0
SOLID
  5
CC
100
AcDbEntity
  8
0
 62
             4
100
AcDbTrace
 10
-90.00965577598306
 20
-37.14125311371208
 11
-92.64270572773098
 21
-37.14125311371208
 12
-91.32618075185702
 22
-27.14125311371208
 13
-91.32618075185702
 23
-27.14125311371208
  0
MTEXT
  5
CD
100
AcDbEntity
  8
0
 62
             1
100
AcDbMText
 10
-93.32618075185702
 20
-111.62861588295931
 30
0.0
 40
10.0
 41
0.0
 71
             7
 72
             1
  1
\C1;DN\C1;50
  7
CONVERTER_1
 11
0.0
 21
1.0
 31
0.0
  0
ENDBLK
  5
CE
100
AcDbEntity
  8
0
100
AcDbBlockEnd
  0
BLOCK
  5
D2
100
AcDbEntity
  8
0
100
AcDbBlockBegin
  2
*D3
 70
             1
 10
0.0
 20
0.0
 30
0.0
  3
*D3
  1

  0
LINE
  5
D3
100
AcDbEntity
  8
0
  6
CONTINUOUS
 62
             4
100
AcDbLine
 10
103.45036122075888
 20
-77.14125311371208
 11
103.45036122075888
 21
-27.14125311371208
  0
LINE
  5
D4
100
AcDbEntity
  8
0
  6
CONTINUOUS
 62
             4
100
AcDbLine
 10
103.45036122075888
 20
-119.0344851286044
 11
103.45036122075888
 21
-77.14125311371208
  0
LINE
  5
D5
100
AcDbEntity
  8
0
  6
CONTINUOUS
 62
             4
100
AcDbLine
 10
114.9999999999999
 20
-27.14125311371208
 11
101.45036122075888
 21
-27.14125311371208
  0
LINE
  5
D6
100
AcDbEntity
  8
0
  6
CONTINUOUS
 62
             4
100
AcDbLine
 10
114.9999999999999
 20
-77.14125311371208
 11
101.45036122075888
 21
-77.14125311371208
  0
SOLID
  5
D7
100
AcDbEntity
  8
0
 62
             4
100
AcDbTrace
 10
104.76688619663284
 20
-37.14125311371208
 11
102.13383624488492
 21
-37.14125311371208
 12
103.45036122075888
 22
-27.14125311371208
 13
103.45036122075888
 23
-27.14125311371208
  0
SOLID
  5
D8
100
AcDbEntity
  8
0
 62
             4
100
AcDbTrace
 10
102.13383624488492
 20
-67.14125311371208
 11
104.76688619663284
 21
-67.14125311371208
 12
103.45036122075888
 22
-77.14125311371208
 13
103.45036122075888
 23
-77.14125311371208
  0
MTEXT
  5
D9
100
AcDbEntity
  8
0
 62
             1
100
AcDbMText
 10
101.45036122075888
 20
-113.43448512860439
 30
0.0
 40
10.0
 41
0.0
 71
             7
 72
             1
  1
\C1;DN\C1;50
  7
CONVERTER_1
 11
0.0
 21
1.0
 31
0.0
  0
ENDBLK
  5
DA
100
AcDbEntity
  8
0
100
AcDbBlockEnd
  0
BLOCK
  5
DE
100
AcDbEntity
  8
0
100
AcDbBlockBegin
  2
*D4
 70
             1
 10
0.0
 20
0.0
 30
0.0
  3
*D4
  1

  0
LINE
  5
DF
100
AcDbEntity
  8
0
  6
CONTINUOUS
 62
             4
100
AcDbLine
 10
181.106701921107
 20
-72.14125311371208
 11
181.106701921107
 21
-32.14125311371208
  0
LINE
  5
E0
100
AcDbEntity
  8
0
  6
CONTINUOUS
 62
             4
100
AcDbLine
 10
181.106701921107
 20
-115.4112907561412
 11
181.106701921107
 21
-72.14125311371208
  0
LINE
  5
E1
100
AcDbEntity
  8
0
  6
CONTINUOUS
 62
             4
100
AcDbLine
 10
164.99999999999969
 20
-32.14125311371208
 11
183.106701921107
 21
-32.14125311371208
  0
LINE
  5
E2
100
AcDbEntity
  8
0
  6
CONTINUOUS
 62
             4
100
AcDbLine
 10
164.99999999999969
 20
-72.14125311371208
 11
183.106701921107
 21
-72.14125311371208
  0
SOLID
  5
E3
100
AcDbEntity
  8
0
 62
             4
100
AcDbTrace
 10
179.79017694523304
 20
-62.14125311371208
 11
182.42322689698096
 21
-62.14125311371208
 12
181.106701921107
 22
-72.14125311371208
 13
181.106701921107
 23
-72.14125311371208
  0
SOLID
  5
E4
100
AcDbEntity
  8
0
 62
             4
100
AcDbTrace
 10
182.42322689698096
 20
-42.14125311371208
 11
179.79017694523304
 21
-42.14125311371208
 12
181.106701921107
 22
-32.14125311371208
 13
181.106701921107
 23
-32.14125311371208
  0
MTEXT
  5
E5
100
AcDbEntity
  8
0
 62
             1
100
AcDbMText
 10
179.106701921107
 20
-109.8112907561412
 30
0.0
 40
10.0
 41
0.0
 71
             7
 72
             1
  1
\C1;DN\C1;40
  7
CONVERTER_1
 11
0.0
 21
1.0
 31
0.0
  0
ENDBLK
  5
E6
100
AcDbEntity
  8
0
100
AcDbBlockEnd
  0
BLOCK
  5
EA
100
AcDbEntity
  8
0
100
AcDbBlockBegin
  2
*D5
 70
             1
 10
0.0
 20
0.0
 30
0.0
  3
*D5
  1

  0
LINE
  5
EB
100
AcDbEntity
  8
0
  6
CONTINUOUS
 62
             4
100
AcDbLine
 10
-55.00000000000009
 20
15.00000000000002
 11
55.0
 21
15.00000000000002
  0
LINE
  5
EC
100
AcDbEntity
  8
0
  6
CONTINUOUS
 62
             4
100
AcDbLine
 10
-55.00000000000009
 20
5.00000000000002
 11
-55.00000000000009
 21
17.00000000000002
  0
LINE
  5
ED
100
AcDbEntity
  8
0
  6
CONTINUOUS
 62
             4
100
AcDbLine
 10
55.0
 20
5.00000000000002
 11
55.0
 21
17.00000000000002
  0
SOLID
  5
EE
100
AcDbEntity
  8
0
 62
             4
100
AcDbTrace
 10
45.0
 20
13.68347502412607
 11
45.0
 21
16.31652497587398
 12
55.0
 22
15.00000000000002
 13
55.0
 23
15.00000000000002
  0
SOLID
  5
EF
100
AcDbEntity
  8
0
 62
             4
100
AcDbTrace
 10
-45.00000000000009
 20
16.31652497587398
 11
-45.00000000000009
 21
13.68347502412606
 12
-55.00000000000009
 22
15.00000000000002
 13
-55.00000000000009
 23
15.00000000000002
  0
MTEXT
  5
F0
100
AcDbEntity
  8
0
 62
             1
100
AcDbMText
 10
13.46370538185069
 20
16.99998012263909
 30
0.0
 40
10.0
 41
0.0
 71
             7
 72
             1
  1
\C1;Ø\C1;110
  7
CONVERTER_1
 11
0.99999999999706
 21
0.00000242406841
 31
0.0
  0
ENDBLK
  5
F1
100
AcDbEntity
  8
0
100
AcDbBlockEnd
  0
BLOCK
  5
F5
100
AcDbEntity
  8
0
100
AcDbBlockBegin
  2
*D6
 70
             1
 10
0.0
 20
0.0
 30
0.0
  3
*D6
  1

  0
LINE
  5
F6
100
AcDbEntity
  8
0
  6
CONTINUOUS
 62
             4
100
AcDbLine
 10
-139.12444255938601
 20
-52.14125311371209
 11
-139.12444255938601
 21
-0.1431883659498
  0
LINE
  5
F7
100
AcDbEntity
  8
0
  6
CONTINUOUS
 62
             4
100
AcDbLine
 10
-99.99999999999994
 20
-0.1431883659498
 11
-141.12444255938601
 21
-0.1431883659498
  0
LINE
  5
F8
100
AcDbEntity
  8
0
  6
CONTINUOUS
 62
             4
100
AcDbLine
 10
-113.67346615995299
 20
-52.14125311371209
 11
-141.12444255938601
 21
-52.14125311371209
  0
SOLID
  5
F9
100
AcDbEntity
  8
0
 62
             4
100
AcDbTrace
 10
-137.80791758351205
 20
-10.1431883659498
 11
-140.44096753525997
 21
-10.1431883659498
 12
-139.12444255938601
 22
-0.1431883659498
 13
-139.12444255938601
 23
-0.1431883659498
  0
SOLID
  5
FA
100
AcDbEntity
  8
0
 62
             4
100
AcDbTrace
 10
-140.44096753525997
 20
-42.14125311371209
 11
-137.80791758351205
 21
-42.14125311371209
 12
-139.12444255938601
 22
-52.14125311371209
 13
-139.12444255938601
 23
-52.14125311371209
  0
MTEXT
  5
FB
100
AcDbEntity
  8
0
 62
             1
100
AcDbMText
 10
-141.12444255938601
 20
-37.35067140815142
 30
0.0
 40
10.0
 41
0.0
 71
             7
 72
             1
  1
52
  7
CONVERTER_1
 11
0.0
 21
1.0
 31
0.0
  0
ENDBLK
  5
FC
100
AcDbEntity
  8
0
100
AcDbBlockEnd
  0
BLOCK
  5
100
100
AcDbEntity
  8
0
100
AcDbBlockBegin
  2
*D7
 70
             1
 10
0.0
 20
0.0
 30
0.0
  3
*D7
  1

  0
LINE
  5
101
100
AcDbEntity
  8
0
  6
CONTINUOUS
 62
             4
100
AcDbLine
 10
-156.6918755293141
 20
-123.1412531137121
 11
-156.6918755293141
 21
-0.1431883659498
  0
LINE
  5
102
100
AcDbEntity
  8
0
  6
CONTINUOUS
 62
             4
100
AcDbLine
 10
-99.99999999999994
 20
-0.1431883659498
 11
-158.6918755293141
 21
-0.1431883659498
  0
LINE
  5
103
100
AcDbEntity
  8
0
  6
CONTINUOUS
 62
             4
100
AcDbLine
 10
-39.0000000000001
 20
-123.1412531137121
 11
-158.6918755293141
 21
-123.1412531137121
  0
SOLID
  5
104
100
AcDbEntity
  8
0
 62
             4
100
AcDbTrace
 10
-155.37535055344014
 20
-10.1431883659498
 11
-158.00840050518806
 21
-10.1431883659498
 12
-156.6918755293141
 22
-0.1431883659498
 13
-156.6918755293141
 23
-0.1431883659498
  0
SOLID
  5
105
100
AcDbEntity
  8
0
 62
             4
100
AcDbTrace
 10
-158.00840050518806
 20
-113.1412531137121
 11
-155.37535055344014
 21
-113.1412531137121
 12
-156.6918755293141
 22
-123.1412531137121
 13
-156.6918755293141
 23
-123.1412531137121
  0
MTEXT
  5
106
100
AcDbEntity
  8
0
 62
             1
100
AcDbMText
 10
-158.6918755293141
 20
-81.23764257546011
 30
0.0
 40
10.0
 41
0.0
 71
             7
 72
             1
  1
123
  7
CONVERTER_1
 11
0.0
 21
1.0
 31
0.0
  0
ENDBLK
  5
107
100
AcDbEntity
  8
0
100
AcDbBlockEnd
  0
BLOCK
  5
10B
100
AcDbEntity
  8
0
100
AcDbBlockBegin
  2
*D8
 70
             1
 10
0.0
 20
0.0
 30
0.0
  3
*D8
  1

  0
LINE
  5
10C
100
AcDbEntity
  8
0
  6
CONTINUOUS
 62
             4
100
AcDbLine
 10
-0.00000000000009
 20
-142.06927357416441
 11
164.99999999999969
 21
-142.06927357416441
  0
LINE
  5
10D
100
AcDbEntity
  8
0
  6
CONTINUOUS
 62
             4
100
AcDbLine
 10
164.99999999999969
 20
-72.14125311371208
 11
164.99999999999969
 21
-144.06927357416441
  0
LINE
  5
10E
100
AcDbEntity
  8
0
  6
CONTINUOUS
 62
             4
100
AcDbLine
 10
-0.00000000000009
 20
-128.2207719888824
 11
-0.00000000000009
 21
-144.06927357416441
  0
SOLID
  5
10F
100
AcDbEntity
  8
0
 62
             4
100
AcDbTrace
 10
9.99999999999991
 20
-140.75274859829045
 11
9.99999999999991
 21
-143.38579855003837
 12
-0.00000000000009
 22
-142.06927357416441
 13
-0.00000000000009
 23
-142.06927357416441
  0
SOLID
  5
110
100
AcDbEntity
  8
0
 62
             4
100
AcDbTrace
 10
154.99999999999969
 20
-143.38579855003837
 11
154.99999999999969
 21
-140.75274859829045
 12
164.99999999999969
 22
-142.06927357416441
 13
164.99999999999969
 23
-142.06927357416441
  0
MTEXT
  5
111
100
AcDbEntity
  8
0
 62
             1
100
AcDbMText
 10
76.74056857057786
 20
-140.06927357416441
 30
0.0
 40
10.0
 41
0.0
 71
             7
 72
             1
  1
165
  7
CONVERTER_1
 11
0.99999999999706
 21
0.00000242406841
 31
0.0
  0
ENDBLK
  5
112
100
AcDbEntity
  8
0
100
AcDbBlockEnd
  0
BLOCK
  5
116
100
AcDbEntity
  8
0
100
AcDbBlockBegin
  2
*D9
 70
             1
 10
0.0
 20
0.0
 30
0.0
  3
*D9
  1

  0
LINE
  5
117
100
AcDbEntity
  8
0
  6
CONTINUOUS
 62
             4
100
AcDbLine
 10
-110.0000000000001
 20
-142.06927357416441
 11
-0.00000000000009
 21
-142.06927357416441
  0
LINE
  5
118
100
AcDbEntity
  8
0
  6
CONTINUOUS
 62
             4
100
AcDbLine
 10
-0.00000000000009
 20
-128.2207719888824
 11
-0.00000000000009
 21
-144.06927357416441
  0
LINE
  5
119
100
AcDbEntity
  8
0
  6
CONTINUOUS
 62
             4
100
AcDbLine
 10
-110.0000000000001
 20
-76.20343094020313
 11
-110.0000000000001
 21
-144.06927357416441
  0
SOLID
  5
11A
100
AcDbEntity
  8
0
 62
             4
100
AcDbTrace
 10
-10.00000000000009
 20
-143.38579855003837
 11
-10.00000000000009
 21
-140.75274859829045
 12
-0.00000000000009
 22
-142.06927357416441
 13
-0.00000000000009
 23
-142.06927357416441
  0
SOLID
  5
11B
100
AcDbEntity
  8
0
 62
             4
100
AcDbTrace
 10
-100.0000000000001
 20
-140.75274859829045
 11
-100.0000000000001
 21
-143.38579855003837
 12
-110.0000000000001
 22
-142.06927357416441
 13
-110.0000000000001
 23
-142.06927357416441
  0
MTEXT
  5
11C
100
AcDbEntity
  8
0
 62
             1
100
AcDbMText
 10
-65.99955183849536
 20
-140.06927357416441
 30
0.0
 40
10.0
 41
0.0
 71
             7
 72
             1
  1
110
  7
CONVERTER_1
 11
0.99999999999706
 21
0.00000242406841
 31
0.0
  0
ENDBLK
  5
11D
100
AcDbEntity
  8
0
100
AcDbBlockEnd
  0
ENDSEC
  0
SECTION
  2
ENTITIES
  0
DIMENSION
  5
11F
100
AcDbEntity
  8
1
100
AcDbDimension
  2
*D9
 10
-0.00000000000009
 20
-142.06927357416441
 11
-56.99955183849536
 21
-135.06927357416441
 31
0.0
 53
179.99999999999997
  1
<>
  3
ME10_DIM_8
100
AcDbAlignedDimension
 13
-110.0000000000001
 23
-76.20343094020313
 14
-0.00000000000009
 24
-128.2207719888824
 50
179.99999999999997
100
AcDbRotatedDimension
  0
DIMENSION
  5
114
100
AcDbEntity
  8
1
100
AcDbDimension
  2
*D8
 10
-0.00000000000009
 20
-142.06927357416441
 11
87.24056857057786
 21
-135.06927357416441
 31
0.0
 53
179.99999999999997
  1
<>
  3
ME10_DIM_7
100
AcDbAlignedDimension
 13
164.99999999999969
 23
-72.14125311371208
 14
-0.00000000000009
 24
-128.2207719888824
 50
179.99999999999997
100
AcDbRotatedDimension
  0
DIMENSION
  5
109
100
AcDbEntity
  8
1
100
AcDbDimension
  2
*D7
 10
-156.6918755293141
 20
-0.1431883659498
 11
-163.6918755293141
 21
-70.73764257546011
 31
0.0
 53
89.99999999999997
  1
<>
  3
ME10_DIM_6
100
AcDbAlignedDimension
 13
-39.00000000000006
 23
-123.1412531137121
 14
-99.99999999999994
 24
-0.1431883659498
 50
89.99999999999997
100
AcDbRotatedDimension
  0
DIMENSION
  5
FE
100
AcDbEntity
  8
1
100
AcDbDimension
  2
*D6
 10
-139.12444255938601
 20
-0.1431883659498
 11
-146.12444255938601
 21
-29.85067140815142
 31
0.0
 53
89.99999999999997
  1
<>
  3
ME10_DIM_5
100
AcDbAlignedDimension
 13
-113.67346615995299
 23
-52.14125311371208
 14
-99.99999999999994
 24
-0.1431883659498
 50
89.99999999999997
100
AcDbRotatedDimension
  0
DIMENSION
  5
F3
100
AcDbEntity
  8
1
100
AcDbDimension
  2
*D5
 10
55.0
 20
15.00000000000002
 11
24.6637053818266
 21
22.00000000000002
 31
0.0
 53
179.99999999999997
  1
<>
  3
ME10_DIM_4
100
AcDbAlignedDimension
 13
-55.00000000000009
 23
5.00000000000002
 14
55.0
 24
5.00000000000002
 50
179.99999999999997
100
AcDbRotatedDimension
  0
DIMENSION
  5
E8
100
AcDbEntity
  8
1
100
AcDbDimension
  2
*D4
 10
181.106701921107
 20
-72.14125311371208
 11
174.106701921107
 21
-96.9112907561412
 31
0.0
 53
90.0
  1
<>
  3
ME10_DIM_3
100
AcDbAlignedDimension
 13
164.99999999999969
 23
-32.14125311371208
 14
164.99999999999969
 24
-72.14125311371208
 50
90.0
100
AcDbRotatedDimension
  0
DIMENSION
  5
DC
100
AcDbEntity
  8
1
100
AcDbDimension
  2
*D3
 10
103.45036122075888
 20
-27.14125311371208
 11
96.45036122075888
 21
-100.5344851286044
 31
0.0
 53
90.0
  1
<>
  3
ME10_DIM_2
100
AcDbAlignedDimension
 13
114.9999999999999
 23
-77.14125311371208
 14
114.9999999999999
 24
-27.14125311371208
 50
90.0
100
AcDbRotatedDimension
  0
DIMENSION
  5
D0
100
AcDbEntity
  8
1
100
AcDbDimension
  2
*D2
 10
-91.32618075185702
 20
-77.14125311371208
 11
-98.32618075185702
 21
-98.7286158829593
 31
0.0
 53
90.0
  1
<>
  3
ME10_DIM_1
100
AcDbAlignedDimension
 13
-106.5000000000001
 23
-27.14125311371208
 14
-106.5000000000001
 24
-77.14125311371208
 50
90.0
100
AcDbRotatedDimension
  0
DIMENSION
  5
C4
100
AcDbEntity
  8
1
100
AcDbDimension
  2
*D1
 10
99.9999999999999
 20
30.6310084193997
 11
-13.1888860950326
 21
37.6310084193997
 31
0.0
 53
179.99999999999997
  1
<>
  3
ME10_DIM_0
100
AcDbAlignedDimension
 13
-100.0000000000001
 23
-6.15318836594977
 14
99.99999999999992
 24
-0.14318836594977
 50
179.99999999999997
100
AcDbRotatedDimension
  0
INSERT
  5
29
100
AcDbEntity
  8
0
100
AcDbBlockReference
  2
HL300K_BODENABLAUFK_RPLETT
 10
-109.0000000000001
 20
-123.1412531137121
  0
ENDSEC
  0
SECTION
  2
OBJECTS
  0
DICTIONARY
  5
19
100
AcDbDictionary
  3
ACAD_GROUP
350
1A
  3
ACAD_MLINESTYLE
350
1B
  0
DICTIONARY
  5
1A
102
{ACAD_REACTORS
330
19
102
}
100
AcDbDictionary
  0
DICTIONARY
  5
1B
102
{ACAD_REACTORS
330
19
102
}
100
AcDbDictionary
  3
STANDARD
350
1C
  0
MLINESTYLE
  5
1C
102
{ACAD_REACTORS
330
1B
102
}
100
AcDbMlineStyle
  2
STANDARD
 70
             0
  3

 62
             0
 51
90.0
 52
90.0
 71
             2
 49
0.5
 62
           256
  6
BYLAYER
 49
-0.5
 62
           256
  6
BYLAYER
  0
ENDSEC
  0
EOF
