  0
SECTION
  2
HEADER
  9
$ACADVER
  1
AC1015
  9
$ACADMAINTVER
 70
     6
  9
$DWGCODEPAGE
  3
ANSI_1252
  9
$INSBASE
 10
0.0
 20
0.0
 30
0.0
  9
$EXTMIN
 10
-255.323424013432
 20
22.1170569875138
 30
0.0
  9
$EXTMAX
 10
-33.00000000001137
 20
260.083069671669
 30
0.0
  9
$LIMMIN
 10
0.0
 20
0.0
  9
$LIMMAX
 10
12.0
 20
9.0
  9
$ORTHOMODE
 70
     0
  9
$REGENMODE
 70
     1
  9
$FILLMODE
 70
     1
  9
$QTEXTMODE
 70
     0
  9
$MIRRTEXT
 70
     1
  9
$LTSCALE
 40
1.0
  9
$ATTMODE
 70
     1
  9
$TEXTSIZE
 40
0.2
  9
$TRACEWID
 40
0.05
  9
$TEXTSTYLE
  7
Standard
  9
$CLAYER
  8
0
  9
$CELTYPE
  6
ByLayer
  9
$CECOLOR
 62
   256
  9
$CELTSCALE
 40
1.0
  9
$DISPSILH
 70
     0
  9
$DIMSCALE
 40
1.0
  9
$DIMASZ
 40
0.18
  9
$DIMEXO
 40
0.0625
  9
$DIMDLI
 40
0.38
  9
$DIMRND
 40
0.0
  9
$DIMDLE
 40
0.0
  9
$DIMEXE
 40
0.18
  9
$DIMTP
 40
0.0
  9
$DIMTM
 40
0.0
  9
$DIMTXT
 40
0.18
  9
$DIMCEN
 40
0.09
  9
$DIMTSZ
 40
0.0
  9
$DIMTOL
 70
     0
  9
$DIMLIM
 70
     0
  9
$DIMTIH
 70
     1
  9
$DIMTOH
 70
     1
  9
$DIMSE1
 70
     0
  9
$DIMSE2
 70
     0
  9
$DIMTAD
 70
     0
  9
$DIMZIN
 70
     0
  9
$DIMBLK
  1

  9
$DIMASO
 70
     1
  9
$DIMSHO
 70
     1
  9
$DIMPOST
  1

  9
$DIMAPOST
  1

  9
$DIMALT
 70
     0
  9
$DIMALTD
 70
     2
  9
$DIMALTF
 40
25.4
  9
$DIMLFAC
 40
1.0
  9
$DIMTOFL
 70
     0
  9
$DIMTVP
 40
0.0
  9
$DIMTIX
 70
     0
  9
$DIMSOXD
 70
     0
  9
$DIMSAH
 70
     0
  9
$DIMBLK1
  1

  9
$DIMBLK2
  1

  9
$DIMSTYLE
  2
Standard
  9
$DIMCLRD
 70
     0
  9
$DIMCLRE
 70
     0
  9
$DIMCLRT
 70
     0
  9
$DIMTFAC
 40
1.0
  9
$DIMGAP
 40
0.09
  9
$DIMJUST
 70
     0
  9
$DIMSD1
 70
     0
  9
$DIMSD2
 70
     0
  9
$DIMTOLJ
 70
     1
  9
$DIMTZIN
 70
     0
  9
$DIMALTZ
 70
     0
  9
$DIMALTTZ
 70
     0
  9
$DIMUPT
 70
     0
  9
$DIMDEC
 70
     4
  9
$DIMTDEC
 70
     4
  9
$DIMALTU
 70
     2
  9
$DIMALTTD
 70
     2
  9
$DIMTXSTY
  7
Standard
  9
$DIMAUNIT
 70
     0
  9
$DIMADEC
 70
     0
  9
$DIMALTRND
 40
0.0
  9
$DIMAZIN
 70
     0
  9
$DIMDSEP
 70
    46
  9
$DIMATFIT
 70
     3
  9
$DIMFRAC
 70
     0
  9
$DIMLDRBLK
  1

  9
$DIMLUNIT
 70
     2
  9
$DIMLWD
 70
    -2
  9
$DIMLWE
 70
    -2
  9
$DIMTMOVE
 70
     0
  9
$LUNITS
 70
     2
  9
$LUPREC
 70
     4
  9
$SKETCHINC
 40
0.1
  9
$FILLETRAD
 40
0.5
  9
$AUNITS
 70
     0
  9
$AUPREC
 70
     0
  9
$MENU
  1
.
  9
$ELEVATION
 40
0.0
  9
$PELEVATION
 40
0.0
  9
$THICKNESS
 40
0.0
  9
$LIMCHECK
 70
     0
  9
$CHAMFERA
 40
0.0
  9
$CHAMFERB
 40
0.0
  9
$CHAMFERC
 40
0.0
  9
$CHAMFERD
 40
0.0
  9
$SKPOLY
 70
     0
  9
$TDCREATE
 40
2457672.484729121
  9
$TDUCREATE
 40
2457672.401395787
  9
$TDUPDATE
 40
2457672.48473044
  9
$TDUUPDATE
 40
2457672.401397107
  9
$TDINDWG
 40
0.0000000116
  9
$TDUSRTIMER
 40
0.0000000116
  9
$USRTIMER
 70
     1
  9
$ANGBASE
 50
0.0
  9
$ANGDIR
 70
     0
  9
$PDMODE
 70
     0
  9
$PDSIZE
 40
0.0
  9
$PLINEWID
 40
0.0
  9
$SPLFRAME
 70
     0
  9
$SPLINETYPE
 70
     6
  9
$SPLINESEGS
 70
     8
  9
$HANDSEED
  5
1CF
  9
$SURFTAB1
 70
     6
  9
$SURFTAB2
 70
     6
  9
$SURFTYPE
 70
     6
  9
$SURFU
 70
     6
  9
$SURFV
 70
     6
  9
$UCSBASE
  2

  9
$UCSNAME
  2

  9
$UCSORG
 10
0.0
 20
0.0
 30
0.0
  9
$UCSXDIR
 10
1.0
 20
0.0
 30
0.0
  9
$UCSYDIR
 10
0.0
 20
1.0
 30
0.0
  9
$UCSORTHOREF
  2

  9
$UCSORTHOVIEW
 70
     0
  9
$UCSORGTOP
 10
0.0
 20
0.0
 30
0.0
  9
$UCSORGBOTTOM
 10
0.0
 20
0.0
 30
0.0
  9
$UCSORGLEFT
 10
0.0
 20
0.0
 30
0.0
  9
$UCSORGRIGHT
 10
0.0
 20
0.0
 30
0.0
  9
$UCSORGFRONT
 10
0.0
 20
0.0
 30
0.0
  9
$UCSORGBACK
 10
0.0
 20
0.0
 30
0.0
  9
$PUCSBASE
  2

  9
$PUCSNAME
  2

  9
$PUCSORG
 10
0.0
 20
0.0
 30
0.0
  9
$PUCSXDIR
 10
1.0
 20
0.0
 30
0.0
  9
$PUCSYDIR
 10
0.0
 20
1.0
 30
0.0
  9
$PUCSORTHOREF
  2

  9
$PUCSORTHOVIEW
 70
     0
  9
$PUCSORGTOP
 10
0.0
 20
0.0
 30
0.0
  9
$PUCSORGBOTTOM
 10
0.0
 20
0.0
 30
0.0
  9
$PUCSORGLEFT
 10
0.0
 20
0.0
 30
0.0
  9
$PUCSORGRIGHT
 10
0.0
 20
0.0
 30
0.0
  9
$PUCSORGFRONT
 10
0.0
 20
0.0
 30
0.0
  9
$PUCSORGBACK
 10
0.0
 20
0.0
 30
0.0
  9
$USERI1
 70
     0
  9
$USERI2
 70
     0
  9
$USERI3
 70
     0
  9
$USERI4
 70
     0
  9
$USERI5
 70
     0
  9
$USERR1
 40
19.0
  9
$USERR2
 40
0.0
  9
$USERR3
 40
0.0
  9
$USERR4
 40
0.0
  9
$USERR5
 40
0.0
  9
$WORLDVIEW
 70
     1
  9
$SHADEDGE
 70
     3
  9
$SHADEDIF
 70
    70
  9
$TILEMODE
 70
     1
  9
$MAXACTVP
 70
    64
  9
$PINSBASE
 10
0.0
 20
0.0
 30
0.0
  9
$PLIMCHECK
 70
     0
  9
$PEXTMIN
 10
1.00000000000000E+20
 20
1.00000000000000E+20
 30
1.00000000000000E+20
  9
$PEXTMAX
 10
-1.00000000000000E+20
 20
-1.00000000000000E+20
 30
-1.00000000000000E+20
  9
$PLIMMIN
 10
0.0
 20
0.0
  9
$PLIMMAX
 10
12.0
 20
9.0
  9
$UNITMODE
 70
     0
  9
$VISRETAIN
 70
     1
  9
$PLINEGEN
 70
     0
  9
$PSLTSCALE
 70
     1
  9
$TREEDEPTH
 70
  3020
  9
$CMLSTYLE
  2
Standard
  9
$CMLJUST
 70
     0
  9
$CMLSCALE
 40
1.0
  9
$PROXYGRAPHICS
 70
     1
  9
$MEASUREMENT
 70
     1
  9
$CELWEIGHT
370
    -1
  9
$ENDCAPS
280
     0
  9
$JOINSTYLE
280
     0
  9
$LWDISPLAY
290
     0
  9
$INSUNITS
 70
     4
  9
$HYPERLINKBASE
  1

  9
$STYLESHEET
  1

  9
$XEDIT
290
     1
  9
$CEPSNTYPE
380
     0
  9
$PSTYLEMODE
290
     1
  9
$FINGERPRINTGUID
  2
{DCA6CE18-27C0-4810-870C-46AA123FAED7}
  9
$VERSIONGUID
  2
{FAEB1C32-E019-11D5-929B-00C0DF256EC4}
  9
$EXTNAMES
290
     1
  9
$PSVPSCALE
 40
0.0
  9
$OLESTARTUP
290
     0
  0
ENDSEC
  0
SECTION
  2
CLASSES
  0
CLASS
  1
ACDBDICTIONARYWDFLT
  2
AcDbDictionaryWithDefault
  3
ObjectDBX Classes
 90
        0
280
     0
281
     0
  0
CLASS
  1
VISUALSTYLE
  2
AcDbVisualStyle
  3
ObjectDBX Classes
 90
     4095
280
     0
281
     0
  0
CLASS
  1
MATERIAL
  2
AcDbMaterial
  3
ObjectDBX Classes
 90
     1153
280
     0
281
     0
  0
CLASS
  1
SCALE
  2
AcDbScale
  3
ObjectDBX Classes
 90
     1153
280
     0
281
     0
  0
CLASS
  1
SUN
  2
AcDbSun
  3
SCENEOE
 90
     1153
280
     0
281
     0
  0
CLASS
  1
DICTIONARYVAR
  2
AcDbDictionaryVar
  3
ObjectDBX Classes
 90
        0
280
     0
281
     0
  0
CLASS
  1
ACDBPLACEHOLDER
  2
AcDbPlaceHolder
  3
ObjectDBX Classes
 90
        0
280
     0
281
     0
  0
CLASS
  1
LAYOUT
  2
AcDbLayout
  3
ObjectDBX Classes
 90
        0
280
     0
281
     0
  0
ENDSEC
  0
SECTION
  2
TABLES
  0
TABLE
  2
VPORT
  5
8
330
0
100
AcDbSymbolTable
 70
     1
  0
VPORT
  5
29
330
8
100
AcDbSymbolTableRecord
100
AcDbViewportTableRecord
  2
*Active
 70
     0
 10
0.0
 20
0.0
 11
1.0
 21
1.0
 12
-144.1617120067217
 22
141.1000633295914
 13
0.0
 23
0.0
 14
0.5
 24
0.5
 15
0.5
 25
0.5
 16
0.0
 26
0.0
 36
1.0
 17
0.0
 27
0.0
 37
0.0
 40
261.7626139525708
 41
1.60267857142857
 42
50.0
 43
0.0
 44
0.0
 50
0.0
 51
0.0
 71
     0
 72
   100
 73
     1
 74
     3
 75
     0
 76
     0
 77
     0
 78
     0
281
     0
 65
     1
110
0.0
120
0.0
130
0.0
111
1.0
121
0.0
131
0.0
112
0.0
122
1.0
132
0.0
 79
     0
146
0.0
  0
ENDTAB
  0
TABLE
  2
LTYPE
  5
5
330
0
100
AcDbSymbolTable
 70
     8
  0
LTYPE
  5
14
330
5
100
AcDbSymbolTableRecord
100
AcDbLinetypeTableRecord
  2
ByBlock
 70
     0
  3

 72
    65
 73
     0
 40
0.0
  0
LTYPE
  5
15
330
5
100
AcDbSymbolTableRecord
100
AcDbLinetypeTableRecord
  2
ByLayer
 70
     0
  3

 72
    65
 73
     0
 40
0.0
  0
LTYPE
  5
16
330
5
100
AcDbSymbolTableRecord
100
AcDbLinetypeTableRecord
  2
Continuous
 70
     0
  3
Solid line
 72
    65
 73
     0
 40
0.0
  0
LTYPE
  5
6A
330
5
100
AcDbSymbolTableRecord
100
AcDbLinetypeTableRecord
  2
DASHED
 70
     0
  3
Dashed
 72
    65
 73
     2
 40
15.0
 49
7.0
 74
     0
 49
-8.0
 74
     0
  0
LTYPE
  5
6B
330
5
100
AcDbSymbolTableRecord
100
AcDbLinetypeTableRecord
  2
DOTTED
 70
     0
  3
Dotted
 72
    65
 73
     2
 40
1.0
 49
0.0
 74
     0
 49
-1.0
 74
     0
  0
LTYPE
  5
6C
330
5
100
AcDbSymbolTableRecord
100
AcDbLinetypeTableRecord
  2
DOT_CENTER
 70
     0
  3
Dot_Center
 72
    65
 73
     4
 40
14.0
 49
12.0
 74
     0
 49
-1.0
 74
     0
 49
0.0
 74
     0
 49
-1.0
 74
     0
  0
LTYPE
  5
6D
330
5
100
AcDbSymbolTableRecord
100
AcDbLinetypeTableRecord
  2
LONG_DASHED
 70
     0
  3
Long_Dashed
 72
    65
 73
     2
 40
15.0
 49
10.0
 74
     0
 49
-5.0
 74
     0
  0
LTYPE
  5
6E
330
5
100
AcDbSymbolTableRecord
100
AcDbLinetypeTableRecord
  2
DASH_CENTER
 70
     0
  3
Dash_Center
 72
    65
 73
     4
 40
14.0
 49
11.0
 74
     0
 49
-1.0
 74
     0
 49
1.0
 74
     0
 49
-1.0
 74
     0
  0
LTYPE
  5
6F
330
5
100
AcDbSymbolTableRecord
100
AcDbLinetypeTableRecord
  2
PHANTOM
 70
     0
  3
Phantom
 72
    65
 73
     6
 40
13.0
 49
10.0
 74
     0
 49
-1.0
 74
     0
 49
0.0
 74
     0
 49
-1.0
 74
     0
 49
0.0
 74
     0
 49
-1.0
 74
     0
  0
LTYPE
  5
70
330
5
100
AcDbSymbolTableRecord
100
AcDbLinetypeTableRecord
  2
CENTER_DASH_DASH
 70
     0
  3
Center_Dash_Dash
 72
    65
 73
     6
 40
14.0
 49
9.0
 74
     0
 49
-1.0
 74
     0
 49
1.0
 74
     0
 49
-1.0
 74
     0
 49
1.0
 74
     0
 49
-1.0
 74
     0
  0
ENDTAB
  0
TABLE
  2
LAYER
  5
2
330
0
100
AcDbSymbolTable
 70
     2
  0
LAYER
  5
10
330
2
100
AcDbSymbolTableRecord
100
AcDbLayerTableRecord
  2
0
 70
     0
 62
     7
  6
Continuous
370
    -3
390
F
  0
LAYER
  5
71
330
2
100
AcDbSymbolTableRecord
100
AcDbLayerTableRecord
  2
1
 70
     0
 62
     7
  6
Continuous
370
    -3
390
F
  0
ENDTAB
  0
TABLE
  2
STYLE
  5
3
330
0
100
AcDbSymbolTable
 70
     2
  0
STYLE
  5
11
330
3
100
AcDbSymbolTableRecord
100
AcDbTextStyleTableRecord
  2
Standard
 70
     0
 40
0.0
 41
1.0
 50
0.0
 71
     0
 42
0.2
  3
txt
  4

  0
STYLE
  5
13F
330
3
100
AcDbSymbolTableRecord
100
AcDbTextStyleTableRecord
  2
CONVERTER_11
 70
     0
 40
0.0
 41
0.9
 50
0.0
 71
     0
 42
0.2
  3
txt.shx
  4

  0
ENDTAB
  0
TABLE
  2
VIEW
  5
6
330
0
100
AcDbSymbolTable
 70
     0
  0
ENDTAB
  0
TABLE
  2
UCS
  5
7
330
0
100
AcDbSymbolTable
 70
     0
  0
ENDTAB
  0
TABLE
  2
APPID
  5
9
330
0
100
AcDbSymbolTable
 70
     1
  0
APPID
  5
12
330
9
100
AcDbSymbolTableRecord
100
AcDbRegAppTableRecord
  2
ACAD
 70
     0
  0
ENDTAB
  0
TABLE
  2
DIMSTYLE
  5
A
330
0
100
AcDbSymbolTable
 70
     8
100
AcDbDimStyleTable
  0
DIMSTYLE
105
27
330
A
100
AcDbSymbolTableRecord
100
AcDbDimStyleTableRecord
  2
Standard
 70
     0
178
     0
340
11
  0
DIMSTYLE
105
14B
102
{ACAD_REACTORS
330
14C
102
}
330
A
100
AcDbSymbolTableRecord
100
AcDbDimStyleTableRecord
  2
ME10_DIM_10
 70
     0
  3
DN<> (SML)
 41
7.0
 42
0.0
 44
2.0
 73
     0
 74
     0
 77
     1
 78
     8
140
7.0
147
4.0
172
     1
173
     1
174
     1
175
     1
176
     4
177
     4
271
     2
178
     1
271
     2
340
13F
  0
DIMSTYLE
105
156
102
{ACAD_REACTORS
330
157
102
}
330
A
100
AcDbSymbolTableRecord
100
AcDbDimStyleTableRecord
  2
ME10_DIM_11
 70
     0
 41
7.0
 42
0.0
 44
2.0
 73
     0
 74
     0
 77
     1
 78
     8
140
7.0
147
4.0
172
     1
173
     1
174
     1
175
     1
176
     4
177
     4
271
     2
178
     1
271
     2
340
13F
  0
DIMSTYLE
105
161
102
{ACAD_REACTORS
330
162
102
}
330
A
100
AcDbSymbolTableRecord
100
AcDbDimStyleTableRecord
  2
ME10_DIM_12
 70
     0
 41
7.0
 42
0.0
 44
2.0
 73
     0
 74
     0
 77
     1
 78
     8
140
7.0
147
4.0
172
     1
173
     1
174
     1
175
     1
176
     4
177
     4
271
     2
178
     1
271
     2
340
13F
  0
DIMSTYLE
105
16C
102
{ACAD_REACTORS
330
16D
102
}
330
A
100
AcDbSymbolTableRecord
100
AcDbDimStyleTableRecord
  2
ME10_DIM_13
 70
     0
 41
7.0
 42
0.0
 44
2.0
 73
     0
 74
     0
 77
     1
 78
     8
140
7.0
147
4.0
172
     1
173
     1
174
     1
175
     1
176
     4
177
     4
271
     2
178
     1
271
     2
340
13F
  0
DIMSTYLE
105
178
102
{ACAD_REACTORS
330
179
102
}
330
A
100
AcDbSymbolTableRecord
100
AcDbDimStyleTableRecord
  2
ME10_DIM_14
 70
     0
  3
DN<>
 41
7.0
 42
0.0
 44
2.0
 73
     0
 74
     0
 77
     1
 78
     8
140
7.0
147
4.0
172
     1
173
     1
174
     1
175
     1
176
     4
177
     4
271
     2
178
     1
271
     2
340
13F
  0
DIMSTYLE
105
183
102
{ACAD_REACTORS
330
184
102
}
330
A
100
AcDbSymbolTableRecord
100
AcDbDimStyleTableRecord
  2
ME10_DIM_15
 70
     0
  3
 {\Fgdt;n}<>
 41
7.0
 42
0.0
 44
2.0
 73
     0
 74
     0
 77
     1
 78
     8
140
7.0
147
4.0
172
     1
173
     1
174
     1
175
     1
176
     4
177
     4
271
     2
178
     1
271
     2
340
13F
  0
DIMSTYLE
105
18E
102
{ACAD_REACTORS
330
18F
102
}
330
A
100
AcDbSymbolTableRecord
100
AcDbDimStyleTableRecord
  2
ME10_DIM_16
 70
     0
  3
{\Fgdt;n}<>
 41
7.0
 42
0.0
 44
2.0
 73
     0
 74
     0
 77
     1
 78
     8
140
7.0
147
4.0
172
     1
173
     1
174
     1
175
     1
176
     4
177
     4
271
     2
178
     1
271
     2
340
13F
  0
ENDTAB
  0
TABLE
  2
BLOCK_RECORD
  5
1
330
0
100
AcDbSymbolTable
 70
    12
  0
BLOCK_RECORD
  5
1F
330
1
100
AcDbSymbolTableRecord
100
AcDbBlockTableRecord
  2
*Model_Space
340
22
  0
BLOCK_RECORD
  5
1B
330
1
100
AcDbSymbolTableRecord
100
AcDbBlockTableRecord
  2
*Paper_Space
340
1E
  0
BLOCK_RECORD
  5
23
330
1
100
AcDbSymbolTableRecord
100
AcDbBlockTableRecord
  2
*Paper_Space0
340
26
  0
BLOCK_RECORD
  5
72
330
1
100
AcDbSymbolTableRecord
100
AcDbBlockTableRecord
  2
Gummisteckdichtung-01027D
340
0
102
{BLKREFS
331
79
102
}
  0
BLOCK_RECORD
  5
75
330
1
100
AcDbSymbolTableRecord
100
AcDbBlockTableRecord
  2
HL310NKSML_50_Körper
340
0
102
{BLKREFS
331
7A
102
}
  0
BLOCK_RECORD
  5
78
330
1
100
AcDbSymbolTableRecord
100
AcDbBlockTableRecord
  2
HL310NKSML-50
340
0
102
{BLKREFS
331
7E
102
}
  0
BLOCK_RECORD
  5
7D
330
1
100
AcDbSymbolTableRecord
100
AcDbBlockTableRecord
  2
Vordans1
340
0
102
{BLKREFS
331
81
102
}
  0
BLOCK_RECORD
  5
141
330
1
100
AcDbSymbolTableRecord
100
AcDbBlockTableRecord
  2
*D5
340
0
  0
BLOCK_RECORD
  5
14D
330
1
100
AcDbSymbolTableRecord
100
AcDbBlockTableRecord
  2
*D6
340
0
  0
BLOCK_RECORD
  5
158
330
1
100
AcDbSymbolTableRecord
100
AcDbBlockTableRecord
  2
*D7
340
0
  0
BLOCK_RECORD
  5
163
330
1
100
AcDbSymbolTableRecord
100
AcDbBlockTableRecord
  2
*D8
340
0
  0
BLOCK_RECORD
  5
16E
330
1
100
AcDbSymbolTableRecord
100
AcDbBlockTableRecord
  2
*D9
340
0
  0
BLOCK_RECORD
  5
17A
330
1
100
AcDbSymbolTableRecord
100
AcDbBlockTableRecord
  2
*D10
340
0
  0
BLOCK_RECORD
  5
185
330
1
100
AcDbSymbolTableRecord
100
AcDbBlockTableRecord
  2
*D11
340
0
  0
ENDTAB
  0
ENDSEC
  0
SECTION
  2
BLOCKS
  0
BLOCK
  5
20
330
1F
100
AcDbEntity
  8
0
100
AcDbBlockBegin
  2
*Model_Space
 70
     0
 10
0.0
 20
0.0
 30
0.0
  3
*Model_Space
  1
*Model_Space
  0
ENDBLK
  5
21
330
1F
100
AcDbEntity
  8
0
100
AcDbBlockEnd
  0
BLOCK
  5
1C
330
1B
100
AcDbEntity
 67
     1
  8
0
100
AcDbBlockBegin
  2
*Paper_Space
 70
     0
 10
0.0
 20
0.0
 30
0.0
  3
*Paper_Space
  1
*Paper_Space
  0
ENDBLK
  5
1D
330
1B
100
AcDbEntity
 67
     1
  8
0
100
AcDbBlockEnd
  0
BLOCK
  5
24
330
23
100
AcDbEntity
  8
0
100
AcDbBlockBegin
  2
*Paper_Space0
 70
     0
 10
0.0
 20
0.0
 30
0.0
  3
*Paper_Space0
  1
*Paper_Space0
  0
ENDBLK
  5
25
330
23
100
AcDbEntity
  8
0
100
AcDbBlockEnd
  0
BLOCK
  5
73
330
72
100
AcDbEntity
  8
0
100
AcDbBlockBegin
  2
Gummisteckdichtung-01027D
 70
     0
 10
-173.0
 20
45.41729516239573
 30
0.0
  3
Gummisteckdichtung-01027D
  1
Gummisteckdichtung-01027D
  0
LINE
  5
82
330
72
100
AcDbEntity
  8
0
  6
Continuous
 62
     7
100
AcDbLine
 10
-133.0
 20
45.41729516239573
 30
0.0
 11
-95.0
 21
45.41729516239573
 31
0.0
  0
LINE
  5
83
330
72
100
AcDbEntity
  8
0
  6
Continuous
 62
     7
100
AcDbLine
 10
-93.0
 20
48.51729516239433
 30
0.0
 11
-93.0
 21
47.41729516239573
 31
0.0
  0
LINE
  5
84
330
72
100
AcDbEntity
  8
0
  6
Continuous
 62
     7
100
AcDbLine
 10
-95.5
 20
77.41729516239573
 30
0.0
 11
-95.5
 21
48.51729516239433
 31
0.0
  0
LINE
  5
85
330
72
100
AcDbEntity
  8
0
  6
Continuous
 62
     7
100
AcDbLine
 10
-95.5
 20
48.51729516239433
 30
0.0
 11
-93.0
 21
48.51729516239433
 31
0.0
  0
LINE
  5
86
330
72
100
AcDbEntity
  8
0
  6
Continuous
 62
     3
100
AcDbLine
 10
-133.0
 20
77.41729516239573
 30
0.0
 11
-95.5
 21
77.41729516239573
 31
0.0
  0
LINE
  5
87
330
72
100
AcDbEntity
  8
0
  6
Continuous
 62
     7
100
AcDbLine
 10
-133.0
 20
78.41729516239573
 30
0.0
 11
-96.5
 21
78.41729516239573
 31
0.0
  0
LINE
  5
88
330
72
100
AcDbEntity
  8
0
  6
Continuous
 62
     7
100
AcDbLine
 10
-133.0
 20
48.51729516239433
 30
0.0
 11
-95.5
 21
48.51729516239433
 31
0.0
  0
LINE
  5
89
330
72
100
AcDbEntity
  8
0
  6
Continuous
 62
     3
100
AcDbLine
 10
-133.0
 20
47.41729516239573
 30
0.0
 11
-93.0
 21
47.41729516239573
 31
0.0
  0
LINE
  5
8A
330
72
100
AcDbEntity
  8
0
  6
Continuous
 62
     7
100
AcDbLine
 10
-171.0
 20
45.41729516239573
 30
0.0
 11
-133.0
 21
45.41729516239573
 31
0.0
  0
LINE
  5
8B
330
72
100
AcDbEntity
  8
0
  6
Continuous
 62
     7
100
AcDbLine
 10
-173.0
 20
48.51729516239433
 30
0.0
 11
-173.0
 21
47.41729516239573
 31
0.0
  0
LINE
  5
8C
330
72
100
AcDbEntity
  8
0
  6
Continuous
 62
     7
100
AcDbLine
 10
-173.0
 20
48.51729516239433
 30
0.0
 11
-170.5
 21
48.51729516239433
 31
0.0
  0
LINE
  5
8D
330
72
100
AcDbEntity
  8
0
  6
Continuous
 62
     7
100
AcDbLine
 10
-170.5
 20
77.41729516239573
 30
0.0
 11
-170.5
 21
48.51729516239433
 31
0.0
  0
LINE
  5
8E
330
72
100
AcDbEntity
  8
0
  6
Continuous
 62
     7
100
AcDbLine
 10
-169.5
 20
78.41729516239573
 30
0.0
 11
-133.0
 21
78.41729516239573
 31
0.0
  0
LINE
  5
8F
330
72
100
AcDbEntity
  8
0
  6
Continuous
 62
     3
100
AcDbLine
 10
-170.5
 20
77.41729516239573
 30
0.0
 11
-133.0
 21
77.41729516239573
 31
0.0
  0
LINE
  5
90
330
72
100
AcDbEntity
  8
0
  6
Continuous
 62
     7
100
AcDbLine
 10
-170.5
 20
48.51729516239433
 30
0.0
 11
-133.0
 21
48.51729516239433
 31
0.0
  0
LINE
  5
91
330
72
100
AcDbEntity
  8
0
  6
Continuous
 62
     3
100
AcDbLine
 10
-173.0
 20
47.41729516239573
 30
0.0
 11
-133.0
 21
47.41729516239573
 31
0.0
  0
LINE
  5
92
330
72
100
AcDbEntity
  8
1
  6
DOT_CENTER
 62
     2
100
AcDbLine
 10
-133.0
 20
80.1084456499416
 30
0.0
 11
-133.0
 21
41.94912420096589
 31
0.0
  0
ARC
  5
93
330
72
100
AcDbEntity
  8
0
  6
Continuous
 62
     7
100
AcDbCircle
 10
-96.5
 20
77.41729516239573
 30
0.0
 40
1.0
100
AcDbArc
 50
0.0
 51
90.0
  0
ARC
  5
94
330
72
100
AcDbEntity
  8
0
  6
Continuous
 62
     7
100
AcDbCircle
 10
-95.0
 20
47.41729516239573
 30
0.0
 40
2.0
100
AcDbArc
 50
270.0
 51
0.0
  0
ARC
  5
95
330
72
100
AcDbEntity
  8
0
  6
Continuous
 62
     7
100
AcDbCircle
 10
-169.5
 20
77.41729516239573
 30
0.0
 40
1.0
100
AcDbArc
 50
90.0
 51
180.0
  0
ARC
  5
96
330
72
100
AcDbEntity
  8
0
  6
Continuous
 62
     7
100
AcDbCircle
 10
-171.0
 20
47.41729516239573
 30
0.0
 40
2.0
100
AcDbArc
 50
180.0
 51
270.0
  0
ENDBLK
  5
74
330
72
100
AcDbEntity
  8
0
100
AcDbBlockEnd
  0
BLOCK
  5
76
330
75
100
AcDbEntity
  8
0
100
AcDbBlockBegin
  2
HL310NKSML_50_Körper
 70
     0
 10
-232.9999999999886
 20
89.5172951623943
 30
0.0
  3
HL310NKSML_50_Körper
  1
HL310NKSML_50_Körper
  0
LINE
  5
97
330
75
100
AcDbEntity
  8
0
  6
Continuous
 62
     7
100
AcDbLine
 10
-133.0
 20
89.5172951623943
 30
0.0
 11
-111.5000000000001
 21
89.5172951623943
 31
0.0
  0
LINE
  5
98
330
75
100
AcDbEntity
  8
0
  6
Continuous
 62
     3
100
AcDbLine
 10
-133.0
 20
90.5172951623943
 30
0.0
 11
-110.5000000000001
 21
90.5172951623943
 31
0.0
  0
LINE
  5
99
330
75
100
AcDbEntity
  8
0
  6
Continuous
 62
     7
100
AcDbLine
 10
-110.5000000000001
 20
98.5172951623943
 30
0.0
 11
-110.5000000000001
 21
90.5172951623943
 31
0.0
  0
LINE
  5
9A
330
75
100
AcDbEntity
  8
0
  6
Continuous
 62
     7
100
AcDbLine
 10
-133.0
 20
98.5172951623943
 30
0.0
 11
-93.50000000000006
 21
98.5172951623943
 31
0.0
  0
LINE
  5
9B
330
75
100
AcDbEntity
  8
0
  6
Continuous
 62
     3
100
AcDbLine
 10
-133.0
 20
99.0172951623943
 30
0.0
 11
-93.00000000000006
 21
99.0172951623943
 31
0.0
  0
LINE
  5
9C
330
75
100
AcDbEntity
  8
0
  6
Continuous
 62
     7
100
AcDbLine
 10
-93.00000000000006
 20
128.5172951623943
 30
0.0
 11
-93.00000000000006
 21
99.0172951623943
 31
0.0
  0
LINE
  5
9D
330
75
100
AcDbEntity
  8
0
  6
Continuous
 62
     3
100
AcDbLine
 10
-133.0
 20
128.5172951623943
 30
0.0
 11
-93.00000000000006
 21
128.5172951623943
 31
0.0
  0
LINE
  5
9E
330
75
100
AcDbEntity
  8
0
  6
Continuous
 62
     7
100
AcDbLine
 10
-133.0
 20
129.5172951623943
 30
0.0
 11
-92.00000000000006
 21
129.5172951623943
 31
0.0
  0
LINE
  5
9F
330
75
100
AcDbEntity
  8
0
  6
Continuous
 62
     7
100
AcDbLine
 10
-92.00000000000006
 20
129.5172951623943
 30
0.0
 11
-79.20577136594156
 21
129.5172951623943
 31
0.0
  0
LINE
  5
A0
330
75
100
AcDbEntity
  8
0
  6
Continuous
 62
     7
100
AcDbLine
 10
-74.65140245268094
 20
201.8689543375599
 30
0.0
 11
-74.65140245268094
 21
192.5134151735918
 31
0.0
  0
LINE
  5
A1
330
75
100
AcDbEntity
  8
0
  6
Continuous
 62
     7
100
AcDbLine
 10
-77.99961234081275
 20
134.0187419261827
 30
0.0
 11
-77.99961234081275
 21
191.5134151735918
 31
0.0
  0
LINE
  5
A2
330
75
100
AcDbEntity
  8
0
  6
Continuous
 62
     7
100
AcDbLine
 10
-77.99961234081275
 20
191.5134151735918
 30
0.0
 11
-75.65140245268094
 21
191.5134151735918
 31
0.0
  0
LINE
  5
A3
330
75
100
AcDbEntity
  8
0
  6
Continuous
 62
     7
100
AcDbLine
 10
-133.0
 20
134.0187419261827
 30
0.0
 11
-77.99961234081275
 21
134.0187419261827
 31
0.0
  0
LINE
  5
A4
330
75
100
AcDbEntity
  8
0
  6
Continuous
 62
     7
100
AcDbLine
 10
-58.41794698834296
 20
209.771243199458
 30
0.0
 11
-216.5499999999861
 21
209.771243199458
 31
0.0
  0
LINE
  5
A5
330
75
100
AcDbEntity
  8
0
  6
Continuous
 62
     7
100
AcDbLine
 10
-49.45000000001392
 20
209.771243199458
 30
0.0
 11
-58.41794698834296
 21
209.771243199458
 31
0.0
  0
LINE
  5
A6
330
75
100
AcDbEntity
  8
0
  6
Continuous
 62
     7
100
AcDbLine
 10
-59.81926675326015
 20
207.0413517909266
 30
0.0
 11
-59.03549681810539
 21
207.0413517909266
 31
0.0
  0
LINE
  5
A7
330
75
100
AcDbEntity
  8
0
  6
Continuous
 62
     7
100
AcDbLine
 10
-49.33344037831785
 20
209.7735084122244
 30
0.0
 11
-42.53344037832221
 21
210.0379098632395
 31
0.0
  0
LINE
  5
A8
330
75
100
AcDbEntity
  8
0
  6
Continuous
 62
     7
100
AcDbLine
 10
-58.5361820507281
 20
207.5151838128052
 30
0.0
 11
-58.41794698834296
 21
209.771243199458
 31
0.0
  0
LINE
  5
A9
330
75
100
AcDbEntity
  8
0
  6
Continuous
 62
     3
100
AcDbLine
 10
-66.59560565487077
 20
197.9890158346837
 30
0.0
 11
-66.10295562266712
 21
197.9890158346837
 31
0.0
  0
LINE
  5
AA
330
75
100
AcDbEntity
  8
0
  6
Continuous
 62
     7
100
AcDbLine
 10
-72.4587058900503
 20
197.0413517909267
 30
0.0
 11
-67.1015851574217
 21
197.0413517909267
 31
0.0
  0
LINE
  5
AB
330
75
100
AcDbEntity
  8
0
  6
Continuous
 62
     7
100
AcDbLine
 10
-129.3228100989311
 20
197.9890158346837
 30
0.0
 11
-129.1861969283556
 21
200.5957504157802
 31
0.0
  0
LINE
  5
AC
330
75
100
AcDbEntity
  8
0
  6
Continuous
 62
     7
100
AcDbLine
 10
-73.45733542480487
 20
197.9890158346837
 30
0.0
 11
-73.63540190920989
 21
201.386726763119
 31
0.0
  0
LINE
  5
AD
330
75
100
AcDbEntity
  8
0
  6
Continuous
 62
     3
100
AcDbLine
 10
-73.45733542480487
 20
197.9890158346837
 30
0.0
 11
-66.59560565487077
 21
197.9890158346837
 31
0.0
  0
LINE
  5
AE
330
75
100
AcDbEntity
  8
0
  6
Continuous
 62
     7
100
AcDbLine
 10
-79.20577136594156
 20
129.5172951623943
 30
0.0
 11
-77.99961234081275
 21
134.0187419261827
 31
0.0
  0
LINE
  5
AF
330
75
100
AcDbEntity
  8
0
  6
Continuous
 62
     7
100
AcDbLine
 10
-66.10295562266712
 20
197.9890158346837
 30
0.0
 11
-65.48547525147143
 21
209.771243199458
 31
0.0
  0
LINE
  5
B0
330
75
100
AcDbEntity
  8
0
  6
Continuous
 62
     7
100
AcDbLine
 10
-188.0003876591873
 20
191.5134151735918
 30
0.0
 11
-77.99961234081275
 21
191.5134151735918
 31
0.0
  0
LINE
  5
B1
330
75
100
AcDbEntity
  8
0
  6
Continuous
 62
     7
100
AcDbLine
 10
-39.65000000001828
 20
213.0356446504732
 30
0.0
 11
-39.65000000001794
 21
213.6130285318134
 31
0.0
  0
LINE
  5
B2
330
75
100
AcDbEntity
  8
0
  6
Continuous
 62
     7
100
AcDbLine
 10
-85.8463993741411
 20
207.0413517909267
 30
0.0
 11
-85.83131892637206
 21
207.0413517909266
 31
0.0
  0
LINE
  5
B3
330
75
100
AcDbEntity
  8
0
  6
Continuous
 62
     7
100
AcDbLine
 10
-107.2380764256474
 20
207.0413517909265
 30
0.0
 11
-85.8463993741411
 21
207.0413517909267
 31
0.0
  0
LINE
  5
B4
330
75
100
AcDbEntity
  8
0
  6
Continuous
 62
     3
100
AcDbLine
 10
-59.59610215434822
 20
207.5151838128052
 30
0.0
 11
-58.5361820507281
 21
207.5151838128052
 31
0.0
  0
LINE
  5
B5
330
75
100
AcDbEntity
  8
0
  6
Continuous
 62
     3
100
AcDbLine
 10
-107.1399131593905
 20
207.5151838127901
 30
0.0
 11
-85.45618898359649
 21
207.5151838122723
 31
0.0
  0
LINE
  5
B6
330
75
100
AcDbEntity
  8
0
  6
Continuous
 62
     7
100
AcDbLine
 10
-76.65519655835988
 20
218.4339225887787
 30
0.0
 11
-76.65519655835988
 21
220.0827053811287
 31
0.0
  0
LINE
  5
B7
330
75
100
AcDbEntity
  8
0
  6
Continuous
 62
     7
100
AcDbLine
 10
-33.00000000001141
 20
218.0413517909267
 30
0.0
 11
-232.9999999999886
 21
218.0413517909267
 31
0.0
  0
LINE
  5
B8
330
75
100
AcDbEntity
  8
0
  6
Continuous
 62
     3
100
AcDbLine
 10
-76.65519655835988
 20
220.0827053811287
 30
0.0
 11
-76.03019655835988
 21
220.0827053811287
 31
0.0
  0
LINE
  5
B9
330
75
100
AcDbEntity
  8
0
  6
Continuous
 62
     3
100
AcDbLine
 10
-76.03019655835988
 20
220.0827053811287
 30
0.0
 11
-74.15519655835988
 21
220.0827053811287
 31
0.0
  0
LINE
  5
BA
330
75
100
AcDbEntity
  8
0
  6
Continuous
 62
     3
100
AcDbLine
 10
-76.03019655835988
 20
218.4339225887787
 30
0.0
 11
-76.03019655835988
 21
220.0827053811287
 31
0.0
  0
LINE
  5
BB
330
75
100
AcDbEntity
  8
0
  6
Continuous
 62
     7
100
AcDbLine
 10
-74.15519655835988
 20
218.4339225887787
 30
0.0
 11
-74.15519655835988
 21
220.0827053811287
 31
0.0
  0
LINE
  5
BC
330
75
100
AcDbEntity
  8
0
  6
Continuous
 62
     7
100
AcDbLine
 10
-36.3000000000111
 20
218.4339225887787
 30
0.0
 11
-74.15519655835988
 21
218.4339225887787
 31
0.0
  0
LINE
  5
BD
330
75
100
AcDbEntity
  8
0
  6
Continuous
 62
     7
100
AcDbLine
 10
-36.3000000000111
 20
218.4339225887787
 30
0.0
 11
-36.07334914419383
 21
218.0413517909253
 31
0.0
  0
LINE
  5
BE
330
75
100
AcDbEntity
  8
0
  6
Continuous
 62
     3
100
AcDbLine
 10
-74.65140245268094
 20
192.5134151735918
 30
0.0
 11
-191.3485975473191
 21
192.5134151735918
 31
0.0
  0
LINE
  5
BF
330
75
100
AcDbEntity
  8
0
  6
Continuous
 62
     3
100
AcDbLine
 10
-226.3499999999821
 20
213.6130285318134
 30
0.0
 11
-39.65000000001794
 21
213.6130285318134
 31
0.0
  0
LINE
  5
C0
330
75
100
AcDbEntity
  8
0
  6
Continuous
 62
     3
100
AcDbLine
 10
-223.4665596216778
 20
210.0379098632395
 30
0.0
 11
-42.53344037832221
 21
210.0379098632395
 31
0.0
  0
LINE
  5
C1
330
75
100
AcDbEntity
  8
0
  6
Continuous
 62
     3
100
AcDbLine
 10
-226.3499999999817
 20
213.0356446504732
 30
0.0
 11
-39.65000000001828
 21
213.0356446504732
 31
0.0
  0
LINE
  5
C2
330
75
100
AcDbEntity
  8
0
  6
Continuous
 62
     3
100
AcDbLine
 10
-216.6665596216822
 20
209.7735084122244
 30
0.0
 11
-49.33344037831785
 21
209.7735084122244
 31
0.0
  0
LINE
  5
C3
330
75
100
AcDbEntity
  8
0
  6
Continuous
 62
     7
100
AcDbLine
 10
-191.3485975473191
 20
201.868954196403
 30
0.0
 11
-191.3485975473191
 21
192.5134151735918
 31
0.0
  0
LINE
  5
C4
330
75
100
AcDbEntity
  8
0
  6
Continuous
 62
     3
100
AcDbLine
 10
-133.0
 20
197.9890158346837
 30
0.0
 11
-129.3228100989311
 21
197.9890158346837
 31
0.0
  0
LINE
  5
C5
330
75
100
AcDbEntity
  8
0
  6
Continuous
 62
     7
100
AcDbLine
 10
-179.151308440023
 20
207.0413517909265
 30
0.0
 11
-158.7619235743388
 21
207.0413517909265
 31
0.0
  0
LINE
  5
C6
330
75
100
AcDbEntity
  8
0
  6
Continuous
 62
     7
100
AcDbLine
 10
-207.4638179492719
 20
207.5151838128052
 30
0.0
 11
-207.582053011657
 21
209.771243199458
 31
0.0
  0
LINE
  5
C7
330
75
100
AcDbEntity
  8
0
  6
Continuous
 62
     7
100
AcDbLine
 10
-206.9645031818946
 20
207.0413517909266
 30
0.0
 11
-206.1807332095517
 21
207.0413517909266
 31
0.0
  0
LINE
  5
C8
330
75
100
AcDbEntity
  8
0
  6
Continuous
 62
     7
100
AcDbLine
 10
-200.0780121576075
 20
201.4420867861782
 30
0.0
 11
-200.5145247485286
 21
209.771243199458
 31
0.0
  0
LINE
  5
C9
330
75
100
AcDbEntity
  8
0
  6
Continuous
 62
     7
100
AcDbLine
 10
-226.3499999999817
 20
213.0356446504732
 30
0.0
 11
-226.3499999999821
 21
213.6130285318134
 31
0.0
  0
LINE
  5
CA
330
75
100
AcDbEntity
  8
0
  6
Continuous
 62
     7
100
AcDbLine
 10
-216.6665596216822
 20
209.7735084122244
 30
0.0
 11
-223.4665596216778
 21
210.0379098632395
 31
0.0
  0
LINE
  5
CB
330
75
100
AcDbEntity
  8
0
  6
Continuous
 62
     7
100
AcDbLine
 10
-198.8984148425784
 20
197.0413517909267
 30
0.0
 11
-193.5412941099497
 21
197.0413517909267
 31
0.0
  0
LINE
  5
CC
330
75
100
AcDbEntity
  8
0
  6
Continuous
 62
     3
100
AcDbLine
 10
-199.8970443773329
 20
197.9890158346837
 30
0.0
 11
-199.4043943451293
 21
197.9890158346837
 31
0.0
  0
LINE
  5
CD
330
75
100
AcDbEntity
  8
0
  6
Continuous
 62
     7
100
AcDbLine
 10
-199.8970443773329
 20
197.9890158346837
 30
0.0
 11
-200.0780121576075
 21
201.4420867861782
 31
0.0
  0
LINE
  5
CE
330
75
100
AcDbEntity
  8
0
  6
Continuous
 62
     3
100
AcDbLine
 10
-199.4043943451293
 20
197.9890158346837
 30
0.0
 11
-192.5426645751952
 21
197.9890158346837
 31
0.0
  0
LINE
  5
CF
330
75
100
AcDbEntity
  8
0
  6
Continuous
 62
     3
100
AcDbLine
 10
-136.6771899010689
 20
197.9890158346837
 30
0.0
 11
-133.0
 21
197.9890158346837
 31
0.0
  0
LINE
  5
D0
330
75
100
AcDbEntity
  8
0
  6
Continuous
 62
     7
100
AcDbLine
 10
-135.6785603663143
 20
197.0413517909267
 30
0.0
 11
-130.3214396336857
 21
197.0413517909267
 31
0.0
  0
LINE
  5
D1
330
75
100
AcDbEntity
  8
0
  6
Continuous
 62
     7
100
AcDbLine
 10
-136.6771899010689
 20
197.9890158346837
 30
0.0
 11
-136.8138030716297
 21
200.5957504154986
 31
0.0
  0
LINE
  5
D2
330
75
100
AcDbEntity
  8
0
  6
Continuous
 62
     7
100
AcDbLine
 10
-192.5426645751952
 20
197.9890158346837
 30
0.0
 11
-192.3645980845565
 21
201.3867268820643
 31
0.0
  0
LINE
  5
D3
330
75
100
AcDbEntity
  8
0
  6
Continuous
 62
     7
100
AcDbLine
 10
-38.68489949671721
 20
214.6124193588323
 30
0.0
 11
-33.00000000001137
 21
214.8109404237399
 31
0.0
  0
LINE
  5
D4
330
75
100
AcDbEntity
  8
0
  6
Continuous
 62
     3
100
AcDbLine
 10
-227.3151005032828
 20
214.6124193588323
 30
0.0
 11
-38.68489949671721
 21
214.6124193588323
 31
0.0
  0
LINE
  5
D5
330
75
100
AcDbEntity
  8
0
  6
Continuous
 62
     7
100
AcDbLine
 10
-232.9999999999886
 20
214.8109404237399
 30
0.0
 11
-33.00000000001137
 21
214.8109404237399
 31
0.0
  0
LINE
  5
D6
330
75
100
AcDbEntity
  8
0
  6
Continuous
 62
     7
100
AcDbLine
 10
-33.00000000001137
 20
214.8109404237399
 30
0.0
 11
-33.00000000001141
 21
218.0413517909267
 31
0.0
  0
LINE
  5
D7
330
75
100
AcDbEntity
  8
0
  6
Continuous
 62
     7
100
AcDbLine
 10
-232.9999999999886
 20
214.8109404237399
 30
0.0
 11
-232.9999999999886
 21
218.0413517909267
 31
0.0
  0
LINE
  5
D8
330
75
100
AcDbEntity
  8
0
  6
Continuous
 62
     7
100
AcDbLine
 10
-227.3151005032828
 20
214.6124193588323
 30
0.0
 11
-232.9999999999886
 21
214.8109404237399
 31
0.0
  0
LINE
  5
D9
330
75
100
AcDbEntity
  8
0
  6
Continuous
 62
     7
100
AcDbLine
 10
-229.6999999999889
 20
218.4339225887787
 30
0.0
 11
-229.9266508558062
 21
218.0413517909253
 31
0.0
  0
LINE
  5
DA
330
75
100
AcDbEntity
  8
0
  6
Continuous
 62
     7
100
AcDbLine
 10
-76.15519655835988
 20
220.5827053811287
 30
0.0
 11
-74.65519655835988
 21
220.5827053811287
 31
0.0
  0
LINE
  5
DB
330
75
100
AcDbEntity
  8
0
  6
Continuous
 62
     7
100
AcDbLine
 10
-163.1724017208201
 20
220.5827053811287
 30
0.0
 11
-159.7453507376952
 21
220.5827053811287
 31
0.0
  0
LINE
  5
DC
330
75
100
AcDbEntity
  8
0
  6
Continuous
 62
     3
100
AcDbLine
 10
-163.67240172082
 20
220.0827053811287
 30
0.0
 11
-159.388587991914
 21
220.0827053811287
 31
0.0
  0
LINE
  5
DD
330
75
100
AcDbEntity
  8
0
  6
Continuous
 62
     7
100
AcDbLine
 10
-163.67240172082
 20
218.4339225887787
 30
0.0
 11
-229.6999999999889
 21
218.4339225887787
 31
0.0
  0
LINE
  5
DE
330
75
100
AcDbEntity
  8
0
  6
Continuous
 62
     7
100
AcDbLine
 10
-163.67240172082
 20
218.4339225887787
 30
0.0
 11
-163.67240172082
 21
220.0827053811287
 31
0.0
  0
LINE
  5
DF
330
75
100
AcDbEntity
  8
0
  6
Continuous
 62
     7
100
AcDbLine
 10
-159.2453507376953
 20
218.4339225887787
 30
0.0
 11
-163.67240172082
 21
218.4339225887787
 31
0.0
  0
LINE
  5
E0
330
75
100
AcDbEntity
  8
0
  6
Continuous
 62
     7
100
AcDbLine
 10
-154.4999999999999
 20
89.5172951623943
 30
0.0
 11
-133.0
 21
89.5172951623943
 31
0.0
  0
LINE
  5
E1
330
75
100
AcDbEntity
  8
0
  6
Continuous
 62
     3
100
AcDbLine
 10
-155.4999999999999
 20
90.5172951623943
 30
0.0
 11
-133.0
 21
90.5172951623943
 31
0.0
  0
LINE
  5
E2
330
75
100
AcDbEntity
  8
0
  6
Continuous
 62
     7
100
AcDbLine
 10
-155.4999999999999
 20
98.5172951623943
 30
0.0
 11
-155.4999999999999
 21
90.5172951623943
 31
0.0
  0
LINE
  5
E3
330
75
100
AcDbEntity
  8
0
  6
Continuous
 62
     7
100
AcDbLine
 10
-172.4999999999999
 20
98.5172951623943
 30
0.0
 11
-133.0
 21
98.5172951623943
 31
0.0
  0
LINE
  5
E4
330
75
100
AcDbEntity
  8
0
  6
Continuous
 62
     7
100
AcDbLine
 10
-172.9999999999999
 20
128.5172951623943
 30
0.0
 11
-172.9999999999999
 21
99.0172951623943
 31
0.0
  0
LINE
  5
E5
330
75
100
AcDbEntity
  8
0
  6
Continuous
 62
     3
100
AcDbLine
 10
-172.9999999999999
 20
128.5172951623943
 30
0.0
 11
-133.0
 21
128.5172951623943
 31
0.0
  0
LINE
  5
E6
330
75
100
AcDbEntity
  8
0
  6
Continuous
 62
     7
100
AcDbLine
 10
-173.9999999999999
 20
129.5172951623943
 30
0.0
 11
-133.0
 21
129.5172951623943
 31
0.0
  0
LINE
  5
E7
330
75
100
AcDbEntity
  8
0
  6
Continuous
 62
     7
100
AcDbLine
 10
-186.7942286340584
 20
129.5172951623943
 30
0.0
 11
-173.9999999999999
 21
129.5172951623943
 31
0.0
  0
LINE
  5
E8
330
75
100
AcDbEntity
  8
0
  6
Continuous
 62
     7
100
AcDbLine
 10
-190.3485975473191
 20
191.5134151735918
 30
0.0
 11
-188.0003876591873
 21
191.5134151735918
 31
0.0
  0
LINE
  5
E9
330
75
100
AcDbEntity
  8
0
  6
Continuous
 62
     7
100
AcDbLine
 10
-188.0003876591873
 20
134.0187419261827
 30
0.0
 11
-133.0
 21
134.0187419261827
 31
0.0
  0
LINE
  5
EA
330
75
100
AcDbEntity
  8
0
  6
Continuous
 62
     3
100
AcDbLine
 10
-180.5438110150862
 20
207.5151838127901
 30
0.0
 11
-158.8600868390644
 21
207.515183812301
 31
0.0
  0
LINE
  5
EB
330
75
100
AcDbEntity
  8
0
  6
Continuous
 62
     3
100
AcDbLine
 10
-207.4638179492719
 20
207.5151838128052
 30
0.0
 11
-206.4038978553773
 21
207.5151838122723
 31
0.0
  0
LINE
  5
EC
330
75
100
AcDbEntity
  8
0
  6
Continuous
 62
     7
100
AcDbLine
 10
-180.1686810736281
 20
207.0413517909266
 30
0.0
 11
-180.1536006257867
 21
207.0413517909554
 31
0.0
  0
LINE
  5
ED
330
75
100
AcDbEntity
  8
0
  6
Continuous
 62
     7
100
AcDbLine
 10
-180.1536006257867
 20
207.0413517909554
 30
0.0
 11
-179.151308440023
 21
207.0413517909265
 31
0.0
  0
LINE
  5
EE
330
75
100
AcDbEntity
  8
0
  6
Continuous
 62
     7
100
AcDbLine
 10
-188.0003876591873
 20
134.0187419261827
 30
0.0
 11
-188.0003876591873
 21
191.5134151735918
 31
0.0
  0
LINE
  5
EF
330
75
100
AcDbEntity
  8
0
  6
Continuous
 62
     7
100
AcDbLine
 10
-186.7942286340584
 20
129.5172951623943
 30
0.0
 11
-188.0003876591873
 21
134.0187419261827
 31
0.0
  0
LINE
  5
F0
330
75
100
AcDbEntity
  8
0
  6
Continuous
 62
     3
100
AcDbLine
 10
-172.9999999999999
 20
99.0172951623943
 30
0.0
 11
-133.0
 21
99.0172951623943
 31
0.0
  0
LINE
  5
F1
330
75
100
AcDbEntity
  8
0
  6
Continuous
 62
     7
100
AcDbLine
 10
-74.15519655835988
 20
218.4339225887787
 30
0.0
 11
-76.65519655835988
 21
218.4339225887787
 31
0.0
  0
LINE
  5
F2
330
75
100
AcDbEntity
  8
0
  6
Continuous
 62
     7
100
AcDbLine
 10
-76.65519655835988
 20
218.4339225887787
 30
0.0
 11
-159.2453507376953
 21
218.4339225887787
 31
0.0
  0
LINE
  5
F3
330
75
100
AcDbEntity
  8
0
  6
Continuous
 62
     3
100
AcDbLine
 10
-159.388587991914
 20
220.0827053811287
 30
0.0
 11
-159.2453507376953
 21
220.0827053811287
 31
0.0
  0
LINE
  5
F4
330
75
100
AcDbEntity
  8
0
  6
Continuous
 62
     3
100
AcDbLine
 10
-159.388587991914
 20
218.4339225887787
 30
0.0
 11
-159.388587991914
 21
220.0827053811287
 31
0.0
  0
LINE
  5
F5
330
75
100
AcDbEntity
  8
0
  6
Continuous
 62
     7
100
AcDbLine
 10
-159.2453507376953
 20
218.4339225887787
 30
0.0
 11
-159.2453507376953
 21
220.0827053811287
 31
0.0
  0
LINE
  5
F6
330
75
100
AcDbEntity
  8
1
  6
DOT_CENTER
 62
     2
100
AcDbLine
 10
-196.2198544762641
 20
197.9890158346837
 30
0.0
 11
-196.2198544762641
 21
209.771243199458
 31
0.0
  0
LINE
  5
F7
330
75
100
AcDbEntity
  8
1
  6
DOT_CENTER
 62
     2
100
AcDbLine
 10
-69.780145523736
 20
197.9890158346837
 30
0.0
 11
-69.78014552373601
 21
209.771243199458
 31
0.0
  0
LINE
  5
F8
330
75
100
AcDbEntity
  8
1
  6
DOT_CENTER
 62
     2
100
AcDbLine
 10
-133.0
 20
222.532024609201
 30
0.0
 11
-133.0
 21
87.38632684867557
 31
0.0
  0
ARC
  5
F9
330
75
100
AcDbEntity
  8
0
  6
Continuous
 62
     7
100
AcDbCircle
 10
-111.5000000000001
 20
90.5172951623943
 30
0.0
 40
1.0
100
AcDbArc
 50
270.0
 51
0.0
  0
ARC
  5
FA
330
75
100
AcDbEntity
  8
0
  6
Continuous
 62
     7
100
AcDbCircle
 10
-93.50000000000006
 20
99.0172951623943
 30
0.0
 40
0.5
100
AcDbArc
 50
270.0
 51
0.0
  0
ARC
  5
FB
330
75
100
AcDbEntity
  8
0
  6
Continuous
 62
     7
100
AcDbCircle
 10
-92.00000000000006
 20
128.5172951623943
 30
0.0
 40
1.0
100
AcDbArc
 50
90.0
 51
180.0
  0
ARC
  5
FC
330
75
100
AcDbEntity
  8
0
  6
Continuous
 62
     7
100
AcDbCircle
 10
-75.65140245268094
 20
192.5134151735918
 30
0.0
 40
1.0
100
AcDbArc
 50
270.0
 51
0.0
  0
ARC
  5
FD
330
75
100
AcDbEntity
  8
0
  6
Continuous
 62
     7
100
AcDbCircle
 10
-49.45000000001261
 20
212.771243199458
 30
0.0
 40
3.0
100
AcDbArc
 50
269.9999999999749
 51
272.2266852582303
  0
ARC
  5
FE
330
75
100
AcDbEntity
  8
0
  6
Continuous
 62
     7
100
AcDbCircle
 10
-59.03549681810539
 20
207.5413517909266
 30
0.0
 40
0.5
100
AcDbArc
 50
270.0
 51
357.0000000000074
  0
ARC
  5
FF
330
75
100
AcDbEntity
  8
0
  6
Continuous
 62
     7
100
AcDbCircle
 10
-67.1015851574217
 20
198.0413517909267
 30
0.0
 40
1.0
100
AcDbArc
 50
270.0
 51
356.999999999996
  0
ARC
  5
100
330
75
100
AcDbEntity
  8
0
  6
Continuous
 62
     7
100
AcDbCircle
 10
-72.4587058900503
 20
198.0413517909267
 30
0.0
 40
1.0
100
AcDbArc
 50
183.000000000004
 51
270.0
  0
ARC
  5
101
330
75
100
AcDbEntity
  8
0
  6
Continuous
 62
     7
100
AcDbCircle
 10
-130.3214396336857
 20
198.0413517909267
 30
0.0
 40
1.0
100
AcDbArc
 50
270.0
 51
356.9999999999962
  0
ARC
  5
102
330
75
100
AcDbEntity
  8
0
  6
Continuous
 62
     7
100
AcDbCircle
 10
-38.65000000001828
 20
213.6130285318134
 30
0.0
 40
0.9999999999996935
100
AcDbArc
 50
91.99999999979569
 51
180.0
  0
ARC
  5
103
330
75
100
AcDbEntity
  8
0
  6
Continuous
 62
     7
100
AcDbCircle
 10
-42.65000000001828
 20
213.0356446504732
 30
0.0
 40
3.000000000000164
100
AcDbArc
 50
272.2266852582553
 51
0.0
  0
ARC
  5
104
330
75
100
AcDbEntity
  8
0
  6
Continuous
 62
     7
100
AcDbCircle
 10
-227.3499999999817
 20
213.6130285318134
 30
0.0
 40
0.9999999999996021
100
AcDbArc
 50
0.0
 51
88.00000000020593
  0
ARC
  5
105
330
75
100
AcDbEntity
  8
0
  6
Continuous
 62
     7
100
AcDbCircle
 10
-223.3499999999817
 20
213.0356446504732
 30
0.0
 40
3.0
100
AcDbArc
 50
180.0
 51
267.7733147417441
  0
ARC
  5
106
330
75
100
AcDbEntity
  8
0
  6
Continuous
 62
     7
100
AcDbCircle
 10
-216.5499999999874
 20
212.771243199458
 30
0.0
 40
3.000000000000031
100
AcDbArc
 50
267.7733147417684
 51
270.0000000000244
  0
ARC
  5
107
330
75
100
AcDbEntity
  8
0
  6
Continuous
 62
     7
100
AcDbCircle
 10
-193.5412941099497
 20
198.0413517909267
 30
0.0
 40
1.0
100
AcDbArc
 50
270.0
 51
356.9999999999958
  0
ARC
  5
108
330
75
100
AcDbEntity
  8
0
  6
Continuous
 62
     7
100
AcDbCircle
 10
-198.8984148425784
 20
198.0413517909267
 30
0.0
 40
0.9999999999999152
100
AcDbArc
 50
183.0000000000042
 51
270.0
  0
ARC
  5
109
330
75
100
AcDbEntity
  8
0
  6
Continuous
 62
     7
100
AcDbCircle
 10
-135.6785603663143
 20
198.0413517909267
 30
0.0
 40
1.000000000000057
100
AcDbArc
 50
183.0000000000038
 51
270.0
  0
ARC
  5
10A
330
75
100
AcDbEntity
  8
0
  6
Continuous
 62
     7
100
AcDbCircle
 10
-74.65519655835988
 20
220.0827053811287
 30
0.0
 40
0.5
100
AcDbArc
 50
0.0
 51
90.0
  0
ARC
  5
10B
330
75
100
AcDbEntity
  8
0
  6
Continuous
 62
     7
100
AcDbCircle
 10
-76.15519655835988
 20
220.0827053811287
 30
0.0
 40
0.5
100
AcDbArc
 50
90.0
 51
180.0
  0
ARC
  5
10C
330
75
100
AcDbEntity
  8
0
  6
Continuous
 62
     7
100
AcDbCircle
 10
-163.1724017208201
 20
220.0827053811287
 30
0.0
 40
0.5
100
AcDbArc
 50
90.0
 51
180.0
  0
ARC
  5
10D
330
75
100
AcDbEntity
  8
0
  6
Continuous
 62
     7
100
AcDbCircle
 10
-159.7453507376953
 20
220.0827053811287
 30
0.0
 40
0.5
100
AcDbArc
 50
0.0
 51
89.99999999998697
  0
ARC
  5
10E
330
75
100
AcDbEntity
  8
0
  6
Continuous
 62
     7
100
AcDbCircle
 10
-172.4999999999999
 20
99.0172951623943
 30
0.0
 40
0.5
100
AcDbArc
 50
180.0
 51
270.0
  0
ARC
  5
10F
330
75
100
AcDbEntity
  8
0
  6
Continuous
 62
     7
100
AcDbCircle
 10
-206.9645031818946
 20
207.5413517909266
 30
0.0
 40
0.5000000000000233
100
AcDbArc
 50
182.9999999999924
 51
270.0
  0
ARC
  5
110
330
75
100
AcDbEntity
  8
0
  6
Continuous
 62
     7
100
AcDbCircle
 10
-173.9999999999999
 20
128.5172951623943
 30
0.0
 40
1.0
100
AcDbArc
 50
0.0
 51
90.0
  0
ARC
  5
111
330
75
100
AcDbEntity
  8
0
  6
Continuous
 62
     7
100
AcDbCircle
 10
-190.3485975473191
 20
192.5134151735918
 30
0.0
 40
1.0
100
AcDbArc
 50
180.0
 51
270.0
  0
ARC
  5
112
330
75
100
AcDbEntity
  8
0
  6
Continuous
 62
     7
100
AcDbCircle
 10
-154.4999999999999
 20
90.5172951623943
 30
0.0
 40
1.0
100
AcDbArc
 50
180.0
 51
270.0
  0
SPLINE
  5
113
330
75
100
AcDbEntity
  8
0
  6
Continuous
 62
     7
100
AcDbSpline
210
0.0
220
0.0
230
1.0
 70
     8
 71
     3
 72
    21
 73
    17
 74
    15
 42
0.000000001
 43
0.0000000001
 44
0.00000001
 40
0.0
 40
0.0
 40
0.0
 40
0.0
 40
0.0061188371425685
 40
0.0158967424727811
 40
0.0300304367164559
 40
0.045045850244621
 40
0.0731789085919173
 40
0.1075813659654102
 40
0.1475160143116748
 40
0.1732588498739828
 40
0.2074107347253699
 40
0.2495015535732458
 40
0.2990961313463259
 40
0.3689431176332529
 40
0.430516737849606
 40
0.4819556786357406
 40
0.4819556786357406
 40
0.4819556786357406
 40
0.4819556786357406
 10
-129.2230674378909
 20
200.5857872499764
 30
0.0
 10
-129.2251679639149
 20
200.5857143695793
 30
0.0
 10
-129.2306251328554
 20
200.5855250089555
 30
0.0
 10
-129.2384355374725
 20
200.5930820086388
 30
0.0
 10
-129.2454596325948
 20
200.6037052165988
 30
0.0
 10
-129.2538351746636
 20
200.621021124525
 30
0.0
 10
-129.2627238419894
 20
200.6452788718541
 30
0.0
 10
-129.2721622865832
 20
200.6781463642622
 30
0.0
 10
-129.2795987323811
 20
200.7106760297569
 30
0.0
 10
-129.2858674186749
 20
200.7433605341674
 30
0.0
 10
-129.291315647864
 20
200.7769217209228
 30
0.0
 10
-129.2967189662978
 20
200.8185256809451
 30
0.0
 10
-129.3018177101739
 20
200.8721397665022
 30
0.0
 10
-129.3049946303365
 20
200.932414757902
 30
0.0
 10
-129.3057577240778
 20
200.993384359947
 30
0.0
 10
-129.3045838958513
 20
201.0310400325038
 30
0.0
 10
-129.304049617992
 20
201.0481794363275
 30
0.0
 11
-129.2230674378909
 21
200.5857872499764
 31
0.0
 11
-129.2291730486161
 21
200.5861893364718
 31
0.0
 11
-129.2369842370438
 21
200.5920708964578
 31
0.0
 11
-129.2450659673935
 21
200.6036660214802
 31
0.0
 11
-129.2517520569835
 21
200.6171106798113
 31
0.0
 11
-129.2617203888666
 21
200.6434184982632
 31
0.0
 11
-129.2713692544079
 21
200.6764401343968
 31
0.0
 11
-129.2803737403285
 21
200.7153463724783
 31
0.0
 11
-129.2852356762802
 21
200.7406259128009
 31
0.0
 11
-129.2907311699504
 21
200.7743327486805
 31
0.0
 11
-129.2961769761134
 21
200.816069785274
 31
0.0
 11
-129.3008898495436
 21
200.8654399277384
 31
0.0
 11
-129.304643228855
 21
200.9351859931571
 31
0.0
 11
-129.3053115639959
 21
200.9967559863082
 31
0.0
 11
-129.304049617992
 21
201.0481794363275
 31
0.0
  0
SPLINE
  5
114
330
75
100
AcDbEntity
  8
0
  6
Continuous
 62
     7
100
AcDbSpline
210
0.0
220
0.0
230
1.0
 70
     8
 71
     3
 72
     9
 73
     5
 74
     3
 42
0.000000001
 43
0.0000000001
 44
0.00000001
 40
0.0
 40
0.0
 40
0.0
 40
0.0
 40
0.6715631533293881
 40
1.342370892088813
 40
1.342370892088813
 40
1.342370892088813
 40
1.342370892088813
 10
-72.42852876350415
 20
200.7990175909114
 30
0.0
 10
-72.62936694272534
 20
200.897887830709
 30
0.0
 10
-73.03081739510297
 20
201.0955170771514
 30
0.0
 10
-73.43394935530384
 20
201.2896932977896
 30
0.0
 10
-73.63540190920989
 20
201.386726763119
 30
0.0
 11
-72.42852876350415
 21
200.7990175909114
 31
0.0
 11
-73.03146415579668
 21
201.0947640730024
 31
0.0
 11
-73.63540190920989
 21
201.386726763119
 31
0.0
  0
SPLINE
  5
115
330
75
100
AcDbEntity
  8
0
  6
Continuous
 62
     7
100
AcDbSpline
210
0.0
220
0.0
230
1.0
 70
     8
 71
     3
 72
    11
 73
     7
 74
     5
 42
0.000000001
 43
0.0000000001
 44
0.00000001
 40
0.0
 40
0.0
 40
0.0
 40
0.0
 40
1.14817940178484
 40
2.284053723451976
 40
5.559909225634422
 40
8.729622581301996
 40
8.729622581301996
 40
8.729622581301996
 40
8.729622581301996
 10
-128.9657889941998
 20
209.771243199458
 30
0.0
 10
-128.980117894658
 20
209.3887850495857
 30
0.0
 10
-129.0086221467071
 20
208.6279675681901
 30
0.0
 10
-129.0788383656199
 20
206.7759951175866
 30
0.0
 10
-129.1760564403056
 20
204.2507171774831
 30
0.0
 10
-129.2618561880128
 20
202.1039078510215
 30
0.0
 10
-129.304049617992
 20
201.0481794363275
 30
0.0
 11
-128.9657889941998
 21
209.771243199458
 31
0.0
 11
-129.0088618999423
 21
208.6238720025538
 31
0.0
 11
-129.0518692611834
 21
207.488812162055
 31
0.0
 11
-129.1782304279866
 21
204.2153946624418
 31
0.0
 11
-129.304049617992
 21
201.0481794363275
 31
0.0
  0
SPLINE
  5
116
330
75
100
AcDbEntity
  8
0
  6
Continuous
 62
     7
100
AcDbSpline
210
0.0
220
0.0
230
1.0
 70
     8
 71
     3
 72
    11
 73
     7
 74
     5
 42
0.000000001
 43
0.0000000001
 44
0.00000001
 40
0.0
 40
0.0
 40
0.0
 40
0.0
 40
3.168091772731072
 40
6.442506625534168
 40
7.577912087938029
 40
8.725641870786525
 40
8.725641870786525
 40
8.725641870786525
 40
8.725641870786525
 10
-70.73377871190296
 20
201.0481794363274
 30
0.0
 10
-70.7087400286675
 20
202.1039131783186
 30
0.0
 10
-70.65782233237907
 20
204.2508117261689
 30
0.0
 10
-70.59607831747596
 20
206.7760279018597
 30
0.0
 10
-70.55025588406593
 20
208.6279777992907
 30
0.0
 10
-70.53126057054355
 20
209.3887857905216
 30
0.0
 10
-70.52171163833248
 20
209.771243199458
 30
0.0
 11
-70.73377871190296
 21
201.0481794363274
 31
0.0
 11
-70.65828175730579
 21
204.2153715192766
 31
0.0
 11
-70.57841361781658
 21
207.4888121722574
 31
0.0
 11
-70.55031529707964
 21
208.6238699013769
 31
0.0
 11
-70.52171163833248
 21
209.771243199458
 31
0.0
  0
SPLINE
  5
117
330
75
100
AcDbEntity
  8
0
  6
Continuous
 62
     7
100
AcDbSpline
210
0.0
220
0.0
230
1.0
 70
     8
 71
     3
 72
    11
 73
     7
 74
     5
 42
0.000000001
 43
0.0000000001
 44
0.00000001
 40
0.0
 40
0.0
 40
0.0
 40
0.0
 40
3.052304782911717
 40
5.963112359629225
 40
10.03671483249016
 40
14.37557600674149
 40
14.37557600674149
 40
14.37557600674149
 40
14.37557600674149
 10
-73.63540190920989
 20
201.386726763119
 30
0.0
 10
-74.55572488932799
 20
201.8206217376961
 30
0.0
 10
-76.35370698700781
 20
202.6682973891799
 30
0.0
 10
-79.41585753539574
 20
204.0165462910143
 30
0.0
 10
-82.89438642463037
 20
205.4822385575077
 30
0.0
 10
-85.50317011181976
 20
206.5108362633886
 30
0.0
 10
-86.84869156087474
 20
207.0413517909265
 30
0.0
 11
-73.63540190920989
 21
201.386726763119
 31
0.0
 11
-76.40196023236686
 21
202.6761915875251
 31
0.0
 11
-79.06365056952124
 21
203.8544128312007
 31
0.0
 11
-82.81863393247778
 21
205.4337598648154
 31
0.0
 11
-86.84869156087474
 21
207.0413517909265
 31
0.0
  0
SPLINE
  5
118
330
75
100
AcDbEntity
  8
0
  6
Continuous
 62
     3
100
AcDbSpline
210
0.0
220
0.0
230
1.0
 70
     8
 71
     3
 72
    11
 73
     7
 74
     5
 42
0.000000001
 43
0.0000000001
 44
0.00000001
 40
0.0
 40
0.0
 40
0.0
 40
0.0
 40
4.431190883246388
 40
8.575578618681185
 40
12.18178099481458
 40
15.94113339569991
 40
15.94113339569991
 40
15.94113339569991
 40
15.94113339569991
 10
-85.8463993741411
 20
207.0413517909267
 30
0.0
 10
-84.47558462071892
 20
206.4911247072304
 30
0.0
 10
-81.8226793465938
 20
205.4262832685808
 30
0.0
 10
-78.09242381307995
 20
203.8213371379181
 30
0.0
 10
-74.59574095606365
 20
202.2409789330488
 30
0.0
 10
-72.39611850206124
 20
201.1498560947116
 30
0.0
 10
-71.27343919552486
 20
200.5929509550717
 30
0.0
 11
-85.8463993741411
 21
207.0413517909267
 31
0.0
 11
-81.74114450974317
 21
205.3733184753886
 31
0.0
 11
-77.9329840531495
 21
203.7381231841662
 31
0.0
 11
-74.65137862489303
 21
202.2428769191872
 31
0.0
 11
-71.27343919552486
 21
200.5929509550717
 31
0.0
  0
SPLINE
  5
119
330
75
100
AcDbEntity
  8
0
  6
Continuous
 62
     7
100
AcDbSpline
210
0.0
220
0.0
230
1.0
 70
     8
 71
     3
 72
    28
 73
    24
 74
    22
 42
0.000000001
 43
0.0000000001
 44
0.00000001
 40
0.0
 40
0.0
 40
0.0
 40
0.0
 40
0.0039063930492398
 40
0.0120989767078055
 40
0.0236647385805795
 40
0.0354977673677243
 40
0.0472469115841381
 40
0.0702620185631531
 40
0.0940753843252483
 40
0.1424004217193057
 40
0.1861914985471801
 40
0.233061913646886
 40
0.2780828200981464
 40
0.321505951019088
 40
0.3635071734647084
 40
0.4068146163388678
 40
0.4486924940542154
 40
0.4891115758670026
 40
0.5279837710555734
 40
0.5664951379230703
 40
0.6032394041114643
 40
0.6380391837485896
 40
0.6707635994600145
 40
0.6707635994600145
 40
0.6707635994600145
 40
0.6707635994600145
 10
-85.45618898359649
 20
207.5151838122723
 30
0.0
 10
-85.45613592926699
 20
207.5138827612802
 30
0.0
 10
-85.45597162795302
 20
207.5098531133329
 30
0.0
 10
-85.45572570741831
 20
207.5019684414671
 30
0.0
 10
-85.45557612552463
 20
207.4914383548855
 30
0.0
 10
-85.45564162683456
 20
207.4797217084258
 30
0.0
 10
-85.4560477975618
 20
207.4641937516231
 30
0.0
 10
-85.45716163304938
 20
207.4446931158699
 30
0.0
 10
-85.4603403913109
 20
207.4131270601262
 30
0.0
 10
-85.4668795585575
 20
207.3749740104872
 30
0.0
 10
-85.47900808106655
 20
207.3301961822471
 30
0.0
 10
-85.4950669225829
 20
207.2878276261034
 30
0.0
 10
-85.51533109647686
 20
207.2474441726169
 30
0.0
 10
-85.53869160932554
 20
207.2106844933387
 30
0.0
 10
-85.56520221294178
 20
207.1768577094116
 30
0.0
 10
-85.59457438429871
 20
207.1461847835892
 30
0.0
 10
-85.62644219181746
 20
207.1189270148724
 30
0.0
 10
-85.65959444660955
 20
207.0957438795891
 30
0.0
 10
-85.69384705270265
 20
207.0764251366994
 30
0.0
 10
-85.72872718918822
 20
207.0610488204497
 30
0.0
 10
-85.76373233865971
 20
207.0499232170065
 30
0.0
 10
-85.79788624257405
 20
207.0427798745518
 30
0.0
 10
-85.82040540779444
 20
207.0418179591821
 30
0.0
 10
-85.83131892637206
 20
207.0413517909266
 30
0.0
 11
-85.45618898359649
 21
207.5151838122723
 31
0.0
 11
-85.45603384427899
 21
207.5112805018417
 31
0.0
 11
-85.45577996761106
 21
207.5030918531241
 31
0.0
 11
-85.45561510356833
 21
207.4915272665739
 31
0.0
 11
-85.45568246361088
 21
207.4796944296022
 31
0.0
 11
-85.45599047838579
 21
207.4679493235559
 31
0.0
 11
-85.45730923740236
 21
207.4449720298766
 31
0.0
 11
-85.45970232930199
 21
207.421279214456
 31
0.0
 11
-85.46791758866671
 21
207.3736575936614
 31
0.0
 11
-85.47939701125566
 21
207.3313979051284
 31
0.0
 11
-85.49603649100754
 21
207.2875805166843
 31
0.0
 11
-85.51624244691538
 21
207.2473486715519
 31
0.0
 11
-85.53953898259087
 21
207.210703894032
 31
0.0
 11
-85.56545020164549
 21
207.1776477084246
 31
0.0
 11
-85.59540601987484
 21
207.1463717822961
 31
0.0
 11
-85.62723610389985
 21
207.1191577713849
 31
0.0
 11
-85.66037122155589
 21
207.0960111483617
 31
0.0
 11
-85.69424214067837
 21
207.0769373858965
 31
0.0
 11
-85.72951251033001
 21
207.0614736717248
 31
0.0
 11
-85.76452988044457
 21
207.0503415084492
 31
0.0
 11
-85.79867257709944
 21
207.0436108851547
 31
0.0
 11
-85.83131892637206
 21
207.0413517909266
 31
0.0
  0
SPLINE
  5
11A
330
75
100
AcDbEntity
  8
0
  6
Continuous
 62
     7
100
AcDbSpline
210
0.0
220
0.0
230
1.0
 70
     8
 71
     3
 72
    11
 73
     7
 74
     5
 42
0.000000001
 43
0.0000000001
 44
0.00000001
 40
0.0
 40
0.0
 40
0.0
 40
0.0
 40
0.0213455633824978
 40
0.0427744203458234
 40
0.0654414375710932
 40
0.086418298682868
 40
0.086418298682868
 40
0.086418298682868
 40
0.086418298682868
 10
-72.34626415441781
 20
200.7737936834084
 30
0.0
 10
-72.35330202080006
 20
200.7748728779717
 30
0.0
 10
-72.36740521373865
 20
200.7770354930329
 30
0.0
 10
-72.388505056767
 20
200.7827075993478
 30
0.0
 10
-72.40901113115146
 20
200.7898770847814
 30
0.0
 10
-72.42219304936268
 20
200.7960504409791
 30
0.0
 10
-72.42852876350415
 20
200.7990175909114
 30
0.0
 11
-72.34626415441781
 21
200.7737936834084
 31
0.0
 11
-72.3673001252878
 21
200.7774159789146
 31
0.0
 11
-72.38802985138966
 21
200.7828450122716
 31
0.0
 11
-72.40938962373923
 21
200.7904314366377
 31
0.0
 11
-72.42852876350415
 21
200.7990175909114
 31
0.0
  0
SPLINE
  5
11B
330
75
100
AcDbEntity
  8
0
  6
Continuous
 62
     3
100
AcDbSpline
210
0.0
220
0.0
230
1.0
 70
     8
 71
     3
 72
    11
 73
     7
 74
     5
 42
0.000000001
 43
0.0000000001
 44
0.00000001
 40
0.0
 40
0.0
 40
0.0
 40
0.0
 40
4.63959278750924
 40
8.456272443671313
 40
12.51727595353589
 40
15.78429285781414
 40
15.78429285781414
 40
15.78429285781414
 40
15.78429285781414
 10
-86.82787792378939
 20
207.0413517909265
 30
0.0
 10
-85.3891522959954
 20
206.4738840814858
 30
0.0
 10
-82.76688426241513
 20
205.4395989975486
 30
0.0
 10
-78.92276173000994
 20
203.8167573043694
 30
0.0
 10
-75.52582447918428
 20
202.3114856198754
 30
0.0
 10
-73.32669272625076
 20
201.2479463877743
 30
0.0
 10
-72.34626415441781
 20
200.7737936834084
 30
0.0
 11
-86.82787792378939
 21
207.0413517909265
 31
0.0
 11
-82.51931739640453
 21
205.3202685811342
 31
0.0
 11
-79.00205243372667
 21
203.8384147484122
 31
0.0
 11
-75.29440120566714
 21
202.181588903308
 31
0.0
 11
-72.34626415441781
 21
200.7737936834084
 31
0.0
  0
SPLINE
  5
11C
330
75
100
AcDbEntity
  8
0
  6
Continuous
 62
     7
100
AcDbSpline
210
0.0
220
0.0
230
1.0
 70
     8
 71
     3
 72
     9
 73
     5
 74
     3
 42
0.000000001
 43
0.0000000001
 44
0.00000001
 40
0.0
 40
0.0
 40
0.0
 40
0.0
 40
0.5134301782337622
 40
1.088129097313498
 40
1.088129097313498
 40
1.088129097313498
 40
1.088129097313498
 10
-72.34626415441781
 20
200.7737936834084
 30
0.0
 10
-72.17676530527137
 20
200.7499014984023
 30
0.0
 10
-71.81754094345145
 20
200.6992660021287
 30
0.0
 10
-71.46148912090898
 20
200.6296950761574
 30
0.0
 10
-71.27343919552486
 20
200.5929509550717
 30
0.0
 11
-72.34626415441781
 21
200.7737936834084
 31
0.0
 11
-71.8384739403713
 21
200.697901347689
 31
0.0
 11
-71.27343919552486
 21
200.5929509550717
 31
0.0
  0
SPLINE
  5
11D
330
75
100
AcDbEntity
  8
0
  6
Continuous
 62
     3
100
AcDbSpline
210
0.0
220
0.0
230
1.0
 70
     8
 71
     3
 72
    11
 73
     7
 74
     5
 42
0.000000001
 43
0.0000000001
 44
0.00000001
 40
0.0
 40
0.0
 40
0.0
 40
0.0
 40
4.472396873733444
 40
8.654958500150322
 40
12.53765011809861
 40
16.08540634204038
 40
16.08540634204038
 40
16.08540634204038
 40
16.08540634204038
 10
-85.45618898359649
 20
207.5151838122723
 30
0.0
 10
-84.07120486100231
 20
206.9633955574358
 30
0.0
 10
-81.390991002998
 20
205.8955778653217
 30
0.0
 10
-77.54735514866391
 20
204.2540608654857
 30
0.0
 10
-74.01593538839842
 20
202.6669904064112
 30
0.0
 10
-71.79445235974353
 20
201.5713202623725
 30
0.0
 10
-70.73377871190296
 20
201.0481794363274
 30
0.0
 11
-85.45618898359649
 21
207.5151838122723
 31
0.0
 11
-81.30841556594656
 21
205.8423689775146
 31
0.0
 11
-77.4607948206461
 21
204.2023578918661
 31
0.0
 11
-73.92447493181966
 21
202.5993183270029
 31
0.0
 11
-70.73377871190296
 21
201.0481794363274
 31
0.0
  0
SPLINE
  5
11E
330
75
100
AcDbEntity
  8
0
  6
Continuous
 62
     7
100
AcDbSpline
210
0.0
220
0.0
230
1.0
 70
     8
 71
     3
 72
    29
 73
    25
 74
    23
 42
0.000000001
 43
0.0000000001
 44
0.00000001
 40
0.0
 40
0.0
 40
0.0
 40
0.0
 40
0.0012223298299458
 40
0.0020148860436095
 40
0.0030219228131926
 40
0.0040291670724512
 40
0.0059163881102819
 40
0.0080597004008865
 40
0.0119406600930124
 40
0.0161262394499094
 40
0.0241984868139292
 40
0.0322762977077413
 40
0.0481301909555972
 40
0.0646067243162791
 40
0.0861878290240544
 40
0.1077668843973761
 40
0.1293442734807709
 40
0.1438685163635721
 40
0.1598232320460938
 40
0.1771209131169076
 40
0.19568183976142
 40
0.2154349547853312
 40
0.2363187848909809
 40
0.2582823992658673
 40
0.2582823992658673
 40
0.2582823992658673
 40
0.2582823992658673
 10
-59.59610215434822
 20
207.5151838128052
 30
0.0
 10
-59.59612935704524
 20
207.5147772773814
 30
0.0
 10
-59.59617420344778
 20
207.514107145604
 30
0.0
 10
-59.59624751596007
 20
207.5131025068388
 30
0.0
 10
-59.59631620569475
 20
207.5121694197448
 30
0.0
 10
-59.5964140658176
 20
207.510872605259
 30
0.0
 10
-59.59654480095305
 20
207.5091984392433
 30
0.0
 10
-59.59675999388568
 20
207.5065700635168
 30
0.0
 10
-59.5970568601842
 20
207.5031797180418
 30
0.0
 10
-59.59756674598999
 20
207.4978242968107
 30
0.0
 10
-59.59828693094478
 20
207.4910838197556
 30
0.0
 10
-59.59958086585203
 20
207.4804942711758
 30
0.0
 10
-59.60151383869872
 20
207.4671620866006
 30
0.0
 10
-59.60462760679599
 20
207.4494607461679
 30
0.0
 10
-59.60876292942922
 20
207.4300110202037
 30
0.0
 10
-59.61409254558946
 20
207.4090945878919
 30
0.0
 10
-59.61958198338209
 20
207.3906623043243
 30
0.0
 10
-59.62508791053317
 20
207.3742049195556
 30
0.0
 10
-59.63056615931709
 20
207.3592486865609
 30
0.0
 10
-59.63700638903725
 20
207.3432201843772
 30
0.0
 10
-59.64448632193486
 20
207.3262545671208
 30
0.0
 10
-59.65310350823837
 20
207.3084992361198
 30
0.0
 10
-59.66287542246297
 20
207.2900523397203
 30
0.0
 10
-59.67020754605078
 20
207.2777930992908
 30
0.0
 10
-59.67396600142767
 20
207.2715090122807
 30
0.0
 11
-59.59610215434822
 21
207.5151838128052
 31
0.0
 11
-59.59618525509983
 21
207.513964301051
 31
0.0
 11
-59.59624239663597
 21
207.5131738168736
 31
0.0
 11
-59.59631651792658
 21
207.5121695115576
 31
0.0
 11
-59.5963923079826
 21
207.511165122611
 31
0.0
 11
-59.59653926889651
 21
207.509283631977
 31
0.0
 11
-59.59671417062617
 21
207.5071474674431
 31
0.0
 11
-59.59705271315785
 21
207.5032813007214
 31
0.0
 11
-59.59744942191932
 21
207.4991145623104
 31
0.0
 11
-59.59830697709629
 21
207.4910879916805
 31
0.0
 11
-59.5992866682231
 21
207.4830698083292
 31
0.0
 11
-59.60156117672241
 21
207.4673799239429
 31
0.0
 11
-59.60441541381731
 21
207.4511524956578
 31
0.0
 11
-59.60890318139825
 21
207.4300431617155
 31
0.0
 11
-59.61423124912602
 21
207.4091322243309
 31
0.0
 11
-59.6203899110414
 21
207.3884524131801
 31
0.0
 11
-59.62499816899471
 21
207.3746786124982
 31
0.0
 11
-59.63048590406393
 21
207.3596973671518
 31
0.0
 11
-59.63693452382845
 21
207.3436466640503
 31
0.0
 11
-59.64442543586768
 21
207.326664490103
 31
0.0
 11
-59.65304004776104
 21
207.3088888322195
 31
0.0
 11
-59.66285976708788
 21
207.2904576773088
 31
0.0
 11
-59.67396600142767
 21
207.2715090122807
 31
0.0
  0
SPLINE
  5
11F
330
75
100
AcDbEntity
  8
0
  6
Continuous
 62
     7
100
AcDbSpline
210
0.0
220
0.0
230
1.0
 70
     8
 71
     3
 72
    23
 73
    19
 74
    17
 42
0.000000001
 43
0.0000000001
 44
0.00000001
 40
0.0
 40
0.0
 40
0.0
 40
0.0
 40
0.0518157709112322
 40
0.1025789574239729
 40
0.1490499888954984
 40
0.2052802969782814
 40
0.2506499907230149
 40
0.3066471285106165
 40
0.3515667229371971
 40
0.4073948412280361
 40
0.4570782054048437
 40
0.5064443710177108
 40
0.5556108899924117
 40
0.6045362714164126
 40
0.658033011096277
 40
0.7011283481718301
 40
0.7458702956589811
 40
0.7971715489534302
 40
0.7971715489534302
 40
0.7971715489534302
 40
0.7971715489534302
 10
-70.73377871190296
 20
201.0481794363274
 30
0.0
 10
-70.73475235146876
 20
201.0309161028664
 30
0.0
 10
-70.73667986654829
 20
200.9967401240785
 30
0.0
 10
-70.74661083050717
 20
200.9478932253671
 30
0.0
 10
-70.76173922347238
 20
200.8989634869906
 30
0.0
 10
-70.78161291497176
 20
200.8536337301729
 30
0.0
 10
-70.80773247290176
 20
200.8079784737836
 30
0.0
 10
-70.83628803607385
 20
200.7683096227847
 30
0.0
 10
-70.87097488081717
 20
200.7291547577321
 30
0.0
 10
-70.90787211539865
 20
200.6950392503897
 30
0.0
 10
-70.9492797436937
 20
200.6640721117962
 30
0.0
 10
-70.99164765813227
 20
200.6384986351279
 30
0.0
 10
-71.03616335218909
 20
200.6174488543728
 30
0.0
 10
-71.08394685703217
 20
200.6007421601557
 30
0.0
 10
-71.13140976134954
 20
200.5900633114135
 30
0.0
 10
-71.1783291748187
 20
200.5852063866905
 30
0.0
 10
-71.2248744670736
 20
200.5851267106225
 30
0.0
 10
-71.256530304318
 20
200.5902267653485
 30
0.0
 10
-71.27343919552486
 20
200.5929509550717
 30
0.0
 11
-70.73377871190296
 21
201.0481794363274
 31
0.0
 11
-70.7379517307054
 21
200.9965319761461
 31
0.0
 11
-70.74774355721283
 21
200.9467221241883
 31
0.0
 11
-70.76152653721408
 21
200.9023421028086
 31
0.0
 11
-70.78405147540855
 21
200.8508205074922
 31
0.0
 11
-70.80656948106851
 21
200.8114333450056
 31
0.0
 11
-70.83926112311585
 21
200.7659697768747
 31
0.0
 11
-70.86904117569225
 21
200.7323406457858
 31
0.0
 11
-70.91003151934157
 21
200.6944385275995
 31
0.0
 11
-70.94982546858789
 21
200.6646916231917
 31
0.0
 11
-70.99210130858488
 21
200.6392010030327
 31
0.0
 11
-71.03656466902773
 21
200.6182163361969
 31
0.0
 11
-71.08276174293906
 21
200.6021066058644
 31
0.0
 11
-71.13497445684142
 21
200.5904561196116
 31
0.0
 11
-71.17783644228115
 21
200.5859774566011
 31
0.0
 11
-71.2225775666823
 21
200.5862491979921
 31
0.0
 11
-71.27343919552486
 21
200.5929509550717
 31
0.0
  0
SPLINE
  5
120
330
75
100
AcDbEntity
  8
0
  6
Continuous
 62
     7
100
AcDbSpline
210
0.0
220
0.0
230
1.0
 70
     8
 71
     3
 72
    13
 73
     9
 74
     7
 42
0.000000001
 43
0.0000000001
 44
0.00000001
 40
0.0
 40
0.0
 40
0.0
 40
0.0
 40
1.091700578799233
 40
2.157421516398878
 40
3.330845534034405
 40
4.571043524061427
 40
6.517691136623315
 40
8.614565415689594
 40
8.614565415689594
 40
8.614565415689594
 40
8.614565415689594
 10
-59.67396600142767
 20
207.2715090122807
 30
0.0
 10
-59.87329944862304
 20
206.966767879009
 30
0.0
 10
-60.26722273610983
 20
206.3645376688768
 30
0.0
 10
-60.97334182406787
 20
205.5054121285441
 30
0.0
 10
-61.76821805651917
 20
204.6598907014587
 30
0.0
 10
-62.83620561098226
 20
203.6727427930778
 30
0.0
 10
-64.21284735405726
 20
202.5697593549231
 30
0.0
 10
-65.33833611416964
 20
201.8271742052178
 30
0.0
 10
-65.92198781992825
 20
201.4420872148229
 30
0.0
 11
-59.67396600142767
 21
207.2715090122807
 31
0.0
 11
-60.28820985440204
 21
206.3690043609356
 31
0.0
 11
-60.95885938313596
 21
205.5407590289959
 31
0.0
 11
-61.76236482436244
 21
204.6855965096491
 31
0.0
 11
-62.67070353718887
 21
203.8411962256889
 31
0.0
 11
-64.19038783712067
 21
202.6246451349053
 31
0.0
 11
-65.92198781992825
 21
201.4420872148229
 31
0.0
  0
SPLINE
  5
121
330
75
100
AcDbEntity
  8
0
  6
Continuous
 62
     3
100
AcDbSpline
210
0.0
220
0.0
230
1.0
 70
     8
 71
     3
 72
    13
 73
     9
 74
     7
 42
0.000000001
 43
0.0000000001
 44
0.00000001
 40
0.0
 40
0.0
 40
0.0
 40
0.0
 40
2.197226468609319
 40
4.217120700101513
 40
5.414517666121624
 40
6.552609673874811
 40
7.600992498194633
 40
8.638736159424374
 40
8.638736159424374
 40
8.638736159424374
 40
8.638736159424374
 10
-65.90730997277036
 20
201.7221572227235
 30
0.0
 10
-65.2922069151128
 20
202.1203306652672
 30
0.0
 10
-64.11164412067002
 20
202.8845420546989
 30
0.0
 10
-62.69541160409885
 20
204.00843160978
 30
0.0
 10
-61.6265157172645
 20
204.9921594667246
 30
0.0
 10
-60.85154243764855
 20
205.8126719806373
 30
0.0
 10
-60.1667251274236
 20
206.643335020316
 30
0.0
 10
-59.78566200572251
 20
207.2255573161899
 30
0.0
 10
-59.59610215434822
 20
207.5151838128052
 30
0.0
 11
-65.90730997277036
 21
201.7221572227235
 31
0.0
 11
-64.08304601695055
 21
202.9468470464485
 31
0.0
 11
-62.50074856637779
 21
204.2023578924511
 31
0.0
 11
-61.6220289704226
 21
205.0157528569929
 31
0.0
 11
-60.84084389008361
 21
205.8434021136555
 31
0.0
 11
-60.1801304043685
 21
206.6573826047689
 31
0.0
 11
-59.59610215434822
 21
207.5151838128052
 31
0.0
  0
SPLINE
  5
122
330
75
100
AcDbEntity
  8
0
  6
Continuous
 62
     7
100
AcDbSpline
210
0.0
220
0.0
230
1.0
 70
     8
 71
     3
 72
     9
 73
     5
 74
     3
 42
0.000000001
 43
0.0000000001
 44
0.00000001
 40
0.0
 40
0.0
 40
0.0
 40
0.0
 40
0.002959020074026
 40
0.0059183824873528
 40
0.0059183824873528
 40
0.0059183824873528
 40
0.0059183824873528
 10
-107.232437136766
 20
207.0431478065663
 30
0.0
 10
-107.2333769624719
 20
207.0428484835186
 30
0.0
 10
-107.2352567240238
 20
207.0422498072161
 30
0.0
 10
-107.2371364883927
 20
207.0416511397584
 30
0.0
 10
-107.2380764256474
 20
207.0413517909265
 30
0.0
 11
-107.232437136766
 21
207.0431478065663
 31
0.0
 11
-107.235256615292
 21
207.0422498418453
 31
0.0
 11
-107.2380764256474
 21
207.0413517909265
 31
0.0
  0
SPLINE
  5
123
330
75
100
AcDbEntity
  8
0
  6
Continuous
 62
     7
100
AcDbSpline
210
0.0
220
0.0
230
1.0
 70
     8
 71
     3
 72
    49
 73
    45
 74
    43
 42
0.000000001
 43
0.0000000001
 44
0.00000001
 40
0.0
 40
0.0
 40
0.0
 40
0.0
 40
0.0012936522671881
 40
0.002812064595607
 40
0.0042181818333153
 40
0.0056242017667322
 40
0.0084364450314431
 40
0.0112481835472921
 40
0.0164313835359042
 40
0.0224914830804799
 40
0.0334213194694241
 40
0.044928937777622
 40
0.0668651416607033
 40
0.0894101644002902
 40
0.1096663419832152
 40
0.1306266825422074
 40
0.1524934891578009
 40
0.1754690557448654
 40
0.188782313019534
 40
0.201066239699976
 40
0.2125486343718003
 40
0.223457295058482
 40
0.2340200189995411
 40
0.2444646025378646
 40
0.2550188411827155
 40
0.2709331737741597
 40
0.2858438232484196
 40
0.2998324701434129
 40
0.3129808190962191
 40
0.3253706170349134
 40
0.344390964763414
 40
0.3619540962305815
 40
0.3781174049248232
 40
0.3929402664860341
 40
0.4064850369217809
 40
0.4188184449937415
 40
0.4300135246096523
 40
0.4410120546828297
 40
0.4509323871898499
 40
0.4598679227681666
 40
0.4679553358533862
 40
0.4753895764729236
 40
0.4824335683393767
 40
0.4894096783713974
 40
0.4894096783713974
 40
0.4894096783713974
 40
0.4894096783713974
 10
-107.1399131593905
 20
207.5151838127901
 30
0.0
 10
-107.1399565788217
 20
207.5147547767975
 30
0.0
 10
-107.140050946584
 20
207.5138221622497
 30
0.0
 10
-107.1402203456059
 20
207.512426287911
 30
0.0
 10
-107.1403826470286
 20
207.5109919293345
 30
0.0
 10
-107.1405960574736
 20
207.5091293199916
 30
0.0
 10
-107.1408624694793
 20
207.506801180289
 30
0.0
 10
-107.1412743720995
 20
207.5032224120021
 30
0.0
 10
-107.1418140796301
 20
207.4985685890523
 30
0.0
 10
-107.1426745646284
 20
207.4912278026275
 30
0.0
 10
-107.1437970452769
 20
207.4817951626069
 30
0.0
 10
-107.1455749088076
 20
207.4671111701953
 30
0.0
 10
-107.1478666040947
 20
207.4485894285476
 30
0.0
 10
-107.150569455771
 20
207.427180219861
 30
0.0
 10
-107.1532635705378
 20
207.4060978118657
 30
0.0
 10
-107.1559460651217
 20
207.3852418396742
 30
0.0
 10
-107.1587496293917
 20
207.3634875111292
 30
0.0
 10
-107.1612225068432
 20
207.3442606735422
 30
0.0
 10
-107.1632794380604
 20
207.3282009463043
 30
0.0
 10
-107.1648443271747
 20
207.3159405523573
 30
0.0
 10
-107.1663026782638
 20
207.3044745961566
 30
0.0
 10
-107.1676840504437
 20
207.2935772064291
 30
0.0
 10
-107.1690180181477
 20
207.2830225137783
 30
0.0
 10
-107.1703341775887
 20
207.2725846514469
 30
0.0
 10
-107.1718712482703
 20
207.2603766498463
 30
0.0
 10
-107.1735932192843
 20
207.2466914866272
 30
0.0
 10
-107.175463850225
 20
207.2318711991132
 30
0.0
 10
-107.1772323054335
 20
207.2179673294399
 30
0.0
 10
-107.1789159845429
 20
207.2048997403168
 30
0.0
 10
-107.1808495741882
 20
207.1901732957115
 30
0.0
 10
-107.1830433914945
 20
207.1739968316907
 30
0.0
 10
-107.1855507321543
 20
207.1565939785782
 30
0.0
 10
-107.1880508524505
 20
207.1406046293484
 30
0.0
 10
-107.1905876486915
 20
207.1259784347669
 30
0.0
 10
-107.1932051726222
 20
207.1126648249462
 30
0.0
 10
-107.1959476262356
 20
207.1006127966563
 30
0.0
 10
-107.1989341552979
 20
207.0894943753127
 30
0.0
 10
-107.2022460957118
 20
207.079307938413
 30
0.0
 10
-107.2059990309936
 20
207.0700786646966
 30
0.0
 10
-107.2101644850417
 20
207.0621041300483
 30
0.0
 10
-107.2148138318347
 20
207.0553700829053
 30
0.0
 10
-107.2200408071665
 20
207.0499245345276
 30
0.0
 10
-107.2258804812026
 20
207.0456686091582
 30
0.0
 10
-107.2302586525803
 20
207.0439853613869
 30
0.0
 10
-107.232437136766
 20
207.0431478065663
 30
0.0
 11
-107.1399131593905
 21
207.5151838127901
 31
0.0
 11
-107.1400473418427
 21
207.5138971409518
 31
0.0
 11
-107.1402227512102
 21
207.5123888938933
 31
0.0
 11
-107.1403829873715
 21
207.5109919368732
 31
0.0
 11
-107.1405426870196
 21
207.5095950163174
 31
0.0
 11
-107.1408628032444
 21
207.5068010523458
 31
0.0
 11
-107.1411842781311
 21
207.5040077522853
 31
0.0
 11
-107.1417813904412
 21
207.4988590617435
 31
0.0
 11
-107.1424868465825
 21
207.4928401636524
 31
0.0
 11
-107.143777900253
 21
207.4819868463391
 31
0.0
 11
-107.1451605150476
 21
207.4705625892112
 31
0.0
 11
-107.1478505599602
 21
207.4487919509609
 31
0.0
 11
-107.1506709861882
 21
207.4264240444791
 31
0.0
 11
-107.1532365137655
 21
207.4063309910745
 31
0.0
 11
-107.1559083740762
 21
207.385541641978
 31
0.0
 11
-107.1587015031759
 21
207.3638539574874
 31
0.0
 11
-107.1616308371204
 21
207.3410658979008
 31
0.0
 11
-107.1633220386864
 21
207.3278604953865
 31
0.0
 11
-107.1648772364741
 21
207.3156754137819
 31
0.0
 11
-107.1663259957128
 21
207.3042847823973
 31
0.0
 11
-107.167697881632
 21
207.2934627305434
 31
0.0
 11
-107.1690224594609
 21
207.2829833875307
 31
0.0
 11
-107.170329294429
 21
207.2726208826697
 31
0.0
 11
-107.1716479517655
 21
207.2621493452709
 31
0.0
 11
-107.1736360465072
 21
207.2463596822152
 31
0.0
 11
-107.1755047745088
 21
207.2315665986369
 31
0.0
 11
-107.1772715303002
 21
207.2176899702881
 31
0.0
 11
-107.1789537084116
 21
207.2046496729209
 31
0.0
 11
-107.1805687033729
 21
207.1923655822873
 31
0.0
 11
-107.1831357642874
 21
207.1735192611143
 31
0.0
 11
-107.1856535086944
 21
207.156137530888
 31
0.0
 11
-107.1881660110379
 21
207.1401706941521
 31
0.0
 11
-107.190717345762
 21
207.1255690534501
 31
0.0
 11
-107.1933515873107
 21
207.1122829113255
 31
0.0
 11
-107.1961128101281
 21
207.1002625703219
 31
0.0
 11
-107.1990450886583
 21
207.0894583329829
 31
0.0
 11
-107.2024878532551
 21
207.0790125190697
 31
0.0
 11
-107.2062736315104
 21
207.0698429568221
 31
0.0
 11
-107.2104621208271
 21
207.0619499001258
 31
0.0
 11
-107.2151130186081
 21
207.0553336028664
 31
0.0
 11
-107.2202860222563
 21
207.0499943189296
 31
0.0
 11
-107.2260408291747
 21
207.045932302201
 31
0.0
 11
-107.232437136766
 21
207.0431478065663
 31
0.0
  0
SPLINE
  5
124
330
75
100
AcDbEntity
  8
0
  6
Continuous
 62
     7
100
AcDbSpline
210
0.0
220
0.0
230
1.0
 70
     8
 71
     3
 72
     9
 73
     5
 74
     3
 42
0.000000001
 43
0.0000000001
 44
0.00000001
 40
0.0
 40
0.0
 40
0.0
 40
0.0
 40
0.0190964039547574
 40
0.0381929201116988
 40
0.0381929201116988
 40
0.0381929201116988
 40
0.0381929201116988
 10
-129.1861969283556
 20
200.5957504157802
 30
0.0
 10
-129.1923419510882
 20
200.5940897296873
 30
0.0
 10
-129.2046320378762
 20
200.5907683670513
 30
0.0
 10
-129.2169222907783
 20
200.5874476191507
 30
0.0
 10
-129.2230674378909
 20
200.5857872499764
 30
0.0
 11
-129.1861969283556
 21
200.5957504157802
 31
0.0
 11
-129.2046320406903
 21
200.5907685208379
 31
0.0
 11
-129.2230674378909
 21
200.5857872499764
 31
0.0
  0
SPLINE
  5
125
330
75
100
AcDbEntity
  8
0
  6
Continuous
 62
     7
100
AcDbSpline
210
0.0
220
0.0
230
1.0
 70
     8
 71
     3
 72
    11
 73
     7
 74
     5
 42
0.000000001
 43
0.0000000001
 44
0.00000001
 40
0.0
 40
0.0
 40
0.0
 40
0.0
 40
5.23368590304459
 40
11.30634324163858
 40
17.07429877724628
 40
22.87674361688984
 40
22.87674361688984
 40
22.87674361688984
 40
22.87674361688984
 10
-107.2380764256474
 20
207.0413517909265
 30
0.0
 10
-108.9020772905485
 20
206.5172701704743
 30
0.0
 10
-112.4968220471173
 20
205.3850955007464
 30
0.0
 10
-117.9497698950155
 20
203.7542066695259
 30
0.0
 10
-123.6004112172635
 20
202.1237664109541
 30
0.0
 10
-127.3205719776331
 20
201.1061002365745
 30
0.0
 10
-129.1861969283556
 20
200.5957504157802
 30
0.0
 11
-107.2380764256474
 21
207.0413517909265
 31
0.0
 11
-112.2335320808118
 21
205.4802973621341
 31
0.0
 11
-118.0499147174078
 21
203.734771602296
 31
0.0
 11
-123.592954525896
 21
202.1397729366195
 31
0.0
 11
-129.1861969283556
 21
200.5957504157802
 31
0.0
  0
SPLINE
  5
126
330
75
100
AcDbEntity
  8
0
  6
Continuous
 62
     7
100
AcDbSpline
210
0.0
220
0.0
230
1.0
 70
     8
 71
     3
 72
    11
 73
     7
 74
     5
 42
0.000000001
 43
0.0000000001
 44
0.00000001
 40
0.0
 40
0.0
 40
0.0
 40
0.0
 40
3.169713344087666
 40
6.445568860347645
 40
7.581443013168896
 40
8.729622581272297
 40
8.729622581272297
 40
8.729622581272297
 40
8.729622581272297
 10
-136.6959503821048
 20
201.0481794363534
 30
0.0
 10
-136.7381438118971
 20
202.1039078471917
 30
0.0
 10
-136.8239435595713
 20
204.2507171744879
 30
0.0
 10
-136.9211616321323
 20
206.7759950591825
 30
0.0
 10
-136.9913778512349
 20
208.627967513632
 30
0.0
 10
-137.0198821032617
 20
209.3887849941852
 30
0.0
 10
-137.0342110058002
 20
209.771243199458
 30
0.0
 11
-136.6959503821048
 21
201.0481794363534
 31
0.0
 11
-136.8217695715734
 21
204.2153946509
 31
0.0
 11
-136.9481307389127
 21
207.4888121645805
 31
0.0
 11
-136.9911380937897
 21
208.6238718363533
 31
0.0
 11
-137.0342110058002
 21
209.771243199458
 31
0.0
  0
SPLINE
  5
127
330
75
100
AcDbEntity
  8
0
  6
Continuous
 62
     3
100
AcDbSpline
210
0.0
220
0.0
230
1.0
 70
     8
 71
     3
 72
    13
 73
     9
 74
     7
 42
0.000000001
 43
0.0000000001
 44
0.00000001
 40
0.0
 40
0.0
 40
0.0
 40
0.0
 40
1.012332488141193
 40
2.08612979974395
 40
3.193992937476847
 40
4.421620023660179
 40
6.44151425415377
 40
8.638740722984194
 40
8.638740722984194
 40
8.638740722984194
 40
8.638740722984194
 10
-206.4038978553773
 20
207.5151838122723
 30
0.0
 10
-206.2191557383015
 20
207.2325476458931
 30
0.0
 10
-205.8384546814329
 20
206.6501147716956
 30
0.0
 10
-205.1606845233624
 20
205.8266182583704
 30
0.0
 10
-204.3807382842802
 20
204.9992236402665
 30
0.0
 10
-203.3124919489266
 20
204.014687020579
 30
0.0
 10
-201.8883570309436
 20
202.8845484535865
 30
0.0
 10
-200.7077934794847
 20
202.1203328572761
 30
0.0
 10
-200.0926900272297
 20
201.7221572227234
 30
0.0
 11
-206.4038978553773
 21
207.5151838122723
 31
0.0
 11
-205.8350763930461
 21
206.6777715999256
 31
0.0
 11
-205.1591561093865
 21
205.8434021130509
 31
0.0
 11
-204.3994660335092
 21
205.0370326418328
 31
0.0
 11
-203.4992514329498
 21
204.2023578918661
 31
0.0
 11
-201.91695398318
 21
202.9468470465436
 31
0.0
 11
-200.0926900272297
 21
201.7221572227234
 31
0.0
  0
SPLINE
  5
128
330
75
100
AcDbEntity
  8
0
  6
Continuous
 62
     7
100
AcDbSpline
210
0.0
220
0.0
230
1.0
 70
     8
 71
     3
 72
    13
 73
     9
 74
     7
 42
0.000000001
 43
0.0000000001
 44
0.00000001
 40
0.0
 40
0.0
 40
0.0
 40
0.0
 40
2.018148461552334
 40
4.043508619149483
 40
5.283706608119837
 40
6.457130626761757
 40
7.583744340032227
 40
8.614559541667889
 40
8.614559541667889
 40
8.614559541667889
 40
8.614559541667889
 10
-200.0780121576075
 20
201.4420867861782
 30
0.0
 10
-200.6399299332471
 20
201.8123817063598
 30
0.0
 10
-201.7657734456208
 20
202.5542947787559
 30
0.0
 10
-203.144527143575
 20
203.6549103922393
 30
0.0
 10
-204.2317755138434
 20
204.6599019454582
 30
0.0
 10
-205.0405854033792
 20
205.5201753008896
 30
0.0
 10
-205.7451457382101
 20
206.3808063154179
 30
0.0
 10
-206.1382226471148
 20
206.9835292168173
 30
0.0
 10
-206.3260339986239
 20
207.2715090123647
 30
0.0
 11
-200.0780121576075
 21
201.4420867861782
 31
0.0
 11
-201.7461503464245
 21
202.5779733070614
 31
0.0
 11
-203.3292964628117
 21
203.8411962256893
 31
0.0
 11
-204.2376351748863
 21
204.6855965089031
 31
0.0
 11
-205.0411406168641
 21
205.5407590289959
 31
0.0
 11
-205.7481549863115
 21
206.4179073313897
 31
0.0
 11
-206.3260339986239
 21
207.2715090123647
 31
0.0
  0
SPLINE
  5
129
330
75
100
AcDbEntity
  8
0
  6
Continuous
 62
     7
100
AcDbSpline
210
0.0
220
0.0
230
1.0
 70
     8
 71
     3
 72
    11
 73
     7
 74
     5
 42
0.000000001
 43
0.0000000001
 44
0.00000001
 40
0.0
 40
0.0
 40
0.0
 40
0.0
 40
5.435647669764204
 40
11.60859192557541
 40
16.93966710836573
 40
22.92085305120366
 40
22.92085305120366
 40
22.92085305120366
 40
22.92085305120366
 10
-136.7769325621094
 20
200.5857872499764
 30
0.0
 10
-138.5247361121708
 20
201.0634523293747
 30
0.0
 10
-142.2574169974552
 20
202.0835734635482
 30
0.0
 10
-147.6833485053899
 20
203.6471181638575
 30
0.0
 10
-153.2685981332928
 20
205.3135314337687
 30
0.0
 10
-156.8656672846968
 20
206.4449352479455
 30
0.0
 10
-158.7675628632342
 20
207.0431478065663
 30
0.0
 11
-136.7769325621094
 21
200.5857872499764
 31
0.0
 11
-142.0171987223398
 21
202.0300435154309
 31
0.0
 11
-147.9500852825864
 21
203.7347716022942
 31
0.0
 11
-153.0572984972142
 21
205.2634101423
 31
0.0
 11
-158.7675628632342
 21
207.0431478065663
 31
0.0
  0
SPLINE
  5
12A
330
75
100
AcDbEntity
  8
0
  6
Continuous
 62
     3
100
AcDbSpline
210
0.0
220
0.0
230
1.0
 70
     8
 71
     3
 72
    13
 73
     9
 74
     7
 42
0.000000001
 43
0.0000000001
 44
0.00000001
 40
0.0
 40
0.0
 40
0.0
 40
0.0
 40
0.1299792162364786
 40
0.2557262957754126
 40
0.3737845718167797
 40
0.4822890447801794
 40
0.5817810002262994
 40
0.6756765893584088
 40
0.6756765893584088
 40
0.6756765893584088
 40
0.6756765893584088
 10
-159.388587991914
 20
220.0827053811287
 30
0.0
 10
-159.3908954619442
 20
220.126101720305
 30
0.0
 10
-159.3954352841715
 20
220.211481408034
 30
0.0
 10
-159.4316843868457
 20
220.3318669596158
 30
0.0
 10
-159.4873356724377
 20
220.436438636669
 30
0.0
 10
-159.5612944697565
 20
220.5172337850368
 30
0.0
 10
-159.6491362627527
 20
220.5720463602287
 30
0.0
 10
-159.7139040079581
 20
220.5792215923538
 30
0.0
 10
-159.7453507376952
 20
220.5827053811287
 30
0.0
 11
-159.388587991914
 21
220.0827053811287
 31
0.0
 11
-159.4007444795614
 21
220.2121148691786
 31
0.0
 11
-159.4363851367248
 21
220.3327053811287
 31
0.0
 11
-159.4930814481351
 21
220.4362586774626
 31
0.0
 11
-159.5669693648047
 21
220.5157180830209
 31
0.0
 11
-159.6530137691216
 21
220.5656681655126
 31
0.0
 11
-159.7453507376952
 21
220.5827053811287
 31
0.0
  0
SPLINE
  5
12B
330
75
100
AcDbEntity
  8
0
  6
Continuous
 62
     3
100
AcDbSpline
210
0.0
220
0.0
230
1.0
 70
     8
 71
     3
 72
    13
 73
     9
 74
     7
 42
0.000000001
 43
0.0000000001
 44
0.00000001
 40
0.0
 40
0.0
 40
0.0
 40
0.0
 40
0.1294795709380272
 40
0.2507149193335803
 40
0.3561563606510506
 40
0.4397267056541496
 40
0.4980695778227844
 40
0.5346337947891024
 40
0.5346337947891024
 40
0.5346337947891024
 40
0.5346337947891024
 10
-76.03019655835988
 20
220.0827053811287
 30
0.0
 10
-76.03097581448866
 20
220.125896246847
 30
0.0
 10
-76.03248470128307
 20
220.2095279298614
 30
0.0
 10
-76.0448626899302
 20
220.3274633002919
 30
0.0
 10
-76.06297426490433
 20
220.4302549238279
 30
0.0
 10
-76.08816773252343
 20
220.506983490063
 30
0.0
 10
-76.1134518017941
 20
220.5656436298565
 30
0.0
 10
-76.14358669095272
 20
220.5779602427694
 30
0.0
 10
-76.15519655835988
 20
220.5827053811287
 30
0.0
 11
-76.03019655835988
 21
220.0827053811287
 31
0.0
 11
-76.03445586226394
 21
220.2121148691786
 31
0.0
 11
-76.04694338288684
 21
220.3327053811287
 31
0.0
 11
-76.06680823427641
 21
220.4362586774626
 31
0.0
 11
-76.09269655835988
 21
220.5157180830209
 31
0.0
 11
-76.12284418634741
 21
220.5656681655126
 31
0.0
 11
-76.15519655835988
 21
220.5827053811287
 31
0.0
  0
SPLINE
  5
12C
330
75
100
AcDbEntity
  8
0
  6
Continuous
 62
     7
100
AcDbSpline
210
0.0
220
0.0
230
1.0
 70
     8
 71
     3
 72
     9
 73
     5
 74
     3
 42
0.000000001
 43
0.0000000001
 44
0.00000001
 40
0.0
 40
0.0
 40
0.0
 40
0.0
 40
0.6775741590765193
 40
1.342370950655694
 40
1.342370950655694
 40
1.342370950655694
 40
1.342370950655694
 10
-192.3645980845565
 20
201.3867268820643
 30
0.0
 10
-192.5680813295897
 20
201.2887117954602
 30
0.0
 10
-192.971210621789
 20
201.0945299256034
 30
0.0
 10
-193.372658094708
 20
200.8968946441282
 30
0.0
 10
-193.5714712364959
 20
200.7990175909115
 30
0.0
 11
-192.3645980845565
 21
201.3867268820643
 31
0.0
 11
-192.9746193181007
 21
201.0918017462888
 31
0.0
 11
-193.5714712364959
 21
200.7990175909115
 31
0.0
  0
SPLINE
  5
12D
330
75
100
AcDbEntity
  8
0
  6
Continuous
 62
     7
100
AcDbSpline
210
0.0
220
0.0
230
1.0
 70
     8
 71
     3
 72
    11
 73
     7
 74
     5
 42
0.000000001
 43
0.0000000001
 44
0.00000001
 40
0.0
 40
0.0
 40
0.0
 40
0.0
 40
0.0219506811988848
 40
0.043638429284924
 40
0.0661686694543864
 40
0.0864183321305338
 40
0.0864183321305338
 40
0.0864183321305338
 40
0.0864183321305338
 10
-193.5714712364959
 20
200.7990175909115
 30
0.0
 10
-193.5781041663828
 20
200.795918215819
 30
0.0
 10
-193.5912905805551
 20
200.7897566047511
 30
0.0
 10
-193.6121520835513
 20
200.782503619005
 30
0.0
 10
-193.6329522739515
 20
200.776956390261
 30
0.0
 10
-193.6470586558305
 20
200.77480976907
 30
0.0
 10
-193.6537358455822
 20
200.7737936834085
 30
0.0
 11
-193.5714712364959
 21
200.7990175909115
 31
0.0
 11
-193.5915147081063
 21
200.7900681963073
 31
0.0
 11
-193.6119648341081
 21
200.7828466453344
 31
0.0
 11
-193.6337723097589
 21
200.7771857469796
 31
0.0
 11
-193.6537358455822
 21
200.7737936834085
 31
0.0
  0
SPLINE
  5
12E
330
75
100
AcDbEntity
  8
0
  6
Continuous
 62
     7
100
AcDbSpline
210
0.0
220
0.0
230
1.0
 70
     8
 71
     3
 72
     9
 73
     5
 74
     3
 42
0.000000001
 43
0.0000000001
 44
0.00000001
 40
0.0
 40
0.0
 40
0.0
 40
0.0
 40
0.5746989190797688
 40
1.088129097313586
 40
1.088129097313586
 40
1.088129097313586
 40
1.088129097313586
 10
-194.7265608044752
 20
200.5929509550717
 30
0.0
 10
-194.5385108790911
 20
200.6296950761575
 30
0.0
 10
-194.1824590565486
 20
200.6992660021287
 30
0.0
 10
-193.8232346947286
 20
200.7499014984024
 30
0.0
 10
-193.6537358455822
 20
200.7737936834085
 30
0.0
 11
-194.7265608044752
 21
200.5929509550717
 31
0.0
 11
-194.1615260596287
 21
200.6979013476891
 31
0.0
 11
-193.6537358455822
 21
200.7737936834085
 31
0.0
  0
SPLINE
  5
12F
330
75
100
AcDbEntity
  8
0
  6
Continuous
 62
     7
100
AcDbSpline
210
0.0
220
0.0
230
1.0
 70
     8
 71
     3
 72
    19
 73
    15
 74
    13
 42
0.000000001
 43
0.0000000001
 44
0.00000001
 40
0.0
 40
0.0
 40
0.0
 40
0.0
 40
0.0968761720370045
 40
0.1921326626026337
 40
0.2900962767774347
 40
0.3892371833494696
 40
0.4394259220431614
 40
0.4899388548129834
 40
0.5362376034970521
 40
0.5914586865384837
 40
0.6475594333585537
 40
0.6939460568743852
 40
0.7417010033170797
 40
0.7965673823744852
 40
0.7965673823744852
 40
0.7965673823744852
 40
0.7965673823744852
 10
-194.7265608044752
 20
200.5929509550717
 30
0.0
 10
-194.758777252861
 20
200.5889492804929
 30
0.0
 10
-194.8226715209389
 20
200.5810128500004
 30
0.0
 10
-194.9190212794769
 20
200.5992295198745
 30
0.0
 10
-195.0096798291156
 20
200.6362869242423
 30
0.0
 10
-195.0785032591941
 20
200.6828325038296
 30
0.0
 10
-195.1277201378893
 20
200.7278367592771
 30
0.0
 10
-195.1604753035457
 20
200.7644013751153
 30
0.0
 10
-195.1905203423673
 20
200.8052985964725
 30
0.0
 10
-195.217124211191
 20
200.8507377085698
 30
0.0
 10
-195.2382765075355
 20
200.8990163981923
 30
0.0
 10
-195.2530863186074
 20
200.9469211967902
 30
0.0
 10
-195.2631737063165
 20
200.9957060502139
 30
0.0
 10
-195.2651595606533
 20
201.0298984869336
 30
0.0
 10
-195.2662212880971
 20
201.0481794363275
 30
0.0
 11
-194.7265608044752
 21
200.5929509550717
 31
0.0
 11
-194.8231895099836
 21
200.5860309599922
 31
0.0
 11
-194.9170871845859
 21
200.6020629950729
 31
0.0
 11
-195.0077672192697
 21
200.6391305196443
 31
0.0
 11
-195.090018855608
 21
200.6944802077115
 31
0.0
 11
-195.1270536186212
 21
200.7283525545912
 31
0.0
 11
-195.1607501233031
 21
200.7659836855047
 31
0.0
 11
-195.1881481920138
 21
200.803305529225
 31
0.0
 11
-195.2160262868531
 21
200.8509729178224
 31
0.0
 11
-195.2384876950644
 21
200.9023808846618
 31
0.0
 11
-195.2522457434985
 21
200.946680264393
 31
0.0
 11
-195.2616179160177
 21
200.9935065115925
 31
0.0
 11
-195.2662212880971
 21
201.0481794363275
 31
0.0
  0
SPLINE
  5
130
330
75
100
AcDbEntity
  8
0
  6
Continuous
 62
     7
100
AcDbSpline
210
0.0
220
0.0
230
1.0
 70
     8
 71
     3
 72
    11
 73
     7
 74
     5
 42
0.000000001
 43
0.0000000001
 44
0.00000001
 40
0.0
 40
0.0
 40
0.0
 40
0.0
 40
1.147727286504512
 40
2.283135252931512
 40
5.557525918246006
 40
8.725641870786351
 40
8.725641870786351
 40
8.725641870786351
 40
8.725641870786351
 10
-195.4782883616677
 20
209.771243199458
 30
0.0
 10
-195.4687394501887
 20
209.388786622378
 30
0.0
 10
-195.4497441365282
 20
208.62797862859
 30
0.0
 10
-195.4039219021957
 20
206.7760367886366
 30
0.0
 10
-195.3421778623403
 20
204.250819781195
 30
0.0
 10
-195.2912601636475
 20
202.1039212359613
 30
0.0
 10
-195.2662212880971
 20
201.0481794363275
 30
0.0
 11
-195.4782883616677
 21
209.771243199458
 31
0.0
 11
-195.4496847649175
 21
208.6238723969509
 31
0.0
 11
-195.4215863819941
 21
207.4888121645806
 31
0.0
 11
-195.3417188258058
 21
204.2153956920549
 31
0.0
 11
-195.2662212880971
 21
201.0481794363275
 31
0.0
  0
SPLINE
  5
131
330
75
100
AcDbEntity
  8
0
  6
Continuous
 62
     7
100
AcDbSpline
210
0.0
220
0.0
230
1.0
 70
     8
 71
     3
 72
    49
 73
    45
 74
    43
 42
0.000000001
 43
0.0000000001
 44
0.00000001
 40
0.0
 40
0.0
 40
0.0
 40
0.0
 40
0.0012936544623184
 40
0.0028120641138197
 40
0.0042181813512181
 40
0.0056242012842725
 40
0.0084364445481672
 40
0.011248183063148
 40
0.0164314316671125
 40
0.0224914825927145
 40
0.0334214162224805
 40
0.0449289372849406
 40
0.0668651303755423
 40
0.0894101638957984
 40
0.1096663416506456
 40
0.1306266823968126
 40
0.1524934890132581
 40
0.1754690552131727
 40
0.1887823124896619
 40
0.2010662392254945
 40
0.2125486339727403
 40
0.2234572947218688
 40
0.2340200186790807
 40
0.2444646021540884
 40
0.2550188406228568
 40
0.2709331732257334
 40
0.2858438227056498
 40
0.2998324695977314
 40
0.3129808185366327
 40
0.3253706164474792
 40
0.3443909641778518
 40
0.3619540956429305
 40
0.3781174043320475
 40
0.3929402658857852
 40
0.4064850363124642
 40
0.4188184443745615
 40
0.4300135239807456
 40
0.4410120540520454
 40
0.4509323865566149
 40
0.459867922132212
 40
0.4679553352146029
 40
0.4753895758314569
 40
0.482433567695136
 40
0.4894096777242866
 40
0.4894096777242866
 40
0.4894096777242866
 40
0.4894096777242866
 10
-158.8600868390644
 20
207.515183812301
 30
0.0
 10
-158.8600434201505
 20
207.5147547755187
 30
0.0
 10
-158.8599490536887
 20
207.5138221609969
 30
0.0
 10
-158.8597796541581
 20
207.5124262868723
 30
0.0
 10
-158.8596173529887
 20
207.5109919291666
 30
0.0
 10
-158.8594039425106
 20
207.5091293198275
 30
0.0
 10
-158.8591375305125
 20
207.5068011801249
 30
0.0
 10
-158.85872562603
 20
207.5032223957408
 30
0.0
 10
-158.8581859184735
 20
207.4985685727955
 30
0.0
 10
-158.8573254296658
 20
207.491227754183
 30
0.0
 10
-158.8562029508393
 20
207.4817951302677
 30
0.0
 10
-158.8544250876227
 20
207.4671111414438
 30
0.0
 10
-158.8521333963362
 20
207.4485894319674
 30
0.0
 10
-158.8494305446597
 20
207.4271802232272
 30
0.0
 10
-158.8467364294223
 20
207.4060978115485
 30
0.0
 10
-158.8440539348227
 20
207.385241839238
 30
0.0
 10
-158.8412503705611
 20
207.3634875107588
 30
0.0
 10
-158.8387774931257
 20
207.3442606732991
 30
0.0
 10
-158.8367205619227
 20
207.3282009461701
 30
0.0
 10
-158.835155672803
 20
207.3159405521792
 30
0.0
 10
-158.8336973217059
 20
207.3044745959147
 30
0.0
 10
-158.8323159495195
 20
207.2935772061362
 30
0.0
 10
-158.830981981815
 20
207.2830225134804
 30
0.0
 10
-158.8296658223834
 20
207.2725846512228
 30
0.0
 10
-158.8281287517111
 20
207.2603766496976
 30
0.0
 10
-158.8264067807038
 20
207.2466914865311
 30
0.0
 10
-158.8245361497623
 20
207.2318711990123
 30
0.0
 10
-158.8227676945544
 20
207.2179673293428
 30
0.0
 10
-158.8210840154466
 20
207.2048997402346
 30
0.0
 10
-158.819150425803
 20
207.1901732956424
 30
0.0
 10
-158.8169566084974
 20
207.1739968316309
 30
0.0
 10
-158.8144492678373
 20
207.1565939785202
 30
0.0
 10
-158.811949147541
 20
207.1406046292954
 30
0.0
 10
-158.8094123513002
 20
207.1259784347212
 30
0.0
 10
-158.8067948273702
 20
207.1126648249093
 30
0.0
 10
-158.8040523737578
 20
207.100612796629
 30
0.0
 10
-158.8010658446964
 20
207.0894943752926
 30
0.0
 10
-158.7977539042829
 20
207.0793079383977
 30
0.0
 10
-158.7940009690008
 20
207.0700786646839
 30
0.0
 10
-158.7898355149528
 20
207.0621041300386
 30
0.0
 10
-158.7851861681602
 20
207.0553700828987
 30
0.0
 10
-158.7799591928293
 20
207.0499245345239
 30
0.0
 10
-158.774119518795
 20
207.045668609157
 30
0.0
 10
-158.7697413474189
 20
207.0439853613865
 30
0.0
 10
-158.7675628632342
 20
207.0431478065663
 30
0.0
 11
-158.8600868390644
 21
207.515183812301
 31
0.0
 11
-158.8599526578034
 21
207.5138971381313
 31
0.0
 11
-158.8597772487682
 21
207.5123888937291
 31
0.0
 11
-158.8596170126169
 21
207.5109919367082
 31
0.0
 11
-158.8594573129761
 21
207.5095950161519
 31
0.0
 11
-158.8591371967446
 21
207.5068010521819
 31
0.0
 11
-158.8588157218541
 21
207.5040077521227
 31
0.0
 11
-158.8582186039125
 21
207.4988590132929
 31
0.0
 11
-158.8575131534001
 21
207.4928401634938
 31
0.0
 11
-158.8562220881435
 21
207.4819867496323
 31
0.0
 11
-158.8548394849332
 21
207.4705625890578
 31
0.0
 11
-158.8521494413594
 21
207.4487919615166
 31
0.0
 11
-158.8493290137944
 21
207.4264240443374
 31
0.0
 11
-158.8467634861951
 21
207.4063309907623
 31
0.0
 11
-158.8440916258603
 21
207.3855416414802
 31
0.0
 11
-158.8412984967603
 21
207.3638539569888
 31
0.0
 11
-158.8383691628651
 21
207.3410658977862
 31
0.0
 11
-158.836677961299
 21
207.32786049527
 31
0.0
 11
-158.8351227635044
 21
207.3156754136105
 31
0.0
 11
-158.8336740042563
 21
207.3042847821511
 31
0.0
 11
-158.8323021183294
 21
207.2934627302352
 31
0.0
 11
-158.8309775404984
 21
207.2829833872065
 31
0.0
 11
-158.8296707055383
 21
207.2726208824083
 31
0.0
 11
-158.8283520482238
 21
207.2621493451842
 31
0.0
 11
-158.8263639534806
 21
207.2463596821171
 31
0.0
 11
-158.8244952254783
 21
207.2315665985333
 31
0.0
 11
-158.8227284696871
 21
207.2176899701874
 31
0.0
 11
-158.8210462915774
 21
207.204649672834
 31
0.0
 11
-158.8194312966195
 21
207.192365582228
 31
0.0
 11
-158.8168642357043
 21
207.1735192610532
 31
0.0
 11
-158.8143464912969
 21
207.1561375308291
 31
0.0
 11
-158.8118339889534
 21
207.1401706940984
 31
0.0
 11
-158.8092826542296
 21
207.1255690534039
 31
0.0
 11
-158.8066484126816
 21
207.1122829112884
 31
0.0
 11
-158.8038871898653
 21
207.1002625702947
 31
0.0
 11
-158.8009549113368
 21
207.0894583329653
 31
0.0
 11
-158.7975121467396
 21
207.0790125190542
 31
0.0
 11
-158.793726368484
 21
207.0698429568094
 31
0.0
 11
-158.7895378791674
 21
207.0619499001161
 31
0.0
 11
-158.7848869813868
 21
207.0553336028598
 31
0.0
 11
-158.7797139777396
 21
207.0499943189258
 31
0.0
 11
-158.773959170823
 21
207.0459323021996
 31
0.0
 11
-158.7675628632342
 21
207.0431478065663
 31
0.0
  0
SPLINE
  5
132
330
75
100
AcDbEntity
  8
0
  6
Continuous
 62
     7
100
AcDbSpline
210
0.0
220
0.0
230
1.0
 70
     8
 71
     3
 72
    22
 73
    18
 74
    16
 42
0.000000001
 43
0.0000000001
 44
0.00000001
 40
0.0
 40
0.0
 40
0.0
 40
0.0
 40
0.0514820150979698
 40
0.1131182222692931
 40
0.1830415375690169
 40
0.2326166037328052
 40
0.2746864134441259
 40
0.3088158184789303
 40
0.3345347371792395
 40
0.3685471846086579
 40
0.3925972356804995
 40
0.4135378735764007
 40
0.4369216225705237
 40
0.4518910034049241
 40
0.4659900162110162
 40
0.4758243335212536
 40
0.4819628831520354
 40
0.4819628831520354
 40
0.4819628831520354
 40
0.4819628831520354
 10
-136.6959503821048
 20
201.0481794363534
 30
0.0
 10
-136.6954157901166
 20
201.0310256737701
 30
0.0
 10
-136.6942411572383
 20
200.99333478083
 30
0.0
 10
-136.6950079823517
 20
200.9323044915495
 30
0.0
 10
-136.6981926748901
 20
200.8719899971664
 30
0.0
 10
-136.7032992573665
 20
200.8183646299716
 30
0.0
 10
-136.7087046936935
 20
200.776782242626
 30
0.0
 10
-136.7141536283299
 20
200.7432436094821
 30
0.0
 10
-136.7200495599749
 20
200.7125146608474
 30
0.0
 10
-136.7261965781457
 20
200.6852622339934
 30
0.0
 10
-136.7330306381131
 20
200.6598266953309
 30
0.0
 10
-136.7398700138594
 20
200.6380673496062
 30
0.0
 10
-136.7468523314672
 20
200.6195980929768
 30
0.0
 10
-136.7545234259933
 20
200.6037391450383
 30
0.0
 10
-136.7615365501257
 20
200.5931222753614
 30
0.0
 10
-136.7693411602377
 20
200.5855310930991
 30
0.0
 10
-136.7748250449306
 20
200.5857161407682
 30
0.0
 10
-136.7769325621094
 20
200.5857872499764
 30
0.0
 11
-136.6959503821048
 21
201.0481794363534
 31
0.0
 11
-136.694688065681
 21
200.996712908146
 31
0.0
 11
-136.6953600047037
 21
200.9350803635416
 31
0.0
 11
-136.6991242508099
 21
200.8652584437882
 31
0.0
 11
-136.7038414161159
 21
200.8159083117209
 31
0.0
 11
-136.70928952576
 21
200.7741927632104
 31
0.0
 11
-136.7147853041127
 21
200.7405087506062
 31
0.0
 11
-136.7196454755441
 21
200.7152532262579
 31
0.0
 11
-136.7271892040125
 21
200.6820879019886
 31
0.0
 11
-136.7334734921529
 21
200.6588734092405
 31
0.0
 11
-136.7398010426612
 21
200.6389116354342
 31
0.0
 11
-136.7482493959031
 21
200.617107392039
 31
0.0
 11
-136.7549130046537
 21
200.6037029648116
 31
0.0
 11
-136.762963657828
 21
200.5921284616887
 31
0.0
 11
-136.7708076889008
 21
200.5861967711007
 31
0.0
 11
-136.7769325621094
 21
200.5857872499764
 31
0.0
  0
SPLINE
  5
133
330
75
100
AcDbEntity
  8
0
  6
Continuous
 62
     7
100
AcDbSpline
210
0.0
220
0.0
230
1.0
 70
     8
 71
     3
 72
    31
 73
    27
 74
    25
 42
0.000000001
 43
0.0000000001
 44
0.00000001
 40
0.0
 40
0.0
 40
0.0
 40
0.0
 40
0.0012223350940789
 40
0.0020148866121493
 40
0.0030219233967869
 40
0.0040291677209852
 40
0.0059163777267757
 40
0.0080597014375796
 40
0.0119406229112286
 40
0.0161262418980613
 40
0.024009156926375
 40
0.0322763017235658
 40
0.0484626605306948
 40
0.064606723492591
 40
0.0793014455067314
 40
0.0950190549559868
 40
0.1117140396418759
 40
0.129346130118967
 40
0.1488558519415123
 40
0.1674639111459857
 40
0.1851438261358168
 40
0.2018629450685374
 40
0.2175828650118442
 40
0.2322598498982324
 40
0.2458452417733778
 40
0.2582858625877835
 40
0.2582858625877835
 40
0.2582858625877835
 40
0.2582858625877835
 10
-206.4038978553773
 20
207.5151838122723
 30
0.0
 10
-206.4038706490844
 20
207.5147772753338
 30
0.0
 10
-206.4038258115941
 20
207.5141071427382
 30
0.0
 10
-206.4037524795849
 20
207.5131025051825
 30
0.0
 10
-206.4036837955331
 20
207.5121694192218
 30
0.0
 10
-206.4035859337774
 20
207.5108726085132
 30
0.0
 10
-206.4034551995882
 20
207.5091984422812
 30
0.0
 10
-206.4032400073721
 20
207.5065700791244
 30
0.0
 10
-206.4029431411746
 20
207.5031797294949
 30
0.0
 10
-206.4024392375299
 20
207.497887134103
 30
0.0
 10
-206.4017202541918
 20
207.4911465316266
 30
0.0
 10
-206.4004147781995
 20
207.4804467195796
 30
0.0
 10
-206.3984685732003
 20
207.4670526122586
 30
0.0
 10
-206.3957477414524
 20
207.4516131286959
 30
0.0
 10
-206.3926171811362
 20
207.4364114420896
 30
0.0
 10
-206.3890169138226
 20
207.4211250201421
 30
0.0
 10
-206.3847063864799
 20
207.4050072411332
 30
0.0
 10
-206.3795206076865
 20
207.3878239661688
 30
0.0
 10
-206.3735418757299
 20
207.3702243248976
 30
0.0
 10
-206.3669391979396
 20
207.3528325819557
 30
0.0
 10
-206.3601130937558
 20
207.3365318806403
 30
0.0
 10
-206.3531673209729
 20
207.3213349689387
 30
0.0
 10
-206.3462086609236
 20
207.3072526617048
 30
0.0
 10
-206.3393332956125
 20
207.2943022987109
 30
0.0
 10
-206.3326726875199
 20
207.2824795243679
 30
0.0
 10
-206.3281810430781
 20
207.2750570193326
 30
0.0
 10
-206.3260339986239
 20
207.2715090123647
 30
0.0
 11
-206.4038978553773
 21
207.5151838122723
 31
0.0
 11
-206.4038147460554
 21
207.5139642998478
 31
0.0
 11
-206.4037576033564
 21
207.513173816707
 31
0.0
 11
-206.4036834820631
 21
207.5121695113932
 31
0.0
 11
-206.4036076920055
 21
207.5111651224481
 31
0.0
 11
-206.403460731983
 21
207.5092836429714
 31
0.0
 11
-206.4032858293609
 21
207.507147467283
 31
0.0
 11
-206.4029472903531
 21
207.50328133918
 31
0.0
 11
-206.402550578066
 21
207.4991145621561
 31
0.0
 11
-206.4017145295742
 21
207.4912761059113
 31
0.0
 11
-206.4007133317585
 21
207.4830698081863
 31
0.0
 11
-206.3983861528959
 21
207.4670516132523
 31
0.0
 11
-206.3955845861593
 21
207.451152495535
 31
0.0
 11
-206.3926207556218
 21
207.4367597712053
 31
0.0
 11
-206.3890176362888
 21
207.4214607273856
 31
0.0
 11
-206.3847043675845
 21
207.405332547032
 31
0.0
 11
-206.3796100889333
 21
207.3884524131007
 31
0.0
 11
-206.3733344436901
 21
207.3699795814807
 31
0.0
 11
-206.3667297130103
 21
207.3525831050757
 31
0.0
 11
-206.3599002444628
 21
207.3362755072108
 31
0.0
 11
-206.3529503856165
 21
207.321069311211
 31
0.0
 11
-206.3459844840405
 21
207.3069770404014
 31
0.0
 11
-206.3391068873037
 21
207.2940112181071
 31
0.0
 11
-206.3324219429752
 21
207.2821843676532
 31
0.0
 11
-206.3260339986239
 21
207.2715090123647
 31
0.0
  0
SPLINE
  5
134
330
75
100
AcDbEntity
  8
0
  6
Continuous
 62
     7
100
AcDbSpline
210
0.0
220
0.0
230
1.0
 70
     8
 71
     3
 72
    30
 73
    26
 74
    24
 42
0.000000001
 43
0.0000000001
 44
0.00000001
 40
0.0
 40
0.0
 40
0.0
 40
0.0
 40
0.0039064057975828
 40
0.0120989916105443
 40
0.0236647389881635
 40
0.0358271974116184
 40
0.0472469112732659
 40
0.0702620131912077
 40
0.094075384024794
 40
0.1227721752710439
 40
0.1535321655428764
 40
0.1862102936218663
 40
0.2330807087459628
 40
0.2781016152110295
 40
0.321524746134454
 40
0.3635259685703788
 40
0.39485536881404
 40
0.4229668597080666
 40
0.4475963839753715
 40
0.4885948994250627
 40
0.5280210605347316
 40
0.5665324274150246
 40
0.6032766936149212
 40
0.6380764732568561
 40
0.6708008889716599
 40
0.6708008889716599
 40
0.6708008889716599
 40
0.6708008889716599
 10
-180.5438110150862
 20
207.5151838127901
 30
0.0
 10
-180.5438640700516
 20
207.5138827575831
 30
0.0
 10
-180.5440283730015
 20
207.5098531047687
 30
0.0
 10
-180.5442742919639
 20
207.5019684320655
 30
0.0
 10
-180.5444254370521
 20
207.4913285475286
 30
0.0
 10
-180.5443566574939
 20
207.4796118750204
 30
0.0
 10
-180.5439459263729
 20
207.4640840581432
 30
0.0
 10
-180.5428384739835
 20
207.4446934577147
 30
0.0
 10
-180.540314880918
 20
207.4196370807528
 30
0.0
 10
-180.5361415451135
 20
207.3921808899431
 30
0.0
 10
-180.5297220325675
 20
207.3621265295096
 30
0.0
 10
-180.5196770238015
 20
207.3267276603709
 30
0.0
 10
-180.5049330046106
 20
207.2878271865227
 30
0.0
 10
-180.4846687788882
 20
207.2474441394532
 30
0.0
 10
-180.4613089292123
 20
207.2106850137468
 30
0.0
 10
-180.4372627513701
 20
207.1800034047061
 30
0.0
 10
-180.4141983271995
 20
207.1552377607472
 30
0.0
 10
-180.393710990113
 20
207.1360864561392
 30
0.0
 10
-180.3695982616426
 20
207.1161908646536
 30
0.0
 10
-180.3408913826607
 20
207.0960289178638
 30
0.0
 10
-180.3063223482092
 20
207.0764998700676
 30
0.0
 10
-180.2712727866426
 20
207.0610487956956
 30
0.0
 10
-180.2362676673138
 20
207.0499232231018
 30
0.0
 10
-180.2021137560743
 20
207.0427798731657
 30
0.0
 10
-180.1795945917643
 20
207.0418179587295
 30
0.0
 10
-180.1686810736281
 20
207.0413517909266
 30
0.0
 11
-180.5438110150862
 21
207.5151838127901
 31
0.0
 11
-180.543966156057
 21
207.511280489665
 31
0.0
 11
-180.5442200327393
 21
207.5030918387917
 31
0.0
 11
-180.5443848964318
 21
207.4915272667325
 31
0.0
 11
-180.5443121975919
 21
207.4793650256726
 31
0.0
 11
-180.54400952162
 21
207.4679493237095
 31
0.0
 11
-180.5426907630065
 21
207.4449720350761
 31
0.0
 11
-180.5402976707157
 21
207.4212792145974
 31
0.0
 11
-180.5359740827788
 21
207.3929099985426
 31
0.0
 11
-180.5295366921685
 21
207.3628311520159
 31
0.0
 11
-180.520602988781
 21
207.3313979052418
 31
0.0
 11
-180.5039635090283
 21
207.2875805167653
 31
0.0
 11
-180.48375755312
 21
207.2473486716139
 31
0.0
 11
-180.4604610174478
 21
207.2107038940862
 31
0.0
 11
-180.4345497984036
 21
207.1776477084811
 31
0.0
 11
-180.4131970890252
 21
207.15472189077
 31
0.0
 11
-180.3926596124289
 21
207.1355263711667
 31
0.0
 11
-180.3736607486608
 21
207.1198529337532
 31
0.0
 11
-180.3400981886856
 21
207.0963065361127
 31
0.0
 11
-180.3057578593522
 21
207.0769373859117
 31
0.0
 11
-180.2704874896915
 21
207.0614736717328
 31
0.0
 11
-180.2354701195686
 21
207.0503415084525
 31
0.0
 11
-180.2013274229065
 21
207.0436108851555
 31
0.0
 11
-180.1686810736281
 21
207.0413517909266
 31
0.0
  0
SPLINE
  5
135
330
75
100
AcDbEntity
  8
0
  6
Continuous
 62
     7
100
AcDbSpline
210
0.0
220
0.0
230
1.0
 70
     8
 71
     3
 72
    11
 73
     7
 74
     5
 42
0.000000001
 43
0.0000000001
 44
0.00000001
 40
0.0
 40
0.0
 40
0.0
 40
0.0
 40
4.064665957283468
 40
8.412428915855124
 40
11.49550174445022
 40
14.3755749206185
 40
14.3755749206185
 40
14.3755749206185
 40
14.3755749206185
 10
-179.151308440023
 20
207.0413517909265
 30
0.0
 10
-180.4119119538574
 20
206.5446661247017
 30
0.0
 10
-183.0209178448686
 20
205.5167014743249
 30
0.0
 10
-186.5534308087985
 20
204.0311932666114
 30
0.0
 10
-189.6986432543282
 20
202.6447018792949
 30
0.0
 10
-191.4963458316252
 20
201.7964261116326
 30
0.0
 10
-192.3645980845565
 20
201.3867268820643
 30
0.0
 11
-179.151308440023
 21
207.0413517909265
 31
0.0
 11
-182.9275378324935
 21
205.5374897895158
 31
0.0
 11
-186.936320327317
 21
203.8544254249977
 31
0.0
 11
-189.7548774310812
 21
202.6049959869229
 31
0.0
 11
-192.3645980845565
 21
201.3867268820643
 31
0.0
  0
SPLINE
  5
136
330
75
100
AcDbEntity
  8
0
  6
Continuous
 62
     3
100
AcDbSpline
210
0.0
220
0.0
230
1.0
 70
     8
 71
     3
 72
    11
 73
     7
 74
     5
 42
0.000000001
 43
0.0000000001
 44
0.00000001
 40
0.0
 40
0.0
 40
0.0
 40
0.0
 40
3.792519419610901
 40
7.43044098270544
 40
11.32556703710529
 40
16.08539951990149
 40
16.08539951990149
 40
16.08539951990149
 40
16.08539951990149
 10
-195.2662212880971
 20
201.0481794363275
 30
0.0
 10
-194.1320500899622
 20
201.6067856508095
 30
0.0
 10
-191.9099409208751
 20
202.7012271025009
 30
0.0
 10
-188.4649988171642
 20
204.2467853210923
 30
0.0
 10
-184.6976372293987
 20
205.8590824319052
 30
0.0
 10
-182.017670498907
 20
206.9275663781964
 30
0.0
 10
-180.5438110150862
 20
207.5151838127901
 30
0.0
 11
-195.2662212880971
 21
201.0481794363275
 31
0.0
 11
-191.8537985788192
 21
202.7030434195259
 31
0.0
 11
-188.539205178022
 21
204.2023578924511
 31
0.0
 11
-184.9570697035924
 21
205.7321658621702
 31
0.0
 11
-180.5438110150862
 21
207.5151838127901
 31
0.0
  0
SPLINE
  5
137
330
75
100
AcDbEntity
  8
0
  6
Continuous
 62
     3
100
AcDbSpline
210
0.0
220
0.0
230
1.0
 70
     8
 71
     3
 72
    11
 73
     7
 74
     5
 42
0.000000001
 43
0.0000000001
 44
0.00000001
 40
0.0
 40
0.0
 40
0.0
 40
0.0
 40
3.748469424696651
 40
7.328014053594947
 40
11.14469370812621
 40
15.78428649748614
 40
15.78428649748614
 40
15.78428649748614
 40
15.78428649748614
 10
-193.6537358455822
 20
200.7737936834085
 30
0.0
 10
-192.5282418598189
 20
201.3166582032658
 30
0.0
 10
-190.3279742748385
 20
202.3779230370766
 30
0.0
 10
-186.9293542493532
 20
203.8790865571401
 30
0.0
 10
-183.2331239212938
 20
205.4396282934696
 30
0.0
 10
-180.6108506036568
 20
206.4738944602607
 30
0.0
 10
-179.1721220762109
 20
207.0413517909265
 30
0.0
 11
-193.6537358455822
 21
200.7737936834085
 31
0.0
 11
-190.2682422686537
 21
202.3829724397563
 31
0.0
 11
-186.9979475665379
 21
203.8384147482977
 31
0.0
 11
-183.4806826053592
 21
205.32026858041
 31
0.0
 11
-179.1721220762109
 21
207.0413517909265
 31
0.0
  0
SPLINE
  5
138
330
75
100
AcDbEntity
  8
0
  6
Continuous
 62
     3
100
AcDbSpline
210
0.0
220
0.0
230
1.0
 70
     8
 71
     3
 72
    11
 73
     7
 74
     5
 42
0.000000001
 43
0.0000000001
 44
0.00000001
 40
0.0
 40
0.0
 40
0.0
 40
0.0
 40
3.759352402330143
 40
7.365554777889199
 40
11.79087250810972
 40
15.94112982306236
 40
15.94112982306236
 40
15.94112982306236
 40
15.94112982306236
 10
-194.7265608044752
 20
200.5929509550717
 30
0.0
 10
-193.6038793560692
 20
201.1498519889469
 30
0.0
 10
-191.4042527061638
 20
202.2409667827112
 30
0.0
 10
-187.8222569973836
 20
203.8599605441717
 30
0.0
 10
-184.0907865412356
 20
205.4621704108605
 30
0.0
 10
-181.4376293798737
 20
206.5263356545145
 30
0.0
 10
-180.1536006257867
 20
207.0413517909554
 30
0.0
 11
-194.7265608044752
 21
200.5929509550717
 31
0.0
 11
-191.3486213738053
 21
202.2428769197995
 31
0.0
 11
-188.0670159460638
 21
203.7381231845143
 31
0.0
 11
-183.9995214394358
 21
205.4813745875601
 31
0.0
 11
-180.1536006257867
 21
207.0413517909554
 31
0.0
  0
SPLINE
  5
139
330
75
100
AcDbEntity
  8
0
  6
Continuous
 62
     3
100
AcDbSpline
210
0.0
220
0.0
230
1.0
 70
     8
 71
     3
 72
    11
 73
     7
 74
     5
 42
0.000000001
 43
0.0000000001
 44
0.00000001
 40
0.0
 40
0.0
 40
0.0
 40
0.0
 40
5.271591577980953
 40
11.39253361681034
 40
16.83807592740513
 40
23.09008461126204
 40
23.09008461126204
 40
23.09008461126204
 40
23.09008461126204
 10
-158.8600868390644
 20
207.515183812301
 30
0.0
 10
-157.1831103697945
 20
206.9902492786211
 30
0.0
 10
-153.5589656418305
 20
205.8558036081158
 30
0.0
 10
-148.1786760833669
 20
204.2568095691248
 30
0.0
 10
-142.4696078820078
 20
202.6179958664021
 30
0.0
 10
-138.7069722399059
 20
201.5949619781895
 30
0.0
 10
-136.6959503821048
 20
201.0481794363534
 30
0.0
 11
-158.8600868390644
 21
207.515183812301
 31
0.0
 11
-153.8257049659934
 21
205.9516375476092
 31
0.0
 11
-147.9600462535959
 21
204.2023578918661
 31
0.0
 11
-142.7248095602501
 21
202.7036158119236
 31
0.0
 11
-136.6959503821048
 21
201.0481794363534
 31
0.0
  0
SPLINE
  5
13A
330
75
100
AcDbEntity
  8
0
  6
Continuous
 62
     3
100
AcDbSpline
210
0.0
220
0.0
230
1.0
 70
     8
 71
     3
 72
    11
 73
     7
 74
     5
 42
0.000000001
 43
0.0000000001
 44
0.00000001
 40
0.0
 40
0.0
 40
0.0
 40
0.0
 40
6.252008688036671
 40
11.69755099662127
 40
17.06638585045464
 40
23.09008421180028
 40
23.09008421180028
 40
23.09008421180028
 40
23.09008421180028
 10
-129.304049617992
 20
201.0481794363275
 30
0.0
 10
-127.293025811887
 20
201.5949541306589
 30
0.0
 10
-123.530386526296
 20
202.6179733355903
 30
0.0
 10
-118.0623189554595
 20
204.1877125847015
 30
0.0
 10
-112.6809840892726
 20
205.7830587629982
 30
0.0
 10
-109.056386290108
 20
206.9160990531904
 30
0.0
 10
-107.1399131593905
 20
207.5151838127901
 30
0.0
 11
-129.304049617992
 21
201.0481794363275
 31
0.0
 11
-123.2751904358093
 21
202.7036158130302
 31
0.0
 11
-118.0399537443998
 21
204.2023578924511
 31
0.0
 11
-112.8939114785923
 21
205.7329253321319
 31
0.0
 11
-107.1399131593905
 21
207.5151838127901
 31
0.0
  0
ENDBLK
  5
77
330
75
100
AcDbEntity
  8
0
100
AcDbBlockEnd
  0
BLOCK
  5
7B
330
78
100
AcDbEntity
  8
0
100
AcDbBlockBegin
  2
HL310NKSML-50
 70
     0
 10
-232.9999999999886
 20
45.41729516239573
 30
0.0
  3
HL310NKSML-50
  1
HL310NKSML-50
  0
INSERT
  5
79
330
78
100
AcDbEntity
  8
0
100
AcDbBlockReference
  2
Gummisteckdichtung-01027D
 10
-173.0
 20
45.41729516239573
 30
0.0
  0
INSERT
  5
7A
330
78
100
AcDbEntity
  8
0
100
AcDbBlockReference
  2
HL310NKSML_50_Körper
 10
-232.9999999999886
 20
89.5172951623943
 30
0.0
  0
ENDBLK
  5
7C
330
78
100
AcDbEntity
  8
0
100
AcDbBlockEnd
  0
BLOCK
  5
7F
330
7D
100
AcDbEntity
  8
0
100
AcDbBlockBegin
  2
Vordans1
 70
     0
 10
-133.0
 20
132.999999999525
 30
0.0
  3
Vordans1
  1
Vordans1
  0
INSERT
  5
7E
330
7D
100
AcDbEntity
  8
0
100
AcDbBlockReference
  2
HL310NKSML-50
 10
-232.9999999999886
 20
45.41729516239573
 30
0.0
  0
LINE
  5
13B
330
7D
100
AcDbEntity
  8
1
  6
Continuous
 62
     7
100
AcDbLine
 10
-158.0
 20
43.41729516239573
 30
0.0
 11
-158.0
 21
41.41729516239573
 31
0.0
  0
LINE
  5
13C
330
7D
100
AcDbEntity
  8
1
  6
Continuous
 62
     7
100
AcDbLine
 10
-108.0
 20
43.41729516239573
 30
0.0
 11
-108.0
 21
41.41729516239573
 31
0.0
  0
LINE
  5
13D
330
7D
100
AcDbEntity
  8
1
  6
Continuous
 62
     7
100
AcDbLine
 10
-188.0
 20
220.4339225887787
 30
0.0
 11
-188.0
 21
222.4339225887787
 31
0.0
  0
LINE
  5
13E
330
7D
100
AcDbEntity
  8
1
  6
Continuous
 62
     7
100
AcDbLine
 10
-78.0
 20
220.4339225887787
 30
0.0
 11
-78.0
 21
222.4339225887787
 31
0.0
  0
MTEXT
  5
140
330
7D
100
AcDbEntity
  8
1
 62
     1
100
AcDbMText
 10
-133.0
 20
40.41729651098876
 30
0.0
 40
3.5
 41
0.0
 71
     2
 72
     1
  1
 
  7
CONVERTER_11
 73
     1
 44
1.32052821128451
  0
DIMENSION
  5
14C
330
7D
100
AcDbEntity
  8
1
100
AcDbDimension
  2
*D5
 10
-158.0
 20
24.1170569875138
 30
0.0
 11
-74.36446601511801
 21
31.6170569875138
 31
0.0
 70
    32
  1
<> (SML)
 71
     5
 42
-1.0
 53
0.00013888888889
  3
ME10_DIM_10
100
AcDbAlignedDimension
 13
-108.0
 23
41.41729516239573
 33
0.0
 14
-158.0
 24
41.41729516239573
 34
0.0
100
AcDbRotatedDimension
  0
DIMENSION
  5
157
330
7D
100
AcDbEntity
  8
1
100
AcDbDimension
  2
*D6
 10
-202.74718634357
 20
129.5172951623943
 30
0.0
 11
-210.24718634357
 21
110.83947438025
 31
0.0
 70
    32
  1
<>
 71
     5
 42
-1.0
 53
90.0
  3
ME10_DIM_11
100
AcDbAlignedDimension
 13
-154.4999999999999
 23
89.5172951623943
 33
0.0
 14
-186.7942286340584
 24
129.5172951623943
 34
0.0
 50
90.0
100
AcDbRotatedDimension
  0
DIMENSION
  5
162
330
7D
100
AcDbEntity
  8
1
100
AcDbDimension
  2
*D7
 10
-218.290759406026
 20
129.5172951623943
 30
0.0
 11
-225.790759406026
 21
163.102611142794
 31
0.0
 70
    32
  1
<>
 71
     5
 42
-1.0
 53
90.0
  3
ME10_DIM_12
100
AcDbAlignedDimension
 13
-190.3485975473191
 23
191.5134151735918
 33
0.0
 14
-186.7942286340584
 24
129.5172951623943
 34
0.0
 50
90.0
100
AcDbRotatedDimension
  0
DIMENSION
  5
16D
330
7D
100
AcDbEntity
  8
1
100
AcDbDimension
  2
*D8
 10
-244.323424013432
 20
218.4339225887787
 30
0.0
 11
-251.823424013432
 21
152.418537855763
 31
0.0
 70
    32
  1
130
 71
     5
 42
-1.0
 53
90.0
  3
ME10_DIM_13
100
AcDbAlignedDimension
 13
-154.4999999999999
 23
89.5172951623943
 33
0.0
 14
-229.6999999999889
 24
218.4339225887787
 34
0.0
 50
90.0
100
AcDbRotatedDimension
  0
DIMENSION
  5
179
330
7D
100
AcDbEntity
  8
1
100
AcDbDimension
  2
*D9
 10
-188.0003876591873
 20
155.956659094686
 30
0.0
 11
-51.3492174567763
 21
163.456659094686
 31
0.0
 70
    32
  1
<>
 71
     5
 42
-1.0
 53
0.00013888888889
  3
ME10_DIM_14
100
AcDbAlignedDimension
 13
-77.99961234081275
 23
134.0187419261827
 33
0.0
 14
-188.0003876591873
 24
134.0187419261827
 34
0.0
100
AcDbRotatedDimension
  0
DIMENSION
  5
184
330
7D
100
AcDbEntity
  8
1
100
AcDbDimension
  2
*D10
 10
-232.9999999999886
 20
249.083069671669
 30
0.0
 11
-125.698183274935
 21
256.583069671669
 31
0.0
 70
    32
  1
<>
 71
     5
 42
-1.0
 53
0.00013888888889
  3
ME10_DIM_15
100
AcDbAlignedDimension
 13
-33.00000000001141
 23
218.0413517909267
 33
0.0
 14
-232.9999999999886
 24
218.0413517909267
 34
0.0
100
AcDbRotatedDimension
  0
DIMENSION
  5
18F
330
7D
100
AcDbEntity
  8
1
100
AcDbDimension
  2
*D11
 10
-188.0
 20
232.348756992256
 30
0.0
 11
-143.649260880199
 21
239.848756992256
 31
0.0
 70
    32
  1
<>
 71
     5
 42
-1.0
 53
0.00013888888889
  3
ME10_DIM_16
100
AcDbAlignedDimension
 13
-78.0
 23
222.4339225887787
 33
0.0
 14
-188.0
 24
222.4339225887787
 34
0.0
100
AcDbRotatedDimension
  0
ENDBLK
  5
80
330
7D
100
AcDbEntity
  8
0
100
AcDbBlockEnd
  0
BLOCK
  5
149
330
141
100
AcDbEntity
  8
0
100
AcDbBlockBegin
  2
*D5
 70
     1
 10
0.0
 20
0.0
 30
0.0
  3
*D5
  1
*D5
  0
LINE
  5
142
330
141
100
AcDbEntity
  8
1
  6
Continuous
 62
     4
100
AcDbLine
 10
-158.0
 20
24.1170569875138
 30
0.0
 11
-108.0
 21
24.1170569875138
 31
0.0
  0
LINE
  5
143
330
141
100
AcDbEntity
  8
1
  6
Continuous
 62
     4
100
AcDbLine
 10
-108.0
 20
24.1170569875138
 30
0.0
 11
-44.61446601511801
 21
24.1170569875138
 31
0.0
  0
LINE
  5
144
330
141
100
AcDbEntity
  8
1
  6
Continuous
 62
     4
100
AcDbLine
 10
-158.0
 20
41.41729516239573
 30
0.0
 11
-158.0
 21
22.1170569875138
 31
0.0
  0
LINE
  5
145
330
141
100
AcDbEntity
  8
1
  6
Continuous
 62
     4
100
AcDbLine
 10
-108.0
 20
41.41729516239573
 30
0.0
 11
-108.0
 21
22.1170569875138
 31
0.0
  0
SOLID
  5
146
330
141
100
AcDbEntity
  8
1
 62
     4
100
AcDbTrace
 10
-151.0
 20
25.03862447062557
 30
0.0
 11
-151.0
 21
23.19548950440203
 31
0.0
 12
-158.0
 22
24.1170569875138
 32
0.0
 13
-158.0
 23
24.1170569875138
 33
0.0
  0
SOLID
  5
147
330
141
100
AcDbEntity
  8
1
 62
     4
100
AcDbTrace
 10
-115.0
 20
23.19548950440203
 30
0.0
 11
-115.0
 21
25.03862447062557
 31
0.0
 12
-108.0
 22
24.1170569875138
 32
0.0
 13
-108.0
 23
24.1170569875138
 33
0.0
  0
MTEXT
  5
148
330
141
100
AcDbEntity
  8
1
 62
     1
100
AcDbMText
 10
-100.1944660150843
 20
28.1170291592085
 30
0.0
 40
7.0
 41
0.0
 71
     7
 72
     1
  1
\C1;DN\C1;50\C1; (SML)
  7
CONVERTER_11
 11
0.9999999999970619
 21
2.424068405545306E-6
 31
0.0
 73
     1
 44
0.60024009603842
  0
ENDBLK
  5
14A
330
141
100
AcDbEntity
  8
0
100
AcDbBlockEnd
  0
BLOCK
  5
154
330
14D
100
AcDbEntity
  8
0
100
AcDbBlockBegin
  2
*D6
 70
     1
 10
0.0
 20
0.0
 30
0.0
  3
*D6
  1
*D6
  0
LINE
  5
14E
330
14D
100
AcDbEntity
  8
1
  6
Continuous
 62
     4
100
AcDbLine
 10
-202.74718634357
 20
129.5172951623943
 30
0.0
 11
-202.74718634357
 21
89.5172951623943
 31
0.0
  0
LINE
  5
14F
330
14D
100
AcDbEntity
  8
1
  6
Continuous
 62
     4
100
AcDbLine
 10
-186.7942286340584
 20
129.5172951623943
 30
0.0
 11
-204.74718634357
 21
129.5172951623943
 31
0.0
  0
LINE
  5
150
330
14D
100
AcDbEntity
  8
1
  6
Continuous
 62
     4
100
AcDbLine
 10
-154.4999999999999
 20
89.5172951623943
 30
0.0
 11
-204.74718634357
 21
89.5172951623943
 31
0.0
  0
SOLID
  5
151
330
14D
100
AcDbEntity
  8
1
 62
     4
100
AcDbTrace
 10
-201.8256188604582
 20
122.5172951623943
 30
0.0
 11
-203.6687538266818
 21
122.5172951623943
 31
0.0
 12
-202.74718634357
 22
129.5172951623943
 32
0.0
 13
-202.74718634357
 23
129.5172951623943
 33
0.0
  0
SOLID
  5
152
330
14D
100
AcDbEntity
  8
1
 62
     4
100
AcDbTrace
 10
-203.6687538266818
 20
96.5172951623943
 30
0.0
 11
-201.8256188604582
 21
96.5172951623943
 31
0.0
 12
-202.74718634357
 22
89.5172951623943
 32
0.0
 13
-202.74718634357
 23
89.5172951623943
 33
0.0
  0
MTEXT
  5
153
330
14D
100
AcDbEntity
  8
1
 62
     1
100
AcDbMText
 10
-206.74718634357
 20
105.58947438025
 30
0.0
 40
7.0
 41
0.0
 71
     7
 72
     1
  1
40
  7
CONVERTER_11
 11
0.0
 21
1.0
 31
0.0
 73
     1
 44
0.60024009603842
  0
ENDBLK
  5
155
330
14D
100
AcDbEntity
  8
0
100
AcDbBlockEnd
  0
BLOCK
  5
15F
330
158
100
AcDbEntity
  8
0
100
AcDbBlockBegin
  2
*D7
 70
     1
 10
0.0
 20
0.0
 30
0.0
  3
*D7
  1
*D7
  0
LINE
  5
159
330
158
100
AcDbEntity
  8
1
  6
Continuous
 62
     4
100
AcDbLine
 10
-218.290759406026
 20
129.5172951623943
 30
0.0
 11
-218.290759406026
 21
191.5134151735918
 31
0.0
  0
LINE
  5
15A
330
158
100
AcDbEntity
  8
1
  6
Continuous
 62
     4
100
AcDbLine
 10
-186.7942286340584
 20
129.5172951623943
 30
0.0
 11
-220.290759406026
 21
129.5172951623943
 31
0.0
  0
LINE
  5
15B
330
158
100
AcDbEntity
  8
1
  6
Continuous
 62
     4
100
AcDbLine
 10
-190.3485975473191
 20
191.5134151735918
 30
0.0
 11
-220.290759406026
 21
191.5134151735918
 31
0.0
  0
SOLID
  5
15C
330
158
100
AcDbEntity
  8
1
 62
     4
100
AcDbTrace
 10
-219.2123268891378
 20
136.5172951623943
 30
0.0
 11
-217.3691919229142
 21
136.5172951623943
 31
0.0
 12
-218.290759406026
 22
129.5172951623943
 32
0.0
 13
-218.290759406026
 23
129.5172951623943
 33
0.0
  0
SOLID
  5
15D
330
158
100
AcDbEntity
  8
1
 62
     4
100
AcDbTrace
 10
-217.3691919229142
 20
184.5134151735918
 30
0.0
 11
-219.2123268891378
 21
184.5134151735918
 31
0.0
 12
-218.290759406026
 22
191.5134151735918
 32
0.0
 13
-218.290759406026
 23
191.5134151735918
 33
0.0
  0
MTEXT
  5
15E
330
158
100
AcDbEntity
  8
1
 62
     1
100
AcDbMText
 10
-222.290759406026
 20
157.852611142794
 30
0.0
 40
7.0
 41
0.0
 71
     7
 72
     1
  1
62
  7
CONVERTER_11
 11
0.0
 21
1.0
 31
0.0
 73
     1
 44
0.60024009603842
  0
ENDBLK
  5
160
330
158
100
AcDbEntity
  8
0
100
AcDbBlockEnd
  0
BLOCK
  5
16A
330
163
100
AcDbEntity
  8
0
100
AcDbBlockBegin
  2
*D8
 70
     1
 10
0.0
 20
0.0
 30
0.0
  3
*D8
  1
*D8
  0
LINE
  5
164
330
163
100
AcDbEntity
  8
1
  6
Continuous
 62
     4
100
AcDbLine
 10
-244.323424013432
 20
218.4339225887787
 30
0.0
 11
-244.323424013432
 21
89.5172951623943
 31
0.0
  0
LINE
  5
165
330
163
100
AcDbEntity
  8
1
  6
Continuous
 62
     4
100
AcDbLine
 10
-229.6999999999889
 20
218.4339225887787
 30
0.0
 11
-246.323424013432
 21
218.4339225887787
 31
0.0
  0
LINE
  5
166
330
163
100
AcDbEntity
  8
1
  6
Continuous
 62
     4
100
AcDbLine
 10
-154.4999999999999
 20
89.5172951623943
 30
0.0
 11
-246.323424013432
 21
89.5172951623943
 31
0.0
  0
SOLID
  5
167
330
163
100
AcDbEntity
  8
1
 62
     4
100
AcDbTrace
 10
-243.4018565303202
 20
211.4339225887787
 30
0.0
 11
-245.2449914965438
 21
211.4339225887787
 31
0.0
 12
-244.323424013432
 22
218.4339225887787
 32
0.0
 13
-244.323424013432
 23
218.4339225887787
 33
0.0
  0
SOLID
  5
168
330
163
100
AcDbEntity
  8
1
 62
     4
100
AcDbTrace
 10
-245.2449914965438
 20
96.5172951623943
 30
0.0
 11
-243.4018565303202
 21
96.5172951623943
 31
0.0
 12
-244.323424013432
 22
89.5172951623943
 32
0.0
 13
-244.323424013432
 23
89.5172951623943
 33
0.0
  0
MTEXT
  5
169
330
163
100
AcDbEntity
  8
1
 62
     1
100
AcDbMText
 10
-248.323424013432
 20
145.068537855763
 30
0.0
 40
7.0
 41
0.0
 71
     7
 72
     1
  1
130
  7
CONVERTER_11
 11
0.0
 21
1.0
 31
0.0
 73
     1
 44
0.60024009603842
  0
ENDBLK
  5
16B
330
163
100
AcDbEntity
  8
0
100
AcDbBlockEnd
  0
BLOCK
  5
176
330
16E
100
AcDbEntity
  8
0
100
AcDbBlockBegin
  2
*D9
 70
     1
 10
0.0
 20
0.0
 30
0.0
  3
*D9
  1
*D9
  0
LINE
  5
16F
330
16E
100
AcDbEntity
  8
1
  6
Continuous
 62
     4
100
AcDbLine
 10
-188.0003876591873
 20
155.956659094686
 30
0.0
 11
-77.99961234081275
 21
155.956659094686
 31
0.0
  0
LINE
  5
170
330
16E
100
AcDbEntity
  8
1
  6
Continuous
 62
     4
100
AcDbLine
 10
-77.99961234081275
 20
155.956659094686
 30
0.0
 11
-37.3492174567763
 21
155.956659094686
 31
0.0
  0
LINE
  5
171
330
16E
100
AcDbEntity
  8
1
  6
Continuous
 62
     4
100
AcDbLine
 10
-188.0003876591873
 20
134.0187419261827
 30
0.0
 11
-188.0003876591873
 21
157.956659094686
 31
0.0
  0
LINE
  5
172
330
16E
100
AcDbEntity
  8
1
  6
Continuous
 62
     4
100
AcDbLine
 10
-77.99961234081275
 20
134.0187419261827
 30
0.0
 11
-77.99961234081275
 21
157.956659094686
 31
0.0
  0
SOLID
  5
173
330
16E
100
AcDbEntity
  8
1
 62
     4
100
AcDbTrace
 10
-181.0003876591873
 20
156.8782265777978
 30
0.0
 11
-181.0003876591873
 21
155.0350916115742
 31
0.0
 12
-188.0003876591873
 22
155.956659094686
 32
0.0
 13
-188.0003876591873
 23
155.956659094686
 33
0.0
  0
SOLID
  5
174
330
16E
100
AcDbEntity
  8
1
 62
     4
100
AcDbTrace
 10
-84.99961234081275
 20
155.0350916115742
 30
0.0
 11
-84.99961234081275
 21
156.8782265777978
 31
0.0
 12
-77.99961234081275
 22
155.956659094686
 32
0.0
 13
-77.99961234081275
 23
155.956659094686
 33
0.0
  0
MTEXT
  5
175
330
16E
100
AcDbEntity
  8
1
 62
     1
100
AcDbMText
 10
-61.42921745674257
 20
159.9566312663807
 30
0.0
 40
7.0
 41
0.0
 71
     7
 72
     1
  1
\C1;DN\C1;110
  7
CONVERTER_11
 11
0.9999999999970619
 21
2.424068405545306E-6
 31
0.0
 73
     1
 44
0.60024009603842
  0
ENDBLK
  5
177
330
16E
100
AcDbEntity
  8
0
100
AcDbBlockEnd
  0
BLOCK
  5
181
330
17A
100
AcDbEntity
  8
0
100
AcDbBlockBegin
  2
*D10
 70
     1
 10
0.0
 20
0.0
 30
0.0
  3
*D10
  1
*D10
  0
LINE
  5
17B
330
17A
100
AcDbEntity
  8
1
  6
Continuous
 62
     4
100
AcDbLine
 10
-232.9999999999886
 20
249.083069671669
 30
0.0
 11
-33.00000000001143
 21
249.083069671669
 31
0.0
  0
LINE
  5
17C
330
17A
100
AcDbEntity
  8
1
  6
Continuous
 62
     4
100
AcDbLine
 10
-232.9999999999886
 20
218.0413517909267
 30
0.0
 11
-232.9999999999886
 21
251.083069671669
 31
0.0
  0
LINE
  5
17D
330
17A
100
AcDbEntity
  8
1
  6
Continuous
 62
     4
100
AcDbLine
 10
-33.00000000001141
 20
218.0413517909267
 30
0.0
 11
-33.00000000001141
 21
251.083069671669
 31
0.0
  0
SOLID
  5
17E
330
17A
100
AcDbEntity
  8
1
 62
     4
100
AcDbTrace
 10
-225.9999999999886
 20
250.0046371547808
 30
0.0
 11
-225.9999999999886
 21
248.1615021885573
 31
0.0
 12
-232.9999999999886
 22
249.083069671669
 32
0.0
 13
-232.9999999999886
 23
249.083069671669
 33
0.0
  0
SOLID
  5
17F
330
17A
100
AcDbEntity
  8
1
 62
     4
100
AcDbTrace
 10
-40.00000000001143
 20
248.1615021885573
 30
0.0
 11
-40.00000000001143
 21
250.0046371547808
 31
0.0
 12
-33.00000000001143
 22
249.083069671669
 32
0.0
 13
-33.00000000001143
 23
249.083069671669
 33
0.0
  0
MTEXT
  5
180
330
17A
100
AcDbEntity
  8
1
 62
     1
100
AcDbMText
 10
-138.5781832749013
 20
253.0830418433637
 30
0.0
 40
7.0
 41
0.0
 71
     7
 72
     1
  1
\C1; {\Fgdt;n}\C1;200
  7
CONVERTER_11
 11
0.9999999999970619
 21
2.424068405545306E-6
 31
0.0
 73
     1
 44
0.60024009603842
  0
ENDBLK
  5
182
330
17A
100
AcDbEntity
  8
0
100
AcDbBlockEnd
  0
BLOCK
  5
18C
330
185
100
AcDbEntity
  8
0
100
AcDbBlockBegin
  2
*D11
 70
     1
 10
0.0
 20
0.0
 30
0.0
  3
*D11
  1
*D11
  0
LINE
  5
186
330
185
100
AcDbEntity
  8
1
  6
Continuous
 62
     4
100
AcDbLine
 10
-188.0
 20
232.348756992256
 30
0.0
 11
-78.0
 21
232.348756992256
 31
0.0
  0
LINE
  5
187
330
185
100
AcDbEntity
  8
1
  6
Continuous
 62
     4
100
AcDbLine
 10
-188.0
 20
222.4339225887787
 30
0.0
 11
-188.0
 21
234.348756992256
 31
0.0
  0
LINE
  5
188
330
185
100
AcDbEntity
  8
1
  6
Continuous
 62
     4
100
AcDbLine
 10
-78.0
 20
222.4339225887787
 30
0.0
 11
-78.0
 21
234.348756992256
 31
0.0
  0
SOLID
  5
189
330
185
100
AcDbEntity
  8
1
 62
     4
100
AcDbTrace
 10
-181.0
 20
233.2703244753678
 30
0.0
 11
-181.0
 21
231.4271895091442
 31
0.0
 12
-188.0
 22
232.348756992256
 32
0.0
 13
-188.0
 23
232.348756992256
 33
0.0
  0
SOLID
  5
18A
330
185
100
AcDbEntity
  8
1
 62
     4
100
AcDbTrace
 10
-85.0
 20
231.4271895091442
 30
0.0
 11
-85.0
 21
233.2703244753678
 31
0.0
 12
-78.0
 22
232.348756992256
 32
0.0
 13
-78.0
 23
232.348756992256
 33
0.0
  0
MTEXT
  5
18B
330
185
100
AcDbEntity
  8
1
 62
     1
100
AcDbMText
 10
-151.4892608801821
 20
236.3487430781034
 30
0.0
 40
7.0
 41
0.0
 71
     7
 72
     1
  1
\C1;{\Fgdt;n}\C1;110
  7
CONVERTER_11
 11
0.9999999999970619
 21
2.424068405545306E-6
 31
0.0
 73
     1
 44
0.60024009603842
  0
ENDBLK
  5
18D
330
185
100
AcDbEntity
  8
0
100
AcDbBlockEnd
  0
ENDSEC
  0
SECTION
  2
ENTITIES
  0
INSERT
  5
81
330
1F
100
AcDbEntity
  8
0
100
AcDbBlockReference
  2
Vordans1
 10
-133.0
 20
132.999999999525
 30
0.0
  0
ENDSEC
  0
SECTION
  2
OBJECTS
  0
DICTIONARY
  5
C
330
0
100
AcDbDictionary
281
     1
  3
ACAD_GROUP
350
D
  3
ACAD_LAYOUT
350
1A
  3
ACAD_MATERIAL
350
43
  3
ACAD_MLEADERSTYLE
350
192
  3
ACAD_MLINESTYLE
350
17
  3
ACAD_PLOTSETTINGS
350
19
  3
ACAD_PLOTSTYLENAME
350
E
  3
ACAD_SCALELIST
350
47
  3
ACAD_VISUALSTYLE
350
2A
  3
AcDbVariableDictionary
350
190
  0
DICTIONARY
  5
D
102
{ACAD_REACTORS
330
C
102
}
330
C
100
AcDbDictionary
281
     1
  0
DICTIONARY
  5
1A
102
{ACAD_REACTORS
330
C
102
}
330
C
100
AcDbDictionary
281
     1
  3
Layout1
350
1E
  3
Layout2
350
26
  3
Model
350
22
  0
DICTIONARY
  5
43
102
{ACAD_REACTORS
330
C
102
}
330
C
100
AcDbDictionary
281
     1
  3
ByBlock
350
45
  3
ByLayer
350
44
  3
Global
350
46
  0
DICTIONARY
  5
192
102
{ACAD_REACTORS
330
C
102
}
330
C
100
AcDbDictionary
281
     1
  0
DICTIONARY
  5
17
102
{ACAD_REACTORS
330
C
102
}
330
C
100
AcDbDictionary
281
     1
  3
Standard
350
18
  0
DICTIONARY
  5
19
102
{ACAD_REACTORS
330
C
102
}
330
C
100
AcDbDictionary
281
     1
  0
ACDBDICTIONARYWDFLT
  5
E
102
{ACAD_REACTORS
330
C
102
}
330
C
100
AcDbDictionary
281
     1
  3
Normal
350
F
100
AcDbDictionaryWithDefault
340
F
  0
DICTIONARY
  5
47
102
{ACAD_REACTORS
330
C
102
}
330
C
100
AcDbDictionary
281
     1
  3
A0
350
48
  3
A1
350
49
  3
A2
350
4A
  3
A3
350
4B
  3
A4
350
4C
  3
A5
350
4D
  3
A6
350
4E
  3
A7
350
4F
  3
A8
350
50
  3
A9
350
51
  3
B0
350
52
  3
B1
350
53
  3
B2
350
54
  3
B3
350
55
  3
B4
350
56
  3
B5
350
57
  3
B6
350
58
  3
B7
350
59
  3
B8
350
5A
  3
B9
350
5B
  3
C0
350
5C
  3
C1
350
5D
  3
C2
350
5E
  3
C3
350
5F
  3
C4
350
60
  3
C5
350
61
  3
C6
350
62
  3
C7
350
63
  3
C8
350
64
  3
C9
350
65
  3
D0
350
66
  3
D1
350
67
  3
D2
350
68
  0
DICTIONARY
  5
2A
102
{ACAD_REACTORS
330
C
102
}
330
C
100
AcDbDictionary
281
     1
  3
2dWireframe
350
2F
  3
Basic
350
32
  3
Brighten
350
36
  3
ColorChange
350
3A
  3
Conceptual
350
34
  3
Dim
350
35
  3
EdgeColorOff
350
3D
  3
Facepattern
350
39
  3
Flat
350
2B
  3
FlatWithEdges
350
2C
  3
Gouraud
350
2D
  3
GouraudWithEdges
350
2E
  3
Hidden
350
31
  3
JitterOff
350
3B
  3
Linepattern
350
38
  3
OverhangOff
350
3C
  3
Realistic
350
33
  3
Shaded
350
42
  3
Shaded with edges
350
41
  3
Shades of Gray
350
3E
  3
Sketchy
350
3F
  3
Thicken
350
37
  3
Wireframe
350
30
  3
X-Ray
350
40
  0
DICTIONARY
  5
190
102
{ACAD_REACTORS
330
C
102
}
330
C
100
AcDbDictionary
281
     1
  3
CANNOSCALE
350
197
  3
DIMASSOC
350
195
  3
HIDETEXT
350
196
  3
MSLTSCALE
350
198
  0
LAYOUT
  5
1E
102
{ACAD_REACTORS
330
1A
102
}
330
1A
100
AcDbPlotSettings
  1

  2
none_device
  4

  6

 40
0.0
 41
0.0
 42
0.0
 43
0.0
 44
0.0
 45
0.0
 46
0.0
 47
0.0
 48
0.0
 49
0.0
140
0.0
141
0.0
142
1.0
143
1.0
 70
   688
 72
     0
 73
     0
 74
     5
  7

 75
    16
147
1.0
148
0.0
149
0.0
100
AcDbLayout
  1
Layout1
 70
     1
 71
     1
 10
0.0
 20
0.0
 11
12.0
 21
9.0
 12
0.0
 22
0.0
 32
0.0
 14
1.00000000000000E+20
 24
1.00000000000000E+20
 34
1.00000000000000E+20
 15
-1.00000000000000E+20
 25
-1.00000000000000E+20
 35
-1.00000000000000E+20
146
0.0
 13
0.0
 23
0.0
 33
0.0
 16
1.0
 26
0.0
 36
0.0
 17
0.0
 27
1.0
 37
0.0
 76
     0
330
1B
  0
LAYOUT
  5
26
102
{ACAD_REACTORS
330
1A
102
}
330
1A
100
AcDbPlotSettings
  1

  2
none_device
  4

  6

 40
0.0
 41
0.0
 42
0.0
 43
0.0
 44
0.0
 45
0.0
 46
0.0
 47
0.0
 48
0.0
 49
0.0
140
0.0
141
0.0
142
1.0
143
1.0
 70
   688
 72
     0
 73
     0
 74
     5
  7

 75
    16
147
1.0
148
0.0
149
0.0
100
AcDbLayout
  1
Layout2
 70
     1
 71
     2
 10
0.0
 20
0.0
 11
0.0
 21
0.0
 12
0.0
 22
0.0
 32
0.0
 14
0.0
 24
0.0
 34
0.0
 15
0.0
 25
0.0
 35
0.0
146
0.0
 13
0.0
 23
0.0
 33
0.0
 16
1.0
 26
0.0
 36
0.0
 17
0.0
 27
1.0
 37
0.0
 76
     0
330
23
  0
LAYOUT
  5
22
102
{ACAD_REACTORS
330
1A
102
}
330
1A
100
AcDbPlotSettings
  1

  2
none_device
  4
Letter_(8.50_x_11.00_Inches)
  6

 40
6.35
 41
6.35
 42
6.35000508
 43
6.35000508
 44
215.9
 45
279.4
 46
0.0
 47
0.0
 48
0.0
 49
0.0
140
0.0
141
0.0
142
1.0
143
1.0
 70
  1712
 72
     0
 73
     0
 74
     0
  7

 75
     0
147
1.0
148
0.0
149
0.0
100
AcDbLayout
  1
Model
 70
     1
 71
     0
 10
0.0
 20
0.0
 11
12.0
 21
9.0
 12
0.0
 22
0.0
 32
0.0
 14
-255.323424013432
 24
22.1170569875138
 34
0.0
 15
-33.00000000001137
 25
260.083069671669
 35
0.0
146
0.0
 13
0.0
 23
0.0
 33
0.0
 16
1.0
 26
0.0
 36
0.0
 17
0.0
 27
1.0
 37
0.0
 76
     0
330
1F
331
29
  0
MATERIAL
  5
45
102
{ACAD_REACTORS
330
43
102
}
102
{ACAD_XDICTIONARY
360
1CB
102
}
330
43
100
AcDbMaterial
  1
ByBlock
  0
MATERIAL
  5
44
102
{ACAD_REACTORS
330
43
102
}
102
{ACAD_XDICTIONARY
360
1C9
102
}
330
43
100
AcDbMaterial
  1
ByLayer
  0
MATERIAL
  5
46
102
{ACAD_REACTORS
330
43
102
}
102
{ACAD_XDICTIONARY
360
1CD
102
}
330
43
100
AcDbMaterial
  1
Global
  0
MLINESTYLE
  5
18
102
{ACAD_REACTORS
330
17
102
}
330
17
100
AcDbMlineStyle
  2
Standard
 70
     0
  3

 62
   256
 51
90.0
 52
90.0
 71
     2
 49
0.5
 62
   256
  6
BYLAYER
 49
-0.5
 62
   256
  6
BYLAYER
  0
ACDBPLACEHOLDER
  5
F
102
{ACAD_REACTORS
330
E
102
}
330
E
  0
SCALE
  5
48
102
{ACAD_REACTORS
330
47
102
}
330
47
100
AcDbScale
 70
     0
300
1:1
140
1.0
141
1.0
290
     1
  0
SCALE
  5
49
102
{ACAD_REACTORS
330
47
102
}
330
47
100
AcDbScale
 70
     0
300
1:2
140
1.0
141
2.0
290
     0
  0
SCALE
  5
4A
102
{ACAD_REACTORS
330
47
102
}
330
47
100
AcDbScale
 70
     0
300
1:4
140
1.0
141
4.0
290
     0
  0
SCALE
  5
4B
102
{ACAD_REACTORS
330
47
102
}
330
47
100
AcDbScale
 70
     0
300
1:5
140
1.0
141
5.0
290
     0
  0
SCALE
  5
4C
102
{ACAD_REACTORS
330
47
102
}
330
47
100
AcDbScale
 70
     0
300
1:8
140
1.0
141
8.0
290
     0
  0
SCALE
  5
4D
102
{ACAD_REACTORS
330
47
102
}
330
47
100
AcDbScale
 70
     0
300
1:10
140
1.0
141
10.0
290
     0
  0
SCALE
  5
4E
102
{ACAD_REACTORS
330
47
102
}
330
47
100
AcDbScale
 70
     0
300
1:16
140
1.0
141
16.0
290
     0
  0
SCALE
  5
4F
102
{ACAD_REACTORS
330
47
102
}
330
47
100
AcDbScale
 70
     0
300
1:20
140
1.0
141
20.0
290
     0
  0
SCALE
  5
50
102
{ACAD_REACTORS
330
47
102
}
330
47
100
AcDbScale
 70
     0
300
1:30
140
1.0
141
30.0
290
     0
  0
SCALE
  5
51
102
{ACAD_REACTORS
330
47
102
}
330
47
100
AcDbScale
 70
     0
300
1:40
140
1.0
141
40.0
290
     0
  0
SCALE
  5
52
102
{ACAD_REACTORS
330
47
102
}
330
47
100
AcDbScale
 70
     0
300
1:50
140
1.0
141
50.0
290
     0
  0
SCALE
  5
53
102
{ACAD_REACTORS
330
47
102
}
330
47
100
AcDbScale
 70
     0
300
1:100
140
1.0
141
100.0
290
     0
  0
SCALE
  5
54
102
{ACAD_REACTORS
330
47
102
}
330
47
100
AcDbScale
 70
     0
300
2:1
140
2.0
141
1.0
290
     0
  0
SCALE
  5
55
102
{ACAD_REACTORS
330
47
102
}
330
47
100
AcDbScale
 70
     0
300
4:1
140
4.0
141
1.0
290
     0
  0
SCALE
  5
56
102
{ACAD_REACTORS
330
47
102
}
330
47
100
AcDbScale
 70
     0
300
8:1
140
8.0
141
1.0
290
     0
  0
SCALE
  5
57
102
{ACAD_REACTORS
330
47
102
}
330
47
100
AcDbScale
 70
     0
300
10:1
140
10.0
141
1.0
290
     0
  0
SCALE
  5
58
102
{ACAD_REACTORS
330
47
102
}
330
47
100
AcDbScale
 70
     0
300
100:1
140
100.0
141
1.0
290
     0
  0
SCALE
  5
59
102
{ACAD_REACTORS
330
47
102
}
330
47
100
AcDbScale
 70
     0
300
1/128" = 1'-0"
140
0.0078125
141
12.0
290
     0
  0
SCALE
  5
5A
102
{ACAD_REACTORS
330
47
102
}
330
47
100
AcDbScale
 70
     0
300
1/64" = 1'-0"
140
0.015625
141
12.0
290
     0
  0
SCALE
  5
5B
102
{ACAD_REACTORS
330
47
102
}
330
47
100
AcDbScale
 70
     0
300
1/32" = 1'-0"
140
0.03125
141
12.0
290
     0
  0
SCALE
  5
5C
102
{ACAD_REACTORS
330
47
102
}
330
47
100
AcDbScale
 70
     0
300
1/16" = 1'-0"
140
0.0625
141
12.0
290
     0
  0
SCALE
  5
5D
102
{ACAD_REACTORS
330
47
102
}
330
47
100
AcDbScale
 70
     0
300
3/32" = 1'-0"
140
0.09375
141
12.0
290
     0
  0
SCALE
  5
5E
102
{ACAD_REACTORS
330
47
102
}
330
47
100
AcDbScale
 70
     0
300
1/8" = 1'-0"
140
0.125
141
12.0
290
     0
  0
SCALE
  5
5F
102
{ACAD_REACTORS
330
47
102
}
330
47
100
AcDbScale
 70
     0
300
3/16" = 1'-0"
140
0.1875
141
12.0
290
     0
  0
SCALE
  5
60
102
{ACAD_REACTORS
330
47
102
}
330
47
100
AcDbScale
 70
     0
300
1/4" = 1'-0"
140
0.25
141
12.0
290
     0
  0
SCALE
  5
61
102
{ACAD_REACTORS
330
47
102
}
330
47
100
AcDbScale
 70
     0
300
3/8" = 1'-0"
140
0.375
141
12.0
290
     0
  0
SCALE
  5
62
102
{ACAD_REACTORS
330
47
102
}
330
47
100
AcDbScale
 70
     0
300
1/2" = 1'-0"
140
0.5
141
12.0
290
     0
  0
SCALE
  5
63
102
{ACAD_REACTORS
330
47
102
}
330
47
100
AcDbScale
 70
     0
300
3/4" = 1'-0"
140
0.75
141
12.0
290
     0
  0
SCALE
  5
64
102
{ACAD_REACTORS
330
47
102
}
330
47
100
AcDbScale
 70
     0
300
1" = 1'-0"
140
1.0
141
12.0
290
     0
  0
SCALE
  5
65
102
{ACAD_REACTORS
330
47
102
}
330
47
100
AcDbScale
 70
     0
300
1-1/2" = 1'-0"
140
1.5
141
12.0
290
     0
  0
SCALE
  5
66
102
{ACAD_REACTORS
330
47
102
}
330
47
100
AcDbScale
 70
     0
300
3" = 1'-0"
140
3.0
141
12.0
290
     0
  0
SCALE
  5
67
102
{ACAD_REACTORS
330
47
102
}
330
47
100
AcDbScale
 70
     0
300
6" = 1'-0"
140
6.0
141
12.0
290
     0
  0
SCALE
  5
68
102
{ACAD_REACTORS
330
47
102
}
330
47
100
AcDbScale
 70
     0
300
1'-0" = 1'-0"
140
12.0
141
12.0
290
     0
  0
VISUALSTYLE
  5
2F
102
{ACAD_REACTORS
330
2A
102
}
102
{ACAD_XDICTIONARY
360
1A1
102
}
330
2A
100
AcDbVisualStyle
  2
2dWireframe
 70
     4
 71
     0
 72
     2
 73
     0
 90
        0
 40
0.6
 41
30.0
 62
     5
 63
     7
 74
     1
 91
        4
 64
     7
 65
   257
 75
     1
175
     1
 42
1.0
 92
        0
 66
   257
 43
1.0
 76
     1
 77
     6
 78
     2
 67
     7
 79
     5
170
     0
171
     0
290
     0
174
     0
 93
        1
 44
0.0
173
     0
291
     0
 45
0.0
1001
ACAD
1000
AcDbSavedByObjectVersion
1070
     0
  0
VISUALSTYLE
  5
32
102
{ACAD_REACTORS
330
2A
102
}
102
{ACAD_XDICTIONARY
360
1A7
102
}
330
2A
100
AcDbVisualStyle
  2
Basic
 70
     7
 71
     1
 72
     0
 73
     1
 90
        0
 40
0.6
 41
30.0
 62
     5
 63
     7
 74
     0
 91
        4
 64
     7
 65
   257
 75
     1
175
     1
 42
1.0
 92
        8
 66
     7
 43
1.0
 76
     1
 77
     6
 78
     2
 67
     7
 79
     5
170
     0
171
     0
290
     0
174
     0
 93
        1
 44
0.0
173
     0
291
     1
 45
0.0
1001
ACAD
1000
AcDbSavedByObjectVersion
1070
     0
  0
VISUALSTYLE
  5
36
102
{ACAD_REACTORS
330
2A
102
}
102
{ACAD_XDICTIONARY
360
1AF
102
}
330
2A
100
AcDbVisualStyle
  2
Brighten
 70
    12
 71
     2
 72
     2
 73
     0
 90
        0
 40
0.6
 41
30.0
 62
     5
 63
     7
 74
     1
 91
        4
 64
     7
 65
   257
 75
     1
175
     1
 42
1.0
 92
        8
 66
     7
 43
1.0
 76
     1
 77
     6
 78
     2
 67
     7
 79
     5
170
     0
171
     0
290
     0
174
     0
 93
        1
 44
50.0
173
     0
291
     1
 45
0.0
1001
ACAD
1000
AcDbSavedByObjectVersion
1070
     0
  0
VISUALSTYLE
  5
3A
102
{ACAD_REACTORS
330
2A
102
}
102
{ACAD_XDICTIONARY
360
1B7
102
}
330
2A
100
AcDbVisualStyle
  2
ColorChange
 70
    16
 71
     2
 72
     2
 73
     3
 90
        0
 40
0.6
 41
30.0
 62
     5
 63
     8
 74
     1
 91
        4
 64
     7
 65
   257
 75
     1
175
     1
 42
1.0
 92
        8
 66
     8
 43
1.0
 76
     1
 77
     6
 78
     2
 67
     7
 79
     5
170
     0
171
     0
290
     0
174
     0
 93
        1
 44
0.0
173
     0
291
     1
 45
0.0
1001
ACAD
1000
AcDbSavedByObjectVersion
1070
     0
  0
VISUALSTYLE
  5
34
102
{ACAD_REACTORS
330
2A
102
}
102
{ACAD_XDICTIONARY
360
1AB
102
}
330
2A
100
AcDbVisualStyle
  2
Conceptual
 70
     9
 71
     3
 72
     2
 73
     0
 90
        0
 40
0.6
 41
30.0
 62
     5
 63
     7
 74
     2
 91
        2
 64
     7
 65
   257
 75
     1
175
     1
 42
179.0
 92
        8
 66
     7
 43
1.0
 76
     1
 77
     6
 78
     2
 67
     7
 79
     3
170
     0
171
     0
290
     0
174
     0
 93
        1
 44
0.0
173
     0
291
     0
 45
0.0
1001
ACAD
1000
AcDbSavedByObjectVersion
1070
     0
  0
VISUALSTYLE
  5
35
102
{ACAD_REACTORS
330
2A
102
}
102
{ACAD_XDICTIONARY
360
1AD
102
}
330
2A
100
AcDbVisualStyle
  2
Dim
 70
    11
 71
     2
 72
     2
 73
     0
 90
        0
 40
0.6
 41
30.0
 62
     5
 63
     7
 74
     1
 91
        4
 64
     7
 65
   257
 75
     1
175
     1
 42
1.0
 92
        8
 66
     7
 43
1.0
 76
     1
 77
     6
 78
     2
 67
     7
 79
     5
170
     0
171
     0
290
     0
174
     0
 93
        1
 44
-50.0
173
     0
291
     1
 45
0.0
1001
ACAD
1000
AcDbSavedByObjectVersion
1070
     0
  0
VISUALSTYLE
  5
3D
102
{ACAD_REACTORS
330
2A
102
}
102
{ACAD_XDICTIONARY
360
1BD
102
}
330
2A
100
AcDbVisualStyle
  2
EdgeColorOff
 70
    22
 71
     2
 72
     2
 73
     0
 90
        0
 40
0.6
 41
30.0
 62
     5
 63
     7
 74
     1
 91
        4
 64
     7
 65
   257
 75
     1
175
     1
 42
1.0
 92
        8
 66
     7
 43
1.0
 76
     1
 77
     6
 78
     2
 67
     7
 79
     5
170
     0
171
     0
290
     0
174
     0
 93
        1
 44
0.0
173
     0
291
     1
 45
0.0
1001
ACAD
1000
AcDbSavedByObjectVersion
1070
     0
  0
VISUALSTYLE
  5
39
102
{ACAD_REACTORS
330
2A
102
}
102
{ACAD_XDICTIONARY
360
1B5
102
}
330
2A
100
AcDbVisualStyle
  2
Facepattern
 70
    15
 71
     2
 72
     2
 73
     0
 90
        0
 40
0.6
 41
30.0
 62
     5
 63
     7
 74
     1
 91
        4
 64
     7
 65
   257
 75
     1
175
     1
 42
1.0
 92
        8
 66
     7
 43
1.0
 76
     1
 77
     6
 78
     2
 67
     7
 79
     5
170
     0
171
     0
290
     0
174
     0
 93
        1
 44
0.0
173
     0
291
     1
 45
0.0
1001
ACAD
1000
AcDbSavedByObjectVersion
1070
     0
  0
VISUALSTYLE
  5
2B
102
{ACAD_REACTORS
330
2A
102
}
102
{ACAD_XDICTIONARY
360
199
102
}
330
2A
100
AcDbVisualStyle
  2
Flat
 70
     0
 71
     2
 72
     1
 73
     1
 90
        2
 40
0.6
 41
30.0
 62
     5
 63
     7
 74
     0
 91
        0
 64
     7
 65
   257
 75
     1
175
     1
 42
1.0
 92
        8
 66
     7
 43
1.0
 76
     1
 77
     6
 78
     2
 67
     7
 79
     5
170
     0
171
     0
290
     0
174
     0
 93
       13
 44
0.0
173
     0
291
     1
 45
0.0
1001
ACAD
1000
AcDbSavedByObjectVersion
1070
     0
  0
VISUALSTYLE
  5
2C
102
{ACAD_REACTORS
330
2A
102
}
102
{ACAD_XDICTIONARY
360
19B
102
}
330
2A
100
AcDbVisualStyle
  2
FlatWithEdges
 70
     1
 71
     2
 72
     1
 73
     1
 90
        2
 40
0.6
 41
30.0
 62
     5
 63
     7
 74
     1
 91
        0
 64
     7
 65
   257
 75
     1
175
     1
 42
1.0
 92
        0
 66
   257
 43
1.0
 76
     1
 77
     6
 78
     2
 67
     7
 79
     5
170
     0
171
     0
290
     0
174
     0
 93
       13
 44
0.0
173
     0
291
     1
 45
0.0
1001
ACAD
1000
AcDbSavedByObjectVersion
1070
     0
  0
VISUALSTYLE
  5
2D
102
{ACAD_REACTORS
330
2A
102
}
102
{ACAD_XDICTIONARY
360
19D
102
}
330
2A
100
AcDbVisualStyle
  2
Gouraud
 70
     2
 71
     2
 72
     2
 73
     1
 90
        2
 40
0.6
 41
30.0
 62
     5
 63
     7
 74
     0
 91
        0
 64
     7
 65
   257
 75
     1
175
     1
 42
1.0
 92
        0
 66
     7
 43
1.0
 76
     1
 77
     6
 78
     2
 67
     7
 79
     5
170
     0
171
     0
290
     0
174
     0
 93
       13
 44
0.0
173
     0
291
     1
 45
0.0
1001
ACAD
1000
AcDbSavedByObjectVersion
1070
     0
  0
VISUALSTYLE
  5
2E
102
{ACAD_REACTORS
330
2A
102
}
102
{ACAD_XDICTIONARY
360
19F
102
}
330
2A
100
AcDbVisualStyle
  2
GouraudWithEdges
 70
     3
 71
     2
 72
     2
 73
     1
 90
        2
 40
0.6
 41
30.0
 62
     5
 63
     7
 74
     1
 91
        0
 64
     7
 65
   257
 75
     1
175
     1
 42
1.0
 92
        0
 66
   257
 43
1.0
 76
     1
 77
     6
 78
     2
 67
     7
 79
     5
170
     0
171
     0
290
     0
174
     0
 93
       13
 44
0.0
173
     0
291
     1
 45
0.0
1001
ACAD
1000
AcDbSavedByObjectVersion
1070
     0
  0
VISUALSTYLE
  5
31
102
{ACAD_REACTORS
330
2A
102
}
102
{ACAD_XDICTIONARY
360
1A5
102
}
330
2A
100
AcDbVisualStyle
  2
Hidden
 70
     6
 71
     1
 72
     2
 73
     2
 90
        0
 40
0.6
 41
30.0
 62
     5
 63
     7
 74
     2
 91
        2
 64
     7
 65
   257
 75
     2
175
     1
 42
40.0
 92
        0
 66
   257
 43
1.0
 76
     1
 77
     6
 78
     2
 67
     7
 79
     3
170
     0
171
     0
290
     0
174
     0
 93
        1
 44
0.0
173
     0
291
     0
 45
0.0
1001
ACAD
1000
AcDbSavedByObjectVersion
1070
     0
  0
VISUALSTYLE
  5
3B
102
{ACAD_REACTORS
330
2A
102
}
102
{ACAD_XDICTIONARY
360
1B9
102
}
330
2A
100
AcDbVisualStyle
  2
JitterOff
 70
    20
 71
     2
 72
     2
 73
     0
 90
        0
 40
0.6
 41
30.0
 62
     5
 63
     7
 74
     1
 91
        4
 64
     7
 65
   257
 75
     1
175
     1
 42
1.0
 92
       10
 66
     7
 43
1.0
 76
     1
 77
     6
 78
     2
 67
     7
 79
     5
170
     0
171
     0
290
     0
174
     0
 93
        1
 44
0.0
173
     0
291
     1
 45
0.0
1001
ACAD
1000
AcDbSavedByObjectVersion
1070
     0
  0
VISUALSTYLE
  5
38
102
{ACAD_REACTORS
330
2A
102
}
102
{ACAD_XDICTIONARY
360
1B3
102
}
330
2A
100
AcDbVisualStyle
  2
Linepattern
 70
    14
 71
     2
 72
     2
 73
     0
 90
        0
 40
0.6
 41
30.0
 62
     5
 63
     7
 74
     1
 91
        4
 64
     7
 65
   257
 75
     7
175
     7
 42
1.0
 92
        8
 66
     7
 43
1.0
 76
     1
 77
     6
 78
     2
 67
     7
 79
     5
170
     0
171
     0
290
     0
174
     0
 93
        1
 44
0.0
173
     0
291
     1
 45
0.0
1001
ACAD
1000
AcDbSavedByObjectVersion
1070
     0
  0
VISUALSTYLE
  5
3C
102
{ACAD_REACTORS
330
2A
102
}
102
{ACAD_XDICTIONARY
360
1BB
102
}
330
2A
100
AcDbVisualStyle
  2
OverhangOff
 70
    21
 71
     2
 72
     2
 73
     0
 90
        0
 40
0.6
 41
30.0
 62
     5
 63
     7
 74
     1
 91
        4
 64
     7
 65
   257
 75
     1
175
     1
 42
1.0
 92
        9
 66
     7
 43
1.0
 76
     1
 77
     6
 78
     2
 67
     7
 79
     5
170
     0
171
     0
290
     0
174
     0
 93
        1
 44
0.0
173
     0
291
     1
 45
0.0
1001
ACAD
1000
AcDbSavedByObjectVersion
1070
     0
  0
VISUALSTYLE
  5
33
102
{ACAD_REACTORS
330
2A
102
}
102
{ACAD_XDICTIONARY
360
1A9
102
}
330
2A
100
AcDbVisualStyle
  2
Realistic
 70
     8
 71
     2
 72
     3
 73
     0
 90
        2
 40
0.6
 41
30.0
 62
     5
 63
     7
 74
     0
 91
        0
 64
     7
 65
   257
 75
     1
175
     1
 42
1.0
 92
        8
 66
   257
 43
1.0
 76
     1
 77
     6
 78
     2
 67
     7
 79
     3
170
     0
171
     0
290
     0
174
     0
 93
       13
 44
0.0
173
     0
291
     0
 45
0.0
1001
ACAD
1000
AcDbSavedByObjectVersion
1070
     0
  0
VISUALSTYLE
  5
42
102
{ACAD_REACTORS
330
2A
102
}
102
{ACAD_XDICTIONARY
360
1C7
102
}
330
2A
100
AcDbVisualStyle
  2
Shaded
 70
    27
 71
     2
 72
     2
 73
     1
 90
        2
 40
0.6
 41
30.0
 62
     5
 63
     7
 74
     0
 91
        4
 64
     7
 65
   257
 75
     1
175
     1
 42
1.0
 92
        8
 66
   257
 43
1.0
 76
     1
 77
     6
 78
     2
 67
     8
 79
     3
170
     0
171
     0
290
     0
174
     0
 93
        5
 44
0.0
173
     0
291
     0
 45
0.0
1001
ACAD
1000
AcDbSavedByObjectVersion
1070
     0
  0
VISUALSTYLE
  5
41
102
{ACAD_REACTORS
330
2A
102
}
102
{ACAD_XDICTIONARY
360
1C5
102
}
330
2A
100
AcDbVisualStyle
  2
Shaded with edges
 70
    26
 71
     2
 72
     2
 73
     1
 90
        2
 40
0.6
 41
30.0
 62
     5
 63
     7
 74
     1
 91
       10
 64
     7
 65
   257
 75
     2
175
     1
 42
1.0
 92
        8
 66
   257
 43
1.0
 76
     1
 77
     6
 78
     2
 67
     7
 79
     3
170
     0
171
     0
290
     0
174
     0
 93
        5
 44
0.0
173
     0
291
     0
 45
0.0
1001
ACAD
1000
AcDbSavedByObjectVersion
1070
     0
  0
VISUALSTYLE
  5
3E
102
{ACAD_REACTORS
330
2A
102
}
102
{ACAD_XDICTIONARY
360
1BF
102
}
330
2A
100
AcDbVisualStyle
  2
Shades of Gray
 70
    23
 71
     2
 72
     2
 73
     3
 90
        0
 40
0.6
 41
30.0
 62
     5
 63
     7
 74
     2
 91
        2
 64
     7
 65
     7
 75
     1
175
     1
 42
40.0
 92
        8
 66
     7
 43
1.0
 76
     1
 77
     6
 78
     2
 67
     7
 79
     3
170
     0
171
     0
290
     0
174
     0
 93
        1
 44
0.0
173
     0
291
     0
 45
0.0
1001
ACAD
1000
AcDbSavedByObjectVersion
1070
     0
  0
VISUALSTYLE
  5
3F
102
{ACAD_REACTORS
330
2A
102
}
102
{ACAD_XDICTIONARY
360
1C1
102
}
330
2A
100
AcDbVisualStyle
  2
Sketchy
 70
    24
 71
     1
 72
     2
 73
     2
 90
        0
 40
0.6
 41
30.0
 62
     5
 63
     7
 74
     2
 91
        2
 64
     7
 65
     7
 75
     1
175
     1
 42
40.0
 92
       11
 66
     7
 43
1.0
 76
     1
 77
     6
 78
     2
 67
     7
 79
     6
170
     0
171
     0
290
     0
174
     0
 93
        1
 44
0.0
173
     0
291
     0
 45
0.0
1001
ACAD
1000
AcDbSavedByObjectVersion
1070
     0
  0
VISUALSTYLE
  5
37
102
{ACAD_REACTORS
330
2A
102
}
102
{ACAD_XDICTIONARY
360
1B1
102
}
330
2A
100
AcDbVisualStyle
  2
Thicken
 70
    13
 71
     2
 72
     2
 73
     0
 90
        0
 40
0.6
 41
30.0
 62
     5
 63
     7
 74
     1
 91
        4
 64
     7
 65
   257
 75
     1
175
     1
 42
1.0
 92
       12
 66
     7
 43
1.0
 76
     1
 77
     6
 78
     2
 67
     7
 79
     5
170
     0
171
     0
290
     0
174
     0
 93
        1
 44
0.0
173
     0
291
     1
 45
0.0
1001
ACAD
1000
AcDbSavedByObjectVersion
1070
     0
  0
VISUALSTYLE
  5
30
102
{ACAD_REACTORS
330
2A
102
}
102
{ACAD_XDICTIONARY
360
1A3
102
}
330
2A
100
AcDbVisualStyle
  2
Wireframe
 70
     5
 71
     0
 72
     2
 73
     0
 90
        0
 40
0.6
 41
30.0
 62
     5
 63
     7
 74
     1
 91
        4
 64
     7
 65
   257
 75
     1
175
     1
 42
1.0
 92
        0
 66
   257
 43
1.0
 76
     1
 77
     6
 78
     2
 67
     7
 79
     3
170
     0
171
     0
290
     0
174
     0
 93
        1
 44
0.0
173
     0
291
     0
 45
0.0
1001
ACAD
1000
AcDbSavedByObjectVersion
1070
     0
  0
VISUALSTYLE
  5
40
102
{ACAD_REACTORS
330
2A
102
}
102
{ACAD_XDICTIONARY
360
1C3
102
}
330
2A
100
AcDbVisualStyle
  2
X-Ray
 70
    25
 71
     2
 72
     2
 73
     1
 90
        1
 40
0.5
 41
30.0
 62
     5
 63
     7
 74
     1
 91
        0
 64
     7
 65
   257
 75
     1
175
     1
 42
1.0
 92
        8
 66
     7
 43
1.0
 76
     1
 77
     6
 78
     2
 67
     7
 79
     3
170
     0
171
     0
290
     0
174
     0
 93
       13
 44
0.0
173
     0
291
     0
 45
0.0
1001
ACAD
1000
AcDbSavedByObjectVersion
1070
     0
  0
DICTIONARYVAR
  5
197
102
{ACAD_REACTORS
330
190
102
}
330
190
100
DictionaryVariables
280
     0
  1
1:1
  0
DICTIONARYVAR
  5
195
102
{ACAD_REACTORS
330
190
102
}
330
190
100
DictionaryVariables
280
     0
  1
2
  0
DICTIONARYVAR
  5
196
102
{ACAD_REACTORS
330
190
102
}
330
190
100
DictionaryVariables
280
     0
  1
1
  0
DICTIONARYVAR
  5
198
102
{ACAD_REACTORS
330
190
102
}
330
190
100
DictionaryVariables
280
     0
  1
1
  0
DICTIONARY
  5
1CB
330
45
100
AcDbDictionary
280
     1
281
     1
  3
ACAD_XREC_ROUNDTRIP
360
1CC
  0
DICTIONARY
  5
1C9
330
44
100
AcDbDictionary
280
     1
281
     1
  3
ACAD_XREC_ROUNDTRIP
360
1CA
  0
DICTIONARY
  5
1CD
330
46
100
AcDbDictionary
280
     1
281
     1
  3
ACAD_XREC_ROUNDTRIP
360
1CE
  0
DICTIONARY
  5
1A1
330
2F
100
AcDbDictionary
280
     1
281
     1
  3
ACAD_XREC_ROUNDTRIP
360
1A2
  0
DICTIONARY
  5
1A7
330
32
100
AcDbDictionary
280
     1
281
     1
  3
ACAD_XREC_ROUNDTRIP
360
1A8
  0
DICTIONARY
  5
1AF
330
36
100
AcDbDictionary
280
     1
281
     1
  3
ACAD_XREC_ROUNDTRIP
360
1B0
  0
DICTIONARY
  5
1B7
330
3A
100
AcDbDictionary
280
     1
281
     1
  3
ACAD_XREC_ROUNDTRIP
360
1B8
  0
DICTIONARY
  5
1AB
330
34
100
AcDbDictionary
280
     1
281
     1
  3
ACAD_XREC_ROUNDTRIP
360
1AC
  0
DICTIONARY
  5
1AD
330
35
100
AcDbDictionary
280
     1
281
     1
  3
ACAD_XREC_ROUNDTRIP
360
1AE
  0
DICTIONARY
  5
1BD
330
3D
100
AcDbDictionary
280
     1
281
     1
  3
ACAD_XREC_ROUNDTRIP
360
1BE
  0
DICTIONARY
  5
1B5
330
39
100
AcDbDictionary
280
     1
281
     1
  3
ACAD_XREC_ROUNDTRIP
360
1B6
  0
DICTIONARY
  5
199
330
2B
100
AcDbDictionary
280
     1
281
     1
  3
ACAD_XREC_ROUNDTRIP
360
19A
  0
DICTIONARY
  5
19B
330
2C
100
AcDbDictionary
280
     1
281
     1
  3
ACAD_XREC_ROUNDTRIP
360
19C
  0
DICTIONARY
  5
19D
330
2D
100
AcDbDictionary
280
     1
281
     1
  3
ACAD_XREC_ROUNDTRIP
360
19E
  0
DICTIONARY
  5
19F
330
2E
100
AcDbDictionary
280
     1
281
     1
  3
ACAD_XREC_ROUNDTRIP
360
1A0
  0
DICTIONARY
  5
1A5
330
31
100
AcDbDictionary
280
     1
281
     1
  3
ACAD_XREC_ROUNDTRIP
360
1A6
  0
DICTIONARY
  5
1B9
330
3B
100
AcDbDictionary
280
     1
281
     1
  3
ACAD_XREC_ROUNDTRIP
360
1BA
  0
DICTIONARY
  5
1B3
330
38
100
AcDbDictionary
280
     1
281
     1
  3
ACAD_XREC_ROUNDTRIP
360
1B4
  0
DICTIONARY
  5
1BB
330
3C
100
AcDbDictionary
280
     1
281
     1
  3
ACAD_XREC_ROUNDTRIP
360
1BC
  0
DICTIONARY
  5
1A9
330
33
100
AcDbDictionary
280
     1
281
     1
  3
ACAD_XREC_ROUNDTRIP
360
1AA
  0
DICTIONARY
  5
1C7
330
42
100
AcDbDictionary
280
     1
281
     1
  3
ACAD_XREC_ROUNDTRIP
360
1C8
  0
DICTIONARY
  5
1C5
330
41
100
AcDbDictionary
280
     1
281
     1
  3
ACAD_XREC_ROUNDTRIP
360
1C6
  0
DICTIONARY
  5
1BF
330
3E
100
AcDbDictionary
280
     1
281
     1
  3
ACAD_XREC_ROUNDTRIP
360
1C0
  0
DICTIONARY
  5
1C1
330
3F
100
AcDbDictionary
280
     1
281
     1
  3
ACAD_XREC_ROUNDTRIP
360
1C2
  0
DICTIONARY
  5
1B1
330
37
100
AcDbDictionary
280
     1
281
     1
  3
ACAD_XREC_ROUNDTRIP
360
1B2
  0
DICTIONARY
  5
1A3
330
30
100
AcDbDictionary
280
     1
281
     1
  3
ACAD_XREC_ROUNDTRIP
360
1A4
  0
DICTIONARY
  5
1C3
330
40
100
AcDbDictionary
280
     1
281
     1
  3
ACAD_XREC_ROUNDTRIP
360
1C4
  0
XRECORD
  5
1CC
102
{ACAD_REACTORS
330
1CB
102
}
330
1CB
100
AcDbXrecord
280
     1
102
MATERIAL
148
0.0
149
0.0
149
0.0
 93
        0
 94
      127
282
     0
 72
     1
 77
     1
171
     1
175
     1
179
     1
273
     0
  0
XRECORD
  5
1CA
102
{ACAD_REACTORS
330
1C9
102
}
330
1C9
100
AcDbXrecord
280
     1
102
MATERIAL
148
0.0
149
0.0
149
0.0
 93
        0
 94
      127
282
     0
 72
     1
 77
     1
171
     1
175
     1
179
     1
273
     0
  0
XRECORD
  5
1CE
102
{ACAD_REACTORS
330
1CD
102
}
330
1CD
100
AcDbXrecord
280
     1
102
MATERIAL
148
0.0
149
0.0
149
0.0
 93
        0
 94
      127
282
     0
 72
     1
 77
     1
171
     1
175
     1
179
     1
273
     0
  0
XRECORD
  5
1A2
102
{ACAD_REACTORS
330
1A1
102
}
330
1A1
100
AcDbXrecord
280
     1
102
RTVSPropertyOp0
 70
     1
102
RTVSPropertyOp1
 70
     1
102
RTVSPropertyOp2
 70
     1
102
RTVSPropertyOp3
 70
     1
102
RTVSPropertyOp4
 70
     1
102
RTVSPropertyOp5
 70
     1
102
RTVSPropertyOp6
 70
     1
102
RTVSPropertyOp7
 70
     1
102
RTVSPropertyOp8
 70
     1
102
RTVSPropertyOp9
 70
     1
102
RTVSPropertyOp10
 70
     1
102
RTVSPropertyOp11
 70
     1
102
RTVSPropertyOp12
 70
     1
102
RTVSPropertyOp13
 70
     1
102
RTVSPropertyOp14
 70
     1
102
RTVSPropertyOp15
 70
     1
102
RTVSPropertyOp16
 70
     1
102
RTVSPropertyOp17
 70
     1
102
RTVSPropertyOp18
 70
     1
102
RTVSPropertyOp19
 70
     1
102
RTVSPropertyOp20
 70
     1
102
RTVSPropertyOp21
 70
     1
102
RTVSPropertyOp22
 70
     1
102
RTVSPropertyOp23
 70
     1
102
RTVSPropertyOp24
 70
     1
102
RTVSPropertyOp25
 70
     1
102
RTVSPropertyOp26
 70
     1
102
RTVSPropertyOp27
 70
     1
102
RTVSPropertyOp28
 70
     1
102
RTVSPropertyOp29
 70
     1
102
RTVSPropertyOp30
 70
     1
102
RTVSPropertyOp31
 70
     1
102
RTVSPropertyOp32
 70
     1
102
RTVSPropertyOp33
 70
     1
102
RTVSPropertyOp34
 70
     1
102
RTVSPropertyOp35
 70
     1
102
RTVSPropertyOp36
 70
     1
102
RTVSPropertyOp37
 70
     1
102
RTVSPropertyOp38
 70
     1
102
RTVSPropertyOp39
 70
     1
102
RTVSPropertyOp40
 70
     1
102
RTVSPropertyOp41
 70
     1
102
RTVSPropertyOp42
 70
     1
102
RTVSPropertyOp43
 70
     1
102
RTVSPropertyOp44
 70
     1
102
RTVSPropertyOp45
 70
     1
102
RTVSPropertyOp46
 70
     1
102
RTVSPropertyOp47
 70
     1
102
RTVSPropertyOp48
 70
     1
102
RTVSPropertyOp49
 70
     1
102
RTVSPropertyOp50
 70
     1
102
RTVSPropertyOp51
 70
     0
102
RTVSPropertyOp52
 70
     0
102
RTVSPropertyOp53
 70
     1
102
RTVSPropertyOp54
 70
     1
102
RTVSPropertyOp55
 70
     1
102
RTVSPropertyOp56
 70
     1
102
RTVSPropertyOp57
 70
     1
102
RTVSPost2010Prop28
280
     1
102
RTVSPost2010PropOp28
 70
     1
102
RTVSPost2010Prop29
280
     1
102
RTVSPost2010PropOp29
 70
     1
102
RTVSPost2010Prop30
280
     0
102
RTVSPost2010PropOp30
 70
     1
102
RTVSPost2010Prop31
280
     0
102
RTVSPost2010PropOp31
 70
     1
102
RTVSPost2010Prop32
280
     0
102
RTVSPost2010PropOp32
 70
     1
102
RTVSPost2010Prop33
280
     0
102
RTVSPost2010PropOp33
 70
     1
102
RTVSPost2010Prop34
280
     0
102
RTVSPost2010PropOp34
 70
     1
102
RTVSPost2010Prop35
280
     0
102
RTVSPost2010PropOp35
 70
     1
102
RTVSPost2010Prop36
280
     0
102
RTVSPost2010PropOp36
 70
     1
102
RTVSPost2010Prop37
 90
       50
102
RTVSPost2010PropOp37
 70
     1
102
RTVSPost2010Prop38
140
0.0
102
RTVSPost2010PropOp38
 70
     1
102
RTVSPost2010Prop39
140
1.0
102
RTVSPost2010PropOp39
 70
     1
102
RTVSPost2010Prop40
 90
        0
102
RTVSPost2010PropOp40
 70
     1
102
RTVSPost2010Prop41ColorIndex
 90
       18
102
RTVSPost2010Prop41ColorRGB
 90
        0
102
RTVSPost2010PropOp41
 70
     1
102
RTVSPost2010Prop42
 90
       50
102
RTVSPost2010PropOp42
 70
     1
102
RTVSPost2010Prop43
 90
        3
102
RTVSPost2010PropOp43
 70
     1
102
RTVSPost2010Prop44ColorIndex
 90
        5
102
RTVSPost2010Prop44ColorRGB
 90
      255
102
RTVSPost2010PropOp44
 70
     1
102
RTVSPost2010Prop45
280
     0
102
RTVSPost2010PropOp45
 70
     1
102
RTVSPost2010Prop46
 90
       50
102
RTVSPost2010PropOp46
 70
     1
102
RTVSPost2010Prop47
 90
       50
102
RTVSPost2010PropOp47
 70
     1
102
RTVSPost2010Prop48
 90
       50
102
RTVSPost2010PropOp48
 70
     1
102
RTVSPost2010Prop49
280
     0
102
RTVSPost2010PropOp49
 70
     1
102
RTVSPost2010Prop50
 90
       50
102
RTVSPost2010PropOp50
 70
     1
102
RTVSPost2010Prop51ColorIndex
 90
      256
102
RTVSPost2010Prop51ColorRGB
 90
-16777216
102
RTVSPost2010PropOp51
 70
     0
102
RTVSPost2010Prop52
140
1.0
102
RTVSPost2010PropOp52
 70
     0
102
RTVSPost2010Prop53
 90
        2
102
RTVSPost2010PropOp53
 70
     1
102
RTVSPost2010Prop54
  1
strokes_ogs.tif
102
RTVSPost2010PropOp54
 70
     1
102
RTVSPost2010Prop55
280
     0
102
RTVSPost2010PropOp55
 70
     1
102
RTVSPost2010Prop56
140
1.0
102
RTVSPost2010PropOp56
 70
     1
102
RTVSPost2010Prop57
140
1.0
102
RTVSPost2010PropOp57
 70
     1
  0
XRECORD
  5
1A8
102
{ACAD_REACTORS
330
1A7
102
}
330
1A7
100
AcDbXrecord
280
     1
102
RTVSPropertyOp0
 70
     1
102
RTVSPropertyOp1
 70
     1
102
RTVSPropertyOp2
 70
     1
102
RTVSPropertyOp3
 70
     1
102
RTVSPropertyOp4
 70
     1
102
RTVSPropertyOp5
 70
     1
102
RTVSPropertyOp6
 70
     1
102
RTVSPropertyOp7
 70
     1
102
RTVSPropertyOp8
 70
     1
102
RTVSPropertyOp9
 70
     1
102
RTVSPropertyOp10
 70
     1
102
RTVSPropertyOp11
 70
     1
102
RTVSPropertyOp12
 70
     1
102
RTVSPropertyOp13
 70
     1
102
RTVSPropertyOp14
 70
     1
102
RTVSPropertyOp15
 70
     1
102
RTVSPropertyOp16
 70
     1
102
RTVSPropertyOp17
 70
     1
102
RTVSPropertyOp18
 70
     1
102
RTVSPropertyOp19
 70
     1
102
RTVSPropertyOp20
 70
     1
102
RTVSPropertyOp21
 70
     1
102
RTVSPropertyOp22
 70
     1
102
RTVSPropertyOp23
 70
     1
102
RTVSPropertyOp24
 70
     1
102
RTVSPropertyOp25
 70
     1
102
RTVSPropertyOp26
 70
     1
102
RTVSPropertyOp27
 70
     1
102
RTVSPropertyOp28
 70
     1
102
RTVSPropertyOp29
 70
     1
102
RTVSPropertyOp30
 70
     1
102
RTVSPropertyOp31
 70
     1
102
RTVSPropertyOp32
 70
     1
102
RTVSPropertyOp33
 70
     1
102
RTVSPropertyOp34
 70
     1
102
RTVSPropertyOp35
 70
     1
102
RTVSPropertyOp36
 70
     1
102
RTVSPropertyOp37
 70
     1
102
RTVSPropertyOp38
 70
     1
102
RTVSPropertyOp39
 70
     1
102
RTVSPropertyOp40
 70
     1
102
RTVSPropertyOp41
 70
     1
102
RTVSPropertyOp42
 70
     1
102
RTVSPropertyOp43
 70
     1
102
RTVSPropertyOp44
 70
     1
102
RTVSPropertyOp45
 70
     1
102
RTVSPropertyOp46
 70
     1
102
RTVSPropertyOp47
 70
     1
102
RTVSPropertyOp48
 70
     1
102
RTVSPropertyOp49
 70
     1
102
RTVSPropertyOp50
 70
     1
102
RTVSPropertyOp51
 70
     0
102
RTVSPropertyOp52
 70
     0
102
RTVSPropertyOp53
 70
     1
102
RTVSPropertyOp54
 70
     1
102
RTVSPropertyOp55
 70
     1
102
RTVSPropertyOp56
 70
     1
102
RTVSPropertyOp57
 70
     1
102
RTVSPost2010Prop28
280
     0
102
RTVSPost2010PropOp28
 70
     1
102
RTVSPost2010Prop29
280
     1
102
RTVSPost2010PropOp29
 70
     1
102
RTVSPost2010Prop30
280
     1
102
RTVSPost2010PropOp30
 70
     1
102
RTVSPost2010Prop31
280
     0
102
RTVSPost2010PropOp31
 70
     1
102
RTVSPost2010Prop32
280
     0
102
RTVSPost2010PropOp32
 70
     1
102
RTVSPost2010Prop33
280
     0
102
RTVSPost2010PropOp33
 70
     1
102
RTVSPost2010Prop34
280
     0
102
RTVSPost2010PropOp34
 70
     1
102
RTVSPost2010Prop35
280
     0
102
RTVSPost2010PropOp35
 70
     1
102
RTVSPost2010Prop36
280
     0
102
RTVSPost2010PropOp36
 70
     1
102
RTVSPost2010Prop37
 90
       50
102
RTVSPost2010PropOp37
 70
     1
102
RTVSPost2010Prop38
140
0.0
102
RTVSPost2010PropOp38
 70
     1
102
RTVSPost2010Prop39
140
1.0
102
RTVSPost2010PropOp39
 70
     1
102
RTVSPost2010Prop40
 90
        0
102
RTVSPost2010PropOp40
 70
     1
102
RTVSPost2010Prop41ColorIndex
 90
       18
102
RTVSPost2010Prop41ColorRGB
 90
        0
102
RTVSPost2010PropOp41
 70
     1
102
RTVSPost2010Prop42
 90
       50
102
RTVSPost2010PropOp42
 70
     1
102
RTVSPost2010Prop43
 90
        3
102
RTVSPost2010PropOp43
 70
     1
102
RTVSPost2010Prop44ColorIndex
 90
        5
102
RTVSPost2010Prop44ColorRGB
 90
      255
102
RTVSPost2010PropOp44
 70
     1
102
RTVSPost2010Prop45
280
     0
102
RTVSPost2010PropOp45
 70
     1
102
RTVSPost2010Prop46
 90
       50
102
RTVSPost2010PropOp46
 70
     1
102
RTVSPost2010Prop47
 90
       50
102
RTVSPost2010PropOp47
 70
     1
102
RTVSPost2010Prop48
 90
       50
102
RTVSPost2010PropOp48
 70
     1
102
RTVSPost2010Prop49
280
     0
102
RTVSPost2010PropOp49
 70
     1
102
RTVSPost2010Prop50
 90
       50
102
RTVSPost2010PropOp50
 70
     1
102
RTVSPost2010Prop51ColorIndex
 90
      256
102
RTVSPost2010Prop51ColorRGB
 90
-16777216
102
RTVSPost2010PropOp51
 70
     0
102
RTVSPost2010Prop52
140
1.0
102
RTVSPost2010PropOp52
 70
     0
102
RTVSPost2010Prop53
 90
        2
102
RTVSPost2010PropOp53
 70
     1
102
RTVSPost2010Prop54
  1
strokes_ogs.tif
102
RTVSPost2010PropOp54
 70
     1
102
RTVSPost2010Prop55
280
     0
102
RTVSPost2010PropOp55
 70
     1
102
RTVSPost2010Prop56
140
1.0
102
RTVSPost2010PropOp56
 70
     1
102
RTVSPost2010Prop57
140
1.0
102
RTVSPost2010PropOp57
 70
     1
  0
XRECORD
  5
1B0
102
{ACAD_REACTORS
330
1AF
102
}
330
1AF
100
AcDbXrecord
280
     1
102
RTVSPropertyOp0
 70
     1
102
RTVSPropertyOp1
 70
     1
102
RTVSPropertyOp2
 70
     1
102
RTVSPropertyOp3
 70
     1
102
RTVSPropertyOp4
 70
     1
102
RTVSPropertyOp5
 70
     1
102
RTVSPropertyOp6
 70
     1
102
RTVSPropertyOp7
 70
     1
102
RTVSPropertyOp8
 70
     1
102
RTVSPropertyOp9
 70
     1
102
RTVSPropertyOp10
 70
     1
102
RTVSPropertyOp11
 70
     1
102
RTVSPropertyOp12
 70
     1
102
RTVSPropertyOp13
 70
     1
102
RTVSPropertyOp14
 70
     1
102
RTVSPropertyOp15
 70
     1
102
RTVSPropertyOp16
 70
     1
102
RTVSPropertyOp17
 70
     1
102
RTVSPropertyOp18
 70
     1
102
RTVSPropertyOp19
 70
     1
102
RTVSPropertyOp20
 70
     1
102
RTVSPropertyOp21
 70
     1
102
RTVSPropertyOp22
 70
     1
102
RTVSPropertyOp23
 70
     1
102
RTVSPropertyOp24
 70
     1
102
RTVSPropertyOp25
 70
     1
102
RTVSPropertyOp26
 70
     1
102
RTVSPropertyOp27
 70
     1
102
RTVSPropertyOp28
 70
     1
102
RTVSPropertyOp29
 70
     1
102
RTVSPropertyOp30
 70
     1
102
RTVSPropertyOp31
 70
     1
102
RTVSPropertyOp32
 70
     1
102
RTVSPropertyOp33
 70
     1
102
RTVSPropertyOp34
 70
     1
102
RTVSPropertyOp35
 70
     1
102
RTVSPropertyOp36
 70
     1
102
RTVSPropertyOp37
 70
     1
102
RTVSPropertyOp38
 70
     1
102
RTVSPropertyOp39
 70
     1
102
RTVSPropertyOp40
 70
     1
102
RTVSPropertyOp41
 70
     1
102
RTVSPropertyOp42
 70
     1
102
RTVSPropertyOp43
 70
     1
102
RTVSPropertyOp44
 70
     1
102
RTVSPropertyOp45
 70
     1
102
RTVSPropertyOp46
 70
     1
102
RTVSPropertyOp47
 70
     1
102
RTVSPropertyOp48
 70
     1
102
RTVSPropertyOp49
 70
     1
102
RTVSPropertyOp50
 70
     1
102
RTVSPropertyOp51
 70
     0
102
RTVSPropertyOp52
 70
     0
102
RTVSPropertyOp53
 70
     1
102
RTVSPropertyOp54
 70
     1
102
RTVSPropertyOp55
 70
     1
102
RTVSPropertyOp56
 70
     1
102
RTVSPropertyOp57
 70
     1
102
RTVSPost2010Prop28
280
     0
102
RTVSPost2010PropOp28
 70
     1
102
RTVSPost2010Prop29
280
     1
102
RTVSPost2010PropOp29
 70
     1
102
RTVSPost2010Prop30
280
     1
102
RTVSPost2010PropOp30
 70
     1
102
RTVSPost2010Prop31
280
     0
102
RTVSPost2010PropOp31
 70
     1
102
RTVSPost2010Prop32
280
     0
102
RTVSPost2010PropOp32
 70
     1
102
RTVSPost2010Prop33
280
     0
102
RTVSPost2010PropOp33
 70
     1
102
RTVSPost2010Prop34
280
     0
102
RTVSPost2010PropOp34
 70
     1
102
RTVSPost2010Prop35
280
     0
102
RTVSPost2010PropOp35
 70
     1
102
RTVSPost2010Prop36
280
     0
102
RTVSPost2010PropOp36
 70
     1
102
RTVSPost2010Prop37
 90
       50
102
RTVSPost2010PropOp37
 70
     1
102
RTVSPost2010Prop38
140
0.0
102
RTVSPost2010PropOp38
 70
     1
102
RTVSPost2010Prop39
140
1.0
102
RTVSPost2010PropOp39
 70
     1
102
RTVSPost2010Prop40
 90
        0
102
RTVSPost2010PropOp40
 70
     1
102
RTVSPost2010Prop41ColorIndex
 90
       18
102
RTVSPost2010Prop41ColorRGB
 90
        0
102
RTVSPost2010PropOp41
 70
     1
102
RTVSPost2010Prop42
 90
       50
102
RTVSPost2010PropOp42
 70
     1
102
RTVSPost2010Prop43
 90
        3
102
RTVSPost2010PropOp43
 70
     1
102
RTVSPost2010Prop44ColorIndex
 90
        5
102
RTVSPost2010Prop44ColorRGB
 90
      255
102
RTVSPost2010PropOp44
 70
     1
102
RTVSPost2010Prop45
280
     0
102
RTVSPost2010PropOp45
 70
     1
102
RTVSPost2010Prop46
 90
       50
102
RTVSPost2010PropOp46
 70
     1
102
RTVSPost2010Prop47
 90
       50
102
RTVSPost2010PropOp47
 70
     1
102
RTVSPost2010Prop48
 90
       50
102
RTVSPost2010PropOp48
 70
     1
102
RTVSPost2010Prop49
280
     0
102
RTVSPost2010PropOp49
 70
     1
102
RTVSPost2010Prop50
 90
       50
102
RTVSPost2010PropOp50
 70
     1
102
RTVSPost2010Prop51ColorIndex
 90
      256
102
RTVSPost2010Prop51ColorRGB
 90
-16777216
102
RTVSPost2010PropOp51
 70
     0
102
RTVSPost2010Prop52
140
1.0
102
RTVSPost2010PropOp52
 70
     0
102
RTVSPost2010Prop53
 90
        2
102
RTVSPost2010PropOp53
 70
     1
102
RTVSPost2010Prop54
  1
strokes_ogs.tif
102
RTVSPost2010PropOp54
 70
     1
102
RTVSPost2010Prop55
280
     0
102
RTVSPost2010PropOp55
 70
     1
102
RTVSPost2010Prop56
140
1.0
102
RTVSPost2010PropOp56
 70
     1
102
RTVSPost2010Prop57
140
1.0
102
RTVSPost2010PropOp57
 70
     1
  0
XRECORD
  5
1B8
102
{ACAD_REACTORS
330
1B7
102
}
330
1B7
100
AcDbXrecord
280
     1
102
RTVSPropertyOp0
 70
     1
102
RTVSPropertyOp1
 70
     1
102
RTVSPropertyOp2
 70
     1
102
RTVSPropertyOp3
 70
     1
102
RTVSPropertyOp4
 70
     1
102
RTVSPropertyOp5
 70
     1
102
RTVSPropertyOp6
 70
     1
102
RTVSPropertyOp7
 70
     1
102
RTVSPropertyOp8
 70
     1
102
RTVSPropertyOp9
 70
     1
102
RTVSPropertyOp10
 70
     1
102
RTVSPropertyOp11
 70
     1
102
RTVSPropertyOp12
 70
     1
102
RTVSPropertyOp13
 70
     1
102
RTVSPropertyOp14
 70
     1
102
RTVSPropertyOp15
 70
     1
102
RTVSPropertyOp16
 70
     1
102
RTVSPropertyOp17
 70
     1
102
RTVSPropertyOp18
 70
     1
102
RTVSPropertyOp19
 70
     1
102
RTVSPropertyOp20
 70
     1
102
RTVSPropertyOp21
 70
     1
102
RTVSPropertyOp22
 70
     1
102
RTVSPropertyOp23
 70
     1
102
RTVSPropertyOp24
 70
     1
102
RTVSPropertyOp25
 70
     1
102
RTVSPropertyOp26
 70
     1
102
RTVSPropertyOp27
 70
     1
102
RTVSPropertyOp28
 70
     1
102
RTVSPropertyOp29
 70
     1
102
RTVSPropertyOp30
 70
     1
102
RTVSPropertyOp31
 70
     1
102
RTVSPropertyOp32
 70
     1
102
RTVSPropertyOp33
 70
     1
102
RTVSPropertyOp34
 70
     1
102
RTVSPropertyOp35
 70
     1
102
RTVSPropertyOp36
 70
     1
102
RTVSPropertyOp37
 70
     1
102
RTVSPropertyOp38
 70
     1
102
RTVSPropertyOp39
 70
     1
102
RTVSPropertyOp40
 70
     1
102
RTVSPropertyOp41
 70
     1
102
RTVSPropertyOp42
 70
     1
102
RTVSPropertyOp43
 70
     1
102
RTVSPropertyOp44
 70
     1
102
RTVSPropertyOp45
 70
     1
102
RTVSPropertyOp46
 70
     1
102
RTVSPropertyOp47
 70
     1
102
RTVSPropertyOp48
 70
     1
102
RTVSPropertyOp49
 70
     1
102
RTVSPropertyOp50
 70
     1
102
RTVSPropertyOp51
 70
     0
102
RTVSPropertyOp52
 70
     0
102
RTVSPropertyOp53
 70
     1
102
RTVSPropertyOp54
 70
     1
102
RTVSPropertyOp55
 70
     1
102
RTVSPropertyOp56
 70
     1
102
RTVSPropertyOp57
 70
     1
102
RTVSPost2010Prop28
280
     0
102
RTVSPost2010PropOp28
 70
     1
102
RTVSPost2010Prop29
280
     1
102
RTVSPost2010PropOp29
 70
     1
102
RTVSPost2010Prop30
280
     1
102
RTVSPost2010PropOp30
 70
     1
102
RTVSPost2010Prop31
280
     0
102
RTVSPost2010PropOp31
 70
     1
102
RTVSPost2010Prop32
280
     0
102
RTVSPost2010PropOp32
 70
     1
102
RTVSPost2010Prop33
280
     0
102
RTVSPost2010PropOp33
 70
     1
102
RTVSPost2010Prop34
280
     0
102
RTVSPost2010PropOp34
 70
     1
102
RTVSPost2010Prop35
280
     0
102
RTVSPost2010PropOp35
 70
     1
102
RTVSPost2010Prop36
280
     0
102
RTVSPost2010PropOp36
 70
     1
102
RTVSPost2010Prop37
 90
       50
102
RTVSPost2010PropOp37
 70
     1
102
RTVSPost2010Prop38
140
0.0
102
RTVSPost2010PropOp38
 70
     1
102
RTVSPost2010Prop39
140
1.0
102
RTVSPost2010PropOp39
 70
     1
102
RTVSPost2010Prop40
 90
        0
102
RTVSPost2010PropOp40
 70
     1
102
RTVSPost2010Prop41ColorIndex
 90
       18
102
RTVSPost2010Prop41ColorRGB
 90
        0
102
RTVSPost2010PropOp41
 70
     1
102
RTVSPost2010Prop42
 90
       50
102
RTVSPost2010PropOp42
 70
     1
102
RTVSPost2010Prop43
 90
        3
102
RTVSPost2010PropOp43
 70
     1
102
RTVSPost2010Prop44ColorIndex
 90
        5
102
RTVSPost2010Prop44ColorRGB
 90
      255
102
RTVSPost2010PropOp44
 70
     1
102
RTVSPost2010Prop45
280
     0
102
RTVSPost2010PropOp45
 70
     1
102
RTVSPost2010Prop46
 90
       50
102
RTVSPost2010PropOp46
 70
     1
102
RTVSPost2010Prop47
 90
       50
102
RTVSPost2010PropOp47
 70
     1
102
RTVSPost2010Prop48
 90
       50
102
RTVSPost2010PropOp48
 70
     1
102
RTVSPost2010Prop49
280
     0
102
RTVSPost2010PropOp49
 70
     1
102
RTVSPost2010Prop50
 90
       50
102
RTVSPost2010PropOp50
 70
     1
102
RTVSPost2010Prop51ColorIndex
 90
      256
102
RTVSPost2010Prop51ColorRGB
 90
-16777216
102
RTVSPost2010PropOp51
 70
     0
102
RTVSPost2010Prop52
140
1.0
102
RTVSPost2010PropOp52
 70
     0
102
RTVSPost2010Prop53
 90
        2
102
RTVSPost2010PropOp53
 70
     1
102
RTVSPost2010Prop54
  1
strokes_ogs.tif
102
RTVSPost2010PropOp54
 70
     1
102
RTVSPost2010Prop55
280
     0
102
RTVSPost2010PropOp55
 70
     1
102
RTVSPost2010Prop56
140
1.0
102
RTVSPost2010PropOp56
 70
     1
102
RTVSPost2010Prop57
140
1.0
102
RTVSPost2010PropOp57
 70
     1
  0
XRECORD
  5
1AC
102
{ACAD_REACTORS
330
1AB
102
}
330
1AB
100
AcDbXrecord
280
     1
102
RTVSPropertyOp0
 70
     1
102
RTVSPropertyOp1
 70
     1
102
RTVSPropertyOp2
 70
     1
102
RTVSPropertyOp3
 70
     1
102
RTVSPropertyOp4
 70
     1
102
RTVSPropertyOp5
 70
     1
102
RTVSPropertyOp6
 70
     1
102
RTVSPropertyOp7
 70
     1
102
RTVSPropertyOp8
 70
     1
102
RTVSPropertyOp9
 70
     1
102
RTVSPropertyOp10
 70
     1
102
RTVSPropertyOp11
 70
     1
102
RTVSPropertyOp12
 70
     1
102
RTVSPropertyOp13
 70
     1
102
RTVSPropertyOp14
 70
     1
102
RTVSPropertyOp15
 70
     1
102
RTVSPropertyOp16
 70
     1
102
RTVSPropertyOp17
 70
     1
102
RTVSPropertyOp18
 70
     1
102
RTVSPropertyOp19
 70
     1
102
RTVSPropertyOp20
 70
     1
102
RTVSPropertyOp21
 70
     1
102
RTVSPropertyOp22
 70
     1
102
RTVSPropertyOp23
 70
     1
102
RTVSPropertyOp24
 70
     1
102
RTVSPropertyOp25
 70
     1
102
RTVSPropertyOp26
 70
     1
102
RTVSPropertyOp27
 70
     1
102
RTVSPropertyOp28
 70
     1
102
RTVSPropertyOp29
 70
     1
102
RTVSPropertyOp30
 70
     1
102
RTVSPropertyOp31
 70
     1
102
RTVSPropertyOp32
 70
     1
102
RTVSPropertyOp33
 70
     1
102
RTVSPropertyOp34
 70
     1
102
RTVSPropertyOp35
 70
     1
102
RTVSPropertyOp36
 70
     1
102
RTVSPropertyOp37
 70
     1
102
RTVSPropertyOp38
 70
     1
102
RTVSPropertyOp39
 70
     1
102
RTVSPropertyOp40
 70
     1
102
RTVSPropertyOp41
 70
     1
102
RTVSPropertyOp42
 70
     1
102
RTVSPropertyOp43
 70
     1
102
RTVSPropertyOp44
 70
     1
102
RTVSPropertyOp45
 70
     1
102
RTVSPropertyOp46
 70
     1
102
RTVSPropertyOp47
 70
     1
102
RTVSPropertyOp48
 70
     1
102
RTVSPropertyOp49
 70
     1
102
RTVSPropertyOp50
 70
     1
102
RTVSPropertyOp51
 70
     0
102
RTVSPropertyOp52
 70
     0
102
RTVSPropertyOp53
 70
     1
102
RTVSPropertyOp54
 70
     1
102
RTVSPropertyOp55
 70
     1
102
RTVSPropertyOp56
 70
     1
102
RTVSPropertyOp57
 70
     1
102
RTVSPost2010Prop28
280
     0
102
RTVSPost2010PropOp28
 70
     1
102
RTVSPost2010Prop29
280
     1
102
RTVSPost2010PropOp29
 70
     1
102
RTVSPost2010Prop30
280
     1
102
RTVSPost2010PropOp30
 70
     1
102
RTVSPost2010Prop31
280
     0
102
RTVSPost2010PropOp31
 70
     1
102
RTVSPost2010Prop32
280
     0
102
RTVSPost2010PropOp32
 70
     1
102
RTVSPost2010Prop33
280
     0
102
RTVSPost2010PropOp33
 70
     1
102
RTVSPost2010Prop34
280
     0
102
RTVSPost2010PropOp34
 70
     1
102
RTVSPost2010Prop35
280
     0
102
RTVSPost2010PropOp35
 70
     1
102
RTVSPost2010Prop36
280
     0
102
RTVSPost2010PropOp36
 70
     1
102
RTVSPost2010Prop37
 90
       50
102
RTVSPost2010PropOp37
 70
     1
102
RTVSPost2010Prop38
140
0.0
102
RTVSPost2010PropOp38
 70
     1
102
RTVSPost2010Prop39
140
1.0
102
RTVSPost2010PropOp39
 70
     1
102
RTVSPost2010Prop40
 90
        0
102
RTVSPost2010PropOp40
 70
     1
102
RTVSPost2010Prop41ColorIndex
 90
       18
102
RTVSPost2010Prop41ColorRGB
 90
        0
102
RTVSPost2010PropOp41
 70
     1
102
RTVSPost2010Prop42
 90
       50
102
RTVSPost2010PropOp42
 70
     1
102
RTVSPost2010Prop43
 90
        3
102
RTVSPost2010PropOp43
 70
     1
102
RTVSPost2010Prop44ColorIndex
 90
        5
102
RTVSPost2010Prop44ColorRGB
 90
      255
102
RTVSPost2010PropOp44
 70
     1
102
RTVSPost2010Prop45
280
     0
102
RTVSPost2010PropOp45
 70
     1
102
RTVSPost2010Prop46
 90
       50
102
RTVSPost2010PropOp46
 70
     1
102
RTVSPost2010Prop47
 90
       50
102
RTVSPost2010PropOp47
 70
     1
102
RTVSPost2010Prop48
 90
       50
102
RTVSPost2010PropOp48
 70
     1
102
RTVSPost2010Prop49
280
     0
102
RTVSPost2010PropOp49
 70
     1
102
RTVSPost2010Prop50
 90
       50
102
RTVSPost2010PropOp50
 70
     1
102
RTVSPost2010Prop51ColorIndex
 90
      256
102
RTVSPost2010Prop51ColorRGB
 90
-16777216
102
RTVSPost2010PropOp51
 70
     0
102
RTVSPost2010Prop52
140
1.0
102
RTVSPost2010PropOp52
 70
     0
102
RTVSPost2010Prop53
 90
        2
102
RTVSPost2010PropOp53
 70
     1
102
RTVSPost2010Prop54
  1
strokes_ogs.tif
102
RTVSPost2010PropOp54
 70
     1
102
RTVSPost2010Prop55
280
     0
102
RTVSPost2010PropOp55
 70
     1
102
RTVSPost2010Prop56
140
1.0
102
RTVSPost2010PropOp56
 70
     1
102
RTVSPost2010Prop57
140
1.0
102
RTVSPost2010PropOp57
 70
     1
  0
XRECORD
  5
1AE
102
{ACAD_REACTORS
330
1AD
102
}
330
1AD
100
AcDbXrecord
280
     1
102
RTVSPropertyOp0
 70
     1
102
RTVSPropertyOp1
 70
     1
102
RTVSPropertyOp2
 70
     1
102
RTVSPropertyOp3
 70
     1
102
RTVSPropertyOp4
 70
     1
102
RTVSPropertyOp5
 70
     1
102
RTVSPropertyOp6
 70
     1
102
RTVSPropertyOp7
 70
     1
102
RTVSPropertyOp8
 70
     1
102
RTVSPropertyOp9
 70
     1
102
RTVSPropertyOp10
 70
     1
102
RTVSPropertyOp11
 70
     1
102
RTVSPropertyOp12
 70
     1
102
RTVSPropertyOp13
 70
     1
102
RTVSPropertyOp14
 70
     1
102
RTVSPropertyOp15
 70
     1
102
RTVSPropertyOp16
 70
     1
102
RTVSPropertyOp17
 70
     1
102
RTVSPropertyOp18
 70
     1
102
RTVSPropertyOp19
 70
     1
102
RTVSPropertyOp20
 70
     1
102
RTVSPropertyOp21
 70
     1
102
RTVSPropertyOp22
 70
     1
102
RTVSPropertyOp23
 70
     1
102
RTVSPropertyOp24
 70
     1
102
RTVSPropertyOp25
 70
     1
102
RTVSPropertyOp26
 70
     1
102
RTVSPropertyOp27
 70
     1
102
RTVSPropertyOp28
 70
     1
102
RTVSPropertyOp29
 70
     1
102
RTVSPropertyOp30
 70
     1
102
RTVSPropertyOp31
 70
     1
102
RTVSPropertyOp32
 70
     1
102
RTVSPropertyOp33
 70
     1
102
RTVSPropertyOp34
 70
     1
102
RTVSPropertyOp35
 70
     1
102
RTVSPropertyOp36
 70
     1
102
RTVSPropertyOp37
 70
     1
102
RTVSPropertyOp38
 70
     1
102
RTVSPropertyOp39
 70
     1
102
RTVSPropertyOp40
 70
     1
102
RTVSPropertyOp41
 70
     1
102
RTVSPropertyOp42
 70
     1
102
RTVSPropertyOp43
 70
     1
102
RTVSPropertyOp44
 70
     1
102
RTVSPropertyOp45
 70
     1
102
RTVSPropertyOp46
 70
     1
102
RTVSPropertyOp47
 70
     1
102
RTVSPropertyOp48
 70
     1
102
RTVSPropertyOp49
 70
     1
102
RTVSPropertyOp50
 70
     1
102
RTVSPropertyOp51
 70
     0
102
RTVSPropertyOp52
 70
     0
102
RTVSPropertyOp53
 70
     1
102
RTVSPropertyOp54
 70
     1
102
RTVSPropertyOp55
 70
     1
102
RTVSPropertyOp56
 70
     1
102
RTVSPropertyOp57
 70
     1
102
RTVSPost2010Prop28
280
     0
102
RTVSPost2010PropOp28
 70
     1
102
RTVSPost2010Prop29
280
     1
102
RTVSPost2010PropOp29
 70
     1
102
RTVSPost2010Prop30
280
     1
102
RTVSPost2010PropOp30
 70
     1
102
RTVSPost2010Prop31
280
     0
102
RTVSPost2010PropOp31
 70
     1
102
RTVSPost2010Prop32
280
     0
102
RTVSPost2010PropOp32
 70
     1
102
RTVSPost2010Prop33
280
     0
102
RTVSPost2010PropOp33
 70
     1
102
RTVSPost2010Prop34
280
     0
102
RTVSPost2010PropOp34
 70
     1
102
RTVSPost2010Prop35
280
     0
102
RTVSPost2010PropOp35
 70
     1
102
RTVSPost2010Prop36
280
     0
102
RTVSPost2010PropOp36
 70
     1
102
RTVSPost2010Prop37
 90
       50
102
RTVSPost2010PropOp37
 70
     1
102
RTVSPost2010Prop38
140
0.0
102
RTVSPost2010PropOp38
 70
     1
102
RTVSPost2010Prop39
140
1.0
102
RTVSPost2010PropOp39
 70
     1
102
RTVSPost2010Prop40
 90
        0
102
RTVSPost2010PropOp40
 70
     1
102
RTVSPost2010Prop41ColorIndex
 90
       18
102
RTVSPost2010Prop41ColorRGB
 90
        0
102
RTVSPost2010PropOp41
 70
     1
102
RTVSPost2010Prop42
 90
       50
102
RTVSPost2010PropOp42
 70
     1
102
RTVSPost2010Prop43
 90
        3
102
RTVSPost2010PropOp43
 70
     1
102
RTVSPost2010Prop44ColorIndex
 90
        5
102
RTVSPost2010Prop44ColorRGB
 90
      255
102
RTVSPost2010PropOp44
 70
     1
102
RTVSPost2010Prop45
280
     0
102
RTVSPost2010PropOp45
 70
     1
102
RTVSPost2010Prop46
 90
       50
102
RTVSPost2010PropOp46
 70
     1
102
RTVSPost2010Prop47
 90
       50
102
RTVSPost2010PropOp47
 70
     1
102
RTVSPost2010Prop48
 90
       50
102
RTVSPost2010PropOp48
 70
     1
102
RTVSPost2010Prop49
280
     0
102
RTVSPost2010PropOp49
 70
     1
102
RTVSPost2010Prop50
 90
       50
102
RTVSPost2010PropOp50
 70
     1
102
RTVSPost2010Prop51ColorIndex
 90
      256
102
RTVSPost2010Prop51ColorRGB
 90
-16777216
102
RTVSPost2010PropOp51
 70
     0
102
RTVSPost2010Prop52
140
1.0
102
RTVSPost2010PropOp52
 70
     0
102
RTVSPost2010Prop53
 90
        2
102
RTVSPost2010PropOp53
 70
     1
102
RTVSPost2010Prop54
  1
strokes_ogs.tif
102
RTVSPost2010PropOp54
 70
     1
102
RTVSPost2010Prop55
280
     0
102
RTVSPost2010PropOp55
 70
     1
102
RTVSPost2010Prop56
140
1.0
102
RTVSPost2010PropOp56
 70
     1
102
RTVSPost2010Prop57
140
1.0
102
RTVSPost2010PropOp57
 70
     1
  0
XRECORD
  5
1BE
102
{ACAD_REACTORS
330
1BD
102
}
330
1BD
100
AcDbXrecord
280
     1
102
RTVSPropertyOp0
 70
     0
102
RTVSPropertyOp1
 70
     0
102
RTVSPropertyOp2
 70
     0
102
RTVSPropertyOp3
 70
     0
102
RTVSPropertyOp4
 70
     0
102
RTVSPropertyOp5
 70
     0
102
RTVSPropertyOp6
 70
     0
102
RTVSPropertyOp7
 70
     0
102
RTVSPropertyOp8
 70
     0
102
RTVSPropertyOp9
 70
     0
102
RTVSPropertyOp10
 70
     0
102
RTVSPropertyOp11
 70
     0
102
RTVSPropertyOp12
 70
     0
102
RTVSPropertyOp13
 70
     0
102
RTVSPropertyOp14
 70
     2
102
RTVSPropertyOp15
 70
     0
102
RTVSPropertyOp16
 70
     0
102
RTVSPropertyOp17
 70
     0
102
RTVSPropertyOp18
 70
     0
102
RTVSPropertyOp19
 70
     0
102
RTVSPropertyOp20
 70
     0
102
RTVSPropertyOp21
 70
     0
102
RTVSPropertyOp22
 70
     0
102
RTVSPropertyOp23
 70
     0
102
RTVSPropertyOp24
 70
     0
102
RTVSPropertyOp25
 70
     0
102
RTVSPropertyOp26
 70
     0
102
RTVSPropertyOp27
 70
     0
102
RTVSPropertyOp28
 70
     0
102
RTVSPropertyOp29
 70
     0
102
RTVSPropertyOp30
 70
     0
102
RTVSPropertyOp31
 70
     0
102
RTVSPropertyOp32
 70
     0
102
RTVSPropertyOp33
 70
     0
102
RTVSPropertyOp34
 70
     0
102
RTVSPropertyOp35
 70
     0
102
RTVSPropertyOp36
 70
     0
102
RTVSPropertyOp37
 70
     0
102
RTVSPropertyOp38
 70
     0
102
RTVSPropertyOp39
 70
     0
102
RTVSPropertyOp40
 70
     0
102
RTVSPropertyOp41
 70
     0
102
RTVSPropertyOp42
 70
     0
102
RTVSPropertyOp43
 70
     0
102
RTVSPropertyOp44
 70
     0
102
RTVSPropertyOp45
 70
     0
102
RTVSPropertyOp46
 70
     0
102
RTVSPropertyOp47
 70
     0
102
RTVSPropertyOp48
 70
     0
102
RTVSPropertyOp49
 70
     0
102
RTVSPropertyOp50
 70
     0
102
RTVSPropertyOp51
 70
     0
102
RTVSPropertyOp52
 70
     0
102
RTVSPropertyOp53
 70
     0
102
RTVSPropertyOp54
 70
     0
102
RTVSPropertyOp55
 70
     0
102
RTVSPropertyOp56
 70
     0
102
RTVSPropertyOp57
 70
     0
102
RTVSPost2010Prop28
280
     0
102
RTVSPost2010PropOp28
 70
     0
102
RTVSPost2010Prop29
280
     1
102
RTVSPost2010PropOp29
 70
     0
102
RTVSPost2010Prop30
280
     1
102
RTVSPost2010PropOp30
 70
     0
102
RTVSPost2010Prop31
280
     0
102
RTVSPost2010PropOp31
 70
     0
102
RTVSPost2010Prop32
280
     0
102
RTVSPost2010PropOp32
 70
     0
102
RTVSPost2010Prop33
280
     0
102
RTVSPost2010PropOp33
 70
     0
102
RTVSPost2010Prop34
280
     0
102
RTVSPost2010PropOp34
 70
     0
102
RTVSPost2010Prop35
280
     0
102
RTVSPost2010PropOp35
 70
     0
102
RTVSPost2010Prop36
280
     0
102
RTVSPost2010PropOp36
 70
     0
102
RTVSPost2010Prop37
 90
       50
102
RTVSPost2010PropOp37
 70
     0
102
RTVSPost2010Prop38
140
0.0
102
RTVSPost2010PropOp38
 70
     0
102
RTVSPost2010Prop39
140
1.0
102
RTVSPost2010PropOp39
 70
     0
102
RTVSPost2010Prop40
 90
        0
102
RTVSPost2010PropOp40
 70
     0
102
RTVSPost2010Prop41ColorIndex
 90
       18
102
RTVSPost2010Prop41ColorRGB
 90
        0
102
RTVSPost2010PropOp41
 70
     0
102
RTVSPost2010Prop42
 90
       50
102
RTVSPost2010PropOp42
 70
     0
102
RTVSPost2010Prop43
 90
        3
102
RTVSPost2010PropOp43
 70
     0
102
RTVSPost2010Prop44ColorIndex
 90
        5
102
RTVSPost2010Prop44ColorRGB
 90
      255
102
RTVSPost2010PropOp44
 70
     0
102
RTVSPost2010Prop45
280
     0
102
RTVSPost2010PropOp45
 70
     0
102
RTVSPost2010Prop46
 90
       50
102
RTVSPost2010PropOp46
 70
     0
102
RTVSPost2010Prop47
 90
       50
102
RTVSPost2010PropOp47
 70
     0
102
RTVSPost2010Prop48
 90
       50
102
RTVSPost2010PropOp48
 70
     0
102
RTVSPost2010Prop49
280
     0
102
RTVSPost2010PropOp49
 70
     0
102
RTVSPost2010Prop50
 90
       50
102
RTVSPost2010PropOp50
 70
     0
102
RTVSPost2010Prop51ColorIndex
 90
      256
102
RTVSPost2010Prop51ColorRGB
 90
-16777216
102
RTVSPost2010PropOp51
 70
     0
102
RTVSPost2010Prop52
140
1.0
102
RTVSPost2010PropOp52
 70
     0
102
RTVSPost2010Prop53
 90
        2
102
RTVSPost2010PropOp53
 70
     0
102
RTVSPost2010Prop54
  1
strokes_ogs.tif
102
RTVSPost2010PropOp54
 70
     0
102
RTVSPost2010Prop55
280
     0
102
RTVSPost2010PropOp55
 70
     0
102
RTVSPost2010Prop56
140
1.0
102
RTVSPost2010PropOp56
 70
     0
102
RTVSPost2010Prop57
140
1.0
102
RTVSPost2010PropOp57
 70
     0
  0
XRECORD
  5
1B6
102
{ACAD_REACTORS
330
1B5
102
}
330
1B5
100
AcDbXrecord
280
     1
102
RTVSPropertyOp0
 70
     1
102
RTVSPropertyOp1
 70
     1
102
RTVSPropertyOp2
 70
     1
102
RTVSPropertyOp3
 70
     1
102
RTVSPropertyOp4
 70
     1
102
RTVSPropertyOp5
 70
     1
102
RTVSPropertyOp6
 70
     1
102
RTVSPropertyOp7
 70
     1
102
RTVSPropertyOp8
 70
     1
102
RTVSPropertyOp9
 70
     1
102
RTVSPropertyOp10
 70
     1
102
RTVSPropertyOp11
 70
     1
102
RTVSPropertyOp12
 70
     1
102
RTVSPropertyOp13
 70
     1
102
RTVSPropertyOp14
 70
     1
102
RTVSPropertyOp15
 70
     1
102
RTVSPropertyOp16
 70
     1
102
RTVSPropertyOp17
 70
     1
102
RTVSPropertyOp18
 70
     1
102
RTVSPropertyOp19
 70
     1
102
RTVSPropertyOp20
 70
     1
102
RTVSPropertyOp21
 70
     1
102
RTVSPropertyOp22
 70
     1
102
RTVSPropertyOp23
 70
     1
102
RTVSPropertyOp24
 70
     1
102
RTVSPropertyOp25
 70
     1
102
RTVSPropertyOp26
 70
     1
102
RTVSPropertyOp27
 70
     1
102
RTVSPropertyOp28
 70
     1
102
RTVSPropertyOp29
 70
     1
102
RTVSPropertyOp30
 70
     1
102
RTVSPropertyOp31
 70
     1
102
RTVSPropertyOp32
 70
     1
102
RTVSPropertyOp33
 70
     1
102
RTVSPropertyOp34
 70
     1
102
RTVSPropertyOp35
 70
     1
102
RTVSPropertyOp36
 70
     1
102
RTVSPropertyOp37
 70
     1
102
RTVSPropertyOp38
 70
     1
102
RTVSPropertyOp39
 70
     1
102
RTVSPropertyOp40
 70
     1
102
RTVSPropertyOp41
 70
     1
102
RTVSPropertyOp42
 70
     1
102
RTVSPropertyOp43
 70
     1
102
RTVSPropertyOp44
 70
     1
102
RTVSPropertyOp45
 70
     1
102
RTVSPropertyOp46
 70
     1
102
RTVSPropertyOp47
 70
     1
102
RTVSPropertyOp48
 70
     1
102
RTVSPropertyOp49
 70
     1
102
RTVSPropertyOp50
 70
     1
102
RTVSPropertyOp51
 70
     0
102
RTVSPropertyOp52
 70
     0
102
RTVSPropertyOp53
 70
     1
102
RTVSPropertyOp54
 70
     1
102
RTVSPropertyOp55
 70
     1
102
RTVSPropertyOp56
 70
     1
102
RTVSPropertyOp57
 70
     1
102
RTVSPost2010Prop28
280
     0
102
RTVSPost2010PropOp28
 70
     1
102
RTVSPost2010Prop29
280
     1
102
RTVSPost2010PropOp29
 70
     1
102
RTVSPost2010Prop30
280
     1
102
RTVSPost2010PropOp30
 70
     1
102
RTVSPost2010Prop31
280
     0
102
RTVSPost2010PropOp31
 70
     1
102
RTVSPost2010Prop32
280
     0
102
RTVSPost2010PropOp32
 70
     1
102
RTVSPost2010Prop33
280
     0
102
RTVSPost2010PropOp33
 70
     1
102
RTVSPost2010Prop34
280
     0
102
RTVSPost2010PropOp34
 70
     1
102
RTVSPost2010Prop35
280
     0
102
RTVSPost2010PropOp35
 70
     1
102
RTVSPost2010Prop36
280
     0
102
RTVSPost2010PropOp36
 70
     1
102
RTVSPost2010Prop37
 90
       50
102
RTVSPost2010PropOp37
 70
     1
102
RTVSPost2010Prop38
140
0.0
102
RTVSPost2010PropOp38
 70
     1
102
RTVSPost2010Prop39
140
1.0
102
RTVSPost2010PropOp39
 70
     1
102
RTVSPost2010Prop40
 90
        0
102
RTVSPost2010PropOp40
 70
     1
102
RTVSPost2010Prop41ColorIndex
 90
       18
102
RTVSPost2010Prop41ColorRGB
 90
        0
102
RTVSPost2010PropOp41
 70
     1
102
RTVSPost2010Prop42
 90
       50
102
RTVSPost2010PropOp42
 70
     1
102
RTVSPost2010Prop43
 90
        3
102
RTVSPost2010PropOp43
 70
     1
102
RTVSPost2010Prop44ColorIndex
 90
        5
102
RTVSPost2010Prop44ColorRGB
 90
      255
102
RTVSPost2010PropOp44
 70
     1
102
RTVSPost2010Prop45
280
     0
102
RTVSPost2010PropOp45
 70
     1
102
RTVSPost2010Prop46
 90
       50
102
RTVSPost2010PropOp46
 70
     1
102
RTVSPost2010Prop47
 90
       50
102
RTVSPost2010PropOp47
 70
     1
102
RTVSPost2010Prop48
 90
       50
102
RTVSPost2010PropOp48
 70
     1
102
RTVSPost2010Prop49
280
     0
102
RTVSPost2010PropOp49
 70
     1
102
RTVSPost2010Prop50
 90
       50
102
RTVSPost2010PropOp50
 70
     1
102
RTVSPost2010Prop51ColorIndex
 90
      256
102
RTVSPost2010Prop51ColorRGB
 90
-16777216
102
RTVSPost2010PropOp51
 70
     0
102
RTVSPost2010Prop52
140
1.0
102
RTVSPost2010PropOp52
 70
     0
102
RTVSPost2010Prop53
 90
        2
102
RTVSPost2010PropOp53
 70
     1
102
RTVSPost2010Prop54
  1
strokes_ogs.tif
102
RTVSPost2010PropOp54
 70
     1
102
RTVSPost2010Prop55
280
     0
102
RTVSPost2010PropOp55
 70
     1
102
RTVSPost2010Prop56
140
1.0
102
RTVSPost2010PropOp56
 70
     1
102
RTVSPost2010Prop57
140
1.0
102
RTVSPost2010PropOp57
 70
     1
  0
XRECORD
  5
19A
102
{ACAD_REACTORS
330
199
102
}
330
199
100
AcDbXrecord
280
     1
102
RTVSPropertyOp0
 70
     1
102
RTVSPropertyOp1
 70
     1
102
RTVSPropertyOp2
 70
     1
102
RTVSPropertyOp3
 70
     1
102
RTVSPropertyOp4
 70
     1
102
RTVSPropertyOp5
 70
     1
102
RTVSPropertyOp6
 70
     1
102
RTVSPropertyOp7
 70
     1
102
RTVSPropertyOp8
 70
     1
102
RTVSPropertyOp9
 70
     1
102
RTVSPropertyOp10
 70
     1
102
RTVSPropertyOp11
 70
     1
102
RTVSPropertyOp12
 70
     1
102
RTVSPropertyOp13
 70
     1
102
RTVSPropertyOp14
 70
     1
102
RTVSPropertyOp15
 70
     1
102
RTVSPropertyOp16
 70
     1
102
RTVSPropertyOp17
 70
     1
102
RTVSPropertyOp18
 70
     1
102
RTVSPropertyOp19
 70
     1
102
RTVSPropertyOp20
 70
     1
102
RTVSPropertyOp21
 70
     1
102
RTVSPropertyOp22
 70
     1
102
RTVSPropertyOp23
 70
     1
102
RTVSPropertyOp24
 70
     1
102
RTVSPropertyOp25
 70
     1
102
RTVSPropertyOp26
 70
     1
102
RTVSPropertyOp27
 70
     1
102
RTVSPropertyOp28
 70
     1
102
RTVSPropertyOp29
 70
     1
102
RTVSPropertyOp30
 70
     1
102
RTVSPropertyOp31
 70
     1
102
RTVSPropertyOp32
 70
     1
102
RTVSPropertyOp33
 70
     1
102
RTVSPropertyOp34
 70
     1
102
RTVSPropertyOp35
 70
     1
102
RTVSPropertyOp36
 70
     1
102
RTVSPropertyOp37
 70
     1
102
RTVSPropertyOp38
 70
     1
102
RTVSPropertyOp39
 70
     1
102
RTVSPropertyOp40
 70
     1
102
RTVSPropertyOp41
 70
     1
102
RTVSPropertyOp42
 70
     1
102
RTVSPropertyOp43
 70
     1
102
RTVSPropertyOp44
 70
     1
102
RTVSPropertyOp45
 70
     1
102
RTVSPropertyOp46
 70
     1
102
RTVSPropertyOp47
 70
     1
102
RTVSPropertyOp48
 70
     1
102
RTVSPropertyOp49
 70
     1
102
RTVSPropertyOp50
 70
     1
102
RTVSPropertyOp51
 70
     0
102
RTVSPropertyOp52
 70
     0
102
RTVSPropertyOp53
 70
     1
102
RTVSPropertyOp54
 70
     1
102
RTVSPropertyOp55
 70
     1
102
RTVSPropertyOp56
 70
     1
102
RTVSPropertyOp57
 70
     1
102
RTVSPost2010Prop28
280
     0
102
RTVSPost2010PropOp28
 70
     1
102
RTVSPost2010Prop29
280
     1
102
RTVSPost2010PropOp29
 70
     1
102
RTVSPost2010Prop30
280
     1
102
RTVSPost2010PropOp30
 70
     1
102
RTVSPost2010Prop31
280
     0
102
RTVSPost2010PropOp31
 70
     1
102
RTVSPost2010Prop32
280
     0
102
RTVSPost2010PropOp32
 70
     1
102
RTVSPost2010Prop33
280
     0
102
RTVSPost2010PropOp33
 70
     1
102
RTVSPost2010Prop34
280
     0
102
RTVSPost2010PropOp34
 70
     1
102
RTVSPost2010Prop35
280
     0
102
RTVSPost2010PropOp35
 70
     1
102
RTVSPost2010Prop36
280
     0
102
RTVSPost2010PropOp36
 70
     1
102
RTVSPost2010Prop37
 90
       50
102
RTVSPost2010PropOp37
 70
     1
102
RTVSPost2010Prop38
140
0.0
102
RTVSPost2010PropOp38
 70
     1
102
RTVSPost2010Prop39
140
1.0
102
RTVSPost2010PropOp39
 70
     1
102
RTVSPost2010Prop40
 90
        0
102
RTVSPost2010PropOp40
 70
     1
102
RTVSPost2010Prop41ColorIndex
 90
       18
102
RTVSPost2010Prop41ColorRGB
 90
        0
102
RTVSPost2010PropOp41
 70
     1
102
RTVSPost2010Prop42
 90
       50
102
RTVSPost2010PropOp42
 70
     1
102
RTVSPost2010Prop43
 90
        3
102
RTVSPost2010PropOp43
 70
     1
102
RTVSPost2010Prop44ColorIndex
 90
        5
102
RTVSPost2010Prop44ColorRGB
 90
      255
102
RTVSPost2010PropOp44
 70
     1
102
RTVSPost2010Prop45
280
     0
102
RTVSPost2010PropOp45
 70
     1
102
RTVSPost2010Prop46
 90
       50
102
RTVSPost2010PropOp46
 70
     1
102
RTVSPost2010Prop47
 90
       50
102
RTVSPost2010PropOp47
 70
     1
102
RTVSPost2010Prop48
 90
       50
102
RTVSPost2010PropOp48
 70
     1
102
RTVSPost2010Prop49
280
     0
102
RTVSPost2010PropOp49
 70
     1
102
RTVSPost2010Prop50
 90
       50
102
RTVSPost2010PropOp50
 70
     1
102
RTVSPost2010Prop51ColorIndex
 90
      256
102
RTVSPost2010Prop51ColorRGB
 90
-16777216
102
RTVSPost2010PropOp51
 70
     0
102
RTVSPost2010Prop52
140
1.0
102
RTVSPost2010PropOp52
 70
     0
102
RTVSPost2010Prop53
 90
        2
102
RTVSPost2010PropOp53
 70
     1
102
RTVSPost2010Prop54
  1
strokes_ogs.tif
102
RTVSPost2010PropOp54
 70
     1
102
RTVSPost2010Prop55
280
     0
102
RTVSPost2010PropOp55
 70
     1
102
RTVSPost2010Prop56
140
1.0
102
RTVSPost2010PropOp56
 70
     1
102
RTVSPost2010Prop57
140
1.0
102
RTVSPost2010PropOp57
 70
     1
  0
XRECORD
  5
19C
102
{ACAD_REACTORS
330
19B
102
}
330
19B
100
AcDbXrecord
280
     1
102
RTVSPropertyOp0
 70
     1
102
RTVSPropertyOp1
 70
     1
102
RTVSPropertyOp2
 70
     1
102
RTVSPropertyOp3
 70
     1
102
RTVSPropertyOp4
 70
     1
102
RTVSPropertyOp5
 70
     1
102
RTVSPropertyOp6
 70
     1
102
RTVSPropertyOp7
 70
     1
102
RTVSPropertyOp8
 70
     1
102
RTVSPropertyOp9
 70
     1
102
RTVSPropertyOp10
 70
     1
102
RTVSPropertyOp11
 70
     1
102
RTVSPropertyOp12
 70
     1
102
RTVSPropertyOp13
 70
     1
102
RTVSPropertyOp14
 70
     1
102
RTVSPropertyOp15
 70
     1
102
RTVSPropertyOp16
 70
     1
102
RTVSPropertyOp17
 70
     1
102
RTVSPropertyOp18
 70
     1
102
RTVSPropertyOp19
 70
     1
102
RTVSPropertyOp20
 70
     1
102
RTVSPropertyOp21
 70
     1
102
RTVSPropertyOp22
 70
     1
102
RTVSPropertyOp23
 70
     1
102
RTVSPropertyOp24
 70
     1
102
RTVSPropertyOp25
 70
     1
102
RTVSPropertyOp26
 70
     1
102
RTVSPropertyOp27
 70
     1
102
RTVSPropertyOp28
 70
     1
102
RTVSPropertyOp29
 70
     1
102
RTVSPropertyOp30
 70
     1
102
RTVSPropertyOp31
 70
     1
102
RTVSPropertyOp32
 70
     1
102
RTVSPropertyOp33
 70
     1
102
RTVSPropertyOp34
 70
     1
102
RTVSPropertyOp35
 70
     1
102
RTVSPropertyOp36
 70
     1
102
RTVSPropertyOp37
 70
     1
102
RTVSPropertyOp38
 70
     1
102
RTVSPropertyOp39
 70
     1
102
RTVSPropertyOp40
 70
     1
102
RTVSPropertyOp41
 70
     1
102
RTVSPropertyOp42
 70
     1
102
RTVSPropertyOp43
 70
     1
102
RTVSPropertyOp44
 70
     1
102
RTVSPropertyOp45
 70
     1
102
RTVSPropertyOp46
 70
     1
102
RTVSPropertyOp47
 70
     1
102
RTVSPropertyOp48
 70
     1
102
RTVSPropertyOp49
 70
     1
102
RTVSPropertyOp50
 70
     1
102
RTVSPropertyOp51
 70
     0
102
RTVSPropertyOp52
 70
     0
102
RTVSPropertyOp53
 70
     1
102
RTVSPropertyOp54
 70
     1
102
RTVSPropertyOp55
 70
     1
102
RTVSPropertyOp56
 70
     1
102
RTVSPropertyOp57
 70
     1
102
RTVSPost2010Prop28
280
     0
102
RTVSPost2010PropOp28
 70
     1
102
RTVSPost2010Prop29
280
     1
102
RTVSPost2010PropOp29
 70
     1
102
RTVSPost2010Prop30
280
     1
102
RTVSPost2010PropOp30
 70
     1
102
RTVSPost2010Prop31
280
     0
102
RTVSPost2010PropOp31
 70
     1
102
RTVSPost2010Prop32
280
     0
102
RTVSPost2010PropOp32
 70
     1
102
RTVSPost2010Prop33
280
     0
102
RTVSPost2010PropOp33
 70
     1
102
RTVSPost2010Prop34
280
     0
102
RTVSPost2010PropOp34
 70
     1
102
RTVSPost2010Prop35
280
     0
102
RTVSPost2010PropOp35
 70
     1
102
RTVSPost2010Prop36
280
     0
102
RTVSPost2010PropOp36
 70
     1
102
RTVSPost2010Prop37
 90
       50
102
RTVSPost2010PropOp37
 70
     1
102
RTVSPost2010Prop38
140
0.0
102
RTVSPost2010PropOp38
 70
     1
102
RTVSPost2010Prop39
140
1.0
102
RTVSPost2010PropOp39
 70
     1
102
RTVSPost2010Prop40
 90
        0
102
RTVSPost2010PropOp40
 70
     1
102
RTVSPost2010Prop41ColorIndex
 90
       18
102
RTVSPost2010Prop41ColorRGB
 90
        0
102
RTVSPost2010PropOp41
 70
     1
102
RTVSPost2010Prop42
 90
       50
102
RTVSPost2010PropOp42
 70
     1
102
RTVSPost2010Prop43
 90
        3
102
RTVSPost2010PropOp43
 70
     1
102
RTVSPost2010Prop44ColorIndex
 90
        5
102
RTVSPost2010Prop44ColorRGB
 90
      255
102
RTVSPost2010PropOp44
 70
     1
102
RTVSPost2010Prop45
280
     0
102
RTVSPost2010PropOp45
 70
     1
102
RTVSPost2010Prop46
 90
       50
102
RTVSPost2010PropOp46
 70
     1
102
RTVSPost2010Prop47
 90
       50
102
RTVSPost2010PropOp47
 70
     1
102
RTVSPost2010Prop48
 90
       50
102
RTVSPost2010PropOp48
 70
     1
102
RTVSPost2010Prop49
280
     0
102
RTVSPost2010PropOp49
 70
     1
102
RTVSPost2010Prop50
 90
       50
102
RTVSPost2010PropOp50
 70
     1
102
RTVSPost2010Prop51ColorIndex
 90
      256
102
RTVSPost2010Prop51ColorRGB
 90
-16777216
102
RTVSPost2010PropOp51
 70
     0
102
RTVSPost2010Prop52
140
1.0
102
RTVSPost2010PropOp52
 70
     0
102
RTVSPost2010Prop53
 90
        2
102
RTVSPost2010PropOp53
 70
     1
102
RTVSPost2010Prop54
  1
strokes_ogs.tif
102
RTVSPost2010PropOp54
 70
     1
102
RTVSPost2010Prop55
280
     0
102
RTVSPost2010PropOp55
 70
     1
102
RTVSPost2010Prop56
140
1.0
102
RTVSPost2010PropOp56
 70
     1
102
RTVSPost2010Prop57
140
1.0
102
RTVSPost2010PropOp57
 70
     1
  0
XRECORD
  5
19E
102
{ACAD_REACTORS
330
19D
102
}
330
19D
100
AcDbXrecord
280
     1
102
RTVSPropertyOp0
 70
     1
102
RTVSPropertyOp1
 70
     1
102
RTVSPropertyOp2
 70
     1
102
RTVSPropertyOp3
 70
     1
102
RTVSPropertyOp4
 70
     1
102
RTVSPropertyOp5
 70
     1
102
RTVSPropertyOp6
 70
     1
102
RTVSPropertyOp7
 70
     1
102
RTVSPropertyOp8
 70
     1
102
RTVSPropertyOp9
 70
     1
102
RTVSPropertyOp10
 70
     1
102
RTVSPropertyOp11
 70
     1
102
RTVSPropertyOp12
 70
     1
102
RTVSPropertyOp13
 70
     1
102
RTVSPropertyOp14
 70
     1
102
RTVSPropertyOp15
 70
     1
102
RTVSPropertyOp16
 70
     1
102
RTVSPropertyOp17
 70
     1
102
RTVSPropertyOp18
 70
     1
102
RTVSPropertyOp19
 70
     1
102
RTVSPropertyOp20
 70
     1
102
RTVSPropertyOp21
 70
     1
102
RTVSPropertyOp22
 70
     1
102
RTVSPropertyOp23
 70
     1
102
RTVSPropertyOp24
 70
     1
102
RTVSPropertyOp25
 70
     1
102
RTVSPropertyOp26
 70
     1
102
RTVSPropertyOp27
 70
     1
102
RTVSPropertyOp28
 70
     1
102
RTVSPropertyOp29
 70
     1
102
RTVSPropertyOp30
 70
     1
102
RTVSPropertyOp31
 70
     1
102
RTVSPropertyOp32
 70
     1
102
RTVSPropertyOp33
 70
     1
102
RTVSPropertyOp34
 70
     1
102
RTVSPropertyOp35
 70
     1
102
RTVSPropertyOp36
 70
     1
102
RTVSPropertyOp37
 70
     1
102
RTVSPropertyOp38
 70
     1
102
RTVSPropertyOp39
 70
     1
102
RTVSPropertyOp40
 70
     1
102
RTVSPropertyOp41
 70
     1
102
RTVSPropertyOp42
 70
     1
102
RTVSPropertyOp43
 70
     1
102
RTVSPropertyOp44
 70
     1
102
RTVSPropertyOp45
 70
     1
102
RTVSPropertyOp46
 70
     1
102
RTVSPropertyOp47
 70
     1
102
RTVSPropertyOp48
 70
     1
102
RTVSPropertyOp49
 70
     1
102
RTVSPropertyOp50
 70
     1
102
RTVSPropertyOp51
 70
     0
102
RTVSPropertyOp52
 70
     0
102
RTVSPropertyOp53
 70
     1
102
RTVSPropertyOp54
 70
     1
102
RTVSPropertyOp55
 70
     1
102
RTVSPropertyOp56
 70
     1
102
RTVSPropertyOp57
 70
     1
102
RTVSPost2010Prop28
280
     0
102
RTVSPost2010PropOp28
 70
     1
102
RTVSPost2010Prop29
280
     1
102
RTVSPost2010PropOp29
 70
     1
102
RTVSPost2010Prop30
280
     1
102
RTVSPost2010PropOp30
 70
     1
102
RTVSPost2010Prop31
280
     0
102
RTVSPost2010PropOp31
 70
     1
102
RTVSPost2010Prop32
280
     0
102
RTVSPost2010PropOp32
 70
     1
102
RTVSPost2010Prop33
280
     0
102
RTVSPost2010PropOp33
 70
     1
102
RTVSPost2010Prop34
280
     0
102
RTVSPost2010PropOp34
 70
     1
102
RTVSPost2010Prop35
280
     0
102
RTVSPost2010PropOp35
 70
     1
102
RTVSPost2010Prop36
280
     0
102
RTVSPost2010PropOp36
 70
     1
102
RTVSPost2010Prop37
 90
       50
102
RTVSPost2010PropOp37
 70
     1
102
RTVSPost2010Prop38
140
0.0
102
RTVSPost2010PropOp38
 70
     1
102
RTVSPost2010Prop39
140
1.0
102
RTVSPost2010PropOp39
 70
     1
102
RTVSPost2010Prop40
 90
        0
102
RTVSPost2010PropOp40
 70
     1
102
RTVSPost2010Prop41ColorIndex
 90
       18
102
RTVSPost2010Prop41ColorRGB
 90
        0
102
RTVSPost2010PropOp41
 70
     1
102
RTVSPost2010Prop42
 90
       50
102
RTVSPost2010PropOp42
 70
     1
102
RTVSPost2010Prop43
 90
        3
102
RTVSPost2010PropOp43
 70
     1
102
RTVSPost2010Prop44ColorIndex
 90
        5
102
RTVSPost2010Prop44ColorRGB
 90
      255
102
RTVSPost2010PropOp44
 70
     1
102
RTVSPost2010Prop45
280
     0
102
RTVSPost2010PropOp45
 70
     1
102
RTVSPost2010Prop46
 90
       50
102
RTVSPost2010PropOp46
 70
     1
102
RTVSPost2010Prop47
 90
       50
102
RTVSPost2010PropOp47
 70
     1
102
RTVSPost2010Prop48
 90
       50
102
RTVSPost2010PropOp48
 70
     1
102
RTVSPost2010Prop49
280
     0
102
RTVSPost2010PropOp49
 70
     1
102
RTVSPost2010Prop50
 90
       50
102
RTVSPost2010PropOp50
 70
     1
102
RTVSPost2010Prop51ColorIndex
 90
      256
102
RTVSPost2010Prop51ColorRGB
 90
-16777216
102
RTVSPost2010PropOp51
 70
     0
102
RTVSPost2010Prop52
140
1.0
102
RTVSPost2010PropOp52
 70
     0
102
RTVSPost2010Prop53
 90
        2
102
RTVSPost2010PropOp53
 70
     1
102
RTVSPost2010Prop54
  1
strokes_ogs.tif
102
RTVSPost2010PropOp54
 70
     1
102
RTVSPost2010Prop55
280
     0
102
RTVSPost2010PropOp55
 70
     1
102
RTVSPost2010Prop56
140
1.0
102
RTVSPost2010PropOp56
 70
     1
102
RTVSPost2010Prop57
140
1.0
102
RTVSPost2010PropOp57
 70
     1
  0
XRECORD
  5
1A0
102
{ACAD_REACTORS
330
19F
102
}
330
19F
100
AcDbXrecord
280
     1
102
RTVSPropertyOp0
 70
     1
102
RTVSPropertyOp1
 70
     1
102
RTVSPropertyOp2
 70
     1
102
RTVSPropertyOp3
 70
     1
102
RTVSPropertyOp4
 70
     1
102
RTVSPropertyOp5
 70
     1
102
RTVSPropertyOp6
 70
     1
102
RTVSPropertyOp7
 70
     1
102
RTVSPropertyOp8
 70
     1
102
RTVSPropertyOp9
 70
     1
102
RTVSPropertyOp10
 70
     1
102
RTVSPropertyOp11
 70
     1
102
RTVSPropertyOp12
 70
     1
102
RTVSPropertyOp13
 70
     1
102
RTVSPropertyOp14
 70
     1
102
RTVSPropertyOp15
 70
     1
102
RTVSPropertyOp16
 70
     1
102
RTVSPropertyOp17
 70
     1
102
RTVSPropertyOp18
 70
     1
102
RTVSPropertyOp19
 70
     1
102
RTVSPropertyOp20
 70
     1
102
RTVSPropertyOp21
 70
     1
102
RTVSPropertyOp22
 70
     1
102
RTVSPropertyOp23
 70
     1
102
RTVSPropertyOp24
 70
     1
102
RTVSPropertyOp25
 70
     1
102
RTVSPropertyOp26
 70
     1
102
RTVSPropertyOp27
 70
     1
102
RTVSPropertyOp28
 70
     1
102
RTVSPropertyOp29
 70
     1
102
RTVSPropertyOp30
 70
     1
102
RTVSPropertyOp31
 70
     1
102
RTVSPropertyOp32
 70
     1
102
RTVSPropertyOp33
 70
     1
102
RTVSPropertyOp34
 70
     1
102
RTVSPropertyOp35
 70
     1
102
RTVSPropertyOp36
 70
     1
102
RTVSPropertyOp37
 70
     1
102
RTVSPropertyOp38
 70
     1
102
RTVSPropertyOp39
 70
     1
102
RTVSPropertyOp40
 70
     1
102
RTVSPropertyOp41
 70
     1
102
RTVSPropertyOp42
 70
     1
102
RTVSPropertyOp43
 70
     1
102
RTVSPropertyOp44
 70
     1
102
RTVSPropertyOp45
 70
     1
102
RTVSPropertyOp46
 70
     1
102
RTVSPropertyOp47
 70
     1
102
RTVSPropertyOp48
 70
     1
102
RTVSPropertyOp49
 70
     1
102
RTVSPropertyOp50
 70
     1
102
RTVSPropertyOp51
 70
     0
102
RTVSPropertyOp52
 70
     0
102
RTVSPropertyOp53
 70
     1
102
RTVSPropertyOp54
 70
     1
102
RTVSPropertyOp55
 70
     1
102
RTVSPropertyOp56
 70
     1
102
RTVSPropertyOp57
 70
     1
102
RTVSPost2010Prop28
280
     0
102
RTVSPost2010PropOp28
 70
     1
102
RTVSPost2010Prop29
280
     1
102
RTVSPost2010PropOp29
 70
     1
102
RTVSPost2010Prop30
280
     1
102
RTVSPost2010PropOp30
 70
     1
102
RTVSPost2010Prop31
280
     0
102
RTVSPost2010PropOp31
 70
     1
102
RTVSPost2010Prop32
280
     0
102
RTVSPost2010PropOp32
 70
     1
102
RTVSPost2010Prop33
280
     0
102
RTVSPost2010PropOp33
 70
     1
102
RTVSPost2010Prop34
280
     0
102
RTVSPost2010PropOp34
 70
     1
102
RTVSPost2010Prop35
280
     0
102
RTVSPost2010PropOp35
 70
     1
102
RTVSPost2010Prop36
280
     0
102
RTVSPost2010PropOp36
 70
     1
102
RTVSPost2010Prop37
 90
       50
102
RTVSPost2010PropOp37
 70
     1
102
RTVSPost2010Prop38
140
0.0
102
RTVSPost2010PropOp38
 70
     1
102
RTVSPost2010Prop39
140
1.0
102
RTVSPost2010PropOp39
 70
     1
102
RTVSPost2010Prop40
 90
        0
102
RTVSPost2010PropOp40
 70
     1
102
RTVSPost2010Prop41ColorIndex
 90
       18
102
RTVSPost2010Prop41ColorRGB
 90
        0
102
RTVSPost2010PropOp41
 70
     1
102
RTVSPost2010Prop42
 90
       50
102
RTVSPost2010PropOp42
 70
     1
102
RTVSPost2010Prop43
 90
        3
102
RTVSPost2010PropOp43
 70
     1
102
RTVSPost2010Prop44ColorIndex
 90
        5
102
RTVSPost2010Prop44ColorRGB
 90
      255
102
RTVSPost2010PropOp44
 70
     1
102
RTVSPost2010Prop45
280
     0
102
RTVSPost2010PropOp45
 70
     1
102
RTVSPost2010Prop46
 90
       50
102
RTVSPost2010PropOp46
 70
     1
102
RTVSPost2010Prop47
 90
       50
102
RTVSPost2010PropOp47
 70
     1
102
RTVSPost2010Prop48
 90
       50
102
RTVSPost2010PropOp48
 70
     1
102
RTVSPost2010Prop49
280
     0
102
RTVSPost2010PropOp49
 70
     1
102
RTVSPost2010Prop50
 90
       50
102
RTVSPost2010PropOp50
 70
     1
102
RTVSPost2010Prop51ColorIndex
 90
      256
102
RTVSPost2010Prop51ColorRGB
 90
-16777216
102
RTVSPost2010PropOp51
 70
     0
102
RTVSPost2010Prop52
140
1.0
102
RTVSPost2010PropOp52
 70
     0
102
RTVSPost2010Prop53
 90
        2
102
RTVSPost2010PropOp53
 70
     1
102
RTVSPost2010Prop54
  1
strokes_ogs.tif
102
RTVSPost2010PropOp54
 70
     1
102
RTVSPost2010Prop55
280
     0
102
RTVSPost2010PropOp55
 70
     1
102
RTVSPost2010Prop56
140
1.0
102
RTVSPost2010PropOp56
 70
     1
102
RTVSPost2010Prop57
140
1.0
102
RTVSPost2010PropOp57
 70
     1
  0
XRECORD
  5
1A6
102
{ACAD_REACTORS
330
1A5
102
}
330
1A5
100
AcDbXrecord
280
     1
102
RTVSPropertyOp0
 70
     1
102
RTVSPropertyOp1
 70
     1
102
RTVSPropertyOp2
 70
     1
102
RTVSPropertyOp3
 70
     1
102
RTVSPropertyOp4
 70
     1
102
RTVSPropertyOp5
 70
     1
102
RTVSPropertyOp6
 70
     1
102
RTVSPropertyOp7
 70
     1
102
RTVSPropertyOp8
 70
     1
102
RTVSPropertyOp9
 70
     1
102
RTVSPropertyOp10
 70
     1
102
RTVSPropertyOp11
 70
     1
102
RTVSPropertyOp12
 70
     1
102
RTVSPropertyOp13
 70
     1
102
RTVSPropertyOp14
 70
     1
102
RTVSPropertyOp15
 70
     1
102
RTVSPropertyOp16
 70
     1
102
RTVSPropertyOp17
 70
     1
102
RTVSPropertyOp18
 70
     1
102
RTVSPropertyOp19
 70
     1
102
RTVSPropertyOp20
 70
     1
102
RTVSPropertyOp21
 70
     1
102
RTVSPropertyOp22
 70
     1
102
RTVSPropertyOp23
 70
     1
102
RTVSPropertyOp24
 70
     1
102
RTVSPropertyOp25
 70
     1
102
RTVSPropertyOp26
 70
     1
102
RTVSPropertyOp27
 70
     1
102
RTVSPropertyOp28
 70
     1
102
RTVSPropertyOp29
 70
     1
102
RTVSPropertyOp30
 70
     1
102
RTVSPropertyOp31
 70
     1
102
RTVSPropertyOp32
 70
     1
102
RTVSPropertyOp33
 70
     1
102
RTVSPropertyOp34
 70
     1
102
RTVSPropertyOp35
 70
     1
102
RTVSPropertyOp36
 70
     1
102
RTVSPropertyOp37
 70
     1
102
RTVSPropertyOp38
 70
     1
102
RTVSPropertyOp39
 70
     1
102
RTVSPropertyOp40
 70
     1
102
RTVSPropertyOp41
 70
     1
102
RTVSPropertyOp42
 70
     1
102
RTVSPropertyOp43
 70
     1
102
RTVSPropertyOp44
 70
     1
102
RTVSPropertyOp45
 70
     1
102
RTVSPropertyOp46
 70
     1
102
RTVSPropertyOp47
 70
     1
102
RTVSPropertyOp48
 70
     1
102
RTVSPropertyOp49
 70
     1
102
RTVSPropertyOp50
 70
     1
102
RTVSPropertyOp51
 70
     0
102
RTVSPropertyOp52
 70
     0
102
RTVSPropertyOp53
 70
     1
102
RTVSPropertyOp54
 70
     1
102
RTVSPropertyOp55
 70
     1
102
RTVSPropertyOp56
 70
     1
102
RTVSPropertyOp57
 70
     1
102
RTVSPost2010Prop28
280
     0
102
RTVSPost2010PropOp28
 70
     1
102
RTVSPost2010Prop29
280
     1
102
RTVSPost2010PropOp29
 70
     1
102
RTVSPost2010Prop30
280
     1
102
RTVSPost2010PropOp30
 70
     1
102
RTVSPost2010Prop31
280
     0
102
RTVSPost2010PropOp31
 70
     1
102
RTVSPost2010Prop32
280
     0
102
RTVSPost2010PropOp32
 70
     1
102
RTVSPost2010Prop33
280
     0
102
RTVSPost2010PropOp33
 70
     1
102
RTVSPost2010Prop34
280
     0
102
RTVSPost2010PropOp34
 70
     1
102
RTVSPost2010Prop35
280
     0
102
RTVSPost2010PropOp35
 70
     1
102
RTVSPost2010Prop36
280
     0
102
RTVSPost2010PropOp36
 70
     1
102
RTVSPost2010Prop37
 90
       50
102
RTVSPost2010PropOp37
 70
     1
102
RTVSPost2010Prop38
140
0.0
102
RTVSPost2010PropOp38
 70
     1
102
RTVSPost2010Prop39
140
1.0
102
RTVSPost2010PropOp39
 70
     1
102
RTVSPost2010Prop40
 90
        0
102
RTVSPost2010PropOp40
 70
     1
102
RTVSPost2010Prop41ColorIndex
 90
       18
102
RTVSPost2010Prop41ColorRGB
 90
        0
102
RTVSPost2010PropOp41
 70
     1
102
RTVSPost2010Prop42
 90
       50
102
RTVSPost2010PropOp42
 70
     1
102
RTVSPost2010Prop43
 90
        3
102
RTVSPost2010PropOp43
 70
     1
102
RTVSPost2010Prop44ColorIndex
 90
        5
102
RTVSPost2010Prop44ColorRGB
 90
      255
102
RTVSPost2010PropOp44
 70
     1
102
RTVSPost2010Prop45
280
     0
102
RTVSPost2010PropOp45
 70
     1
102
RTVSPost2010Prop46
 90
       50
102
RTVSPost2010PropOp46
 70
     1
102
RTVSPost2010Prop47
 90
       50
102
RTVSPost2010PropOp47
 70
     1
102
RTVSPost2010Prop48
 90
       50
102
RTVSPost2010PropOp48
 70
     1
102
RTVSPost2010Prop49
280
     0
102
RTVSPost2010PropOp49
 70
     1
102
RTVSPost2010Prop50
 90
       50
102
RTVSPost2010PropOp50
 70
     1
102
RTVSPost2010Prop51ColorIndex
 90
      256
102
RTVSPost2010Prop51ColorRGB
 90
-16777216
102
RTVSPost2010PropOp51
 70
     0
102
RTVSPost2010Prop52
140
1.0
102
RTVSPost2010PropOp52
 70
     0
102
RTVSPost2010Prop53
 90
        2
102
RTVSPost2010PropOp53
 70
     1
102
RTVSPost2010Prop54
  1
strokes_ogs.tif
102
RTVSPost2010PropOp54
 70
     1
102
RTVSPost2010Prop55
280
     0
102
RTVSPost2010PropOp55
 70
     1
102
RTVSPost2010Prop56
140
1.0
102
RTVSPost2010PropOp56
 70
     1
102
RTVSPost2010Prop57
140
1.0
102
RTVSPost2010PropOp57
 70
     1
  0
XRECORD
  5
1BA
102
{ACAD_REACTORS
330
1B9
102
}
330
1B9
100
AcDbXrecord
280
     1
102
RTVSPropertyOp0
 70
     0
102
RTVSPropertyOp1
 70
     0
102
RTVSPropertyOp2
 70
     0
102
RTVSPropertyOp3
 70
     0
102
RTVSPropertyOp4
 70
     0
102
RTVSPropertyOp5
 70
     0
102
RTVSPropertyOp6
 70
     0
102
RTVSPropertyOp7
 70
     0
102
RTVSPropertyOp8
 70
     0
102
RTVSPropertyOp9
 70
     0
102
RTVSPropertyOp10
 70
     0
102
RTVSPropertyOp11
 70
     0
102
RTVSPropertyOp12
 70
     0
102
RTVSPropertyOp13
 70
     0
102
RTVSPropertyOp14
 70
     2
102
RTVSPropertyOp15
 70
     0
102
RTVSPropertyOp16
 70
     0
102
RTVSPropertyOp17
 70
     0
102
RTVSPropertyOp18
 70
     0
102
RTVSPropertyOp19
 70
     0
102
RTVSPropertyOp20
 70
     0
102
RTVSPropertyOp21
 70
     0
102
RTVSPropertyOp22
 70
     0
102
RTVSPropertyOp23
 70
     0
102
RTVSPropertyOp24
 70
     0
102
RTVSPropertyOp25
 70
     0
102
RTVSPropertyOp26
 70
     0
102
RTVSPropertyOp27
 70
     0
102
RTVSPropertyOp28
 70
     0
102
RTVSPropertyOp29
 70
     0
102
RTVSPropertyOp30
 70
     0
102
RTVSPropertyOp31
 70
     0
102
RTVSPropertyOp32
 70
     0
102
RTVSPropertyOp33
 70
     0
102
RTVSPropertyOp34
 70
     0
102
RTVSPropertyOp35
 70
     0
102
RTVSPropertyOp36
 70
     0
102
RTVSPropertyOp37
 70
     0
102
RTVSPropertyOp38
 70
     0
102
RTVSPropertyOp39
 70
     0
102
RTVSPropertyOp40
 70
     0
102
RTVSPropertyOp41
 70
     0
102
RTVSPropertyOp42
 70
     0
102
RTVSPropertyOp43
 70
     0
102
RTVSPropertyOp44
 70
     0
102
RTVSPropertyOp45
 70
     0
102
RTVSPropertyOp46
 70
     0
102
RTVSPropertyOp47
 70
     0
102
RTVSPropertyOp48
 70
     0
102
RTVSPropertyOp49
 70
     0
102
RTVSPropertyOp50
 70
     0
102
RTVSPropertyOp51
 70
     0
102
RTVSPropertyOp52
 70
     0
102
RTVSPropertyOp53
 70
     0
102
RTVSPropertyOp54
 70
     0
102
RTVSPropertyOp55
 70
     0
102
RTVSPropertyOp56
 70
     0
102
RTVSPropertyOp57
 70
     0
102
RTVSPost2010Prop28
280
     0
102
RTVSPost2010PropOp28
 70
     0
102
RTVSPost2010Prop29
280
     1
102
RTVSPost2010PropOp29
 70
     0
102
RTVSPost2010Prop30
280
     1
102
RTVSPost2010PropOp30
 70
     0
102
RTVSPost2010Prop31
280
     0
102
RTVSPost2010PropOp31
 70
     0
102
RTVSPost2010Prop32
280
     0
102
RTVSPost2010PropOp32
 70
     0
102
RTVSPost2010Prop33
280
     0
102
RTVSPost2010PropOp33
 70
     0
102
RTVSPost2010Prop34
280
     0
102
RTVSPost2010PropOp34
 70
     0
102
RTVSPost2010Prop35
280
     0
102
RTVSPost2010PropOp35
 70
     0
102
RTVSPost2010Prop36
280
     0
102
RTVSPost2010PropOp36
 70
     0
102
RTVSPost2010Prop37
 90
       50
102
RTVSPost2010PropOp37
 70
     0
102
RTVSPost2010Prop38
140
0.0
102
RTVSPost2010PropOp38
 70
     0
102
RTVSPost2010Prop39
140
1.0
102
RTVSPost2010PropOp39
 70
     0
102
RTVSPost2010Prop40
 90
        0
102
RTVSPost2010PropOp40
 70
     0
102
RTVSPost2010Prop41ColorIndex
 90
       18
102
RTVSPost2010Prop41ColorRGB
 90
        0
102
RTVSPost2010PropOp41
 70
     0
102
RTVSPost2010Prop42
 90
       50
102
RTVSPost2010PropOp42
 70
     0
102
RTVSPost2010Prop43
 90
        3
102
RTVSPost2010PropOp43
 70
     0
102
RTVSPost2010Prop44ColorIndex
 90
        5
102
RTVSPost2010Prop44ColorRGB
 90
      255
102
RTVSPost2010PropOp44
 70
     0
102
RTVSPost2010Prop45
280
     0
102
RTVSPost2010PropOp45
 70
     0
102
RTVSPost2010Prop46
 90
       50
102
RTVSPost2010PropOp46
 70
     0
102
RTVSPost2010Prop47
 90
       50
102
RTVSPost2010PropOp47
 70
     0
102
RTVSPost2010Prop48
 90
       50
102
RTVSPost2010PropOp48
 70
     0
102
RTVSPost2010Prop49
280
     0
102
RTVSPost2010PropOp49
 70
     0
102
RTVSPost2010Prop50
 90
       50
102
RTVSPost2010PropOp50
 70
     0
102
RTVSPost2010Prop51ColorIndex
 90
      256
102
RTVSPost2010Prop51ColorRGB
 90
-16777216
102
RTVSPost2010PropOp51
 70
     0
102
RTVSPost2010Prop52
140
1.0
102
RTVSPost2010PropOp52
 70
     0
102
RTVSPost2010Prop53
 90
        2
102
RTVSPost2010PropOp53
 70
     0
102
RTVSPost2010Prop54
  1
strokes_ogs.tif
102
RTVSPost2010PropOp54
 70
     0
102
RTVSPost2010Prop55
280
     0
102
RTVSPost2010PropOp55
 70
     0
102
RTVSPost2010Prop56
140
1.0
102
RTVSPost2010PropOp56
 70
     0
102
RTVSPost2010Prop57
140
1.0
102
RTVSPost2010PropOp57
 70
     0
  0
XRECORD
  5
1B4
102
{ACAD_REACTORS
330
1B3
102
}
330
1B3
100
AcDbXrecord
280
     1
102
RTVSPropertyOp0
 70
     1
102
RTVSPropertyOp1
 70
     1
102
RTVSPropertyOp2
 70
     1
102
RTVSPropertyOp3
 70
     1
102
RTVSPropertyOp4
 70
     1
102
RTVSPropertyOp5
 70
     1
102
RTVSPropertyOp6
 70
     1
102
RTVSPropertyOp7
 70
     1
102
RTVSPropertyOp8
 70
     1
102
RTVSPropertyOp9
 70
     1
102
RTVSPropertyOp10
 70
     1
102
RTVSPropertyOp11
 70
     1
102
RTVSPropertyOp12
 70
     1
102
RTVSPropertyOp13
 70
     1
102
RTVSPropertyOp14
 70
     1
102
RTVSPropertyOp15
 70
     1
102
RTVSPropertyOp16
 70
     1
102
RTVSPropertyOp17
 70
     1
102
RTVSPropertyOp18
 70
     1
102
RTVSPropertyOp19
 70
     1
102
RTVSPropertyOp20
 70
     1
102
RTVSPropertyOp21
 70
     1
102
RTVSPropertyOp22
 70
     1
102
RTVSPropertyOp23
 70
     1
102
RTVSPropertyOp24
 70
     1
102
RTVSPropertyOp25
 70
     1
102
RTVSPropertyOp26
 70
     1
102
RTVSPropertyOp27
 70
     1
102
RTVSPropertyOp28
 70
     1
102
RTVSPropertyOp29
 70
     1
102
RTVSPropertyOp30
 70
     1
102
RTVSPropertyOp31
 70
     1
102
RTVSPropertyOp32
 70
     1
102
RTVSPropertyOp33
 70
     1
102
RTVSPropertyOp34
 70
     1
102
RTVSPropertyOp35
 70
     1
102
RTVSPropertyOp36
 70
     1
102
RTVSPropertyOp37
 70
     1
102
RTVSPropertyOp38
 70
     1
102
RTVSPropertyOp39
 70
     1
102
RTVSPropertyOp40
 70
     1
102
RTVSPropertyOp41
 70
     1
102
RTVSPropertyOp42
 70
     1
102
RTVSPropertyOp43
 70
     1
102
RTVSPropertyOp44
 70
     1
102
RTVSPropertyOp45
 70
     1
102
RTVSPropertyOp46
 70
     1
102
RTVSPropertyOp47
 70
     1
102
RTVSPropertyOp48
 70
     1
102
RTVSPropertyOp49
 70
     1
102
RTVSPropertyOp50
 70
     1
102
RTVSPropertyOp51
 70
     0
102
RTVSPropertyOp52
 70
     0
102
RTVSPropertyOp53
 70
     1
102
RTVSPropertyOp54
 70
     1
102
RTVSPropertyOp55
 70
     1
102
RTVSPropertyOp56
 70
     1
102
RTVSPropertyOp57
 70
     1
102
RTVSPost2010Prop28
280
     0
102
RTVSPost2010PropOp28
 70
     1
102
RTVSPost2010Prop29
280
     1
102
RTVSPost2010PropOp29
 70
     1
102
RTVSPost2010Prop30
280
     1
102
RTVSPost2010PropOp30
 70
     1
102
RTVSPost2010Prop31
280
     0
102
RTVSPost2010PropOp31
 70
     1
102
RTVSPost2010Prop32
280
     0
102
RTVSPost2010PropOp32
 70
     1
102
RTVSPost2010Prop33
280
     0
102
RTVSPost2010PropOp33
 70
     1
102
RTVSPost2010Prop34
280
     0
102
RTVSPost2010PropOp34
 70
     1
102
RTVSPost2010Prop35
280
     0
102
RTVSPost2010PropOp35
 70
     1
102
RTVSPost2010Prop36
280
     0
102
RTVSPost2010PropOp36
 70
     1
102
RTVSPost2010Prop37
 90
       50
102
RTVSPost2010PropOp37
 70
     1
102
RTVSPost2010Prop38
140
0.0
102
RTVSPost2010PropOp38
 70
     1
102
RTVSPost2010Prop39
140
1.0
102
RTVSPost2010PropOp39
 70
     1
102
RTVSPost2010Prop40
 90
        0
102
RTVSPost2010PropOp40
 70
     1
102
RTVSPost2010Prop41ColorIndex
 90
       18
102
RTVSPost2010Prop41ColorRGB
 90
        0
102
RTVSPost2010PropOp41
 70
     1
102
RTVSPost2010Prop42
 90
       50
102
RTVSPost2010PropOp42
 70
     1
102
RTVSPost2010Prop43
 90
        3
102
RTVSPost2010PropOp43
 70
     1
102
RTVSPost2010Prop44ColorIndex
 90
        5
102
RTVSPost2010Prop44ColorRGB
 90
      255
102
RTVSPost2010PropOp44
 70
     1
102
RTVSPost2010Prop45
280
     0
102
RTVSPost2010PropOp45
 70
     1
102
RTVSPost2010Prop46
 90
       50
102
RTVSPost2010PropOp46
 70
     1
102
RTVSPost2010Prop47
 90
       50
102
RTVSPost2010PropOp47
 70
     1
102
RTVSPost2010Prop48
 90
       50
102
RTVSPost2010PropOp48
 70
     1
102
RTVSPost2010Prop49
280
     0
102
RTVSPost2010PropOp49
 70
     1
102
RTVSPost2010Prop50
 90
       50
102
RTVSPost2010PropOp50
 70
     1
102
RTVSPost2010Prop51ColorIndex
 90
      256
102
RTVSPost2010Prop51ColorRGB
 90
-16777216
102
RTVSPost2010PropOp51
 70
     0
102
RTVSPost2010Prop52
140
1.0
102
RTVSPost2010PropOp52
 70
     0
102
RTVSPost2010Prop53
 90
        2
102
RTVSPost2010PropOp53
 70
     1
102
RTVSPost2010Prop54
  1
strokes_ogs.tif
102
RTVSPost2010PropOp54
 70
     1
102
RTVSPost2010Prop55
280
     0
102
RTVSPost2010PropOp55
 70
     1
102
RTVSPost2010Prop56
140
1.0
102
RTVSPost2010PropOp56
 70
     1
102
RTVSPost2010Prop57
140
1.0
102
RTVSPost2010PropOp57
 70
     1
  0
XRECORD
  5
1BC
102
{ACAD_REACTORS
330
1BB
102
}
330
1BB
100
AcDbXrecord
280
     1
102
RTVSPropertyOp0
 70
     0
102
RTVSPropertyOp1
 70
     0
102
RTVSPropertyOp2
 70
     0
102
RTVSPropertyOp3
 70
     0
102
RTVSPropertyOp4
 70
     0
102
RTVSPropertyOp5
 70
     0
102
RTVSPropertyOp6
 70
     0
102
RTVSPropertyOp7
 70
     0
102
RTVSPropertyOp8
 70
     0
102
RTVSPropertyOp9
 70
     0
102
RTVSPropertyOp10
 70
     0
102
RTVSPropertyOp11
 70
     0
102
RTVSPropertyOp12
 70
     0
102
RTVSPropertyOp13
 70
     0
102
RTVSPropertyOp14
 70
     2
102
RTVSPropertyOp15
 70
     0
102
RTVSPropertyOp16
 70
     0
102
RTVSPropertyOp17
 70
     0
102
RTVSPropertyOp18
 70
     0
102
RTVSPropertyOp19
 70
     0
102
RTVSPropertyOp20
 70
     0
102
RTVSPropertyOp21
 70
     0
102
RTVSPropertyOp22
 70
     0
102
RTVSPropertyOp23
 70
     0
102
RTVSPropertyOp24
 70
     0
102
RTVSPropertyOp25
 70
     0
102
RTVSPropertyOp26
 70
     0
102
RTVSPropertyOp27
 70
     0
102
RTVSPropertyOp28
 70
     0
102
RTVSPropertyOp29
 70
     0
102
RTVSPropertyOp30
 70
     0
102
RTVSPropertyOp31
 70
     0
102
RTVSPropertyOp32
 70
     0
102
RTVSPropertyOp33
 70
     0
102
RTVSPropertyOp34
 70
     0
102
RTVSPropertyOp35
 70
     0
102
RTVSPropertyOp36
 70
     0
102
RTVSPropertyOp37
 70
     0
102
RTVSPropertyOp38
 70
     0
102
RTVSPropertyOp39
 70
     0
102
RTVSPropertyOp40
 70
     0
102
RTVSPropertyOp41
 70
     0
102
RTVSPropertyOp42
 70
     0
102
RTVSPropertyOp43
 70
     0
102
RTVSPropertyOp44
 70
     0
102
RTVSPropertyOp45
 70
     0
102
RTVSPropertyOp46
 70
     0
102
RTVSPropertyOp47
 70
     0
102
RTVSPropertyOp48
 70
     0
102
RTVSPropertyOp49
 70
     0
102
RTVSPropertyOp50
 70
     0
102
RTVSPropertyOp51
 70
     0
102
RTVSPropertyOp52
 70
     0
102
RTVSPropertyOp53
 70
     0
102
RTVSPropertyOp54
 70
     0
102
RTVSPropertyOp55
 70
     0
102
RTVSPropertyOp56
 70
     0
102
RTVSPropertyOp57
 70
     0
102
RTVSPost2010Prop28
280
     0
102
RTVSPost2010PropOp28
 70
     0
102
RTVSPost2010Prop29
280
     1
102
RTVSPost2010PropOp29
 70
     0
102
RTVSPost2010Prop30
280
     1
102
RTVSPost2010PropOp30
 70
     0
102
RTVSPost2010Prop31
280
     0
102
RTVSPost2010PropOp31
 70
     0
102
RTVSPost2010Prop32
280
     0
102
RTVSPost2010PropOp32
 70
     0
102
RTVSPost2010Prop33
280
     0
102
RTVSPost2010PropOp33
 70
     0
102
RTVSPost2010Prop34
280
     0
102
RTVSPost2010PropOp34
 70
     0
102
RTVSPost2010Prop35
280
     0
102
RTVSPost2010PropOp35
 70
     0
102
RTVSPost2010Prop36
280
     0
102
RTVSPost2010PropOp36
 70
     0
102
RTVSPost2010Prop37
 90
       50
102
RTVSPost2010PropOp37
 70
     0
102
RTVSPost2010Prop38
140
0.0
102
RTVSPost2010PropOp38
 70
     0
102
RTVSPost2010Prop39
140
1.0
102
RTVSPost2010PropOp39
 70
     0
102
RTVSPost2010Prop40
 90
        0
102
RTVSPost2010PropOp40
 70
     0
102
RTVSPost2010Prop41ColorIndex
 90
       18
102
RTVSPost2010Prop41ColorRGB
 90
        0
102
RTVSPost2010PropOp41
 70
     0
102
RTVSPost2010Prop42
 90
       50
102
RTVSPost2010PropOp42
 70
     0
102
RTVSPost2010Prop43
 90
        3
102
RTVSPost2010PropOp43
 70
     0
102
RTVSPost2010Prop44ColorIndex
 90
        5
102
RTVSPost2010Prop44ColorRGB
 90
      255
102
RTVSPost2010PropOp44
 70
     0
102
RTVSPost2010Prop45
280
     0
102
RTVSPost2010PropOp45
 70
     0
102
RTVSPost2010Prop46
 90
       50
102
RTVSPost2010PropOp46
 70
     0
102
RTVSPost2010Prop47
 90
       50
102
RTVSPost2010PropOp47
 70
     0
102
RTVSPost2010Prop48
 90
       50
102
RTVSPost2010PropOp48
 70
     0
102
RTVSPost2010Prop49
280
     0
102
RTVSPost2010PropOp49
 70
     0
102
RTVSPost2010Prop50
 90
       50
102
RTVSPost2010PropOp50
 70
     0
102
RTVSPost2010Prop51ColorIndex
 90
      256
102
RTVSPost2010Prop51ColorRGB
 90
-16777216
102
RTVSPost2010PropOp51
 70
     0
102
RTVSPost2010Prop52
140
1.0
102
RTVSPost2010PropOp52
 70
     0
102
RTVSPost2010Prop53
 90
        2
102
RTVSPost2010PropOp53
 70
     0
102
RTVSPost2010Prop54
  1
strokes_ogs.tif
102
RTVSPost2010PropOp54
 70
     0
102
RTVSPost2010Prop55
280
     0
102
RTVSPost2010PropOp55
 70
     0
102
RTVSPost2010Prop56
140
1.0
102
RTVSPost2010PropOp56
 70
     0
102
RTVSPost2010Prop57
140
1.0
102
RTVSPost2010PropOp57
 70
     0
  0
XRECORD
  5
1AA
102
{ACAD_REACTORS
330
1A9
102
}
330
1A9
100
AcDbXrecord
280
     1
102
RTVSPropertyOp0
 70
     1
102
RTVSPropertyOp1
 70
     1
102
RTVSPropertyOp2
 70
     1
102
RTVSPropertyOp3
 70
     1
102
RTVSPropertyOp4
 70
     1
102
RTVSPropertyOp5
 70
     1
102
RTVSPropertyOp6
 70
     1
102
RTVSPropertyOp7
 70
     1
102
RTVSPropertyOp8
 70
     1
102
RTVSPropertyOp9
 70
     1
102
RTVSPropertyOp10
 70
     1
102
RTVSPropertyOp11
 70
     1
102
RTVSPropertyOp12
 70
     1
102
RTVSPropertyOp13
 70
     1
102
RTVSPropertyOp14
 70
     1
102
RTVSPropertyOp15
 70
     1
102
RTVSPropertyOp16
 70
     1
102
RTVSPropertyOp17
 70
     1
102
RTVSPropertyOp18
 70
     1
102
RTVSPropertyOp19
 70
     1
102
RTVSPropertyOp20
 70
     1
102
RTVSPropertyOp21
 70
     1
102
RTVSPropertyOp22
 70
     1
102
RTVSPropertyOp23
 70
     1
102
RTVSPropertyOp24
 70
     1
102
RTVSPropertyOp25
 70
     1
102
RTVSPropertyOp26
 70
     1
102
RTVSPropertyOp27
 70
     1
102
RTVSPropertyOp28
 70
     1
102
RTVSPropertyOp29
 70
     1
102
RTVSPropertyOp30
 70
     1
102
RTVSPropertyOp31
 70
     1
102
RTVSPropertyOp32
 70
     1
102
RTVSPropertyOp33
 70
     1
102
RTVSPropertyOp34
 70
     1
102
RTVSPropertyOp35
 70
     1
102
RTVSPropertyOp36
 70
     1
102
RTVSPropertyOp37
 70
     1
102
RTVSPropertyOp38
 70
     1
102
RTVSPropertyOp39
 70
     1
102
RTVSPropertyOp40
 70
     1
102
RTVSPropertyOp41
 70
     1
102
RTVSPropertyOp42
 70
     1
102
RTVSPropertyOp43
 70
     1
102
RTVSPropertyOp44
 70
     1
102
RTVSPropertyOp45
 70
     1
102
RTVSPropertyOp46
 70
     1
102
RTVSPropertyOp47
 70
     1
102
RTVSPropertyOp48
 70
     1
102
RTVSPropertyOp49
 70
     1
102
RTVSPropertyOp50
 70
     1
102
RTVSPropertyOp51
 70
     0
102
RTVSPropertyOp52
 70
     0
102
RTVSPropertyOp53
 70
     1
102
RTVSPropertyOp54
 70
     1
102
RTVSPropertyOp55
 70
     1
102
RTVSPropertyOp56
 70
     1
102
RTVSPropertyOp57
 70
     1
102
RTVSPost2010Prop28
280
     0
102
RTVSPost2010PropOp28
 70
     1
102
RTVSPost2010Prop29
280
     1
102
RTVSPost2010PropOp29
 70
     1
102
RTVSPost2010Prop30
280
     1
102
RTVSPost2010PropOp30
 70
     1
102
RTVSPost2010Prop31
280
     0
102
RTVSPost2010PropOp31
 70
     1
102
RTVSPost2010Prop32
280
     0
102
RTVSPost2010PropOp32
 70
     1
102
RTVSPost2010Prop33
280
     0
102
RTVSPost2010PropOp33
 70
     1
102
RTVSPost2010Prop34
280
     0
102
RTVSPost2010PropOp34
 70
     1
102
RTVSPost2010Prop35
280
     0
102
RTVSPost2010PropOp35
 70
     1
102
RTVSPost2010Prop36
280
     0
102
RTVSPost2010PropOp36
 70
     1
102
RTVSPost2010Prop37
 90
       50
102
RTVSPost2010PropOp37
 70
     1
102
RTVSPost2010Prop38
140
0.0
102
RTVSPost2010PropOp38
 70
     1
102
RTVSPost2010Prop39
140
1.0
102
RTVSPost2010PropOp39
 70
     1
102
RTVSPost2010Prop40
 90
        0
102
RTVSPost2010PropOp40
 70
     1
102
RTVSPost2010Prop41ColorIndex
 90
       18
102
RTVSPost2010Prop41ColorRGB
 90
        0
102
RTVSPost2010PropOp41
 70
     1
102
RTVSPost2010Prop42
 90
       50
102
RTVSPost2010PropOp42
 70
     1
102
RTVSPost2010Prop43
 90
        3
102
RTVSPost2010PropOp43
 70
     1
102
RTVSPost2010Prop44ColorIndex
 90
        5
102
RTVSPost2010Prop44ColorRGB
 90
      255
102
RTVSPost2010PropOp44
 70
     1
102
RTVSPost2010Prop45
280
     0
102
RTVSPost2010PropOp45
 70
     1
102
RTVSPost2010Prop46
 90
       50
102
RTVSPost2010PropOp46
 70
     1
102
RTVSPost2010Prop47
 90
       50
102
RTVSPost2010PropOp47
 70
     1
102
RTVSPost2010Prop48
 90
       50
102
RTVSPost2010PropOp48
 70
     1
102
RTVSPost2010Prop49
280
     0
102
RTVSPost2010PropOp49
 70
     1
102
RTVSPost2010Prop50
 90
       50
102
RTVSPost2010PropOp50
 70
     1
102
RTVSPost2010Prop51ColorIndex
 90
      256
102
RTVSPost2010Prop51ColorRGB
 90
-16777216
102
RTVSPost2010PropOp51
 70
     0
102
RTVSPost2010Prop52
140
1.0
102
RTVSPost2010PropOp52
 70
     0
102
RTVSPost2010Prop53
 90
        2
102
RTVSPost2010PropOp53
 70
     1
102
RTVSPost2010Prop54
  1
strokes_ogs.tif
102
RTVSPost2010PropOp54
 70
     1
102
RTVSPost2010Prop55
280
     0
102
RTVSPost2010PropOp55
 70
     1
102
RTVSPost2010Prop56
140
1.0
102
RTVSPost2010PropOp56
 70
     1
102
RTVSPost2010Prop57
140
1.0
102
RTVSPost2010PropOp57
 70
     1
  0
XRECORD
  5
1C8
102
{ACAD_REACTORS
330
1C7
102
}
330
1C7
100
AcDbXrecord
280
     1
102
RTVSPropertyOp0
 70
     1
102
RTVSPropertyOp1
 70
     1
102
RTVSPropertyOp2
 70
     1
102
RTVSPropertyOp3
 70
     1
102
RTVSPropertyOp4
 70
     1
102
RTVSPropertyOp5
 70
     1
102
RTVSPropertyOp6
 70
     1
102
RTVSPropertyOp7
 70
     1
102
RTVSPropertyOp8
 70
     1
102
RTVSPropertyOp9
 70
     1
102
RTVSPropertyOp10
 70
     1
102
RTVSPropertyOp11
 70
     1
102
RTVSPropertyOp12
 70
     1
102
RTVSPropertyOp13
 70
     1
102
RTVSPropertyOp14
 70
     1
102
RTVSPropertyOp15
 70
     1
102
RTVSPropertyOp16
 70
     1
102
RTVSPropertyOp17
 70
     1
102
RTVSPropertyOp18
 70
     1
102
RTVSPropertyOp19
 70
     1
102
RTVSPropertyOp20
 70
     1
102
RTVSPropertyOp21
 70
     1
102
RTVSPropertyOp22
 70
     1
102
RTVSPropertyOp23
 70
     1
102
RTVSPropertyOp24
 70
     1
102
RTVSPropertyOp25
 70
     1
102
RTVSPropertyOp26
 70
     1
102
RTVSPropertyOp27
 70
     1
102
RTVSPropertyOp28
 70
     1
102
RTVSPropertyOp29
 70
     1
102
RTVSPropertyOp30
 70
     1
102
RTVSPropertyOp31
 70
     1
102
RTVSPropertyOp32
 70
     1
102
RTVSPropertyOp33
 70
     1
102
RTVSPropertyOp34
 70
     1
102
RTVSPropertyOp35
 70
     1
102
RTVSPropertyOp36
 70
     1
102
RTVSPropertyOp37
 70
     1
102
RTVSPropertyOp38
 70
     1
102
RTVSPropertyOp39
 70
     1
102
RTVSPropertyOp40
 70
     1
102
RTVSPropertyOp41
 70
     1
102
RTVSPropertyOp42
 70
     1
102
RTVSPropertyOp43
 70
     1
102
RTVSPropertyOp44
 70
     1
102
RTVSPropertyOp45
 70
     1
102
RTVSPropertyOp46
 70
     1
102
RTVSPropertyOp47
 70
     1
102
RTVSPropertyOp48
 70
     1
102
RTVSPropertyOp49
 70
     1
102
RTVSPropertyOp50
 70
     1
102
RTVSPropertyOp51
 70
     0
102
RTVSPropertyOp52
 70
     0
102
RTVSPropertyOp53
 70
     1
102
RTVSPropertyOp54
 70
     1
102
RTVSPropertyOp55
 70
     1
102
RTVSPropertyOp56
 70
     1
102
RTVSPropertyOp57
 70
     1
102
RTVSPost2010Prop28
280
     0
102
RTVSPost2010PropOp28
 70
     1
102
RTVSPost2010Prop29
280
     1
102
RTVSPost2010PropOp29
 70
     1
102
RTVSPost2010Prop30
280
     1
102
RTVSPost2010PropOp30
 70
     1
102
RTVSPost2010Prop31
280
     0
102
RTVSPost2010PropOp31
 70
     1
102
RTVSPost2010Prop32
280
     0
102
RTVSPost2010PropOp32
 70
     1
102
RTVSPost2010Prop33
280
     0
102
RTVSPost2010PropOp33
 70
     1
102
RTVSPost2010Prop34
280
     0
102
RTVSPost2010PropOp34
 70
     1
102
RTVSPost2010Prop35
280
     0
102
RTVSPost2010PropOp35
 70
     1
102
RTVSPost2010Prop36
280
     0
102
RTVSPost2010PropOp36
 70
     1
102
RTVSPost2010Prop37
 90
       50
102
RTVSPost2010PropOp37
 70
     1
102
RTVSPost2010Prop38
140
0.0
102
RTVSPost2010PropOp38
 70
     1
102
RTVSPost2010Prop39
140
1.0
102
RTVSPost2010PropOp39
 70
     1
102
RTVSPost2010Prop40
 90
        0
102
RTVSPost2010PropOp40
 70
     1
102
RTVSPost2010Prop41ColorIndex
 90
       18
102
RTVSPost2010Prop41ColorRGB
 90
        0
102
RTVSPost2010PropOp41
 70
     1
102
RTVSPost2010Prop42
 90
       50
102
RTVSPost2010PropOp42
 70
     1
102
RTVSPost2010Prop43
 90
        3
102
RTVSPost2010PropOp43
 70
     1
102
RTVSPost2010Prop44ColorIndex
 90
        5
102
RTVSPost2010Prop44ColorRGB
 90
      255
102
RTVSPost2010PropOp44
 70
     1
102
RTVSPost2010Prop45
280
     0
102
RTVSPost2010PropOp45
 70
     1
102
RTVSPost2010Prop46
 90
       50
102
RTVSPost2010PropOp46
 70
     1
102
RTVSPost2010Prop47
 90
       50
102
RTVSPost2010PropOp47
 70
     1
102
RTVSPost2010Prop48
 90
       50
102
RTVSPost2010PropOp48
 70
     1
102
RTVSPost2010Prop49
280
     0
102
RTVSPost2010PropOp49
 70
     1
102
RTVSPost2010Prop50
 90
       50
102
RTVSPost2010PropOp50
 70
     1
102
RTVSPost2010Prop51ColorIndex
 90
      256
102
RTVSPost2010Prop51ColorRGB
 90
-16777216
102
RTVSPost2010PropOp51
 70
     0
102
RTVSPost2010Prop52
140
1.0
102
RTVSPost2010PropOp52
 70
     0
102
RTVSPost2010Prop53
 90
        2
102
RTVSPost2010PropOp53
 70
     1
102
RTVSPost2010Prop54
  1
strokes_ogs.tif
102
RTVSPost2010PropOp54
 70
     1
102
RTVSPost2010Prop55
280
     0
102
RTVSPost2010PropOp55
 70
     1
102
RTVSPost2010Prop56
140
1.0
102
RTVSPost2010PropOp56
 70
     1
102
RTVSPost2010Prop57
140
1.0
102
RTVSPost2010PropOp57
 70
     1
  0
XRECORD
  5
1C6
102
{ACAD_REACTORS
330
1C5
102
}
330
1C5
100
AcDbXrecord
280
     1
102
RTVSPropertyOp0
 70
     1
102
RTVSPropertyOp1
 70
     1
102
RTVSPropertyOp2
 70
     1
102
RTVSPropertyOp3
 70
     1
102
RTVSPropertyOp4
 70
     1
102
RTVSPropertyOp5
 70
     1
102
RTVSPropertyOp6
 70
     1
102
RTVSPropertyOp7
 70
     1
102
RTVSPropertyOp8
 70
     1
102
RTVSPropertyOp9
 70
     1
102
RTVSPropertyOp10
 70
     1
102
RTVSPropertyOp11
 70
     1
102
RTVSPropertyOp12
 70
     1
102
RTVSPropertyOp13
 70
     1
102
RTVSPropertyOp14
 70
     1
102
RTVSPropertyOp15
 70
     1
102
RTVSPropertyOp16
 70
     1
102
RTVSPropertyOp17
 70
     1
102
RTVSPropertyOp18
 70
     1
102
RTVSPropertyOp19
 70
     1
102
RTVSPropertyOp20
 70
     1
102
RTVSPropertyOp21
 70
     1
102
RTVSPropertyOp22
 70
     1
102
RTVSPropertyOp23
 70
     1
102
RTVSPropertyOp24
 70
     1
102
RTVSPropertyOp25
 70
     1
102
RTVSPropertyOp26
 70
     1
102
RTVSPropertyOp27
 70
     1
102
RTVSPropertyOp28
 70
     1
102
RTVSPropertyOp29
 70
     1
102
RTVSPropertyOp30
 70
     1
102
RTVSPropertyOp31
 70
     1
102
RTVSPropertyOp32
 70
     1
102
RTVSPropertyOp33
 70
     1
102
RTVSPropertyOp34
 70
     1
102
RTVSPropertyOp35
 70
     1
102
RTVSPropertyOp36
 70
     1
102
RTVSPropertyOp37
 70
     1
102
RTVSPropertyOp38
 70
     1
102
RTVSPropertyOp39
 70
     1
102
RTVSPropertyOp40
 70
     1
102
RTVSPropertyOp41
 70
     1
102
RTVSPropertyOp42
 70
     1
102
RTVSPropertyOp43
 70
     1
102
RTVSPropertyOp44
 70
     1
102
RTVSPropertyOp45
 70
     1
102
RTVSPropertyOp46
 70
     1
102
RTVSPropertyOp47
 70
     1
102
RTVSPropertyOp48
 70
     1
102
RTVSPropertyOp49
 70
     1
102
RTVSPropertyOp50
 70
     1
102
RTVSPropertyOp51
 70
     0
102
RTVSPropertyOp52
 70
     0
102
RTVSPropertyOp53
 70
     1
102
RTVSPropertyOp54
 70
     1
102
RTVSPropertyOp55
 70
     1
102
RTVSPropertyOp56
 70
     1
102
RTVSPropertyOp57
 70
     1
102
RTVSPost2010Prop28
280
     0
102
RTVSPost2010PropOp28
 70
     1
102
RTVSPost2010Prop29
280
     1
102
RTVSPost2010PropOp29
 70
     1
102
RTVSPost2010Prop30
280
     1
102
RTVSPost2010PropOp30
 70
     1
102
RTVSPost2010Prop31
280
     0
102
RTVSPost2010PropOp31
 70
     1
102
RTVSPost2010Prop32
280
     0
102
RTVSPost2010PropOp32
 70
     1
102
RTVSPost2010Prop33
280
     0
102
RTVSPost2010PropOp33
 70
     1
102
RTVSPost2010Prop34
280
     0
102
RTVSPost2010PropOp34
 70
     1
102
RTVSPost2010Prop35
280
     0
102
RTVSPost2010PropOp35
 70
     1
102
RTVSPost2010Prop36
280
     0
102
RTVSPost2010PropOp36
 70
     1
102
RTVSPost2010Prop37
 90
       50
102
RTVSPost2010PropOp37
 70
     1
102
RTVSPost2010Prop38
140
0.0
102
RTVSPost2010PropOp38
 70
     1
102
RTVSPost2010Prop39
140
1.0
102
RTVSPost2010PropOp39
 70
     1
102
RTVSPost2010Prop40
 90
        0
102
RTVSPost2010PropOp40
 70
     1
102
RTVSPost2010Prop41ColorIndex
 90
       18
102
RTVSPost2010Prop41ColorRGB
 90
        0
102
RTVSPost2010PropOp41
 70
     1
102
RTVSPost2010Prop42
 90
       50
102
RTVSPost2010PropOp42
 70
     1
102
RTVSPost2010Prop43
 90
        3
102
RTVSPost2010PropOp43
 70
     1
102
RTVSPost2010Prop44ColorIndex
 90
        5
102
RTVSPost2010Prop44ColorRGB
 90
      255
102
RTVSPost2010PropOp44
 70
     1
102
RTVSPost2010Prop45
280
     0
102
RTVSPost2010PropOp45
 70
     1
102
RTVSPost2010Prop46
 90
       50
102
RTVSPost2010PropOp46
 70
     1
102
RTVSPost2010Prop47
 90
       50
102
RTVSPost2010PropOp47
 70
     1
102
RTVSPost2010Prop48
 90
       50
102
RTVSPost2010PropOp48
 70
     1
102
RTVSPost2010Prop49
280
     0
102
RTVSPost2010PropOp49
 70
     1
102
RTVSPost2010Prop50
 90
       50
102
RTVSPost2010PropOp50
 70
     1
102
RTVSPost2010Prop51ColorIndex
 90
      256
102
RTVSPost2010Prop51ColorRGB
 90
-16777216
102
RTVSPost2010PropOp51
 70
     0
102
RTVSPost2010Prop52
140
1.0
102
RTVSPost2010PropOp52
 70
     0
102
RTVSPost2010Prop53
 90
        2
102
RTVSPost2010PropOp53
 70
     1
102
RTVSPost2010Prop54
  1
strokes_ogs.tif
102
RTVSPost2010PropOp54
 70
     1
102
RTVSPost2010Prop55
280
     0
102
RTVSPost2010PropOp55
 70
     1
102
RTVSPost2010Prop56
140
1.0
102
RTVSPost2010PropOp56
 70
     1
102
RTVSPost2010Prop57
140
1.0
102
RTVSPost2010PropOp57
 70
     1
  0
XRECORD
  5
1C0
102
{ACAD_REACTORS
330
1BF
102
}
330
1BF
100
AcDbXrecord
280
     1
102
RTVSPropertyOp0
 70
     1
102
RTVSPropertyOp1
 70
     1
102
RTVSPropertyOp2
 70
     1
102
RTVSPropertyOp3
 70
     1
102
RTVSPropertyOp4
 70
     1
102
RTVSPropertyOp5
 70
     1
102
RTVSPropertyOp6
 70
     1
102
RTVSPropertyOp7
 70
     1
102
RTVSPropertyOp8
 70
     1
102
RTVSPropertyOp9
 70
     1
102
RTVSPropertyOp10
 70
     1
102
RTVSPropertyOp11
 70
     1
102
RTVSPropertyOp12
 70
     1
102
RTVSPropertyOp13
 70
     1
102
RTVSPropertyOp14
 70
     1
102
RTVSPropertyOp15
 70
     1
102
RTVSPropertyOp16
 70
     1
102
RTVSPropertyOp17
 70
     1
102
RTVSPropertyOp18
 70
     1
102
RTVSPropertyOp19
 70
     1
102
RTVSPropertyOp20
 70
     1
102
RTVSPropertyOp21
 70
     1
102
RTVSPropertyOp22
 70
     1
102
RTVSPropertyOp23
 70
     1
102
RTVSPropertyOp24
 70
     1
102
RTVSPropertyOp25
 70
     1
102
RTVSPropertyOp26
 70
     1
102
RTVSPropertyOp27
 70
     1
102
RTVSPropertyOp28
 70
     1
102
RTVSPropertyOp29
 70
     1
102
RTVSPropertyOp30
 70
     1
102
RTVSPropertyOp31
 70
     1
102
RTVSPropertyOp32
 70
     1
102
RTVSPropertyOp33
 70
     1
102
RTVSPropertyOp34
 70
     1
102
RTVSPropertyOp35
 70
     1
102
RTVSPropertyOp36
 70
     1
102
RTVSPropertyOp37
 70
     1
102
RTVSPropertyOp38
 70
     1
102
RTVSPropertyOp39
 70
     1
102
RTVSPropertyOp40
 70
     1
102
RTVSPropertyOp41
 70
     1
102
RTVSPropertyOp42
 70
     1
102
RTVSPropertyOp43
 70
     1
102
RTVSPropertyOp44
 70
     1
102
RTVSPropertyOp45
 70
     1
102
RTVSPropertyOp46
 70
     1
102
RTVSPropertyOp47
 70
     1
102
RTVSPropertyOp48
 70
     1
102
RTVSPropertyOp49
 70
     1
102
RTVSPropertyOp50
 70
     1
102
RTVSPropertyOp51
 70
     0
102
RTVSPropertyOp52
 70
     0
102
RTVSPropertyOp53
 70
     1
102
RTVSPropertyOp54
 70
     1
102
RTVSPropertyOp55
 70
     1
102
RTVSPropertyOp56
 70
     1
102
RTVSPropertyOp57
 70
     1
102
RTVSPost2010Prop28
280
     0
102
RTVSPost2010PropOp28
 70
     1
102
RTVSPost2010Prop29
280
     1
102
RTVSPost2010PropOp29
 70
     1
102
RTVSPost2010Prop30
280
     1
102
RTVSPost2010PropOp30
 70
     1
102
RTVSPost2010Prop31
280
     0
102
RTVSPost2010PropOp31
 70
     1
102
RTVSPost2010Prop32
280
     0
102
RTVSPost2010PropOp32
 70
     1
102
RTVSPost2010Prop33
280
     0
102
RTVSPost2010PropOp33
 70
     1
102
RTVSPost2010Prop34
280
     0
102
RTVSPost2010PropOp34
 70
     1
102
RTVSPost2010Prop35
280
     0
102
RTVSPost2010PropOp35
 70
     1
102
RTVSPost2010Prop36
280
     0
102
RTVSPost2010PropOp36
 70
     1
102
RTVSPost2010Prop37
 90
       50
102
RTVSPost2010PropOp37
 70
     1
102
RTVSPost2010Prop38
140
0.0
102
RTVSPost2010PropOp38
 70
     1
102
RTVSPost2010Prop39
140
1.0
102
RTVSPost2010PropOp39
 70
     1
102
RTVSPost2010Prop40
 90
        0
102
RTVSPost2010PropOp40
 70
     1
102
RTVSPost2010Prop41ColorIndex
 90
       18
102
RTVSPost2010Prop41ColorRGB
 90
        0
102
RTVSPost2010PropOp41
 70
     1
102
RTVSPost2010Prop42
 90
       50
102
RTVSPost2010PropOp42
 70
     1
102
RTVSPost2010Prop43
 90
        3
102
RTVSPost2010PropOp43
 70
     1
102
RTVSPost2010Prop44ColorIndex
 90
        5
102
RTVSPost2010Prop44ColorRGB
 90
      255
102
RTVSPost2010PropOp44
 70
     1
102
RTVSPost2010Prop45
280
     0
102
RTVSPost2010PropOp45
 70
     1
102
RTVSPost2010Prop46
 90
       50
102
RTVSPost2010PropOp46
 70
     1
102
RTVSPost2010Prop47
 90
       50
102
RTVSPost2010PropOp47
 70
     1
102
RTVSPost2010Prop48
 90
       50
102
RTVSPost2010PropOp48
 70
     1
102
RTVSPost2010Prop49
280
     0
102
RTVSPost2010PropOp49
 70
     1
102
RTVSPost2010Prop50
 90
       50
102
RTVSPost2010PropOp50
 70
     1
102
RTVSPost2010Prop51ColorIndex
 90
      256
102
RTVSPost2010Prop51ColorRGB
 90
-16777216
102
RTVSPost2010PropOp51
 70
     0
102
RTVSPost2010Prop52
140
1.0
102
RTVSPost2010PropOp52
 70
     0
102
RTVSPost2010Prop53
 90
        2
102
RTVSPost2010PropOp53
 70
     1
102
RTVSPost2010Prop54
  1
strokes_ogs.tif
102
RTVSPost2010PropOp54
 70
     1
102
RTVSPost2010Prop55
280
     0
102
RTVSPost2010PropOp55
 70
     1
102
RTVSPost2010Prop56
140
1.0
102
RTVSPost2010PropOp56
 70
     1
102
RTVSPost2010Prop57
140
1.0
102
RTVSPost2010PropOp57
 70
     1
  0
XRECORD
  5
1C2
102
{ACAD_REACTORS
330
1C1
102
}
330
1C1
100
AcDbXrecord
280
     1
102
RTVSPropertyOp0
 70
     1
102
RTVSPropertyOp1
 70
     1
102
RTVSPropertyOp2
 70
     1
102
RTVSPropertyOp3
 70
     1
102
RTVSPropertyOp4
 70
     1
102
RTVSPropertyOp5
 70
     1
102
RTVSPropertyOp6
 70
     1
102
RTVSPropertyOp7
 70
     1
102
RTVSPropertyOp8
 70
     1
102
RTVSPropertyOp9
 70
     1
102
RTVSPropertyOp10
 70
     1
102
RTVSPropertyOp11
 70
     1
102
RTVSPropertyOp12
 70
     1
102
RTVSPropertyOp13
 70
     1
102
RTVSPropertyOp14
 70
     1
102
RTVSPropertyOp15
 70
     1
102
RTVSPropertyOp16
 70
     1
102
RTVSPropertyOp17
 70
     1
102
RTVSPropertyOp18
 70
     1
102
RTVSPropertyOp19
 70
     1
102
RTVSPropertyOp20
 70
     1
102
RTVSPropertyOp21
 70
     1
102
RTVSPropertyOp22
 70
     1
102
RTVSPropertyOp23
 70
     1
102
RTVSPropertyOp24
 70
     1
102
RTVSPropertyOp25
 70
     1
102
RTVSPropertyOp26
 70
     1
102
RTVSPropertyOp27
 70
     1
102
RTVSPropertyOp28
 70
     1
102
RTVSPropertyOp29
 70
     1
102
RTVSPropertyOp30
 70
     1
102
RTVSPropertyOp31
 70
     1
102
RTVSPropertyOp32
 70
     1
102
RTVSPropertyOp33
 70
     1
102
RTVSPropertyOp34
 70
     1
102
RTVSPropertyOp35
 70
     1
102
RTVSPropertyOp36
 70
     1
102
RTVSPropertyOp37
 70
     1
102
RTVSPropertyOp38
 70
     1
102
RTVSPropertyOp39
 70
     1
102
RTVSPropertyOp40
 70
     1
102
RTVSPropertyOp41
 70
     1
102
RTVSPropertyOp42
 70
     1
102
RTVSPropertyOp43
 70
     1
102
RTVSPropertyOp44
 70
     1
102
RTVSPropertyOp45
 70
     1
102
RTVSPropertyOp46
 70
     1
102
RTVSPropertyOp47
 70
     1
102
RTVSPropertyOp48
 70
     1
102
RTVSPropertyOp49
 70
     1
102
RTVSPropertyOp50
 70
     1
102
RTVSPropertyOp51
 70
     0
102
RTVSPropertyOp52
 70
     0
102
RTVSPropertyOp53
 70
     1
102
RTVSPropertyOp54
 70
     1
102
RTVSPropertyOp55
 70
     1
102
RTVSPropertyOp56
 70
     1
102
RTVSPropertyOp57
 70
     1
102
RTVSPost2010Prop28
280
     0
102
RTVSPost2010PropOp28
 70
     1
102
RTVSPost2010Prop29
280
     1
102
RTVSPost2010PropOp29
 70
     1
102
RTVSPost2010Prop30
280
     1
102
RTVSPost2010PropOp30
 70
     1
102
RTVSPost2010Prop31
280
     0
102
RTVSPost2010PropOp31
 70
     1
102
RTVSPost2010Prop32
280
     0
102
RTVSPost2010PropOp32
 70
     1
102
RTVSPost2010Prop33
280
     0
102
RTVSPost2010PropOp33
 70
     1
102
RTVSPost2010Prop34
280
     0
102
RTVSPost2010PropOp34
 70
     1
102
RTVSPost2010Prop35
280
     0
102
RTVSPost2010PropOp35
 70
     1
102
RTVSPost2010Prop36
280
     0
102
RTVSPost2010PropOp36
 70
     1
102
RTVSPost2010Prop37
 90
       50
102
RTVSPost2010PropOp37
 70
     1
102
RTVSPost2010Prop38
140
0.0
102
RTVSPost2010PropOp38
 70
     1
102
RTVSPost2010Prop39
140
1.0
102
RTVSPost2010PropOp39
 70
     1
102
RTVSPost2010Prop40
 90
        0
102
RTVSPost2010PropOp40
 70
     1
102
RTVSPost2010Prop41ColorIndex
 90
       18
102
RTVSPost2010Prop41ColorRGB
 90
        0
102
RTVSPost2010PropOp41
 70
     1
102
RTVSPost2010Prop42
 90
       50
102
RTVSPost2010PropOp42
 70
     1
102
RTVSPost2010Prop43
 90
        3
102
RTVSPost2010PropOp43
 70
     1
102
RTVSPost2010Prop44ColorIndex
 90
        5
102
RTVSPost2010Prop44ColorRGB
 90
      255
102
RTVSPost2010PropOp44
 70
     1
102
RTVSPost2010Prop45
280
     0
102
RTVSPost2010PropOp45
 70
     1
102
RTVSPost2010Prop46
 90
       50
102
RTVSPost2010PropOp46
 70
     1
102
RTVSPost2010Prop47
 90
       50
102
RTVSPost2010PropOp47
 70
     1
102
RTVSPost2010Prop48
 90
       50
102
RTVSPost2010PropOp48
 70
     1
102
RTVSPost2010Prop49
280
     0
102
RTVSPost2010PropOp49
 70
     1
102
RTVSPost2010Prop50
 90
       50
102
RTVSPost2010PropOp50
 70
     1
102
RTVSPost2010Prop51ColorIndex
 90
      256
102
RTVSPost2010Prop51ColorRGB
 90
-16777216
102
RTVSPost2010PropOp51
 70
     0
102
RTVSPost2010Prop52
140
1.0
102
RTVSPost2010PropOp52
 70
     0
102
RTVSPost2010Prop53
 90
        2
102
RTVSPost2010PropOp53
 70
     1
102
RTVSPost2010Prop54
  1
strokes_ogs.tif
102
RTVSPost2010PropOp54
 70
     1
102
RTVSPost2010Prop55
280
     0
102
RTVSPost2010PropOp55
 70
     1
102
RTVSPost2010Prop56
140
1.0
102
RTVSPost2010PropOp56
 70
     1
102
RTVSPost2010Prop57
140
1.0
102
RTVSPost2010PropOp57
 70
     1
  0
XRECORD
  5
1B2
102
{ACAD_REACTORS
330
1B1
102
}
330
1B1
100
AcDbXrecord
280
     1
102
RTVSPropertyOp0
 70
     1
102
RTVSPropertyOp1
 70
     1
102
RTVSPropertyOp2
 70
     1
102
RTVSPropertyOp3
 70
     1
102
RTVSPropertyOp4
 70
     1
102
RTVSPropertyOp5
 70
     1
102
RTVSPropertyOp6
 70
     1
102
RTVSPropertyOp7
 70
     1
102
RTVSPropertyOp8
 70
     1
102
RTVSPropertyOp9
 70
     1
102
RTVSPropertyOp10
 70
     1
102
RTVSPropertyOp11
 70
     1
102
RTVSPropertyOp12
 70
     1
102
RTVSPropertyOp13
 70
     1
102
RTVSPropertyOp14
 70
     1
102
RTVSPropertyOp15
 70
     1
102
RTVSPropertyOp16
 70
     1
102
RTVSPropertyOp17
 70
     1
102
RTVSPropertyOp18
 70
     1
102
RTVSPropertyOp19
 70
     1
102
RTVSPropertyOp20
 70
     1
102
RTVSPropertyOp21
 70
     1
102
RTVSPropertyOp22
 70
     1
102
RTVSPropertyOp23
 70
     1
102
RTVSPropertyOp24
 70
     1
102
RTVSPropertyOp25
 70
     1
102
RTVSPropertyOp26
 70
     1
102
RTVSPropertyOp27
 70
     1
102
RTVSPropertyOp28
 70
     1
102
RTVSPropertyOp29
 70
     1
102
RTVSPropertyOp30
 70
     1
102
RTVSPropertyOp31
 70
     1
102
RTVSPropertyOp32
 70
     1
102
RTVSPropertyOp33
 70
     1
102
RTVSPropertyOp34
 70
     1
102
RTVSPropertyOp35
 70
     1
102
RTVSPropertyOp36
 70
     1
102
RTVSPropertyOp37
 70
     1
102
RTVSPropertyOp38
 70
     1
102
RTVSPropertyOp39
 70
     1
102
RTVSPropertyOp40
 70
     1
102
RTVSPropertyOp41
 70
     1
102
RTVSPropertyOp42
 70
     1
102
RTVSPropertyOp43
 70
     1
102
RTVSPropertyOp44
 70
     1
102
RTVSPropertyOp45
 70
     1
102
RTVSPropertyOp46
 70
     1
102
RTVSPropertyOp47
 70
     1
102
RTVSPropertyOp48
 70
     1
102
RTVSPropertyOp49
 70
     1
102
RTVSPropertyOp50
 70
     1
102
RTVSPropertyOp51
 70
     0
102
RTVSPropertyOp52
 70
     0
102
RTVSPropertyOp53
 70
     1
102
RTVSPropertyOp54
 70
     1
102
RTVSPropertyOp55
 70
     1
102
RTVSPropertyOp56
 70
     1
102
RTVSPropertyOp57
 70
     1
102
RTVSPost2010Prop28
280
     0
102
RTVSPost2010PropOp28
 70
     1
102
RTVSPost2010Prop29
280
     1
102
RTVSPost2010PropOp29
 70
     1
102
RTVSPost2010Prop30
280
     1
102
RTVSPost2010PropOp30
 70
     1
102
RTVSPost2010Prop31
280
     0
102
RTVSPost2010PropOp31
 70
     1
102
RTVSPost2010Prop32
280
     0
102
RTVSPost2010PropOp32
 70
     1
102
RTVSPost2010Prop33
280
     0
102
RTVSPost2010PropOp33
 70
     1
102
RTVSPost2010Prop34
280
     0
102
RTVSPost2010PropOp34
 70
     1
102
RTVSPost2010Prop35
280
     0
102
RTVSPost2010PropOp35
 70
     1
102
RTVSPost2010Prop36
280
     0
102
RTVSPost2010PropOp36
 70
     1
102
RTVSPost2010Prop37
 90
       50
102
RTVSPost2010PropOp37
 70
     1
102
RTVSPost2010Prop38
140
0.0
102
RTVSPost2010PropOp38
 70
     1
102
RTVSPost2010Prop39
140
1.0
102
RTVSPost2010PropOp39
 70
     1
102
RTVSPost2010Prop40
 90
        0
102
RTVSPost2010PropOp40
 70
     1
102
RTVSPost2010Prop41ColorIndex
 90
       18
102
RTVSPost2010Prop41ColorRGB
 90
        0
102
RTVSPost2010PropOp41
 70
     1
102
RTVSPost2010Prop42
 90
       50
102
RTVSPost2010PropOp42
 70
     1
102
RTVSPost2010Prop43
 90
        3
102
RTVSPost2010PropOp43
 70
     1
102
RTVSPost2010Prop44ColorIndex
 90
        5
102
RTVSPost2010Prop44ColorRGB
 90
      255
102
RTVSPost2010PropOp44
 70
     1
102
RTVSPost2010Prop45
280
     0
102
RTVSPost2010PropOp45
 70
     1
102
RTVSPost2010Prop46
 90
       50
102
RTVSPost2010PropOp46
 70
     1
102
RTVSPost2010Prop47
 90
       50
102
RTVSPost2010PropOp47
 70
     1
102
RTVSPost2010Prop48
 90
       50
102
RTVSPost2010PropOp48
 70
     1
102
RTVSPost2010Prop49
280
     0
102
RTVSPost2010PropOp49
 70
     1
102
RTVSPost2010Prop50
 90
       50
102
RTVSPost2010PropOp50
 70
     1
102
RTVSPost2010Prop51ColorIndex
 90
      256
102
RTVSPost2010Prop51ColorRGB
 90
-16777216
102
RTVSPost2010PropOp51
 70
     0
102
RTVSPost2010Prop52
140
1.0
102
RTVSPost2010PropOp52
 70
     0
102
RTVSPost2010Prop53
 90
        2
102
RTVSPost2010PropOp53
 70
     1
102
RTVSPost2010Prop54
  1
strokes_ogs.tif
102
RTVSPost2010PropOp54
 70
     1
102
RTVSPost2010Prop55
280
     0
102
RTVSPost2010PropOp55
 70
     1
102
RTVSPost2010Prop56
140
1.0
102
RTVSPost2010PropOp56
 70
     1
102
RTVSPost2010Prop57
140
1.0
102
RTVSPost2010PropOp57
 70
     1
  0
XRECORD
  5
1A4
102
{ACAD_REACTORS
330
1A3
102
}
330
1A3
100
AcDbXrecord
280
     1
102
RTVSPropertyOp0
 70
     1
102
RTVSPropertyOp1
 70
     1
102
RTVSPropertyOp2
 70
     1
102
RTVSPropertyOp3
 70
     1
102
RTVSPropertyOp4
 70
     1
102
RTVSPropertyOp5
 70
     1
102
RTVSPropertyOp6
 70
     1
102
RTVSPropertyOp7
 70
     1
102
RTVSPropertyOp8
 70
     1
102
RTVSPropertyOp9
 70
     1
102
RTVSPropertyOp10
 70
     1
102
RTVSPropertyOp11
 70
     1
102
RTVSPropertyOp12
 70
     1
102
RTVSPropertyOp13
 70
     1
102
RTVSPropertyOp14
 70
     1
102
RTVSPropertyOp15
 70
     1
102
RTVSPropertyOp16
 70
     1
102
RTVSPropertyOp17
 70
     1
102
RTVSPropertyOp18
 70
     1
102
RTVSPropertyOp19
 70
     1
102
RTVSPropertyOp20
 70
     1
102
RTVSPropertyOp21
 70
     1
102
RTVSPropertyOp22
 70
     1
102
RTVSPropertyOp23
 70
     1
102
RTVSPropertyOp24
 70
     1
102
RTVSPropertyOp25
 70
     1
102
RTVSPropertyOp26
 70
     1
102
RTVSPropertyOp27
 70
     1
102
RTVSPropertyOp28
 70
     1
102
RTVSPropertyOp29
 70
     1
102
RTVSPropertyOp30
 70
     1
102
RTVSPropertyOp31
 70
     1
102
RTVSPropertyOp32
 70
     1
102
RTVSPropertyOp33
 70
     1
102
RTVSPropertyOp34
 70
     1
102
RTVSPropertyOp35
 70
     1
102
RTVSPropertyOp36
 70
     1
102
RTVSPropertyOp37
 70
     1
102
RTVSPropertyOp38
 70
     1
102
RTVSPropertyOp39
 70
     1
102
RTVSPropertyOp40
 70
     1
102
RTVSPropertyOp41
 70
     1
102
RTVSPropertyOp42
 70
     1
102
RTVSPropertyOp43
 70
     1
102
RTVSPropertyOp44
 70
     1
102
RTVSPropertyOp45
 70
     1
102
RTVSPropertyOp46
 70
     1
102
RTVSPropertyOp47
 70
     1
102
RTVSPropertyOp48
 70
     1
102
RTVSPropertyOp49
 70
     1
102
RTVSPropertyOp50
 70
     1
102
RTVSPropertyOp51
 70
     0
102
RTVSPropertyOp52
 70
     0
102
RTVSPropertyOp53
 70
     1
102
RTVSPropertyOp54
 70
     1
102
RTVSPropertyOp55
 70
     1
102
RTVSPropertyOp56
 70
     1
102
RTVSPropertyOp57
 70
     1
102
RTVSPost2010Prop28
280
     0
102
RTVSPost2010PropOp28
 70
     1
102
RTVSPost2010Prop29
280
     1
102
RTVSPost2010PropOp29
 70
     1
102
RTVSPost2010Prop30
280
     1
102
RTVSPost2010PropOp30
 70
     1
102
RTVSPost2010Prop31
280
     0
102
RTVSPost2010PropOp31
 70
     1
102
RTVSPost2010Prop32
280
     0
102
RTVSPost2010PropOp32
 70
     1
102
RTVSPost2010Prop33
280
     0
102
RTVSPost2010PropOp33
 70
     1
102
RTVSPost2010Prop34
280
     0
102
RTVSPost2010PropOp34
 70
     1
102
RTVSPost2010Prop35
280
     0
102
RTVSPost2010PropOp35
 70
     1
102
RTVSPost2010Prop36
280
     0
102
RTVSPost2010PropOp36
 70
     1
102
RTVSPost2010Prop37
 90
       50
102
RTVSPost2010PropOp37
 70
     1
102
RTVSPost2010Prop38
140
0.0
102
RTVSPost2010PropOp38
 70
     1
102
RTVSPost2010Prop39
140
1.0
102
RTVSPost2010PropOp39
 70
     1
102
RTVSPost2010Prop40
 90
        0
102
RTVSPost2010PropOp40
 70
     1
102
RTVSPost2010Prop41ColorIndex
 90
       18
102
RTVSPost2010Prop41ColorRGB
 90
        0
102
RTVSPost2010PropOp41
 70
     1
102
RTVSPost2010Prop42
 90
       50
102
RTVSPost2010PropOp42
 70
     1
102
RTVSPost2010Prop43
 90
        3
102
RTVSPost2010PropOp43
 70
     1
102
RTVSPost2010Prop44ColorIndex
 90
        5
102
RTVSPost2010Prop44ColorRGB
 90
      255
102
RTVSPost2010PropOp44
 70
     1
102
RTVSPost2010Prop45
280
     0
102
RTVSPost2010PropOp45
 70
     1
102
RTVSPost2010Prop46
 90
       50
102
RTVSPost2010PropOp46
 70
     1
102
RTVSPost2010Prop47
 90
       50
102
RTVSPost2010PropOp47
 70
     1
102
RTVSPost2010Prop48
 90
       50
102
RTVSPost2010PropOp48
 70
     1
102
RTVSPost2010Prop49
280
     0
102
RTVSPost2010PropOp49
 70
     1
102
RTVSPost2010Prop50
 90
       50
102
RTVSPost2010PropOp50
 70
     1
102
RTVSPost2010Prop51ColorIndex
 90
      256
102
RTVSPost2010Prop51ColorRGB
 90
-16777216
102
RTVSPost2010PropOp51
 70
     0
102
RTVSPost2010Prop52
140
1.0
102
RTVSPost2010PropOp52
 70
     0
102
RTVSPost2010Prop53
 90
        2
102
RTVSPost2010PropOp53
 70
     1
102
RTVSPost2010Prop54
  1
strokes_ogs.tif
102
RTVSPost2010PropOp54
 70
     1
102
RTVSPost2010Prop55
280
     0
102
RTVSPost2010PropOp55
 70
     1
102
RTVSPost2010Prop56
140
1.0
102
RTVSPost2010PropOp56
 70
     1
102
RTVSPost2010Prop57
140
1.0
102
RTVSPost2010PropOp57
 70
     1
  0
XRECORD
  5
1C4
102
{ACAD_REACTORS
330
1C3
102
}
330
1C3
100
AcDbXrecord
280
     1
102
RTVSPropertyOp0
 70
     1
102
RTVSPropertyOp1
 70
     1
102
RTVSPropertyOp2
 70
     1
102
RTVSPropertyOp3
 70
     1
102
RTVSPropertyOp4
 70
     1
102
RTVSPropertyOp5
 70
     1
102
RTVSPropertyOp6
 70
     1
102
RTVSPropertyOp7
 70
     1
102
RTVSPropertyOp8
 70
     1
102
RTVSPropertyOp9
 70
     1
102
RTVSPropertyOp10
 70
     1
102
RTVSPropertyOp11
 70
     1
102
RTVSPropertyOp12
 70
     1
102
RTVSPropertyOp13
 70
     1
102
RTVSPropertyOp14
 70
     1
102
RTVSPropertyOp15
 70
     1
102
RTVSPropertyOp16
 70
     1
102
RTVSPropertyOp17
 70
     1
102
RTVSPropertyOp18
 70
     1
102
RTVSPropertyOp19
 70
     1
102
RTVSPropertyOp20
 70
     1
102
RTVSPropertyOp21
 70
     1
102
RTVSPropertyOp22
 70
     1
102
RTVSPropertyOp23
 70
     1
102
RTVSPropertyOp24
 70
     1
102
RTVSPropertyOp25
 70
     1
102
RTVSPropertyOp26
 70
     1
102
RTVSPropertyOp27
 70
     1
102
RTVSPropertyOp28
 70
     1
102
RTVSPropertyOp29
 70
     1
102
RTVSPropertyOp30
 70
     1
102
RTVSPropertyOp31
 70
     1
102
RTVSPropertyOp32
 70
     1
102
RTVSPropertyOp33
 70
     1
102
RTVSPropertyOp34
 70
     1
102
RTVSPropertyOp35
 70
     1
102
RTVSPropertyOp36
 70
     1
102
RTVSPropertyOp37
 70
     1
102
RTVSPropertyOp38
 70
     1
102
RTVSPropertyOp39
 70
     1
102
RTVSPropertyOp40
 70
     1
102
RTVSPropertyOp41
 70
     1
102
RTVSPropertyOp42
 70
     1
102
RTVSPropertyOp43
 70
     1
102
RTVSPropertyOp44
 70
     1
102
RTVSPropertyOp45
 70
     1
102
RTVSPropertyOp46
 70
     1
102
RTVSPropertyOp47
 70
     1
102
RTVSPropertyOp48
 70
     1
102
RTVSPropertyOp49
 70
     1
102
RTVSPropertyOp50
 70
     1
102
RTVSPropertyOp51
 70
     0
102
RTVSPropertyOp52
 70
     0
102
RTVSPropertyOp53
 70
     1
102
RTVSPropertyOp54
 70
     1
102
RTVSPropertyOp55
 70
     1
102
RTVSPropertyOp56
 70
     1
102
RTVSPropertyOp57
 70
     1
102
RTVSPost2010Prop28
280
     0
102
RTVSPost2010PropOp28
 70
     1
102
RTVSPost2010Prop29
280
     1
102
RTVSPost2010PropOp29
 70
     1
102
RTVSPost2010Prop30
280
     1
102
RTVSPost2010PropOp30
 70
     1
102
RTVSPost2010Prop31
280
     0
102
RTVSPost2010PropOp31
 70
     1
102
RTVSPost2010Prop32
280
     0
102
RTVSPost2010PropOp32
 70
     1
102
RTVSPost2010Prop33
280
     0
102
RTVSPost2010PropOp33
 70
     1
102
RTVSPost2010Prop34
280
     0
102
RTVSPost2010PropOp34
 70
     1
102
RTVSPost2010Prop35
280
     0
102
RTVSPost2010PropOp35
 70
     1
102
RTVSPost2010Prop36
280
     0
102
RTVSPost2010PropOp36
 70
     1
102
RTVSPost2010Prop37
 90
       50
102
RTVSPost2010PropOp37
 70
     1
102
RTVSPost2010Prop38
140
0.0
102
RTVSPost2010PropOp38
 70
     1
102
RTVSPost2010Prop39
140
1.0
102
RTVSPost2010PropOp39
 70
     1
102
RTVSPost2010Prop40
 90
        0
102
RTVSPost2010PropOp40
 70
     1
102
RTVSPost2010Prop41ColorIndex
 90
       18
102
RTVSPost2010Prop41ColorRGB
 90
        0
102
RTVSPost2010PropOp41
 70
     1
102
RTVSPost2010Prop42
 90
       50
102
RTVSPost2010PropOp42
 70
     1
102
RTVSPost2010Prop43
 90
        3
102
RTVSPost2010PropOp43
 70
     1
102
RTVSPost2010Prop44ColorIndex
 90
        5
102
RTVSPost2010Prop44ColorRGB
 90
      255
102
RTVSPost2010PropOp44
 70
     1
102
RTVSPost2010Prop45
280
     0
102
RTVSPost2010PropOp45
 70
     1
102
RTVSPost2010Prop46
 90
       50
102
RTVSPost2010PropOp46
 70
     1
102
RTVSPost2010Prop47
 90
       50
102
RTVSPost2010PropOp47
 70
     1
102
RTVSPost2010Prop48
 90
       50
102
RTVSPost2010PropOp48
 70
     1
102
RTVSPost2010Prop49
280
     0
102
RTVSPost2010PropOp49
 70
     1
102
RTVSPost2010Prop50
 90
       50
102
RTVSPost2010PropOp50
 70
     1
102
RTVSPost2010Prop51ColorIndex
 90
      256
102
RTVSPost2010Prop51ColorRGB
 90
-16777216
102
RTVSPost2010PropOp51
 70
     0
102
RTVSPost2010Prop52
140
1.0
102
RTVSPost2010PropOp52
 70
     0
102
RTVSPost2010Prop53
 90
        2
102
RTVSPost2010PropOp53
 70
     1
102
RTVSPost2010Prop54
  1
strokes_ogs.tif
102
RTVSPost2010PropOp54
 70
     1
102
RTVSPost2010Prop55
280
     0
102
RTVSPost2010PropOp55
 70
     1
102
RTVSPost2010Prop56
140
1.0
102
RTVSPost2010PropOp56
 70
     1
102
RTVSPost2010Prop57
140
1.0
102
RTVSPost2010PropOp57
 70
     1
  0
ENDSEC
  0
EOF
