  0
SECTION
  2
HEADER
  9
$ACADVER
  1
AC1015
  9
$ACADMAINTVER
 70
     6
  9
$DWGCODEPAGE
  3
ANSI_1252
  9
$INSBASE
 10
0.0
 20
0.0
 30
0.0
  9
$EXTMIN
 10
-109.9999999999891
 20
-421.9365133426072
 30
0.0
  9
$EXTMAX
 10
117.1734133292546
 20
36.8293607434773
 30
0.0
  9
$LIMMIN
 10
0.0
 20
0.0
  9
$LIMMAX
 10
12.0
 20
9.0
  9
$ORTHOMODE
 70
     0
  9
$REGENMODE
 70
     1
  9
$FILLMODE
 70
     1
  9
$QTEXTMODE
 70
     0
  9
$MIRRTEXT
 70
     1
  9
$LTSCALE
 40
1.0
  9
$ATTMODE
 70
     1
  9
$TEXTSIZE
 40
0.2
  9
$TRACEWID
 40
0.05
  9
$TEXTSTYLE
  7
Standard
  9
$CLAYER
  8
0
  9
$CELTYPE
  6
ByLayer
  9
$CECOLOR
 62
   256
  9
$CELTSCALE
 40
1.0
  9
$DISPSILH
 70
     0
  9
$DIMSCALE
 40
1.0
  9
$DIMASZ
 40
0.18
  9
$DIMEXO
 40
0.0625
  9
$DIMDLI
 40
0.38
  9
$DIMRND
 40
0.0
  9
$DIMDLE
 40
0.0
  9
$DIMEXE
 40
0.18
  9
$DIMTP
 40
0.0
  9
$DIMTM
 40
0.0
  9
$DIMTXT
 40
0.18
  9
$DIMCEN
 40
0.09
  9
$DIMTSZ
 40
0.0
  9
$DIMTOL
 70
     0
  9
$DIMLIM
 70
     0
  9
$DIMTIH
 70
     1
  9
$DIMTOH
 70
     1
  9
$DIMSE1
 70
     0
  9
$DIMSE2
 70
     0
  9
$DIMTAD
 70
     0
  9
$DIMZIN
 70
     0
  9
$DIMBLK
  1

  9
$DIMASO
 70
     1
  9
$DIMSHO
 70
     1
  9
$DIMPOST
  1

  9
$DIMAPOST
  1

  9
$DIMALT
 70
     0
  9
$DIMALTD
 70
     2
  9
$DIMALTF
 40
25.4
  9
$DIMLFAC
 40
1.0
  9
$DIMTOFL
 70
     0
  9
$DIMTVP
 40
0.0
  9
$DIMTIX
 70
     0
  9
$DIMSOXD
 70
     0
  9
$DIMSAH
 70
     0
  9
$DIMBLK1
  1

  9
$DIMBLK2
  1

  9
$DIMSTYLE
  2
Standard
  9
$DIMCLRD
 70
     0
  9
$DIMCLRE
 70
     0
  9
$DIMCLRT
 70
     0
  9
$DIMTFAC
 40
1.0
  9
$DIMGAP
 40
0.09
  9
$DIMJUST
 70
     0
  9
$DIMSD1
 70
     0
  9
$DIMSD2
 70
     0
  9
$DIMTOLJ
 70
     1
  9
$DIMTZIN
 70
     0
  9
$DIMALTZ
 70
     0
  9
$DIMALTTZ
 70
     0
  9
$DIMUPT
 70
     0
  9
$DIMDEC
 70
     4
  9
$DIMTDEC
 70
     4
  9
$DIMALTU
 70
     2
  9
$DIMALTTD
 70
     2
  9
$DIMTXSTY
  7
Standard
  9
$DIMAUNIT
 70
     0
  9
$DIMADEC
 70
     0
  9
$DIMALTRND
 40
0.0
  9
$DIMAZIN
 70
     0
  9
$DIMDSEP
 70
    46
  9
$DIMATFIT
 70
     3
  9
$DIMFRAC
 70
     0
  9
$DIMLDRBLK
  1

  9
$DIMLUNIT
 70
     2
  9
$DIMLWD
 70
    -2
  9
$DIMLWE
 70
    -2
  9
$DIMTMOVE
 70
     0
  9
$LUNITS
 70
     2
  9
$LUPREC
 70
     4
  9
$SKETCHINC
 40
0.1
  9
$FILLETRAD
 40
0.5
  9
$AUNITS
 70
     0
  9
$AUPREC
 70
     0
  9
$MENU
  1
.
  9
$ELEVATION
 40
0.0
  9
$PELEVATION
 40
0.0
  9
$THICKNESS
 40
0.0
  9
$LIMCHECK
 70
     0
  9
$CHAMFERA
 40
0.5
  9
$CHAMFERB
 40
0.5
  9
$CHAMFERC
 40
1.0
  9
$CHAMFERD
 40
0.0
  9
$SKPOLY
 70
     0
  9
$TDCREATE
 40
2454701.487474074
  9
$TDUCREATE
 40
2454701.404140741
  9
$TDUPDATE
 40
2454701.487474086
  9
$TDUUPDATE
 40
2454701.404140752
  9
$TDINDWG
 40
0.0000000116
  9
$TDUSRTIMER
 40
0.0000000116
  9
$USRTIMER
 70
     1
  9
$ANGBASE
 50
0.0
  9
$ANGDIR
 70
     0
  9
$PDMODE
 70
     0
  9
$PDSIZE
 40
0.0
  9
$PLINEWID
 40
0.0
  9
$SPLFRAME
 70
     0
  9
$SPLINETYPE
 70
     6
  9
$SPLINESEGS
 70
     8
  9
$HANDSEED
  5
1D0
  9
$SURFTAB1
 70
     6
  9
$SURFTAB2
 70
     6
  9
$SURFTYPE
 70
     6
  9
$SURFU
 70
     6
  9
$SURFV
 70
     6
  9
$UCSBASE
  2

  9
$UCSNAME
  2

  9
$UCSORG
 10
0.0
 20
0.0
 30
0.0
  9
$UCSXDIR
 10
1.0
 20
0.0
 30
0.0
  9
$UCSYDIR
 10
0.0
 20
1.0
 30
0.0
  9
$UCSORTHOREF
  2

  9
$UCSORTHOVIEW
 70
     0
  9
$UCSORGTOP
 10
0.0
 20
0.0
 30
0.0
  9
$UCSORGBOTTOM
 10
0.0
 20
0.0
 30
0.0
  9
$UCSORGLEFT
 10
0.0
 20
0.0
 30
0.0
  9
$UCSORGRIGHT
 10
0.0
 20
0.0
 30
0.0
  9
$UCSORGFRONT
 10
0.0
 20
0.0
 30
0.0
  9
$UCSORGBACK
 10
0.0
 20
0.0
 30
0.0
  9
$PUCSBASE
  2

  9
$PUCSNAME
  2

  9
$PUCSORG
 10
0.0
 20
0.0
 30
0.0
  9
$PUCSXDIR
 10
1.0
 20
0.0
 30
0.0
  9
$PUCSYDIR
 10
0.0
 20
1.0
 30
0.0
  9
$PUCSORTHOREF
  2

  9
$PUCSORTHOVIEW
 70
     0
  9
$PUCSORGTOP
 10
0.0
 20
0.0
 30
0.0
  9
$PUCSORGBOTTOM
 10
0.0
 20
0.0
 30
0.0
  9
$PUCSORGLEFT
 10
0.0
 20
0.0
 30
0.0
  9
$PUCSORGRIGHT
 10
0.0
 20
0.0
 30
0.0
  9
$PUCSORGFRONT
 10
0.0
 20
0.0
 30
0.0
  9
$PUCSORGBACK
 10
0.0
 20
0.0
 30
0.0
  9
$USERI1
 70
     0
  9
$USERI2
 70
     0
  9
$USERI3
 70
     0
  9
$USERI4
 70
     0
  9
$USERI5
 70
     0
  9
$USERR1
 40
15.5
  9
$USERR2
 40
0.0
  9
$USERR3
 40
0.0
  9
$USERR4
 40
0.0
  9
$USERR5
 40
0.0
  9
$WORLDVIEW
 70
     1
  9
$SHADEDGE
 70
     3
  9
$SHADEDIF
 70
    70
  9
$TILEMODE
 70
     1
  9
$MAXACTVP
 70
    64
  9
$PINSBASE
 10
0.0
 20
0.0
 30
0.0
  9
$PLIMCHECK
 70
     0
  9
$PEXTMIN
 10
1.00000000000000E+20
 20
1.00000000000000E+20
 30
1.00000000000000E+20
  9
$PEXTMAX
 10
-1.00000000000000E+20
 20
-1.00000000000000E+20
 30
-1.00000000000000E+20
  9
$PLIMMIN
 10
0.0
 20
0.0
  9
$PLIMMAX
 10
12.0
 20
9.0
  9
$UNITMODE
 70
     0
  9
$VISRETAIN
 70
     1
  9
$PLINEGEN
 70
     0
  9
$PSLTSCALE
 70
     1
  9
$TREEDEPTH
 70
  3020
  9
$CMLSTYLE
  2
Standard
  9
$CMLJUST
 70
     0
  9
$CMLSCALE
 40
1.0
  9
$PROXYGRAPHICS
 70
     1
  9
$MEASUREMENT
 70
     1
  9
$CELWEIGHT
370
    -1
  9
$ENDCAPS
280
     0
  9
$JOINSTYLE
280
     0
  9
$LWDISPLAY
290
     0
  9
$INSUNITS
 70
     1
  9
$HYPERLINKBASE
  1

  9
$STYLESHEET
  1

  9
$XEDIT
290
     1
  9
$CEPSNTYPE
380
     0
  9
$PSTYLEMODE
290
     1
  9
$FINGERPRINTGUID
  2
{B2123BB2-F72B-416D-A379-B1B8EB48316A}
  9
$VERSIONGUID
  2
{FAEB1C32-E019-11D5-929B-00C0DF256EC4}
  9
$EXTNAMES
290
     1
  9
$PSVPSCALE
 40
0.0
  9
$OLESTARTUP
290
     0
  0
ENDSEC
  0
SECTION
  2
CLASSES
  0
CLASS
  1
ACDBDICTIONARYWDFLT
  2
AcDbDictionaryWithDefault
  3
ObjectDBX Classes
 90
        0
280
     0
281
     0
  0
CLASS
  1
VISUALSTYLE
  2
AcDbVisualStyle
  3
ObjectDBX Classes
 90
     4095
280
     0
281
     0
  0
CLASS
  1

  2
exOdDbCircle
  3

 90
        0
280
     0
281
     1
  0
CLASS
  1

  2
exOdDbSpline
  3

 90
        0
280
     0
281
     1
  0
CLASS
  1
ACDBPLACEHOLDER
  2
AcDbPlaceHolder
  3
ObjectDBX Classes
 90
        0
280
     0
281
     0
  0
CLASS
  1
LAYOUT
  2
AcDbLayout
  3
ObjectDBX Classes
 90
        0
280
     0
281
     0
  0
ENDSEC
  0
SECTION
  2
TABLES
  0
TABLE
  2
VPORT
  5
8
330
0
100
AcDbSymbolTable
 70
     1
  0
VPORT
  5
29
330
8
100
AcDbSymbolTableRecord
100
AcDbViewportTableRecord
  2
*Active
 70
     0
 10
0.0
 20
0.0
 11
1.0
 21
1.0
 12
3.58670666463275
 22
-192.553576299565
 13
0.0
 23
0.0
 14
0.5
 24
0.5
 15
0.5
 25
0.5
 16
0.0
 26
0.0
 36
1.0
 17
0.0
 27
0.0
 37
0.0
 40
504.642461494693
 41
1.60267857142857
 42
50.0
 43
0.0
 44
0.0
 50
0.0
 51
0.0
 71
     0
 72
   100
 73
     1
 74
     3
 75
     0
 76
     0
 77
     0
 78
     0
281
     0
 65
     1
110
0.0
120
0.0
130
0.0
111
1.0
121
0.0
131
0.0
112
0.0
122
1.0
132
0.0
 79
     0
146
0.0
  0
ENDTAB
  0
TABLE
  2
LTYPE
  5
5
330
0
100
AcDbSymbolTable
 70
     8
  0
LTYPE
  5
14
330
5
100
AcDbSymbolTableRecord
100
AcDbLinetypeTableRecord
  2
ByBlock
 70
     0
  3

 72
    65
 73
     0
 40
0.0
  0
LTYPE
  5
15
330
5
100
AcDbSymbolTableRecord
100
AcDbLinetypeTableRecord
  2
ByLayer
 70
     0
  3

 72
    65
 73
     0
 40
0.0
  0
LTYPE
  5
16
330
5
100
AcDbSymbolTableRecord
100
AcDbLinetypeTableRecord
  2
Continuous
 70
     0
  3
Solid line
 72
    65
 73
     0
 40
0.0
  0
LTYPE
  5
3B
330
5
100
AcDbSymbolTableRecord
100
AcDbLinetypeTableRecord
  2
DASHED
 70
     0
  3
Dashed
 72
    65
 73
     2
 40
15.0
 49
7.0
 74
     0
 49
-8.0
 74
     0
  0
LTYPE
  5
3C
330
5
100
AcDbSymbolTableRecord
100
AcDbLinetypeTableRecord
  2
DOTTED
 70
     0
  3
Dotted
 72
    65
 73
     2
 40
1.0
 49
0.0
 74
     0
 49
-1.0
 74
     0
  0
LTYPE
  5
3D
330
5
100
AcDbSymbolTableRecord
100
AcDbLinetypeTableRecord
  2
DOT_CENTER
 70
     0
  3
Dot_Center
 72
    65
 73
     4
 40
14.0
 49
12.0
 74
     0
 49
-1.0
 74
     0
 49
0.0
 74
     0
 49
-1.0
 74
     0
  0
LTYPE
  5
3E
330
5
100
AcDbSymbolTableRecord
100
AcDbLinetypeTableRecord
  2
LONG_DASHED
 70
     0
  3
Long_Dashed
 72
    65
 73
     2
 40
15.0
 49
10.0
 74
     0
 49
-5.0
 74
     0
  0
LTYPE
  5
3F
330
5
100
AcDbSymbolTableRecord
100
AcDbLinetypeTableRecord
  2
DASH_CENTER
 70
     0
  3
Dash_Center
 72
    65
 73
     4
 40
14.0
 49
11.0
 74
     0
 49
-1.0
 74
     0
 49
1.0
 74
     0
 49
-1.0
 74
     0
  0
LTYPE
  5
40
330
5
100
AcDbSymbolTableRecord
100
AcDbLinetypeTableRecord
  2
PHANTOM
 70
     0
  3
Phantom
 72
    65
 73
     6
 40
13.0
 49
10.0
 74
     0
 49
-1.0
 74
     0
 49
0.0
 74
     0
 49
-1.0
 74
     0
 49
0.0
 74
     0
 49
-1.0
 74
     0
  0
LTYPE
  5
41
330
5
100
AcDbSymbolTableRecord
100
AcDbLinetypeTableRecord
  2
CENTER_DASH_DASH
 70
     0
  3
Center_Dash_Dash
 72
    65
 73
     6
 40
14.0
 49
9.0
 74
     0
 49
-1.0
 74
     0
 49
1.0
 74
     0
 49
-1.0
 74
     0
 49
1.0
 74
     0
 49
-1.0
 74
     0
  0
ENDTAB
  0
TABLE
  2
LAYER
  5
2
330
0
100
AcDbSymbolTable
 70
     2
  0
LAYER
  5
10
330
2
100
AcDbSymbolTableRecord
100
AcDbLayerTableRecord
  2
0
 70
     0
 62
     7
  6
Continuous
370
    -3
390
F
  0
LAYER
  5
42
330
2
100
AcDbSymbolTableRecord
100
AcDbLayerTableRecord
  2
1
 70
     0
 62
     7
  6
Continuous
370
    -3
390
F
  0
ENDTAB
  0
TABLE
  2
STYLE
  5
3
330
0
100
AcDbSymbolTable
 70
     2
  0
STYLE
  5
11
330
3
100
AcDbSymbolTableRecord
100
AcDbTextStyleTableRecord
  2
Standard
 70
     0
 40
0.0
 41
1.0
 50
0.0
 71
     0
 42
0.2
  3
txt
  4

  0
STYLE
  5
17B
330
3
100
AcDbSymbolTableRecord
100
AcDbTextStyleTableRecord
  2
CONVERTER_11
 70
     0
 40
0.0
 41
0.9
 50
0.0
 71
     0
 42
0.2
  3
txt.shx
  4

  0
ENDTAB
  0
TABLE
  2
VIEW
  5
6
330
0
100
AcDbSymbolTable
 70
     0
  0
ENDTAB
  0
TABLE
  2
UCS
  5
7
330
0
100
AcDbSymbolTable
 70
     0
  0
ENDTAB
  0
TABLE
  2
APPID
  5
9
330
0
100
AcDbSymbolTable
 70
     1
  0
APPID
  5
12
330
9
100
AcDbSymbolTableRecord
100
AcDbRegAppTableRecord
  2
ACAD
 70
     0
  0
ENDTAB
  0
TABLE
  2
DIMSTYLE
  5
A
330
0
100
AcDbSymbolTable
 70
     9
100
AcDbDimStyleTable
  0
DIMSTYLE
105
27
330
A
100
AcDbSymbolTableRecord
100
AcDbDimStyleTableRecord
  2
Standard
 70
     0
340
11
  0
DIMSTYLE
105
17F
102
{ACAD_REACTORS
330
180
102
}
330
A
100
AcDbSymbolTableRecord
100
AcDbDimStyleTableRecord
  2
ME10_DIM_10
 70
     0
  3
Ø<>
 41
7.0
 42
0.0
 44
2.0
 73
     0
 74
     0
 77
     1
 78
     8
140
7.0
147
2.0
172
     1
173
     1
176
     4
177
     4
178
     1
271
     2
340
17B
  0
DIMSTYLE
105
18B
102
{ACAD_REACTORS
330
18C
102
}
330
A
100
AcDbSymbolTableRecord
100
AcDbDimStyleTableRecord
  2
ME10_DIM_11
 70
     0
  3
DN<>
 41
7.0000000000001
 42
0.0
 44
2.0
 73
     0
 74
     0
 77
     1
 78
     8
140
7.0000000000001
147
2.0
172
     1
173
     1
176
     4
177
     4
178
     1
271
     2
340
17B
  0
DIMSTYLE
105
196
102
{ACAD_REACTORS
330
197
102
}
330
A
100
AcDbSymbolTableRecord
100
AcDbDimStyleTableRecord
  2
ME10_DIM_12
 70
     0
  3
DN<>
 41
7.0000000000001
 42
0.0
 44
2.0
 73
     0
 74
     0
 77
     1
 78
     8
140
7.0000000000001
147
2.0
172
     1
173
     1
176
     4
177
     4
178
     1
271
     2
340
17B
  0
DIMSTYLE
105
1A1
102
{ACAD_REACTORS
330
1A2
102
}
330
A
100
AcDbSymbolTableRecord
100
AcDbDimStyleTableRecord
  2
ME10_DIM_13
 70
     0
  3
DN<>
 41
7.0000000000001
 42
0.0
 44
2.0
 73
     0
 74
     0
 77
     1
 78
     8
140
7.0000000000001
147
2.0
172
     1
173
     1
176
     4
177
     4
178
     1
271
     2
340
17B
  0
DIMSTYLE
105
1AC
102
{ACAD_REACTORS
330
1AD
102
}
330
A
100
AcDbSymbolTableRecord
100
AcDbDimStyleTableRecord
  2
ME10_DIM_14
 70
     0
  3
Ø<>
 41
7.0
 42
0.0
 44
2.0
 73
     0
 74
     0
 77
     1
 78
     8
140
7.0
147
2.0
172
     1
173
     1
176
     4
177
     4
178
     1
271
     2
340
17B
  0
DIMSTYLE
105
1B7
102
{ACAD_REACTORS
330
1B8
102
}
330
A
100
AcDbSymbolTableRecord
100
AcDbDimStyleTableRecord
  2
ME10_DIM_15
 70
     0
 41
7.0000000000001
 42
0.0
 44
2.0
 73
     0
 74
     0
 77
     1
 78
     8
140
7.0000000000001
147
2.0
172
     1
173
     1
176
     4
177
     4
178
     1
271
     2
340
17B
  0
DIMSTYLE
105
1C2
102
{ACAD_REACTORS
330
1C3
102
}
330
A
100
AcDbSymbolTableRecord
100
AcDbDimStyleTableRecord
  2
ME10_DIM_16
 70
     0
 41
7.0000000000001
 42
0.0
 44
2.0
 73
     0
 74
     0
 77
     1
 78
     8
140
7.0000000000001
147
2.0
172
     1
173
     1
176
     4
177
     4
178
     1
271
     2
340
17B
  0
DIMSTYLE
105
1CD
102
{ACAD_REACTORS
330
1CE
102
}
330
A
100
AcDbSymbolTableRecord
100
AcDbDimStyleTableRecord
  2
ME10_DIM_17
 70
     0
 41
7.0000000000001
 42
0.0
 44
2.0
 73
     0
 74
     0
 77
     1
 78
     8
140
7.0000000000001
147
2.0
172
     1
173
     1
176
     4
177
     4
178
     1
271
     0
340
17B
  0
ENDTAB
  0
TABLE
  2
BLOCK_RECORD
  5
1
330
0
100
AcDbSymbolTable
 70
    11
  0
BLOCK_RECORD
  5
1F
330
1
100
AcDbSymbolTableRecord
100
AcDbBlockTableRecord
  2
*Model_Space
340
22
  0
BLOCK_RECORD
  5
1B
330
1
100
AcDbSymbolTableRecord
100
AcDbBlockTableRecord
  2
*Paper_Space
340
1E
  0
BLOCK_RECORD
  5
23
330
1
100
AcDbSymbolTableRecord
100
AcDbBlockTableRecord
  2
*Paper_Space0
340
26
  0
BLOCK_RECORD
  5
43
330
1
100
AcDbSymbolTableRecord
100
AcDbBlockTableRecord
  2
10646-310N_Ablaufkoerper
340
0
102
{BLKREFS
331
49
102
}
  0
BLOCK_RECORD
  5
46
330
1
100
AcDbSymbolTableRecord
100
AcDbBlockTableRecord
  2
HL_310N_Koerper
340
0
102
{BLKREFS
331
4A
102
}
  0
BLOCK_RECORD
  5
175
330
1
100
AcDbSymbolTableRecord
100
AcDbBlockTableRecord
  2
*D3
340
0
  0
BLOCK_RECORD
  5
181
330
1
100
AcDbSymbolTableRecord
100
AcDbBlockTableRecord
  2
*D4
340
0
  0
BLOCK_RECORD
  5
18D
330
1
100
AcDbSymbolTableRecord
100
AcDbBlockTableRecord
  2
*D5
340
0
  0
BLOCK_RECORD
  5
198
330
1
100
AcDbSymbolTableRecord
100
AcDbBlockTableRecord
  2
*D6
340
0
  0
BLOCK_RECORD
  5
1A3
330
1
100
AcDbSymbolTableRecord
100
AcDbBlockTableRecord
  2
*D7
340
0
  0
BLOCK_RECORD
  5
1AE
330
1
100
AcDbSymbolTableRecord
100
AcDbBlockTableRecord
  2
*D8
340
0
  0
BLOCK_RECORD
  5
1B9
330
1
100
AcDbSymbolTableRecord
100
AcDbBlockTableRecord
  2
*D9
340
0
  0
BLOCK_RECORD
  5
1C4
330
1
100
AcDbSymbolTableRecord
100
AcDbBlockTableRecord
  2
*D10
340
0
  0
ENDTAB
  0
ENDSEC
  0
SECTION
  2
BLOCKS
  0
BLOCK
  5
20
330
1F
100
AcDbEntity
  8
0
100
AcDbBlockBegin
  2
*Model_Space
 70
     0
 71
     0
 10
0.0
 20
0.0
 30
0.0
  3
*Model_Space
  1

  0
ENDBLK
  5
21
330
1F
100
AcDbEntity
  8
0
100
AcDbBlockEnd
  0
BLOCK
  5
1C
330
1B
100
AcDbEntity
 67
     1
  8
0
100
AcDbBlockBegin
  2
*Paper_Space
 70
     0
 71
     0
 10
0.0
 20
0.0
 30
0.0
  3
*Paper_Space
  1

  0
ENDBLK
  5
1D
330
1B
100
AcDbEntity
 67
     1
  8
0
100
AcDbBlockEnd
  0
BLOCK
  5
24
330
23
100
AcDbEntity
  8
0
100
AcDbBlockBegin
  2
*Paper_Space0
 70
     0
 71
     0
 10
0.0
 20
0.0
 30
0.0
  3
*Paper_Space0
  1

  0
ENDBLK
  5
25
330
23
100
AcDbEntity
  8
0
100
AcDbBlockEnd
  0
BLOCK
  5
44
330
43
100
AcDbEntity
  8
0
100
AcDbBlockBegin
  2
10646-310N_Ablaufkoerper
 70
     0
 71
     0
 10
-99.99999999998909
 20
-411.9365133426072
 30
0.0
  3
10646-310N_Ablaufkoerper
  1

  0
LINE
  5
4B
330
43
100
AcDbEntity
  8
1
  6
DOT_CENTER
 62
     2
100
AcDbLine
 10
36.5
 20
-246.7564549295821
 30
0.0
 11
36.5
 21
-250.6768628031241
 31
0.0
  0
LINE
  5
4C
330
43
100
AcDbEntity
  8
1
  6
DOT_CENTER
 62
     2
100
AcDbLine
 10
38.460203936771
 20
-248.7166588663531
 30
0.0
 11
34.53979606322901
 21
-248.7166588663531
 31
0.0
  0
LINE
  5
4D
330
43
100
AcDbEntity
  8
1
  6
DOT_CENTER
 62
     2
100
AcDbLine
 10
-36.5
 20
-246.7564549295821
 30
0.0
 11
-36.5
 21
-250.6768628031241
 31
0.0
  0
LINE
  5
4E
330
43
100
AcDbEntity
  8
1
  6
DOT_CENTER
 62
     2
100
AcDbLine
 10
-34.53979606322901
 20
-248.7166588663531
 30
0.0
 11
-38.460203936771
 21
-248.7166588663531
 31
0.0
  0
LINE
  5
4F
330
43
100
AcDbEntity
  8
1
  6
DOT_CENTER
 62
     2
100
AcDbLine
 10
-73.0
 20
-309.9763094058471
 30
0.0
 11
-73.0
 21
-313.8967172793891
 31
0.0
  0
LINE
  5
50
330
43
100
AcDbEntity
  8
1
  6
DOT_CENTER
 62
     2
100
AcDbLine
 10
-71.039796063229
 20
-311.9365133426181
 30
0.0
 11
-74.960203936771
 21
-311.9365133426181
 31
0.0
  0
LINE
  5
51
330
43
100
AcDbEntity
  8
1
  6
DOT_CENTER
 62
     2
100
AcDbLine
 10
73.0
 20
-309.9763094058471
 30
0.0
 11
73.0
 21
-313.8967172793891
 31
0.0
  0
LINE
  5
52
330
43
100
AcDbEntity
  8
1
  6
DOT_CENTER
 62
     2
100
AcDbLine
 10
74.960203936771
 20
-311.9365133426181
 30
0.0
 11
71.039796063229
 21
-311.9365133426181
 31
0.0
  0
LINE
  5
53
330
43
100
AcDbEntity
  8
1
  6
DOT_CENTER
 62
     2
100
AcDbLine
 10
36.5
 20
-373.1961638821122
 30
0.0
 11
36.5
 21
-377.1165717556542
 31
0.0
  0
LINE
  5
54
330
43
100
AcDbEntity
  8
1
  6
DOT_CENTER
 62
     2
100
AcDbLine
 10
38.460203936771
 20
-375.1563678188832
 30
0.0
 11
34.53979606322901
 21
-375.1563678188832
 31
0.0
  0
LINE
  5
55
330
43
100
AcDbEntity
  8
1
  6
DOT_CENTER
 62
     2
100
AcDbLine
 10
-36.5
 20
-373.1961638821122
 30
0.0
 11
-36.5
 21
-377.1165717556542
 31
0.0
  0
LINE
  5
56
330
43
100
AcDbEntity
  8
1
  6
DOT_CENTER
 62
     2
100
AcDbLine
 10
-34.53979606322901
 20
-375.1563678188832
 30
0.0
 11
-38.460203936771
 21
-375.1563678188832
 31
0.0
  0
LINE
  5
57
330
43
100
AcDbEntity
  8
1
  6
DOT_CENTER
 62
     2
100
AcDbLine
 10
0.0
 20
-201.936513342629
 30
0.0
 11
0.0
 21
-421.9365133426072
 31
0.0
  0
LINE
  5
58
330
43
100
AcDbEntity
  8
1
  6
DOT_CENTER
 62
     2
100
AcDbLine
 10
109.9999999999891
 20
-311.9365133426181
 30
0.0
 11
-109.9999999999891
 21
-311.9365133426181
 31
0.0
  0
LINE
  5
59
330
43
100
AcDbEntity
  8
0
  6
Continuous
 62
     3
100
AcDbLine
 10
-2.42061459138131
 20
-368.9063167842578
 30
0.0
 11
-1.93649167310287
 21
-368.7813167842578
 31
0.0
  0
LINE
  5
5A
330
43
100
AcDbEntity
  8
0
  6
Continuous
 62
     3
100
AcDbLine
 10
-1.93649167310287
 20
-368.7813167842578
 30
0.0
 11
-1.93649167310287
 21
-368.2813167842578
 31
0.0
  0
LINE
  5
5B
330
43
100
AcDbEntity
  8
0
  6
Continuous
 62
     7
100
AcDbLine
 10
1.93649167310286
 20
-368.2813167842578
 30
0.0
 11
-1.93649167310287
 21
-368.2813167842578
 31
0.0
  0
LINE
  5
5C
330
43
100
AcDbEntity
  8
0
  6
Continuous
 62
     3
100
AcDbLine
 10
1.93649167310286
 20
-368.7813167842578
 30
0.0
 11
-1.93649167310287
 21
-368.7813167842578
 31
0.0
  0
LINE
  5
5D
330
43
100
AcDbEntity
  8
0
  6
Continuous
 62
     3
100
AcDbLine
 10
2.4206145913813
 20
-368.9063167842578
 30
0.0
 11
1.93649167310286
 21
-368.7813167842578
 31
0.0
  0
LINE
  5
5E
330
43
100
AcDbEntity
  8
0
  6
Continuous
 62
     3
100
AcDbLine
 10
1.93649167310286
 20
-368.7813167842578
 30
0.0
 11
1.93649167310286
 21
-368.2813167842578
 31
0.0
  0
LINE
  5
5F
330
43
100
AcDbEntity
  8
0
  6
Continuous
 62
     7
100
AcDbLine
 10
2.5
 20
-367.1247740828403
 30
0.0
 11
2.5
 21
-363.8767705301398
 31
0.0
  0
LINE
  5
60
330
43
100
AcDbEntity
  8
0
  6
Continuous
 62
     7
100
AcDbLine
 10
55.18826074022218
 20
-309.4365133426181
 30
0.0
 11
51.94025718752164
 21
-309.4365133426181
 31
0.0
  0
LINE
  5
61
330
43
100
AcDbEntity
  8
0
  6
Continuous
 62
     7
100
AcDbLine
 10
51.94025718752164
 20
-314.4365133426181
 30
0.0
 11
55.18826074022218
 21
-314.4365133426181
 31
0.0
  0
LINE
  5
62
330
43
100
AcDbEntity
  8
0
  6
Continuous
 62
     7
100
AcDbLine
 10
34.95954112090112
 20
-350.4315883694544
 30
0.0
 11
37.25622645833573
 21
-352.728273706889
 31
0.0
  0
LINE
  5
63
330
43
100
AcDbEntity
  8
0
  6
Continuous
 62
     7
100
AcDbLine
 10
40.79176036427089
 20
-349.1927398009539
 30
0.0
 11
38.49507502683628
 21
-346.8960544635193
 31
0.0
  0
LINE
  5
64
330
43
100
AcDbEntity
  8
0
  6
Continuous
 62
     3
100
AcDbLine
 10
50.19728969014614
 20
-285.1911626049223
 30
0.0
 11
49.76427698825137
 21
-285.4411626049223
 31
0.0
  0
LINE
  5
65
330
43
100
AcDbEntity
  8
0
  6
Continuous
 62
     3
100
AcDbLine
 10
48.12698973337683
 20
-281.3552978928929
 30
0.0
 11
48.26079801704327
 21
-281.8370606386743
 31
0.0
  0
LINE
  5
66
330
43
100
AcDbEntity
  8
0
  6
Continuous
 62
     3
100
AcDbLine
 10
48.26079801704327
 20
-281.8370606386743
 30
0.0
 11
47.8277853151485
 21
-282.0870606386743
 31
0.0
  0
LINE
  5
67
330
43
100
AcDbEntity
  8
0
  6
Continuous
 62
     3
100
AcDbLine
 10
48.26079801704327
 20
-281.8370606386743
 30
0.0
 11
50.19728969014614
 21
-285.1911626049223
 31
0.0
  0
LINE
  5
68
330
43
100
AcDbEntity
  8
0
  6
Continuous
 62
     7
100
AcDbLine
 10
47.8277853151485
 20
-282.0870606386743
 30
0.0
 11
49.76427698825137
 21
-285.4411626049223
 31
0.0
  0
LINE
  5
69
330
43
100
AcDbEntity
  8
0
  6
Continuous
 62
     3
100
AcDbLine
 10
50.5476043247545
 20
-285.5479253507037
 30
0.0
 11
50.19728969014614
 21
-285.1911626049223
 31
0.0
  0
LINE
  5
6A
330
43
100
AcDbEntity
  8
0
  6
Continuous
 62
     3
100
AcDbLine
 10
-48.26079801704327
 20
-281.8370606386743
 30
0.0
 11
-47.8277853151485
 21
-282.0870606386743
 31
0.0
  0
LINE
  5
6B
330
43
100
AcDbEntity
  8
0
  6
Continuous
 62
     3
100
AcDbLine
 10
-50.5476043247545
 20
-285.5479253507037
 30
0.0
 11
-50.19728969014614
 21
-285.1911626049223
 31
0.0
  0
LINE
  5
6C
330
43
100
AcDbEntity
  8
0
  6
Continuous
 62
     3
100
AcDbLine
 10
-50.19728969014614
 20
-285.1911626049223
 30
0.0
 11
-49.76427698825137
 21
-285.4411626049223
 31
0.0
  0
LINE
  5
6D
330
43
100
AcDbEntity
  8
0
  6
Continuous
 62
     3
100
AcDbLine
 10
-50.19728969014614
 20
-285.1911626049223
 30
0.0
 11
-48.26079801704327
 21
-281.8370606386743
 31
0.0
  0
LINE
  5
6E
330
43
100
AcDbEntity
  8
0
  6
Continuous
 62
     7
100
AcDbLine
 10
-49.76427698825137
 20
-285.4411626049223
 30
0.0
 11
-47.8277853151485
 21
-282.0870606386743
 31
0.0
  0
LINE
  5
6F
330
43
100
AcDbEntity
  8
0
  6
Continuous
 62
     3
100
AcDbLine
 10
-48.12698973337683
 20
-281.3552978928929
 30
0.0
 11
-48.26079801704327
 21
-281.8370606386743
 31
0.0
  0
LINE
  5
70
330
43
100
AcDbEntity
  8
0
  6
Continuous
 62
     7
100
AcDbLine
 10
2.5
 20
-259.9962561550965
 30
0.0
 11
2.5
 21
-256.748252602396
 31
0.0
  0
LINE
  5
71
330
43
100
AcDbEntity
  8
0
  6
Continuous
 62
     7
100
AcDbLine
 10
37.25622645833573
 20
-271.1447529783472
 30
0.0
 11
34.95954112090112
 21
-273.4414383157819
 31
0.0
  0
LINE
  5
72
330
43
100
AcDbEntity
  8
0
  6
Continuous
 62
     7
100
AcDbLine
 10
-40.79176036427089
 20
-274.6802868842824
 30
0.0
 11
-38.49507502683628
 21
-276.976972221717
 31
0.0
  0
LINE
  5
73
330
43
100
AcDbEntity
  8
0
  6
Continuous
 62
     7
100
AcDbLine
 10
-34.95954112090112
 20
-273.4414383157819
 30
0.0
 11
-37.25622645833573
 21
-271.1447529783472
 31
0.0
  0
LINE
  5
74
330
43
100
AcDbEntity
  8
0
  6
Continuous
 62
     7
100
AcDbLine
 10
-2.5
 20
-256.748252602396
 30
0.0
 11
-2.5
 21
-259.9962561550965
 31
0.0
  0
LINE
  5
75
330
43
100
AcDbEntity
  8
0
  6
Continuous
 62
     7
100
AcDbLine
 10
38.49507502683628
 20
-276.976972221717
 30
0.0
 11
40.79176036427089
 21
-274.6802868842824
 31
0.0
  0
LINE
  5
76
330
43
100
AcDbEntity
  8
0
  6
Continuous
 62
     7
100
AcDbLine
 10
-38.49507502683628
 20
-346.8960544635193
 30
0.0
 11
-40.79176036427089
 21
-349.1927398009539
 31
0.0
  0
LINE
  5
77
330
43
100
AcDbEntity
  8
0
  6
Continuous
 62
     7
100
AcDbLine
 10
-55.18826074022218
 20
-314.4365133426181
 30
0.0
 11
-51.94025718752164
 21
-314.4365133426181
 31
0.0
  0
LINE
  5
78
330
43
100
AcDbEntity
  8
0
  6
Continuous
 62
     7
100
AcDbLine
 10
-51.94025718752164
 20
-309.4365133426181
 30
0.0
 11
-55.18826074022218
 21
-309.4365133426181
 31
0.0
  0
LINE
  5
79
330
43
100
AcDbEntity
  8
0
  6
Continuous
 62
     7
100
AcDbLine
 10
-37.25622645833573
 20
-352.728273706889
 30
0.0
 11
-34.95954112090112
 21
-350.4315883694544
 31
0.0
  0
LINE
  5
7A
330
43
100
AcDbEntity
  8
0
  6
Continuous
 62
     7
100
AcDbLine
 10
-2.5
 20
-363.8767705301398
 30
0.0
 11
-2.5
 21
-367.1247740828403
 31
0.0
  0
ARC
  5
7B
330
43
100
AcDbEntity
  8
0
  6
Continuous
 62
     7
100
AcDbCircle
 10
0.0
 20
-368.2813167842578
 30
0.0
 40
2.500000000001632
100
AcDbArc
 50
-154.8981000901494
 51
-25.10189990985058
  0
ARC
  5
7C
330
43
100
AcDbEntity
  8
0
  6
Continuous
 62
     3
100
AcDbCircle
 10
0.0
 20
-368.2813167842578
 30
0.0
 40
1.999999999999183
100
AcDbArc
 50
-165.522487814064
 51
-14.47751218593597
  0
ARC
  5
7D
330
43
100
AcDbEntity
  8
0
  6
Continuous
 62
     7
100
AcDbCircle
 10
0.0
 20
-368.2813167842578
 30
0.0
 40
2.50000000000162
100
AcDbArc
 50
-165.5224878140797
 51
-154.8981000901494
  0
ARC
  5
7E
330
43
100
AcDbEntity
  8
0
  6
Continuous
 62
     7
100
AcDbCircle
 10
0.0
 20
-368.2813167842578
 30
0.0
 40
2.500000000001631
100
AcDbArc
 50
-25.10189990985058
 51
-14.47751218592034
  0
ARC
  5
7F
330
43
100
AcDbEntity
  8
0
  6
Continuous
 62
     7
100
AcDbCircle
 10
-1.93649167310287
 20
-368.7813167842578
 30
0.0
 40
0.5
100
AcDbArc
 50
90.0
 51
-165.5224878141422
  0
ARC
  5
80
330
43
100
AcDbEntity
  8
0
  6
Continuous
 62
     7
100
AcDbCircle
 10
1.93649167310286
 20
-368.7813167842578
 30
0.0
 40
0.5000000000024368
100
AcDbArc
 50
-14.47751218585782
 51
90.0
  0
ARC
  5
81
330
43
100
AcDbEntity
  8
0
  6
Continuous
 62
     7
100
AcDbCircle
 10
0.0
 20
-311.9365133426181
 30
0.0
 40
55.2448560820892
100
AcDbArc
 50
2.59369636676941
 51
42.40630363322887
  0
ARC
  5
82
330
43
100
AcDbEntity
  8
0
  6
Continuous
 62
     7
100
AcDbCircle
 10
0.0
 20
-311.9365133426181
 30
0.0
 40
52.00038765918859
100
AcDbArc
 50
2.75564649162514
 51
42.24435350837289
  0
ARC
  5
83
330
43
100
AcDbEntity
  8
0
  6
Continuous
 62
     7
100
AcDbCircle
 10
0.0
 20
-311.9365133426181
 30
0.0
 40
55.24485608208914
100
AcDbArc
 50
87.40630363323059
 51
92.59369636676942
  0
ARC
  5
84
330
43
100
AcDbEntity
  8
0
  6
Continuous
 62
     7
100
AcDbCircle
 10
0.0
 20
-311.9365133426181
 30
0.0
 40
55.24485608209059
100
AcDbArc
 50
47.59369636677116
 51
87.40630363323059
  0
ARC
  5
85
330
43
100
AcDbEntity
  8
0
  6
Continuous
 62
     7
100
AcDbCircle
 10
0.0
 20
-311.9365133426181
 30
0.0
 40
55.24485608208914
100
AcDbArc
 50
92.59369636676942
 51
132.4063036332288
  0
ARC
  5
86
330
43
100
AcDbEntity
  8
0
  6
Continuous
 62
     7
100
AcDbCircle
 10
0.0
 20
-311.9365133426181
 30
0.0
 40
55.2448560820892
100
AcDbArc
 50
-87.40630363323059
 51
-47.59369636677112
  0
ARC
  5
87
330
43
100
AcDbEntity
  8
0
  6
Continuous
 62
     7
100
AcDbCircle
 10
0.0
 20
-311.9365133426181
 30
0.0
 40
52.00038765918865
100
AcDbArc
 50
-87.24435350837487
 51
-47.7556464916271
  0
ARC
  5
88
330
43
100
AcDbEntity
  8
0
  6
Continuous
 62
     7
100
AcDbCircle
 10
0.0
 20
-311.9365133426181
 30
0.0
 40
55.2448560820892
100
AcDbArc
 50
-177.4063036332306
 51
-137.5936963667711
  0
ARC
  5
89
330
43
100
AcDbEntity
  8
0
  6
Continuous
 62
     7
100
AcDbCircle
 10
0.0
 20
-311.9365133426181
 30
0.0
 40
52.00038765918865
100
AcDbArc
 50
-92.75564649162513
 51
-87.24435350837487
  0
ARC
  5
8A
330
43
100
AcDbEntity
  8
0
  6
Continuous
 62
     7
100
AcDbCircle
 10
0.0
 20
-311.9365133426181
 30
0.0
 40
55.2448560820892
100
AcDbArc
 50
-92.59369636676942
 51
-87.40630363323059
  0
ARC
  5
8B
330
43
100
AcDbEntity
  8
0
  6
Continuous
 62
     7
100
AcDbCircle
 10
0.0
 20
-311.9365133426181
 30
0.0
 40
55.24485608209055
100
AcDbArc
 50
-132.4063036332289
 51
-92.59369636676942
  0
ARC
  5
8C
330
43
100
AcDbEntity
  8
0
  6
Continuous
 62
     7
100
AcDbCircle
 10
0.0
 20
-311.9365133426181
 30
0.0
 40
52.00038765918859
100
AcDbArc
 50
-2.75564649162514
 51
2.75564649162514
  0
ARC
  5
8D
330
43
100
AcDbEntity
  8
0
  6
Continuous
 62
     7
100
AcDbCircle
 10
0.0
 20
-311.9365133426181
 30
0.0
 40
55.2448560820892
100
AcDbArc
 50
-2.59369636676941
 51
2.59369636676941
  0
ARC
  5
8E
330
43
100
AcDbEntity
  8
0
  6
Continuous
 62
     7
100
AcDbCircle
 10
0.0
 20
-311.9365133426181
 30
0.0
 40
55.24485608209059
100
AcDbArc
 50
-42.40630363322892
 51
-2.59369636676941
  0
ARC
  5
8F
330
43
100
AcDbEntity
  8
0
  6
Continuous
 62
     7
100
AcDbCircle
 10
0.0
 20
-311.9365133426181
 30
0.0
 40
52.00038765918708
100
AcDbArc
 50
-42.24435350837293
 51
-2.75564649162514
  0
ARC
  5
90
330
43
100
AcDbEntity
  8
0
  6
Continuous
 62
     7
100
AcDbCircle
 10
0.0
 20
-311.9365133426181
 30
0.0
 40
55.2448560820892
100
AcDbArc
 50
177.4063036332306
 51
-177.4063036332306
  0
ARC
  5
91
330
43
100
AcDbEntity
  8
0
  6
Continuous
 62
     7
100
AcDbCircle
 10
0.0
 20
-311.9365133426181
 30
0.0
 40
55.24485608209055
100
AcDbArc
 50
137.5936963667711
 51
177.4063036332306
  0
ARC
  5
92
330
43
100
AcDbEntity
  8
0
  6
Continuous
 62
     7
100
AcDbCircle
 10
0.0
 20
-311.9365133426181
 30
0.0
 40
52.00038765918703
100
AcDbArc
 50
137.7556464916271
 51
177.2443535083749
  0
ARC
  5
93
330
43
100
AcDbEntity
  8
0
  6
Continuous
 62
     7
100
AcDbCircle
 10
0.0
 20
-311.9365133426181
 30
0.0
 40
55.24485608209055
100
AcDbArc
 50
-47.59369636677112
 51
-42.40630363322892
  0
ARC
  5
94
330
43
100
AcDbEntity
  8
0
  6
Continuous
 62
     7
100
AcDbCircle
 10
0.0
 20
-311.9365133426181
 30
0.0
 40
52.00038765918703
100
AcDbArc
 50
-47.7556464916271
 51
-42.24435350837293
  0
ARC
  5
95
330
43
100
AcDbEntity
  8
0
  6
Continuous
 62
     3
100
AcDbCircle
 10
48.79603115170175
 20
-283.7641116217965
 30
0.0
 40
2.000000000000915
100
AcDbArc
 50
-45.52248781408291
 51
105.5224878140586
  0
ARC
  5
96
330
43
100
AcDbEntity
  8
0
  6
Continuous
 62
     7
100
AcDbCircle
 10
48.26079801704327
 20
-281.8370606386743
 30
0.0
 40
0.500000000000588
100
AcDbArc
 50
105.5224878142335
 51
-150.000000000146
  0
ARC
  5
97
330
43
100
AcDbEntity
  8
0
  6
Continuous
 62
     7
100
AcDbCircle
 10
48.79603115170175
 20
-283.7641116217965
 30
0.0
 40
2.499999999997117
100
AcDbArc
 50
94.89810009016989
 51
105.5224878140936
  0
ARC
  5
98
330
43
100
AcDbEntity
  8
0
  6
Continuous
 62
     7
100
AcDbCircle
 10
48.79603115170175
 20
-283.7641116217965
 30
0.0
 40
2.500000000000688
100
AcDbArc
 50
-34.89810009013833
 51
94.89810009016989
  0
ARC
  5
99
330
43
100
AcDbEntity
  8
0
  6
Continuous
 62
     7
100
AcDbCircle
 10
50.19728969014614
 20
-285.1911626049223
 30
0.0
 40
0.5000000000022132
100
AcDbArc
 50
-150.0000000001464
 51
-45.52248781430232
  0
ARC
  5
9A
330
43
100
AcDbEntity
  8
0
  6
Continuous
 62
     3
100
AcDbCircle
 10
-48.79603115170175
 20
-283.7641116217965
 30
0.0
 40
1.999999999997117
100
AcDbArc
 50
74.47751218594144
 51
-134.4775121859171
  0
ARC
  5
9B
330
43
100
AcDbEntity
  8
0
  6
Continuous
 62
     7
100
AcDbCircle
 10
-48.79603115170175
 20
-283.7641116217965
 30
0.0
 40
2.500000000000688
100
AcDbArc
 50
-145.1018999098617
 51
-134.4775121858732
  0
ARC
  5
9C
330
43
100
AcDbEntity
  8
0
  6
Continuous
 62
     7
100
AcDbCircle
 10
-48.79603115170175
 20
-283.7641116217965
 30
0.0
 40
2.499999999997705
100
AcDbArc
 50
74.47751218590646
 51
85.10189990983012
  0
ARC
  5
9D
330
43
100
AcDbEntity
  8
0
  6
Continuous
 62
     7
100
AcDbCircle
 10
-48.79603115170175
 20
-283.7641116217965
 30
0.0
 40
2.499999999997117
100
AcDbArc
 50
85.10189990983012
 51
-145.1018999098617
  0
ARC
  5
9E
330
43
100
AcDbEntity
  8
0
  6
Continuous
 62
     7
100
AcDbCircle
 10
-48.26079801704327
 20
-281.8370606386743
 30
0.0
 40
0.500000000002207
100
AcDbArc
 50
-29.99999999985398
 51
74.47751218576656
  0
ARC
  5
9F
330
43
100
AcDbEntity
  8
0
  6
Continuous
 62
     7
100
AcDbCircle
 10
0.0
 20
-311.9365133426181
 30
0.0
 40
55.24485608209056
100
AcDbArc
 50
42.40630363322887
 51
47.59369636677116
  0
ARC
  5
A0
330
43
100
AcDbEntity
  8
0
  6
Continuous
 62
     7
100
AcDbCircle
 10
0.0
 20
-311.9365133426181
 30
0.0
 40
55.24485608209059
100
AcDbArc
 50
132.4063036332288
 51
137.5936963667711
  0
ARC
  5
A1
330
43
100
AcDbEntity
  8
0
  6
Continuous
 62
     7
100
AcDbCircle
 10
0.0
 20
-311.9365133426181
 30
0.0
 40
55.24485608209058
100
AcDbArc
 50
-137.5936963667711
 51
-132.4063036332289
  0
ARC
  5
A2
330
43
100
AcDbEntity
  8
0
  6
Continuous
 62
     7
100
AcDbCircle
 10
48.79603115170175
 20
-283.7641116217965
 30
0.0
 40
2.499999999999185
100
AcDbArc
 50
-45.5224878141268
 51
-34.89810009013833
  0
ARC
  5
A3
330
43
100
AcDbEntity
  8
0
  6
Continuous
 62
     7
100
AcDbCircle
 10
0.0
 20
-311.9365133426181
 30
0.0
 40
57.44999999998873
100
AcDbArc
 50
-87.74160566613804
 51
27.74160566614028
  0
ARC
  5
A4
330
43
100
AcDbEntity
  8
0
  6
Continuous
 62
     7
100
AcDbCircle
 10
0.0
 20
-311.9365133426181
 30
0.0
 40
52.00038765918703
100
AcDbArc
 50
42.24435350837289
 51
47.75564649162707
  0
ARC
  5
A5
330
43
100
AcDbEntity
  8
0
  6
Continuous
 62
     7
100
AcDbCircle
 10
0.0
 20
-311.9365133426181
 30
0.0
 40
52.00038765918698
100
AcDbArc
 50
47.75564649162707
 51
87.24435350837487
  0
ARC
  5
A6
330
43
100
AcDbEntity
  8
0
  6
Continuous
 62
     7
100
AcDbCircle
 10
0.0
 20
-311.9365133426181
 30
0.0
 40
52.00038765918859
100
AcDbArc
 50
87.24435350837487
 51
92.75564649162514
  0
ARC
  5
A7
330
43
100
AcDbEntity
  8
0
  6
Continuous
 62
     7
100
AcDbCircle
 10
0.0
 20
-311.9365133426181
 30
0.0
 40
52.00038765918698
100
AcDbArc
 50
132.2443535083729
 51
137.7556464916271
  0
ARC
  5
A8
330
43
100
AcDbEntity
  8
0
  6
Continuous
 62
     7
100
AcDbCircle
 10
0.0
 20
-311.9365133426181
 30
0.0
 40
52.00038765918859
100
AcDbArc
 50
92.75564649162514
 51
132.2443535083729
  0
ARC
  5
A9
330
43
100
AcDbEntity
  8
0
  6
Continuous
 62
     7
100
AcDbCircle
 10
0.0
 20
-311.9365133426181
 30
0.0
 40
57.44999999998762
100
AcDbArc
 50
32.25839433385941
 51
147.7416056661406
  0
ARC
  5
AA
330
43
100
AcDbEntity
  8
0
  6
Continuous
 62
     7
100
AcDbCircle
 10
0.0
 20
-311.9365133426181
 30
0.0
 40
52.00038765918859
100
AcDbArc
 50
177.2443535083749
 51
-177.2443535083749
  0
ARC
  5
AB
330
43
100
AcDbEntity
  8
0
  6
Continuous
 62
     7
100
AcDbCircle
 10
0.0
 20
-311.9365133426181
 30
0.0
 40
52.00038765918859
100
AcDbArc
 50
-177.2443535083749
 51
-137.7556464916271
  0
ARC
  5
AC
330
43
100
AcDbEntity
  8
0
  6
Continuous
 62
     7
100
AcDbCircle
 10
0.0
 20
-311.9365133426181
 30
0.0
 40
52.00038765918706
100
AcDbArc
 50
-137.7556464916271
 51
-132.2443535083729
  0
ARC
  5
AD
330
43
100
AcDbEntity
  8
0
  6
Continuous
 62
     7
100
AcDbCircle
 10
0.0
 20
-311.9365133426181
 30
0.0
 40
52.00038765918703
100
AcDbArc
 50
-132.2443535083729
 51
-92.75564649162513
  0
ARC
  5
AE
330
43
100
AcDbEntity
  8
0
  6
Continuous
 62
     7
100
AcDbCircle
 10
-50.19728969014614
 20
-285.1911626049223
 30
0.0
 40
0.4999999999982692
100
AcDbArc
 50
-134.4775121856977
 51
-29.99999999985358
  0
ARC
  5
AF
330
43
100
AcDbEntity
  8
0
  6
Continuous
 62
     7
100
AcDbCircle
 10
0.0
 20
-311.9365133426181
 30
0.0
 40
57.44999999999039
100
AcDbArc
 50
152.2583943338597
 51
-92.25839433386196
  0
CIRCLE
  5
B0
330
43
100
AcDbEntity
  8
0
  6
Continuous
 62
     7
100
AcDbCircle
 10
0.0
 20
-311.9365133426181
 30
0.0
 40
96.98738965035227
  0
CIRCLE
  5
B1
330
43
100
AcDbEntity
  8
0
  6
Continuous
 62
     7
100
AcDbCircle
 10
0.0
 20
-311.9365133426181
 30
0.0
 40
96.40078348013776
  0
CIRCLE
  5
B2
330
43
100
AcDbEntity
  8
0
  6
Continuous
 62
     7
100
AcDbCircle
 10
0.0
 20
-311.9365133426181
 30
0.0
 40
94.19999999998981
  0
CIRCLE
  5
B3
330
43
100
AcDbEntity
  8
0
  6
Continuous
 62
     7
100
AcDbCircle
 10
0.0
 20
-311.9365133426181
 30
0.0
 40
91.98738965035227
  0
CIRCLE
  5
B4
330
43
100
AcDbEntity
  8
0
  6
Continuous
 62
     3
100
AcDbCircle
 10
0.0
 20
-311.9365133426181
 30
0.0
 40
90.80039174006379
  0
CIRCLE
  5
B5
330
43
100
AcDbEntity
  8
0
  6
Continuous
 62
     7
100
AcDbCircle
 10
0.0
 20
-311.9365133426181
 30
0.0
 40
90.29250447609229
  0
CIRCLE
  5
B6
330
43
100
AcDbEntity
  8
0
  6
Continuous
 62
     7
100
AcDbCircle
 10
0.0
 20
-311.9365133426181
 30
0.0
 40
84.14968565262825
  0
CIRCLE
  5
B7
330
43
100
AcDbEntity
  8
0
  6
Continuous
 62
     7
100
AcDbCircle
 10
0.0
 20
-311.9365133426181
 30
0.0
 40
80.33737265113086
  0
CIRCLE
  5
B8
330
43
100
AcDbEntity
  8
0
  6
Continuous
 62
     7
100
AcDbCircle
 10
0.0
 20
-311.9365133426181
 30
0.0
 40
79.75080431369861
  0
CIRCLE
  5
B9
330
43
100
AcDbEntity
  8
0
  6
Continuous
 62
     7
100
AcDbCircle
 10
0.0
 20
-311.9365133426181
 30
0.0
 40
77.54999999998836
  0
CIRCLE
  5
BA
330
43
100
AcDbEntity
  8
0
  6
Continuous
 62
     7
100
AcDbCircle
 10
-73.0
 20
-311.9365133426181
 30
0.0
 40
1.782003578882723
  0
CIRCLE
  5
BB
330
43
100
AcDbEntity
  8
0
  6
Continuous
 62
     7
100
AcDbCircle
 10
73.0
 20
-311.9365133426181
 30
0.0
 40
1.782003578882723
  0
CIRCLE
  5
BC
330
43
100
AcDbEntity
  8
0
  6
Continuous
 62
     7
100
AcDbCircle
 10
0.0
 20
-311.9365133426181
 30
0.0
 40
67.43734133951148
  0
CIRCLE
  5
BD
330
43
100
AcDbEntity
  8
0
  6
Continuous
 62
     7
100
AcDbCircle
 10
36.5
 20
-375.1563678188832
 30
0.0
 40
1.78200357888333
  0
CIRCLE
  5
BE
330
43
100
AcDbEntity
  8
0
  6
Continuous
 62
     7
100
AcDbCircle
 10
-36.5
 20
-375.1563678188832
 30
0.0
 40
1.78200357888333
  0
CIRCLE
  5
BF
330
43
100
AcDbEntity
  8
0
  6
Continuous
 62
     7
100
AcDbCircle
 10
-36.5
 20
-248.7166588663531
 30
0.0
 40
1.782003578883232
  0
CIRCLE
  5
C0
330
43
100
AcDbEntity
  8
0
  6
Continuous
 62
     7
100
AcDbCircle
 10
36.5
 20
-248.7166588663531
 30
0.0
 40
1.782003578883232
  0
CIRCLE
  5
C1
330
43
100
AcDbEntity
  8
0
  6
Continuous
 62
     7
100
AcDbCircle
 10
0.0
 20
-311.9365133426181
 30
0.0
 40
66.8508369135343
  0
CIRCLE
  5
C2
330
43
100
AcDbEntity
  8
0
  6
Continuous
 62
     7
100
AcDbCircle
 10
0.0
 20
-311.9365133426181
 30
0.0
 40
64.6499999999869
  0
CIRCLE
  5
C3
330
43
100
AcDbEntity
  8
0
  6
Continuous
 62
     7
100
AcDbCircle
 10
0.0
 20
-311.9365133426181
 30
0.0
 40
62.4305882736262
  0
CIRCLE
  5
C4
330
43
100
AcDbEntity
  8
0
  6
Continuous
 62
     7
100
AcDbCircle
 10
0.0
 20
-311.9365133426181
 30
0.0
 40
61.83201847308375
  0
CIRCLE
  5
C5
330
43
100
AcDbEntity
  8
0
  6
Continuous
 62
     7
100
AcDbCircle
 10
0.0
 20
-311.9365133426181
 30
0.0
 40
55.82733573021687
  0
CIRCLE
  5
C6
330
43
100
AcDbEntity
  8
0
  6
Continuous
 62
     7
100
AcDbCircle
 10
0.0
 20
-311.9365133426181
 30
0.0
 40
20.0
  0
CIRCLE
  5
C7
330
43
100
AcDbEntity
  8
0
  6
Continuous
 62
     7
100
AcDbCircle
 10
0.0
 20
-311.9365133426181
 30
0.0
 40
51.49224767012129
  0
CIRCLE
  5
C8
330
43
100
AcDbEntity
  8
0
  6
Continuous
 62
     3
100
AcDbCircle
 10
0.0
 20
-311.9365133426181
 30
0.0
 40
55.34480344163967
  0
CIRCLE
  5
C9
330
43
100
AcDbEntity
  8
0
  6
Continuous
 62
     7
100
AcDbCircle
 10
0.0
 20
-311.9365133426181
 30
0.0
 40
60.19999999998981
  0
CIRCLE
  5
CA
330
43
100
AcDbEntity
  8
0
  6
Continuous
 62
     7
100
AcDbCircle
 10
0.0
 20
-311.9365133426181
 30
0.0
 40
62.1373413395122
  0
CIRCLE
  5
CB
330
43
100
AcDbEntity
  8
0
  6
Continuous
 62
     7
100
AcDbCircle
 10
0.0
 20
-311.9365133426181
 30
0.0
 40
64.3508369135343
  0
CIRCLE
  5
CC
330
43
100
AcDbEntity
  8
0
  6
Continuous
 62
     7
100
AcDbCircle
 10
0.0
 20
-311.9365133426181
 30
0.0
 40
64.93734133951148
  0
CIRCLE
  5
CD
330
43
100
AcDbEntity
  8
0
  6
Continuous
 62
     7
100
AcDbCircle
 10
0.0
 20
-311.9365133426181
 30
0.0
 40
67.1499999999869
  0
CIRCLE
  5
CE
330
43
100
AcDbEntity
  8
0
  6
Continuous
 62
     7
100
AcDbCircle
 10
0.0
 20
-311.9365133426181
 30
0.0
 40
77.25083691353211
  0
CIRCLE
  5
CF
330
43
100
AcDbEntity
  8
0
  6
Continuous
 62
     7
100
AcDbCircle
 10
0.0
 20
-311.9365133426181
 30
0.0
 40
77.83734133951293
  0
CIRCLE
  5
D0
330
43
100
AcDbEntity
  8
0
  6
Continuous
 62
     7
100
AcDbCircle
 10
0.0
 20
-311.9365133426181
 30
0.0
 40
80.04999999998836
  0
CIRCLE
  5
D1
330
43
100
AcDbEntity
  8
0
  6
Continuous
 62
     7
100
AcDbCircle
 10
0.0
 20
-311.9365133426181
 30
0.0
 40
83.64999999999054
  0
CIRCLE
  5
D2
330
43
100
AcDbEntity
  8
0
  6
Continuous
 62
     7
100
AcDbCircle
 10
0.0
 20
-311.9365133426181
 30
0.0
 40
89.74924095207825
  0
CIRCLE
  5
D3
330
43
100
AcDbEntity
  8
0
  6
Continuous
 62
     7
100
AcDbCircle
 10
0.0
 20
-311.9365133426181
 30
0.0
 40
90.65183019735923
  0
CIRCLE
  5
D4
330
43
100
AcDbEntity
  8
0
  6
Continuous
 62
     7
100
AcDbCircle
 10
0.0
 20
-311.9365133426181
 30
0.0
 40
91.40078348013776
  0
CIRCLE
  5
D5
330
43
100
AcDbEntity
  8
0
  6
Continuous
 62
     7
100
AcDbCircle
 10
0.0
 20
-311.9365133426181
 30
0.0
 40
91.69999999998981
  0
CIRCLE
  5
D6
330
43
100
AcDbEntity
  8
0
  6
Continuous
 62
     7
100
AcDbCircle
 10
0.0
 20
-311.9365133426181
 30
0.0
 40
93.90078348013776
  0
CIRCLE
  5
D7
330
43
100
AcDbEntity
  8
0
  6
Continuous
 62
     7
100
AcDbCircle
 10
0.0
 20
-311.9365133426181
 30
0.0
 40
94.48738965035227
  0
CIRCLE
  5
D8
330
43
100
AcDbEntity
  8
0
  6
Continuous
 62
     7
100
AcDbCircle
 10
0.0
 20
-311.9365133426181
 30
0.0
 40
96.69999999998981
  0
CIRCLE
  5
D9
330
43
100
AcDbEntity
  8
0
  6
Continuous
 62
     7
100
AcDbCircle
 10
0.0
 20
-311.9365133426181
 30
0.0
 40
99.99999999998909
  0
SPLINE
  5
DA
330
43
100
AcDbEntity
  8
0
  6
Continuous
 62
     7
100
AcDbSpline
210
0.0
220
0.0
230
1.0
 70
    11
 71
     3
 72
    99
 73
    95
 74
    93
 42
0.0000000001
 43
0.0000000001
 44
0.00000001
 40
0.0
 40
0.0
 40
0.0
 40
0.0
 40
0.2437495344043122
 40
0.5341811107173063
 40
0.6894703681168877
 40
0.8622519114066048
 40
1.033993706992225
 40
1.188447041694027
 40
1.361069416150901
 40
1.516230163960394
 40
1.671650410747018
 40
1.844593522295539
 40
2.017658614480412
 40
2.173181747216416
 40
2.346722685606703
 40
2.502623585101115
 40
2.676800467051728
 40
2.833216617175244
 40
3.006598006053319
 40
3.162376237106331
 40
3.31697388305912
 40
3.488892402035667
 40
3.652853394736527
 40
3.816814536435293
 40
3.988901840421444
 40
4.143635772190192
 40
4.315526282592541
 40
4.470095714187168
 40
4.797014839032679
 40
5.123932892097658
 40
5.450653396958021
 40
5.777373980121668
 40
5.95035432814125
 40
6.105808036655432
 40
6.26953736487434
 40
6.433266479063426
 40
6.762237263865181
 40
7.091206559912585
 40
7.25505948250068
 40
7.418912171637059
 40
7.574858433910295
 40
7.748450557044489
 40
7.904456868407965
 40
8.078127340085134
 40
8.241995157664535
 40
8.405862835293139
 40
8.570430294973148
 40
8.734997842010623
 40
8.908766376217585
 40
9.064853605576559
 40
9.228894723527649
 40
9.39293589143654
 40
9.566047400674439
 40
9.721601782385296
 40
9.89440017845717
 40
10.04970505986163
 40
10.20445425811979
 40
10.37656804132775
 40
10.54832720254437
 40
10.7027905940241
 40
10.85797705265202
 40
11.03062853404952
 40
11.20273893128597
 40
11.35749132228486
 40
11.5118487698144
 40
11.68347035100754
 40
11.85598993222911
 40
12.01106955193536
 40
12.16582328915884
 40
12.33794147204025
 40
12.66646682122051
 40
12.99499320986065
 40
13.15056601276224
 40
13.32369930906748
 40
13.49639352606458
 40
13.65161146692982
 40
13.82439530633421
 40
13.97968762719479
 40
14.1346374105683
 40
14.30699812549626
 40
14.46152720550867
 40
14.63336068404944
 40
14.80615661313095
 40
14.96145824015923
 40
15.12499648708671
 40
15.28853435098328
 40
15.44278485961645
 40
15.61427460184137
 40
15.77809730833881
 40
15.94191982378119
 40
16.09697098097215
 40
16.26945701702217
 40
16.56337857341509
 40
16.80955338772986
 40
16.80955338772986
 40
16.80955338772986
 40
16.80955338772986
 10
-72.90680799728943
 20
-314.61074467867
 30
0.0
 10
-72.98810510449653
 20
-314.6115666321691
 30
0.0
 10
-73.16626905107437
 20
-314.6133679567713
 30
0.0
 10
-73.39528744896046
 20
-314.5869625912188
 30
0.0
 10
-73.59774712235755
 20
-314.5478004382445
 30
0.0
 10
-73.75915186946185
 20
-314.5059571314318
 30
0.0
 10
-73.91725893049983
 20
-314.4539656609187
 30
0.0
 10
-74.07183100737063
 20
-314.3924521802576
 30
0.0
 10
-74.21738077717329
 20
-314.3239571143295
 30
0.0
 10
-74.3587224253293
 20
-314.2465372329947
 30
0.0
 10
-74.49542729991103
 20
-314.1609921240967
 30
0.0
 10
-74.63150701047434
 20
-314.0637380231784
 30
0.0
 10
-74.7610452069099
 20
-313.9578708742381
 30
0.0
 10
-74.88396771430071
 20
-313.8441388282993
 30
0.0
 10
-74.99573552489318
 20
-313.7271826030182
 30
0.0
 10
-75.10408813322579
 20
-313.5988426609274
 30
0.0
 10
-75.20093506026546
 20
-313.4686232794776
 30
0.0
 10
-75.292723181095
 20
-313.3278165521664
 30
0.0
 10
-75.37265201972845
 20
-313.1869342894448
 30
0.0
 10
-75.44349006197999
 20
-313.0419753517876
 30
0.0
 10
-75.50561809905642
 20
-312.8936051199742
 30
0.0
 10
-75.55949008204888
 20
-312.7391211951846
 30
0.0
 10
-75.60440327090548
 20
-312.5785680063968
 30
0.0
 10
-75.63941221378285
 20
-312.4155111689223
 30
0.0
 10
-75.66366504134658
 20
-312.2536066584057
 30
0.0
 10
-75.6782203917811
 20
-312.0879205783593
 30
0.0
 10
-75.68248631097667
 20
-311.9274592544159
 30
0.0
 10
-75.67499205057264
 20
-311.7097012048935
 30
0.0
 10
-75.64146845479664
 20
-311.4415835336713
 30
0.0
 10
-75.5614600079614
 20
-311.123850787894
 30
0.0
 10
-75.44335321138132
 20
-310.8182946525399
 30
0.0
 10
-75.31310126849758
 20
-310.5747179634169
 30
0.0
 10
-75.19253585332136
 20
-310.3924735040702
 30
0.0
 10
-75.09374516988106
 20
-310.2613827076433
 30
0.0
 10
-74.98930539600663
 20
-310.1387541011755
 30
0.0
 10
-74.83743464767531
 20
-309.9810748800742
 30
0.0
 10
-74.62954249215235
 20
-309.8016292407207
 30
0.0
 10
-74.4011535538024
 20
-309.6490473531854
 30
0.0
 10
-74.20863229079072
 20
-309.5446500278821
 30
0.0
 10
-74.06237733518181
 20
-309.4765693963788
 30
0.0
 10
-73.90931413145373
 20
-309.4161616730768
 30
0.0
 10
-73.75528159650689
 20
-309.3660879790941
 30
0.0
 10
-73.5927662023679
 20
-309.3241212684671
 30
0.0
 10
-73.4311287631057
 20
-309.2928504379257
 30
0.0
 10
-73.26525927056002
 20
-309.2714994602849
 30
0.0
 10
-73.1014212643249
 20
-309.2605434962744
 30
0.0
 10
-72.93698536774724
 20
-309.2596571567047
 30
0.0
 10
-72.76951087524104
 20
-309.2690654187224
 30
0.0
 10
-72.60575689229545
 20
-309.2887029928397
 30
0.0
 10
-72.44372512975104
 20
-309.3183546549868
 30
0.0
 10
-72.28689250342609
 20
-309.3568708162381
 30
0.0
 10
-72.1272974777219
 20
-309.4066128594927
 30
0.0
 10
-71.97377872463065
 20
-309.4653013837388
 30
0.0
 10
-71.821520851854
 20
-309.534498308082
 30
0.0
 10
-71.67901188709844
 20
-309.6101322396492
 30
0.0
 10
-71.54165881353477
 20
-309.6942022281775
 30
0.0
 10
-71.40959162950125
 20
-309.7859545152074
 30
0.0
 10
-71.27904526903065
 20
-309.8890135024785
 30
0.0
 10
-71.1554583232979
 20
-310.0001796175544
 30
0.0
 10
-71.04285059327248
 20
-310.1146270648384
 30
0.0
 10
-70.93685308615335
 20
-310.2356196186377
 30
0.0
 10
-70.83484703558219
 20
-310.3675509815042
 30
0.0
 10
-70.74162873749759
 20
-310.5056556769504
 30
0.0
 10
-70.66012560413235
 20
-310.6439158649235
 30
0.0
 10
-70.58681463100976
 20
-310.7865050757011
 30
0.0
 10
-70.51992670663812
 20
-310.9387401598968
 30
0.0
 10
-70.46287810270228
 20
-311.0951874284861
 30
0.0
 10
-70.41711523679865
 20
-311.249413142525
 30
0.0
 10
-70.3803834562626
 20
-311.4059029073522
 30
0.0
 10
-70.34351097813654
 20
-311.6213667677267
 30
0.0
 10
-70.32248751299753
 20
-311.8976945153361
 30
0.0
 10
-70.33524797234364
 20
-312.1690013819331
 30
0.0
 10
-70.36528037777092
 20
-312.3861102264044
 30
0.0
 10
-70.39832178388059
 20
-312.5500705197755
 30
0.0
 10
-70.44185255932389
 20
-312.7114340532909
 30
0.0
 10
-70.49513646377741
 20
-312.8696932572147
 30
0.0
 10
-70.555840448526
 20
-313.0190422478893
 30
0.0
 10
-70.62553066427604
 20
-313.1642855093069
 30
0.0
 10
-70.70345018074678
 20
-313.3051232766927
 30
0.0
 10
-70.78971167936217
 20
-313.4407429772505
 30
0.0
 10
-70.88738041062204
 20
-313.575376938422
 30
0.0
 10
-70.99318321444564
 20
-313.7039416540175
 30
0.0
 10
-71.1072184885331
 20
-313.8256186315661
 30
0.0
 10
-71.22646379114951
 20
-313.9381624508183
 30
0.0
 10
-71.34984147677235
 20
-314.0414326282602
 30
0.0
 10
-71.47901549340182
 20
-314.1367648577635
 30
0.0
 10
-71.61583052313561
 20
-314.22569989357
 30
0.0
 10
-71.7579093391849
 20
-314.3062060213708
 30
0.0
 10
-71.90760857162189
 20
-314.3790513311268
 30
0.0
 10
-72.05641945601957
 20
-314.4404918883315
 30
0.0
 10
-72.2113463751957
 20
-314.4939576456559
 30
0.0
 10
-72.41107709897535
 20
-314.5491767516436
 30
0.0
 10
-72.64507571147982
 20
-314.5941032502077
 30
0.0
 10
-72.82486184679237
 20
-314.605534389091
 30
0.0
 10
-72.90680799728943
 20
-314.61074467867
 30
0.0
 11
-72.90680799728943
 21
-314.61074467867
 31
0.0
 11
-73.1505478822778
 21
-314.6085758107224
 31
0.0
 11
-73.43926357866076
 21
-314.5770520548904
 31
0.0
 11
-73.59169721232456
 21
-314.5474084924904
 31
0.0
 11
-73.7589618430502
 21
-314.5040956190023
 31
0.0
 11
-73.92210534334934
 21
-314.450435180492
 31
0.0
 11
-74.06561336350569
 21
-314.3933275562085
 31
0.0
 11
-74.22180447227493
 21
-314.3198236671647
 31
0.0
 11
-74.35788814047919
 21
-314.2452844633262
 31
0.0
 11
-74.48963877728602
 21
-314.1628391917079
 31
0.0
 11
-74.63034163651537
 21
-314.0622806255051
 31
0.0
 11
-74.76434705317888
 21
-313.9527631637111
 31
0.0
 11
-74.87850309870919
 21
-313.8471419438502
 31
0.0
 11
-74.99840066233583
 21
-313.7216786761828
 31
0.0
 11
-75.09897227676993
 21
-313.6025550394297
 31
0.0
 11
-75.20291593025877
 21
-313.4627934456157
 31
0.0
 11
-75.28833344256054
 21
-313.3317596308516
 31
0.0
 11
-75.37388990201862
 21
-313.1809577798872
 31
0.0
 11
-75.44228567440587
 21
-313.0409975155635
 31
0.0
 11
-75.50199742909672
 21
-312.8983968897378
 31
0.0
 11
-75.55860587337884
 21
-312.736065558187
 31
0.0
 11
-75.60277689229224
 21
-312.5781664504771
 31
0.0
 11
-75.63719529375521
 21
-312.4178585291884
 31
0.0
 11
-75.6626894299543
 21
-312.2476701358923
 31
0.0
 11
-75.67623009705858
 21
-312.0935298102959
 31
0.0
 11
-75.68079941657106
 21
-311.9217000431262
 31
0.0
 11
-75.67548035001164
 21
-311.7672221589019
 31
0.0
 11
-75.63490940335623
 21
-311.4428302470465
 31
0.0
 11
-75.55508698384074
 21
-311.1258069123178
 31
0.0
 11
-75.43728657728298
 21
-310.8210621789572
 31
0.0
 11
-75.28322727118575
 21
-310.5329440266869
 31
0.0
 11
-75.18778889451005
 21
-310.3886744281622
 31
0.0
 11
-75.09422950279259
 21
-310.2645273552516
 31
0.0
 11
-74.98807016216824
 21
-310.1398778975022
 31
0.0
 11
-74.87448666127239
 21
-310.0219541460465
 31
0.0
 11
-74.62544585709975
 21
-309.8070112347651
 31
0.0
 11
-74.35191405521982
 21
-309.6242514166916
 31
0.0
 11
-74.20787675692735
 21
-309.5461422818784
 31
0.0
 11
-74.05932913019205
 21
-309.4769952911374
 31
0.0
 11
-73.91427105695311
 21
-309.419746779321
 31
0.0
 11
-73.74918315108152
 21
-309.366079204854
 31
0.0
 11
-73.5981319270777
 21
-309.3270728347052
 31
0.0
 11
-73.42762298674279
 21
-309.2940859585506
 31
0.0
 11
-73.26509614458654
 21
-309.2731649830248
 31
0.0
 11
-73.10159361634214
 21
-309.2622315924673
 31
0.0
 11
-72.9370285478949
 21
-309.2613444439539
 31
0.0
 11
-72.77272007895226
 21
-309.2705750761998
 31
0.0
 11
-72.60018769891349
 21
-309.2912652023133
 31
0.0
 11
-72.44665015912688
 21
-309.3193623026127
 31
0.0
 11
-72.28734290516377
 21
-309.3584863005344
 31
0.0
 11
-72.13073227593486
 21
-309.4072983439401
 31
0.0
 11
-71.96903362878356
 21
-309.4691137315072
 31
0.0
 11
-71.82741821436866
 21
-309.5334739682185
 31
0.0
 11
-71.67478449364717
 21
-309.6144815788716
 31
0.0
 11
-71.54232213370415
 21
-309.6955576504734
 31
0.0
 11
-71.4152335081844
 21
-309.7838514533423
 31
0.0
 11
-71.2801425380494
 21
-309.8904984606052
 31
0.0
 11
-71.15244284856362
 21
-310.0053635935528
 31
0.0
 11
-71.04410910738079
 21
-310.1154669078933
 31
0.0
 11
-70.94184779825261
 21
-310.2321950604396
 31
0.0
 11
-70.83624238416814
 21
-310.3687821408857
 31
0.0
 11
-70.7399527297657
 21
-310.5114365880366
 31
0.0
 11
-70.66136562610336
 21
-310.6447496393776
 31
0.0
 11
-70.59078642742814
 21
-310.7820259968548
 31
0.0
 11
-70.52175067409189
 21
-310.9391502530743
 31
0.0
 11
-70.46264776916767
 21
-311.1012300252063
 31
0.0
 11
-70.41853269937928
 21
-311.2499026490004
 31
0.0
 11
-70.38316890781653
 21
-311.4005616063542
 31
0.0
 11
-70.3541391455874
 21
-311.5702140209651
 31
0.0
 11
-70.32923176104214
 21
-311.8977938238363
 31
0.0
 11
-70.34465062658273
 21
-312.2259581829894
 31
0.0
 11
-70.36596550997092
 21
-312.3800639023797
 31
0.0
 11
-70.40016933455263
 21
-312.5497849578605
 31
0.0
 11
-70.44514802038383
 21
-312.7165189088277
 31
0.0
 11
-70.49467629425635
 21
-312.8636228151445
 31
0.0
 11
-70.55973673867582
 21
-313.0236896565929
 31
0.0
 11
-70.62691539520165
 21
-313.1636994170585
 31
0.0
 11
-70.70192778366936
 21
-313.2992817792738
 31
0.0
 11
-70.79443190878737
 21
-313.4447163105469
 31
0.0
 11
-70.88517137804001
 21
-313.5697986246014
 31
0.0
 11
-70.99436200599303
 21
-313.7024792603952
 31
0.0
 11
-71.11252363158698
 21
-313.8285596448495
 31
0.0
 11
-71.22546617725675
 21
-313.9351550328138
 31
0.0
 11
-71.35087194504922
 21
-314.0401224163788
 31
0.0
 11
-71.4824551948841
 21
-314.1372330815539
 31
0.0
 11
-71.61178346107226
 21
-314.2213010241858
 31
0.0
 11
-71.76098532698597
 21
-314.3058441190915
 31
0.0
 11
-71.90829451583477
 21
-314.377523140045
 31
0.0
 11
-72.05971371144187
 21
-314.4400534828201
 31
0.0
 11
-72.20629594600904
 21
-314.4905956420097
 31
0.0
 11
-72.37249486167639
 21
-314.5367405557408
 31
0.0
 11
-72.66147410864369
 21
-314.5904143494827
 31
0.0
 11
-72.90680799728943
 21
-314.61074467867
 31
0.0
  0
SPLINE
  5
DB
330
43
100
AcDbEntity
  8
0
  6
Continuous
 62
     7
100
AcDbSpline
210
0.0
220
0.0
230
1.0
 70
    11
 71
     3
 72
    93
 73
    89
 74
    87
 42
0.0000000001
 43
0.0000000001
 44
0.00000001
 40
0.0
 40
0.0
 40
0.0
 40
0.0
 40
0.2904494951443013
 40
0.5341811028673231
 40
0.6894703602963288
 40
0.8622519035566016
 40
1.025349601156434
 40
1.188447459752597
 40
1.516366266587472
 40
1.844286536852788
 40
2.017351629068568
 40
2.172874761773691
 40
2.33759570020369
 40
2.502317047457371
 40
2.83203704184009
 40
3.161757236237137
 40
3.316354882198478
 40
3.488273401166451
 40
3.66097126364663
 40
3.816195098232702
 40
3.970926041118697
 40
4.143016333706385
 40
4.314906844134625
 40
4.469476275703507
 40
4.624549513723842
 40
4.797060184336601
 40
4.969001913238297
 40
5.123618014304733
 40
5.450338519144276
 40
5.777059102328677
 40
6.104852525390834
 40
6.432644140232589
 40
6.597317024334048
 40
6.76198962836176
 40
6.935231290648924
 40
7.090895026898208
 40
7.419362225158235
 40
7.747829638826131
 40
7.903835950217759
 40
8.077506421866842
 40
8.25010013272311
 40
8.405241481019333
 40
8.561007755536426
 40
8.73437604226283
 40
8.908144576496023
 40
9.064231805828774
 40
9.237016672815713
 40
9.392313653371772
 40
9.565425162642597
 40
9.720979544320462
 40
9.885031264574478
 40
10.04908326042235
 40
10.20383245868164
 40
10.37594624188852
 40
10.53041255986643
 40
10.70216879493662
 40
10.85735525358395
 40
11.03000673496208
 40
11.18475617575303
 40
11.35686952296791
 40
11.52849373158804
 40
11.68284855138131
 40
11.84664826091033
 40
12.01044818751815
 40
12.18256374188412
 40
12.3373201078551
 40
12.66584545704222
 40
12.99437184567559
 40
13.1499446485523
 40
13.32307794488242
 40
13.48703428545839
 40
13.65099054014333
 40
13.97853147883488
 40
14.30607088998684
 40
14.46925249392985
 40
14.63243387542646
 40
14.7964830212925
 40
14.96053187011009
 40
15.13276065937422
 40
15.2876075493159
 40
15.45047799356193
 40
15.61334822306726
 40
15.78589386124759
 40
15.94099300939163
 40
16.1047619381365
 40
16.26853063757095
 40
16.5385817077112
 40
16.80863239468719
 40
16.80863239468719
 40
16.80863239468719
 40
16.80863239468719
 10
72.90680799728943
 20
-309.2622820065662
 30
0.0
 10
73.00371887850513
 20
-309.2617246651179
 30
0.0
 10
73.18195283061422
 20
-309.2606996288399
 30
0.0
 10
73.41056698948952
 20
-309.2890372368681
 30
0.0
 10
73.59774876621289
 20
-309.3252222385354
 30
0.0
 10
73.75636044739147
 20
-309.3663471658593
 30
0.0
 10
73.91454202227166
 20
-309.4180799150653
 30
0.0
 10
74.11736548240775
 20
-309.4984126280818
 30
0.0
 10
74.36153793407098
 20
-309.6220913678478
 30
0.0
 10
74.5914954421516
 20
-309.7765848799216
 30
0.0
 10
74.76104224074061
 20
-309.9151540353572
 30
0.0
 10
74.88180967153912
 20
-310.026890815427
 30
0.0
 10
74.99376128181271
 20
-310.1436548435612
 30
0.0
 10
75.13585724120995
 20
-310.3113952764257
 30
0.0
 10
75.29375600346066
 20
-310.5371100646474
 30
0.0
 10
75.4210934596864
 20
-310.7775572362476
 30
0.0
 10
75.50561606905022
 20
-310.9794184506986
 30
0.0
 10
75.56045001796242
 20
-311.1366570879543
 30
0.0
 10
75.60510391746544
 20
-311.2972955227823
 30
0.0
 10
75.6386379487874
 20
-311.4547374201906
 30
0.0
 10
75.6629713505032
 20
-311.6136551407294
 30
0.0
 10
75.67806666690784
 20
-311.7793222311093
 30
0.0
 10
75.68248706917367
 20
-311.9455626745145
 30
0.0
 10
75.67696032735196
 20
-312.106066533797
 30
0.0
 10
75.66214220665307
 20
-312.2661892169141
 30
0.0
 10
75.63666721294669
 20
-312.4308543286546
 30
0.0
 10
75.60068264827899
 20
-312.5933960984161
 30
0.0
 10
75.5407141562776
 20
-312.8028342793167
 30
0.0
 10
75.44334158545531
 20
-313.054758185545
 30
0.0
 10
75.28873090631923
 20
-313.3438924295895
 30
0.0
 10
75.09978492642408
 20
-313.6123000866163
 30
0.0
 10
74.91573091389071
 20
-313.8155007234884
 30
0.0
 10
74.7542954686937
 20
-313.9637227708066
 30
0.0
 10
74.62407588984593
 20
-314.0692928507236
 30
0.0
 10
74.48988810726716
 20
-314.1646997219835
 30
0.0
 10
74.30375827068391
 20
-314.2805206882329
 30
0.0
 10
74.06114138438835
 20
-314.4025913591418
 30
0.0
 10
73.80527959990272
 20
-314.494030217757
 30
0.0
 10
73.59276887664902
 20
-314.5489041377703
 30
0.0
 10
73.42827150368544
 20
-314.5807293813192
 30
0.0
 10
73.26235429298521
 20
-314.6018110212837
 30
0.0
 10
73.10143982863438
 20
-314.6123076004247
 30
0.0
 10
72.93992855793306
 20
-314.6134442180352
 30
0.0
 10
72.77242443344888
 20
-314.6043108454837
 30
0.0
 10
72.60575688222882
 20
-314.5843235854145
 30
0.0
 10
72.44085764142139
 20
-314.5541474593792
 30
0.0
 10
72.28407435627018
 20
-314.5153714085311
 30
0.0
 10
72.12457417001248
 20
-314.4653725444991
 30
0.0
 10
71.97377870201214
 20
-314.4077254094873
 30
0.0
 10
71.82417564842723
 20
-314.3397347135189
 30
0.0
 10
71.68155581446584
 20
-314.2643407761329
 30
0.0
 10
71.54405352762068
 20
-314.1804882952257
 30
0.0
 10
71.40959239382673
 20
-314.0870727980865
 30
0.0
 10
71.28357084096754
 20
-313.9875854627682
 30
0.0
 10
71.15964608327894
 20
-313.8768385082096
 30
0.0
 10
71.04664925683676
 20
-313.7627360807056
 30
0.0
 10
70.93685391794654
 20
-313.6374080471737
 30
0.0
 10
70.83838783432142
 20
-313.5100548419944
 30
0.0
 10
70.74473735984512
 20
-313.3722764132622
 30
0.0
 10
70.65983183692526
 20
-313.2293084660937
 30
0.0
 10
70.58433994864507
 20
-313.0813031843254
 30
0.0
 10
70.51911557576912
 20
-312.9315429226982
 30
0.0
 10
70.4637972996378
 20
-312.7806066572868
 30
0.0
 10
70.41612355565044
 20
-312.620897585628
 30
0.0
 10
70.37923883339532
 20
-312.4614296685006
 30
0.0
 10
70.34307195062979
 20
-312.2458801725136
 30
0.0
 10
70.32248709567327
 20
-311.9753299917829
 30
0.0
 10
70.33524802216266
 20
-311.7040254895804
 30
0.0
 10
70.36528036545081
 20
-311.4869165248215
 30
0.0
 10
70.3977459854846
 20
-311.3258130055346
 30
0.0
 10
70.4410111300092
 20
-311.1643888923487
 30
0.0
 10
70.51042174177489
 20
-310.9571018022813
 30
0.0
 10
70.62078134335535
 20
-310.7065939175436
 30
0.0
 10
70.7608079223725
 20
-310.4716794440626
 30
0.0
 10
70.88915270678689
 20
-310.2953656737107
 30
0.0
 10
70.99329975875246
 20
-310.16922837092
 30
0.0
 10
71.10515663921169
 20
-310.0494840122167
 30
0.0
 10
71.22633099437401
 20
-309.9347437789618
 30
0.0
 10
71.35212709593114
 20
-309.8297969730792
 30
0.0
 10
71.48375977587028
 20
-309.7329799572822
 30
0.0
 10
71.61829791312124
 20
-309.6458331054776
 30
0.0
 10
71.76302571235959
 20
-309.5641337798214
 30
0.0
 10
71.91027115272644
 20
-309.4927788811814
 30
0.0
 10
72.0618572266338
 20
-309.4304819434119
 30
0.0
 10
72.21413199245666
 20
-309.378204207428
 30
0.0
 10
72.40626739974269
 20
-309.325425652861
 30
0.0
 10
72.63711853072495
 20
-309.2800387658295
 30
0.0
 10
72.81691155095143
 20
-309.2682009235212
 30
0.0
 10
72.90680799728943
 20
-309.2622820065662
 30
0.0
 11
72.90680799728943
 21
-309.2622820065662
 31
0.0
 11
73.19721232902157
 21
-309.2674038559189
 31
0.0
 11
73.43926357866076
 21
-309.2959746303459
 31
0.0
 11
73.59169721235321
 21
-309.3256181927527
 31
0.0
 11
73.7589618430502
 21
-309.3689310662339
 31
0.0
 11
73.91397616118866
 21
-309.4196402383277
 31
0.0
 11
74.06561336350569
 21
-309.4796991290277
 31
0.0
 11
74.35813792097224
 21
-309.6278886264795
 31
0.0
 11
74.63034163651537
 21
-309.8107460597312
 31
0.0
 11
74.76434705320207
 21
-309.9202635215456
 31
0.0
 11
74.87850309870919
 21
-310.0258847413861
 31
0.0
 11
74.9925032155038
 21
-310.1447836939806
 31
0.0
 11
75.09897227676993
 21
-310.2704716458065
 31
0.0
 11
75.2879594560527
 21
-310.5406551404217
 31
0.0
 11
75.44228567440587
 21
-310.8320291696728
 31
0.0
 11
75.50199742909945
 21
-310.9746297955066
 31
0.0
 11
75.55860587337884
 21
-311.1369611270493
 31
0.0
 11
75.60485891698045
 21
-311.3033498516156
 31
0.0
 11
75.63719529375521
 21
-311.4551681560479
 31
0.0
 11
75.66061448658273
 21
-311.6081165332661
 31
0.0
 11
75.67623009705858
 21
-311.7794968749404
 31
0.0
 11
75.68079941657243
 21
-311.9513266421359
 31
0.0
 11
75.67548035001164
 21
-312.1058045263344
 31
0.0
 11
75.66119046358745
 21
-312.2602179593514
 31
0.0
 11
75.63481476462766
 21
-312.4307003748072
 31
0.0
 11
75.59765058256062
 21
-312.5985776565013
 31
0.0
 11
75.55508698384074
 21
-312.7472197729185
 31
0.0
 11
75.43728657729116
 21
-313.05196450626
 31
0.0
 11
75.28322727118575
 21
-313.3400826585494
 31
0.0
 11
75.09453396084064
 21
-313.608118780805
 31
0.0
 11
74.87448666127239
 21
-313.8510725391898
 31
0.0
 11
74.75318931432548
 21
-313.9624462900557
 31
0.0
 11
74.62527143470652
 21
-314.0661481829557
 31
0.0
 11
74.48408042897245
 21
-314.1665362970521
 31
0.0
 11
74.35191405521982
 21
-314.2487752685447
 31
0.0
 11
74.05848632540574
 21
-314.3963925700677
 31
0.0
 11
73.74918315108152
 21
-314.5069474803822
 31
0.0
 11
73.5981319270504
 21
-314.5459538505379
 31
0.0
 11
73.42762298674279
 21
-314.5789407266857
 31
0.0
 11
73.25640594007244
 21
-314.6006964605648
 31
0.0
 11
73.10159361634214
 21
-314.610795092769
 31
0.0
 11
72.94583119755407
 21
-314.6118910718856
 31
0.0
 11
72.77272007895226
 21
-314.6024516090365
 31
0.0
 11
72.60018769888757
 21
-314.5817614829189
 31
0.0
 11
72.44665015912688
 21
-314.5536643826235
 31
0.0
 11
72.27891906733339
 21
-314.5121807580776
 31
0.0
 11
72.13073227593486
 21
-314.4657283412962
 31
0.0
 11
71.96903362875355
 21
-314.4039129537155
 31
0.0
 11
71.82741821436866
 21
-314.3395527170178
 31
0.0
 11
71.6823849172101
 21
-314.2628825818045
 31
0.0
 11
71.54232213370415
 21
-314.1774690347629
 31
0.0
 11
71.41523350818306
 21
-314.089175231894
 31
0.0
 11
71.2801425380494
 21
-313.9825282246311
 31
0.0
 11
71.16496641837418
 21
-313.879599585049
 31
0.0
 11
71.04410910738079
 21
-313.757559777343
 31
0.0
 11
70.94184779824036
 21
-313.6408316247816
 31
0.0
 11
70.83624238416814
 21
-313.5042445443505
 31
0.0
 11
70.74924976761395
 21
-313.3762614435514
 31
0.0
 11
70.66136562610336
 21
-313.2282770458587
 31
0.0
 11
70.58338433541849
 21
-313.0753921633896
 31
0.0
 11
70.52175067409189
 21
-312.9338764321619
 31
0.0
 11
70.46538431521229
 21
-312.7800805335546
 31
0.0
 11
70.41853269937928
 21
-312.6231240362358
 31
0.0
 11
70.37974545013321
 21
-312.4554358930932
 31
0.0
 11
70.3541391455874
 21
-312.3028126642712
 31
0.0
 11
70.32923176104214
 21
-311.9752328613931
 31
0.0
 11
70.34465062658273
 21
-311.6470685022468
 31
0.0
 11
70.36596550996683
 21
-311.492962782881
 31
0.0
 11
70.40016933455263
 21
-311.3232417273757
 31
0.0
 11
70.442613598776
 21
-311.1648745399611
 31
0.0
 11
70.49467629425635
 21
-311.0094038700918
 31
0.0
 11
70.62674013047445
 21
-310.7096669693233
 31
0.0
 11
70.79443190878737
 21
-310.4283103746893
 31
0.0
 11
70.89046564900944
 21
-310.2963794965585
 31
0.0
 11
70.99436200599303
 21
-310.1705474248411
 31
0.0
 11
71.10634651973986
 21
-310.0506658543632
 31
0.0
 11
71.22546617725675
 21
-309.9378716524225
 31
0.0
 11
71.35771551929292
 21
-309.827540934205
 31
0.0
 11
71.4824551948841
 21
-309.7357936036824
 31
0.0
 11
71.61915353028552
 21
-309.647247871389
 31
0.0
 11
71.76098532698597
 21
-309.5671825661448
 31
0.0
 11
71.91626107116963
 21
-309.491940021509
 31
0.0
 11
72.05971371144187
 21
-309.4329732024162
 31
0.0
 11
72.21462434426621
 21
-309.3798416876608
 31
0.0
 11
72.37249486167639
 21
-309.3362861294954
 31
0.0
 11
72.63778209395741
 21
-309.2857859822425
 31
0.0
 11
72.90680799728943
 21
-309.2622820065662
 31
0.0
  0
SPLINE
  5
DC
330
43
100
AcDbEntity
  8
0
  6
Continuous
 62
     7
100
AcDbSpline
210
0.0
220
0.0
230
1.0
 70
    11
 71
     3
 72
    89
 73
    85
 74
    83
 42
0.0000000001
 43
0.0000000001
 44
0.00000001
 40
0.0
 40
0.0
 40
0.0
 40
0.0
 40
0.2904494951469305
 40
0.5341811028642818
 40
0.8611619083970576
 40
1.188142253006144
 40
1.360764627415675
 40
1.515925375270065
 40
1.671345622046074
 40
1.844288733606012
 40
1.999808132170921
 40
2.172876958215483
 40
2.328780606117695
 40
2.502318796438753
 40
2.832038790803214
 40
3.16175898521622
 40
3.488824648644671
 40
3.815891871247175
 40
4.142380820559386
 40
4.468869687723628
 40
4.623942925787649
 40
4.796453596359966
 40
4.968395325231838
 40
5.123011426327428
 40
5.286045117397522
 40
5.449078706830922
 40
5.612918167816867
 40
5.776757389092989
 40
5.932208719539577
 40
6.105191445328446
 40
6.277634466262605
 40
6.432649453333508
 40
6.606136166818158
 40
6.761994494436925
 40
6.926447597012644
 40
7.090900336861845
 40
7.246027831254334
 40
7.418605512664416
 40
7.583375005590774
 40
7.74814434632878
 40
7.904150657706019
 40
8.077821129369813
 40
8.241688946821982
 40
8.405556624575551
 40
8.73489575100936
 40
9.064235522139844
 40
9.228276640161958
 40
9.392317807995912
 40
9.55665081233844
 40
9.720984141527056
 40
10.0483142013988
 40
10.3756446504496
 40
10.53011096841691
 40
10.70186720350103
 40
10.85705366218165
 40
11.02970514352811
 40
11.35597440166078
 40
11.68224419820003
 40
11.83732426210893
 40
12.00984339921271
 40
12.18195895351933
 40
12.33671531955043
 40
12.49192139266122
 40
12.66459396814
 40
12.8205146985721
 40
12.99407612280748
 40
13.15842948882899
 40
13.32278266473211
 40
13.49547688176681
 40
13.65069482259858
 40
13.97823576128292
 40
14.30577517243895
 40
14.46030425241934
 40
14.63213773099407
 40
14.79618687685541
 40
14.96023572567634
 40
15.28649331550504
 40
15.6127489033579
 40
15.78529454146676
 40
15.94039368968137
 40
16.095444846944
 40
16.26793088292182
 40
16.5379819530868
 40
16.80803264004054
 40
16.80803264004054
 40
16.80803264004054
 40
16.80803264004054
 10
38.76935627126295
 20
-373.7385455090807
 30
0.0
 10
38.81828585542875
 20
-373.8222033181783
 30
0.0
 10
38.90827485409839
 20
-373.9760628409992
 30
0.0
 10
39.02050855267974
 20
-374.240924755682
 30
0.0
 10
39.10944478003528
 20
-374.5272983142549
 30
0.0
 10
39.15799945571876
 20
-374.7993136103141
 30
0.0
 10
39.17627860272458
 20
-375.0169232293719
 30
0.0
 10
39.17990022728141
 20
-375.1780455466269
 30
0.0
 10
39.17416903694948
 20
-375.3392053609955
 30
0.0
 10
39.15854979241758
 20
-375.4998596429602
 30
0.0
 10
39.13218200698783
 20
-375.6650347657924
 30
0.0
 10
39.09695997257842
 20
-375.8227639801605
 30
0.0
 10
39.05045154020212
 20
-375.9837803429045
 30
0.0
 10
38.97656903401208
 20
-376.1908469930671
 30
0.0
 10
38.85878624391353
 20
-376.4431290579087
 30
0.0
 10
38.68364335512968
 20
-376.7224064613918
 30
0.0
 10
38.47617432864446
 20
-376.9774502752515
 30
0.0
 10
38.23991519142948
 20
-377.2045301300332
 30
0.0
 10
37.97792209784445
 20
-377.4009952262978
 30
0.0
 10
37.74371240199532
 20
-377.5355004683981
 30
0.0
 10
37.5455672196671
 20
-377.6266860869254
 30
0.0
 10
37.39021965766236
 20
-377.6869598594516
 30
0.0
 10
37.23146833422649
 20
-377.7370659925152
 30
0.0
 10
37.07304732348375
 20
-377.7766264101769
 30
0.0
 10
36.91546531709955
 20
-377.8061740798585
 30
0.0
 10
36.75332549162518
 20
-377.8264524482657
 30
0.0
 10
36.58998088210478
 20
-377.8368124372151
 30
0.0
 10
36.4288358773296
 20
-377.8371514717145
 30
0.0
 10
36.26492695701876
 20
-377.8277063329028
 30
0.0
 10
36.09903016526357
 20
-377.8078819526781
 30
0.0
 10
35.93490125044179
 20
-377.7774230590812
 30
0.0
 10
35.77280684546289
 20
-377.7369505882199
 30
0.0
 10
35.61874437200123
 20
-377.6882666277706
 30
0.0
 10
35.46505896481654
 20
-377.6290780107051
 30
0.0
 10
35.31791766652591
 20
-377.5620448869209
 30
0.0
 10
35.17538740367159
 20
-377.4862138883396
 30
0.0
 10
35.0353383197636
 20
-377.4006060261808
 30
0.0
 10
34.90068152066292
 20
-377.3065103580952
 30
0.0
 10
34.76971793417168
 20
-377.2021227749356
 30
0.0
 10
34.64952642527999
 20
-377.0935748408739
 30
0.0
 10
34.53398481663799
 20
-376.9759140038331
 30
0.0
 10
34.42608566124669
 20
-376.8515687312059
 30
0.0
 10
34.32465835285903
 20
-376.7185927243147
 30
0.0
 10
34.20266741568238
 20
-376.5365478792918
 30
0.0
 10
34.07129395498377
 20
-376.2950465333151
 30
0.0
 10
33.97058579429992
 20
-376.0391722454556
 30
0.0
 10
33.90941201689244
 20
-375.8286236138134
 30
0.0
 10
33.87333318575627
 20
-375.668390583049
 30
0.0
 10
33.84713624846955
 20
-375.5061495358505
 30
0.0
 10
33.82557989528938
 20
-375.2884331695643
 30
0.0
 10
33.82371606414814
 20
-375.0147160975815
 30
0.0
 10
33.85493191589731
 20
-374.7460917232468
 30
0.0
 10
33.89945215115286
 20
-374.5327401672205
 30
0.0
 10
33.94176881368855
 20
-374.3778279779186
 30
0.0
 10
33.99541089797917
 20
-374.2200751269534
 30
0.0
 10
34.07815661707785
 20
-374.0182072659542
 30
0.0
 10
34.20605828812655
 20
-373.7738743397109
 30
0.0
 10
34.35943384881662
 20
-373.5517596911005
 30
0.0
 10
34.49895242443029
 20
-373.384182571411
 30
0.0
 10
34.61324371786932
 20
-373.2628391808284
 30
0.0
 10
34.73502479247491
 20
-373.149182731453
 30
0.0
 10
34.85904487311713
 20
-373.0468611235022
 30
0.0
 10
34.98892918329784
 20
-372.9517807546193
 30
0.0
 10
35.12474246051151
 20
-372.8646071903912
 30
0.0
 10
35.27096829942945
 20
-372.7829620342666
 30
0.0
 10
35.41946691135418
 20
-372.7116564536058
 30
0.0
 10
35.5747611507218
 20
-372.6488157391914
 30
0.0
 10
35.73334430506526
 20
-372.5957176159766
 30
0.0
 10
35.89203106537244
 20
-372.5534864258454
 30
0.0
 10
36.10630614392232
 20
-372.5103082384533
 30
0.0
 10
36.37553227500197
 20
-372.4809438886375
 30
0.0
 10
36.64609865315051
 20
-372.4847137430431
 30
0.0
 10
36.86298437459553
 20
-372.5073539785083
 30
0.0
 10
37.02435265392791
 20
-372.534220075735
 30
0.0
 10
37.18679632935719
 20
-372.5718720465332
 30
0.0
 10
37.39597633820708
 20
-372.6340778719544
 30
0.0
 10
37.64934830429059
 20
-372.7354766740831
 30
0.0
 10
37.89096710838043
 20
-372.8683447875477
 30
0.0
 10
38.07146813426665
 20
-372.9907659381636
 30
0.0
 10
38.19891538134475
 20
-373.0891215326494
 30
0.0
 10
38.3204862024745
 20
-373.1946497748448
 30
0.0
 10
38.46249257231008
 20
-373.3344402224936
 30
0.0
 10
38.61913169306458
 20
-373.5138663345447
 30
0.0
 10
38.71928143554946
 20
-373.6636524863273
 30
0.0
 10
38.76935627126295
 20
-373.7385455090807
 30
0.0
 11
38.76935627126295
 21
-373.7385455090807
 31
0.0
 11
38.91012278547669
 21
-373.9926039624083
 31
0.0
 11
39.00640539383312
 21
-374.2165118808225
 31
0.0
 11
39.10285115355373
 21
-374.528945333927
 31
0.0
 11
39.16047020310361
 21
-374.8508089554962
 31
0.0
 11
39.17490952229263
 21
-375.0228263680106
 31
0.0
 11
39.17839851229655
 21
-375.1779478836797
 31
0.0
 11
39.17287413105805
 21
-375.3332699179177
 31
0.0
 11
39.1561392877702
 21
-375.5054014515081
 31
0.0
 11
39.13162337290896
 21
-375.6589763623774
 31
0.0
 11
39.09390445521785
 21
-375.8278849228373
 31
0.0
 11
39.05064249619681
 21
-375.9776659307485
 31
0.0
 11
38.99232057158588
 21
-376.1411102839993
 31
0.0
 11
38.85282839121601
 21
-376.4398697295393
 31
0.0
 11
38.67765418905037
 21
-376.7192071697427
 31
0.0
 11
38.47125987216123
 21
-376.9729261760267
 31
0.0
 11
38.23545480643952
 21
-377.1995733447293
 31
0.0
 11
37.97424620731863
 21
-377.3954434592652
 31
0.0
 11
37.69112970927381
 21
-377.5580473611772
 31
0.0
 11
37.55025881034272
 21
-377.6228786730412
 31
0.0
 11
37.38942885821598
 21
-377.6852778554094
 31
0.0
 11
37.22546077654624
 21
-377.7370313704687
 31
0.0
 11
37.07545112826847
 21
-377.7744912709168
 31
0.0
 11
36.91521001532237
 21
-377.8045374045406
 31
0.0
 11
36.75343673687166
 21
-377.8247699936692
 31
0.0
 11
36.589925810335
 21
-377.8351404266054
 31
0.0
 11
36.42608695202216
 21
-377.8354852963093
 31
0.0
 11
36.27089307746245
 21
-377.8265422858117
 31
0.0
 11
36.09913241156755
 21
-377.8060167633412
 31
0.0
 11
35.92958417658792
 21
-377.7745526332214
 31
0.0
 11
35.77918642935765
 21
-377.7370004848854
 31
0.0
 11
35.61376259748386
 21
-377.684726250277
 31
0.0
 11
35.46831784483948
 21
-377.6287115895502
 31
0.0
 11
35.31866318593075
 21
-377.560533103107
 31
0.0
 11
35.17347945955407
 21
-377.4832906974007
 31
0.0
 11
35.0411214576975
 21
-377.402383968008
 31
0.0
 11
34.8996594514465
 21
-377.3035327823382
 31
0.0
 11
34.77081227694907
 21
-377.2008322885554
 31
0.0
 11
34.64853031347957
 21
-377.0903965286889
 31
0.0
 11
34.53922419401079
 21
-376.9790855164924
 31
0.0
 11
34.42540225111225
 21
-376.8479138806761
 31
0.0
 11
34.32602073383123
 21
-376.7176219944381
 31
0.0
 11
34.2348008756635
 21
-376.5814913465729
 31
0.0
 11
34.07743733640064
 21
-376.2921801357447
 31
0.0
 11
33.95680579337932
 21
-375.9857283195051
 31
0.0
 11
33.91103454247695
 21
-375.8282021915365
 31
0.0
 11
33.87500169748091
 21
-375.6681673864914
 31
0.0
 11
33.84880497325183
 21
-375.5059358607145
 31
0.0
 11
33.83261596265947
 21
-375.3424018917103
 31
0.0
 11
33.83040266694707
 21
-375.0150793147045
 31
0.0
 11
33.8681704046794
 21
-374.6899350069543
 31
0.0
 11
33.89972116149602
 21
-374.5387252416259
 31
0.0
 11
33.94498207974903
 21
-374.3730398362059
 31
0.0
 11
33.99494097064417
 21
-374.2261148683538
 31
0.0
 11
34.06042614507896
 21
-374.0663643568041
 31
0.0
 11
34.211753919682
 21
-373.7773115356172
 31
0.0
 11
34.39713356470384
 21
-373.5088224905048
 31
0.0
 11
34.49635746583726
 21
-373.3896400938774
 31
0.0
 11
34.61464404650542
 21
-373.2640569043142
 31
0.0
 11
34.74047261371379
 21
-373.1466220895932
 31
0.0
 11
34.85984505485249
 21
-373.0481347649075
 31
0.0
 11
34.98508146518861
 21
-372.9564572504528
 31
0.0
 11
35.13039550705435
 21
-372.8631853492225
 31
0.0
 11
35.26653293336858
 21
-372.7871730124934
 31
0.0
 11
35.42299189804908
 21
-372.7120453853931
 31
0.0
 11
35.57534418865953
 21
-372.6503946881679
 31
0.0
 11
35.73119346549356
 21
-372.5982126094459
 31
0.0
 11
35.89807864565682
 21
-372.5537983185126
 31
0.0
 11
36.05023850242651
 21
-372.52313910874
 31
0.0
 11
36.37585019104562
 21
-372.4876412954436
 31
0.0
 11
36.70335803868147
 21
-372.4921883381503
 31
0.0
 11
36.85705223481136
 21
-372.5082298666179
 31
0.0
 11
37.0265523500093
 21
-372.5364514063876
 31
0.0
 11
37.18636509235738
 21
-372.5734920548838
 31
0.0
 11
37.343607565399
 21
-372.620255603415
 31
0.0
 11
37.6465038290321
 21
-372.7414903690474
 31
0.0
 11
37.93239330588767
 21
-372.8986842481536
 31
0.0
 11
38.07519313302009
 21
-372.9955357148505
 31
0.0
 11
38.19798621652808
 21
-373.0902859360613
 31
0.0
 11
38.31504812768661
 21
-373.1919587953916
 31
0.0
 11
38.43811025301329
 21
-373.3128188215269
 31
0.0
 11
38.61448827958521
 21
-373.5173142303747
 31
0.0
 11
38.76935627126295
 21
-373.7385455090807
 31
0.0
  0
SPLINE
  5
DD
330
43
100
AcDbEntity
  8
0
  6
Continuous
 62
     7
100
AcDbSpline
210
0.0
220
0.0
230
1.0
 70
    11
 71
     3
 72
    99
 73
    95
 74
    93
 42
0.0000000001
 43
0.0000000001
 44
0.00000001
 40
0.0
 40
0.0
 40
0.0
 40
0.0
 40
0.2904494951641594
 40
0.5341811028666055
 40
0.7069608158503957
 40
0.8622519037075218
 40
1.025349601401697
 40
1.188447459904217
 40
1.361069834377291
 40
1.516230582168849
 40
1.689172482998075
 40
1.844593940564874
 40
2.017659032793649
 40
2.17318216548916
 40
2.346723103869176
 40
2.502624003374973
 40
2.667920602068402
 40
2.833217490973881
 40
3.006598879915176
 40
3.162377110905016
 40
3.334298663731615
 40
3.488893275496844
 40
3.652854268213539
 40
3.8168154098968
 40
3.971546352840888
 40
4.143636645373339
 40
4.315527155858796
 40
4.470096587367975
 40
4.625169825334934
 40
4.79768049599986
 40
4.960959740800513
 40
5.124238754089363
 40
5.295911969533534
 40
5.45030560938894
 40
5.605421120089305
 40
5.777983855959925
 40
5.950964203972029
 40
6.106417912488909
 40
6.261436316508162
 40
6.433875920773407
 40
6.59854880495119
 40
6.76322140890153
 40
6.936463071236902
 40
7.092126807438134
 40
7.25597973001527
 40
7.419832419163699
 40
7.58460191219939
 40
7.749371252830545
 40
7.923040417629636
 40
8.079048036032846
 40
8.251641746915164
 40
8.406783095187356
 40
8.571350554849007
 40
8.735918101901015
 40
8.90968663609493
 40
9.065773865468921
 40
9.238558732475866
 40
9.39385571301176
 40
9.549413074051813
 40
9.722521604304504
 40
10.04985166416452
 40
10.37718211322669
 40
10.7040589879763
 40
11.03093813545737
 40
11.18568757620937
 40
11.35780092346458
 40
11.52942513213428
 40
11.68377995187551
 40
12.01086290730889
 40
12.33794605298784
 40
12.4931521260527
 40
12.66582470157784
 40
12.82174543198622
 40
12.99530685624179
 40
13.32346250922082
 40
13.65161708783757
 40
13.81565549829925
 40
13.97969368648604
 40
14.14334933468801
 40
14.30700461818792
 40
14.46153369818502
 40
14.63336717674211
 40
14.79741632261903
 40
14.96146517142682
 40
15.12500341838579
 40
15.28854128225261
 40
15.45141172654774
 40
15.61428195600138
 40
15.76938282666549
 40
15.94192674244929
 40
16.10569567126065
 40
16.26946437062999
 40
16.56338592702525
 40
16.80956074133858
 40
16.80956074133858
 40
16.80956074133858
 40
16.80956074133858
 10
-34.13745172602648
 20
-376.4127768451326
 30
0.0
 10
-34.18542604788941
 20
-376.4969825462285
 30
0.0
 10
-34.27365817288424
 20
-376.6518497263335
 30
0.0
 10
-34.41601155801963
 20
-376.8403324504425
 30
0.0
 10
-34.5414119502941
 20
-376.9839672328958
 30
0.0
 10
-34.6566929880639
 20
-377.1003719083732
 30
0.0
 10
-34.77624119066796
 20
-377.2076000936444
 30
0.0
 10
-34.90664295682913
 20
-377.3109250850454
 30
0.0
 10
-35.04110383539874
 20
-377.4043724966651
 30
0.0
 10
-35.18381358986474
 20
-377.4911019077072
 30
0.0
 10
-35.32652223152117
 20
-377.5662651685584
 30
0.0
 10
-35.47898637645157
 20
-377.6349753775928
 30
0.0
 10
-35.62997620134743
 20
-377.6921567842668
 30
0.0
 10
-35.78993164010434
 20
-377.7417443751115
 30
0.0
 10
-35.94710238324165
 20
-377.7800601191298
 30
0.0
 10
-36.10951071650979
 20
-377.8092032009389
 30
0.0
 10
-36.27066141353263
 20
-377.8282313739601
 30
0.0
 10
-36.43849656116255
 20
-377.8375984661307
 30
0.0
 10
-36.60343003595862
 20
-377.8363550425927
 30
0.0
 10
-36.770148699167
 20
-377.8248251172483
 30
0.0
 10
-36.92966550747315
 20
-377.8039240297924
 30
0.0
 10
-37.09026136764247
 20
-377.7728212036699
 30
0.0
 10
-37.24616602787358
 20
-377.7328747619774
 30
0.0
 10
-37.39937458466936
 20
-377.6834412822587
 30
0.0
 10
-37.55188200999598
 20
-377.6239978373499
 30
0.0
 10
-37.7029019181508
 20
-377.5542371103117
 30
0.0
 10
-37.84908044056852
 20
-377.4749451390419
 30
0.0
 10
-37.98531763217444
 20
-377.389906758157
 30
0.0
 10
-38.11657841706457
 20
-377.2970131035411
 30
0.0
 10
-38.24419489373216
 20
-377.1944266482351
 30
0.0
 10
-38.36713664325194
 20
-377.0822048791265
 30
0.0
 10
-38.4828116740136
 20
-376.9628951439383
 30
0.0
 10
-38.58888050906034
 20
-376.8388247224453
 30
0.0
 10
-38.68554162791913
 20
-376.7107195474829
 30
0.0
 10
-38.77480194772096
 20
-376.5769934689168
 30
0.0
 10
-38.85884353399398
 20
-376.4326774398164
 30
0.0
 10
-38.933447666091
 20
-376.2831373000211
 30
0.0
 10
-38.99644305645059
 20
-376.1347121389999
 30
0.0
 10
-39.05066538925343
 20
-375.9830548103373
 30
0.0
 10
-39.09637483663028
 20
-375.8253868995605
 30
0.0
 10
-39.13276403463837
 20
-375.6620243776534
 30
0.0
 10
-39.1590786615352
 20
-375.4964690595302
 30
0.0
 10
-39.1746106062708
 20
-375.3325589562268
 30
0.0
 10
-39.18003477582089
 20
-375.1683060567271
 30
0.0
 10
-39.17573094547566
 20
-375.0071380979824
 30
0.0
 10
-39.16130435081805
 20
-374.8435124651355
 30
0.0
 10
-39.13681655854685
 20
-374.6807760416361
 30
0.0
 10
-39.10167462624677
 20
-374.5166560166903
 30
0.0
 10
-39.05701558227865
 20
-374.3578820829855
 30
0.0
 10
-39.00181568988474
 20
-374.1997244790362
 30
0.0
 10
-38.93939224584308
 20
-374.0509232852947
 30
0.0
 10
-38.86672732540146
 20
-373.9036891385125
 30
0.0
 10
-38.78671798310506
 20
-373.7633670755029
 30
0.0
 10
-38.69483320674579
 20
-373.6230345801317
 30
0.0
 10
-38.5959492255263
 20
-373.4910378568518
 30
0.0
 10
-38.4873664401451
 20
-373.3633192956983
 30
0.0
 10
-38.37539405566133
 20
-373.2469292320447
 30
0.0
 10
-38.25665223717019
 20
-373.1377587544616
 30
0.0
 10
-38.13168289835916
 20
-373.0355944247951
 30
0.0
 10
-37.95411139892752
 20
-372.9077672370225
 30
0.0
 10
-37.71545368074052
 20
-372.7678081994561
 30
0.0
 10
-37.41438330502595
 20
-372.6376906853425
 30
0.0
 10
-37.09984096585087
 20
-372.5453094567697
 30
0.0
 10
-36.8332023063803
 20
-372.5013529930192
 30
0.0
 10
-36.61577920180166
 20
-372.4853724856255
 30
0.0
 10
-36.44950932312082
 20
-372.4833246731909
 30
0.0
 10
-36.28358390480693
 20
-372.4919509064024
 30
0.0
 10
-36.067184360001
 20
-372.516471845316
 30
0.0
 10
-35.80249530522968
 20
-372.5708968134172
 30
0.0
 10
-35.54616155320818
 20
-372.6573222790865
 30
0.0
 10
-35.34631057088046
 20
-372.7454477365882
 30
0.0
 10
-35.20290567887832
 20
-372.8194790834602
 30
0.0
 10
-35.05908374684705
 20
-372.9052946380901
 30
0.0
 10
-34.8779888007453
 20
-373.0290599784026
 30
0.0
 10
-34.66465599623866
 20
-373.2063089178408
 30
0.0
 10
-34.47681540970693
 20
-373.406039375551
 30
0.0
 10
-34.34215418389712
 20
-373.5785650188578
 30
0.0
 10
-34.24934374021178
 20
-373.7137988230484
 30
0.0
 10
-34.16505362890873
 20
-373.8543441436619
 30
0.0
 10
-34.09097243332621
 20
-373.996967499159
 30
0.0
 10
-34.02439262570633
 20
-374.1462173182184
 30
0.0
 10
-33.96697753918066
 20
-374.2993969063048
 30
0.0
 10
-33.91836301763416
 20
-374.4588995622383
 30
0.0
 10
-33.88025568058271
 20
-374.6183922054369
 30
0.0
 10
-33.85200726361656
 20
-374.7797482492283
 30
0.0
 10
-33.83371213305477
 20
-374.9421383417999
 30
0.0
 10
-33.82536165747366
 20
-375.1051178371729
 30
0.0
 10
-33.82691579309096
 20
-375.2654908078194
 30
0.0
 10
-33.83820929507681
 20
-375.4286958153926
 30
0.0
 10
-33.85952528949387
 20
-375.5912196034474
 30
0.0
 10
-33.89150765563255
 20
-375.7549398847086
 30
0.0
 10
-33.94386556155717
 20
-375.955425746901
 30
0.0
 10
-34.02099634103314
 20
-376.1777906930271
 30
0.0
 10
-34.10099053639795
 20
-376.3392046814023
 30
0.0
 10
-34.13745172602648
 20
-376.4127768451326
 30
0.0
 11
-34.13745172602648
 21
-376.4127768451326
 31
0.0
 11
-34.28708954355852
 21
-376.6617134491212
 31
0.0
 11
-34.43285818482764
 21
-376.8570505930948
 31
0.0
 11
-34.54664870223814
 21
-376.9870680817885
 31
0.0
 11
-34.65588944387127
 21
-377.0974391936579
 31
0.0
 11
-34.77731203425038
 21
-377.2063309451305
 31
0.0
 11
-34.90514316040571
 21
-377.3076231690866
 31
0.0
 11
-35.04689494999366
 21
-377.4061366926117
 31
0.0
 11
-35.17948962818264
 21
-377.4867190043879
 31
0.0
 11
-35.33250545341798
 21
-377.5673109288591
 31
0.0
 11
-35.47420234874153
 21
-377.631168734395
 31
0.0
 11
-35.63604996118648
 21
-377.6924620985874
 31
0.0
 11
-35.78459864349134
 21
-377.7385135240693
 31
0.0
 11
-35.95320180233647
 21
-377.7796162261856
 31
0.0
 11
-36.10665170518405
 21
-377.8071519808109
 31
0.0
 11
-36.27080793658206
 21
-377.8265348916557
 31
0.0
 11
-36.43584799113523
 21
-377.8357458565843
 31
0.0
 11
-36.60922445480037
 21
-377.8344389984495
 31
0.0
 11
-36.76463148535549
 21
-377.8236913426881
 31
0.0
 11
-36.93509597353932
 21
-377.8013557523773
 31
0.0
 11
-37.08687040635414
 21
-377.7719616112845
 31
0.0
 11
-37.24570055433787
 21
-377.7312652819155
 31
0.0
 11
-37.40174048731933
 21
-377.6809185313032
 31
0.0
 11
-37.54590726392416
 21
-377.6247259585934
 31
0.0
 11
-37.70213479871018
 21
-377.5525593031452
 31
0.0
 11
-37.85322840203344
 21
-377.4706015662941
 31
0.0
 11
-37.98435064074147
 21
-377.3887561774609
 31
0.0
 11
-38.11093165316424
 21
-377.2991740563229
 31
0.0
 11
-38.24538590640805
 21
-377.1910908232203
 31
0.0
 11
-38.36597978765666
 21
-377.0810125438548
 31
0.0
 11
-38.47963585557227
 21
-376.9637848406164
 31
0.0
 11
-38.5911912008587
 21
-376.8332969184207
 31
0.0
 11
-38.68418570244103
 21
-376.7100515586571
 31
0.0
 11
-38.77030128436445
 21
-376.581036333936
 31
0.0
 11
-38.85714031916359
 21
-376.4319159803745
 31
0.0
 11
-38.93436226813765
 21
-376.2771291224213
 31
0.0
 11
-38.99509709122867
 21
-376.1340307759747
 31
0.0
 11
-39.04728551625794
 21
-375.9880613480877
 31
0.0
 11
-39.09530023191473
 21
-375.8224412883137
 31
0.0
 11
-39.13110405602083
 21
-375.6617078289382
 31
0.0
 11
-39.15695358987068
 21
-375.4990767492163
 31
0.0
 11
-39.17329674405073
 21
-375.3266076943682
 31
0.0
 11
-39.17843459566575
 21
-375.1710287714741
 31
0.0
 11
-39.17406044153766
 21
-375.0072342446646
 31
0.0
 11
-39.15966967874556
 21
-374.8440147308575
 31
0.0
 11
-39.13515202937697
 21
-374.6810795575379
 31
0.0
 11
-39.10065283759832
 21
-374.5199623909211
 31
0.0
 11
-39.05362911905967
 21
-374.352780607533
 31
0.0
 11
-39.00222073563054
 21
-374.2054864966085
 31
0.0
 11
-38.93545323050239
 21
-374.0463303176675
 31
0.0
 11
-38.86679274067865
 21
-373.9072095964184
 31
0.0
 11
-38.78527849961301
 21
-373.7642484923272
 31
0.0
 11
-38.69513030311646
 21
-373.6265685002763
 31
0.0
 11
-38.59094593828285
 21
-373.4874961392547
 31
0.0
 11
-38.48984436574756
 21
-373.3685772795034
 31
0.0
 11
-38.37005294713981
 21
-373.2440597052637
 31
0.0
 11
-38.25573057845395
 21
-373.1389523878133
 31
0.0
 11
-38.13529694404405
 21
-373.040495126646
 31
0.0
 11
-37.99480225170555
 21
-372.9393625173107
 31
0.0
 11
-37.71243923265365
 21
-372.773784458499
 31
0.0
 11
-37.41197213337
 21
-372.6439201249377
 31
0.0
 11
-37.09834037066594
 21
-372.5518136177343
 31
0.0
 11
-36.77581623908918
 21
-372.4986331550754
 31
0.0
 11
-36.62148331430398
 21
-372.4872868895972
 31
0.0
 11
-36.44938299574278
 21
-372.4851691893055
 31
0.0
 11
-36.27799015827803
 21
-372.4940778517911
 31
0.0
 11
-36.12461710938806
 21
-372.511459400961
 31
0.0
 11
-35.80423994645116
 21
-372.5773512305268
 31
0.0
 11
-35.49429409073127
 21
-372.6818354432544
 31
0.0
 11
-35.35228082913135
 21
-372.7444545988377
 31
0.0
 11
-35.19884797223131
 21
-372.8236643000237
 31
0.0
 11
-35.06495064448654
 21
-372.9035566012416
 31
0.0
 11
-34.92165872853366
 21
-373.0014902257644
 31
0.0
 11
-34.66926478772803
 21
-373.211212497416
 31
0.0
 11
-34.44443779182984
 21
-373.4502485812664
 31
0.0
 11
-34.34350434879025
 21
-373.5795584423868
 31
0.0
 11
-34.25068338196797
 21
-373.7148093030191
 31
0.0
 11
-34.16651025473129
 21
-373.8551590655397
 31
0.0
 11
-34.0910738701059
 21
-374.0003913060791
 31
0.0
 11
-34.02811914320137
 21
-374.1415151485903
 31
0.0
 11
-33.96780965598373
 21
-374.3024173241647
 31
0.0
 11
-33.91998142737565
 21
-374.4593395431497
 31
0.0
 11
-33.88185861185775
 21
-374.6188972936106
 31
0.0
 11
-33.85365707501114
 21
-374.7799855661133
 31
0.0
 11
-33.83534839691492
 21
-374.9424953357411
 31
0.0
 11
-33.82701471105202
 21
-375.1051524330496
 31
0.0
 11
-33.8285920210983
 21
-375.268015024627
 31
0.0
 11
-33.83930205365687
 21
-375.4227456786144
 31
0.0
 11
-33.86172749491379
 21
-375.5938260762596
 31
0.0
 11
-33.8931695698202
 21
-375.7545483770445
 31
0.0
 11
-33.9343846086631
 21
-375.9130460346496
 31
0.0
 11
-34.03239136324964
 21
-376.1901463005629
 31
0.0
 11
-34.13745172602648
 21
-376.4127768451326
 31
0.0
  0
SPLINE
  5
DE
330
43
100
AcDbEntity
  8
0
  6
Continuous
 62
     7
100
AcDbSpline
210
0.0
220
0.0
230
1.0
 70
    11
 71
     3
 72
    85
 73
    81
 74
    79
 42
0.0000000001
 43
0.0000000001
 44
0.00000001
 40
0.0
 40
0.0
 40
0.0
 40
0.0
 40
0.2904494951401488
 40
0.5341811028640777
 40
0.6894703603591538
 40
0.8622519035570474
 40
1.016703539642729
 40
1.188447033718661
 40
1.352338647724742
 40
1.516230592580855
 40
1.671650839348599
 40
1.844593950916655
 40
2.173453071332606
 40
2.502313973445716
 40
2.832033967825295
 40
3.161754162223336
 40
3.488819825645936
 40
3.815887048254232
 40
3.979297890092743
 40
4.142708713870923
 40
4.297281387094988
 40
4.469168656180429
 40
4.796087781054935
 40
5.123005834093713
 40
5.286039525264456
 40
5.449073114597181
 40
5.621636648123317
 40
5.776751361136427
 40
6.104544784170355
 40
6.432336399036889
 40
6.761307183859554
 40
7.090276479886957
 40
7.254129402390019
 40
7.417982091612817
 40
7.591576283639315
 40
7.747520476855911
 40
7.912359188177994
 40
8.07719770927093
 40
8.249791420158022
 40
8.404932768421192
 40
8.734271894850679
 40
9.063611665985473
 40
9.218904934666181
 40
9.391693513184196
 40
9.556026517632269
 40
9.72035984671517
 40
9.875664454865744
 40
10.04846312421942
 40
10.22057348076737
 40
10.37532610596178
 40
10.70220298071482
 40
11.02908212819289
 40
11.19251363103075
 40
11.355945346611
 40
11.518934902443
 40
11.6819247996614
 40
11.83700486355476
 40
12.00952400067408
 40
12.1729601512735
 40
12.33639635122793
 40
12.66492170041939
 40
12.99344808905041
 40
13.15780145504787
 40
13.32215463097518
 40
13.47737586005312
 40
13.65006678912992
 40
13.97760772782796
 40
14.30514713897037
 40
14.46832874273954
 40
14.63151012441197
 40
14.80430605350333
 40
14.95960768052042
 40
15.28586527036863
 40
15.61212085820199
 40
15.78466649639793
 40
15.93976564452548
 40
16.10353457335445
 40
16.26730327270417
 40
16.56122482911275
 40
16.80739964341422
 40
16.80739964341422
 40
16.80739964341422
 40
16.80739964341422
 10
-38.76935627126295
 20
-250.1344811761555
 30
0.0
 10
-38.81829438440391
 20
-250.0508325942541
 30
0.0
 10
-38.90829906916712
 20
-249.8969900416564
 30
0.0
 10
-38.99806505287184
 20
-249.6848352208275
 30
0.0
 10
-39.06031882872481
 20
-249.5046394106484
 30
0.0
 10
-39.10324028470026
 20
-249.3494920547626
 30
0.0
 10
-39.13778929401106
 20
-249.1867099064705
 30
0.0
 10
-39.16190929023553
 20
-249.0250191312936
 30
0.0
 10
-39.17611734276825
 20
-248.8590150661001
 30
0.0
 10
-39.1800044842483
 20
-248.6978924865447
 30
0.0
 10
-39.17416778225173
 20
-248.5338170964638
 30
0.0
 10
-39.15296117566271
 20
-248.3156409308515
 30
0.0
 10
-39.10033632835993
 20
-248.0430285592471
 30
0.0
 10
-38.99851508694263
 20
-247.7291729092078
 30
0.0
 10
-38.85879145560558
 20
-247.4299113690244
 30
0.0
 10
-38.68363906555866
 20
-247.1506143460691
 30
0.0
 10
-38.47618621159096
 20
-246.8955862154944
 30
0.0
 10
-38.27917116938646
 20
-246.7062339136779
 30
0.0
 10
-38.1087690394384
 20
-246.570148536758
 30
0.0
 10
-37.97742106037565
 20
-246.4777886233674
 30
0.0
 10
-37.83842689508503
 20
-246.3919161945561
 30
0.0
 10
-37.64639612789006
 20
-246.2888878124811
 30
0.0
 10
-37.39212898604488
 20
-246.1816186282572
 30
0.0
 10
-37.12951366958545
 20
-246.1069848452759
 30
0.0
 10
-36.91546838349992
 20
-246.0668539366315
 30
0.0
 10
-36.75043951780835
 20
-246.0462125652719
 30
0.0
 10
-36.5870597548695
 20
-246.0361195874333
 30
0.0
 10
-36.36847344016328
 20
-246.0360119920443
 30
0.0
 10
-36.09858898292303
 20
-246.0603027725066
 30
0.0
 10
-35.77698959119342
 20
-246.1296524349561
 30
0.0
 10
-35.46592177310045
 20
-246.2379885611072
 30
0.0
 10
-35.21957163271041
 20
-246.3594914119971
 30
0.0
 10
-35.03290156424141
 20
-246.4740213460903
 30
0.0
 10
-34.89599696144257
 20
-246.5700188934238
 30
0.0
 10
-34.76746660266411
 20
-246.6728147943243
 30
0.0
 10
-34.64528298337575
 20
-246.7835282191655
 30
0.0
 10
-34.53198345389671
 20
-246.8992876190627
 30
0.0
 10
-34.42239693080379
 20
-247.0259995595024
 30
0.0
 10
-34.32295954577567
 20
-247.15680850666
 30
0.0
 10
-34.20127566515245
 20
-247.3390381899508
 30
0.0
 10
-34.07129354038338
 20
-247.5779799783633
 30
0.0
 10
-33.97165584789141
 20
-247.8311369650407
 30
0.0
 10
-33.91014207687182
 20
-248.0415688088137
 30
0.0
 10
-33.87379797352825
 20
-248.2017580620809
 30
0.0
 10
-33.84713615560538
 20
-248.3668729177847
 30
0.0
 10
-33.83123339352471
 20
-248.527514928131
 30
0.0
 10
-33.82483993973371
 20
-248.6916255716422
 30
0.0
 10
-33.82857266208173
 20
-248.8584383643856
 30
0.0
 10
-33.84302908555499
 20
-249.0244851708546
 30
0.0
 10
-33.87515634844601
 20
-249.2401155239606
 30
0.0
 10
-33.93883889911642
 20
-249.502727182433
 30
0.0
 10
-34.03510992861487
 20
-249.7583156566883
 30
0.0
 10
-34.13030755630033
 20
-249.9544617985925
 30
0.0
 10
-34.2104858902042
 20
-250.0968270333069
 30
0.0
 10
-34.29911120333426
 20
-250.233909759201
 30
0.0
 10
-34.3942672551741
 20
-250.3631027601961
 30
0.0
 10
-34.49895425507311
 20
-250.4888471509259
 30
0.0
 10
-34.6112582348654
 20
-250.608079414773
 30
0.0
 10
-34.73284909580919
 20
-250.7219272140944
 30
0.0
 10
-34.90122380329326
 20
-250.8613079185766
 30
0.0
 10
-35.12762744868259
 20
-251.0160443340517
 30
0.0
 10
-35.37156929143357
 20
-251.1419909958189
 30
0.0
 10
-35.57475768296069
 20
-251.2242091280427
 30
0.0
 10
-35.72782101792988
 20
-251.2754595816722
 30
0.0
 10
-35.88634065322161
 20
-251.318201227687
 30
0.0
 10
-36.10050714884636
 20
-251.3620868256377
 30
0.0
 10
-36.37553117306238
 20
-251.3920821016872
 30
0.0
 10
-36.64898715863342
 20
-251.3882731796965
 30
0.0
 10
-36.86585242394084
 20
-251.3652798822377
 30
0.0
 10
-37.03003860868925
 20
-251.3376716974904
 30
0.0
 10
-37.18962582462493
 20
-251.3004067528581
 30
0.0
 10
-37.39868722517678
 20
-251.2378634880026
 30
0.0
 10
-37.6493494895962
 20
-251.137549629265
 30
0.0
 10
-37.89096687828453
 20
-251.0046821536504
 30
0.0
 10
-38.07146829556171
 20
-250.8822603600511
 30
0.0
 10
-38.20121668009511
 20
-250.7821301084165
 30
0.0
 10
-38.32262520981455
 20
-250.6763932674897
 30
0.0
 10
-38.47007146723362
 20
-250.5308073649889
 30
0.0
 10
-38.624080040733
 20
-250.3528275481294
 30
0.0
 10
-38.72387152025735
 20
-250.2028435663826
 30
0.0
 10
-38.76935627126295
 20
-250.1344811761555
 30
0.0
 11
-38.76935627126295
 21
-250.1344811761555
 31
0.0
 11
-38.91012278547259
 21
-249.8804227228334
 31
0.0
 11
-39.00640539383312
 21
-249.6565148044138
 31
0.0
 11
-39.05695013259719
 21
-249.5096816239788
 31
0.0
 11
-39.10307239917893
 21
-249.3431697679589
 31
0.0
 11
-39.13512761795619
 21
-249.1920811488022
 31
0.0
 11
-39.16047020310361
 21
-249.0222177297401
 31
0.0
 11
-39.17444576418757
 21
-248.8589230732632
 31
0.0
 11
-39.17839851229655
 21
-248.6950788015565
 31
0.0
 11
-39.17287413105805
 21
-248.5397567673267
 31
0.0
 11
-39.1561392877702
 21
-248.3676252337282
 31
0.0
 11
-39.09379815309695
 21
-248.0447291141969
 31
0.0
 11
-38.99232057158588
 21
-247.731916401237
 31
0.0
 11
-38.85282839120919
 21
-247.4331569556835
 31
0.0
 11
-38.67765418905037
 21
-247.1538195154935
 31
0.0
 11
-38.47125987216533
 21
-246.9001005092137
 31
0.0
 11
-38.23545480643952
 21
-246.673453340507
 31
0.0
 11
-38.10776805818341
 21
-246.5714768846451
 31
0.0
 11
-37.9740952983484
 21
-246.4774838497651
 31
0.0
 11
-37.84259553174844
 21
-246.3962402488368
 31
0.0
 11
-37.69112970927381
 21
-246.3149793240591
 31
0.0
 11
-37.38991259946943
 21
-246.1879188385815
 31
0.0
 11
-37.07545112826847
 21
-246.0985354143195
 31
0.0
 11
-36.91521001522278
 21
-246.0684892806808
 31
0.0
 11
-36.75343673687166
 21
-246.0482566915671
 31
0.0
 11
-36.58120164760293
 21
-246.0376149281973
 31
0.0
 11
-36.42608695202216
 21
-246.0375413889269
 31
0.0
 11
-36.09961420587251
 21
-246.0669365280796
 31
0.0
 11
-35.77918642935765
 21
-246.1360262003509
 31
0.0
 11
-35.4685200057188
 21
-246.2442304077103
 31
0.0
 11
-35.17347945955407
 21
-246.3897359878356
 31
0.0
 11
-35.03381631546335
 21
-246.4754213797965
 31
0.0
 11
-34.8996594514465
 21
-246.5694939028981
 31
0.0
 11
-34.76409018861842
 21
-246.6779186163244
 31
0.0
 11
-34.64853031347957
 21
-246.7826301565474
 31
0.0
 11
-34.53323010632221
 21
-246.9004336496187
 31
0.0
 11
-34.42540225111225
 21
-247.0251128045602
 31
0.0
 11
-34.32095270954142
 21
-247.1625132496229
 31
0.0
 11
-34.2348008756635
 21
-247.2915353386634
 31
0.0
 11
-34.077437336402
 21
-247.5808465494874
 31
0.0
 11
-33.95680579337932
 21
-247.8872983657311
 31
0.0
 11
-33.91323158533078
 21
-248.0363530123896
 31
0.0
 11
-33.87500169748091
 21
-248.2048592987449
 31
0.0
 11
-33.84880497323957
 21
-248.3670908246268
 31
0.0
 11
-33.83261596265947
 21
-248.5306247935259
 31
0.0
 11
-33.82657006398404
 21
-248.6858116757744
 31
0.0
 11
-33.83043650869877
 21
-248.8585670830289
 31
0.0
 11
-33.84536294399504
 21
-249.0300289632251
 31
0.0
 11
-33.8681704046794
 21
-249.1830916782856
 31
0.0
 11
-33.94521971094083
 21
-249.5007580058259
 31
0.0
 11
-34.06042614507896
 21
-249.8066623284321
 31
0.0
 11
-34.13178322463818
 21
-249.9536930167819
 31
0.0
 11
-34.21198263036058
 21
-250.0960937926902
 31
0.0
 11
-34.30047369675957
 21
-250.2329693802794
 31
0.0
 11
-34.39713356470384
 21
-250.3642041947314
 31
0.0
 11
-34.49635746582771
 21
-250.4833865913465
 31
0.0
 11
-34.61464404650542
 21
-250.6089697809221
 31
0.0
 11
-34.73394627915468
 21
-250.7206763277654
 31
0.0
 11
-34.85984505485249
 21
-250.8248919203288
 31
0.0
 11
-35.13108379364303
 21
-251.0102522495276
 31
0.0
 11
-35.42299189804908
 21
-251.1609812998431
 31
0.0
 11
-35.57534418863634
 21
-251.2226319970615
 31
0.0
 11
-35.73119346549356
 21
-251.2748140757904
 31
0.0
 11
-35.88106222186798
 21
-251.3152242950332
 31
0.0
 11
-36.05023850242651
 21
-251.3498875764963
 31
0.0
 11
-36.37585019105927
 21
-251.385385389794
 31
0.0
 11
-36.70335803868147
 21
-251.380838347086
 31
0.0
 11
-36.86563040062492
 21
-251.3636361275207
 31
0.0
 11
-37.0265523500093
 21
-251.3365752788486
 31
0.0
 11
-37.19482197867181
 21
-251.2972845015551
 31
0.0
 11
-37.343607565399
 21
-251.2527710818213
 31
0.0
 11
-37.64650382904983
 21
-251.1315363161807
 31
0.0
 11
-37.93239330588767
 21
-250.9743424370827
 31
0.0
 11
-38.07519313309103
 21
-250.8774909703352
 31
0.0
 11
-38.19798621652808
 21
-250.782740749175
 31
0.0
 11
-38.32145477452241
 21
-250.6751499631541
 31
0.0
 11
-38.43811025301329
 21
-250.5602078637094
 31
0.0
 11
-38.62908274540359
 21
-250.336781391527
 31
0.0
 11
-38.76935627126295
 21
-250.1344811761555
 31
0.0
  0
SPLINE
  5
DF
330
43
100
AcDbEntity
  8
0
  6
Continuous
 62
     7
100
AcDbSpline
210
0.0
220
0.0
230
1.0
 70
    11
 71
     3
 72
    93
 73
    89
 74
    87
 42
0.0000000001
 43
0.0000000001
 44
0.00000001
 40
0.0
 40
0.0
 40
0.0
 40
0.0
 40
0.2437495344023133
 40
0.5341811107164036
 40
0.7069608237147648
 40
0.8622519115574111
 40
1.01670354765639
 40
1.188447041720775
 40
1.34360983312893
 40
1.516230164240331
 40
1.680411930079299
 40
1.844593962955168
 40
2.000113361554891
 40
2.173182187566425
 40
2.337903125970163
 40
2.502624473251324
 40
2.832344467616952
 40
3.162064662029855
 40
3.316662307978287
 40
3.488580826957482
 40
3.643804723156454
 40
3.81650252405704
 40
3.979913365982434
 40
4.143324189670623
 40
4.306554324968937
 40
4.469784559439065
 40
4.796703684310687
 40
5.123621737350042
 40
5.278018889648153
 40
5.449688592955512
 40
5.613528054059624
 40
5.777367275218718
 40
6.105160698253929
 40
6.432952313118794
 40
6.606439026631989
 40
6.762297354221704
 40
6.935539016533943
 40
7.091202752758427
 40
7.246330247243352
 40
7.418907928560655
 40
7.592502120616673
 40
7.748446313806065
 40
7.913285025061314
 40
8.07812354621879
 40
8.23326271760318
 40
8.405858605140239
 40
8.735197731559415
 40
9.064537502699244
 40
9.39275667632734
 40
9.72097698194281
 40
9.88502870208829
 40
10.04908069804182
 40
10.21251229846622
 40
10.37594410998687
 40
10.53905538831386
 40
10.70216708897433
 40
10.866086109326
 40
11.03000546575151
 40
11.20211586299352
 40
11.35686825398818
 40
11.51985780979025
 40
11.68284770703511
 40
12.00993066248533
 40
12.33701380814745
 40
12.49221988123979
 40
12.6648924567374
 40
12.82081318714889
 40
12.99437461140142
 40
13.14994741433844
 40
13.32308071060562
 40
13.47830193960174
 40
13.65099286875765
 40
13.81503127902818
 40
13.97906946740622
 40
14.14272511574854
 40
14.30638039910795
 40
14.46090947910511
 40
14.63274295766213
 40
14.8055388867559
 40
14.96084051377317
 40
15.13306930305322
 40
15.28791619298073
 40
15.44216670155122
 40
15.61365644383628
 40
15.94109484609772
 40
16.26853236071328
 40
16.56245391711333
 40
16.80862873142185
 40
16.80862873142185
 40
16.80862873142185
 40
16.80862873142185
 10
34.13745172602648
 20
-247.4602498401036
 30
0.0
 10
34.17738955635145
 20
-247.3894336245729
 30
0.0
 10
34.26491396789508
 20
-247.2342387243584
 30
0.0
 10
34.40575792020941
 20
-247.0444072472568
 30
0.0
 10
34.54141382454861
 20
-246.8890629244752
 30
0.0
 10
34.65466436859629
 20
-246.7747023562659
 30
0.0
 10
34.7740295057599
 20
-246.6672917376315
 30
0.0
 10
34.89971932217976
 20
-246.5673692896315
 30
0.0
 10
35.03621202443583
 20
-246.4718475967771
 30
0.0
 10
35.17617220963328
 20
-246.386162268441
 30
0.0
 10
35.32388926204489
 20
-246.3080520117192
 30
0.0
 10
35.47092579996502
 20
-246.2414980097329
 30
0.0
 10
35.62442808274292
 20
-246.182788699329
 30
0.0
 10
35.78144117279712
 20
-246.1335476452201
 30
0.0
 10
35.94421922453432
 20
-246.0935818109107
 30
0.0
 10
36.16053534284197
 20
-246.0543931424196
 30
0.0
 10
36.43495900308125
 20
-246.0305062415038
 30
0.0
 10
36.7068616700855
 20
-246.0404524820106
 30
0.0
 10
36.92393893493675
 20
-246.0681840635876
 30
0.0
 10
37.08180556429122
 20
-246.0982270589233
 30
0.0
 10
37.24335742769886
 20
-246.139340111483
 30
0.0
 10
37.3994169003572
 20
-246.1894115342879
 30
0.0
 10
37.55455174080372
 20
-246.2501697245417
 30
0.0
 10
37.70282557043208
 20
-246.3189539484601
 30
0.0
 10
37.84657786804836
 20
-246.3966297417335
 30
0.0
 10
38.03161729741252
 20
-246.5117099064642
 30
0.0
 10
38.24934504337146
 20
-246.6765320444487
 30
0.0
 10
38.44321752302754
 20
-246.8646395614039
 30
0.0
 10
38.58525072084224
 20
-247.0297006609562
 30
0.0
 10
38.68410432637472
 20
-247.1598324148698
 30
0.0
 10
38.77634372258628
 20
-247.2985140935436
 30
0.0
 10
38.88604790150314
 20
-247.487599431041
 30
0.0
 10
39.00117420631058
 20
-247.736098590184
 30
0.0
 10
39.08601660193989
 20
-247.9998804678759
 30
0.0
 10
39.13331510107585
 20
-248.2138958570594
 30
0.0
 10
39.15935607816048
 20
-248.3794843773442
 30
0.0
 10
39.1746106201142
 20
-248.5404675161966
 30
0.0
 10
39.17993864087762
 20
-248.701813170264
 30
0.0
 10
39.17589808780408
 20
-248.86297466128
 30
0.0
 10
39.16148387875457
 20
-249.0295691533458
 30
0.0
 10
39.13628765691704
 20
-249.195154681014
 30
0.0
 10
39.10149867428684
 20
-249.3563257521375
 30
0.0
 10
39.05789822291874
 20
-249.5123249864571
 30
0.0
 10
39.0048637530296
 20
-249.6650885920567
 30
0.0
 10
38.94180417461378
 20
-249.8167892441103
 30
0.0
 10
38.84545958969469
 20
-250.013630156777
 30
0.0
 10
38.70046756312285
 20
-250.2506501069541
 30
0.0
 10
38.49510503231809
 20
-250.5086906816374
 30
0.0
 10
38.25993001285661
 20
-250.739340936944
 30
0.0
 10
38.04208881102772
 20
-250.9059424896907
 30
0.0
 10
37.85673851453036
 20
-251.0223759747027
 30
0.0
 10
37.71282443579488
 20
-251.1009206130403
 30
0.0
 10
37.56456886660096
 20
-251.1704239325259
 30
0.0
 10
37.41263717027532
 20
-251.2306327629246
 30
0.0
 10
37.25741855260796
 20
-251.2814302158214
 30
0.0
 10
37.09923629762912
 20
-251.3227176228259
 30
0.0
 10
36.93856153620379
 20
-251.3543190086501
 30
0.0
 10
36.77328062445432
 20
-251.3764214298164
 30
0.0
 10
36.60997258409139
 20
-251.3878945407383
 30
0.0
 10
36.44660821098232
 20
-251.3893746794833
 30
0.0
 10
36.28646226337477
 20
-251.3813090090971
 30
0.0
 10
36.07000858269238
 20
-251.3571357414101
 30
0.0
 10
35.80249628016288
 20
-251.3021300355373
 30
0.0
 10
35.54616132390515
 20
-251.2157042804773
 30
0.0
 10
35.34631079916569
 20
-251.1275791412954
 30
0.0
 10
35.20290482219219
 20
-251.0535468168267
 30
0.0
 10
35.05908671290488
 20
-250.9677347788301
 30
0.0
 10
34.92550130432745
 20
-250.8764352325923
 30
0.0
 10
34.79327545530668
 20
-250.7735934980761
 30
0.0
 10
34.67217615280558
 20
-250.6668520249194
 30
0.0
 10
34.55382995101055
 20
-250.5488777651283
 30
0.0
 10
34.44492288014663
 20
-250.4261239516009
 30
0.0
 10
34.34215176555487
 20
-250.2944594052209
 30
0.0
 10
34.2493443881084
 20
-250.1592284731169
 30
0.0
 10
34.16505344961428
 20
-250.0186823534518
 30
0.0
 10
34.09097249851974
 20
-249.8760593219337
 30
0.0
 10
34.02439253296409
 20
-249.7268090055449
 30
0.0
 10
33.96595384810595
 20
-249.5708992083098
 30
0.0
 10
33.91759601937174
 20
-249.4113027038651
 30
0.0
 10
33.87908412623548
 20
-249.2489428401317
 30
0.0
 10
33.85159343690046
 20
-249.0904001464529
 30
0.0
 10
33.83388162728212
 20
-248.930852185397
 30
0.0
 10
33.82542005439381
 20
-248.7707862493494
 30
0.0
 10
33.82718988621389
 20
-248.5529485533618
 30
0.0
 10
33.85501028328017
 20
-248.2781038119434
 30
0.0
 10
33.92583024508778
 20
-247.9692021168401
 30
0.0
 10
34.02101576395097
 20
-247.6952563553878
 30
0.0
 10
34.10099661754867
 20
-247.5338283793706
 30
0.0
 10
34.13745172602648
 20
-247.4602498401036
 30
0.0
 11
34.13745172602648
 21
-247.4602498401036
 31
0.0
 11
34.26119996326133
 21
-247.2502493417646
 31
0.0
 11
34.43285818482764
 21
-247.0159760921415
 31
0.0
 11
34.54664870224769
 21
-246.8859586034368
 31
0.0
 11
34.65588944387127
 21
-246.7755874915783
 31
0.0
 11
34.7707084169042
 21
-246.6722825482052
 31
0.0
 11
34.90514316040571
 21
-246.5654035161497
 31
0.0
 11
35.03226802302061
 21
-246.4764385728141
 31
0.0
 11
35.17948962818264
 21
-246.3863076808484
 31
0.0
 11
35.32462915612587
 21
-246.3095602400936
 31
0.0
 11
35.47420234874153
 21
-246.2418579508412
 31
0.0
 11
35.61946008040241
 21
-246.1863019004636
 31
0.0
 11
35.78459864349134
 21
-246.134513161167
 31
0.0
 11
35.9445682152932
 21
-246.0952356402913
 31
0.0
 11
36.10665170518405
 21
-246.0658747044254
 31
0.0
 11
36.43513106482851
 21
-246.037298753487
 31
0.0
 11
36.76463148535549
 21
-246.0493353425482
 31
0.0
 11
36.91798312725722
 21
-246.0689237589936
 31
0.0
 11
37.08687040635414
 21
-246.1010650739518
 31
0.0
 11
37.23729958996818
 21
-246.1393471672645
 31
0.0
 11
37.40174048731933
 21
-246.1921081539331
 31
0.0
 11
37.55389806289077
 21
-246.2516998937549
 31
0.0
 11
37.70213479871018
 21
-246.320467382091
 31
0.0
 11
37.84574164643618
 21
-246.3980634538711
 31
0.0
 11
37.98435064074147
 21
-246.4842705077754
 31
0.0
 11
38.2449968038818
 21
-246.6816019341804
 31
0.0
 11
38.47963585557227
 21
-246.9092418446198
 31
0.0
 11
38.58034346780687
 21
-247.0262737098351
 31
0.0
 11
38.68418570244103
 21
-247.1629751265791
 31
0.0
 11
38.77492222414639
 21
-247.2993945263861
 31
0.0
 11
38.85714031916359
 21
-247.4411107048618
 31
0.0
 11
38.99491975498586
 21
-247.7385419662478
 31
0.0
 11
39.09530023191473
 21
-248.0505853969225
 31
0.0
 11
39.13274133272489
 21
-248.2199837550483
 31
0.0
 11
39.15695358987068
 21
-248.3739499360199
 31
0.0
 11
39.17329674404937
 21
-248.5464189908448
 31
0.0
 11
39.17843459566575
 21
-248.7019979137622
 31
0.0
 11
39.1745463135985
 21
-248.8570766705529
 31
0.0
 11
39.15966967874556
 21
-249.0290119543788
 31
0.0
 11
39.13355575392825
 21
-249.2006307367024
 31
0.0
 11
39.10065283759832
 21
-249.3530642943151
 31
0.0
 11
39.05628212354439
 21
-249.5118189492473
 31
0.0
 11
39.00222073563054
 21
-249.6675401886278
 31
0.0
 11
38.94267260794503
 21
-249.8107958446662
 31
0.0
 11
38.86679274067865
 21
-249.9658170888179
 31
0.0
 11
38.69492365214046
 21
-250.2467535168503
 31
0.0
 11
38.48984436574756
 21
-250.5044494057329
 31
0.0
 11
38.2555102727315
 21
-250.7342653294359
 31
0.0
 11
37.99480225170555
 21
-250.9336641679256
 31
0.0
 11
37.85588731841427
 21
-251.0209316199989
 31
0.0
 11
37.71188562500538
 21
-251.0995227751737
 31
0.0
 11
37.56390846253498
 21
-251.168896022211
 31
0.0
 11
37.41197213337
 21
-251.2291065602985
 31
0.0
 11
37.2569512600662
 21
-251.2798393697771
 31
0.0
 11
37.09912702763177
 21
-251.3210332837552
 31
0.0
 11
36.9382893295956
 21
-251.3526668122254
 31
0.0
 11
36.77581623908918
 21
-251.3743935301609
 31
0.0
 11
36.60412903668703
 21
-251.3864555934224
 31
0.0
 11
36.44938299574278
 21
-251.3878574959308
 31
0.0
 11
36.28659972656305
 21
-251.379659778217
 31
0.0
 11
36.12461710938806
 21
-251.3615672842752
 31
0.0
 11
35.80423994643479
 21
-251.2956754547054
 31
0.0
 11
35.49429409073127
 21
-251.1911912419819
 31
0.0
 11
35.3522808291068
 21
-251.1285720863862
 31
0.0
 11
35.19884797223131
 21
-251.0493623852126
 31
0.0
 11
35.06495064448382
 21
-250.9694700839932
 31
0.0
 11
34.92165872853366
 21
-250.8715364594718
 31
0.0
 11
34.7988567023408
 21
-250.7760243692601
 31
0.0
 11
34.66897586905907
 21
-250.6615424605479
 31
0.0
 11
34.55904521448838
 21
-250.5519574199779
 31
0.0
 11
34.44443779182984
 21
-250.4227781039699
 31
0.0
 11
34.34350434890348
 21
-250.2934682430036
 31
0.0
 11
34.25068338196797
 21
-250.1582173822171
 31
0.0
 11
34.16651025466307
 21
-250.0178676195737
 31
0.0
 11
34.0910738701059
 21
-249.8726353791572
 31
0.0
 11
34.02811914320137
 21
-249.7315115366459
 31
0.0
 11
33.96780965598373
 21
-249.5706093610716
 31
0.0
 11
33.91770165292199
 21
-249.4052381993156
 31
0.0
 11
33.88185861185775
 21
-249.2541293916256
 31
0.0
 11
33.85243407807729
 21
-249.0844327426644
 31
0.0
 11
33.83534839691492
 21
-248.9305313494951
 31
0.0
 11
33.82720755604532
 21
-248.7764958142956
 31
0.0
 11
33.8285920210983
 21
-248.6050116606093
 31
0.0
 11
33.86171885510976
 21
-248.2792532836734
 31
0.0
 11
33.9343846086631
 21
-247.9599806505867
 31
0.0
 11
34.03239136325237
 21
-247.6828803846693
 31
0.0
 11
34.13745172602648
 21
-247.4602498401036
 31
0.0
  0
ENDBLK
  5
45
330
43
100
AcDbEntity
  8
0
100
AcDbBlockEnd
  0
BLOCK
  5
47
330
46
100
AcDbEntity
  8
0
100
AcDbBlockBegin
  2
HL_310N_Koerper
 70
     0
 71
     0
 10
-99.99999999999007
 20
-144.3166274263879
 30
0.0
  3
HL_310N_Koerper
  1

  0
POINT
  5
E0
330
46
100
AcDbEntity
  8
1
 62
     3
 60
     1
100
AcDbPoint
 10
25.00000000000034
 20
-146.0822417620871
 30
0.0
  0
POINT
  5
E1
330
46
100
AcDbEntity
  8
1
 62
     3
 60
     1
100
AcDbPoint
 10
25.00000000000034
 20
-142.082241762087
 30
0.0
  0
POINT
  5
E2
330
46
100
AcDbEntity
  8
1
 62
     3
 60
     1
100
AcDbPoint
 10
-0.00000000000001
 20
-148.5315591469501
 30
0.0
  0
POINT
  5
E3
330
46
100
AcDbEntity
  8
1
 62
     3
 60
     1
100
AcDbPoint
 10
-25.00000000000037
 20
-146.0822417620871
 30
0.0
  0
POINT
  5
E4
330
46
100
AcDbEntity
  8
1
 62
     3
 60
     1
100
AcDbPoint
 10
-25.00000000000037
 20
-142.082241762087
 30
0.0
  0
LINE
  5
E5
330
46
100
AcDbEntity
  8
1
  6
DOT_CENTER
 62
     2
100
AcDbLine
 10
25.00000000000034
 20
-146.0822417620871
 30
0.0
 11
25.00000000000034
 21
-142.082241762087
 31
0.0
  0
LINE
  5
E6
330
46
100
AcDbEntity
  8
1
  6
DOT_CENTER
 62
     2
100
AcDbLine
 10
-25.00000000000037
 20
-142.082241762087
 30
0.0
 11
-25.00000000000037
 21
-146.0822417620871
 31
0.0
  0
LINE
  5
E7
330
46
100
AcDbEntity
  8
1
  6
PHANTOM
 62
     2
100
AcDbLine
 10
-0.00000000000002
 20
6.70130157599397
 30
0.0
 11
-0.00000000000001
 21
-144.789067445534
 31
0.0
  0
LINE
  5
E8
330
46
100
AcDbEntity
  8
0
  6
Continuous
 62
     7
100
AcDbLine
 10
58.34859754731988
 20
-11.39257079785005
 30
0.0
 11
58.34859754731988
 21
-25.92050741518509
 31
0.0
  0
LINE
  5
E9
330
46
100
AcDbEntity
  8
0
  6
Continuous
 62
     7
100
AcDbLine
 10
-58.34859754731991
 20
-11.39257079785005
 30
0.0
 11
-58.34859754731991
 21
-25.92050741518509
 31
0.0
  0
LINE
  5
EA
330
46
100
AcDbEntity
  8
0
  6
Continuous
 62
     7
100
AcDbLine
 10
-99.99999999999007
 20
-0.3925707978512
 30
0.0
 11
99.99999999999004
 21
-0.3925707978512
 31
0.0
  0
LINE
  5
EB
330
46
100
AcDbEntity
  8
0
  6
Continuous
 62
     7
100
AcDbLine
 10
-99.99999999999007
 20
-3.62298216503671
 30
0.0
 11
99.99999999999004
 21
-3.62298216503671
 31
0.0
  0
LINE
  5
EC
330
46
100
AcDbEntity
  8
0
  6
Continuous
 62
     7
100
AcDbLine
 10
-96.69999999999024
 20
0.00000000000222
 30
0.0
 11
96.69999999999027
 21
0.00000000000222
 31
0.0
  0
LINE
  5
ED
330
46
100
AcDbEntity
  8
0
  6
Continuous
 62
     7
100
AcDbLine
 10
-94.31510050328409
 20
-3.82150322994425
 30
0.0
 11
94.31510050328423
 21
-3.82150322994425
 31
0.0
  0
LINE
  5
EE
330
46
100
AcDbEntity
  8
0
  6
Continuous
 62
     7
100
AcDbLine
 10
-93.34999999998294
 20
-4.82089405696315
 30
0.0
 11
93.34999999998303
 21
-4.82089405696315
 31
0.0
  0
LINE
  5
EF
330
46
100
AcDbEntity
  8
0
  6
Continuous
 62
     7
100
AcDbLine
 10
-93.34999999998294
 20
-5.39827793830337
 30
0.0
 11
93.34999999998303
 21
-5.39827793830337
 31
0.0
  0
LINE
  5
F0
330
46
100
AcDbEntity
  8
0
  6
Continuous
 62
     7
100
AcDbLine
 10
-90.46655962167908
 20
-8.39601272553711
 30
0.0
 11
90.46655962167917
 21
-8.39601272553711
 31
0.0
  0
LINE
  5
F1
330
46
100
AcDbEntity
  8
0
  6
Continuous
 62
     7
100
AcDbLine
 10
-83.66655962168336
 20
-8.6604141765522
 30
0.0
 11
83.66655962168333
 21
-8.6604141765522
 31
0.0
  0
LINE
  5
F2
330
46
100
AcDbEntity
  8
0
  6
Continuous
 62
     7
100
AcDbLine
 10
-83.54999999998729
 20
-8.66267938931862
 30
0.0
 11
83.54999999998738
 21
-8.66267938931862
 31
0.0
  0
LINE
  5
F3
330
46
100
AcDbEntity
  8
0
  6
Continuous
 62
     7
100
AcDbLine
 10
-1.9364916731037
 20
2.14878279235225
 30
0.0
 11
1.93649167310379
 21
2.14878279235225
 31
0.0
  0
LINE
  5
F4
330
46
100
AcDbEntity
  8
0
  6
Continuous
 62
     7
100
AcDbLine
 10
-2.4206145913797
 20
1.64878279235224
 30
0.0
 11
2.42061459137963
 21
1.64878279235224
 31
0.0
  0
LINE
  5
F5
330
46
100
AcDbEntity
  8
0
  6
Continuous
 62
     7
100
AcDbLine
 10
2.42061459137963
 20
1.64878279235224
 30
0.0
 11
2.4364916731038
 21
1.64878279235224
 31
0.0
  0
LINE
  5
F6
330
46
100
AcDbEntity
  8
0
  6
Continuous
 62
     7
100
AcDbLine
 10
-2.4364916731037
 20
1.64878279235224
 30
0.0
 11
-2.4206145913797
 21
1.64878279235224
 31
0.0
  0
LINE
  5
F7
330
46
100
AcDbEntity
  8
0
  6
Continuous
 62
     7
100
AcDbLine
 10
-2.4364916731037
 20
0.00000000000222
 30
0.0
 11
-2.4364916731037
 21
1.64878279235224
 31
0.0
  0
LINE
  5
F8
330
46
100
AcDbEntity
  8
0
  6
Continuous
 62
     7
100
AcDbLine
 10
2.42061459137963
 20
0.00000000000222
 30
0.0
 11
2.42061459137963
 21
1.64878279235224
 31
0.0
  0
LINE
  5
F9
330
46
100
AcDbEntity
  8
0
  6
Continuous
 62
     7
100
AcDbLine
 10
-2.4206145913797
 20
0.00000000000222
 30
0.0
 11
-2.4206145913797
 21
1.64878279235224
 31
0.0
  0
LINE
  5
FA
330
46
100
AcDbEntity
  8
0
  6
Continuous
 62
     7
100
AcDbLine
 10
2.4364916731038
 20
0.00000000000222
 30
0.0
 11
2.4364916731038
 21
1.64878279235224
 31
0.0
  0
LINE
  5
FB
330
46
100
AcDbEntity
  8
0
  6
Continuous
 62
     7
100
AcDbLine
 10
-83.66655962168336
 20
-8.6604141765522
 30
0.0
 11
-90.46655962167908
 21
-8.39601272553711
 31
0.0
  0
LINE
  5
FC
330
46
100
AcDbEntity
  8
0
  6
Continuous
 62
     7
100
AcDbLine
 10
83.66655962168333
 20
-8.6604141765522
 30
0.0
 11
90.46655962167917
 21
-8.39601272553711
 31
0.0
  0
LINE
  5
FD
330
46
100
AcDbEntity
  8
0
  6
Continuous
 62
     7
100
AcDbLine
 10
93.34999999998303
 20
-5.39827793830337
 30
0.0
 11
93.34999999998303
 21
-4.82089405696315
 31
0.0
  0
LINE
  5
FE
330
46
100
AcDbEntity
  8
0
  6
Continuous
 62
     7
100
AcDbLine
 10
-93.34999999998294
 20
-5.39827793830337
 30
0.0
 11
-93.34999999998294
 21
-4.82089405696315
 31
0.0
  0
LINE
  5
FF
330
46
100
AcDbEntity
  8
0
  6
Continuous
 62
     7
100
AcDbLine
 10
-69.32281009893214
 20
-20.44490675409299
 30
0.0
 11
-68.9182537343631
 21
-12.72551146386236
 31
0.0
  0
LINE
  5
100
330
46
100
AcDbEntity
  8
0
  6
Continuous
 62
     7
100
AcDbLine
 10
-69.33551510461953
 20
-11.39257079785005
 30
0.0
 11
-69.31200000972453
 21
-11.39257079782128
 31
0.0
  0
LINE
  5
101
330
46
100
AcDbEntity
  8
0
  6
Continuous
 62
     7
100
AcDbLine
 10
-76.67718990106997
 20
-20.44490675409299
 30
0.0
 11
-69.32281009893214
 21
-20.44490675409299
 31
0.0
  0
LINE
  5
102
330
46
100
AcDbEntity
  8
0
  6
Continuous
 62
     7
100
AcDbLine
 10
-99.99999999999007
 20
-3.62298216503671
 30
0.0
 11
-99.99999999999007
 21
-0.3925707978512
 31
0.0
  0
LINE
  5
103
330
46
100
AcDbEntity
  8
0
  6
Continuous
 62
     7
100
AcDbLine
 10
-76.67718990106997
 20
-20.44490675409299
 30
0.0
 11
-77.29467027226562
 21
-8.66267938931862
 31
0.0
  0
LINE
  5
104
330
46
100
AcDbEntity
  8
0
  6
Continuous
 62
     7
100
AcDbLine
 10
-94.31510050328409
 20
-3.82150322994425
 30
0.0
 11
-99.99999999999007
 21
-3.62298216503671
 31
0.0
  0
LINE
  5
105
330
46
100
AcDbEntity
  8
0
  6
Continuous
 62
     7
100
AcDbLine
 10
-69.82919227441538
 20
-10.91873877598657
 30
0.0
 11
-57.31008828418184
 21
-10.9187387764757
 31
0.0
  0
LINE
  5
106
330
46
100
AcDbEntity
  8
0
  6
Continuous
 62
     7
100
AcDbLine
 10
-69.31200000972453
 20
-11.39257079782128
 30
0.0
 11
-57.02688075154427
 21
-11.39257079785016
 31
0.0
  0
LINE
  5
107
330
46
100
AcDbEntity
  8
0
  6
Continuous
 62
     7
100
AcDbLine
 10
94.31510050328423
 20
-3.82150322994425
 30
0.0
 11
99.99999999999004
 21
-3.62298216503671
 31
0.0
  0
LINE
  5
108
330
46
100
AcDbEntity
  8
0
  6
Continuous
 62
     7
100
AcDbLine
 10
-96.69999999999024
 20
0.00000000000222
 30
0.0
 11
-96.92665085580754
 21
-0.3925707978512
 31
0.0
  0
LINE
  5
109
330
46
100
AcDbEntity
  8
0
  6
Continuous
 62
     7
100
AcDbLine
 10
99.99999999999004
 20
-3.62298216503671
 30
0.0
 11
99.99999999999004
 21
-0.3925707978512
 31
0.0
  0
LINE
  5
10A
330
46
100
AcDbEntity
  8
0
  6
Continuous
 62
     7
100
AcDbLine
 10
96.69999999999027
 20
0.00000000000222
 30
0.0
 11
96.92665085580757
 21
-0.3925707978512
 31
0.0
  0
LINE
  5
10B
330
46
100
AcDbEntity
  8
0
  6
Continuous
 62
     7
100
AcDbLine
 10
40.17718990106936
 20
-20.44490675409299
 30
0.0
 11
40.79467027226508
 21
-8.66267938931862
 31
0.0
  0
LINE
  5
10C
330
46
100
AcDbEntity
  8
0
  6
Continuous
 62
     7
100
AcDbLine
 10
-40.17718990106944
 20
-20.44490675409299
 30
0.0
 11
-40.79467027226511
 21
-8.66267938931862
 31
0.0
  0
LINE
  5
10D
330
46
100
AcDbEntity
  8
0
  6
Continuous
 62
     7
100
AcDbLine
 10
69.32281009893217
 20
-20.44490675409299
 30
0.0
 11
76.67718990106988
 21
-20.44490675409299
 31
0.0
  0
LINE
  5
10E
330
46
100
AcDbEntity
  8
0
  6
Continuous
 62
     7
100
AcDbLine
 10
57.31008828524751
 20
-10.91873877598657
 30
0.0
 11
69.82919227496025
 21
-10.9187387764757
 31
0.0
  0
LINE
  5
10F
330
46
100
AcDbEntity
  8
0
  6
Continuous
 62
     7
100
AcDbLine
 10
69.31200000972427
 20
-11.39257079782128
 30
0.0
 11
69.33551510461945
 21
-11.39257079785005
 31
0.0
  0
LINE
  5
110
330
46
100
AcDbEntity
  8
0
  6
Continuous
 62
     7
100
AcDbLine
 10
67.48389769312885
 20
-11.39257079785016
 30
0.0
 11
69.31200000972427
 21
-11.39257079782128
 31
0.0
  0
LINE
  5
111
330
46
100
AcDbEntity
  8
0
  6
Continuous
 62
     7
100
AcDbLine
 10
57.02688074525554
 20
-11.39257079785016
 30
0.0
 11
67.48389769312885
 21
-11.39257079785016
 31
0.0
  0
LINE
  5
112
330
46
100
AcDbEntity
  8
0
  6
Continuous
 62
     7
100
AcDbLine
 10
69.32281009893217
 20
-20.44490675409299
 30
0.0
 11
68.9182537346739
 21
-12.7255114697909
 31
0.0
  0
LINE
  5
113
330
46
100
AcDbEntity
  8
0
  6
Continuous
 62
     7
100
AcDbLine
 10
-39.17856036631486
 20
-21.39257079785019
 30
0.0
 11
-33.82143963368615
 21
-21.39257079785019
 31
0.0
  0
LINE
  5
114
330
46
100
AcDbEntity
  8
0
  6
Continuous
 62
     7
100
AcDbLine
 10
33.82143963368618
 20
-21.39257079785019
 30
0.0
 11
39.17856036631494
 21
-21.39257079785019
 31
0.0
  0
LINE
  5
115
330
46
100
AcDbEntity
  8
0
  6
Continuous
 62
     7
100
AcDbLine
 10
38.33859495053499
 20
-20.44490675409299
 30
0.0
 11
40.17718990106936
 21
-20.44490675409299
 31
0.0
  0
LINE
  5
116
330
46
100
AcDbEntity
  8
0
  6
Continuous
 62
     7
100
AcDbLine
 10
32.82281009893165
 20
-20.44490675409299
 30
0.0
 11
38.33859495053499
 21
-20.44490675409299
 31
0.0
  0
LINE
  5
117
330
46
100
AcDbEntity
  8
0
  6
Continuous
 62
     7
100
AcDbLine
 10
-38.33859495053502
 20
-20.44490675409299
 30
0.0
 11
-32.82281009893157
 21
-20.44490675409299
 31
0.0
  0
LINE
  5
118
330
46
100
AcDbEntity
  8
0
  6
Continuous
 62
     7
100
AcDbLine
 10
-40.17718990106944
 20
-20.44490675409299
 30
0.0
 11
-38.33859495053502
 21
-20.44490675409299
 31
0.0
  0
LINE
  5
119
330
46
100
AcDbEntity
  8
0
  6
Continuous
 62
     7
100
AcDbLine
 10
32.82281009893165
 20
-20.44490675409299
 30
0.0
 11
32.67387275157056
 21
-17.60301287118934
 31
0.0
  0
LINE
  5
11A
330
46
100
AcDbEntity
  8
0
  6
Continuous
 62
     7
100
AcDbLine
 10
-32.82281009893157
 20
-20.44490675409299
 30
0.0
 11
-32.67387275157054
 21
-17.60301287118934
 31
0.0
  0
LINE
  5
11B
330
46
100
AcDbEntity
  8
0
  6
Continuous
 62
     7
100
AcDbLine
 10
-33.45220079303645
 20
-17.84097163370498
 30
0.0
 11
-32.67387275157054
 21
-17.60301287118934
 31
0.0
  0
LINE
  5
11C
330
46
100
AcDbEntity
  8
0
  6
Continuous
 62
     7
100
AcDbLine
 10
-32.67387275157054
 20
-17.60301287118934
 30
0.0
 11
-12.36043203395083
 21
-11.39257079782128
 31
0.0
  0
LINE
  5
11D
330
46
100
AcDbEntity
  8
0
  6
Continuous
 62
     7
100
AcDbLine
 10
32.67387275157056
 20
-17.60301287118934
 30
0.0
 11
33.45220079303636
 21
-17.84097163370509
 31
0.0
  0
LINE
  5
11E
330
46
100
AcDbEntity
  8
0
  6
Continuous
 62
     7
100
AcDbLine
 10
12.36043203395053
 20
-11.39257079782128
 30
0.0
 11
32.67387275157056
 21
-17.60301287118934
 31
0.0
  0
LINE
  5
11F
330
46
100
AcDbEntity
  8
0
  6
Continuous
 62
     7
100
AcDbLine
 10
12.36043203395053
 20
-11.39257079782128
 30
0.0
 11
12.36303704091784
 21
-11.39257079785005
 31
0.0
  0
LINE
  5
120
330
46
100
AcDbEntity
  8
0
  6
Continuous
 62
     7
100
AcDbLine
 10
-12.36043203395083
 20
-11.39257079782128
 30
0.0
 11
12.36043203395053
 21
-11.39257079782128
 31
0.0
  0
LINE
  5
121
330
46
100
AcDbEntity
  8
0
  6
Continuous
 62
     7
100
AcDbLine
 10
-12.36303704091798
 20
-11.39257079785005
 30
0.0
 11
-12.36043203395083
 21
-11.39257079782128
 31
0.0
  0
LINE
  5
122
330
46
100
AcDbEntity
  8
0
  6
Continuous
 62
     7
100
AcDbLine
 10
-12.51910398916785
 20
-10.91873877598657
 30
0.0
 11
12.51910398916305
 21
-10.9187387759715
 31
0.0
  0
LINE
  5
123
330
46
100
AcDbEntity
  8
0
  6
Continuous
 62
     7
100
AcDbLine
 10
70.3214396336867
 20
-21.39257079785019
 30
0.0
 11
75.67856036631547
 21
-21.39257079785019
 31
0.0
  0
LINE
  5
124
330
46
100
AcDbEntity
  8
0
  6
Continuous
 62
     7
100
AcDbLine
 10
76.67718990106988
 20
-20.44490675409299
 30
0.0
 11
77.29467027226559
 21
-8.66267938931862
 31
0.0
  0
LINE
  5
125
330
46
100
AcDbEntity
  8
0
  6
Continuous
 62
     7
100
AcDbLine
 10
-75.67856036631538
 20
-21.39257079785019
 30
0.0
 11
-70.32143963368667
 21
-21.39257079785019
 31
0.0
  0
LINE
  5
126
330
46
100
AcDbEntity
  8
0
  6
Continuous
 62
     7
100
AcDbLine
 10
-58.34859754731991
 20
-25.92050741518509
 30
0.0
 11
58.34859754731988
 21
-25.92050741518509
 31
0.0
  0
LINE
  5
127
330
46
100
AcDbEntity
  8
0
  6
Continuous
 62
     7
100
AcDbLine
 10
-55.00038765918805
 20
-84.41518066259862
 30
0.0
 11
55.00038765918802
 21
-84.41518066259862
 31
0.0
  0
LINE
  5
128
330
46
100
AcDbEntity
  8
0
  6
Continuous
 62
     7
100
AcDbLine
 10
-55.00038765918805
 20
-26.9205074151851
 30
0.0
 11
-55.00038765918805
 21
-84.41518066259862
 31
0.0
  0
LINE
  5
129
330
46
100
AcDbEntity
  8
0
  6
Continuous
 62
     7
100
AcDbLine
 10
55.00038765918802
 20
-26.9205074151851
 30
0.0
 11
55.00038765918802
 21
-84.41518066259862
 31
0.0
  0
LINE
  5
12A
330
46
100
AcDbEntity
  8
0
  6
Continuous
 62
     7
100
AcDbLine
 10
55.00038765918802
 20
-26.9205074151851
 30
0.0
 11
57.34859754731986
 21
-26.9205074151851
 31
0.0
  0
LINE
  5
12B
330
46
100
AcDbEntity
  8
0
  6
Continuous
 62
     7
100
AcDbLine
 10
-55.00038765918805
 20
-26.9205074151851
 30
0.0
 11
55.00038765918802
 21
-26.9205074151851
 31
0.0
  0
LINE
  5
12C
330
46
100
AcDbEntity
  8
0
  6
Continuous
 62
     7
100
AcDbLine
 10
-57.34859754731989
 20
-26.9205074151851
 30
0.0
 11
-55.00038765918805
 21
-26.9205074151851
 31
0.0
  0
LINE
  5
12D
330
46
100
AcDbEntity
  8
0
  6
Continuous
 62
     7
100
AcDbLine
 10
-37.50000000000049
 20
-89.91662742638711
 30
0.0
 11
37.50000000000052
 21
-89.91662742638711
 31
0.0
  0
LINE
  5
12E
330
46
100
AcDbEntity
  8
0
  6
Continuous
 62
     7
100
AcDbLine
 10
38.50000000000053
 20
-88.9166274263871
 30
0.0
 11
53.79422863405928
 21
-88.9166274263871
 31
0.0
  0
LINE
  5
12F
330
46
100
AcDbEntity
  8
0
  6
Continuous
 62
     7
100
AcDbLine
 10
-53.79422863405931
 20
-88.9166274263871
 30
0.0
 11
-38.5000000000005
 21
-88.9166274263871
 31
0.0
  0
LINE
  5
130
330
46
100
AcDbEntity
  8
0
  6
Continuous
 62
     7
100
AcDbLine
 10
-38.5000000000005
 20
-88.9166274263871
 30
0.0
 11
38.50000000000053
 21
-88.9166274263871
 31
0.0
  0
LINE
  5
131
330
46
100
AcDbEntity
  8
0
  6
Continuous
 62
     7
100
AcDbLine
 10
-53.79422863405931
 20
-88.9166274263871
 30
0.0
 11
-55.00038765918805
 21
-84.41518066259862
 31
0.0
  0
LINE
  5
132
330
46
100
AcDbEntity
  8
0
  6
Continuous
 62
     7
100
AcDbLine
 10
53.79422863405928
 20
-88.9166274263871
 30
0.0
 11
55.00038765918802
 21
-84.41518066259862
 31
0.0
  0
LINE
  5
133
330
46
100
AcDbEntity
  8
0
  6
Continuous
 62
     7
100
AcDbLine
 10
-36.5621778264909
 20
-143.9166274263879
 30
0.0
 11
36.56217782649087
 21
-143.9166274263879
 31
0.0
  0
LINE
  5
134
330
46
100
AcDbEntity
  8
0
  6
Continuous
 62
     7
100
AcDbLine
 10
-37.50000000000049
 20
-140.4166274263878
 30
0.0
 11
37.50000000000052
 21
-140.4166274263878
 31
0.0
  0
LINE
  5
135
330
46
100
AcDbEntity
  8
0
  6
Continuous
 62
     7
100
AcDbLine
 10
-37.50000000000049
 20
-140.4166274263878
 30
0.0
 11
-37.50000000000049
 21
-89.91662742638711
 31
0.0
  0
LINE
  5
136
330
46
100
AcDbEntity
  8
0
  6
Continuous
 62
     7
100
AcDbLine
 10
37.50000000000052
 20
-140.4166274263878
 30
0.0
 11
37.50000000000052
 21
-89.91662742638711
 31
0.0
  0
LINE
  5
137
330
46
100
AcDbEntity
  8
0
  6
Continuous
 62
     7
100
AcDbLine
 10
36.56217782649087
 20
-143.9166274263879
 30
0.0
 11
37.50000000000052
 21
-140.4166274263878
 31
0.0
  0
LINE
  5
138
330
46
100
AcDbEntity
  8
0
  6
Continuous
 62
     7
100
AcDbLine
 10
-36.5621778264909
 20
-143.9166274263879
 30
0.0
 11
-37.50000000000049
 21
-140.4166274263878
 31
0.0
  0
LINE
  5
139
330
46
100
AcDbEntity
  8
1
  6
DOT_CENTER
 62
     2
100
AcDbLine
 10
54.99999999999998
 20
3.00000000000222
 30
0.0
 11
54.99999999999998
 21
5.00000000000222
 31
0.0
  0
LINE
  5
13A
330
46
100
AcDbEntity
  8
1
  6
DOT_CENTER
 62
     2
100
AcDbLine
 10
-55.00000000000002
 20
3.00000000000222
 30
0.0
 11
-55.00000000000002
 21
5.00000000000222
 31
0.0
  0
ARC
  5
13B
330
46
100
AcDbEntity
  8
0
  6
Continuous
 62
     7
100
AcDbCircle
 10
-94.34999999998296
 20
-4.82089405696315
 30
0.0
 40
1.000000000000014
100
AcDbArc
 50
0.0
 51
88.00000000020754
  0
ARC
  5
13C
330
46
100
AcDbEntity
  8
0
  6
Continuous
 62
     7
100
AcDbCircle
 10
94.34999999998304
 20
-4.82089405696315
 30
0.0
 40
0.9999999999996753
100
AcDbArc
 50
91.99999999978922
 51
180.0
  0
ARC
  5
13D
330
46
100
AcDbEntity
  8
0
  6
Continuous
 62
     7
100
AcDbCircle
 10
83.54999999998874
 20
-5.66267938931852
 30
0.0
 40
3.000000000000099
100
AcDbArc
 50
-90.00000000002605
 51
-87.77331474177284
  0
ARC
  5
13E
330
46
100
AcDbEntity
  8
0
  6
Continuous
 62
     7
100
AcDbCircle
 10
-83.54999999998877
 20
-5.66267938931852
 30
0.0
 40
3.000000000000092
100
AcDbArc
 50
-92.22668525822716
 51
-89.99999999997178
  0
ARC
  5
13F
330
46
100
AcDbEntity
  8
0
  6
Continuous
 62
     7
100
AcDbCircle
 10
-1.9364916731037
 20
1.64878279235224
 30
0.0
 40
0.5000000000000071
100
AcDbArc
 50
90.0
 51
180.0
  0
ARC
  5
140
330
46
100
AcDbEntity
  8
0
  6
Continuous
 62
     7
100
AcDbCircle
 10
1.93649167310379
 20
1.64878279235224
 30
0.0
 40
0.5000000000000073
100
AcDbArc
 50
0.0
 51
90.0
  0
ARC
  5
141
330
46
100
AcDbEntity
  8
0
  6
Continuous
 62
     7
100
AcDbCircle
 10
90.34999999998298
 20
-5.39827793830337
 30
0.0
 40
3.000000000000211
100
AcDbArc
 50
-87.7733147417425
 51
0.0
  0
ARC
  5
142
330
46
100
AcDbEntity
  8
0
  6
Continuous
 62
     7
100
AcDbCircle
 10
-90.3499999999829
 20
-5.39827793830337
 30
0.0
 40
3.000000000000043
100
AcDbArc
 50
180.0
 51
-92.2266852582575
  0
ARC
  5
143
330
46
100
AcDbEntity
  8
0
  6
Continuous
 62
     7
100
AcDbCircle
 10
-70.32143963368667
 20
-20.39257079785018
 30
0.0
 40
1.000000000000011
100
AcDbArc
 50
-90.0
 51
-2.99999999999251
  0
ARC
  5
144
330
46
100
AcDbEntity
  8
0
  6
Continuous
 62
     7
100
AcDbCircle
 10
-75.67856036631538
 20
-20.39257079785018
 30
0.0
 40
1.000000000000004
100
AcDbArc
 50
-177.0000000000077
 51
-90.0
  0
ARC
  5
145
330
46
100
AcDbEntity
  8
0
  6
Continuous
 62
     7
100
AcDbCircle
 10
39.17856036631494
 20
-20.39257079785018
 30
0.0
 40
1.000000000000011
100
AcDbArc
 50
-90.0
 51
-2.99999999999283
  0
ARC
  5
146
330
46
100
AcDbEntity
  8
0
  6
Continuous
 62
     7
100
AcDbCircle
 10
33.82143963368618
 20
-20.39257079785018
 30
0.0
 40
0.9999999999999543
100
AcDbArc
 50
-177.0000000000075
 51
-90.0
  0
ARC
  5
147
330
46
100
AcDbEntity
  8
0
  6
Continuous
 62
     7
100
AcDbCircle
 10
-33.82143963368615
 20
-20.39257079785018
 30
0.0
 40
1.000000000000011
100
AcDbArc
 50
-90.0
 51
-2.99999999999236
  0
ARC
  5
148
330
46
100
AcDbEntity
  8
0
  6
Continuous
 62
     7
100
AcDbCircle
 10
-39.17856036631486
 20
-20.39257079785018
 30
0.0
 40
0.9999999999999968
100
AcDbArc
 50
-177.0000000000076
 51
-90.0
  0
ARC
  5
149
330
46
100
AcDbEntity
  8
0
  6
Continuous
 62
     7
100
AcDbCircle
 10
75.67856036631547
 20
-20.39257079785018
 30
0.0
 40
1.000000000000011
100
AcDbArc
 50
-90.0
 51
-2.99999999999285
  0
ARC
  5
14A
330
46
100
AcDbEntity
  8
0
  6
Continuous
 62
     7
100
AcDbCircle
 10
70.3214396336867
 20
-20.39257079785018
 30
0.0
 40
0.9999999999999472
100
AcDbArc
 50
-177.0000000000075
 51
-90.0
  0
ARC
  5
14B
330
46
100
AcDbEntity
  8
0
  6
Continuous
 62
     7
100
AcDbCircle
 10
-57.34859754731989
 20
-25.92050741518509
 30
0.0
 40
1.000000000000021
100
AcDbArc
 50
180.0
 51
-90.0
  0
ARC
  5
14C
330
46
100
AcDbEntity
  8
0
  6
Continuous
 62
     7
100
AcDbCircle
 10
57.34859754731986
 20
-25.92050741518509
 30
0.0
 40
1.000000000000011
100
AcDbArc
 50
-90.0
 51
0.0
  0
ARC
  5
14D
330
46
100
AcDbEntity
  8
0
  6
Continuous
 62
     7
100
AcDbCircle
 10
38.50000000000053
 20
-89.91662742638711
 30
0.0
 40
1.000000000000014
100
AcDbArc
 50
90.0
 51
180.0
  0
ARC
  5
14E
330
46
100
AcDbEntity
  8
0
  6
Continuous
 62
     7
100
AcDbCircle
 10
-38.5000000000005
 20
-89.91662742638711
 30
0.0
 40
1.000000000000007
100
AcDbArc
 50
0.0
 51
90.0
  0
SPLINE
  5
14F
330
46
100
AcDbEntity
  8
0
  6
Continuous
 62
     7
100
AcDbSpline
210
0.0
220
0.0
230
1.0
 70
     8
 71
     3
 72
    13
 73
     9
 74
     7
 42
0.0000000001
 43
0.0000000001
 44
0.00000001
 40
0.0
 40
0.0
 40
0.0
 40
0.0
 40
0.1304566619362442
 40
0.2603841191652311
 40
0.3893898166850188
 40
0.5173229124399841
 40
0.6443197739761048
 40
0.7707729524196246
 40
0.7707729524196246
 40
0.7707729524196246
 40
0.7707729524196246
 10
-2.420614591379705
 20
1.648782792352245
 30
0.0
 10
-2.417413707138544
 20
1.69238735979486
 30
0.0
 10
-2.411024923221229
 20
1.779419610326264
 30
0.0
 10
-2.360402232879837
 20
1.901205794930382
 30
0.0
 10
-2.283238639614106
 20
2.006113922376887
 30
0.0
 10
-2.181725498445864
 20
2.086110222790123
 30
0.0
 10
-2.063512585360615
 20
2.138784609483847
 30
0.0
 10
-1.978771383579305
 20
2.145454834227504
 30
0.0
 10
-1.936491673103698
 20
2.148782792352252
 30
0.0
 11
-2.420614591379705
 21
1.648782792352245
 31
0.0
 11
-2.404118378292866
 21
1.77819228040216
 31
0.0
 11
-2.35575441888493
 21
1.89878279235222
 31
0.0
 11
-2.278818180278209
 21
2.002336088686121
 31
0.0
 11
-2.178553132241673
 21
2.081795494244433
 31
0.0
 11
-2.061791871118371
 21
2.131745576736064
 31
0.0
 11
-1.936491673103698
 21
2.148782792352252
 31
0.0
  0
SPLINE
  5
150
330
46
100
AcDbEntity
  8
0
  6
Continuous
 62
     7
100
AcDbSpline
210
0.0
220
0.0
230
1.0
 70
     8
 71
     3
 72
    13
 73
     9
 74
     7
 42
0.0000000001
 43
0.0000000001
 44
0.00000001
 40
0.0
 40
0.0
 40
0.0
 40
0.0
 40
0.1304566619362343
 40
0.2603841191652084
 40
0.3893898166850255
 40
0.5173229124399954
 40
0.6443197739760643
 40
0.7707729524195278
 40
0.7707729524195278
 40
0.7707729524195278
 40
0.7707729524195278
 10
2.420614591379627
 20
1.648782792352245
 30
0.0
 10
2.417413707138494
 20
1.692387359794859
 30
0.0
 10
2.411024923221237
 20
1.779419610326261
 30
0.0
 10
2.360402232879881
 20
1.901205794930405
 30
0.0
 10
2.283238639614086
 20
2.006113922376875
 30
0.0
 10
2.181725498445859
 20
2.086110222790107
 30
0.0
 10
2.063512585360654
 20
2.138784609483848
 30
0.0
 10
1.978771383579379
 20
2.145454834227504
 30
0.0
 10
1.936491673103791
 20
2.148782792352252
 30
0.0
 11
2.420614591379627
 21
1.648782792352245
 31
0.0
 11
2.404118378292866
 21
1.77819228040216
 31
0.0
 11
2.355754418884964
 21
1.89878279235222
 31
0.0
 11
2.278818180278194
 21
2.002336088686121
 31
0.0
 11
2.178553132241652
 21
2.081795494244433
 31
0.0
 11
2.061791871118407
 21
2.131745576736064
 31
0.0
 11
1.936491673103791
 21
2.148782792352252
 31
0.0
  0
SPLINE
  5
151
330
46
100
AcDbEntity
  8
0
  6
Continuous
 62
     7
100
AcDbSpline
210
0.0
220
0.0
230
1.0
 70
     8
 71
     3
 72
    15
 73
    11
 74
     9
 42
0.0000000001
 43
0.0000000001
 44
0.00000001
 40
0.0
 40
0.0
 40
0.0
 40
0.0
 40
0.783960615434862
 40
1.610758277539803
 40
2.491866348945462
 40
3.435314340117605
 40
4.464947363547219
 40
5.519277172832116
 40
6.670168945898528
 40
7.887287486099668
 40
7.887287486099668
 40
7.887287486099668
 40
7.887287486099668
 10
-72.19466127188925
 20
-17.66012890536822
 30
0.0
 10
-72.12541498578891
 20
-17.40783644939228
 30
0.0
 10
-71.98313866944216
 20
-16.8894658146651
 30
0.0
 10
-71.64667111475116
 20
-16.12715147000473
 30
0.0
 10
-71.21799807417749
 20
-15.35338717501544
 30
0.0
 10
-70.68346220094224
 20
-14.56486705615167
 30
0.0
 10
-70.054869815297
 20
-13.77433112437132
 30
0.0
 10
-69.32836524699398
 20
-12.97674639164086
 30
0.0
 10
-68.5148043251573
 20
-12.17595306861408
 30
0.0
 10
-67.91851318226708
 20
-11.65852193232305
 30
0.0
 10
-67.61202929522354
 20
-11.3925707978501
 30
0.0
 11
-72.19466127188925
 21
-17.66012890536822
 31
0.0
 11
-71.9691046928205
 21
-16.90931702733764
 31
0.0
 11
-71.6433359088647
 21
-16.14940316809953
 31
0.0
 11
-71.21718425394917
 21
-15.37820526839482
 31
0.0
 11
-70.69042164291778
 21
-14.59550784047893
 31
0.0
 11
-70.05137354301093
 21
-13.7881902518298
 31
0.0
 11
-69.34343105866574
 21
-13.0068908306052
 31
0.0
 11
-68.52266630394573
 21
-12.20010889555624
 31
0.0
 11
-67.61202929522354
 21
-11.3925707978501
 31
0.0
  0
SPLINE
  5
152
330
46
100
AcDbEntity
  8
0
  6
Continuous
 62
     7
100
AcDbSpline
210
0.0
220
0.0
230
1.0
 70
     8
 71
     3
 72
    15
 73
    11
 74
     9
 42
0.0000000001
 43
0.0000000001
 44
0.00000001
 40
0.0
 40
0.0
 40
0.0
 40
0.0
 40
0.0899133273647185
 40
0.1797743513842595
 40
1.170195950963201
 40
2.165065227492937
 40
3.061200037987722
 40
3.899816988146568
 40
4.723447342101217
 40
5.439879465242839
 40
5.439879465242839
 40
5.439879465242839
 40
5.439879465242839
 10
-68.9182537343631
 20
-12.72551146386236
 30
0.0
 10
-68.93922582891341
 20
-12.74692281428599
 30
0.0
 10
-68.98115781836876
 20
-12.78973305996911
 30
0.0
 10
-69.25243990200435
 20
-13.07001021819052
 30
0.0
 10
-69.71944354525915
 20
-13.58089483376527
 30
0.0
 10
-70.32068538606562
 20
-14.33086814952035
 30
0.0
 10
-70.83544996067859
 20
-15.08253538695907
 30
0.0
 10
-71.25342177403857
 20
-15.82667882849288
 30
0.0
 10
-71.57762366812946
 20
-16.55332833561901
 30
0.0
 10
-71.71428242561443
 20
-17.04875062050195
 30
0.0
 10
-71.77785564113448
 20
-17.27921947789504
 30
0.0
 11
-68.9182537343631
 21
-12.72551146386236
 31
0.0
 11
-68.98110608476767
 21
-12.78980756394951
 31
0.0
 11
-69.04361567863995
 21
-12.8543641616895
 31
0.0
 11
-69.71034711637901
 21
-13.5867603214575
 31
0.0
 11
-70.33077920548656
 21
-14.36446778586069
 31
0.0
 11
-70.8346261119519
 21
-15.10554530773396
 31
0.0
 11
-71.24441353930149
 21
-15.83722327889336
 31
0.0
 11
-71.57128542109501
 21
-16.59321384288753
 31
0.0
 11
-71.77785564113448
 21
-17.27921947789504
 31
0.0
  0
SPLINE
  5
153
330
46
100
AcDbEntity
  8
0
  6
Continuous
 62
     7
100
AcDbSpline
210
0.0
220
0.0
230
1.0
 70
     8
 71
     3
 72
    15
 73
    11
 74
     9
 42
0.0000000001
 43
0.0000000001
 44
0.00000001
 40
0.0
 40
0.0
 40
0.0
 40
0.0
 40
0.7835253765687771
 40
1.605591501265566
 40
2.478279316194492
 40
3.409312678858937
 40
4.426197671584532
 40
5.468857457008191
 40
6.578308947321085
 40
7.817842180419561
 40
7.817842180419561
 40
7.817842180419561
 40
7.817842180419561
 10
-73.46133869680571
 20
-17.84097163370509
 30
0.0
 10
-73.41678960309697
 20
-17.58326034341588
 30
0.0
 10
-73.32550009494975
 20
-17.05516122902526
 30
0.0
 10
-73.05511401694687
 20
-16.27124172025149
 30
0.0
 10
-72.68784290525657
 20
-15.47566544698345
 30
0.0
 10
-72.21002289525354
 20
-14.6642079988901
 30
0.0
 10
-71.63282482253413
 20
-13.85017410837339
 30
0.0
 10
-70.95900947259253
 20
-13.03574604545923
 30
0.0
 10
-70.18717122293988
 20
-12.2084408698727
 30
0.0
 10
-69.6142985676748
 20
-11.67438576446053
 30
0.0
 10
-69.31200000972453
 20
-11.39257079782128
 30
0.0
 11
-73.46133869680571
 21
-17.84097163370509
 31
0.0
 11
-73.30771504350359
 21
-17.07265412845524
 31
0.0
 11
-73.0483678440149
 21
-16.29256968207051
 31
0.0
 11
-72.68353427869914
 21
-15.4998020667226
 31
0.0
 11
-72.21406346900916
 21
-14.69579940426227
 31
0.0
 11
-71.62794776820087
 21
-13.86482198357231
 31
0.0
 11
-70.96566269160985
 21
-13.05951588930471
 31
0.0
 11
-70.20822720885388
 21
-12.24885313647852
 31
0.0
 11
-69.31200000972453
 21
-11.39257079782128
 31
0.0
  0
SPLINE
  5
154
330
46
100
AcDbEntity
  8
0
  6
Continuous
 62
     7
100
AcDbSpline
210
0.0
220
0.0
230
1.0
 70
     8
 71
     3
 72
    34
 73
    30
 74
    28
 42
0.0000000001
 43
0.0000000001
 44
0.00000001
 40
0.0
 40
0.0
 40
0.0
 40
0.0
 40
0.0023573706652879
 40
0.006744351221912
 40
0.0128123401627381
 40
0.0194639237026675
 40
0.0256258018159456
 40
0.0382801406348373
 40
0.0512425486495936
 40
0.0778846396858126
 40
0.1024464367599995
 40
0.1329417418915948
 40
0.1671865291989678
 40
0.2049668772589124
 40
0.2490424395593928
 40
0.292826812206629
 40
0.3364671449905294
 40
0.3800808310086249
 40
0.4153305826246766
 40
0.447617926110853
 40
0.4766578425584057
 40
0.5020905257277838
 40
0.5262584989346581
 40
0.5548266093029167
 40
0.5873337195650896
 40
0.6233994962554233
 40
0.668724873578443
 40
0.7134339411126855
 40
0.7574598332746492
 40
0.7574598332746492
 40
0.7574598332746492
 40
0.7574598332746492
 10
-69.82919227441538
 20
-10.91873877598657
 30
0.0
 10
-69.82917913081391
 20
-10.91952445667792
 30
0.0
 10
-69.82914152745101
 20
-10.9217722603894
 30
0.0
 10
-69.8290426037589
 20
-10.92604195627281
 30
0.0
 10
-69.82884705721108
 20
-10.9317409397637
 30
0.0
 10
-69.82854927478598
 20
-10.93802791900535
 30
0.0
 10
-69.82803498178045
 20
-10.946501767841
 30
0.0
 10
-69.82718661811208
 20
-10.95706204120392
 30
0.0
 10
-69.8253262282497
 20
-10.97438367790988
 30
0.0
 10
-69.82215339662285
 20
-10.99554876124747
 30
0.0
 10
-69.81664469044388
 20
-11.02223078037978
 30
0.0
 10
-69.808897771802
 20
-11.05099535991563
 30
0.0
 10
-69.79769708290574
 20
-11.08331490324225
 30
0.0
 10
-69.78217069532243
 20
-11.11881129886381
 30
0.0
 10
-69.76200261469698
 20
-11.15559014098745
 30
0.0
 10
-69.73734891346211
 20
-11.19191043849015
 30
0.0
 10
-69.7095419774546
 20
-11.2256738576508
 30
0.0
 10
-69.68080232223043
 20
-11.25476112524185
 30
0.0
 10
-69.65272160241885
 20
-11.27897680511575
 30
0.0
 10
-69.62697059607187
 20
-11.29833253570975
 30
0.0
 10
-69.60284069182913
 20
-11.31430125745368
 30
0.0
 10
-69.58023990623511
 20
-11.32760164313203
 30
0.0
 10
-69.55717316503387
 20
-11.33973923516396
 30
0.0
 10
-69.53137957806209
 20
-11.35169281404117
 30
0.0
 10
-69.50123893272108
 20
-11.36358050078578
 30
0.0
 10
-69.46505571214847
 20
-11.37518835883875
 30
0.0
 10
-69.42408496485784
 20
-11.38476889823706
 30
0.0
 10
-69.37978378898623
 20
-11.39132250995465
 30
0.0
 10
-69.35019539852246
 20
-11.39215684307723
 30
0.0
 10
-69.33551510461953
 20
-11.39257079785005
 30
0.0
 11
-69.82919227441538
 21
-10.91873877598657
 31
0.0
 11
-69.82915107581962
 21
-10.92109578662067
 31
0.0
 11
-69.8290487531526
 21
-10.92548157371947
 31
0.0
 11
-69.82884116473564
 21
-10.93154601077786
 31
0.0
 11
-69.828526280469
 21
-10.93819013686692
 31
0.0
 11
-69.82815296896915
 21
-10.94434069622416
 31
0.0
 11
-69.82713918599727
 21
-10.95695436083954
 31
0.0
 11
-69.82575446984627
 21
-10.96984259511434
 31
0.0
 11
-69.82180129354197
 21
-10.99618976596605
 31
0.0
 11
-69.81683303678993
 21
-11.02024383631515
 31
0.0
 11
-69.80889978608187
 21
-11.04968916138165
 31
0.0
 11
-69.79768479230923
 21
-11.08204544937034
 31
0.0
 11
-69.78254541358284
 21
-11.11665980927067
 31
0.0
 11
-69.76135981252845
 21
-11.15530984808136
 31
0.0
 11
-69.73677974890998
 21
-11.19154369635372
 31
0.0
 11
-69.70904745183354
 21
-11.22523936884075
 31
0.0
 11
-69.67840515040517
 21
-11.2562748802955
 31
0.0
 11
-69.65171560558376
 21
-11.27930123880525
 31
0.0
 11
-69.62590947328681
 21
-11.2987052612044
 31
0.0
 11
-69.60169391264208
 21
-11.31473409054225
 31
0.0
 11
-69.57977608277734
 21
-11.32763486986811
 31
0.0
 11
-69.55838853724303
 21
-11.33888937229807
 31
0.0
 11
-69.5324687255476
 21
-11.35090187793538
 31
0.0
 11
-69.50222902718656
 21
-11.36282969670623
 31
0.0
 11
-69.46788182165525
 21
-11.37383013853678
 31
0.0
 11
-69.42375806559716
 21
-11.38419758667022
 31
0.0
 11
-69.37949067806224
 21
-11.39046648773939
 31
0.0
 11
-69.33551510461953
 21
-11.39257079785005
 31
0.0
  0
SPLINE
  5
155
330
46
100
AcDbEntity
  8
0
  6
Continuous
 62
     7
100
AcDbSpline
210
0.0
220
0.0
230
1.0
 70
     8
 71
     3
 72
    19
 73
    15
 74
    13
 42
0.0000000001
 43
0.0000000001
 44
0.00000001
 40
0.0
 40
0.0
 40
0.0
 40
0.0
 40
0.0266891099258921
 40
0.0532727333004413
 40
0.1083476914370815
 40
0.1784921634922532
 40
0.233002869556598
 40
0.302458878247388
 40
0.3369293313419271
 40
0.3712617573215387
 40
0.4078174686193395
 40
0.4395190867234393
 40
0.520144430998827
 40
0.6010785282297336
 40
0.6010785282297336
 40
0.6010785282297336
 40
0.6010785282297336
 10
-71.77785564113448
 20
-17.27921947789504
 30
0.0
 10
-71.78003300128047
 20
-17.28784755642544
 30
0.0
 10
-71.78437911573236
 20
-17.30506961170273
 30
0.0
 10
-71.79553762704722
 20
-17.33944194697117
 30
0.0
 10
-71.81483533059487
 20
-17.38631758236244
 30
0.0
 10
-71.84438616867058
 20
-17.43866851178657
 30
0.0
 10
-71.88277302675667
 20
-17.49087985906179
 30
0.0
 10
-71.91907098477186
 20
-17.52949942067557
 30
0.0
 10
-71.95393776644735
 20
-17.55968237903544
 30
0.0
 10
-71.98204013111119
 20
-17.58078933439528
 30
0.0
 10
-72.01083119112441
 20
-17.59932207707385
 30
0.0
 10
-72.05441766574437
 20
-17.62303745822302
 30
0.0
 10
-72.11454082220362
 20
-17.64779613699458
 30
0.0
 10
-72.16792045108714
 20
-17.6560127483775
 30
0.0
 10
-72.19466127188925
 20
-17.66012890536822
 30
0.0
 11
-71.77785564113448
 21
-17.27921947789504
 31
0.0
 11
-71.78467393605581
 21
-17.30502295523826
 31
0.0
 11
-71.7928122331406
 21
-17.33033021017197
 31
0.0
 11
-71.81382304803535
 21
-17.38123990150094
 31
0.0
 11
-71.84827256681275
 21
-17.44234209144454
 31
0.0
 11
-71.8805687618053
 21
-17.48625533391918
 31
0.0
 11
-71.92815774028578
 21
-17.53684610650114
 31
0.0
 11
-71.95422377966848
 21
-17.55940211961167
 31
0.0
 11
-71.98167843904419
 21
-17.580016608502
 31
0.0
 11
-72.0124306315705
 21
-17.59978078526991
 31
0.0
 11
-72.04025898961312
 21
-17.61496548411676
 31
0.0
 11
-72.11522148917993
 21
-17.64464830403369
 31
0.0
 11
-72.19466127188925
 21
-17.66012890536822
 31
0.0
  0
SPLINE
  5
156
330
46
100
AcDbEntity
  8
0
  6
Continuous
 62
     7
100
AcDbSpline
210
0.0
220
0.0
230
1.0
 70
     8
 71
     3
 72
    13
 73
     9
 74
     7
 42
0.0000000001
 43
0.0000000001
 44
0.00000001
 40
0.0
 40
0.0
 40
0.0
 40
0.0
 40
1.606472726386398
 40
3.419165098625201
 40
4.417968390722605
 40
5.492311686078827
 40
6.609204378976107
 40
7.859528132300546
 40
7.859528132300546
 40
7.859528132300546
 40
7.859528132300546
 10
-74.03269715703622
 20
-17.38574315107464
 30
0.0
 10
-73.91712742816138
 20
-16.86030707376737
 30
0.0
 10
-73.67115251869916
 20
-15.7419857555283
 30
0.0
 10
-72.9345628956095
 20
-14.4447045244627
 30
0.0
 10
-72.18518596116435
 20
-13.38961933550563
 30
0.0
 10
-71.50242157418728
 20
-12.57262101160829
 30
0.0
 10
-70.71545172861352
 20
-11.73695599175218
 30
0.0
 10
-70.13550849650775
 20
-11.20153768458725
 30
0.0
 10
-69.82919227441538
 20
-10.91873877598657
 30
0.0
 11
-74.03269715703622
 21
-17.38574315107464
 31
0.0
 11
-73.61444449865567
 21
-15.83467276763585
 31
0.0
 11
-72.76833685297882
 21
-14.23156469632565
 31
0.0
 11
-72.18956087312975
 21
-13.41754603471256
 31
0.0
 11
-71.50381876412719
 21
-12.59052047512109
 31
0.0
 11
-70.73736129844046
 21
-11.77812141016569
 31
0.0
 11
-69.82919227441538
 21
-10.91873877598657
 31
0.0
  0
SPLINE
  5
157
330
46
100
AcDbEntity
  8
0
  6
Continuous
 62
     7
100
AcDbSpline
210
0.0
220
0.0
230
1.0
 70
     8
 71
     3
 72
    17
 73
    13
 74
    11
 42
0.0000000001
 43
0.0000000001
 44
0.00000001
 40
0.0
 40
0.0
 40
0.0
 40
0.0
 40
0.1090724250534593
 40
0.2164960931784513
 40
0.3125221278007963
 40
0.4089207851761946
 40
0.5025356954594704
 40
0.5965676409678449
 40
0.6526105130055245
 40
0.7090469532449395
 40
0.770092358699483
 40
0.821017329875645
 40
0.821017329875645
 40
0.821017329875645
 40
0.821017329875645
 10
-73.46133869680571
 20
-17.84097163370509
 30
0.0
 10
-73.49765299472037
 20
-17.84506097799529
 30
0.0
 10
-73.56973265757915
 20
-17.85317785136686
 30
0.0
 10
-73.67338163677893
 20
-17.83268152121768
 30
0.0
 10
-73.76628383514556
 20
-17.79475799375763
 30
0.0
 10
-73.84662098689603
 20
-17.7422653732846
 30
0.0
 10
-73.91560345072884
 20
-17.67670971166027
 30
0.0
 10
-73.96354994202014
 20
-17.61050019911217
 30
0.0
 10
-73.99502405419584
 20
-17.549109691933
 30
0.0
 10
-74.01507466526185
 20
-17.49473723069359
 30
0.0
 10
-74.02820103086788
 20
-17.43990904854999
 30
0.0
 10
-74.03129156075242
 20
-17.40267670261433
 30
0.0
 10
-74.03269715703622
 20
-17.38574315107464
 30
0.0
 11
-73.46133869680571
 21
-17.84097163370509
 31
0.0
 11
-73.57021102031202
 21
-17.84757550237286
 31
0.0
 11
-73.67592389946633
 21
-17.8284801716783
 31
0.0
 11
-73.76478012424612
 21
-17.79207178468883
 31
0.0
 11
-73.84554426862961
 21
-17.73944238106517
 31
0.0
 11
-73.91334891507431
 21
-17.67489564336407
 31
0.0
 11
-73.96841177525691
 21
-17.59867170877262
 31
0.0
 11
-73.9939348238422
 21
-17.5487780468791
 31
0.0
 11
-74.01352259769276
 21
-17.49584987949654
 31
0.0
 11
-74.02731436935896
 21
-17.43638284189236
 31
0.0
 11
-74.03269715703622
 21
-17.38574315107464
 31
0.0
  0
SPLINE
  5
158
330
46
100
AcDbEntity
  8
0
  6
Continuous
 62
     7
100
AcDbSpline
210
0.0
220
0.0
230
1.0
 70
     8
 71
     3
 72
     9
 73
     5
 74
     3
 42
0.0000000001
 43
0.0000000001
 44
0.00000001
 40
0.0
 40
0.0
 40
0.0
 40
0.0
 40
0.6440008502976965
 40
1.279832128703706
 40
1.279832128703706
 40
1.279832128703706
 40
1.279832128703706
 10
-73.46133869680571
 20
-17.84097163370509
 30
0.0
 10
-73.24987740042175
 20
-17.80363298572307
 30
0.0
 10
-72.82963733247092
 20
-17.72942935492404
 30
0.0
 10
-72.40541731538751
 20
-17.68313054191442
 30
0.0
 10
-72.19466127188925
 20
-17.66012890536822
 30
0.0
 11
-73.46133869680571
 21
-17.84097163370509
 31
0.0
 11
-72.82594707719336
 21
-17.73602124108767
 31
0.0
 11
-72.19466127188925
 21
-17.66012890536822
 31
0.0
  0
SPLINE
  5
159
330
46
100
AcDbEntity
  8
0
  6
Continuous
 62
     7
100
AcDbSpline
210
0.0
220
0.0
230
1.0
 70
    24
 71
     3
 72
    11
 73
     7
 74
     5
 42
0.0000000001
 43
0.0000000001
 44
0.00000001
 40
0.0
 40
0.0
 40
0.0
 40
0.0
 40
1.1426749678654
 40
2.285335006667828
 40
5.509819363687328
 40
8.734162239057147
 40
8.734162239057147
 40
8.734162239057147
 40
8.734162239057147
 10
-74.4728660183993
 20
-8.662679389318791
 30
0.0
 10
-74.45367051436403
 20
-9.043087047234712
 30
0.0
 10
-74.41527975708303
 20
-9.80389739303567
 30
0.0
 10
-74.32272171319157
 20
-11.63817007654033
 30
0.0
 10
-74.19519426343916
 20
-14.1654503392097
 30
0.0
 10
-74.08686206693255
 20
-16.31232791399403
 30
0.0
 10
-74.03269715703622
 20
-17.38574315107464
 30
0.0
 11
-74.4728660183993
 21
-8.662679389318791
 31
0.0
 11
-74.4152795062935
 21
-9.803902363066552
 31
0.0
 11
-74.3576937465562
 21
-10.94511042672166
 31
0.0
 11
-74.19519188672517
 21
-14.16549743983281
 31
0.0
 11
-74.03269715703622
 21
-17.38574315107464
 31
0.0
  0
SPLINE
  5
15A
330
46
100
AcDbEntity
  8
0
  6
Continuous
 62
     7
100
AcDbSpline
210
0.0
220
0.0
230
1.0
 70
     8
 71
     3
 72
     9
 73
     5
 74
     3
 42
0.0000000001
 43
0.0000000001
 44
0.00000001
 40
0.0
 40
0.0
 40
0.0
 40
0.0
 40
0.9765974337599301
 40
1.958543468310259
 40
1.958543468310259
 40
1.958543468310259
 40
1.958543468310259
 10
-67.48389769744
 20
-11.39257079785005
 30
0.0
 10
-67.72947970768584
 20
-11.60639851216277
 30
0.0
 10
-68.22198872468144
 20
-12.03522502627568
 30
0.0
 10
-68.68574324092725
 20
-12.49499745269765
 30
0.0
 10
-68.9182537343631
 20
-12.72551146386236
 30
0.0
 11
-67.48389769744
 21
-11.39257079785005
 31
0.0
 11
-68.21349431231738
 21
-12.04174822135302
 31
0.0
 11
-68.9182537343631
 21
-12.72551146386236
 31
0.0
  0
SPLINE
  5
15B
330
46
100
AcDbEntity
  8
0
  6
Continuous
 62
     7
100
AcDbSpline
210
0.0
220
0.0
230
1.0
 70
     8
 71
     3
 72
     9
 73
     5
 74
     3
 42
0.0000000001
 43
0.0000000001
 44
0.00000001
 40
0.0
 40
0.0
 40
0.0
 40
0.0
 40
0.0255228568125292
 40
0.0510031876806695
 40
0.0510031876806695
 40
0.0510031876806695
 40
0.0510031876806695
 10
-57.02688075154427
 20
-11.39257079785016
 30
0.0
 10
-57.03460756343868
 20
-11.38901046650407
 30
0.0
 10
-57.05004831288601
 20
-11.38189573600254
 30
0.0
 10
-57.06548644628579
 20
-11.37477533076654
 30
0.0
 10
-57.07319907690558
 20
-11.37121809660964
 30
0.0
 11
-57.02688075154427
 21
-11.39257079785016
 31
0.0
 11
-57.05006053212448
 21
-11.38188838276151
 31
0.0
 11
-57.07319907690558
 21
-11.37121809660964
 31
0.0
  0
SPLINE
  5
15C
330
46
100
AcDbEntity
  8
0
  6
Continuous
 62
     7
100
AcDbSpline
210
0.0
220
0.0
230
1.0
 70
     8
 71
     3
 72
    43
 73
    39
 74
    37
 42
0.0000000001
 43
0.0000000001
 44
0.00000001
 40
0.0
 40
0.0
 40
0.0
 40
0.0
 40
0.0013019861057647
 40
0.0023489427945157
 40
0.0035234801444753
 40
0.0046981452800135
 40
0.006854927707937
 40
0.0093984231280614
 40
0.0138465186155189
 40
0.0188043210693148
 40
0.0278774012675308
 40
0.0376241270449889
 40
0.0555344023773186
 40
0.0751962706902572
 40
0.0895854911028067
 40
0.106058828408272
 40
0.124438015740866
 40
0.1445491738880515
 40
0.1662235121082604
 40
0.1892981429928254
 40
0.2072525975936517
 40
0.2272549982681956
 40
0.2490031281353399
 40
0.2722047326272838
 40
0.2965799681666813
 40
0.3201695053782014
 40
0.3415395913372217
 40
0.3607499509842481
 40
0.3778490806874117
 40
0.3928739858518218
 40
0.412710463874824
 40
0.4311230968826332
 40
0.4482089242447569
 40
0.464055941002627
 40
0.4787420256952042
 40
0.4966347468160179
 40
0.513863672962768
 40
0.5305364101256159
 40
0.5305364101256159
 40
0.5305364101256159
 40
0.5305364101256159
 10
-57.31008828418184
 20
-10.9187387764757
 30
0.0
 10
-57.3100464393042
 20
-10.91917075738212
 30
0.0
 10
-57.30997094600716
 20
-10.91995010397654
 30
0.0
 10
-57.30983998419489
 20
-10.92111729370924
 30
0.0
 10
-57.3097178626349
 20
-10.92224273651088
 30
0.0
 10
-57.30955317409139
 20
-10.92373567735373
 30
0.0
 10
-57.30933539839903
 20
-10.92568184618854
 30
0.0
 10
-57.30898779263619
 20
-10.92871143201801
 30
0.0
 10
-57.30851729222971
 20
-10.93266669780799
 30
0.0
 10
-57.30775504531173
 20
-10.93877904284779
 30
0.0
 10
-57.30670812130803
 20
-10.94663563723258
 30
0.0
 10
-57.30495551028035
 20
-10.95875314304998
 30
0.0
 10
-57.3024447063852
 20
-10.97432619122217
 30
0.0
 10
-57.299317961636
 20
-10.99136363330988
 30
0.0
 10
-57.29595863798987
 20
-11.00786736374565
 30
0.0
 10
-57.2924042307648
 20
-11.02389279700402
 30
0.0
 10
-57.28808646768777
 20
-11.04169930994533
 30
0.0
 10
-57.28293820653424
 20
-11.06108394646722
 30
0.0
 10
-57.27689214196303
 20
-11.0818436739565
 30
0.0
 10
-57.27052686617023
 20
-11.10175484344704
 30
0.0
 10
-57.26385758137031
 20
-11.12097601203431
 30
0.0
 10
-57.25689309095722
 20
-11.13962157877947
 30
0.0
 10
-57.24877258985889
 20
-11.15969494029747
 30
0.0
 10
-57.23945199648549
 20
-11.18084466620159
 30
0.0
 10
-57.2291326712342
 20
-11.20221080030041
 30
0.0
 10
-57.21828997347993
 20
-11.22262798875192
 30
0.0
 10
-57.20751826350083
 20
-11.24111414845819
 30
0.0
 10
-57.19719495052161
 20
-11.25733981237212
 30
0.0
 10
-57.18746200820321
 20
-11.27141868558671
 30
0.0
 10
-57.17709266657454
 20
-11.28529600594313
 30
0.0
 10
-57.16585528278964
 20
-11.29905688504296
 30
0.0
 10
-57.15345056431899
 20
-11.31271903143926
 30
0.0
 10
-57.14127931013223
 20
-11.32476377117726
 30
0.0
 10
-57.12940401433445
 20
-11.33530737356604
 30
0.0
 10
-57.11676969932672
 20
-11.34536743674785
 30
0.0
 10
-57.10315001997889
 20
-11.35488049499931
 30
0.0
 10
-57.08836144899831
 20
-11.3638328730068
 30
0.0
 10
-57.07819761850579
 20
-11.36878342826224
 30
0.0
 10
-57.07319907690558
 20
-11.37121809660964
 30
0.0
 11
-57.31008828418184
 21
-10.9187387764757
 31
0.0
 11
-57.30995912022318
 21
-10.92003433986334
 31
0.0
 11
-57.30984532298059
 21
-10.92107509367462
 31
0.0
 11
-57.30971752069092
 21
-10.92224265718947
 31
0.0
 11
-57.30958885408419
 21
-10.92341025433102
 31
0.0
 11
-57.30934881498856
 21
-10.9255536375618
 31
0.0
 11
-57.30905888565034
 21
-10.92808055464216
 31
0.0
 11
-57.3085334175525
 21
-10.9324975034469
 31
0.0
 11
-57.307919927246
 21
-10.9374172020977
 31
0.0
 11
-57.30672165809354
 21
-10.94641080734374
 31
0.0
 11
-57.30532668099759
 21
-10.95605719020379
 31
0.0
 11
-57.3024769195496
 21
-10.97373929477789
 31
0.0
 11
-57.2989289912064
 21
-10.99307840721944
 31
0.0
 11
-57.29605901132746
 21
-11.00717850933167
 31
0.0
 11
-57.29249217189554
 21
-11.02326106194146
 31
0.0
 11
-57.28816098031199
 21
-11.0411226214051
 31
0.0
 11
-57.28299794397816
 21
-11.06055974407891
 31
0.0
 11
-57.27693557029537
 21
-11.08136898631918
 31
0.0
 11
-57.26990636666498
 21
-11.10334690448222
 31
0.0
 11
-57.26401876141306
 21
-11.12030858318483
 31
0.0
 11
-57.25701647486137
 21
-11.13904528555726
 31
0.0
 11
-57.2488551333236
 21
-11.1592039972478
 31
0.0
 11
-57.23949036311347
 21
-11.18043170390471
 31
0.0
 11
-57.22887779054466
 21
-11.20237539117629
 31
0.0
 11
-57.21780079760424
 21
-11.22320245273695
 31
0.0
 11
-57.20703064456634
 21
-11.24166009011111
 31
0.0
 11
-57.19670913122809
 21
-11.25786207394571
 31
0.0
 11
-57.18697805738665
 21
-11.27192217488767
 31
0.0
 11
-57.17797922283918
 21
-11.28395416358392
 31
0.0
 11
-57.16541874143381
 21
-11.29930734459707
 31
0.0
 11
-57.15303020290486
 21
-11.31292898794128
 31
0.0
 11
-57.14087630902917
 21
-11.32493766648252
 31
0.0
 11
-57.12901976158362
 21
-11.33545195308674
 31
0.0
 11
-57.11752326234503
 21
-11.3445904206199
 31
0.0
 11
-57.10285839830203
 21
-11.3548418220708
 31
0.0
 11
-57.08807762206518
 21
-11.36369419745859
 31
0.0
 11
-57.07319907690558
 21
-11.37121809660964
 31
0.0
  0
SPLINE
  5
15D
330
46
100
AcDbEntity
  8
0
  6
Continuous
 62
     7
100
AcDbSpline
210
0.0
220
0.0
230
1.0
 70
     8
 71
     3
 72
    11
 73
     7
 74
     5
 42
0.0000000001
 43
0.0000000001
 44
0.00000001
 40
0.0
 40
0.0
 40
0.0
 40
0.0
 40
3.897330428454401
 40
8.632471194819662
 40
13.59544819269865
 40
18.15768146523415
 40
18.15768146523415
 40
18.15768146523415
 40
18.15768146523415
 10
-57.31008828418184
 20
-10.9187387764757
 30
0.0
 10
-56.12346456048685
 20
-11.44783389327958
 30
0.0
 10
-53.49512824106709
 20
-12.61976386918892
 30
0.0
 10
-49.27658585376105
 20
-14.27909733769784
 30
0.0
 10
-44.80650065437014
 20
-15.89791625483685
 30
0.0
 10
-41.78617426273307
 20
-16.87768443371387
 30
0.0
 10
-40.33954650684583
 20
-17.34695816711669
 30
0.0
 11
-57.31008828418184
 21
-10.9187387764757
 31
0.0
 11
-53.73997678548925
 21
-12.48190490822866
 31
0.0
 11
-49.33994852408413
 21
-14.23156469691057
 31
0.0
 11
-44.67150831423231
 21
-15.91584694419416
 31
0.0
 11
-40.33954650684583
 21
-17.34695816711669
 31
0.0
  0
SPLINE
  5
15E
330
46
100
AcDbEntity
  8
0
  6
Continuous
 62
     7
100
AcDbSpline
210
0.0
220
0.0
230
1.0
 70
     8
 71
     3
 72
    11
 73
     7
 74
     5
 42
0.0000000001
 43
0.0000000001
 44
0.00000001
 40
0.0
 40
0.0
 40
0.0
 40
0.0
 40
3.224342880129232
 40
6.4488272422069
 40
7.591487275901736
 40
8.734162238661597
 40
8.734162238661597
 40
8.734162238661597
 40
8.734162238661597
 10
74.03269719217214
 20
-17.38574315244934
 30
0.0
 10
74.08686208963441
 20
-16.31232791315281
 30
0.0
 10
74.1951942612774
 20
-14.16545033383716
 30
0.0
 10
74.32272171374014
 20
-11.63817006973257
 30
0.0
 10
74.41527975731134
 20
-9.803897387932249
 30
0.0
 10
74.45367051444019
 20
-9.043087045532323
 30
0.0
 10
74.47286601839939
 20
-8.662679389316574
 30
0.0
 11
74.03269719217214
 21
-17.38574315244934
 31
0.0
 11
74.19519189137458
 21
-14.16549743490367
 31
0.0
 11
74.35769374707094
 21
-10.94511041651929
 31
0.0
 11
74.41527950655087
 21
-9.803902357965283
 31
0.0
 11
74.47286601839939
 21
-8.662679389316574
 31
0.0
  0
SPLINE
  5
15F
330
46
100
AcDbEntity
  8
0
  6
Continuous
 62
     7
100
AcDbSpline
210
0.0
220
0.0
230
1.0
 70
     8
 71
     3
 72
    11
 73
     7
 74
     5
 42
0.0000000001
 43
0.0000000001
 44
0.00000001
 40
0.0
 40
0.0
 40
0.0
 40
0.0
 40
1.147401684498144
 40
2.282494083851746
 40
5.556021735737845
 40
8.723370122794272
 40
8.723370122794272
 40
8.723370122794272
 40
8.723370122794272
 10
-33.74270379394981
 20
-8.662679389318564
 30
0.0
 10
-33.74546349268689
 20
-9.04513666598705
 30
0.0
 10
-33.75095328420953
 20
-9.80594823103516
 30
0.0
 10
-33.76503658751579
 20
-11.65790192562696
 30
0.0
 10
-33.78551632498755
 20
-14.18314234820322
 30
0.0
 10
-33.80565723353216
 20
-16.33000672894666
 30
0.0
 10
-33.81556167414037
 20
-17.38574315244923
 30
0.0
 11
-33.74270379394981
 21
-8.662679389318564
 31
0.0
 11
-33.7510576483022
 21
-9.810050662580466
 31
0.0
 11
-33.75966535598126
 21
-10.94511042419605
 31
0.0
 11
-33.78650844108738
 21
-14.21852801693379
 31
0.0
 11
-33.81556167414037
 21
-17.38574315244923
 31
0.0
  0
SPLINE
  5
160
330
46
100
AcDbEntity
  8
0
  6
Continuous
 62
     7
100
AcDbSpline
210
0.0
220
0.0
230
1.0
 70
     8
 71
     3
 72
    11
 73
     7
 74
     5
 42
0.0000000001
 43
0.0000000001
 44
0.00000001
 40
0.0
 40
0.0
 40
0.0
 40
0.0
 40
3.16734640398888
 40
6.440876046592944
 40
7.575968772002216
 40
8.723370122767697
 40
8.723370122767697
 40
8.723370122767697
 40
8.723370122767697
 10
33.81556167405473
 20
-17.38574315242342
 30
0.0
 10
33.80565723950644
 20
-16.33000738991577
 30
0.0
 10
33.78551633065076
 20
-14.18314300662526
 30
0.0
 10
33.76503659160853
 20
-11.65790247282208
 30
0.0
 10
33.75095328336497
 20
-9.805948117235065
 30
0.0
 10
33.74546349187636
 20
-9.04513655474578
 30
0.0
 10
33.74270379394978
 20
-8.662679389318564
 30
0.0
 11
33.81556167405473
 21
-17.38574315242342
 31
0.0
 11
33.78650845828621
 21
-14.2185299999004
 31
0.0
 11
33.75966535592171
 21
-10.94511041651929
 31
0.0
 11
33.75105764582209
 21
-9.810050328857015
 31
0.0
 11
33.74270379394978
 21
-8.662679389318564
 31
0.0
  0
SPLINE
  5
161
330
46
100
AcDbEntity
  8
0
  6
Continuous
 62
     7
100
AcDbSpline
210
0.0
220
0.0
230
1.0
 70
     8
 71
     3
 72
    37
 73
    33
 74
    31
 42
0.0000000001
 43
0.0000000001
 44
0.00000001
 40
0.0
 40
0.0
 40
0.0
 40
0.0
 40
0.0023573706583543
 40
0.0067443481869852
 40
0.0128123398467421
 40
0.0194638867062447
 40
0.0256258014958775
 40
0.0387650801672972
 40
0.0512425475755015
 40
0.0768857849531263
 40
0.102446461539155
 40
0.1329417666046141
 40
0.1671865539096109
 40
0.2049669020194489
 40
0.2490424642956233
 40
0.2928268369274056
 40
0.3364671697044675
 40
0.3800808557245086
 40
0.4153306073490588
 40
0.4476179508398379
 40
0.4766578672873631
 40
0.5020905504513556
 40
0.5379604051742746
 40
0.5703644469750898
 40
0.5989778986560688
 40
0.6233996441062764
 40
0.6438055229624224
 40
0.6664643879579513
 40
0.6911572090666915
 40
0.7112572528325077
 40
0.7334456995815218
 40
0.7574949380038783
 40
0.7574949380038783
 40
0.7574949380038783
 40
0.7574949380038783
 10
69.82919227496025
 20
-10.9187387764757
 30
0.0
 10
69.82917913116026
 20
-10.91952445716029
 30
0.0
 10
69.82914152724615
 20
-10.92177225984752
 30
0.0
 10
69.82904260386822
 20
-10.92604195567156
 30
0.0
 10
69.82884705765609
 20
-10.93174092659782
 30
0.0
 10
69.828549275338
 20
-10.93802790776015
 30
0.0
 10
69.82802519046056
 20
-10.94666310479955
 30
0.0
 10
69.82717149557187
 20
-10.95722308412338
 30
0.0
 10
69.82533796924217
 20
-10.9742125839095
 30
0.0
 10
69.82221146381164
 20
-10.99521993155176
 30
0.0
 10
69.81673132536922
 20
-11.02190917653306
 30
0.0
 10
69.8088977775132
 20
-11.05099531437472
 30
0.0
 10
69.79769708107318
 20
-11.08331491756171
 30
0.0
 10
69.78217069590795
 20
-11.11881129423559
 30
0.0
 10
69.76200261430436
 20
-11.15559014246097
 30
0.0
 10
69.73734891407219
 20
-11.19191043802566
 30
0.0
 10
69.70954197508027
 20
-11.22567385848519
 30
0.0
 10
69.68080233007356
 20
-11.25476112296205
 30
0.0
 10
69.65272157988225
 20
-11.27897681176644
 30
0.0
 10
69.62697066932046
 20
-11.29833251425628
 30
0.0
 10
69.6028404604357
 20
-11.31430132535004
 30
0.0
 10
69.57687773725735
 20
-11.32958051164246
 30
0.0
 10
69.54905034072041
 20
-11.34382604534428
 30
0.0
 10
69.51938691860602
 20
-11.35664779640875
 30
0.0
 10
69.4926182142216
 20
-11.36641255887096
 30
0.0
 10
69.46921381643386
 20
-11.37362136818554
 30
0.0
 10
69.44744222596981
 20
-11.37930518405491
 30
0.0
 10
69.42535995478184
 20
-11.38408227991607
 30
0.0
 10
69.40317514503144
 20
-11.38780179277462
 30
0.0
 10
69.3810032380724
 20
-11.39046451281344
 30
0.0
 10
69.35894668990122
 20
-11.39221244060779
 30
0.0
 10
69.34353241071626
 20
-11.39244818302614
 30
0.0
 10
69.33551510461945
 20
-11.39257079785005
 30
0.0
 11
69.82919227496025
 21
-10.9187387764757
 31
0.0
 11
69.82915107585757
 21
-10.92109578709401
 31
0.0
 11
69.82904875322043
 21
-10.92548157116469
 31
0.0
 11
69.82884116472617
 21
-10.93154601094095
 31
0.0
 11
69.82852628244683
 21
-10.93819010040259
 31
0.0
 11
69.82815296895826
 21
-10.94434069638298
 31
0.0
 11
69.8270937002152
 21
-10.95743720712956
 31
0.0
 11
69.82575446982715
 21
-10.96984259526901
 31
0.0
 11
69.82197649403068
 21
-10.995206004387
 31
0.0
 11
69.81683303675648
 21
-11.02024383645777
 31
0.0
 11
69.80889978605829
 21
-11.04968916145844
 31
0.0
 11
69.79768479228085
 21
-11.08204544944295
 31
0.0
 11
69.78254541352688
 21
-11.11665980938567
 31
0.0
 11
69.76135981247437
 21
-11.15530984816967
 31
0.0
 11
69.73677974885712
 21
-11.19154369642418
 31
0.0
 11
69.70904745177904
 21
-11.22523936890101
 31
0.0
 11
69.67840515034409
 21
-11.256274880352
 31
0.0
 11
69.65171560551221
 21
-11.27930123886262
 31
0.0
 11
69.62590947320798
 21
-11.29870526125975
 31
0.0
 11
69.60169391256028
 21
-11.31473409059307
 31
0.0
 11
69.57977608269785
 21
-11.32763486991222
 31
0.0
 11
69.54784772709303
 21
-11.34398193650582
 31
0.0
 11
69.51810345779654
 21
-11.35683885561761
 31
0.0
 11
69.49122193566667
 21
-11.36664259903944
 31
0.0
 11
69.46788182156178
 21
-11.37383013856316
 31
0.0
 11
69.44813719886812
 21
-11.37898278512363
 31
0.0
 11
69.42599031839326
 21
-11.38377234127401
 31
0.0
 11
69.40163576399021
 21
-11.38784555795586
 31
0.0
 11
69.3816804663824
 21
-11.39025343186691
 31
0.0
 11
69.35955599371162
 21
-11.39193714151339
 31
0.0
 11
69.33551510461945
 21
-11.39257079785005
 31
0.0
  0
SPLINE
  5
162
330
46
100
AcDbEntity
  8
0
  6
Continuous
 62
     7
100
AcDbSpline
210
0.0
220
0.0
230
1.0
 70
     8
 71
     3
 72
    40
 73
    36
 74
    34
 42
0.0000000001
 43
0.0000000001
 44
0.00000001
 40
0.0
 40
0.0
 40
0.0
 40
0.0
 40
0.0013019827166313
 40
0.0023489432242286
 40
0.0035234805755972
 40
0.0046981457126051
 40
0.0068550252246912
 40
0.0093984235661832
 40
0.0138464811498246
 40
0.018804321519909
 40
0.0278774350539901
 40
0.0376241275190773
 40
0.0570344057252047
 40
0.0751962717016695
 40
0.1135913345734415
 40
0.151701617507317
 40
0.1892915686679943
 40
0.2072460232835552
 40
0.2272484239645149
 40
0.2489965538308724
 40
0.2721981583159274
 40
0.2965733938433799
 40
0.3201629310775201
 40
0.3415330170483903
 40
0.3607433766964914
 40
0.3778425063898569
 40
0.392867411533428
 40
0.4127038895008186
 40
0.4311165224818465
 40
0.4482023498450345
 40
0.4640493666313322
 40
0.478735451379641
 40
0.4966281727697216
 40
0.5138570989365151
 40
0.5305298358755003
 40
0.5305298358755003
 40
0.5305298358755003
 40
0.5305298358755003
 10
57.31008828524751
 20
-10.91873877598657
 30
0.0
 10
57.31004644006284
 20
-10.91917075572705
 30
0.0
 10
57.30997094600154
 20
-10.91995010238921
 30
0.0
 10
57.30983998440565
 20
-10.92111729228772
 30
0.0
 10
57.3097178626416
 20
-10.92224273634928
 30
0.0
 10
57.30955317057556
 20
-10.92373570936167
 30
0.0
 10
57.3093353947616
 20
-10.92568187818794
 30
0.0
 10
57.30898779027266
 20
-10.92871145143308
 30
0.0
 10
57.308517293758
 20
-10.93266668520292
 30
0.0
 10
57.30775504572637
 20
-10.93877904072134
 30
0.0
 10
57.3067081190304
 20
-10.9466356517328
 30
0.0
 10
57.30488393874112
 20
-10.95924799469176
 30
0.0
 10
57.30235938068589
 20
-10.97481916223986
 30
0.0
 10
57.2977671820329
 20
-10.99972308937051
 30
0.0
 10
57.29104985254095
 20
-11.03056677235346
 30
0.0
 10
57.2813639377519
 20
-11.06735588123533
 30
0.0
 10
57.2721129492196
 20
-11.09718359206002
 30
0.0
 10
57.26385760104871
 20
-11.12097597416774
 30
0.0
 10
57.25689308495004
 20
-11.13962159031993
 30
0.0
 10
57.24877259167415
 20
-11.15969493679579
 30
0.0
 10
57.23945199598951
 20
-11.18084466714843
 30
0.0
 10
57.22913267140012
 20
-11.20221079997935
 30
0.0
 10
57.21828997347347
 20
-11.22262798876767
 30
0.0
 10
57.20751826353033
 20
-11.24111414840747
 30
0.0
 10
57.19719495054264
 20
-11.2573398123408
 30
0.0
 10
57.18746200823315
 20
-11.27141868554419
 30
0.0
 10
57.17709266662305
 20
-11.2852960058799
 30
0.0
 10
57.16585528286355
 20
-11.29905688495547
 30
0.0
 10
57.15345056441645
 20
-11.31271903133661
 30
0.0
 10
57.14127931023476
 20
-11.32476377108098
 30
0.0
 10
57.12940401442061
 20
-11.33530737349417
 30
0.0
 10
57.11676969932419
 20
-11.34536743675384
 30
0.0
 10
57.1031500198791
 20
-11.3548804950679
 30
0.0
 10
57.08836144887178
 20
-11.36383287307324
 30
0.0
 10
57.07819761843923
 20
-11.36878342829625
 30
0.0
 10
57.07319907690555
 20
-11.37121809660964
 30
0.0
 11
57.31008828524751
 21
-10.91873877598657
 31
0.0
 11
57.30995912066547
 21
-10.92003433590612
 31
0.0
 11
57.30984532300216
 21
-10.92107509351301
 31
0.0
 11
57.30971752071253
 21
-10.92224265702928
 31
0.0
 11
57.30958885410633
 21
-10.92341025417237
 31
0.0
 11
57.3093488040816
 21
-10.92555373387026
 31
0.0
 11
57.30905888566475
 21
-10.92808055448817
 31
0.0
 11
57.30853342214792
 21
-10.9324974656668
 31
0.0
 11
57.30791992726348
 21
-10.93741720195668
 31
0.0
 11
57.30672165353066
 21
-10.9464108402229
 31
0.0
 11
57.30532668101456
 21
-10.95605719008636
 31
0.0
 11
57.30222160255944
 21
-10.97521749769941
 31
0.0
 11
57.29892899122024
 21
-10.99307840714759
 31
0.0
 11
57.29076111454941
 21
-11.03059462555533
 31
0.0
 11
57.28105337672006
 21
-11.06744775963558
 31
0.0
 11
57.26990636668871
 21
-11.10334690441123
 31
0.0
 11
57.2640187614333
 21
-11.12030858312823
 31
0.0
 11
57.25701647488066
 21
-11.13904528550715
 31
0.0
 11
57.24885513334461
 21
-11.15920399719753
 31
0.0
 11
57.23949036313898
 21
-11.1804317038489
 31
0.0
 11
57.2288777905776
 21
-11.20237539111081
 31
0.0
 11
57.21780079762876
 21
-11.22320245269261
 31
0.0
 11
57.20703064458645
 21
-11.24166009007792
 31
0.0
 11
57.19670913124888
 21
-11.25786207391423
 31
0.0
 11
57.18697805741431
 21
-11.27192217484902
 31
0.0
 11
57.17797922288094
 21
-11.2839541635298
 31
0.0
 11
57.16541874151464
 21
-11.29930734450305
 31
0.0
 11
57.15303020300909
 21
-11.31292898783235
 31
0.0
 11
57.14087630913833
 21
-11.32493766638009
 31
0.0
 11
57.12901976167637
 21
-11.33545195300866
 31
0.0
 11
57.1175232623973
 21
-11.34459042058045
 31
0.0
 11
57.10285839813077
 21
-11.35484182218157
 31
0.0
 11
57.08807762186895
 21
-11.36369419756667
 31
0.0
 11
57.07319907690555
 21
-11.37121809660964
 31
0.0
  0
SPLINE
  5
163
330
46
100
AcDbEntity
  8
0
  6
Continuous
 62
     7
100
AcDbSpline
210
0.0
220
0.0
230
1.0
 70
     8
 71
     3
 72
    13
 73
     9
 74
     7
 42
0.0000000001
 43
0.0000000001
 44
0.00000001
 40
0.0
 40
0.0
 40
0.0
 40
0.0
 40
1.250323748222745
 40
2.367216446297801
 40
3.441559741975487
 40
4.440363033640887
 40
6.253055407597328
 40
7.85952814293884
 40
7.85952814293884
 40
7.85952814293884
 40
7.85952814293884
 10
69.82919227496025
 20
-10.9187387764757
 30
0.0
 10
70.1355084958026
 20
-11.20153768391626
 30
0.0
 10
70.7154517279267
 20
-11.73695599108665
 30
0.0
 10
71.50242157373296
 20
-12.57262101096313
 30
0.0
 10
72.18518596156136
 20
-13.38961933620283
 30
0.0
 10
72.93456289704152
 20
-14.44470452564098
 30
0.0
 10
73.67115251647314
 20
-15.7419857598911
 30
0.0
 10
73.91712745116148
 20
-16.86030707522036
 30
0.0
 10
74.03269719217214
 20
-17.38574315244934
 30
0.0
 11
69.82919227496025
 21
-10.9187387764757
 31
0.0
 11
70.73736129535084
 21
-11.77812140707314
 31
0.0
 11
71.5038187646637
 21
-12.59052047572591
 31
0.0
 11
72.1895608738194
 21
-13.417546035608
 31
0.0
 11
72.76833685335953
 21
-14.23156469691068
 31
0.0
 11
73.61444450312574
 21
-15.83467276800475
 31
0.0
 11
74.03269719217214
 21
-17.38574315244934
 31
0.0
  0
SPLINE
  5
164
330
46
100
AcDbEntity
  8
0
  6
Continuous
 62
     7
100
AcDbSpline
210
0.0
220
0.0
230
1.0
 70
     8
 71
     3
 72
    13
 73
     9
 74
     7
 42
0.0000000001
 43
0.0000000001
 44
0.00000001
 40
0.0
 40
0.0
 40
0.0
 40
0.0
 40
1.217118542787711
 40
2.368010313171627
 40
3.447304877154481
 40
4.451975532883777
 40
6.27665233062414
 40
7.882970745595391
 40
7.882970745595391
 40
7.882970745595391
 40
7.882970745595391
 10
67.61202929522328
 20
-11.39257079785005
 30
0.0
 10
67.91853313715956
 20
-11.65851944199796
 30
0.0
 10
68.51486310274322
 20
-12.17594573202377
 30
0.0
 10
69.33408530105578
 20
-12.98261468151855
 30
0.0
 10
70.06105258535821
 20
-13.78054258096045
 30
0.0
 10
70.86753002055886
 20
-14.80257690761872
 30
0.0
 10
71.6843374881036
 20
-16.05376371127942
 30
0.0
 10
72.03192721320607
 20
-17.14788484372137
 30
0.0
 10
72.19466127188922
 20
-17.66012890536834
 30
0.0
 11
67.61202929522328
 21
-11.39257079785005
 31
0.0
 11
68.52266630583827
 21
-12.20010889732021
 31
0.0
 11
69.34343105859892
 21
-13.00689083053585
 31
0.0
 11
70.06753911068714
 21
-13.8072309362059
 31
0.0
 11
70.69042164283391
 21
-14.59550784036456
 31
0.0
 11
71.64416227793255
 21
-16.15108625920871
 31
0.0
 11
72.19466127188922
 21
-17.66012890536834
 31
0.0
  0
SPLINE
  5
165
330
46
100
AcDbEntity
  8
0
  6
Continuous
 62
     7
100
AcDbSpline
210
0.0
220
0.0
230
1.0
 70
     8
 71
     3
 72
    15
 73
    11
 74
     9
 42
0.0000000001
 43
0.0000000001
 44
0.00000001
 40
0.0
 40
0.0
 40
0.0
 40
0.0
 40
1.209055323413363
 40
2.348983635977377
 40
3.391643426636586
 40
4.408528414218352
 40
5.339561776961762
 40
6.212249591688825
 40
7.034315717551465
 40
7.817841092663818
 40
7.817841092663818
 40
7.817841092663818
 40
7.817841092663818
 10
69.31200000972427
 20
-11.39257079782128
 30
0.0
 10
69.60693986709086
 20
-11.66736519676053
 30
0.0
 10
70.17995657289026
 20
-12.20124279017306
 30
0.0
 10
70.9525332849343
 20
-13.02791207394657
 30
0.0
 10
71.63282381356231
 20
-13.85017447917578
 30
0.0
 10
72.21002313971066
 20
-14.6642079118231
 30
0.0
 10
72.68784284695428
 20
-15.47566546870951
 30
0.0
 10
73.05511403145272
 20
-16.27124171574575
 30
0.0
 10
73.32550009182657
 20
-17.05516123079155
 30
0.0
 10
73.416789602123
 20
-17.58326034428573
 30
0.0
 10
73.4613386968058
 20
-17.84097163370509
 30
0.0
 11
69.31200000972427
 21
-11.39257079782128
 31
0.0
 11
70.18676659873842
 21
-12.22719537798817
 31
0.0
 11
70.9656626918231
 21
-13.05951588954754
 31
0.0
 11
71.62794777158149
 21
-13.86482198798895
 31
0.0
 11
72.21406346923355
 21
-14.69579940461049
 31
0.0
 11
72.68353427892767
 21
-15.49980206715985
 31
0.0
 11
73.04836784412225
 21
-16.29256968234131
 31
0.0
 11
73.3077150438795
 21
-17.07265412986535
 31
0.0
 11
73.4613386968058
 21
-17.84097163370509
 31
0.0
  0
SPLINE
  5
166
330
46
100
AcDbEntity
  8
0
  6
Continuous
 62
     7
100
AcDbSpline
210
0.0
220
0.0
230
1.0
 70
     8
 71
     3
 72
     9
 73
     5
 74
     3
 42
0.0000000001
 43
0.0000000001
 44
0.00000001
 40
0.0
 40
0.0
 40
0.0
 40
0.0
 40
0.9545432677851032
 40
1.958544566365707
 40
1.958544566365707
 40
1.958544566365707
 40
1.958544566365707
 10
68.9182537346739
 20
-12.7255114697909
 30
0.0
 10
68.69231258966936
 20
-12.5013528833756
 30
0.0
 10
68.22872354472864
 20
-12.04142131584531
 30
0.0
 10
67.73631779270295
 20
-11.61246503488457
 30
0.0
 10
67.48389769312885
 20
-11.39257079785016
 30
0.0
 11
68.9182537346739
 21
-12.7255114697909
 31
0.0
 11
68.23358537498348
 21
-12.06039336951645
 31
0.0
 11
67.48389769312885
 21
-11.39257079785016
 31
0.0
  0
SPLINE
  5
167
330
46
100
AcDbEntity
  8
0
  6
Continuous
 62
     7
100
AcDbSpline
210
0.0
220
0.0
230
1.0
 70
     8
 71
     3
 72
    19
 73
    15
 74
    13
 42
0.0000000001
 43
0.0000000001
 44
0.00000001
 40
0.0
 40
0.0
 40
0.0
 40
0.0
 40
0.0429479448802547
 40
0.0807578029678385
 40
0.1212098065567951
 40
0.1616928443054729
 40
0.2389350789100141
 40
0.2987200523012728
 40
0.3530672822090425
 40
0.4226099297129806
 40
0.4926955298033201
 40
0.5477333235616951
 40
0.5743931048785129
 40
0.6011589535185368
 40
0.6011589535185368
 40
0.6011589535185368
 40
0.6011589535185368
 10
72.19466127188922
 20
-17.66012890536834
 30
0.0
 10
72.18044676943119
 20
-17.65832408178515
 30
0.0
 10
72.15371831963007
 20
-17.65493035508345
 30
0.0
 10
72.11447342055756
 20
-17.64498864639711
 30
0.0
 10
72.07699568711082
 20
-17.63211874096304
 30
0.0
 10
72.028844446481
 20
-17.61048141030025
 30
0.0
 10
71.9781072885632
 20
-17.57947838865782
 30
0.0
 10
71.92874244640808
 20
-17.53885096729017
 30
0.0
 10
71.88607257161047
 20
-17.49478799608575
 30
0.0
 10
71.84689290648262
 20
-17.44310147478753
 30
0.0
 10
71.81488660711452
 20
-17.3864162594
 30
0.0
 10
71.795577427204
 20
-17.33954995187656
 30
0.0
 10
71.78439903288569
 20
-17.30514362796663
 30
0.0
 10
71.78003965664676
 20
-17.28787229100028
 30
0.0
 10
71.77785564113456
 20
-17.27921947789493
 30
0.0
 11
72.19466127188922
 21
-17.66012890536834
 31
0.0
 11
72.1521820745916
 21
-17.65380089095725
 31
0.0
 11
72.1154779613464
 21
-17.64472380775353
 31
0.0
 11
72.07723197457484
 21
-17.6315477275234
 31
0.0
 11
72.04029317502942
 21
-17.61498266086178
 31
0.0
 11
71.9743313717494
 21
-17.57479058061267
 31
0.0
 11
71.92814265108767
 21
-17.5368321147977
 31
0.0
 11
71.890325724953
 21
-17.49780005750663
 31
0.0
 11
71.84830371778956
 21
-17.44238949230637
 31
0.0
 11
71.81387290260959
 21
-17.38134434257221
 31
0.0
 11
71.79286288253466
 21
-17.33047453032329
 31
0.0
 11
71.78469551337682
 21
-17.30509662613677
 31
0.0
 11
71.77785564113456
 21
-17.27921947789493
 31
0.0
  0
SPLINE
  5
168
330
46
100
AcDbEntity
  8
0
  6
Continuous
 62
     7
100
AcDbSpline
210
0.0
220
0.0
230
1.0
 70
     8
 71
     3
 72
    15
 73
    11
 74
     9
 42
0.0000000001
 43
0.0000000001
 44
0.00000001
 40
0.0
 40
0.0
 40
0.0
 40
0.0
 40
0.7161683339433073
 40
1.540059019341331
 40
2.378671628558589
 40
3.274801840795001
 40
4.2696670870685
 40
5.260084312403627
 40
5.349751234610771
 40
5.439879462412118
 40
5.439879462412118
 40
5.439879462412118
 40
5.439879462412118
 10
71.77785564113456
 20
-17.27921947789493
 30
0.0
 10
71.71430865472638
 20
-17.04883489982691
 30
0.0
 10
71.5776562715764
 20
-16.55341248228269
 30
0.0
 10
71.25346661711184
 20
-15.82675873330439
 30
0.0
 10
70.83545399522494
 20
-15.0825422075603
 30
0.0
 10
70.32069262342449
 20
-14.3308779854214
 30
0.0
 10
69.71945427547229
 20
-13.58090744764645
 30
0.0
 10
69.25249674584961
 20
-13.07007217233298
 30
0.0
 10
68.98121261689212
 20
-12.78978936955259
 30
0.0
 10
68.93927589483181
 20
-12.74697405387428
 30
0.0
 10
68.9182537346739
 20
-12.7255114697909
 30
0.0
 11
71.77785564113456
 21
-17.27921947789493
 31
0.0
 11
71.57137599578449
 21
-16.59346205824915
 31
0.0
 11
71.2444150788028
 21
-15.83722636730874
 31
0.0
 11
70.83463022257264
 21
-15.10555193155018
 31
0.0
 11
70.33078656831715
 21
-14.36447775891336
 31
0.0
 11
69.71035780258183
 21
-13.5867727988604
 31
0.0
 11
69.04363011386937
 21
-12.854379141498
 31
0.0
 11
68.98125594512712
 21
-12.78996159721218
 31
0.0
 11
68.9182537346739
 21
-12.7255114697909
 31
0.0
  0
SPLINE
  5
169
330
46
100
AcDbEntity
  8
0
  6
Continuous
 62
     7
100
AcDbSpline
210
0.0
220
0.0
230
1.0
 70
     8
 71
     3
 72
    23
 73
    19
 74
    17
 42
0.0000000001
 43
0.0000000001
 44
0.00000001
 40
0.0
 40
0.0
 40
0.0
 40
0.0
 40
0.0565371186487098
 40
0.1122189154366748
 40
0.1627041261012296
 40
0.2250636818339354
 40
0.2719171208533933
 40
0.3186456598102924
 40
0.3610849777012383
 40
0.412362530423577
 40
0.455844263456298
 40
0.5083170355270767
 40
0.5522321694579101
 40
0.6045850185551325
 40
0.6647243536268237
 40
0.7129810811666594
 40
0.7631021432094398
 40
0.8218138938787024
 40
0.8218138938787024
 40
0.8218138938787024
 40
0.8218138938787024
 10
74.03269719217214
 20
-17.38574315244934
 30
0.0
 10
74.0310779191441
 20
-17.40454307676342
 30
0.0
 10
74.02786387026181
 20
-17.44185851071622
 30
0.0
 10
74.01484861335103
 20
-17.49472155660307
 30
0.0
 10
73.99570027444456
 20
-17.54761041141347
 30
0.0
 10
73.97157493906192
 20
-17.59525757477895
 30
0.0
 10
73.94305749199314
 20
-17.63879785622637
 30
0.0
 10
73.91473708816233
 20
-17.67429333489946
 30
0.0
 10
73.88242741999
 20
-17.70823919051099
 30
0.0
 10
73.8479701149078
 20
-17.73843045439381
 30
0.0
 10
73.80823110979308
 20
-17.76731755170291
 30
0.0
 10
73.76807810463345
 20
-17.79118143314765
 30
0.0
 10
73.72321486023654
 20
-17.81242520145877
 30
0.0
 10
73.67408826499359
 20
-17.83015538627532
 30
0.0
 10
73.62177677473258
 20
-17.84248551127204
 30
0.0
 10
73.56921141691484
 20
-17.84846237837038
 30
0.0
 10
73.51667184082244
 20
-17.84915147691127
 30
0.0
 10
73.48072879630939
 20
-17.84383805267532
 30
0.0
 10
73.4613386968058
 20
-17.84097163370509
 30
0.0
 11
74.03269719217214
 21
-17.38574315244934
 31
0.0
 11
74.02637664688476
 21
-17.44192585879541
 31
0.0
 11
74.01345084112883
 21
-17.49608660139645
 31
0.0
 11
73.99620368730251
 21
-17.54353438512484
 31
0.0
 11
73.96810000706775
 21
-17.59920212576915
 31
0.0
 11
73.94244039059383
 21
-17.63840453424569
 31
0.0
 11
73.91330908531621
 21
-17.6749411378901
 31
0.0
 11
73.8840552037022
 21
-17.7056869687223
 31
0.0
 11
73.84549169822368
 21
-17.73948406117713
 31
0.0
 11
73.81031959889846
 21
-17.7650493606392
 31
0.0
 11
73.76520591065209
 21
-17.7918476244188
 31
0.0
 11
73.72550996362439
 21
-17.81062981752124
 31
0.0
 11
73.67625791185607
 21
-17.82837964020225
 31
0.0
 11
73.61770358516331
 21
-17.84209570554268
 31
0.0
 11
73.56976219385105
 21
-17.84760340487165
 31
0.0
 11
73.5196419263001
 21
-17.84788561209562
 31
0.0
 11
73.4613386968058
 21
-17.84097163370509
 31
0.0
  0
SPLINE
  5
16A
330
46
100
AcDbEntity
  8
0
  6
Continuous
 62
     7
100
AcDbSpline
210
0.0
220
0.0
230
1.0
 70
     8
 71
     3
 72
     9
 73
     5
 74
     3
 42
0.0000000001
 43
0.0000000001
 44
0.00000001
 40
0.0
 40
0.0
 40
0.0
 40
0.0
 40
0.6358312784060919
 40
1.2798321287038
 40
1.2798321287038
 40
1.2798321287038
 40
1.2798321287038
 10
72.19466127188922
 20
-17.66012890536834
 30
0.0
 10
72.40541731538751
 20
-17.68313054191453
 30
0.0
 10
72.82963733247094
 20
-17.72942935492415
 30
0.0
 10
73.24987740042184
 20
-17.80363298572311
 30
0.0
 10
73.4613386968058
 20
-17.84097163370509
 30
0.0
 11
72.19466127188922
 21
-17.66012890536834
 31
0.0
 11
72.82594707719342
 21
-17.73602124108777
 31
0.0
 11
73.4613386968058
 21
-17.84097163370509
 31
0.0
  0
SPLINE
  5
16B
330
46
100
AcDbEntity
  8
0
  6
Continuous
 62
     7
100
AcDbSpline
210
0.0
220
0.0
230
1.0
 70
     8
 71
     3
 72
    11
 73
     7
 74
     5
 42
0.0000000001
 43
0.0000000001
 44
0.00000001
 40
0.0
 40
0.0
 40
0.0
 40
0.0
 40
5.184888067394025
 40
9.525215475206995
 40
13.69055852709617
 40
18.15767659298083
 40
18.15767659298083
 40
18.15767659298083
 40
18.15767659298083
 10
40.33954650707459
 20
-17.34695816275282
 30
0.0
 10
41.98324915423923
 20
-16.8124064208935
 30
0.0
 10
45.0029135496715
 20
-15.83037547679708
 30
0.0
 10
49.29119344024205
 20
-14.26780352892644
 30
0.0
 10
53.31918052982285
 20
-12.69187373049909
 30
0.0
 10
55.94913951860495
 20
-11.52339966451614
 30
0.0
 10
57.31008828524751
 20
-10.91873877598657
 30
0.0
 11
40.33954650707459
 21
-17.34695816275282
 31
0.0
 11
45.25996082872977
 21
-15.7121532280112
 31
0.0
 11
49.33994852562956
 21
-14.23156469632565
 31
0.0
 11
53.21375159456453
 21
-12.70063931505084
 31
0.0
 11
57.31008828524751
 21
-10.91873877598657
 31
0.0
  0
SPLINE
  5
16C
330
46
100
AcDbEntity
  8
0
  6
Continuous
 62
     7
100
AcDbSpline
210
0.0
220
0.0
230
1.0
 70
     8
 71
     3
 72
    11
 73
     7
 74
     5
 42
0.0000000001
 43
0.0000000001
 44
0.00000001
 40
0.0
 40
0.0
 40
0.0
 40
0.0
 40
3.914458590136449
 40
8.669413730837285
 40
13.49496283588993
 40
17.94344818695001
 40
17.94344818695001
 40
17.94344818695001
 40
17.94344818695001
 10
57.07319907690555
 20
-11.37121809660964
 30
0.0
 10
55.88235854227744
 20
-11.90487491382516
 30
0.0
 10
53.24498506024433
 20
-13.0867731590591
 30
0.0
 10
49.0601792319571
 20
-14.74040271525493
 30
0.0
 10
44.66557895272518
 20
-16.34098522551736
 30
0.0
 10
41.72720076654438
 20
-17.30197716606867
 30
0.0
 10
40.31774597327648
 20
-17.76293712802046
 30
0.0
 11
57.07319907690555
 21
-11.37121809660964
 31
0.0
 11
53.49027512182688
 21
-12.94780998610305
 31
0.0
 11
49.07463651988098
 21
-14.71182079306616
 31
0.0
 11
44.53845449652214
 21
-16.35771775710444
 31
0.0
 11
40.31774597327648
 21
-17.76293712802046
 31
0.0
  0
SPLINE
  5
16D
330
46
100
AcDbEntity
  8
0
  6
Continuous
 62
     7
100
AcDbSpline
210
0.0
220
0.0
230
1.0
 70
     8
 71
     3
 72
    19
 73
    15
 74
    13
 42
0.0000000001
 43
0.0000000001
 44
0.00000001
 40
0.0
 40
0.0
 40
0.0
 40
0.0
 40
0.0689497518695586
 40
0.1377304710819561
 40
0.1745051017758305
 40
0.2061741674562526
 40
0.2466999127507724
 40
0.280747258673585
 40
0.3591647428059654
 40
0.4436332865681859
 40
0.4921797974953231
 40
0.5503670761812006
 40
0.6045867923365376
 40
0.6609581837937354
 40
0.6609581837937354
 40
0.6609581837937354
 40
0.6609581837937354
 10
-33.45220079303645
 20
-17.84097163370498
 30
0.0
 10
-33.47514044630144
 20
-17.84506357019597
 30
0.0
 10
-33.52096351549277
 20
-17.85323741165673
 30
0.0
 10
-33.57813138051783
 20
-17.83438284630774
 30
0.0
 10
-33.61798674588107
 20
-17.81207156871193
 30
0.0
 10
-33.64738147526205
 20
-17.79056443599411
 30
0.0
 10
-33.67359335338408
 20
-17.76664686463361
 30
0.0
 10
-33.7077867447252
 20
-17.72874150169908
 30
0.0
 10
-33.74517181542865
 20
-17.6743624023784
 30
0.0
 10
-33.77528490668266
 20
-17.61030216057157
 30
0.0
 10
-33.79528061813137
 20
-17.54970957372344
 30
0.0
 10
-33.80715759967588
 20
-17.49730690555386
 30
0.0
 10
-33.81463699376926
 20
-17.44143049877832
 30
0.0
 10
-33.81524947517676
 20
-17.4045448187912
 30
0.0
 10
-33.81556167414037
 20
-17.38574315244923
 30
0.0
 11
-33.45220079303645
 21
-17.84097163370498
 31
0.0
 11
-33.52084367848111
 21
-17.84746952264709
 31
0.0
 11
-33.58695110533441
 21
-17.82848017167842
 31
0.0
 11
-33.61906084451666
 21
-17.81055426549997
 31
0.0
 11
-33.6446723824885
 21
-17.79192689736092
 31
0.0
 11
-33.67468035302966
 21
-17.76468983188614
 31
0.0
 11
-33.69752303219455
 21
-17.73944238106517
 31
0.0
 11
-33.74223319857338
 21
-17.67501953697994
 31
0.0
 11
-33.77837104595442
 21
-17.59867170877262
 31
0.0
 11
-33.7935925883117
 21
-17.55257324489947
 31
0.0
 11
-33.80656252347812
 21
-17.49584987949643
 31
0.0
 11
-33.81351086647302
 21
-17.44207722706426
 31
0.0
 11
-33.81556167414037
 21
-17.38574315244923
 31
0.0
  0
SPLINE
  5
16E
330
46
100
AcDbEntity
  8
0
  6
Continuous
 62
     7
100
AcDbSpline
210
0.0
220
0.0
230
1.0
 70
     8
 71
     3
 72
    19
 73
    15
 74
    13
 42
0.0000000001
 43
0.0000000001
 44
0.00000001
 40
0.0
 40
0.0
 40
0.0
 40
0.0
 40
0.0594093673519643
 40
0.1108307731734533
 40
0.1654633081275017
 40
0.2178919825669833
 40
0.3020871887629012
 40
0.380266381616191
 40
0.4544998940521783
 40
0.522782797344473
 40
0.5556108455106964
 40
0.5933512436241709
 40
0.6251014603237253
 40
0.6613394951544016
 40
0.6613394951544016
 40
0.6613394951544016
 40
0.6613394951544016
 10
33.81556167405473
 20
-17.38574315242342
 30
0.0
 10
33.81520854970097
 20
-17.40555954822383
 30
0.0
 10
33.81454978077448
 20
-17.44252790129616
 30
0.0
 10
33.8070662280081
 20
-17.49727889946664
 30
0.0
 10
33.79550782102874
 20
-17.54889525249604
 30
0.0
 10
33.77565420734084
 20
-17.60956782454299
 30
0.0
 10
33.74500354954987
 20
-17.67463154441408
 30
0.0
 10
33.70008381911497
 20
-17.73990286952162
 30
0.0
 10
33.64802358788256
 20
-17.79248941833682
 30
0.0
 10
33.59852566614273
 20
-17.82472739120155
 30
0.0
 10
33.55525970874728
 20
-17.84162519951641
 30
0.0
 10
33.52165613844534
 20
-17.84843043742081
 30
0.0
 10
33.48611055032189
 20
-17.84914129289119
 30
0.0
 10
33.46399074553796
 20
-17.84381211094435
 30
0.0
 10
33.45220079303636
 20
-17.84097163370509
 30
0.0
 11
33.81556167405473
 21
-17.38574315242342
 31
0.0
 11
33.81325127982288
 21
-17.44510757786201
 31
0.0
 11
33.80652074224157
 21
-17.49608660139645
 31
0.0
 11
33.79448635102065
 21
-17.54937719440729
 31
0.0
 11
33.77816942366691
 21
-17.59920212576915
 31
0.0
 11
33.74208636823045
 21
-17.67527344662492
 31
0.0
 11
33.69748835062854
 21
-17.73948406117713
 31
0.0
 11
33.64482583777293
 21
-17.79180302626931
 31
0.0
 11
33.58716557246635
 21
-17.82837964020225
 31
0.0
 11
33.55653350252594
 21
-17.84018459837965
 31
0.0
 11
33.51952946274651
 21
-17.84760340487165
 31
0.0
 11
33.48778019760036
 21
-17.84784921607543
 31
0.0
 11
33.45220079303636
 21
-17.84097163370509
 31
0.0
  0
SPLINE
  5
16F
330
46
100
AcDbEntity
  8
0
  6
Continuous
 62
     7
100
AcDbSpline
210
0.0
220
0.0
230
1.0
 70
     8
 71
     3
 72
    33
 73
    29
 74
    27
 42
0.0000000001
 43
0.0000000001
 44
0.00000001
 40
0.0
 40
0.0
 40
0.0
 40
0.0
 40
0.0023925636708673
 40
0.0078001761557335
 40
0.0157285013298918
 40
0.0256836851148308
 40
0.0388466217028311
 40
0.0512283661553931
 40
0.0763244154822295
 40
0.1016444489407248
 40
0.1330684866759561
 40
0.1653459817005156
 40
0.1983309952959104
 40
0.2349910894924837
 40
0.2743325935412539
 40
0.2954007790775154
 40
0.3184149732435899
 40
0.3430610779942322
 40
0.3727648456515043
 40
0.3998801894849549
 40
0.4244347532858316
 40
0.4477141526503446
 40
0.46843370850807
 40
0.4865304072121189
 40
0.5000699376522114
 40
0.5116742860920979
 40
0.5213272958790354
 40
0.5291297366082894
 40
0.5291297366082894
 40
0.5291297366082894
 40
0.5291297366082894
 10
-12.51910398916785
 20
-10.91873877598657
 30
0.0
 10
-12.51917354627407
 20
-10.91953325794417
 30
0.0
 10
-12.51940031460965
 20
-10.92212340812377
 30
0.0
 10
-12.51985698042282
 20
-10.92734632760906
 30
0.0
 10
-12.52048093374211
 20
-10.93508499656381
 30
0.0
 10
-12.52123948453787
 20
-10.94540607368438
 30
0.0
 10
-12.5219877435284
 20
-10.95721598850181
 30
0.0
 10
-12.52286046706909
 20
-10.97407392473578
 30
0.0
 10
-12.52357063897987
 20
-10.99499685365928
 30
0.0
 10
-12.52378413713665
 20
-11.0222792049747
 30
0.0
 10
-12.52306931179017
 20
-11.05195141254768
 30
0.0
 10
-12.5210223953262
 20
-11.08412457894775
 30
0.0
 10
-12.51736118924602
 20
-11.11791347180791
 30
0.0
 10
-12.51157464078546
 20
-11.15379780312143
 30
0.0
 10
-12.50442832489641
 20
-11.18538419807251
 30
0.0
 10
-12.49679918304318
 20
-11.21213171551669
 30
0.0
 10
-12.48957547916055
 20
-11.23388144253155
 30
0.0
 10
-12.48024399924716
 20
-11.25793414684298
 30
0.0
 10
-12.46889509131783
 20
-11.28262903335481
 30
0.0
 10
-12.45585642578844
 20
-11.30643988098004
 30
0.0
 10
-12.44231170352904
 20
-11.32745847053022
 30
0.0
 10
-12.42850678076189
 20
-11.34569791018797
 30
0.0
 10
-12.4146849121801
 20
-11.36114182763583
 30
0.0
 10
-12.40189500370899
 20
-11.37304826404417
 30
0.0
 10
-12.39040863526877
 20
-11.38181874184027
 30
0.0
 10
-12.38042392893382
 20
-11.38771261459955
 30
0.0
 10
-12.37144843942458
 20
-11.39166023625079
 30
0.0
 10
-12.36563541453754
 20
-11.39228951534552
 30
0.0
 10
-12.36303704091798
 20
-11.39257079785005
 30
0.0
 11
-12.51910398916785
 21
-10.91873877598657
 31
0.0
 11
-12.51931263265756
 21
-10.92112222491897
 31
0.0
 11
-12.51977887069721
 21
-10.92650970066155
 31
0.0
 11
-12.52041835260575
 21
-10.93441219412601
 31
0.0
 11
-12.52114672770218
 21
-10.94434069622405
 31
0.0
 11
-12.52197813533982
 21
-10.95747734956346
 31
0.0
 11
-12.52261711745947
 21
-10.96984259511457
 31
0.0
 11
-12.52345942142747
 21
-10.99492450524599
 31
0.0
 11
-12.52364801766523
 21
-11.02024383631532
 31
0.0
 11
-12.52287246190887
 21
-11.05165830210505
 31
0.0
 11
-12.5208018955006
 21
-11.0838693163674
 31
0.0
 11
-12.51722492792597
 21
-11.11665980927096
 31
0.0
 11
-12.51135403470107
 21
-11.15284675607839
 31
0.0
 11
-12.50262621596405
 21
-11.191207922913
 31
0.0
 11
-12.49683965691673
 21
-11.21146586397773
 31
0.0
 11
-12.4895746058709
 21
-11.23330326690059
 31
0.0
 11
-12.48064513458703
 21
-11.25627488029561
 31
0.0
 11
-12.46820960979471
 21
-11.28325026789573
 31
0.0
 11
-12.45515459288021
 21
-11.30701596596182
 31
0.0
 11
-12.44182089852514
 21
-11.32763486986811
 31
0.0
 11
-12.42772998398977
 21
-11.34616529248416
 31
0.0
 11
-12.4138611105639
 21
-11.36155861392038
 31
0.0
 11
-12.40056072757791
 21
-11.37383013853678
 31
0.0
 11
-12.389739254067
 21
-11.38196737366862
 31
0.0
 11
-12.37972514675367
 21
-11.38783069673932
 31
0.0
 11
-12.37074790818748
 21
-11.39137890553706
 31
0.0
 11
-12.36303704091798
 21
-11.39257079785005
 31
0.0
  0
SPLINE
  5
170
330
46
100
AcDbEntity
  8
0
  6
Continuous
 62
     7
100
AcDbSpline
210
0.0
220
0.0
230
1.0
 70
     8
 71
     3
 72
    36
 73
    32
 74
    30
 42
0.0000000001
 43
0.0000000001
 44
0.00000001
 40
0.0
 40
0.0
 40
0.0
 40
0.0
 40
0.0023925743190257
 40
0.0078001826613147
 40
0.0157285004826799
 40
0.025683685287866
 40
0.0388465278691224
 40
0.0512283663240069
 40
0.0763244064062674
 40
0.101644449097046
 40
0.1330684876051348
 40
0.1653459825756188
 40
0.1983309954254745
 40
0.234991089689148
 40
0.2743325936433276
 40
0.2954007790891563
 40
0.3184149732517516
 40
0.3430610780693445
 40
0.3676316218349973
 40
0.3893984051824781
 40
0.4083501401726867
 40
0.4244420097066265
 40
0.442036504221043
 40
0.458193497567731
 40
0.4694815707074131
 40
0.4789309303320551
 40
0.4865498018540756
 40
0.5000893322847189
 40
0.5116936807135076
 40
0.5213466904894603
 40
0.5291491312089883
 40
0.5291491312089883
 40
0.5291491312089883
 40
0.5291491312089883
 10
12.51910398916305
 20
-10.9187387759715
 30
0.0
 10
12.5191735464622
 20
-10.91953326147517
 30
0.0
 10
12.51940031460664
 20
-10.92212341384831
 30
0.0
 10
12.51985698080135
 20
-10.92734633301666
 30
0.0
 10
12.52048093386112
 20
-10.93508499849041
 30
0.0
 10
12.52123948223701
 20
-10.94540604225194
 30
0.0
 10
12.52198774172239
 20
-10.95721595737207
 30
0.0
 10
12.52286046585187
 20
-10.97407389049504
 30
0.0
 10
12.52357063891678
 20
-10.99499685072339
 30
0.0
 10
12.52378413720779
 20
-11.02227920231091
 30
0.0
 10
12.5230693117862
 20
-11.05195141312528
 30
0.0
 10
12.52102239519388
 20
-11.08412457981463
 30
0.0
 10
12.51736118947932
 20
-11.11791347123699
 30
0.0
 10
12.51157463950154
 20
-11.1537978073707
 30
0.0
 10
12.50442832893454
 20
-11.18538418485725
 30
0.0
 10
12.49679917518139
 20
-11.21213174125694
 30
0.0
 10
12.48957551319041
 20
-11.23388133109631
 30
0.0
 10
12.48086302047133
 20
-11.25633866085621
 30
0.0
 10
12.47110026400168
 20
-11.27790621549525
 30
0.0
 10
12.46102026860835
 20
-11.29720649626073
 30
0.0
 10
12.45135916656805
 20
-11.31350371338378
 30
0.0
 10
12.44165590567531
 20
-11.3281304435479
 30
0.0
 10
12.43174160957316
 20
-11.34147461013048
 30
0.0
 10
12.42207066221246
 20
-11.35297151934322
 30
0.0
 10
12.41362600170456
 20
-11.36191841286269
 30
0.0
 10
12.40680265977338
 20
-11.36846633579228
 30
0.0
 10
12.39911288555576
 20
-11.37517149565991
 30
0.0
 10
12.39040830012701
 20
-11.38181929698927
 30
0.0
 10
12.38042399734541
 20
-11.38771250125105
 30
0.0
 10
12.37144842713155
 20
-11.39166025659975
 30
0.0
 10
12.36563541073989
 20
-11.39228952163155
 30
0.0
 10
12.36303704091784
 20
-11.39257079785005
 30
0.0
 11
12.51910398916305
 21
-10.9187387759715
 31
0.0
 11
12.51931263328605
 21
-10.92112223553734
 31
0.0
 11
12.51977887105252
 21
-10.9265097071455
 31
0.0
 11
12.52041835251146
 21
-10.93441219326951
 31
0.0
 11
12.52114672771182
 21
-10.94434069638292
 31
0.0
 11
12.52197812996358
 21
-10.95747725586837
 31
0.0
 11
12.52261711746604
 21
-10.96984259526907
 31
0.0
 11
12.52345942123719
 21
-10.99492449615731
 31
0.0
 11
12.52364801766447
 21
-11.02024383645777
 31
0.0
 11
12.52287246186899
 21
-11.05165830301963
 31
0.0
 11
12.52080189542692
 21
-11.08386931722562
 31
0.0
 11
12.51722492791037
 21
-11.11665980938555
 31
0.0
 11
12.51135403466622
 21
-11.15284675625783
 31
0.0
 11
12.50262621594112
 21
-11.19120792299815
 31
0.0
 11
12.49683965691706
 21
-11.21146586397548
 31
0.0
 11
12.48957460587256
 21
-11.23330326689511
 31
0.0
 11
12.48064513456307
 21
-11.256274880352
 31
0.0
 11
12.47049505516564
 21
-11.27865092801833
 31
0.0
 11
12.46040333734598
 21
-11.29793693560788
 31
0.0
 11
12.45072645911755
 21
-11.31423191295955
 31
0.0
 11
12.44182089849386
 21
-11.32763486991222
 31
0.0
 11
12.43131065011141
 21
-11.34174518231688
 31
0.0
 11
12.42089045972574
 21
-11.35409297832796
 31
0.0
 11
12.41313299794559
 21
-11.3622931235667
 31
0.0
 11
12.40630670069305
 21
-11.36882703993713
 31
0.0
 11
12.40056072754595
 21
-11.37383013856316
 31
0.0
 11
12.38973925404035
 21
-11.38196737368634
 31
0.0
 11
12.37972514673486
 21
-11.38783069674847
 31
0.0
 11
12.3707479081779
 21
-11.39137890553967
 31
0.0
 11
12.36303704091784
 21
-11.39257079785005
 31
0.0
  0
SPLINE
  5
171
330
46
100
AcDbEntity
  8
0
  6
Continuous
 62
     7
100
AcDbSpline
210
0.0
220
0.0
230
1.0
 70
     8
 71
     3
 72
    11
 73
     7
 74
     5
 42
0.0000000001
 43
0.0000000001
 44
0.00000001
 40
0.0
 40
0.0
 40
0.0
 40
0.0
 40
5.629239625210778
 40
11.40119732293485
 40
16.70973358373832
 40
22.25671259510133
 40
22.25671259510133
 40
22.25671259510133
 40
22.25671259510133
 10
12.51910398916305
 20
-10.9187387759715
 30
0.0
 10
14.31455625757219
 20
-11.46397054370733
 30
0.0
 10
17.95098088308758
 20
-12.56825733634073
 30
0.0
 10
23.28057821934702
 20
-14.18668340790224
 30
0.0
 10
28.58394432071574
 20
-15.79712259300165
 30
0.0
 10
32.04633858195501
 20
-16.84850505022936
 30
0.0
 10
33.81556167405473
 20
-17.38574315242342
 30
0.0
 11
12.51910398916305
 21
-10.9187387759715
 31
0.0
 11
17.90546231447108
 21
-12.55442907349975
 31
0.0
 11
23.42838832927542
 21
-14.23156469691057
 31
0.0
 11
28.50789389398896
 21
-15.774023918514
 31
0.0
 11
33.81556167405473
 21
-17.38574315242342
 31
0.0
  0
SPLINE
  5
172
330
46
100
AcDbEntity
  8
0
  6
Continuous
 62
     7
100
AcDbSpline
210
0.0
220
0.0
230
1.0
 70
     8
 71
     3
 72
    11
 73
     7
 74
     5
 42
0.0000000001
 43
0.0000000001
 44
0.00000001
 40
0.0
 40
0.0
 40
0.0
 40
0.0
 40
5.424798721889638
 40
10.85551527426903
 40
16.62727541359751
 40
22.25671259518182
 40
22.25671259518182
 40
22.25671259518182
 40
22.25671259518182
 10
-33.81556167414037
 20
-17.38574315244923
 30
0.0
 10
-32.08530828438093
 20
-16.86033854242113
 30
0.0
 10
-28.62291399773231
 20
-15.80895616645997
 30
0.0
 10
-23.31961083481333
 20
-14.19853635434478
 30
0.0
 10
-17.95104389373849
 20
-12.56827646936427
 30
0.0
 10
-14.31461926855675
 20
-11.46398967795171
 30
0.0
 10
-12.51910398916785
 20
-10.91873877598657
 30
0.0
 11
-33.81556167414037
 21
-17.38574315244923
 31
0.0
 11
-28.62480293026064
 21
-15.80952462830622
 31
0.0
 11
-23.42838832734919
 21
-14.23156469632565
 31
0.0
 11
-17.90565134713549
 21
-12.55448647712381
 31
0.0
 11
-12.51910398916785
 21
-10.91873877598657
 31
0.0
  0
SPLINE
  5
173
330
46
100
AcDbEntity
  8
0
  6
Continuous
 62
     7
100
AcDbSpline
210
0.0
220
0.0
230
1.0
 70
     8
 71
     3
 72
    11
 73
     7
 74
     5
 42
0.0000000001
 43
0.0000000001
 44
0.00000001
 40
0.0
 40
0.0
 40
0.0
 40
0.0
 40
4.448476305987588
 40
9.274014729857885
 40
13.99752937965908
 40
17.89245356446207
 40
17.89245356446207
 40
17.89245356446207
 40
17.89245356446207
 10
-40.31774597327645
 20
-17.76293712802001
 30
0.0
 10
-41.72719743248108
 20
-17.30197760207633
 30
0.0
 10
-44.6655683924634
 20
-16.34098666059016
 30
0.0
 10
-49.0503216901535
 20
-14.74400246850698
 30
0.0
 10
-53.21942810302571
 20
-13.09696309718771
 30
0.0
 10
-55.84176853349324
 20
-11.92308196233776
 30
0.0
 10
-57.02688075154427
 20
-11.39257079785016
 30
0.0
 11
-40.31774597327645
 21
-17.76293712802001
 31
0.0
 11
-44.53844594945829
 21
-16.3577207190667
 31
0.0
 11
-49.07461807921632
 21
-14.71182780351749
 31
0.0
 11
-53.46126670140538
 21
-12.95999889853465
 31
0.0
 11
-57.02688075154427
 21
-11.39257079785016
 31
0.0
  0
XLINE
  5
174
330
46
100
AcDbEntity
  8
1
  6
DOT_CENTER
 62
     3
 60
     1
100
AcDbXline
 10
-0.00000000000001
 20
-148.5315591469501
 30
0.0
 11
0.0
 21
1.0
 31
0.0
  0
ENDBLK
  5
48
330
46
100
AcDbEntity
  8
0
100
AcDbBlockEnd
  0
BLOCK
  5
17D
330
175
100
AcDbEntity
  8
0
100
AcDbBlockBegin
  2
*D3
 70
     1
 71
     0
 10
0.0
 20
0.0
 30
0.0
  3
*D3
  1

  0
LINE
  5
176
330
175
100
AcDbEntity
  8
1
  6
Continuous
 62
     4
100
AcDbLine
 10
-99.9999999999901
 20
27.8293607434773
 30
0.0
 11
99.99999999999004
 21
27.8293607434773
 31
0.0
  0
LINE
  5
177
330
175
100
AcDbEntity
  8
1
  6
Continuous
 62
     4
100
AcDbLine
 10
-99.9999999999901
 20
-0.3925707978512
 30
0.0
 11
-99.9999999999901
 21
29.8293607434773
 31
0.0
  0
LINE
  5
178
330
175
100
AcDbEntity
  8
1
  6
Continuous
 62
     4
100
AcDbLine
 10
99.99999999999004
 20
-0.3925707978512
 30
0.0
 11
99.99999999999004
 21
29.8293607434773
 31
0.0
  0
SOLID
  5
179
330
175
100
AcDbEntity
  8
1
 62
     4
100
AcDbTrace
 10
-92.9999999999901
 20
28.75092822658907
 30
0.0
 11
-92.9999999999901
 21
26.90779326036553
 31
0.0
 12
-99.9999999999901
 22
27.8293607434773
 32
0.0
 13
-99.9999999999901
 23
27.8293607434773
 33
0.0
  0
SOLID
  5
17A
330
175
100
AcDbEntity
  8
1
 62
     4
100
AcDbTrace
 10
92.99999999999004
 20
26.90779326036553
 30
0.0
 11
92.99999999999004
 21
28.75092822658907
 31
0.0
 12
99.99999999999004
 22
27.8293607434773
 32
0.0
 13
99.99999999999004
 23
27.8293607434773
 33
0.0
  0
MTEXT
  5
17C
330
175
100
AcDbEntity
  8
1
 62
     1
100
AcDbMText
 10
3.80378794871383
 20
29.82933291517201
 30
0.0
 40
7.0
 41
0.0
 71
     7
 72
     1
  1
\C1;\U+00d8\C1;200
  7
CONVERTER_11
 11
0.9999999999970619
 21
2.424068405545306E-6
 31
0.0
 73
     1
 44
0.60024009603842
  0
ENDBLK
  5
17E
330
175
100
AcDbEntity
  8
0
100
AcDbBlockEnd
  0
BLOCK
  5
189
330
181
100
AcDbEntity
  8
0
100
AcDbBlockBegin
  2
*D4
 70
     1
 71
     0
 10
0.0
 20
0.0
 30
0.0
  3
*D4
  1

  0
LINE
  5
182
330
181
100
AcDbEntity
  8
1
  6
Continuous
 62
     4
100
AcDbLine
 10
-55.00038765918805
 20
-108.2864273296226
 30
0.0
 11
55.00038765918808
 21
-108.2864273296226
 31
0.0
  0
LINE
  5
183
330
181
100
AcDbEntity
  8
1
  6
Continuous
 62
     4
100
AcDbLine
 10
-55.00038765918805
 20
-108.2864273296226
 30
0.0
 11
-88.16209370025223
 21
-108.2864273296226
 31
0.0
  0
LINE
  5
184
330
181
100
AcDbEntity
  8
1
  6
Continuous
 62
     4
100
AcDbLine
 10
-55.00038765918805
 20
-84.41518066259863
 30
0.0
 11
-55.00038765918805
 21
-110.2864273296226
 31
0.0
  0
LINE
  5
185
330
181
100
AcDbEntity
  8
1
  6
Continuous
 62
     4
100
AcDbLine
 10
55.00038765918808
 20
-84.41518066259863
 30
0.0
 11
55.00038765918808
 21
-110.2864273296226
 31
0.0
  0
SOLID
  5
186
330
181
100
AcDbEntity
  8
1
 62
     4
100
AcDbTrace
 10
48.00038765918798
 20
-109.2079948127343
 30
0.0
 11
48.00038765918798
 21
-107.3648598465108
 31
0.0
 12
55.00038765918808
 22
-108.2864273296226
 32
0.0
 13
55.00038765918808
 23
-108.2864273296226
 33
0.0
  0
SOLID
  5
187
330
181
100
AcDbEntity
  8
1
 62
     4
100
AcDbTrace
 10
-48.00038765918795
 20
-107.3648598465108
 30
0.0
 11
-48.00038765918795
 21
-109.2079948127343
 31
0.0
 12
-55.00038765918805
 22
-108.2864273296226
 32
0.0
 13
-55.00038765918805
 23
-108.2864273296226
 33
0.0
  0
MTEXT
  5
188
330
181
100
AcDbEntity
  8
1
 62
     1
100
AcDbMText
 10
-84.24209370021845
 20
-106.2864551579278
 30
0.0
 40
7.0000000000001
 41
0.0
 71
     7
 72
     1
  1
\C1;DN\C1;110
  7
CONVERTER_11
 11
0.9999999999970619
 21
2.424068405545306E-6
 31
0.0
 73
     1
 44
0.60024009603842
  0
ENDBLK
  5
18A
330
181
100
AcDbEntity
  8
0
100
AcDbBlockEnd
  0
BLOCK
  5
194
330
18D
100
AcDbEntity
  8
0
100
AcDbBlockBegin
  2
*D5
 70
     1
 71
     0
 10
0.0
 20
0.0
 30
0.0
  3
*D5
  1

  0
LINE
  5
18E
330
18D
100
AcDbEntity
  8
1
  6
Continuous
 62
     4
100
AcDbLine
 10
-37.50000000000049
 20
-171.6452558590977
 30
0.0
 11
37.50000000000052
 21
-171.6452558590977
 31
0.0
  0
LINE
  5
18F
330
18D
100
AcDbEntity
  8
1
  6
Continuous
 62
     4
100
AcDbLine
 10
-37.50000000000049
 20
-140.4166274263878
 30
0.0
 11
-37.50000000000049
 21
-173.6452558590977
 31
0.0
  0
LINE
  5
190
330
18D
100
AcDbEntity
  8
1
  6
Continuous
 62
     4
100
AcDbLine
 10
37.50000000000052
 20
-140.4166274263878
 30
0.0
 11
37.50000000000052
 21
-173.6452558590977
 31
0.0
  0
SOLID
  5
191
330
18D
100
AcDbEntity
  8
1
 62
     4
100
AcDbTrace
 10
-30.50000000000039
 20
-170.723688375986
 30
0.0
 11
-30.50000000000039
 21
-172.5668233422095
 31
0.0
 12
-37.50000000000049
 22
-171.6452558590977
 32
0.0
 13
-37.50000000000049
 23
-171.6452558590977
 33
0.0
  0
SOLID
  5
192
330
18D
100
AcDbEntity
  8
1
 62
     4
100
AcDbTrace
 10
30.50000000000042
 20
-172.5668233422095
 30
0.0
 11
30.50000000000042
 21
-170.723688375986
 31
0.0
 12
37.50000000000052
 22
-171.6452558590977
 32
0.0
 13
37.50000000000052
 23
-171.6452558590977
 33
0.0
  0
MTEXT
  5
193
330
18D
100
AcDbEntity
  8
1
 62
     1
100
AcDbMText
 10
-8.09969524642755
 20
-169.645283687403
 30
0.0
 40
7.0000000000001
 41
0.0
 71
     7
 72
     1
  1
\C1;DN\C1;75
  7
CONVERTER_11
 11
0.9999999999970619
 21
2.424068405545306E-6
 31
0.0
 73
     1
 44
0.60024009603842
  0
ENDBLK
  5
195
330
18D
100
AcDbEntity
  8
0
100
AcDbBlockEnd
  0
BLOCK
  5
19F
330
198
100
AcDbEntity
  8
0
100
AcDbBlockBegin
  2
*D6
 70
     1
 71
     0
 10
0.0
 20
0.0
 30
0.0
  3
*D6
  1

  0
LINE
  5
199
330
198
100
AcDbEntity
  8
1
  6
Continuous
 62
     4
100
AcDbLine
 10
-25.00000000000037
 20
-157.023616972122
 30
0.0
 11
25.00000000000034
 21
-157.023616972122
 31
0.0
  0
LINE
  5
19A
330
198
100
AcDbEntity
  8
1
  6
Continuous
 62
     4
100
AcDbLine
 10
-25.00000000000037
 20
-146.0822417620871
 30
0.0
 11
-25.00000000000037
 21
-159.023616972122
 31
0.0
  0
LINE
  5
19B
330
198
100
AcDbEntity
  8
1
  6
Continuous
 62
     4
100
AcDbLine
 10
25.00000000000034
 20
-146.0822417620871
 30
0.0
 11
25.00000000000034
 21
-159.023616972122
 31
0.0
  0
SOLID
  5
19C
330
198
100
AcDbEntity
  8
1
 62
     4
100
AcDbTrace
 10
18.00000000000024
 20
-157.9451844552337
 30
0.0
 11
18.00000000000024
 21
-156.1020494890102
 31
0.0
 12
25.00000000000034
 22
-157.023616972122
 32
0.0
 13
25.00000000000034
 23
-157.023616972122
 33
0.0
  0
SOLID
  5
19D
330
198
100
AcDbEntity
  8
1
 62
     4
100
AcDbTrace
 10
-18.00000000000027
 20
-156.1020494890102
 30
0.0
 11
-18.00000000000027
 21
-157.9451844552337
 31
0.0
 12
-25.00000000000037
 22
-157.023616972122
 32
0.0
 13
-25.00000000000037
 23
-157.023616972122
 33
0.0
  0
MTEXT
  5
19E
330
198
100
AcDbEntity
  8
1
 62
     1
100
AcDbMText
 10
-9.02999999996641
 20
-155.0236448004273
 30
0.0
 40
7.0000000000001
 41
0.0
 71
     7
 72
     1
  1
\C1;DN\C1;50
  7
CONVERTER_11
 11
0.9999999999970619
 21
2.424068405545306E-6
 31
0.0
 73
     1
 44
0.60024009603842
  0
ENDBLK
  5
1A0
330
198
100
AcDbEntity
  8
0
100
AcDbBlockEnd
  0
BLOCK
  5
1AA
330
1A3
100
AcDbEntity
  8
0
100
AcDbBlockBegin
  2
*D7
 70
     1
 71
     0
 10
0.0
 20
0.0
 30
0.0
  3
*D7
  1

  0
LINE
  5
1A4
330
1A3
100
AcDbEntity
  8
1
  6
Continuous
 62
     4
100
AcDbLine
 10
-55.00000000000002
 20
15.7336574649223
 30
0.0
 11
54.99999999999998
 21
15.7336574649223
 31
0.0
  0
LINE
  5
1A5
330
1A3
100
AcDbEntity
  8
1
  6
Continuous
 62
     4
100
AcDbLine
 10
-55.00000000000002
 20
5.00000000000222
 30
0.0
 11
-55.00000000000002
 21
17.7336574649223
 31
0.0
  0
LINE
  5
1A6
330
1A3
100
AcDbEntity
  8
1
  6
Continuous
 62
     4
100
AcDbLine
 10
54.99999999999998
 20
5.00000000000222
 30
0.0
 11
54.99999999999998
 21
17.7336574649223
 31
0.0
  0
SOLID
  5
1A7
330
1A3
100
AcDbEntity
  8
1
 62
     4
100
AcDbTrace
 10
47.99999999999998
 20
14.81208998181053
 30
0.0
 11
47.99999999999998
 21
16.65522494803407
 31
0.0
 12
54.99999999999998
 22
15.7336574649223
 32
0.0
 13
54.99999999999998
 23
15.7336574649223
 33
0.0
  0
SOLID
  5
1A8
330
1A3
100
AcDbEntity
  8
1
 62
     4
100
AcDbTrace
 10
-48.00000000000002
 20
16.65522494803407
 30
0.0
 11
-48.00000000000002
 21
14.81208998181053
 31
0.0
 12
-55.00000000000002
 22
15.7336574649223
 32
0.0
 13
-55.00000000000002
 23
15.7336574649223
 33
0.0
  0
MTEXT
  5
1A9
330
1A3
100
AcDbEntity
  8
1
 62
     1
100
AcDbMText
 10
-32.81290084872707
 20
17.733629636617
 30
0.0
 40
7.0
 41
0.0
 71
     7
 72
     1
  1
\C1;\U+00d8\C1;110
  7
CONVERTER_11
 11
0.9999999999970619
 21
2.424068405545306E-6
 31
0.0
 73
     1
 44
0.60024009603842
  0
ENDBLK
  5
1AB
330
1A3
100
AcDbEntity
  8
0
100
AcDbBlockEnd
  0
BLOCK
  5
1B5
330
1AE
100
AcDbEntity
  8
0
100
AcDbBlockBegin
  2
*D8
 70
     1
 71
     0
 10
0.0
 20
0.0
 30
0.0
  3
*D8
  1

  0
LINE
  5
1AF
330
1AE
100
AcDbEntity
  8
1
  6
Continuous
 62
     4
100
AcDbLine
 10
73.465095592095
 20
-88.9166274263871
 30
0.0
 11
73.465095592095
 21
-26.9205074151851
 31
0.0
  0
LINE
  5
1B0
330
1AE
100
AcDbEntity
  8
1
  6
Continuous
 62
     4
100
AcDbLine
 10
53.79422863405928
 20
-88.9166274263871
 30
0.0
 11
75.465095592095
 21
-88.9166274263871
 31
0.0
  0
LINE
  5
1B1
330
1AE
100
AcDbEntity
  8
1
  6
Continuous
 62
     4
100
AcDbLine
 10
57.34859754731986
 20
-26.9205074151851
 30
0.0
 11
75.465095592095
 21
-26.9205074151851
 31
0.0
  0
SOLID
  5
1B2
330
1AE
100
AcDbEntity
  8
1
 62
     4
100
AcDbTrace
 10
72.54352810898321
 20
-81.916627426387
 30
0.0
 11
74.38666307520678
 21
-81.916627426387
 31
0.0
 12
73.465095592095
 22
-88.9166274263871
 32
0.0
 13
73.465095592095
 23
-88.9166274263871
 33
0.0
  0
SOLID
  5
1B3
330
1AE
100
AcDbEntity
  8
1
 62
     4
100
AcDbTrace
 10
74.38666307520678
 20
-33.9205074151852
 30
0.0
 11
72.54352810898321
 21
-33.9205074151852
 31
0.0
 12
73.465095592095
 22
-26.9205074151851
 32
0.0
 13
73.465095592095
 23
-26.9205074151851
 33
0.0
  0
MTEXT
  5
1B4
330
1AE
100
AcDbEntity
  8
1
 62
     1
100
AcDbMText
 10
71.465095592095
 20
-61.05549420569164
 30
0.0
 40
7.0000000000001
 41
0.0
 71
     7
 72
     1
  1
62
  7
CONVERTER_11
 11
0.0
 21
1.0
 31
0.0
 73
     1
 44
0.60024009603842
  0
ENDBLK
  5
1B6
330
1AE
100
AcDbEntity
  8
0
100
AcDbBlockEnd
  0
BLOCK
  5
1C0
330
1B9
100
AcDbEntity
  8
0
100
AcDbBlockBegin
  2
*D9
 70
     1
 71
     0
 10
0.0
 20
0.0
 30
0.0
  3
*D9
  1

  0
LINE
  5
1BA
330
1B9
100
AcDbEntity
  8
1
  6
Continuous
 62
     4
100
AcDbLine
 10
73.115095592095
 20
-143.9166274263879
 30
0.0
 11
73.115095592095
 21
-88.9166274263871
 31
0.0
  0
LINE
  5
1BB
330
1B9
100
AcDbEntity
  8
1
  6
Continuous
 62
     4
100
AcDbLine
 10
36.56217782649087
 20
-143.9166274263879
 30
0.0
 11
75.115095592095
 21
-143.9166274263879
 31
0.0
  0
LINE
  5
1BC
330
1B9
100
AcDbEntity
  8
1
  6
Continuous
 62
     4
100
AcDbLine
 10
53.79422863405928
 20
-88.9166274263871
 30
0.0
 11
75.115095592095
 21
-88.9166274263871
 31
0.0
  0
SOLID
  5
1BD
330
1B9
100
AcDbEntity
  8
1
 62
     4
100
AcDbTrace
 10
72.19352810898322
 20
-136.9166274263878
 30
0.0
 11
74.03666307520679
 21
-136.9166274263878
 31
0.0
 12
73.115095592095
 22
-143.9166274263879
 32
0.0
 13
73.115095592095
 23
-143.9166274263879
 33
0.0
  0
SOLID
  5
1BE
330
1B9
100
AcDbEntity
  8
1
 62
     4
100
AcDbTrace
 10
74.03666307520679
 20
-95.9166274263872
 30
0.0
 11
72.19352810898322
 21
-95.9166274263872
 31
0.0
 12
73.115095592095
 22
-88.9166274263871
 32
0.0
 13
73.115095592095
 23
-88.9166274263871
 33
0.0
  0
MTEXT
  5
1BF
330
1B9
100
AcDbEntity
  8
1
 62
     1
100
AcDbMText
 10
71.115095592095
 20
-120.1172302563477
 30
0.0
 40
7.0000000000001
 41
0.0
 71
     7
 72
     1
  1
55
  7
CONVERTER_11
 11
0.0
 21
1.0
 31
0.0
 73
     1
 44
0.60024009603842
  0
ENDBLK
  5
1C1
330
1B9
100
AcDbEntity
  8
0
100
AcDbBlockEnd
  0
BLOCK
  5
1CB
330
1C4
100
AcDbEntity
  8
0
100
AcDbBlockBegin
  2
*D10
 70
     1
 71
     0
 10
0.0
 20
0.0
 30
0.0
  3
*D10
  1

  0
LINE
  5
1C5
330
1C4
100
AcDbEntity
  8
1
  6
Continuous
 62
     4
100
AcDbLine
 10
115.1734133292546
 20
-143.9166274263879
 30
0.0
 11
115.1734133292546
 21
0.00000000000222
 31
0.0
  0
LINE
  5
1C6
330
1C4
100
AcDbEntity
  8
1
  6
Continuous
 62
     4
100
AcDbLine
 10
36.56217782649088
 20
-143.9166274263879
 30
0.0
 11
117.1734133292546
 21
-143.9166274263879
 31
0.0
  0
LINE
  5
1C7
330
1C4
100
AcDbEntity
  8
1
  6
Continuous
 62
     4
100
AcDbLine
 10
96.69999999999028
 20
0.00000000000222
 30
0.0
 11
117.1734133292546
 21
0.00000000000222
 31
0.0
  0
SOLID
  5
1C8
330
1C4
100
AcDbEntity
  8
1
 62
     4
100
AcDbTrace
 10
114.2518458461428
 20
-136.9166274263878
 30
0.0
 11
116.0949808123663
 21
-136.9166274263878
 31
0.0
 12
115.1734133292546
 22
-143.9166274263879
 32
0.0
 13
115.1734133292546
 23
-143.9166274263879
 33
0.0
  0
SOLID
  5
1C9
330
1C4
100
AcDbEntity
  8
1
 62
     4
100
AcDbTrace
 10
116.0949808123663
 20
-6.99999999999788
 30
0.0
 11
114.2518458461428
 21
-6.99999999999788
 31
0.0
 12
115.1734133292546
 22
0.00000000000222
 32
0.0
 13
115.1734133292546
 23
0.00000000000222
 33
0.0
  0
MTEXT
  5
1CA
330
1C4
100
AcDbEntity
  8
1
 62
     1
100
AcDbMText
 10
113.1734133292546
 20
-80.63051009873843
 30
0.0
 40
7.0000000000001
 41
0.0
 71
     7
 72
     1
  1
144
  7
CONVERTER_11
 11
0.0
 21
1.0
 31
0.0
 73
     1
 44
0.60024009603842
  0
ENDBLK
  5
1CC
330
1C4
100
AcDbEntity
  8
0
100
AcDbBlockEnd
  0
ENDSEC
  0
SECTION
  2
ENTITIES
  0
INSERT
  5
49
330
1F
100
AcDbEntity
  8
0
100
AcDbBlockReference
  2
10646-310N_Ablaufkoerper
 10
-99.99999999998909
 20
-411.9365133426072
 30
0.0
  0
INSERT
  5
4A
330
1F
100
AcDbEntity
  8
0
100
AcDbBlockReference
  2
HL_310N_Koerper
 10
-99.99999999999007
 20
-144.3166274263879
 30
0.0
  0
DIMENSION
  5
180
330
1F
100
AcDbEntity
  8
1
100
AcDbDimension
  2
*D3
 10
-99.9999999999901
 20
27.8293607434773
 30
0.0
 11
19.4837879486801
 21
33.3293607434773
 31
0.0
 70
    32
  1
<>
 71
     5
 42
-1.0
 53
0.00013888888889
  3
ME10_DIM_10
100
AcDbAlignedDimension
 13
99.99999999999004
 23
-0.3925707978512
 33
0.0
 14
-99.99999999999007
 24
-0.3925707978512
 34
0.0
100
AcDbRotatedDimension
  0
DIMENSION
  5
18C
330
1F
100
AcDbEntity
  8
1
100
AcDbDimension
  2
*D4
 10
55.00038765918808
 20
-108.2864273296226
 30
0.0
 11
-74.16209370025203
 21
-102.7864273296225
 31
0.0
 70
    32
  1
<>
 71
     5
 42
-1.0
 53
0.00013888888889
  3
ME10_DIM_11
100
AcDbAlignedDimension
 13
-55.00038765918805
 23
-84.41518066259862
 33
0.0
 14
55.00038765918802
 24
-84.41518066259862
 34
0.0
100
AcDbRotatedDimension
  0
DIMENSION
  5
197
330
1F
100
AcDbEntity
  8
1
100
AcDbDimension
  2
*D5
 10
-37.50000000000049
 20
-171.6452558590977
 30
0.0
 11
0.93030475353885
 21
-166.1452558590977
 31
0.0
 70
    32
  1
<>
 71
     5
 42
-1.0
 53
0.00013888888889
  3
ME10_DIM_12
100
AcDbAlignedDimension
 13
37.50000000000052
 23
-140.4166274263878
 33
0.0
 14
-37.50000000000049
 24
-140.4166274263878
 34
0.0
100
AcDbRotatedDimension
  0
DIMENSION
  5
1A2
330
1F
100
AcDbEntity
  8
1
100
AcDbDimension
  2
*D6
 10
25.00000000000034
 20
-157.023616972122
 30
0.0
 11
-0.00000000000001
 21
-151.5236169721219
 31
0.0
 70
    32
  1
<>
 71
     5
 42
-1.0
 53
0.00013888888889
  3
ME10_DIM_13
100
AcDbAlignedDimension
 13
-25.00000000000037
 23
-146.0822417620871
 33
0.0
 14
25.00000000000034
 24
-146.0822417620871
 34
0.0
100
AcDbRotatedDimension
  0
DIMENSION
  5
1AD
330
1F
100
AcDbEntity
  8
1
100
AcDbDimension
  2
*D7
 10
54.99999999999998
 20
15.7336574649223
 30
0.0
 11
-19.2329008487608
 21
21.2336574649223
 31
0.0
 70
    32
  1
<>
 71
     5
 42
-1.0
 53
0.00013888888889
  3
ME10_DIM_14
100
AcDbAlignedDimension
 13
-55.00000000000002
 23
5.00000000000222
 33
0.0
 14
54.99999999999998
 24
5.00000000000222
 34
0.0
100
AcDbRotatedDimension
  0
DIMENSION
  5
1B8
330
1F
100
AcDbEntity
  8
1
100
AcDbDimension
  2
*D8
 10
73.465095592095
 20
-88.9166274263871
 30
0.0
 11
67.96509559209494
 21
-55.80549420569156
 31
0.0
 70
    32
  1
<>
 71
     5
 42
-1.0
 53
-90.0
  3
ME10_DIM_15
100
AcDbAlignedDimension
 13
57.34859754731986
 23
-26.9205074151851
 33
0.0
 14
53.79422863405928
 24
-88.9166274263871
 34
0.0
 50
-90.0
100
AcDbRotatedDimension
  0
DIMENSION
  5
1C3
330
1F
100
AcDbEntity
  8
1
100
AcDbDimension
  2
*D9
 10
73.115095592095
 20
-143.9166274263879
 30
0.0
 11
67.61509559209495
 21
-114.8672302563476
 31
0.0
 70
    32
  1
<>
 71
     5
 42
-1.0
 53
-90.0
  3
ME10_DIM_16
100
AcDbAlignedDimension
 13
53.79422863405928
 23
-88.9166274263871
 33
0.0
 14
36.56217782649087
 24
-143.9166274263879
 34
0.0
 50
-90.0
100
AcDbRotatedDimension
  0
DIMENSION
  5
1CE
330
1F
100
AcDbEntity
  8
1
100
AcDbDimension
  2
*D10
 10
115.1734133292546
 20
-143.9166274263879
 30
0.0
 11
109.6734133292545
 21
-73.28051009873832
 31
0.0
 70
    32
  1
<>
 71
     5
 42
-1.0
 53
-90.0
  3
ME10_DIM_17
100
AcDbAlignedDimension
 13
96.69999999999027
 23
0.00000000000222
 33
0.0
 14
36.56217782649087
 24
-143.9166274263879
 34
0.0
 50
-90.0
100
AcDbRotatedDimension
  0
ENDSEC
  0
SECTION
  2
OBJECTS
  0
DICTIONARY
  5
C
330
0
100
AcDbDictionary
281
     1
  3
ACAD_GROUP
350
D
  3
ACAD_LAYOUT
350
1A
  3
ACAD_MLINESTYLE
350
17
  3
ACAD_PLOTSETTINGS
350
19
  3
ACAD_PLOTSTYLENAME
350
E
  3
ACAD_TABLESTYLE
350
1CF
  3
ACAD_VISUALSTYLE
350
2A
  0
DICTIONARY
  5
D
102
{ACAD_REACTORS
330
C
102
}
330
C
100
AcDbDictionary
281
     1
  0
DICTIONARY
  5
1A
102
{ACAD_REACTORS
330
C
102
}
330
C
100
AcDbDictionary
281
     1
  3
Layout1
350
1E
  3
Layout2
350
26
  3
Model
350
22
  0
DICTIONARY
  5
17
102
{ACAD_REACTORS
330
C
102
}
330
C
100
AcDbDictionary
281
     1
  3
Standard
350
18
  0
DICTIONARY
  5
19
102
{ACAD_REACTORS
330
C
102
}
330
C
100
AcDbDictionary
281
     1
  0
ACDBDICTIONARYWDFLT
  5
E
102
{ACAD_REACTORS
330
C
102
}
330
C
100
AcDbDictionary
281
     1
  3
Normal
350
F
100
AcDbDictionaryWithDefault
340
F
  0
DICTIONARY
  5
1CF
102
{ACAD_REACTORS
330
C
102
}
330
C
100
AcDbDictionary
281
     1
  0
DICTIONARY
  5
2A
102
{ACAD_REACTORS
330
C
102
}
330
C
100
AcDbDictionary
281
     1
  3
2dWireframe
350
2F
  3
3D Hidden
350
31
  3
3dWireframe
350
30
  3
Basic
350
32
  3
Brighten
350
36
  3
ColorChange
350
3A
  3
Conceptual
350
34
  3
Dim
350
35
  3
Facepattern
350
39
  3
Flat
350
2B
  3
FlatWithEdges
350
2C
  3
Gouraud
350
2D
  3
GouraudWithEdges
350
2E
  3
Linepattern
350
38
  3
Realistic
350
33
  3
Thicken
350
37
  0
LAYOUT
  5
1E
102
{ACAD_REACTORS
330
1A
102
}
330
1A
100
AcDbPlotSettings
  1

  2
none_device
  4

  6

 40
0.0
 41
0.0
 42
0.0
 43
0.0
 44
0.0
 45
0.0
 46
0.0
 47
0.0
 48
0.0
 49
0.0
140
0.0
141
0.0
142
1.0
143
1.0
 70
   688
 72
     0
 73
     0
 74
     5
  7

 75
    16
147
1.0
148
0.0
149
0.0
100
AcDbLayout
  1
Layout1
 70
     1
 71
     1
 10
0.0
 20
0.0
 11
12.0
 21
9.0
 12
0.0
 22
0.0
 32
0.0
 14
1.00000000000000E+20
 24
1.00000000000000E+20
 34
1.00000000000000E+20
 15
-1.00000000000000E+20
 25
-1.00000000000000E+20
 35
-1.00000000000000E+20
146
0.0
 13
0.0
 23
0.0
 33
0.0
 16
1.0
 26
0.0
 36
0.0
 17
0.0
 27
1.0
 37
0.0
 76
     0
330
1B
  0
LAYOUT
  5
26
102
{ACAD_REACTORS
330
1A
102
}
330
1A
100
AcDbPlotSettings
  1

  2
none_device
  4

  6

 40
0.0
 41
0.0
 42
0.0
 43
0.0
 44
0.0
 45
0.0
 46
0.0
 47
0.0
 48
0.0
 49
0.0
140
0.0
141
0.0
142
1.0
143
1.0
 70
   688
 72
     0
 73
     0
 74
     5
  7

 75
    16
147
1.0
148
0.0
149
0.0
100
AcDbLayout
  1
Layout2
 70
     1
 71
     2
 10
0.0
 20
0.0
 11
0.0
 21
0.0
 12
0.0
 22
0.0
 32
0.0
 14
0.0
 24
0.0
 34
0.0
 15
0.0
 25
0.0
 35
0.0
146
0.0
 13
0.0
 23
0.0
 33
0.0
 16
1.0
 26
0.0
 36
0.0
 17
0.0
 27
1.0
 37
0.0
 76
     0
330
23
  0
LAYOUT
  5
22
102
{ACAD_REACTORS
330
1A
102
}
330
1A
100
AcDbPlotSettings
  1

  2
none_device
  4

  6

 40
0.0
 41
0.0
 42
0.0
 43
0.0
 44
0.0
 45
0.0
 46
0.0
 47
0.0
 48
0.0
 49
0.0
140
0.0
141
0.0
142
1.0
143
1.0
 70
  1712
 72
     0
 73
     0
 74
     0
  7

 75
     0
147
1.0
148
0.0
149
0.0
100
AcDbLayout
  1
Model
 70
     1
 71
     0
 10
0.0
 20
0.0
 11
12.0
 21
9.0
 12
0.0
 22
0.0
 32
0.0
 14
-109.9999999999891
 24
-421.9365133426072
 34
0.0
 15
117.1734133292546
 25
36.8293607434773
 35
0.0
146
0.0
 13
0.0
 23
0.0
 33
0.0
 16
1.0
 26
0.0
 36
0.0
 17
0.0
 27
1.0
 37
0.0
 76
     0
330
1F
331
29
  0
MLINESTYLE
  5
18
102
{ACAD_REACTORS
330
17
102
}
330
17
100
AcDbMlineStyle
  2
Standard
 70
     0
  3

 62
   256
 51
90.0
 52
90.0
 71
     2
 49
0.5
 62
   256
  6
BYLAYER
 49
-0.5
 62
   256
  6
BYLAYER
  0
ACDBPLACEHOLDER
  5
F
102
{ACAD_REACTORS
330
E
102
}
330
E
  0
VISUALSTYLE
  5
2F
102
{ACAD_REACTORS
330
2A
102
}
330
2A
100
AcDbVisualStyle
  2
2dWireframe
 70
     4
 71
     0
 72
     2
 73
     0
 90
        0
 40
-0.6
 41
-30.0
 62
     5
 63
     7
 74
     1
 91
        4
 64
     7
 65
   257
 75
     1
175
     1
 42
1.0
 92
        0
 66
   257
 43
1.0
 76
     1
 77
     6
 78
     2
 67
     7
 79
     5
170
     0
171
     0
290
     0
174
     0
 93
        1
 44
0.0
173
     0
291
     0
 45
0.0
1001
ACAD
1000
AcDbSavedByObjectVersion
1070
     0
  0
VISUALSTYLE
  5
31
102
{ACAD_REACTORS
330
2A
102
}
330
2A
100
AcDbVisualStyle
  2
3D Hidden
 70
     6
 71
     1
 72
     2
 73
     2
 90
        0
 40
-0.6
 41
-30.0
 62
     5
 63
     7
 74
     2
 91
        2
 64
     7
 65
   257
 75
     2
175
     1
 42
40.0
 92
        0
 66
   257
 43
1.0
 76
     1
 77
     6
 78
     2
 67
     7
 79
     3
170
     0
171
     0
290
     0
174
     0
 93
        1
 44
0.0
173
     0
291
     0
 45
0.0
1001
ACAD
1000
AcDbSavedByObjectVersion
1070
     0
  0
VISUALSTYLE
  5
30
102
{ACAD_REACTORS
330
2A
102
}
330
2A
100
AcDbVisualStyle
  2
3dWireframe
 70
     5
 71
     0
 72
     2
 73
     0
 90
        0
 40
-0.6
 41
-30.0
 62
     5
 63
     7
 74
     1
 91
        4
 64
     7
 65
   257
 75
     1
175
     1
 42
1.0
 92
        0
 66
   257
 43
1.0
 76
     1
 77
     6
 78
     2
 67
     7
 79
     5
170
     0
171
     0
290
     0
174
     0
 93
        1
 44
0.0
173
     0
291
     0
 45
0.0
1001
ACAD
1000
AcDbSavedByObjectVersion
1070
     0
  0
VISUALSTYLE
  5
32
102
{ACAD_REACTORS
330
2A
102
}
330
2A
100
AcDbVisualStyle
  2
Basic
 70
     7
 71
     1
 72
     0
 73
     1
 90
        0
 40
-0.6
 41
-30.0
 62
     5
 63
     7
 74
     0
 91
        4
 64
     7
 65
   257
 75
     1
175
     1
 42
1.0
 92
        8
 66
     7
 43
1.0
 76
     1
 77
     6
 78
     2
 67
     7
 79
     5
170
     0
171
     0
290
     0
174
     0
 93
        1
 44
0.0
173
     0
291
     1
 45
0.0
1001
ACAD
1000
AcDbSavedByObjectVersion
1070
     0
  0
VISUALSTYLE
  5
36
102
{ACAD_REACTORS
330
2A
102
}
330
2A
100
AcDbVisualStyle
  2
Brighten
 70
    12
 71
     2
 72
     2
 73
     0
 90
        0
 40
-0.6
 41
-30.0
 62
     5
 63
     7
 74
     1
 91
        4
 64
     7
 65
   257
 75
     1
175
     1
 42
1.0
 92
        8
 66
     7
 43
1.0
 76
     1
 77
     6
 78
     2
 67
     7
 79
     5
170
     0
171
     0
290
     0
174
     0
 93
        1
 44
50.0
173
     0
291
     1
 45
0.0
1001
ACAD
1000
AcDbSavedByObjectVersion
1070
     0
  0
VISUALSTYLE
  5
3A
102
{ACAD_REACTORS
330
2A
102
}
330
2A
100
AcDbVisualStyle
  2
ColorChange
 70
    16
 71
     2
 72
     2
 73
     3
 90
        0
 40
-0.6
 41
-30.0
 62
     5
 63
     8
 74
     1
 91
        4
 64
     7
 65
   257
 75
     1
175
     1
 42
1.0
 92
        8
 66
     8
 43
1.0
 76
     1
 77
     6
 78
     2
 67
     7
 79
     5
170
     0
171
     0
290
     0
174
     0
 93
        1
 44
0.0
173
     0
291
     1
 45
0.0
1001
ACAD
1000
AcDbSavedByObjectVersion
1070
     0
  0
VISUALSTYLE
  5
34
102
{ACAD_REACTORS
330
2A
102
}
330
2A
100
AcDbVisualStyle
  2
Conceptual
 70
     9
 71
     3
 72
     2
 73
     0
 90
        0
 40
-0.6
 41
-30.0
 62
     5
 63
     7
 74
     2
 91
        2
 64
     7
 65
   257
 75
     1
175
     1
 42
40.0
 92
        8
 66
     7
 43
1.0
 76
     1
 77
     6
 78
     2
 67
     7
 79
     3
170
     0
171
     0
290
     0
174
     0
 93
        1
 44
0.0
173
     0
291
     0
 45
0.0
1001
ACAD
1000
AcDbSavedByObjectVersion
1070
     0
  0
VISUALSTYLE
  5
35
102
{ACAD_REACTORS
330
2A
102
}
330
2A
100
AcDbVisualStyle
  2
Dim
 70
    11
 71
     2
 72
     2
 73
     0
 90
        0
 40
-0.6
 41
-30.0
 62
     5
 63
     7
 74
     1
 91
        4
 64
     7
 65
   257
 75
     1
175
     1
 42
1.0
 92
        8
 66
     7
 43
1.0
 76
     1
 77
     6
 78
     2
 67
     7
 79
     5
170
     0
171
     0
290
     0
174
     0
 93
        1
 44
-50.0
173
     0
291
     1
 45
0.0
1001
ACAD
1000
AcDbSavedByObjectVersion
1070
     0
  0
VISUALSTYLE
  5
39
102
{ACAD_REACTORS
330
2A
102
}
330
2A
100
AcDbVisualStyle
  2
Facepattern
 70
    15
 71
     2
 72
     2
 73
     0
 90
        0
 40
-0.6
 41
-30.0
 62
     5
 63
     7
 74
     1
 91
        4
 64
     7
 65
   257
 75
     1
175
     1
 42
1.0
 92
        8
 66
     7
 43
1.0
 76
     1
 77
     6
 78
     2
 67
     7
 79
     5
170
     0
171
     0
290
     0
174
     0
 93
        1
 44
0.0
173
     0
291
     1
 45
0.0
1001
ACAD
1000
AcDbSavedByObjectVersion
1070
     0
  0
VISUALSTYLE
  5
2B
102
{ACAD_REACTORS
330
2A
102
}
330
2A
100
AcDbVisualStyle
  2
Flat
 70
     0
 71
     2
 72
     1
 73
     1
 90
        2
 40
-0.6
 41
30.0
 62
     5
 63
     7
 74
     0
 91
        4
 64
     7
 65
   257
 75
     1
175
     1
 42
1.0
 92
        8
 66
     7
 43
1.0
 76
     1
 77
     6
 78
     2
 67
     7
 79
     5
170
     0
171
     0
290
     0
174
     0
 93
       13
 44
0.0
173
     0
291
     1
 45
0.0
1001
ACAD
1000
AcDbSavedByObjectVersion
1070
     0
  0
VISUALSTYLE
  5
2C
102
{ACAD_REACTORS
330
2A
102
}
330
2A
100
AcDbVisualStyle
  2
FlatWithEdges
 70
     1
 71
     2
 72
     1
 73
     1
 90
        2
 40
-0.6
 41
30.0
 62
     5
 63
     7
 74
     1
 91
        4
 64
     7
 65
   257
 75
     1
175
     1
 42
1.0
 92
        0
 66
   257
 43
1.0
 76
     1
 77
     6
 78
     2
 67
     7
 79
     5
170
     0
171
     0
290
     0
174
     0
 93
       13
 44
0.0
173
     0
291
     1
 45
0.0
1001
ACAD
1000
AcDbSavedByObjectVersion
1070
     0
  0
VISUALSTYLE
  5
2D
102
{ACAD_REACTORS
330
2A
102
}
330
2A
100
AcDbVisualStyle
  2
Gouraud
 70
     2
 71
     2
 72
     2
 73
     1
 90
        2
 40
-0.6
 41
30.0
 62
     5
 63
     7
 74
     0
 91
        4
 64
     7
 65
   257
 75
     1
175
     1
 42
1.0
 92
        0
 66
     7
 43
1.0
 76
     1
 77
     6
 78
     2
 67
     7
 79
     5
170
     0
171
     0
290
     0
174
     0
 93
       13
 44
0.0
173
     0
291
     1
 45
0.0
1001
ACAD
1000
AcDbSavedByObjectVersion
1070
     0
  0
VISUALSTYLE
  5
2E
102
{ACAD_REACTORS
330
2A
102
}
330
2A
100
AcDbVisualStyle
  2
GouraudWithEdges
 70
     3
 71
     2
 72
     2
 73
     1
 90
        2
 40
-0.6
 41
30.0
 62
     5
 63
     7
 74
     1
 91
        4
 64
     7
 65
   257
 75
     1
175
     1
 42
1.0
 92
        0
 66
   257
 43
1.0
 76
     1
 77
     6
 78
     2
 67
     7
 79
     5
170
     0
171
     0
290
     0
174
     0
 93
       13
 44
0.0
173
     0
291
     1
 45
0.0
1001
ACAD
1000
AcDbSavedByObjectVersion
1070
     0
  0
VISUALSTYLE
  5
38
102
{ACAD_REACTORS
330
2A
102
}
330
2A
100
AcDbVisualStyle
  2
Linepattern
 70
    14
 71
     2
 72
     2
 73
     0
 90
        0
 40
-0.6
 41
-30.0
 62
     5
 63
     7
 74
     1
 91
        4
 64
     7
 65
   257
 75
     7
175
     7
 42
1.0
 92
        8
 66
     7
 43
1.0
 76
     1
 77
     6
 78
     2
 67
     7
 79
     5
170
     0
171
     0
290
     0
174
     0
 93
        1
 44
0.0
173
     0
291
     1
 45
0.0
1001
ACAD
1000
AcDbSavedByObjectVersion
1070
     0
  0
VISUALSTYLE
  5
33
102
{ACAD_REACTORS
330
2A
102
}
330
2A
100
AcDbVisualStyle
  2
Realistic
 70
     8
 71
     2
 72
     2
 73
     0
 90
        0
 40
-0.6
 41
-30.0
 62
     5
 63
     7
 74
     1
 91
        0
 64
     7
 65
   257
 75
     1
175
     1
 42
1.0
 92
        8
 66
     8
 43
1.0
 76
     1
 77
     6
 78
     2
 67
     7
 79
     5
170
     0
171
     0
290
     0
174
     0
 93
       13
 44
0.0
173
     0
291
     0
 45
0.0
1001
ACAD
1000
AcDbSavedByObjectVersion
1070
     0
  0
VISUALSTYLE
  5
37
102
{ACAD_REACTORS
330
2A
102
}
330
2A
100
AcDbVisualStyle
  2
Thicken
 70
    13
 71
     2
 72
     2
 73
     0
 90
        0
 40
-0.6
 41
-30.0
 62
     5
 63
     7
 74
     1
 91
        4
 64
     7
 65
   257
 75
     1
175
     1
 42
1.0
 92
       12
 66
     7
 43
1.0
 76
     1
 77
     6
 78
     2
 67
     7
 79
     5
170
     0
171
     0
290
     0
174
     0
 93
        1
 44
0.0
173
     0
291
     1
 45
0.0
1001
ACAD
1000
AcDbSavedByObjectVersion
1070
     0
  0
ENDSEC
  0
EOF
