  0
SECTION
  2
HEADER
  9
$ACADVER
  1
AC1015
  9
$ACADMAINTVER
 70
     6
  9
$DWGCODEPAGE
  3
ANSI_1252
  9
$INSBASE
 10
0.0
 20
0.0
 30
0.0
  9
$EXTMIN
 10
-287.568107987961
 20
194.694382292437
 30
0.0
  9
$EXTMAX
 10
-120.242538970755
 20
331.72620915332
 30
0.0
  9
$LIMMIN
 10
0.0
 20
0.0
  9
$LIMMAX
 10
12.0
 20
9.0
  9
$ORTHOMODE
 70
     0
  9
$REGENMODE
 70
     1
  9
$FILLMODE
 70
     1
  9
$QTEXTMODE
 70
     0
  9
$MIRRTEXT
 70
     1
  9
$LTSCALE
 40
1.0
  9
$ATTMODE
 70
     1
  9
$TEXTSIZE
 40
0.2
  9
$TRACEWID
 40
0.05
  9
$TEXTSTYLE
  7
Standard
  9
$CLAYER
  8
0
  9
$CELTYPE
  6
ByLayer
  9
$CECOLOR
 62
   256
  9
$CELTSCALE
 40
1.0
  9
$DISPSILH
 70
     0
  9
$DIMSCALE
 40
1.0
  9
$DIMASZ
 40
0.18
  9
$DIMEXO
 40
0.0625
  9
$DIMDLI
 40
0.38
  9
$DIMRND
 40
0.0
  9
$DIMDLE
 40
0.0
  9
$DIMEXE
 40
0.18
  9
$DIMTP
 40
0.0
  9
$DIMTM
 40
0.0
  9
$DIMTXT
 40
0.18
  9
$DIMCEN
 40
0.09
  9
$DIMTSZ
 40
0.0
  9
$DIMTOL
 70
     0
  9
$DIMLIM
 70
     0
  9
$DIMTIH
 70
     1
  9
$DIMTOH
 70
     1
  9
$DIMSE1
 70
     0
  9
$DIMSE2
 70
     0
  9
$DIMTAD
 70
     0
  9
$DIMZIN
 70
     0
  9
$DIMBLK
  1

  9
$DIMASO
 70
     1
  9
$DIMSHO
 70
     1
  9
$DIMPOST
  1

  9
$DIMAPOST
  1

  9
$DIMALT
 70
     0
  9
$DIMALTD
 70
     2
  9
$DIMALTF
 40
25.4
  9
$DIMLFAC
 40
1.0
  9
$DIMTOFL
 70
     0
  9
$DIMTVP
 40
0.0
  9
$DIMTIX
 70
     0
  9
$DIMSOXD
 70
     0
  9
$DIMSAH
 70
     0
  9
$DIMBLK1
  1

  9
$DIMBLK2
  1

  9
$DIMSTYLE
  2
Standard
  9
$DIMCLRD
 70
     0
  9
$DIMCLRE
 70
     0
  9
$DIMCLRT
 70
     0
  9
$DIMTFAC
 40
1.0
  9
$DIMGAP
 40
0.09
  9
$DIMJUST
 70
     0
  9
$DIMSD1
 70
     0
  9
$DIMSD2
 70
     0
  9
$DIMTOLJ
 70
     1
  9
$DIMTZIN
 70
     0
  9
$DIMALTZ
 70
     0
  9
$DIMALTTZ
 70
     0
  9
$DIMUPT
 70
     0
  9
$DIMDEC
 70
     4
  9
$DIMTDEC
 70
     4
  9
$DIMALTU
 70
     2
  9
$DIMALTTD
 70
     2
  9
$DIMTXSTY
  7
Standard
  9
$DIMAUNIT
 70
     0
  9
$DIMADEC
 70
     0
  9
$DIMALTRND
 40
0.0
  9
$DIMAZIN
 70
     0
  9
$DIMDSEP
 70
    46
  9
$DIMATFIT
 70
     3
  9
$DIMFRAC
 70
     0
  9
$DIMLDRBLK
  1

  9
$DIMLUNIT
 70
     2
  9
$DIMLWD
 70
    -2
  9
$DIMLWE
 70
    -2
  9
$DIMTMOVE
 70
     0
  9
$LUNITS
 70
     2
  9
$LUPREC
 70
     4
  9
$SKETCHINC
 40
0.1
  9
$FILLETRAD
 40
0.5
  9
$AUNITS
 70
     0
  9
$AUPREC
 70
     0
  9
$MENU
  1
.
  9
$ELEVATION
 40
0.0
  9
$PELEVATION
 40
0.0
  9
$THICKNESS
 40
0.0
  9
$LIMCHECK
 70
     0
  9
$CHAMFERA
 40
0.5
  9
$CHAMFERB
 40
0.5
  9
$CHAMFERC
 40
1.0
  9
$CHAMFERD
 40
0.0
  9
$SKPOLY
 70
     0
  9
$TDCREATE
 40
2455252.580107407
  9
$TDUCREATE
 40
2455252.538440741
  9
$TDUPDATE
 40
2455252.580107419
  9
$TDUUPDATE
 40
2455252.538440752
  9
$TDINDWG
 40
0.0000000116
  9
$TDUSRTIMER
 40
0.0000000116
  9
$USRTIMER
 70
     1
  9
$ANGBASE
 50
0.0
  9
$ANGDIR
 70
     0
  9
$PDMODE
 70
     0
  9
$PDSIZE
 40
0.0
  9
$PLINEWID
 40
0.0
  9
$SPLFRAME
 70
     0
  9
$SPLINETYPE
 70
     6
  9
$SPLINESEGS
 70
     8
  9
$HANDSEED
  5
CC
  9
$SURFTAB1
 70
     6
  9
$SURFTAB2
 70
     6
  9
$SURFTYPE
 70
     6
  9
$SURFU
 70
     6
  9
$SURFV
 70
     6
  9
$UCSBASE
  2

  9
$UCSNAME
  2

  9
$UCSORG
 10
0.0
 20
0.0
 30
0.0
  9
$UCSXDIR
 10
1.0
 20
0.0
 30
0.0
  9
$UCSYDIR
 10
0.0
 20
1.0
 30
0.0
  9
$UCSORTHOREF
  2

  9
$UCSORTHOVIEW
 70
     0
  9
$UCSORGTOP
 10
0.0
 20
0.0
 30
0.0
  9
$UCSORGBOTTOM
 10
0.0
 20
0.0
 30
0.0
  9
$UCSORGLEFT
 10
0.0
 20
0.0
 30
0.0
  9
$UCSORGRIGHT
 10
0.0
 20
0.0
 30
0.0
  9
$UCSORGFRONT
 10
0.0
 20
0.0
 30
0.0
  9
$UCSORGBACK
 10
0.0
 20
0.0
 30
0.0
  9
$PUCSBASE
  2

  9
$PUCSNAME
  2

  9
$PUCSORG
 10
0.0
 20
0.0
 30
0.0
  9
$PUCSXDIR
 10
1.0
 20
0.0
 30
0.0
  9
$PUCSYDIR
 10
0.0
 20
1.0
 30
0.0
  9
$PUCSORTHOREF
  2

  9
$PUCSORTHOVIEW
 70
     0
  9
$PUCSORGTOP
 10
0.0
 20
0.0
 30
0.0
  9
$PUCSORGBOTTOM
 10
0.0
 20
0.0
 30
0.0
  9
$PUCSORGLEFT
 10
0.0
 20
0.0
 30
0.0
  9
$PUCSORGRIGHT
 10
0.0
 20
0.0
 30
0.0
  9
$PUCSORGFRONT
 10
0.0
 20
0.0
 30
0.0
  9
$PUCSORGBACK
 10
0.0
 20
0.0
 30
0.0
  9
$USERI1
 70
     0
  9
$USERI2
 70
     0
  9
$USERI3
 70
     0
  9
$USERI4
 70
     0
  9
$USERI5
 70
     0
  9
$USERR1
 40
15.5
  9
$USERR2
 40
0.0
  9
$USERR3
 40
0.0
  9
$USERR4
 40
0.0
  9
$USERR5
 40
0.0
  9
$WORLDVIEW
 70
     1
  9
$SHADEDGE
 70
     3
  9
$SHADEDIF
 70
    70
  9
$TILEMODE
 70
     1
  9
$MAXACTVP
 70
    64
  9
$PINSBASE
 10
0.0
 20
0.0
 30
0.0
  9
$PLIMCHECK
 70
     0
  9
$PEXTMIN
 10
1.00000000000000E+20
 20
1.00000000000000E+20
 30
1.00000000000000E+20
  9
$PEXTMAX
 10
-1.00000000000000E+20
 20
-1.00000000000000E+20
 30
-1.00000000000000E+20
  9
$PLIMMIN
 10
0.0
 20
0.0
  9
$PLIMMAX
 10
12.0
 20
9.0
  9
$UNITMODE
 70
     0
  9
$VISRETAIN
 70
     1
  9
$PLINEGEN
 70
     0
  9
$PSLTSCALE
 70
     1
  9
$TREEDEPTH
 70
  3020
  9
$CMLSTYLE
  2
Standard
  9
$CMLJUST
 70
     0
  9
$CMLSCALE
 40
1.0
  9
$PROXYGRAPHICS
 70
     1
  9
$MEASUREMENT
 70
     1
  9
$CELWEIGHT
370
    -1
  9
$ENDCAPS
280
     0
  9
$JOINSTYLE
280
     0
  9
$LWDISPLAY
290
     0
  9
$INSUNITS
 70
     1
  9
$HYPERLINKBASE
  1

  9
$STYLESHEET
  1

  9
$XEDIT
290
     1
  9
$CEPSNTYPE
380
     0
  9
$PSTYLEMODE
290
     1
  9
$FINGERPRINTGUID
  2
{9E518B01-1879-4E16-81C9-430E8145D2B4}
  9
$VERSIONGUID
  2
{FAEB1C32-E019-11D5-929B-00C0DF256EC4}
  9
$EXTNAMES
290
     1
  9
$PSVPSCALE
 40
0.0
  9
$OLESTARTUP
290
     0
  0
ENDSEC
  0
SECTION
  2
CLASSES
  0
CLASS
  1
ACDBDICTIONARYWDFLT
  2
AcDbDictionaryWithDefault
  3
ObjectDBX Classes
 90
        0
280
     0
281
     0
  0
CLASS
  1
VISUALSTYLE
  2
AcDbVisualStyle
  3
ObjectDBX Classes
 90
     4095
280
     0
281
     0
  0
CLASS
  1

  2
exOdDbSpline
  3

 90
        0
280
     0
281
     1
  0
CLASS
  1
ACDBPLACEHOLDER
  2
AcDbPlaceHolder
  3
ObjectDBX Classes
 90
        0
280
     0
281
     0
  0
CLASS
  1
LAYOUT
  2
AcDbLayout
  3
ObjectDBX Classes
 90
        0
280
     0
281
     0
  0
ENDSEC
  0
SECTION
  2
TABLES
  0
TABLE
  2
VPORT
  5
8
330
0
100
AcDbSymbolTable
 70
     1
  0
VPORT
  5
29
330
8
100
AcDbSymbolTableRecord
100
AcDbViewportTableRecord
  2
*Active
 70
     0
 10
0.0
 20
0.0
 11
1.0
 21
1.0
 12
-203.905323479358
 22
263.2102957228785
 13
0.0
 23
0.0
 14
0.5
 24
0.5
 15
0.5
 25
0.5
 16
0.0
 26
0.0
 36
1.0
 17
0.0
 27
0.0
 37
0.0
 40
150.7350095469713
 41
1.60267857142857
 42
50.0
 43
0.0
 44
0.0
 50
0.0
 51
0.0
 71
     0
 72
   100
 73
     1
 74
     3
 75
     0
 76
     0
 77
     0
 78
     0
281
     0
 65
     1
110
0.0
120
0.0
130
0.0
111
1.0
121
0.0
131
0.0
112
0.0
122
1.0
132
0.0
 79
     0
146
0.0
  0
ENDTAB
  0
TABLE
  2
LTYPE
  5
5
330
0
100
AcDbSymbolTable
 70
     8
  0
LTYPE
  5
14
330
5
100
AcDbSymbolTableRecord
100
AcDbLinetypeTableRecord
  2
ByBlock
 70
     0
  3

 72
    65
 73
     0
 40
0.0
  0
LTYPE
  5
15
330
5
100
AcDbSymbolTableRecord
100
AcDbLinetypeTableRecord
  2
ByLayer
 70
     0
  3

 72
    65
 73
     0
 40
0.0
  0
LTYPE
  5
16
330
5
100
AcDbSymbolTableRecord
100
AcDbLinetypeTableRecord
  2
Continuous
 70
     0
  3
Solid line
 72
    65
 73
     0
 40
0.0
  0
LTYPE
  5
3B
330
5
100
AcDbSymbolTableRecord
100
AcDbLinetypeTableRecord
  2
DASHED
 70
     0
  3
Dashed
 72
    65
 73
     2
 40
15.0
 49
7.0
 74
     0
 49
-8.0
 74
     0
  0
LTYPE
  5
3C
330
5
100
AcDbSymbolTableRecord
100
AcDbLinetypeTableRecord
  2
DOTTED
 70
     0
  3
Dotted
 72
    65
 73
     2
 40
1.0
 49
0.0
 74
     0
 49
-1.0
 74
     0
  0
LTYPE
  5
3D
330
5
100
AcDbSymbolTableRecord
100
AcDbLinetypeTableRecord
  2
DOT_CENTER
 70
     0
  3
Dot_Center
 72
    65
 73
     4
 40
14.0
 49
12.0
 74
     0
 49
-1.0
 74
     0
 49
0.0
 74
     0
 49
-1.0
 74
     0
  0
LTYPE
  5
3E
330
5
100
AcDbSymbolTableRecord
100
AcDbLinetypeTableRecord
  2
LONG_DASHED
 70
     0
  3
Long_Dashed
 72
    65
 73
     2
 40
15.0
 49
10.0
 74
     0
 49
-5.0
 74
     0
  0
LTYPE
  5
3F
330
5
100
AcDbSymbolTableRecord
100
AcDbLinetypeTableRecord
  2
DASH_CENTER
 70
     0
  3
Dash_Center
 72
    65
 73
     4
 40
14.0
 49
11.0
 74
     0
 49
-1.0
 74
     0
 49
1.0
 74
     0
 49
-1.0
 74
     0
  0
LTYPE
  5
40
330
5
100
AcDbSymbolTableRecord
100
AcDbLinetypeTableRecord
  2
PHANTOM
 70
     0
  3
Phantom
 72
    65
 73
     6
 40
13.0
 49
10.0
 74
     0
 49
-1.0
 74
     0
 49
0.0
 74
     0
 49
-1.0
 74
     0
 49
0.0
 74
     0
 49
-1.0
 74
     0
  0
LTYPE
  5
41
330
5
100
AcDbSymbolTableRecord
100
AcDbLinetypeTableRecord
  2
CENTER_DASH_DASH
 70
     0
  3
Center_Dash_Dash
 72
    65
 73
     6
 40
14.0
 49
9.0
 74
     0
 49
-1.0
 74
     0
 49
1.0
 74
     0
 49
-1.0
 74
     0
 49
1.0
 74
     0
 49
-1.0
 74
     0
  0
ENDTAB
  0
TABLE
  2
LAYER
  5
2
330
0
100
AcDbSymbolTable
 70
     2
  0
LAYER
  5
10
330
2
100
AcDbSymbolTableRecord
100
AcDbLayerTableRecord
  2
0
 70
     0
 62
     7
  6
Continuous
370
    -3
390
F
  0
LAYER
  5
42
330
2
100
AcDbSymbolTableRecord
100
AcDbLayerTableRecord
  2
1
 70
     0
 62
     7
  6
Continuous
370
    -3
390
F
  0
ENDTAB
  0
TABLE
  2
STYLE
  5
3
330
0
100
AcDbSymbolTable
 70
     2
  0
STYLE
  5
11
330
3
100
AcDbSymbolTableRecord
100
AcDbTextStyleTableRecord
  2
Standard
 70
     0
 40
0.0
 41
1.0
 50
0.0
 71
     0
 42
0.2
  3
txt
  4

  0
STYLE
  5
71
330
3
100
AcDbSymbolTableRecord
100
AcDbTextStyleTableRecord
  2
CONVERTER_11
 70
     0
 40
0.0
 41
0.9
 50
0.0
 71
     0
 42
0.2
  3
txt.shx
  4

  0
ENDTAB
  0
TABLE
  2
VIEW
  5
6
330
0
100
AcDbSymbolTable
 70
     0
  0
ENDTAB
  0
TABLE
  2
UCS
  5
7
330
0
100
AcDbSymbolTable
 70
     0
  0
ENDTAB
  0
TABLE
  2
APPID
  5
9
330
0
100
AcDbSymbolTable
 70
     1
  0
APPID
  5
12
330
9
100
AcDbSymbolTableRecord
100
AcDbRegAppTableRecord
  2
ACAD
 70
     0
  0
ENDTAB
  0
TABLE
  2
DIMSTYLE
  5
A
330
0
100
AcDbSymbolTable
 70
     3
100
AcDbDimStyleTable
  0
DIMSTYLE
105
27
330
A
100
AcDbSymbolTableRecord
100
AcDbDimStyleTableRecord
  2
Standard
 70
     0
340
11
  0
DIMSTYLE
105
75
102
{ACAD_REACTORS
330
76
102
}
330
A
100
AcDbSymbolTableRecord
100
AcDbDimStyleTableRecord
  2
ME10_DIM_10
 70
     0
 41
7.0
 42
0.0
 44
2.0
 73
     0
 74
     0
 77
     1
 78
     8
140
7.0
147
2.0
172
     1
173
     1
176
     4
177
     4
178
     1
271
     2
340
71
  0
DIMSTYLE
105
C9
102
{ACAD_REACTORS
330
CA
102
}
330
A
100
AcDbSymbolTableRecord
100
AcDbDimStyleTableRecord
  2
ME10_DIM_11
 70
     0
  3
x115
 41
7.0
 42
0.0
 44
2.0
 73
     0
 74
     0
 77
     1
 78
     8
140
7.0
147
2.0
172
     1
173
     1
176
     4
177
     4
178
     1
271
     2
340
71
  0
ENDTAB
  0
TABLE
  2
BLOCK_RECORD
  5
1
330
0
100
AcDbSymbolTable
 70
     5
  0
BLOCK_RECORD
  5
1F
330
1
100
AcDbSymbolTableRecord
100
AcDbBlockTableRecord
  2
*Model_Space
340
22
  0
BLOCK_RECORD
  5
1B
330
1
100
AcDbSymbolTableRecord
100
AcDbBlockTableRecord
  2
*Paper_Space
340
1E
  0
BLOCK_RECORD
  5
23
330
1
100
AcDbSymbolTableRecord
100
AcDbBlockTableRecord
  2
*Paper_Space0
340
26
  0
BLOCK_RECORD
  5
43
330
1
100
AcDbSymbolTableRecord
100
AcDbBlockTableRecord
  2
HL3127-Designerost-115x115x5__1
340
0
102
{BLKREFS
331
49
102
}
  0
BLOCK_RECORD
  5
46
330
1
100
AcDbSymbolTableRecord
100
AcDbBlockTableRecord
  2
HL3127-Designerost-115x115x5__2
340
0
102
{BLKREFS
331
4A
102
}
  0
BLOCK_RECORD
  5
69
330
1
100
AcDbSymbolTableRecord
100
AcDbBlockTableRecord
  2
*D3
340
0
  0
BLOCK_RECORD
  5
C0
330
1
100
AcDbSymbolTableRecord
100
AcDbBlockTableRecord
  2
*D4
340
0
  0
ENDTAB
  0
ENDSEC
  0
SECTION
  2
BLOCKS
  0
BLOCK
  5
20
330
1F
100
AcDbEntity
  8
0
100
AcDbBlockBegin
  2
*Model_Space
 70
     0
 71
     0
 10
0.0
 20
0.0
 30
0.0
  3
*Model_Space
  1

  0
ENDBLK
  5
21
330
1F
100
AcDbEntity
  8
0
100
AcDbBlockEnd
  0
BLOCK
  5
1C
330
1B
100
AcDbEntity
 67
     1
  8
0
100
AcDbBlockBegin
  2
*Paper_Space
 70
     0
 71
     0
 10
0.0
 20
0.0
 30
0.0
  3
*Paper_Space
  1

  0
ENDBLK
  5
1D
330
1B
100
AcDbEntity
 67
     1
  8
0
100
AcDbBlockEnd
  0
BLOCK
  5
24
330
23
100
AcDbEntity
  8
0
100
AcDbBlockBegin
  2
*Paper_Space0
 70
     0
 71
     0
 10
0.0
 20
0.0
 30
0.0
  3
*Paper_Space0
  1

  0
ENDBLK
  5
25
330
23
100
AcDbEntity
  8
0
100
AcDbBlockEnd
  0
BLOCK
  5
44
330
43
100
AcDbEntity
  8
0
100
AcDbBlockBegin
  2
HL3127-Designerost-115x115x5__1
 70
     0
 71
     0
 10
-143.4999999999996
 20
197.5000000000004
 30
0.0
  3
HL3127-Designerost-115x115x5__1
  1

  0
LINE
  5
4B
102
{ACAD_REACTORS
330
77
330
77
102
}
330
43
100
AcDbEntity
  8
0
  6
Continuous
 62
     7
100
AcDbLine
 10
-143.4999999999996
 20
215.0850406323166
 30
0.0
 11
-143.4999999999996
 21
210.1959142020118
 31
0.0
  0
LINE
  5
4C
102
{ACAD_REACTORS
330
77
330
77
102
}
330
43
100
AcDbEntity
  8
0
  6
Continuous
 62
     7
100
AcDbLine
 10
-143.4999999999996
 20
210.1959142020118
 30
0.0
 11
-143.4999999999996
 21
202.5000000000004
 31
0.0
  0
LINE
  5
4D
102
{ACAD_REACTORS
330
77
330
77
102
}
330
43
100
AcDbEntity
  8
0
  6
Continuous
 62
     7
100
AcDbLine
 10
-138.4999999999996
 20
294.9149593676842
 30
0.0
 11
-138.4999999999996
 21
292.9548418063547
 31
0.0
  0
LINE
  5
4E
102
{ACAD_REACTORS
330
77
330
77
102
}
330
43
100
AcDbEntity
  8
0
  6
Continuous
 62
     7
100
AcDbLine
 10
-138.4999999999996
 20
288.0391882930978
 30
0.0
 11
-138.4999999999996
 21
260.1578964517016
 31
0.0
  0
LINE
  5
4F
102
{ACAD_REACTORS
330
77
330
77
102
}
330
43
100
AcDbEntity
  8
0
  6
Continuous
 62
     7
100
AcDbLine
 10
-143.4999999999996
 20
197.5000000000004
 30
0.0
 11
-138.4999999999996
 21
197.5000000000004
 31
0.0
  0
LINE
  5
50
102
{ACAD_REACTORS
330
77
330
77
102
}
330
43
100
AcDbEntity
  8
0
  6
Continuous
 62
     7
100
AcDbLine
 10
-143.4999999999996
 20
202.5000000000004
 30
0.0
 11
-143.4999999999996
 21
197.5000000000004
 31
0.0
  0
LINE
  5
51
102
{ACAD_REACTORS
330
77
330
77
102
}
330
43
100
AcDbEntity
  8
0
  6
Continuous
 62
     7
100
AcDbLine
 10
-138.4999999999996
 20
292.9548418063547
 30
0.0
 11
-138.4999999999996
 21
288.0391882930978
 31
0.0
  0
LINE
  5
52
102
{ACAD_REACTORS
330
77
330
77
102
}
330
43
100
AcDbEntity
  8
0
  6
Continuous
 62
     7
100
AcDbLine
 10
-143.4999999999996
 20
217.0451581936462
 30
0.0
 11
-143.4999999999996
 21
215.0850406323166
 31
0.0
  0
LINE
  5
53
102
{ACAD_REACTORS
330
77
330
77
102
}
330
43
100
AcDbEntity
  8
0
  6
Continuous
 62
     7
100
AcDbLine
 10
-143.4999999999996
 20
251.6773529446214
 30
0.0
 11
-143.4999999999996
 21
251.1521410269931
 31
0.0
  0
LINE
  5
54
102
{ACAD_REACTORS
330
77
330
77
102
}
330
43
100
AcDbEntity
  8
0
  6
Continuous
 62
     7
100
AcDbLine
 10
-143.4999999999996
 20
251.1521410269931
 30
0.0
 11
-143.4999999999996
 21
249.8421035482993
 31
0.0
  0
LINE
  5
55
102
{ACAD_REACTORS
330
77
330
77
102
}
330
43
100
AcDbEntity
  8
0
  6
Continuous
 62
     7
100
AcDbLine
 10
-143.4999999999996
 20
294.9149593676842
 30
0.0
 11
-143.4999999999996
 21
292.9548418063547
 31
0.0
  0
LINE
  5
56
102
{ACAD_REACTORS
330
77
330
77
102
}
330
43
100
AcDbEntity
  8
0
  6
Continuous
 62
     7
100
AcDbLine
 10
-143.4999999999996
 20
292.9548418063547
 30
0.0
 11
-143.4999999999996
 21
288.0391882930978
 31
0.0
  0
LINE
  5
57
102
{ACAD_REACTORS
330
77
330
77
102
}
330
43
100
AcDbEntity
  8
0
  6
Continuous
 62
     7
100
AcDbLine
 10
-143.4999999999996
 20
252.9944983337698
 30
0.0
 11
-143.4999999999996
 21
251.6773529446214
 31
0.0
  0
LINE
  5
58
102
{ACAD_REACTORS
330
77
330
77
102
}
330
43
100
AcDbEntity
  8
0
  6
Continuous
 62
     7
100
AcDbLine
 10
-143.4999999999996
 20
257.0055016662311
 30
0.0
 11
-143.4999999999996
 21
252.9944983337698
 31
0.0
  0
LINE
  5
59
102
{ACAD_REACTORS
330
77
330
77
102
}
330
43
100
AcDbEntity
  8
0
  6
Continuous
 62
     7
100
AcDbLine
 10
-143.4999999999996
 20
249.8421035482993
 30
0.0
 11
-143.4999999999996
 21
221.960811706903
 31
0.0
  0
LINE
  5
5A
102
{ACAD_REACTORS
330
77
330
77
102
}
330
43
100
AcDbEntity
  8
0
  6
Continuous
 62
     7
100
AcDbLine
 10
-143.4999999999996
 20
258.3226470553794
 30
0.0
 11
-143.4999999999996
 21
257.0055016662311
 31
0.0
  0
LINE
  5
5B
330
43
100
AcDbEntity
  8
0
  6
Continuous
 62
     7
100
AcDbLine
 10
-138.4999999999996
 20
258.3226470553794
 30
0.0
 11
-138.4999999999996
 21
257.0055016662311
 31
0.0
  0
LINE
  5
5C
102
{ACAD_REACTORS
330
77
330
77
102
}
330
43
100
AcDbEntity
  8
0
  6
Continuous
 62
     7
100
AcDbLine
 10
-143.4999999999996
 20
258.8478589730077
 30
0.0
 11
-143.4999999999996
 21
258.3226470553794
 31
0.0
  0
LINE
  5
5D
102
{ACAD_REACTORS
330
77
330
77
102
}
330
43
100
AcDbEntity
  8
0
  6
Continuous
 62
     7
100
AcDbLine
 10
-143.4999999999996
 20
260.1578964517016
 30
0.0
 11
-143.4999999999996
 21
258.8478589730077
 31
0.0
  0
LINE
  5
5E
102
{ACAD_REACTORS
330
77
330
77
102
}
330
43
100
AcDbEntity
  8
0
  6
Continuous
 62
     7
100
AcDbLine
 10
-138.4999999999996
 20
258.8478589730077
 30
0.0
 11
-138.4999999999996
 21
197.5000000000004
 31
0.0
  0
LINE
  5
5F
102
{ACAD_REACTORS
330
77
330
77
102
}
330
43
100
AcDbEntity
  8
0
  6
Continuous
 62
     7
100
AcDbLine
 10
-138.4999999999996
 20
260.1578964517016
 30
0.0
 11
-138.4999999999996
 21
258.8478589730077
 31
0.0
  0
LINE
  5
60
102
{ACAD_REACTORS
330
77
330
77
102
}
330
43
100
AcDbEntity
  8
0
  6
Continuous
 62
     7
100
AcDbLine
 10
-143.4999999999996
 20
221.960811706903
 30
0.0
 11
-143.4999999999996
 21
217.0451581936462
 31
0.0
  0
LINE
  5
61
102
{ACAD_REACTORS
330
77
330
77
102
}
330
43
100
AcDbEntity
  8
0
  6
Continuous
 62
     7
100
AcDbLine
 10
-138.4999999999996
 20
312.5000000000003
 30
0.0
 11
-138.4999999999996
 21
307.5000000000003
 31
0.0
  0
LINE
  5
62
102
{ACAD_REACTORS
330
77
330
77
102
}
330
43
100
AcDbEntity
  8
0
  6
Continuous
 62
     7
100
AcDbLine
 10
-143.4999999999996
 20
312.5000000000003
 30
0.0
 11
-143.4999999999996
 21
307.5000000000003
 31
0.0
  0
LINE
  5
63
102
{ACAD_REACTORS
330
77
330
77
102
}
330
43
100
AcDbEntity
  8
0
  6
Continuous
 62
     7
100
AcDbLine
 10
-143.4999999999996
 20
312.5000000000003
 30
0.0
 11
-138.4999999999996
 21
312.5000000000003
 31
0.0
  0
LINE
  5
64
102
{ACAD_REACTORS
330
77
330
77
102
}
330
43
100
AcDbEntity
  8
0
  6
Continuous
 62
     7
100
AcDbLine
 10
-138.4999999999996
 20
299.8040857979891
 30
0.0
 11
-138.4999999999996
 21
294.9149593676842
 31
0.0
  0
LINE
  5
65
102
{ACAD_REACTORS
330
77
330
77
102
}
330
43
100
AcDbEntity
  8
0
  6
Continuous
 62
     7
100
AcDbLine
 10
-143.4999999999996
 20
299.8040857979891
 30
0.0
 11
-143.4999999999996
 21
294.9149593676842
 31
0.0
  0
LINE
  5
66
102
{ACAD_REACTORS
330
77
330
77
102
}
330
43
100
AcDbEntity
  8
0
  6
Continuous
 62
     7
100
AcDbLine
 10
-138.4999999999996
 20
307.5000000000003
 30
0.0
 11
-138.4999999999996
 21
299.8040857979891
 31
0.0
  0
LINE
  5
67
102
{ACAD_REACTORS
330
77
330
77
102
}
330
43
100
AcDbEntity
  8
0
  6
Continuous
 62
     7
100
AcDbLine
 10
-143.4999999999996
 20
307.5000000000003
 30
0.0
 11
-143.4999999999996
 21
299.8040857979891
 31
0.0
  0
LINE
  5
68
102
{ACAD_REACTORS
330
77
330
77
102
}
330
43
100
AcDbEntity
  8
0
  6
Continuous
 62
     7
100
AcDbLine
 10
-143.4999999999996
 20
288.0391882930978
 30
0.0
 11
-143.4999999999996
 21
260.1578964517016
 31
0.0
  0
DIMENSION
  5
76
330
43
100
AcDbEntity
  8
1
100
AcDbDimension
  2
*D3
 10
-143.4999999999996
 20
322.5000000000003
 30
0.0
 11
-122.342538970755
 21
328.0000000000003
 31
0.0
 70
    33
  1
<>
 71
     5
 42
-1.0
 53
0.00013888888889
  3
ME10_DIM_10
100
AcDbAlignedDimension
 13
-138.4999999999996
 23
312.5000000000003
 33
0.0
 14
-143.4999999999996
 24
312.5000000000003
 34
0.0
  0
HATCH
  5
77
330
43
100
AcDbEntity
  8
1
  6
Continuous
 62
     3
100
AcDbHatch
 10
0.0
 20
0.0
 30
0.0
210
0.0
220
0.0
230
1.0
  2
_USER
 70
     0
 71
     1
 91
        1
 92
        1
 93
       29
 72
     1
 10
-138.4999999999996
 20
312.5000000000003
 11
-138.4999999999996
 21
307.5000000000003
 72
     1
 10
-138.4999999999996
 20
307.5000000000003
 11
-138.4999999999996
 21
299.8040857979891
 72
     1
 10
-138.4999999999996
 20
299.8040857979891
 11
-138.4999999999996
 21
294.9149593676842
 72
     1
 10
-138.4999999999996
 20
294.9149593676842
 11
-138.4999999999996
 21
292.9548418063547
 72
     1
 10
-138.4999999999996
 20
292.9548418063547
 11
-138.4999999999996
 21
288.0391882930978
 72
     1
 10
-138.4999999999996
 20
288.0391882930978
 11
-138.4999999999996
 21
260.1578964517016
 72
     1
 10
-138.4999999999996
 20
260.1578964517016
 11
-138.4999999999996
 21
258.8478589730077
 72
     1
 10
-138.4999999999996
 20
258.8478589730077
 11
-138.4999999999996
 21
197.5000000000004
 72
     1
 10
-138.4999999999996
 20
197.5000000000004
 11
-143.4999999999996
 21
197.5000000000004
 72
     1
 10
-143.4999999999996
 20
197.5000000000004
 11
-143.4999999999996
 21
202.5000000000004
 72
     1
 10
-143.4999999999996
 20
202.5000000000004
 11
-143.4999999999996
 21
210.1959142020118
 72
     1
 10
-143.4999999999996
 20
210.1959142020118
 11
-143.4999999999996
 21
215.0850406323166
 72
     1
 10
-143.4999999999996
 20
215.0850406323166
 11
-143.4999999999996
 21
217.0451581936462
 72
     1
 10
-143.4999999999996
 20
217.0451581936462
 11
-143.4999999999996
 21
221.960811706903
 72
     1
 10
-143.4999999999996
 20
221.960811706903
 11
-143.4999999999996
 21
249.8421035482993
 72
     1
 10
-143.4999999999996
 20
249.8421035482993
 11
-143.4999999999996
 21
251.1521410269931
 72
     1
 10
-143.4999999999996
 20
251.1521410269931
 11
-143.4999999999996
 21
251.6773529446214
 72
     1
 10
-143.4999999999996
 20
251.6773529446214
 11
-143.4999999999996
 21
252.9944983337698
 72
     1
 10
-143.4999999999996
 20
252.9944983337698
 11
-143.4999999999996
 21
257.0055016662311
 72
     1
 10
-143.4999999999996
 20
257.0055016662311
 11
-143.4999999999996
 21
258.3226470553794
 72
     1
 10
-143.4999999999996
 20
258.3226470553794
 11
-143.4999999999996
 21
258.8478589730077
 72
     1
 10
-143.4999999999996
 20
258.8478589730077
 11
-143.4999999999996
 21
260.1578964517016
 72
     1
 10
-143.4999999999996
 20
260.1578964517016
 11
-143.4999999999996
 21
288.0391882930978
 72
     1
 10
-143.4999999999996
 20
288.0391882930978
 11
-143.4999999999996
 21
292.9548418063547
 72
     1
 10
-143.4999999999996
 20
292.9548418063547
 11
-143.4999999999996
 21
294.9149593676842
 72
     1
 10
-143.4999999999996
 20
294.9149593676842
 11
-143.4999999999996
 21
299.8040857979891
 72
     1
 10
-143.4999999999996
 20
299.8040857979891
 11
-143.4999999999996
 21
307.5000000000003
 72
     1
 10
-143.4999999999996
 20
307.5000000000003
 11
-143.4999999999996
 21
312.5000000000003
 72
     1
 10
-143.4999999999996
 20
312.5000000000003
 11
-138.4999999999996
 21
312.5000000000003
 97
       29
330
61
330
66
330
64
330
4D
330
51
330
4E
330
5F
330
5E
330
4F
330
50
330
4C
330
4B
330
52
330
60
330
59
330
54
330
53
330
57
330
58
330
5A
330
5C
330
5D
330
68
330
56
330
55
330
65
330
67
330
62
330
63
 75
     1
 76
     0
 52
45.0
 41
5.0
 77
     0
 78
     1
 53
45.0
 43
0.0
 44
0.0
 45
-3.535533905932737
 46
3.535533905932738
 79
     0
 98
        1
 10
0.0
 20
0.0
  0
ENDBLK
  5
45
330
43
100
AcDbEntity
  8
0
100
AcDbBlockEnd
  0
BLOCK
  5
47
330
46
100
AcDbEntity
  8
0
100
AcDbBlockBegin
  2
HL3127-Designerost-115x115x5__2
 70
     0
 71
     0
 10
-284.4999999999996
 20
197.5000000000004
 30
0.0
  3
HL3127-Designerost-115x115x5__2
  1

  0
LINE
  5
78
330
46
100
AcDbEntity
  8
1
  6
DOT_CENTER
 62
     2
100
AcDbLine
 10
-226.9999999999996
 20
194.694382292437
 30
0.0
 11
-226.9999999999996
 21
315.481427545109
 31
0.0
  0
LINE
  5
79
330
46
100
AcDbEntity
  8
1
  6
DOT_CENTER
 62
     2
100
AcDbLine
 10
-166.238199610558
 20
255.0000000000004
 30
0.0
 11
-287.568107987961
 21
255.0000000000004
 31
0.0
  0
LINE
  5
7A
330
46
100
AcDbEntity
  8
0
  6
Continuous
 62
     7
100
AcDbLine
 10
-189.7142857142853
 20
205.0000000000004
 30
0.0
 11
-187.9999999999996
 21
205.0000000000004
 31
0.0
  0
LINE
  5
7B
330
46
100
AcDbEntity
  8
0
  6
Continuous
 62
     7
100
AcDbLine
 10
-187.9999999999996
 20
205.571428571429
 30
0.0
 11
-189.1428571428567
 21
205.571428571429
 31
0.0
  0
LINE
  5
7C
330
46
100
AcDbEntity
  8
0
  6
Continuous
 62
     7
100
AcDbLine
 10
-189.4285714285711
 20
205.8571428571433
 30
0.0
 11
-189.4285714285711
 21
208.7142857142862
 31
0.0
  0
LINE
  5
7D
330
46
100
AcDbEntity
  8
0
  6
Continuous
 62
     7
100
AcDbLine
 10
-190.9999999999996
 20
205.2857142857147
 30
0.0
 11
-190.9999999999996
 21
208.7142857142862
 31
0.0
  0
LINE
  5
7E
330
46
100
AcDbEntity
  8
0
  6
Continuous
 62
     7
100
AcDbLine
 10
-189.9999999999996
 20
208.7142857142862
 30
0.0
 11
-189.9999999999996
 21
205.2857142857147
 31
0.0
  0
LINE
  5
7F
330
46
100
AcDbEntity
  8
0
  6
Continuous
 62
     7
100
AcDbLine
 10
-193.2857142857138
 20
207.2857142857147
 30
0.0
 11
-193.2857142857138
 21
208.7142857142862
 31
0.0
  0
LINE
  5
80
330
46
100
AcDbEntity
  8
0
  6
Continuous
 62
     7
100
AcDbLine
 10
-193.2857142857138
 20
205.2857142857147
 30
0.0
 11
-193.2857142857138
 21
206.7142857142862
 31
0.0
  0
LINE
  5
81
330
46
100
AcDbEntity
  8
0
  6
Continuous
 62
     7
100
AcDbLine
 10
-198.9999999999996
 20
207.1428571428576
 30
0.0
 11
-198.9999999999996
 21
206.8571428571433
 31
0.0
  0
LINE
  5
82
330
46
100
AcDbEntity
  8
0
  6
Continuous
 62
     7
100
AcDbLine
 10
-191.5714285714282
 20
207.2857142857147
 30
0.0
 11
-193.2857142857138
 21
207.2857142857147
 31
0.0
  0
LINE
  5
83
330
46
100
AcDbEntity
  8
0
  6
Continuous
 62
     7
100
AcDbLine
 10
-194.9999999999996
 20
207.1428571428576
 30
0.0
 11
-198.9999999999996
 21
207.1428571428576
 31
0.0
  0
LINE
  5
84
330
46
100
AcDbEntity
  8
0
  6
Continuous
 62
     7
100
AcDbLine
 10
-198.9999999999996
 20
206.8571428571433
 30
0.0
 11
-194.9999999999996
 21
206.8571428571433
 31
0.0
  0
LINE
  5
85
330
46
100
AcDbEntity
  8
0
  6
Continuous
 62
     7
100
AcDbLine
 10
-191.5714285714282
 20
208.7142857142862
 30
0.0
 11
-191.5714285714282
 21
207.2857142857147
 31
0.0
  0
LINE
  5
86
330
46
100
AcDbEntity
  8
0
  6
Continuous
 62
     7
100
AcDbLine
 10
-191.5714285714282
 20
206.7142857142862
 30
0.0
 11
-191.5714285714282
 21
205.2857142857147
 31
0.0
  0
LINE
  5
87
330
46
100
AcDbEntity
  8
0
  6
Continuous
 62
     7
100
AcDbLine
 10
-194.9999999999996
 20
206.8571428571433
 30
0.0
 11
-194.9999999999996
 21
207.1428571428576
 31
0.0
  0
LINE
  5
88
330
46
100
AcDbEntity
  8
0
  6
Continuous
 62
     7
100
AcDbLine
 10
-193.2857142857138
 20
206.7142857142862
 30
0.0
 11
-191.5714285714282
 21
206.7142857142862
 31
0.0
  0
LINE
  5
89
330
46
100
AcDbEntity
  8
0
  6
Continuous
 62
     7
100
AcDbLine
 10
-193.8571428571424
 20
208.7142857142862
 30
0.0
 11
-193.8571428571424
 21
205.2857142857147
 31
0.0
  0
LINE
  5
8A
330
46
100
AcDbEntity
  8
0
  6
Continuous
 62
     7
100
AcDbLine
 10
-279.4999999999996
 20
197.5000000000004
 30
0.0
 11
-174.4999999999996
 21
197.5000000000004
 31
0.0
  0
LINE
  5
8B
330
46
100
AcDbEntity
  8
0
  6
Continuous
 62
     7
100
AcDbLine
 10
-174.4999999999996
 20
312.5000000000004
 30
0.0
 11
-279.4999999999996
 21
312.5000000000004
 31
0.0
  0
LINE
  5
8C
330
46
100
AcDbEntity
  8
0
  6
Continuous
 62
     7
100
AcDbLine
 10
-232.1578964517007
 20
299.8040857979891
 30
0.0
 11
-230.8478589730069
 21
294.9149593676842
 31
0.0
  0
LINE
  5
8D
330
46
100
AcDbEntity
  8
0
  6
Continuous
 62
     7
100
AcDbLine
 10
-230.3226470553786
 20
292.9548418063547
 30
0.0
 11
-229.0055016662302
 21
288.0391882930979
 31
0.0
  0
LINE
  5
8E
330
46
100
AcDbEntity
  8
0
  6
Continuous
 62
     7
100
AcDbLine
 10
-223.1521410269924
 20
294.9149593676842
 30
0.0
 11
-221.8421035482984
 21
299.8040857979891
 31
0.0
  0
LINE
  5
8F
330
46
100
AcDbEntity
  8
0
  6
Continuous
 62
     7
100
AcDbLine
 10
-223.1521410269924
 20
215.0850406323167
 30
0.0
 11
-221.8421035482984
 21
210.1959142020118
 31
0.0
  0
LINE
  5
90
330
46
100
AcDbEntity
  8
0
  6
Continuous
 62
     7
100
AcDbLine
 10
-224.994498333769
 20
221.960811706903
 30
0.0
 11
-223.6773529446206
 21
217.0451581936462
 31
0.0
  0
LINE
  5
91
330
46
100
AcDbEntity
  8
0
  6
Continuous
 62
     7
100
AcDbLine
 10
-189.0451581936453
 20
251.6773529446214
 30
0.0
 11
-193.9608117069021
 21
252.9944983337698
 31
0.0
  0
LINE
  5
92
330
46
100
AcDbEntity
  8
0
  6
Continuous
 62
     7
100
AcDbLine
 10
-264.954841806354
 20
251.6773529446214
 30
0.0
 11
-260.039188293097
 21
252.9944983337698
 31
0.0
  0
LINE
  5
93
330
46
100
AcDbEntity
  8
0
  6
Continuous
 62
     7
100
AcDbLine
 10
-230.3226470553785
 20
217.0451581936462
 30
0.0
 11
-229.0055016662302
 21
221.960811706903
 31
0.0
  0
LINE
  5
94
330
46
100
AcDbEntity
  8
0
  6
Continuous
 62
     7
100
AcDbLine
 10
-232.1578964517007
 20
210.1959142020118
 30
0.0
 11
-230.8478589730069
 21
215.0850406323167
 31
0.0
  0
LINE
  5
95
330
46
100
AcDbEntity
  8
0
  6
Continuous
 62
     7
100
AcDbLine
 10
-224.994498333769
 20
288.0391882930979
 30
0.0
 11
-223.6773529446205
 21
292.9548418063547
 31
0.0
  0
LINE
  5
96
330
46
100
AcDbEntity
  8
0
  6
Continuous
 62
     7
100
AcDbLine
 10
-193.9608117069021
 20
257.005501666231
 30
0.0
 11
-189.0451581936453
 21
258.3226470553795
 31
0.0
  0
LINE
  5
97
330
46
100
AcDbEntity
  8
0
  6
Continuous
 62
     7
100
AcDbLine
 10
-271.8040857979883
 20
249.8421035482993
 30
0.0
 11
-266.9149593676833
 21
251.1521410269931
 31
0.0
  0
LINE
  5
98
330
46
100
AcDbEntity
  8
0
  6
Continuous
 62
     7
100
AcDbLine
 10
-284.4999999999996
 20
307.5000000000004
 30
0.0
 11
-284.4999999999996
 21
202.5000000000004
 31
0.0
  0
LINE
  5
99
330
46
100
AcDbEntity
  8
0
  6
Continuous
 62
     7
100
AcDbLine
 10
-266.9149593676833
 20
258.8478589730077
 30
0.0
 11
-271.8040857979883
 21
260.1578964517016
 31
0.0
  0
LINE
  5
9A
330
46
100
AcDbEntity
  8
0
  6
Continuous
 62
     7
100
AcDbLine
 10
-260.039188293097
 20
257.005501666231
 30
0.0
 11
-264.954841806354
 21
258.3226470553795
 31
0.0
  0
LINE
  5
9B
330
46
100
AcDbEntity
  8
0
  6
Continuous
 62
     7
100
AcDbLine
 10
-182.195914202011
 20
249.8421035482993
 30
0.0
 11
-187.0850406323157
 21
251.1521410269931
 31
0.0
  0
LINE
  5
9C
330
46
100
AcDbEntity
  8
0
  6
Continuous
 62
     7
100
AcDbLine
 10
-169.4999999999996
 20
202.5000000000004
 30
0.0
 11
-169.4999999999996
 21
307.5000000000004
 31
0.0
  0
LINE
  5
9D
330
46
100
AcDbEntity
  8
0
  6
Continuous
 62
     7
100
AcDbLine
 10
-186.9999999999996
 20
206.8571428571433
 30
0.0
 11
-182.9999999999996
 21
206.8571428571433
 31
0.0
  0
LINE
  5
9E
330
46
100
AcDbEntity
  8
0
  6
Continuous
 62
     7
100
AcDbLine
 10
-182.9999999999996
 20
206.8571428571433
 30
0.0
 11
-182.9999999999996
 21
207.1428571428576
 31
0.0
  0
LINE
  5
9F
330
46
100
AcDbEntity
  8
0
  6
Continuous
 62
     7
100
AcDbLine
 10
-182.9999999999996
 20
207.1428571428576
 30
0.0
 11
-186.9999999999996
 21
207.1428571428576
 31
0.0
  0
LINE
  5
A0
330
46
100
AcDbEntity
  8
0
  6
Continuous
 62
     7
100
AcDbLine
 10
-186.9999999999996
 20
207.1428571428576
 30
0.0
 11
-186.9999999999996
 21
206.8571428571433
 31
0.0
  0
LINE
  5
A1
330
46
100
AcDbEntity
  8
0
  6
Continuous
 62
     7
100
AcDbLine
 10
-187.0850406323157
 20
258.8478589730077
 30
0.0
 11
-182.195914202011
 21
260.1578964517016
 31
0.0
  0
ARC
  5
A2
330
46
100
AcDbEntity
  8
0
  6
Continuous
 62
     7
100
AcDbCircle
 10
-189.7142857142853
 20
205.2857142857147
 30
0.0
 40
0.285714285714306
100
AcDbArc
 50
180.0
 51
-90.0
  0
ARC
  5
A3
330
46
100
AcDbEntity
  8
0
  6
Continuous
 62
     7
100
AcDbCircle
 10
-191.2857142857138
 20
205.2857142857147
 30
0.0
 40
0.2857142857144197
100
AcDbArc
 50
180.0
 51
0.0
  0
ARC
  5
A4
330
46
100
AcDbEntity
  8
0
  6
Continuous
 62
     7
100
AcDbCircle
 10
-187.9999999999996
 20
205.2857142857147
 30
0.0
 40
0.285714285714306
100
AcDbArc
 50
-90.0
 51
90.0
  0
ARC
  5
A5
330
46
100
AcDbEntity
  8
0
  6
Continuous
 62
     7
100
AcDbCircle
 10
-193.5714285714282
 20
205.2857142857147
 30
0.0
 40
0.2857142857141923
100
AcDbArc
 50
180.0
 51
0.0
  0
ARC
  5
A6
330
46
100
AcDbEntity
  8
0
  6
Continuous
 62
     7
100
AcDbCircle
 10
-191.2857142857138
 20
208.7142857142862
 30
0.0
 40
0.2857142857141923
100
AcDbArc
 50
0.0
 51
180.0
  0
ARC
  5
A7
330
46
100
AcDbEntity
  8
0
  6
Continuous
 62
     7
100
AcDbCircle
 10
-189.7142857142853
 20
208.7142857142862
 30
0.0
 40
0.2857142857141923
100
AcDbArc
 50
0.0
 51
180.0
  0
ARC
  5
A8
330
46
100
AcDbEntity
  8
0
  6
Continuous
 62
     7
100
AcDbCircle
 10
-189.1428571428567
 20
205.8571428571433
 30
0.0
 40
0.2857142857143913
100
AcDbArc
 50
180.0
 51
-90.0
  0
ARC
  5
A9
330
46
100
AcDbEntity
  8
0
  6
Continuous
 62
     7
100
AcDbCircle
 10
-193.5714285714282
 20
208.7142857142862
 30
0.0
 40
0.2857142857144197
100
AcDbArc
 50
0.0
 51
180.0
  0
ARC
  5
AA
330
46
100
AcDbEntity
  8
0
  6
Continuous
 62
     7
100
AcDbCircle
 10
-174.4999999999996
 20
202.5000000000004
 30
0.0
 40
5.0
100
AcDbArc
 50
-90.0
 51
0.0
  0
ARC
  5
AB
330
46
100
AcDbEntity
  8
0
  6
Continuous
 62
     7
100
AcDbCircle
 10
-279.4999999999996
 20
202.5000000000004
 30
0.0
 40
5.0
100
AcDbArc
 50
180.0
 51
-90.0
  0
ARC
  5
AC
330
46
100
AcDbEntity
  8
0
  6
Continuous
 62
     7
100
AcDbCircle
 10
-226.9999999999996
 20
255.0000000000004
 30
0.0
 40
33.10000000000005
100
AcDbArc
 50
93.47363149233087
 51
176.5263685076692
  0
ARC
  5
AD
330
46
100
AcDbEntity
  8
0
  6
Continuous
 62
     7
100
AcDbCircle
 10
-226.9999999999996
 20
255.0000000000004
 30
0.0
 40
38.09999999999998
100
AcDbArc
 50
95.00303916017947
 51
174.9969608398204
  0
ARC
  5
AE
330
46
100
AcDbEntity
  8
0
  6
Continuous
 62
     7
100
AcDbCircle
 10
-226.9999999999996
 20
255.0000000000004
 30
0.0
 40
40.10000000000004
100
AcDbArc
 50
95.50637951524656
 51
174.4936204847534
  0
ARC
  5
AF
330
46
100
AcDbEntity
  8
0
  6
Continuous
 62
     7
100
AcDbCircle
 10
-226.9999999999996
 20
255.0000000000004
 30
0.0
 40
45.10000000000004
100
AcDbArc
 50
96.56704528357992
 51
173.4329547164199
  0
ARC
  5
B0
330
46
100
AcDbEntity
  8
0
  6
Continuous
 62
     7
100
AcDbCircle
 10
-174.4999999999996
 20
307.5000000000004
 30
0.0
 40
5.0
100
AcDbArc
 50
0.0
 51
90.0
  0
ARC
  5
B1
330
46
100
AcDbEntity
  8
0
  6
Continuous
 62
     7
100
AcDbCircle
 10
-226.9999999999996
 20
255.0000000000004
 30
0.0
 40
33.09999999999997
100
AcDbArc
 50
-86.52636850766913
 51
-3.47363149233086
  0
ARC
  5
B2
330
46
100
AcDbEntity
  8
0
  6
Continuous
 62
     7
100
AcDbCircle
 10
-226.9999999999996
 20
255.0000000000004
 30
0.0
 40
38.09999999999989
100
AcDbArc
 50
-84.99696083982053
 51
-5.00303916017946
  0
ARC
  5
B3
330
46
100
AcDbEntity
  8
0
  6
Continuous
 62
     7
100
AcDbCircle
 10
-226.9999999999996
 20
255.0000000000004
 30
0.0
 40
40.09999999999992
100
AcDbArc
 50
-84.49362048475359
 51
-5.50637951524654
  0
ARC
  5
B4
330
46
100
AcDbEntity
  8
0
  6
Continuous
 62
     7
100
AcDbCircle
 10
-226.9999999999996
 20
255.0000000000004
 30
0.0
 40
45.09999999999994
100
AcDbArc
 50
-83.43295471641997
 51
-6.56704528357993
  0
ARC
  5
B5
330
46
100
AcDbEntity
  8
0
  6
Continuous
 62
     7
100
AcDbCircle
 10
-226.9999999999996
 20
255.0000000000004
 30
0.0
 40
33.09999999999999
100
AcDbArc
 50
-176.5263685076692
 51
-93.47363149233088
  0
ARC
  5
B6
330
46
100
AcDbEntity
  8
0
  6
Continuous
 62
     7
100
AcDbCircle
 10
-226.9999999999996
 20
255.0000000000004
 30
0.0
 40
38.10000000000009
100
AcDbArc
 50
-174.9969608398206
 51
-95.0030391601793
  0
ARC
  5
B7
330
46
100
AcDbEntity
  8
0
  6
Continuous
 62
     7
100
AcDbCircle
 10
-226.9999999999996
 20
255.0000000000004
 30
0.0
 40
40.09999999999993
100
AcDbArc
 50
-174.4936204847534
 51
-95.50637951524656
  0
ARC
  5
B8
330
46
100
AcDbEntity
  8
0
  6
Continuous
 62
     7
100
AcDbCircle
 10
-226.9999999999996
 20
255.0000000000004
 30
0.0
 40
45.10000000000004
100
AcDbArc
 50
-173.4329547164201
 51
-96.56704528357993
  0
ARC
  5
B9
330
46
100
AcDbEntity
  8
0
  6
Continuous
 62
     7
100
AcDbCircle
 10
-226.9999999999996
 20
255.0000000000004
 30
0.0
 40
33.10000000000008
100
AcDbArc
 50
3.47363149233086
 51
86.52636850766915
  0
ARC
  5
BA
330
46
100
AcDbEntity
  8
0
  6
Continuous
 62
     7
100
AcDbCircle
 10
-226.9999999999996
 20
255.0000000000004
 30
0.0
 40
38.09999999999999
100
AcDbArc
 50
5.00303916017958
 51
84.99696083982042
  0
ARC
  5
BB
330
46
100
AcDbEntity
  8
0
  6
Continuous
 62
     7
100
AcDbCircle
 10
-226.9999999999996
 20
255.0000000000004
 30
0.0
 40
40.10000000000013
100
AcDbArc
 50
5.50637951524654
 51
84.4936204847536
  0
ARC
  5
BC
330
46
100
AcDbEntity
  8
0
  6
Continuous
 62
     7
100
AcDbCircle
 10
-279.4999999999996
 20
307.5000000000004
 30
0.0
 40
5.0
100
AcDbArc
 50
90.0
 51
180.0
  0
ARC
  5
BD
330
46
100
AcDbEntity
  8
0
  6
Continuous
 62
     7
100
AcDbCircle
 10
-226.9999999999996
 20
255.0000000000004
 30
0.0
 40
45.09999999999994
100
AcDbArc
 50
6.56704528358007
 51
83.43295471641999
  0
SPLINE
  5
BE
330
46
100
AcDbEntity
  8
0
  6
Continuous
 62
     7
100
AcDbSpline
210
0.0
220
0.0
230
1.0
 70
    11
 71
     3
 72
    47
 73
    43
 74
    41
 42
0.0000000001
 43
0.0000000001
 44
0.00000001
 40
0.0
 40
0.0
 40
0.0
 40
0.0
 40
1.029915261236727
 40
2.060659069274087
 40
3.312339388753561
 40
4.564227781046852
 40
5.935105356344614
 40
7.305714622134807
 40
8.676323887925001
 40
10.04720146322273
 40
11.29908985551599
 40
12.55077017499541
 40
13.5815139830328
 40
14.61142924426953
 40
15.35486327037269
 40
16.10874698924296
 40
16.62500611974775
 40
17.10882276548547
 40
17.59263941122321
 40
18.10889854172792
 40
18.86278226059823
 40
19.6062162867014
 40
20.63613154793809
 40
21.66687535597553
 40
22.91855567545489
 40
24.17044406774815
 40
25.54132164304589
 40
26.91193090883608
 40
28.28254017462627
 40
29.65341774992404
 40
30.9053061422173
 40
32.1569864616968
 40
33.18773026973422
 40
34.21764553097093
 40
34.96107955707399
 40
35.71496327594433
 40
36.23122240644901
 40
36.71503905218678
 40
37.19885569792454
 40
37.71511482842921
 40
38.46899854729956
 40
39.21243257340271
 40
39.21243257340271
 40
39.21243257340271
 40
39.21243257340271
 10
-198.1655790930348
 20
208.6793864351262
 30
0.0
 10
-197.845456654774
 20
208.8040226424555
 30
0.0
 10
-197.2049542459758
 20
209.0533953245196
 30
0.0
 10
-196.1371516564768
 20
209.3410993217435
 30
0.0
 10
-194.9805006408158
 20
209.5688755376365
 30
0.0
 10
-193.6986129095644
 20
209.7322547835771
 30
0.0
 10
-192.3708698382912
 20
209.8342681904053
 30
0.0
 10
-190.9999967021177
 20
209.8685864355614
 30
0.0
 10
-189.6291433545265
 20
209.8342387298796
 30
0.0
 10
-188.3013426239392
 20
209.7323683896879
 30
0.0
 10
-187.0196486793137
 20
209.5684906091614
 30
0.0
 10
-185.8623313325518
 20
209.3424330436603
 30
0.0
 10
-184.7966001094056
 20
209.0493854166466
 30
0.0
 10
-183.9183175274546
 20
208.7273376897672
 30
0.0
 10
-183.1513984344982
 20
208.3735031065663
 30
0.0
 10
-182.611790830035
 20
207.958416004301
 30
0.0
 10
-182.2524731559599
 20
207.4928734203435
 30
0.0
 10
-182.0898271094959
 20
206.9999999999972
 30
0.0
 10
-182.2524731559554
 20
206.5071265796708
 30
0.0
 10
-182.6117908300582
 20
206.0415839956391
 30
0.0
 10
-183.1513984343664
 20
205.6264968937748
 30
0.0
 10
-183.9183175280111
 20
205.2726623087979
 30
0.0
 10
-184.7966001064214
 20
204.9506145910538
 30
0.0
 10
-185.8623313445821
 20
204.6575669253036
 30
0.0
 10
-187.0196486236258
 20
204.4315095345092
 30
0.0
 10
-188.3013428387724
 20
204.2676310560632
 30
0.0
 10
-189.629142467987
 20
204.1657635573124
 30
0.0
 10
-190.9999999999289
 20
204.1314050563873
 30
0.0
 10
-192.370857532295
 20
204.165763557944
 30
0.0
 10
-193.6986571602737
 20
204.2676310536278
 30
0.0
 10
-194.9803513795743
 20
204.4315095427606
 30
0.0
 10
-196.1376686443344
 20
204.6575668967137
 30
0.0
 10
-197.2033999268975
 20
204.9506146770111
 30
0.0
 10
-198.0816823616207
 20
205.2726620240724
 30
0.0
 10
-198.848601854102
 20
205.6264976379667
 30
0.0
 10
-199.3882082115713
 20
206.0415815232395
 30
0.0
 10
-199.74752913297
 20
206.5071324846362
 30
0.0
 10
-199.9101648475241
 20
206.9999792507402
 30
0.0
 10
-199.7475578056793
 20
207.4929532951022
 30
0.0
 10
-199.388060610959
 20
207.9580327521623
 30
0.0
 10
-198.8494390853249
 20
208.3756637380496
 30
0.0
 10
-198.3924693688438
 20
208.5786176706333
 30
0.0
 10
-198.1655790930348
 20
208.6793864351262
 30
0.0
 11
-198.1655790930348
 21
208.6793864351262
 31
0.0
 11
-197.1992679153009
 21
209.0357123436915
 31
0.0
 11
-196.2060979488758
 21
209.3114771267921
 31
0.0
 11
-194.9783198735108
 21
209.5549203847091
 31
0.0
 11
-193.7370076644634
 21
209.7173043322794
 31
0.0
 11
-192.3701709922211
 21
209.8224843582727
 31
0.0
 11
-190.9999999999996
 21
209.8571428571507
 31
0.0
 11
-189.629829007778
 21
209.8224843582727
 31
0.0
 11
-188.2629923355358
 21
209.7173043322794
 31
0.0
 11
-187.0216801264884
 21
209.5549203847091
 31
0.0
 11
-185.7939020511234
 21
209.3114771267921
 31
0.0
 11
-184.8007320846983
 21
209.0357123436915
 31
0.0
 11
-183.8344209069644
 21
208.6793864351262
 31
0.0
 11
-183.1676650217081
 21
208.3505540452313
 31
0.0
 11
-182.5763565699569
 21
207.8829056982169
 31
0.0
 11
-182.271212242802
 21
207.4664799191941
 31
0.0
 11
-182.1428571428568
 21
207.0000000000004
 31
0.0
 11
-182.2712122428021
 21
206.5335200808067
 31
0.0
 11
-182.5763565699569
 21
206.1170943017839
 31
0.0
 11
-183.1676650217081
 21
205.6494459547695
 31
0.0
 11
-183.8344209069645
 21
205.3206135648747
 31
0.0
 11
-184.8007320846983
 21
204.9642876563094
 31
0.0
 11
-185.7939020511235
 21
204.6885228732089
 31
0.0
 11
-187.0216801264884
 21
204.4450796152919
 31
0.0
 11
-188.2629923355358
 21
204.2826956677215
 31
0.0
 11
-189.629829007778
 21
204.1775156417282
 31
0.0
 11
-190.9999999999996
 21
204.1428571428501
 31
0.0
 11
-192.3701709922211
 21
204.1775156417282
 31
0.0
 11
-193.7370076644634
 21
204.2826956677215
 31
0.0
 11
-194.9783198735108
 21
204.4450796152918
 31
0.0
 11
-196.2060979488758
 21
204.6885228732089
 31
0.0
 11
-197.199267915301
 21
204.9642876563094
 31
0.0
 11
-198.1655790930349
 21
205.3206135648747
 31
0.0
 11
-198.8323349782912
 21
205.6494459547695
 31
0.0
 11
-199.4236434300424
 21
206.1170943017839
 31
0.0
 11
-199.7287877571972
 21
206.5335200808067
 31
0.0
 11
-199.8571428571424
 21
207.0000000000004
 31
0.0
 11
-199.7287877571972
 21
207.4664799191941
 31
0.0
 11
-199.4236434300423
 21
207.8829056982168
 31
0.0
 11
-198.8323349782911
 21
208.3505540452312
 31
0.0
 11
-198.1655790930348
 21
208.6793864351262
 31
0.0
  0
SPLINE
  5
BF
330
46
100
AcDbEntity
  8
0
  6
Continuous
 62
     7
100
AcDbSpline
210
0.0
220
0.0
230
1.0
 70
    11
 71
     3
 72
    47
 73
    43
 74
    41
 42
0.0000000001
 43
0.0000000001
 44
0.00000001
 40
0.0
 40
0.0
 40
0.0
 40
0.0
 40
1.111362688593957
 40
2.222028399310552
 40
3.559141212404674
 40
4.896889218373274
 40
6.356911424773895
 40
7.816546842169355
 40
9.276182259564873
 40
10.73620446596549
 40
12.07395247193401
 40
13.4110652850281
 40
14.5217309957447
 40
15.63309368433864
 40
16.45745862191157
 40
17.2875578675264
 40
17.88695971653178
 40
18.46025931213216
 40
19.03355890773253
 40
19.63296075673793
 40
20.4630600023527
 40
21.28742493992563
 40
22.39878762851954
 40
23.50945333923614
 40
24.84656615233026
 40
26.18431415829874
 40
27.64433636469937
 40
29.10397178209491
 40
30.56360719949035
 40
32.02362940589106
 40
33.36137741185961
 40
34.69849022495372
 40
35.80915593567026
 40
36.92051862426413
 40
37.74488356183699
 40
38.57498280745176
 40
39.17438465645724
 40
39.74768425205758
 40
40.32098384765791
 40
40.92038569666335
 40
41.75048494227812
 40
42.5748498798509
 40
42.5748498798509
 40
42.5748498798509
 40
42.5748498798509
 10
-198.6278745183921
 20
209.0152637221505
 30
0.0
 10
-198.2888780663633
 20
209.1654809657031
 30
0.0
 10
-197.6110977598942
 20
209.4658212458525
 30
0.0
 10
-196.4724009475132
 20
209.8074721759434
 30
0.0
 10
-195.2396851502044
 20
210.0809978275883
 30
0.0
 10
-193.8745755404915
 20
210.2787995360478
 30
0.0
 10
-192.4599975491774
 20
210.4013594953584
 30
0.0
 10
-190.9999951743289
 20
210.4421847557202
 30
0.0
 10
-189.5400217560617
 20
210.4013228384416
 30
0.0
 10
-188.1253592979018
 20
210.2789410907459
 30
0.0
 10
-186.7605344467464
 20
210.0805164772047
 30
0.0
 10
-185.5268365761296
 20
209.8091446714745
 30
0.0
 10
-184.3912181019758
 20
209.4607411734317
 30
0.0
 10
-183.4519136589718
 20
209.0710651941354
 30
0.0
 10
-182.6368410096955
 20
208.6345263395541
 30
0.0
 10
-182.0595904577642
 20
208.1380544040192
 30
0.0
 10
-181.6812213889876
 20
207.5815849437632
 30
0.0
 10
-181.5177540593057
 20
206.9999999999956
 30
0.0
 10
-181.6812213889799
 20
206.4184150562571
 30
0.0
 10
-182.0595904578021
 20
205.8619455958975
 30
0.0
 10
-182.636841009492
 20
205.3654736608934
 30
0.0
 10
-183.4519136598277
 20
204.9289348039882
 30
0.0
 10
-184.3912180975263
 20
204.5392588363302
 30
0.0
 10
-185.5268365939797
 20
204.1908552893683
 30
0.0
 10
-186.7605343648891
 20
203.919483702367
 30
0.0
 10
-188.1253596134227
 20
203.7210582170955
 30
0.0
 10
-189.5400204588659
 20
203.5986800072228
 30
0.0
 10
-190.9999999998934
 20
203.5578046584207
 30
0.0
 10
-192.459979541558
 20
203.598680008029
 30
0.0
 10
-193.8746403851433
 20
203.7210582139818
 30
0.0
 10
-195.2394656399404
 20
203.9194837129547
 30
0.0
 10
-196.4731633892484
 20
204.1908552525808
 30
0.0
 10
-197.6087819534116
 20
204.5392589480692
 30
0.0
 10
-198.5480861696156
 20
204.9289344298557
 30
0.0
 10
-199.3631594486128
 20
205.3654746657974
 30
0.0
 10
-199.9404080060565
 20
205.861942226209
 30
0.0
 10
-200.3187825334284
 20
206.4184236604808
 30
0.0
 10
-200.4822318626647
 20
206.9999691183359
 30
0.0
 10
-200.3188322826585
 20
207.5817026782539
 30
0.0
 10
-199.940164629202
 20
208.1375171611232
 30
0.0
 10
-199.3644659214943
 20
208.6373932327083
 30
0.0
 10
-198.8728369972292
 20
208.8895982699293
 30
0.0
 10
-198.6278745183921
 20
209.0152637221505
 30
0.0
 11
-198.6278745183921
 21
209.0152637221505
 31
0.0
 11
-197.6025984154853
 21
209.444141255261
 31
0.0
 11
-196.5419752359001
 21
209.7737725521492
 31
0.0
 11
-195.2368805395793
 21
210.0646307797718
 31
0.0
 11
-193.9135888041062
 21
210.2607651987338
 31
0.0
 11
-192.4590478268591
 21
210.3871589829643
 31
0.0
 11
-190.9999999999996
 21
210.4285714285793
 31
0.0
 11
-189.5409521731401
 21
210.3871589829643
 31
0.0
 11
-188.086411195893
 21
210.2607651987338
 31
0.0
 11
-186.76311946042
 21
210.0646307797718
 31
0.0
 11
-185.4580247640992
 21
209.7737725521492
 31
0.0
 11
-184.397401584514
 21
209.444141255261
 31
0.0
 11
-183.3721254816072
 21
209.0152637221505
 31
0.0
 11
-182.6543770575932
 21
208.6097828346538
 31
0.0
 11
-182.0328957035023
 21
208.0594868378597
 31
0.0
 11
-181.705486194575
 21
207.5574055794412
 31
0.0
 11
-181.5714285714281
 21
207.0000000000004
 31
0.0
 11
-181.705486194575
 21
206.4425944205596
 31
0.0
 11
-182.0328957035024
 21
205.9405131621411
 31
0.0
 11
-182.6543770575932
 21
205.390217165347
 31
0.0
 11
-183.3721254816072
 21
204.9847362778504
 31
0.0
 11
-184.397401584514
 21
204.5558587447399
 31
0.0
 11
-185.4580247640992
 21
204.2262274478517
 31
0.0
 11
-186.76311946042
 21
203.935369220229
 31
0.0
 11
-188.086411195893
 21
203.7392348012671
 31
0.0
 11
-189.54095217314
 21
203.6128410170366
 31
0.0
 11
-190.9999999999996
 21
203.5714285714215
 31
0.0
 11
-192.4590478268591
 21
203.6128410170366
 31
0.0
 11
-193.9135888041062
 21
203.7392348012671
 31
0.0
 11
-195.2368805395793
 21
203.9353692202291
 31
0.0
 11
-196.5419752359001
 21
204.2262274478517
 31
0.0
 11
-197.6025984154852
 21
204.5558587447399
 31
0.0
 11
-198.6278745183919
 21
204.9847362778504
 31
0.0
 11
-199.3456229424059
 21
205.390217165347
 31
0.0
 11
-199.9671042964967
 21
205.9405131621411
 31
0.0
 11
-200.2945138054241
 21
206.4425944205596
 31
0.0
 11
-200.428571428571
 21
207.0000000000004
 31
0.0
 11
-200.2945138054241
 21
207.5574055794412
 31
0.0
 11
-199.9671042964968
 21
208.0594868378597
 31
0.0
 11
-199.3456229424059
 21
208.6097828346538
 31
0.0
 11
-198.6278745183921
 21
209.0152637221505
 31
0.0
  0
DIMENSION
  5
CA
330
46
100
AcDbEntity
  8
1
100
AcDbDimension
  2
*D4
 10
-284.4999999999996
 20
322.72620915332
 30
0.0
 11
-227.430495653705
 21
328.22620915332
 31
0.0
 70
    33
  1
<>
 71
     5
 42
-1.0
 53
0.00013888888889
  3
ME10_DIM_11
100
AcDbAlignedDimension
 13
-169.4999999999996
 23
307.5000000000004
 33
0.0
 14
-284.4999999999996
 24
307.5000000000004
 34
0.0
  0
ENDBLK
  5
48
330
46
100
AcDbEntity
  8
0
100
AcDbBlockEnd
  0
BLOCK
  5
73
330
69
100
AcDbEntity
  8
0
100
AcDbBlockBegin
  2
*D3
 70
     1
 71
     0
 10
0.0
 20
0.0
 30
0.0
  3
*D3
  1

  0
LINE
  5
6A
330
69
100
AcDbEntity
  8
1
  6
Continuous
 62
     4
100
AcDbLine
 10
-138.4999999999996
 20
322.5000000000003
 30
0.0
 11
-120.242538970755
 21
322.5000000000003
 31
0.0
  0
LINE
  5
6B
330
69
100
AcDbEntity
  8
1
  6
Continuous
 62
     4
100
AcDbLine
 10
-143.4999999999996
 20
322.5000000000003
 30
0.0
 11
-138.4999999999996
 21
322.5000000000003
 31
0.0
  0
LINE
  5
6C
330
69
100
AcDbEntity
  8
1
  6
Continuous
 62
     4
100
AcDbLine
 10
-157.4999999999996
 20
322.5000000000003
 30
0.0
 11
-143.4999999999996
 21
322.5000000000003
 31
0.0
  0
LINE
  5
6D
330
69
100
AcDbEntity
  8
1
  6
Continuous
 62
     4
100
AcDbLine
 10
-138.4999999999996
 20
312.5000000000003
 30
0.0
 11
-138.4999999999996
 21
324.5000000000003
 31
0.0
  0
LINE
  5
6E
330
69
100
AcDbEntity
  8
1
  6
Continuous
 62
     4
100
AcDbLine
 10
-143.4999999999996
 20
312.5000000000003
 30
0.0
 11
-143.4999999999996
 21
324.5000000000003
 31
0.0
  0
SOLID
  5
6F
330
69
100
AcDbEntity
  8
1
 62
     4
100
AcDbTrace
 10
-150.4999999999996
 20
321.5784325168885
 30
0.0
 11
-150.4999999999996
 21
323.421567483112
 31
0.0
 12
-143.4999999999996
 22
322.5000000000003
 32
0.0
 13
-143.4999999999996
 23
322.5000000000003
 33
0.0
  0
SOLID
  5
70
330
69
100
AcDbEntity
  8
1
 62
     4
100
AcDbTrace
 10
-131.4999999999996
 20
323.421567483112
 30
0.0
 11
-131.4999999999996
 21
321.5784325168885
 31
0.0
 12
-138.4999999999996
 22
322.5000000000003
 32
0.0
 13
-138.4999999999996
 23
322.5000000000003
 33
0.0
  0
MTEXT
  5
72
330
69
100
AcDbEntity
  8
1
 62
     1
100
AcDbMText
 10
-124.442538970755
 20
324.5000000000003
 30
0.0
 40
7.0
 41
0.0
 71
     7
 72
     1
  1
5
  7
CONVERTER_11
 11
0.9999999999970619
 21
2.424068405545306E-6
 31
0.0
 73
     1
 44
0.60024009603842
  0
ENDBLK
  5
74
330
69
100
AcDbEntity
  8
0
100
AcDbBlockEnd
  0
BLOCK
  5
C7
330
C0
100
AcDbEntity
  8
0
100
AcDbBlockBegin
  2
*D4
 70
     1
 71
     0
 10
0.0
 20
0.0
 30
0.0
  3
*D4
  1

  0
LINE
  5
C1
330
C0
100
AcDbEntity
  8
1
  6
Continuous
 62
     4
100
AcDbLine
 10
-284.4999999999996
 20
322.72620915332
 30
0.0
 11
-169.4999999999996
 21
322.72620915332
 31
0.0
  0
LINE
  5
C2
330
C0
100
AcDbEntity
  8
1
  6
Continuous
 62
     4
100
AcDbLine
 10
-169.4999999999996
 20
307.5000000000004
 30
0.0
 11
-169.4999999999996
 21
324.72620915332
 31
0.0
  0
LINE
  5
C3
330
C0
100
AcDbEntity
  8
1
  6
Continuous
 62
     4
100
AcDbLine
 10
-284.4999999999996
 20
307.5000000000004
 30
0.0
 11
-284.4999999999996
 21
324.72620915332
 31
0.0
  0
SOLID
  5
C4
330
C0
100
AcDbEntity
  8
1
 62
     4
100
AcDbTrace
 10
-277.4999999999996
 20
323.6477766364317
 30
0.0
 11
-277.4999999999996
 21
321.8046416702082
 31
0.0
 12
-284.4999999999996
 22
322.72620915332
 32
0.0
 13
-284.4999999999996
 23
322.72620915332
 33
0.0
  0
SOLID
  5
C5
330
C0
100
AcDbEntity
  8
1
 62
     4
100
AcDbTrace
 10
-176.4999999999996
 20
321.8046416702082
 30
0.0
 11
-176.4999999999996
 21
323.6477766364317
 31
0.0
 12
-169.4999999999996
 22
322.72620915332
 32
0.0
 13
-169.4999999999996
 23
322.72620915332
 33
0.0
  0
MTEXT
  5
C6
330
C0
100
AcDbEntity
  8
1
 62
     1
100
AcDbMText
 10
-244.930495653705
 20
324.72620915332
 30
0.0
 40
7.0
 41
0.0
 71
     7
 72
     1
  1
\C1;115\C1;x115
  7
CONVERTER_11
 11
0.9999999999970619
 21
2.424068405545306E-6
 31
0.0
 73
     1
 44
0.60024009603842
  0
ENDBLK
  5
C8
330
C0
100
AcDbEntity
  8
0
100
AcDbBlockEnd
  0
ENDSEC
  0
SECTION
  2
ENTITIES
  0
INSERT
  5
49
330
1F
100
AcDbEntity
  8
0
100
AcDbBlockReference
  2
HL3127-Designerost-115x115x5__1
 10
-143.4999999999996
 20
197.5000000000004
 30
0.0
  0
INSERT
  5
4A
330
1F
100
AcDbEntity
  8
0
100
AcDbBlockReference
  2
HL3127-Designerost-115x115x5__2
 10
-284.4999999999996
 20
197.5000000000004
 30
0.0
  0
ENDSEC
  0
SECTION
  2
OBJECTS
  0
DICTIONARY
  5
C
330
0
100
AcDbDictionary
281
     1
  3
ACAD_GROUP
350
D
  3
ACAD_LAYOUT
350
1A
  3
ACAD_MLINESTYLE
350
17
  3
ACAD_PLOTSETTINGS
350
19
  3
ACAD_PLOTSTYLENAME
350
E
  3
ACAD_TABLESTYLE
350
CB
  3
ACAD_VISUALSTYLE
350
2A
  0
DICTIONARY
  5
D
102
{ACAD_REACTORS
330
C
102
}
330
C
100
AcDbDictionary
281
     1
  0
DICTIONARY
  5
1A
102
{ACAD_REACTORS
330
C
102
}
330
C
100
AcDbDictionary
281
     1
  3
Layout1
350
1E
  3
Layout2
350
26
  3
Model
350
22
  0
DICTIONARY
  5
17
102
{ACAD_REACTORS
330
C
102
}
330
C
100
AcDbDictionary
281
     1
  3
Standard
350
18
  0
DICTIONARY
  5
19
102
{ACAD_REACTORS
330
C
102
}
330
C
100
AcDbDictionary
281
     1
  0
ACDBDICTIONARYWDFLT
  5
E
102
{ACAD_REACTORS
330
C
102
}
330
C
100
AcDbDictionary
281
     1
  3
Normal
350
F
100
AcDbDictionaryWithDefault
340
F
  0
DICTIONARY
  5
CB
102
{ACAD_REACTORS
330
C
102
}
330
C
100
AcDbDictionary
281
     1
  0
DICTIONARY
  5
2A
102
{ACAD_REACTORS
330
C
102
}
330
C
100
AcDbDictionary
281
     1
  3
2dWireframe
350
2F
  3
3D Hidden
350
31
  3
3dWireframe
350
30
  3
Basic
350
32
  3
Brighten
350
36
  3
ColorChange
350
3A
  3
Conceptual
350
34
  3
Dim
350
35
  3
Facepattern
350
39
  3
Flat
350
2B
  3
FlatWithEdges
350
2C
  3
Gouraud
350
2D
  3
GouraudWithEdges
350
2E
  3
Linepattern
350
38
  3
Realistic
350
33
  3
Thicken
350
37
  0
LAYOUT
  5
1E
102
{ACAD_REACTORS
330
1A
102
}
330
1A
100
AcDbPlotSettings
  1

  2
none_device
  4

  6

 40
0.0
 41
0.0
 42
0.0
 43
0.0
 44
0.0
 45
0.0
 46
0.0
 47
0.0
 48
0.0
 49
0.0
140
0.0
141
0.0
142
1.0
143
1.0
 70
   688
 72
     0
 73
     0
 74
     5
  7

 75
    16
147
1.0
148
0.0
149
0.0
100
AcDbLayout
  1
Layout1
 70
     1
 71
     1
 10
0.0
 20
0.0
 11
12.0
 21
9.0
 12
0.0
 22
0.0
 32
0.0
 14
1.00000000000000E+20
 24
1.00000000000000E+20
 34
1.00000000000000E+20
 15
-1.00000000000000E+20
 25
-1.00000000000000E+20
 35
-1.00000000000000E+20
146
0.0
 13
0.0
 23
0.0
 33
0.0
 16
1.0
 26
0.0
 36
0.0
 17
0.0
 27
1.0
 37
0.0
 76
     0
330
1B
  0
LAYOUT
  5
26
102
{ACAD_REACTORS
330
1A
102
}
330
1A
100
AcDbPlotSettings
  1

  2
none_device
  4

  6

 40
0.0
 41
0.0
 42
0.0
 43
0.0
 44
0.0
 45
0.0
 46
0.0
 47
0.0
 48
0.0
 49
0.0
140
0.0
141
0.0
142
1.0
143
1.0
 70
   688
 72
     0
 73
     0
 74
     5
  7

 75
    16
147
1.0
148
0.0
149
0.0
100
AcDbLayout
  1
Layout2
 70
     1
 71
     2
 10
0.0
 20
0.0
 11
0.0
 21
0.0
 12
0.0
 22
0.0
 32
0.0
 14
0.0
 24
0.0
 34
0.0
 15
0.0
 25
0.0
 35
0.0
146
0.0
 13
0.0
 23
0.0
 33
0.0
 16
1.0
 26
0.0
 36
0.0
 17
0.0
 27
1.0
 37
0.0
 76
     0
330
23
  0
LAYOUT
  5
22
102
{ACAD_REACTORS
330
1A
102
}
330
1A
100
AcDbPlotSettings
  1

  2
none_device
  4

  6

 40
0.0
 41
0.0
 42
0.0
 43
0.0
 44
0.0
 45
0.0
 46
0.0
 47
0.0
 48
0.0
 49
0.0
140
0.0
141
0.0
142
1.0
143
1.0
 70
  1712
 72
     0
 73
     0
 74
     0
  7

 75
     0
147
1.0
148
0.0
149
0.0
100
AcDbLayout
  1
Model
 70
     1
 71
     0
 10
0.0
 20
0.0
 11
12.0
 21
9.0
 12
0.0
 22
0.0
 32
0.0
 14
-287.568107987961
 24
194.694382292437
 34
0.0
 15
-120.242538970755
 25
331.72620915332
 35
0.0
146
0.0
 13
0.0
 23
0.0
 33
0.0
 16
1.0
 26
0.0
 36
0.0
 17
0.0
 27
1.0
 37
0.0
 76
     0
330
1F
331
29
  0
MLINESTYLE
  5
18
102
{ACAD_REACTORS
330
17
102
}
330
17
100
AcDbMlineStyle
  2
Standard
 70
     0
  3

 62
   256
 51
90.0
 52
90.0
 71
     2
 49
0.5
 62
   256
  6
BYLAYER
 49
-0.5
 62
   256
  6
BYLAYER
  0
ACDBPLACEHOLDER
  5
F
102
{ACAD_REACTORS
330
E
102
}
330
E
  0
VISUALSTYLE
  5
2F
102
{ACAD_REACTORS
330
2A
102
}
330
2A
100
AcDbVisualStyle
  2
2dWireframe
 70
     4
 71
     0
 72
     2
 73
     0
 90
        0
 40
-0.6
 41
-30.0
 62
     5
 63
     7
 74
     1
 91
        4
 64
     7
 65
   257
 75
     1
175
     1
 42
1.0
 92
        0
 66
   257
 43
1.0
 76
     1
 77
     6
 78
     2
 67
     7
 79
     5
170
     0
171
     0
290
     0
174
     0
 93
        1
 44
0.0
173
     0
291
     0
 45
0.0
1001
ACAD
1000
AcDbSavedByObjectVersion
1070
     0
  0
VISUALSTYLE
  5
31
102
{ACAD_REACTORS
330
2A
102
}
330
2A
100
AcDbVisualStyle
  2
3D Hidden
 70
     6
 71
     1
 72
     2
 73
     2
 90
        0
 40
-0.6
 41
-30.0
 62
     5
 63
     7
 74
     2
 91
        2
 64
     7
 65
   257
 75
     2
175
     1
 42
40.0
 92
        0
 66
   257
 43
1.0
 76
     1
 77
     6
 78
     2
 67
     7
 79
     3
170
     0
171
     0
290
     0
174
     0
 93
        1
 44
0.0
173
     0
291
     0
 45
0.0
1001
ACAD
1000
AcDbSavedByObjectVersion
1070
     0
  0
VISUALSTYLE
  5
30
102
{ACAD_REACTORS
330
2A
102
}
330
2A
100
AcDbVisualStyle
  2
3dWireframe
 70
     5
 71
     0
 72
     2
 73
     0
 90
        0
 40
-0.6
 41
-30.0
 62
     5
 63
     7
 74
     1
 91
        4
 64
     7
 65
   257
 75
     1
175
     1
 42
1.0
 92
        0
 66
   257
 43
1.0
 76
     1
 77
     6
 78
     2
 67
     7
 79
     5
170
     0
171
     0
290
     0
174
     0
 93
        1
 44
0.0
173
     0
291
     0
 45
0.0
1001
ACAD
1000
AcDbSavedByObjectVersion
1070
     0
  0
VISUALSTYLE
  5
32
102
{ACAD_REACTORS
330
2A
102
}
330
2A
100
AcDbVisualStyle
  2
Basic
 70
     7
 71
     1
 72
     0
 73
     1
 90
        0
 40
-0.6
 41
-30.0
 62
     5
 63
     7
 74
     0
 91
        4
 64
     7
 65
   257
 75
     1
175
     1
 42
1.0
 92
        8
 66
     7
 43
1.0
 76
     1
 77
     6
 78
     2
 67
     7
 79
     5
170
     0
171
     0
290
     0
174
     0
 93
        1
 44
0.0
173
     0
291
     1
 45
0.0
1001
ACAD
1000
AcDbSavedByObjectVersion
1070
     0
  0
VISUALSTYLE
  5
36
102
{ACAD_REACTORS
330
2A
102
}
330
2A
100
AcDbVisualStyle
  2
Brighten
 70
    12
 71
     2
 72
     2
 73
     0
 90
        0
 40
-0.6
 41
-30.0
 62
     5
 63
     7
 74
     1
 91
        4
 64
     7
 65
   257
 75
     1
175
     1
 42
1.0
 92
        8
 66
     7
 43
1.0
 76
     1
 77
     6
 78
     2
 67
     7
 79
     5
170
     0
171
     0
290
     0
174
     0
 93
        1
 44
50.0
173
     0
291
     1
 45
0.0
1001
ACAD
1000
AcDbSavedByObjectVersion
1070
     0
  0
VISUALSTYLE
  5
3A
102
{ACAD_REACTORS
330
2A
102
}
330
2A
100
AcDbVisualStyle
  2
ColorChange
 70
    16
 71
     2
 72
     2
 73
     3
 90
        0
 40
-0.6
 41
-30.0
 62
     5
 63
     8
 74
     1
 91
        4
 64
     7
 65
   257
 75
     1
175
     1
 42
1.0
 92
        8
 66
     8
 43
1.0
 76
     1
 77
     6
 78
     2
 67
     7
 79
     5
170
     0
171
     0
290
     0
174
     0
 93
        1
 44
0.0
173
     0
291
     1
 45
0.0
1001
ACAD
1000
AcDbSavedByObjectVersion
1070
     0
  0
VISUALSTYLE
  5
34
102
{ACAD_REACTORS
330
2A
102
}
330
2A
100
AcDbVisualStyle
  2
Conceptual
 70
     9
 71
     3
 72
     2
 73
     0
 90
        0
 40
-0.6
 41
-30.0
 62
     5
 63
     7
 74
     2
 91
        2
 64
     7
 65
   257
 75
     1
175
     1
 42
40.0
 92
        8
 66
     7
 43
1.0
 76
     1
 77
     6
 78
     2
 67
     7
 79
     3
170
     0
171
     0
290
     0
174
     0
 93
        1
 44
0.0
173
     0
291
     0
 45
0.0
1001
ACAD
1000
AcDbSavedByObjectVersion
1070
     0
  0
VISUALSTYLE
  5
35
102
{ACAD_REACTORS
330
2A
102
}
330
2A
100
AcDbVisualStyle
  2
Dim
 70
    11
 71
     2
 72
     2
 73
     0
 90
        0
 40
-0.6
 41
-30.0
 62
     5
 63
     7
 74
     1
 91
        4
 64
     7
 65
   257
 75
     1
175
     1
 42
1.0
 92
        8
 66
     7
 43
1.0
 76
     1
 77
     6
 78
     2
 67
     7
 79
     5
170
     0
171
     0
290
     0
174
     0
 93
        1
 44
-50.0
173
     0
291
     1
 45
0.0
1001
ACAD
1000
AcDbSavedByObjectVersion
1070
     0
  0
VISUALSTYLE
  5
39
102
{ACAD_REACTORS
330
2A
102
}
330
2A
100
AcDbVisualStyle
  2
Facepattern
 70
    15
 71
     2
 72
     2
 73
     0
 90
        0
 40
-0.6
 41
-30.0
 62
     5
 63
     7
 74
     1
 91
        4
 64
     7
 65
   257
 75
     1
175
     1
 42
1.0
 92
        8
 66
     7
 43
1.0
 76
     1
 77
     6
 78
     2
 67
     7
 79
     5
170
     0
171
     0
290
     0
174
     0
 93
        1
 44
0.0
173
     0
291
     1
 45
0.0
1001
ACAD
1000
AcDbSavedByObjectVersion
1070
     0
  0
VISUALSTYLE
  5
2B
102
{ACAD_REACTORS
330
2A
102
}
330
2A
100
AcDbVisualStyle
  2
Flat
 70
     0
 71
     2
 72
     1
 73
     1
 90
        2
 40
-0.6
 41
30.0
 62
     5
 63
     7
 74
     0
 91
        4
 64
     7
 65
   257
 75
     1
175
     1
 42
1.0
 92
        8
 66
     7
 43
1.0
 76
     1
 77
     6
 78
     2
 67
     7
 79
     5
170
     0
171
     0
290
     0
174
     0
 93
       13
 44
0.0
173
     0
291
     1
 45
0.0
1001
ACAD
1000
AcDbSavedByObjectVersion
1070
     0
  0
VISUALSTYLE
  5
2C
102
{ACAD_REACTORS
330
2A
102
}
330
2A
100
AcDbVisualStyle
  2
FlatWithEdges
 70
     1
 71
     2
 72
     1
 73
     1
 90
        2
 40
-0.6
 41
30.0
 62
     5
 63
     7
 74
     1
 91
        4
 64
     7
 65
   257
 75
     1
175
     1
 42
1.0
 92
        0
 66
   257
 43
1.0
 76
     1
 77
     6
 78
     2
 67
     7
 79
     5
170
     0
171
     0
290
     0
174
     0
 93
       13
 44
0.0
173
     0
291
     1
 45
0.0
1001
ACAD
1000
AcDbSavedByObjectVersion
1070
     0
  0
VISUALSTYLE
  5
2D
102
{ACAD_REACTORS
330
2A
102
}
330
2A
100
AcDbVisualStyle
  2
Gouraud
 70
     2
 71
     2
 72
     2
 73
     1
 90
        2
 40
-0.6
 41
30.0
 62
     5
 63
     7
 74
     0
 91
        4
 64
     7
 65
   257
 75
     1
175
     1
 42
1.0
 92
        0
 66
     7
 43
1.0
 76
     1
 77
     6
 78
     2
 67
     7
 79
     5
170
     0
171
     0
290
     0
174
     0
 93
       13
 44
0.0
173
     0
291
     1
 45
0.0
1001
ACAD
1000
AcDbSavedByObjectVersion
1070
     0
  0
VISUALSTYLE
  5
2E
102
{ACAD_REACTORS
330
2A
102
}
330
2A
100
AcDbVisualStyle
  2
GouraudWithEdges
 70
     3
 71
     2
 72
     2
 73
     1
 90
        2
 40
-0.6
 41
30.0
 62
     5
 63
     7
 74
     1
 91
        4
 64
     7
 65
   257
 75
     1
175
     1
 42
1.0
 92
        0
 66
   257
 43
1.0
 76
     1
 77
     6
 78
     2
 67
     7
 79
     5
170
     0
171
     0
290
     0
174
     0
 93
       13
 44
0.0
173
     0
291
     1
 45
0.0
1001
ACAD
1000
AcDbSavedByObjectVersion
1070
     0
  0
VISUALSTYLE
  5
38
102
{ACAD_REACTORS
330
2A
102
}
330
2A
100
AcDbVisualStyle
  2
Linepattern
 70
    14
 71
     2
 72
     2
 73
     0
 90
        0
 40
-0.6
 41
-30.0
 62
     5
 63
     7
 74
     1
 91
        4
 64
     7
 65
   257
 75
     7
175
     7
 42
1.0
 92
        8
 66
     7
 43
1.0
 76
     1
 77
     6
 78
     2
 67
     7
 79
     5
170
     0
171
     0
290
     0
174
     0
 93
        1
 44
0.0
173
     0
291
     1
 45
0.0
1001
ACAD
1000
AcDbSavedByObjectVersion
1070
     0
  0
VISUALSTYLE
  5
33
102
{ACAD_REACTORS
330
2A
102
}
330
2A
100
AcDbVisualStyle
  2
Realistic
 70
     8
 71
     2
 72
     2
 73
     0
 90
        0
 40
-0.6
 41
-30.0
 62
     5
 63
     7
 74
     1
 91
        0
 64
     7
 65
   257
 75
     1
175
     1
 42
1.0
 92
        8
 66
     8
 43
1.0
 76
     1
 77
     6
 78
     2
 67
     7
 79
     5
170
     0
171
     0
290
     0
174
     0
 93
       13
 44
0.0
173
     0
291
     0
 45
0.0
1001
ACAD
1000
AcDbSavedByObjectVersion
1070
     0
  0
VISUALSTYLE
  5
37
102
{ACAD_REACTORS
330
2A
102
}
330
2A
100
AcDbVisualStyle
  2
Thicken
 70
    13
 71
     2
 72
     2
 73
     0
 90
        0
 40
-0.6
 41
-30.0
 62
     5
 63
     7
 74
     1
 91
        4
 64
     7
 65
   257
 75
     1
175
     1
 42
1.0
 92
       12
 66
     7
 43
1.0
 76
     1
 77
     6
 78
     2
 67
     7
 79
     5
170
     0
171
     0
290
     0
174
     0
 93
        1
 44
0.0
173
     0
291
     1
 45
0.0
1001
ACAD
1000
AcDbSavedByObjectVersion
1070
     0
  0
ENDSEC
  0
EOF
