  0
SECTION
  2
HEADER
  9
$ACADVER
  1
AC1014
  9
$ACADMAINTVER
 70
             0
  9
$DWGCODEPAGE
  3
ANSI_1252
  9
$INSBASE
 10
0.0
 20
0.0
 30
0.0
  9
$EXTMIN
 10
1.00000000000000E+20
 20
1.00000000000000E+20
 30
1.00000000000000E+20
  9
$EXTMAX
 10
-1.00000000000000E+20
 20
-1.00000000000000E+20
 30
-1.00000000000000E+20
  9
$LIMMIN
 10
0.0
 20
0.0
  9
$LIMMAX
 10
0.0
 20
0.0
  9
$ORTHOMODE
 70
             0
  9
$REGENMODE
 70
             1
  9
$FILLMODE
 70
             1
  9
$QTEXTMODE
 70
             0
  9
$MIRRTEXT
 70
             1
  9
$DRAGMODE
 70
             2
  9
$LTSCALE
 40
1.0
  9
$OSMODE
 70
             0
  9
$ATTMODE
 70
             1
  9
$TEXTSIZE
 40
0.2
  9
$TRACEWID
 40
0.05
  9
$TEXTSTYLE
  7
STANDARD
  9
$CLAYER
  8
0
  9
$CELTYPE
  6
CONTINUOUS
  9
$CECOLOR
 62
           256
  9
$CELTSCALE
 40
1.0
  9
$DELOBJ
 70
             1
  9
$DISPSILH
 70
             0
  9
$DIMSCALE
 40
1.0
  9
$DIMASZ
 40
0.18
  9
$DIMEXO
 40
0.0625
  9
$DIMDLI
 40
0.38
  9
$DIMRND
 40
0.0
  9
$DIMDLE
 40
0.0
  9
$DIMEXE
 40
0.18
  9
$DIMTP
 40
0.0
  9
$DIMTM
 40
0.0
  9
$DIMTXT
 40
0.18
  9
$DIMCEN
 40
0.09
  9
$DIMTSZ
 40
0.0
  9
$DIMTOL
 70
             0
  9
$DIMLIM
 70
             0
  9
$DIMTIH
 70
             1
  9
$DIMTOH
 70
             1
  9
$DIMSE1
 70
             0
  9
$DIMSE2
 70
             0
  9
$DIMTAD
 70
             0
  9
$DIMZIN
 70
             0
  9
$DIMBLK
  1

  9
$DIMASO
 70
             1
  9
$DIMSHO
 70
             1
  9
$DIMPOST
  1

  9
$DIMAPOST
  1

  9
$DIMALT
 70
             0
  9
$DIMALTD
 70
             2
  9
$DIMALTF
 40
25.4
  9
$DIMLFAC
 40
1.0
  9
$DIMTOFL
 70
             0
  9
$DIMTVP
 40
0.0
  9
$DIMTIX
 70
             0
  9
$DIMSOXD
 70
             0
  9
$DIMSAH
 70
             0
  9
$DIMBLK1
  1

  9
$DIMBLK2
  1

  9
$DIMSTYLE
  2
STANDARD
  9
$DIMCLRD
 70
             0
  9
$DIMCLRE
 70
             0
  9
$DIMCLRT
 70
             0
  9
$DIMTFAC
 40
1.0
  9
$DIMGAP
 40
0.09
  9
$DIMJUST
 70
             0
  9
$DIMSD1
 70
             0
  9
$DIMSD2
 70
             0
  9
$DIMTOLJ
 70
             1
  9
$DIMTZIN
 70
             0
  9
$DIMALTZ
 70
             0
  9
$DIMALTTZ
 70
             0
  9
$DIMFIT
 70
             3
  9
$DIMUPT
 70
             0
  9
$DIMUNIT
 70
             2
  9
$DIMDEC
 70
             4
  9
$DIMTDEC
 70
             4
  9
$DIMALTU
 70
             2
  9
$DIMALTTD
 70
             2
  9
$DIMTXSTY
  7
STANDARD
  9
$DIMAUNIT
 70
             0
  9
$LUNITS
 70
             2
  9
$LUPREC
 70
             4
  9
$SKETCHINC
 40
0.1
  9
$FILLETRAD
 40
0.0
  9
$AUNITS
 70
             0
  9
$AUPREC
 70
             0
  9
$MENU
  1
acad
  9
$ELEVATION
 40
0.0
  9
$PELEVATION
 40
0.0
  9
$THICKNESS
 40
0.0
  9
$LIMCHECK
 70
             0
  9
$BLIPMODE
 70
             1
  9
$CHAMFERA
 40
0.0
  9
$CHAMFERB
 40
0.0
  9
$CHAMFERC
 40
0.0
  9
$CHAMFERD
 40
0.0
  9
$SKPOLY
 70
             0
  9
$TDCREATE
 40
0.000000000
  9
$TDUPDATE
 40
0.000000000
  9
$TDINDWG
 40
0.0000000000
  9
$TDUSRTIMER
 40
0.0000000000
  9
$USRTIMER
 70
             1
  9
$ANGBASE
 50
0.0
  9
$ANGDIR
 70
             0
  9
$PDMODE
 70
             0
  9
$PDSIZE
 40
0.0
  9
$PLINEWID
 40
0.0
  9
$COORDS
 70
             0
  9
$SPLFRAME
 70
             0
  9
$SPLINETYPE
 70
             6
  9
$SPLINESEGS
 70
             8
  9
$ATTDIA
 70
             0
  9
$ATTREQ
 70
             1
  9
$HANDLING
 70
             1
  9
$HANDSEED
  5
102
  9
$SURFTAB1
 70
             6
  9
$SURFTAB2
 70
             6
  9
$SURFTYPE
 70
             6
  9
$SURFU
 70
             6
  9
$SURFV
 70
             6
  9
$UCSNAME
  2

  9
$UCSORG
 10
0.0
 20
0.0
 30
0.0
  9
$UCSXDIR
 10
1.0
 20
0.0
 30
0.0
  9
$UCSYDIR
 10
0.0
 20
1.0
 30
0.0
  9
$PUCSNAME
  2

  9
$PUCSORG
 10
0.0
 20
0.0
 30
0.0
  9
$PUCSXDIR
 10
1.0
 20
0.0
 30
0.0
  9
$PUCSYDIR
 10
0.0
 20
1.0
 30
0.0
  9
$USERI1
 70
             0
  9
$USERI2
 70
             0
  9
$USERI3
 70
             0
  9
$USERI4
 70
             0
  9
$USERI5
 70
             0
  9
$USERR1
 40
11.6
  9
$USERR2
 40
0.0
  9
$USERR3
 40
0.0
  9
$USERR4
 40
0.0
  9
$USERR5
 40
0.0
  9
$WORLDVIEW
 70
             1
  9
$SHADEDGE
 70
             3
  9
$SHADEDIF
 70
            70
  9
$TILEMODE
 70
             1
  9
$MAXACTVP
 70
            16
  9
$PINSBASE
 10
0.0
 20
0.0
 30
0.0
  9
$PLIMCHECK
 70
             0
  9
$PEXTMIN
 10
1.00000000000000E+20
 20
1.00000000000000E+20
 30
1.00000000000000E+20
  9
$PEXTMAX
 10
-1.00000000000000E+20
 20
-1.00000000000000E+20
 30
-1.00000000000000E+20
  9
$PLIMMIN
 10
0.0
 20
0.0
  9
$PLIMMAX
 10
12.0
 20
9.0
  9
$UNITMODE
 70
             0
  9
$VISRETAIN
 70
             0
  9
$PLINEGEN
 70
             1
  9
$PSLTSCALE
 70
             0
  9
$TREEDEPTH
 70
          3020
  9
$PICKSTYLE
 70
             1
  9
$CMLSTYLE
  2
STANDARD
  9
$CMLJUST
 70
             0
  9
$CMLSCALE
 40
1.0
  9
$PROXYGRAPHICS
 70
             0
  9
$MEASUREMENT
 70
             1
  0
ENDSEC
  0
SECTION
  2
CLASSES
  0
CLASS
  1
LWPOLYLINE
  2
AcDbPolyline
  3
"AutoCAD"
 90
        0
280
             0
281
             1
  0
CLASS
  1
IMAGE
  2
AcDbRasterImage
  3
ISM
 90
      127
280
             0
281
             1
  0
CLASS
  1
OLE2FRAME
  2
AcDbOle2Frame
  3
""
 90
        0
280
             0
281
             1
  0
CLASS
  1
HATCH
  2
AcDbHatch
  3
"ACAD_SEDONA"
 90
        0
280
             0
281
             1
  0
CLASS
  1
DICTIONARYVAR
  2
AcDbDictionaryVar
  3
"AutoCAD"
 90
        0
280
             0
281
             0
  0
CLASS
  1
RASTERVARIABLES
  2
AcDbRasterVariables
  3
ISM
 90
        0
280
             0
281
             0
  0
CLASS
  1
IMAGEDEF
  2
AcDbRasterImageDef
  3
ISM
 90
        0
280
             0
281
             0
  0
CLASS
  1
IMAGEDEF_REACTOR
  2
AcDbRasterImageDefReactor
  3
ISM
 90
        1
280
             0
281
             0
  0
CLASS
  1
IDBUFFER
  2
AcDbIdBuffer
  3
"Acad"
 90
        0
280
             0
281
             0
  0
CLASS
  1
SPATIAL_FILTER
  2
AcDbSpatialFilter
  3
"Acad"
 90
        0
280
             0
281
             0
  0
CLASS
  1
XRECORD
  2
AcDbXrecord
  3
"<Built In>"
 90
        0
280
             0
281
             0
  0
CLASS
  1
SORTENTSTABLE
  2
AcDbSortentsTable
  3
"AutoCAD"
 90
        0
280
             0
281
             0
  0
CLASS
  1
LAYER_INDEX
  2
AcDbLayerIndex
  3
"Acad"
 90
        0
280
             0
281
             0
  0
CLASS
  1
SPATIAL_INDEX
  2
AcDbSpatialIndex
  3
"Acad"
 90
        0
280
             0
281
             0
  0
CLASS
  1
OBJECT_PTR
  2
CAseDLPNTableRecord
  3
"ASE-LPNTableRecord"
 90
        1
280
             0
281
             0
  0
CLASS
  1
LAYOUT
  2
AcDbLayout
  3
"AutoCAD 2000"
 90
        1
280
             0
281
             0
  0
CLASS
  1
PLOTSETTINGS
  2
AcDbPlotSettings
  3
"AutoCAD 2000"
 90
        1
280
             0
281
             0
  0
CLASS
  1
ACDBDICTIONARYWDFLT
  2
AcDbDictionaryWithDefault
  3
"AutoCAD 2000"
 90
        1
280
             0
281
             0
  0
CLASS
  1
ACDBPLACEHOLDER
  2
AcDbPlaceHolder
  3
"AutoCAD 2000"
 90
        1
280
             0
281
             0
  0
ENDSEC
  0
SECTION
  2
TABLES
  0
TABLE
  2
VPORT
  5
7
100
AcDbSymbolTable
 70
             1
  0
VPORT
  5
15
100
AcDbSymbolTableRecord
100
AcDbViewportTableRecord
  2
*ACTIVE
 70
             0
 10
0.0
 20
0.0
 11
1.0
 21
1.0
 12
9.23973218898828
 22
-230.05407276263344
 13
0.0
 23
0.0
 14
1.0
 24
1.0
 15
0.0
 25
0.0
 16
0.0
 26
0.0
 36
1.0
 17
0.0
 27
0.0
 37
0.0
 40
468.81468776803888
 41
1.60267857142857
 42
50.0
 43
0.0
 44
0.0
 50
0.0
 51
0.0
 71
             0
 72
           100
 73
             1
 74
             1
 75
             0
 76
             0
 77
             0
 78
             0
  0
ENDTAB
  0
TABLE
  2
LTYPE
  5
4
100
AcDbSymbolTable
 70
            10
  0
LTYPE
  5
11
100
AcDbSymbolTableRecord
100
AcDbLinetypeTableRecord
  2
BYBLOCK
 70
            64
  3

 72
            65
 73
             0
 40
0.0
  0
LTYPE
  5
12
100
AcDbSymbolTableRecord
100
AcDbLinetypeTableRecord
  2
BYLAYER
 70
            64
  3

 72
            65
 73
             0
 40
0.0
  0
LTYPE
  5
13
100
AcDbSymbolTableRecord
100
AcDbLinetypeTableRecord
  2
CONTINUOUS
 70
            64
  3
Solid line
 72
            65
 73
             0
 40
0.0
  0
LTYPE
  5
1D
100
AcDbSymbolTableRecord
100
AcDbLinetypeTableRecord
  2
DASHED
 70
            64
  3
Dashed
 72
            65
 73
             2
 40
15.0
 49
12.0
 74
             0
 49
-3.0
 74
             0
  0
LTYPE
  5
1E
100
AcDbSymbolTableRecord
100
AcDbLinetypeTableRecord
  2
DOTTED
 70
            64
  3
Dotted
 72
            65
 73
             2
 40
3.5
 49
0.5
 74
             0
 49
-3.0
 74
             0
  0
LTYPE
  5
1F
100
AcDbSymbolTableRecord
100
AcDbLinetypeTableRecord
  2
DOT_CENTER
 70
            64
  3
Dot_Center
 72
            65
 73
             4
 40
2.0
 49
1.25
 74
             0
 49
-0.25
 74
             0
 49
0.25
 74
             0
 49
-0.25
 74
             0
  0
LTYPE
  5
20
100
AcDbSymbolTableRecord
100
AcDbLinetypeTableRecord
  2
LONG_DASHED
 70
            64
  3
Long_Dashed
 72
            65
 73
             2
 40
2.0
 49
1.5
 74
             0
 49
-0.5
 74
             0
  0
LTYPE
  5
21
100
AcDbSymbolTableRecord
100
AcDbLinetypeTableRecord
  2
DASH_CENTER
 70
            64
  3
Dash_Center
 72
            65
 73
             4
 40
36.0
 49
24.0
 74
             0
 49
-3.0
 74
             0
 49
6.0
 74
             0
 49
-3.0
 74
             0
  0
LTYPE
  5
22
100
AcDbSymbolTableRecord
100
AcDbLinetypeTableRecord
  2
PHANTOM
 70
            64
  3
Phantom
 72
            65
 73
             6
 40
2.5
 49
1.25
 74
             0
 49
-0.25
 74
             0
 49
0.25
 74
             0
 49
-0.25
 74
             0
 49
0.25
 74
             0
 49
-0.25
 74
             0
  0
LTYPE
  5
23
100
AcDbSymbolTableRecord
100
AcDbLinetypeTableRecord
  2
CENTER_DASH_DASH
 70
            64
  3
Center_Dash_Dash
 72
            65
 73
             6
 40
22.0
 49
12.0
 74
             0
 49
-3.0
 74
             0
 49
0.5
 74
             0
 49
-3.0
 74
             0
 49
0.5
 74
             0
 49
-3.0
 74
             0
  0
ENDTAB
  0
TABLE
  2
LAYER
  5
2
100
AcDbSymbolTable
 70
             9
  0
LAYER
  5
14
100
AcDbSymbolTableRecord
100
AcDbLayerTableRecord
  2
0
 70
             0
 62
             7
  6
CONTINUOUS
  0
LAYER
  5
24
100
AcDbSymbolTableRecord
100
AcDbLayerTableRecord
  2
1
 70
             0
 62
             7
  6
CONTINUOUS
  0
LAYER
  5
25
100
AcDbSymbolTableRecord
100
AcDbLayerTableRecord
  2
LC-001-002-----0
 70
             0
 62
             7
  6
CONTINUOUS
  0
LAYER
  5
26
100
AcDbSymbolTableRecord
100
AcDbLayerTableRecord
  2
LC-002-002-RND-0
 70
             0
 62
             7
  6
CONTINUOUS
  0
LAYER
  5
27
100
AcDbSymbolTableRecord
100
AcDbLayerTableRecord
  2
LC-003-002-----0
 70
             0
 62
             7
  6
CONTINUOUS
  0
LAYER
  5
28
100
AcDbSymbolTableRecord
100
AcDbLayerTableRecord
  2
LC-004-002-RND-0
 70
             0
 62
             7
  6
CONTINUOUS
  0
LAYER
  5
29
100
AcDbSymbolTableRecord
100
AcDbLayerTableRecord
  2
LC-005-003-----0
 70
             0
 62
             7
  6
CONTINUOUS
  0
LAYER
  5
2A
100
AcDbSymbolTableRecord
100
AcDbLayerTableRecord
  2
LC-006-001-RND-0
 70
             0
 62
             7
  6
CONTINUOUS
  0
LAYER
  5
2B
100
AcDbSymbolTableRecord
100
AcDbLayerTableRecord
  2
LC-007-001-----0
 70
             0
 62
             7
  6
CONTINUOUS
  0
ENDTAB
  0
TABLE
  2
STYLE
  5
3
100
AcDbSymbolTable
 70
             2
  0
STYLE
  5
17
100
AcDbSymbolTableRecord
100
AcDbTextStyleTableRecord
  2
STANDARD
 70
             0
 40
0.0
 41
1.0
 50
0.0
 71
             0
 42
0.0
  3
txt
  4

  0
STYLE
  5
D0
100
AcDbSymbolTableRecord
100
AcDbTextStyleTableRecord
  2
CONVERTER_1
 70
             0
 40
0.0
 41
0.9
 50
0.0
 71
             0
 42
0.0
  3
txt.shx
  4

  0
ENDTAB
  0
TABLE
  2
VIEW
  5
5
100
AcDbSymbolTable
 70
             0
  0
ENDTAB
  0
TABLE
  2
UCS
  5
6
100
AcDbSymbolTable
 70
             0
  0
ENDTAB
  0
TABLE
  2
APPID
  5
8
100
AcDbSymbolTable
 70
             1
  0
APPID
  5
16
100
AcDbSymbolTableRecord
100
AcDbRegAppTableRecord
  2
ACAD
 70
             0
  0
ENDTAB
  0
TABLE
  2
DIMSTYLE
  5
9
100
AcDbSymbolTable
 70
             6
  0
DIMSTYLE
105
18
100
AcDbSymbolTableRecord
100
AcDbDimStyleTableRecord
  2
STANDARD
 70
             0
  3

  4

  5

  6

  7

 40
1.0
 41
0.18
 42
0.0625
 43
0.38
 44
0.18
 45
0.0
 46
0.0
 47
0.0
 48
0.0
 71
             0
 72
             0
 73
             1
 74
             1
 75
             0
 76
             0
 77
             0
 78
             0
140
0.18
141
0.09
142
0.0
143
25.4
144
1.0
145
0.0
146
1.0
147
0.09
170
             0
171
             2
172
             0
173
             0
174
             0
175
             0
176
             0
177
             0
178
             0
270
             2
271
             4
272
             4
273
             2
274
             2
275
             0
280
             0
281
             0
282
             0
283
             1
284
             0
285
             0
286
             0
287
             0
288
             0
340
17
  0
DIMSTYLE
105
D3
100
AcDbSymbolTableRecord
100
AcDbDimStyleTableRecord
  2
ME10_DIM_0
 70
             0
  3
DN<>
  4

  5

  6

  7

 40
1.0
 41
10.0
 42
0.0
 43
0.38
 44
2.0
 45
0.0
 46
0.0
 47
0.0
 48
0.0
 71
             0
 72
             0
 73
             0
 74
             0
 75
             0
 76
             0
 77
             1
 78
             8
140
10.0
141
0.09
142
0.0
143
25.4
144
1.0
145
0.0
146
1.0
147
0.625
170
             0
171
             2
172
             0
173
             1
174
             0
175
             0
176
             4
177
             4
178
             1
270
             2
271
             2
272
             4
273
             2
274
             2
275
             0
280
             0
281
             0
282
             0
283
             1
284
             0
285
             0
286
             0
287
             0
288
             0
340
17
  0
DIMSTYLE
105
DE
100
AcDbSymbolTableRecord
100
AcDbDimStyleTableRecord
  2
ME10_DIM_1
 70
             0
  3
Ø<>
  4

  5

  6

  7

 40
1.0
 41
10.0
 42
0.0
 43
0.38
 44
2.0
 45
0.0
 46
0.0
 47
0.0
 48
0.0
 71
             0
 72
             0
 73
             0
 74
             0
 75
             0
 76
             0
 77
             1
 78
             8
140
10.0
141
0.09
142
0.0
143
25.4
144
1.0
145
0.0
146
1.0
147
0.625
170
             0
171
             2
172
             0
173
             1
174
             0
175
             0
176
             4
177
             4
178
             1
270
             2
271
             0
272
             4
273
             2
274
             2
275
             0
280
             0
281
             0
282
             0
283
             1
284
             0
285
             0
286
             0
287
             0
288
             0
340
17
  0
DIMSTYLE
105
E9
100
AcDbSymbolTableRecord
100
AcDbDimStyleTableRecord
  2
ME10_DIM_2
 70
             0
  3
Ø<>
  4

  5

  6

  7

 40
1.0
 41
10.0
 42
0.0
 43
0.38
 44
2.0
 45
0.0
 46
0.0
 47
0.0
 48
0.0
 71
             0
 72
             0
 73
             0
 74
             0
 75
             0
 76
             0
 77
             1
 78
             8
140
10.0
141
0.09
142
0.0
143
25.4
144
1.0
145
0.0
146
1.0
147
0.625
170
             0
171
             2
172
             0
173
             1
174
             0
175
             0
176
             4
177
             4
178
             1
270
             2
271
             0
272
             4
273
             2
274
             2
275
             0
280
             0
281
             0
282
             0
283
             1
284
             0
285
             0
286
             0
287
             0
288
             0
340
17
  0
DIMSTYLE
105
F4
100
AcDbSymbolTableRecord
100
AcDbDimStyleTableRecord
  2
ME10_DIM_3
 70
             0
  3
Ø<>
  4

  5

  6

  7

 40
1.0
 41
10.0
 42
0.0
 43
0.38
 44
2.0
 45
0.0
 46
0.0
 47
0.0
 48
0.0
 71
             0
 72
             0
 73
             0
 74
             0
 75
             0
 76
             0
 77
             1
 78
             8
140
10.0
141
0.09
142
0.0
143
25.4
144
1.0
145
0.0
146
1.0
147
0.625
170
             0
171
             2
172
             0
173
             1
174
             0
175
             0
176
             4
177
             4
178
             1
270
             2
271
             2
272
             4
273
             2
274
             2
275
             0
280
             0
281
             0
282
             0
283
             1
284
             0
285
             0
286
             0
287
             0
288
             0
340
17
  0
DIMSTYLE
105
FF
100
AcDbSymbolTableRecord
100
AcDbDimStyleTableRecord
  2
ME10_DIM_4
 70
             0
  3

  4

  5

  6

  7

 40
1.0
 41
10.0
 42
0.0
 43
0.38
 44
2.0
 45
0.0
 46
0.0
 47
0.0
 48
0.0
 71
             0
 72
             0
 73
             0
 74
             0
 75
             0
 76
             0
 77
             1
 78
             8
140
10.0
141
0.09
142
0.0
143
25.4
144
1.0
145
0.0
146
1.0
147
0.625
170
             0
171
             2
172
             0
173
             1
174
             0
175
             0
176
             4
177
             4
178
             1
270
             2
271
             0
272
             4
273
             2
274
             2
275
             0
280
             0
281
             0
282
             0
283
             1
284
             0
285
             0
286
             0
287
             0
288
             0
340
17
  0
ENDTAB
  0
TABLE
  2
BLOCK_RECORD
  5
1
100
AcDbSymbolTable
 70
             7
  0
BLOCK_RECORD
  5
A
100
AcDbSymbolTableRecord
100
AcDbBlockTableRecord
  2
*MODEL_SPACE
  0
BLOCK_RECORD
  5
B
100
AcDbSymbolTableRecord
100
AcDbBlockTableRecord
  2
*PAPER_SPACE
  0
BLOCK_RECORD
  5
2C
100
AcDbSymbolTableRecord
100
AcDbBlockTableRecord
  2
HL317KHN_K_RPER
  0
BLOCK_RECORD
  5
2E
100
AcDbSymbolTableRecord
100
AcDbBlockTableRecord
  2
0317_3E_GLOCKE
  0
BLOCK_RECORD
  5
C9
100
AcDbSymbolTableRecord
100
AcDbBlockTableRecord
  2
*D2
  0
BLOCK_RECORD
  5
D5
100
AcDbSymbolTableRecord
100
AcDbBlockTableRecord
  2
*D3
  0
BLOCK_RECORD
  5
E0
100
AcDbSymbolTableRecord
100
AcDbBlockTableRecord
  2
*D4
  0
BLOCK_RECORD
  5
EB
100
AcDbSymbolTableRecord
100
AcDbBlockTableRecord
  2
*D5
  0
BLOCK_RECORD
  5
F6
100
AcDbSymbolTableRecord
100
AcDbBlockTableRecord
  2
*D6
  0
ENDTAB
  0
ENDSEC
  0
SECTION
  2
BLOCKS
  0
BLOCK
  5
D
100
AcDbEntity
  8
0
100
AcDbBlockBegin
  2
*MODEL_SPACE
 70
             0
 10
0.0
 20
0.0
 30
0.0
  3
*MODEL_SPACE
  1

  0
ENDBLK
  5
E
100
AcDbEntity
  8
0
100
AcDbBlockEnd
  0
BLOCK
  5
F
100
AcDbEntity
 67
             1
  8
0
100
AcDbBlockBegin
  2
*PAPER_SPACE
 70
             0
 10
0.0
 20
0.0
 30
0.0
  3
*PAPER_SPACE
  1

  0
ENDBLK
  5
10
100
AcDbEntity
 67
             1
  8
0
100
AcDbBlockEnd
  0
BLOCK
  5
2D
100
AcDbEntity
  8
0
100
AcDbBlockBegin
  2
HL317KHN_K_RPER
 70
             0
 10
235.71725050498799
 20
-383.534829702011
 30
0.0
  3
HL317KHN_K_RPER
  1

  0
ARC
  5
76
100
AcDbEntity
  8
LC-003-002-----0
  6
CONTINUOUS
 62
             7
100
AcDbCircle
 10
91.13042657541604
 20
-244.0848034910762
 40
1.99202199999999
100
AcDbArc
 50
90.0
 51
180.0
  0
ARC
  5
75
100
AcDbEntity
  8
LC-003-002-----0
  6
CONTINUOUS
 62
             7
100
AcDbCircle
 10
91.40552957541598
 20
-239.10474749107621
 40
2.988034
100
AcDbArc
 50
-90.0
 51
-2.9999999999898
  0
ARC
  5
74
100
AcDbEntity
  8
LC-003-002-----0
  6
CONTINUOUS
 62
             7
100
AcDbCircle
 10
-91.13821342458419
 20
-244.0848034910762
 40
1.99202200000013
100
AcDbArc
 50
0.0
 51
90.0
  0
ARC
  5
73
100
AcDbEntity
  8
LC-003-002-----0
  6
CONTINUOUS
 62
             7
100
AcDbCircle
 10
-91.41331642458414
 20
-239.10474749107621
 40
2.98803400000008
100
AcDbArc
 50
-177.0000000000102
 51
-90.0
  0
ARC
  5
72
100
AcDbEntity
  8
LC-006-001-RND-0
  6
CONTINUOUS
 62
             7
100
AcDbCircle
 10
96.09679257541592
 20
-235.2301104910762
 40
1.49401700000019
100
AcDbArc
 50
93.99999700001006
 51
177.00000000000361
  0
ARC
  5
71
100
AcDbEntity
  8
LC-006-001-RND-0
  6
CONTINUOUS
 62
             7
100
AcDbCircle
 10
-96.10457942458407
 20
-235.2301104910762
 40
1.49401699999948
100
AcDbArc
 50
2.99999999999638
 51
86.00000299998995
  0
ARC
  5
70
100
AcDbEntity
  8
LC-004-002-RND-0
  6
CONTINUOUS
 62
             7
100
AcDbCircle
 10
148.1465305754158
 20
-227.10544349107619
 40
2.0
100
AcDbArc
 50
0.0
 51
93.99999600000007
  0
ARC
  5
6F
100
AcDbEntity
  8
LC-004-002-RND-0
  6
CONTINUOUS
 62
             7
100
AcDbCircle
 10
-148.15431742458409
 20
-227.10544349107619
 40
2.0000000000005
100
AcDbArc
 50
86.00000299998933
 51
180.0
  0
ARC
  5
6E
100
AcDbEntity
  8
LC-001-002-----0
  6
CONTINUOUS
 62
             7
100
AcDbCircle
 10
67.9993955754158
 20
-325.74364795135813
 40
12.00000000000026
100
AcDbArc
 50
-90.0001889999979
 51
-0.00003700000009
  0
ARC
  5
6D
100
AcDbEntity
  8
LC-001-002-----0
  6
CONTINUOUS
 62
             7
100
AcDbCircle
 10
-68.00077042458412
 20
-325.74379795135809
 40
12.0
100
AcDbArc
 50
180.0
 51
-89.99994199999732
  0
LINE
  5
6C
100
AcDbEntity
  8
LC-003-002-----0
  6
CONTINUOUS
 62
             7
100
AcDbLine
 10
249.99895357541581
 20
-221.10931449107619
 11
249.99896157541579
 21
-225.10931449107619
  0
LINE
  5
6B
100
AcDbEntity
  8
LC-003-002-----0
  6
CONTINUOUS
 62
             7
100
AcDbLine
 10
-250.00104642258131
 20
-221.11131692091951
 11
249.99895357541581
 21
-221.10931449107619
  0
LINE
  5
6A
100
AcDbEntity
  8
LC-003-002-----0
  6
CONTINUOUS
 62
             7
100
AcDbLine
 10
148.01272757541579
 20
-225.10972249107621
 11
249.99896157541579
 21
-225.10931449107619
  0
LINE
  5
69
100
AcDbEntity
  8
LC-003-002-----0
  6
CONTINUOUS
 62
             7
100
AcDbLine
 10
-147.87580142458421
 20
-225.11031549107619
 11
-250.00103842458421
 21
-225.11031549107619
  0
LINE
  5
68
100
AcDbEntity
  8
LC-003-002-----0
  6
CONTINUOUS
 62
             7
100
AcDbLine
 10
79.9329855754159
 20
-325.79260649107613
 11
79.93298557541579
 21
-263.21854549107621
  0
LINE
  5
67
100
AcDbEntity
  8
LC-003-002-----0
  6
CONTINUOUS
 62
             7
100
AcDbLine
 10
-89.14619142458406
 20
-250.0608704910762
 11
-89.14619142458406
 21
-244.0848034910762
  0
LINE
  5
66
100
AcDbEntity
  8
LC-007-001-----0
  6
CONTINUOUS
 62
             7
100
AcDbLine
 10
-111.0937884245842
 20
-232.62346849107621
 11
-96.00036042458402
 21
-233.73973349107621
  0
LINE
  5
65
100
AcDbEntity
  8
LC-003-002-----0
  6
CONTINUOUS
 62
             7
100
AcDbLine
 10
-91.41331642458414
 20
-242.09278049107621
 11
-91.13821342458419
 21
-242.09278049107621
  0
LINE
  5
64
100
AcDbEntity
  8
LC-007-001-----0
  6
CONTINUOUS
 62
             7
100
AcDbLine
 10
111.82594857541601
 20
-232.57223349107619
 11
95.99257457541575
 21
-233.73973349107621
  0
LINE
  5
63
100
AcDbEntity
  8
LC-003-002-----0
  6
CONTINUOUS
 62
             7
100
AcDbLine
 10
-89.14619142458406
 20
-250.0608704910762
 11
-79.9330874245839
 21
-263.21854549107621
  0
LINE
  5
62
100
AcDbEntity
  8
LC-003-002-----0
  6
CONTINUOUS
 62
             7
100
AcDbLine
 10
91.40552957541598
 20
-242.09278049107621
 11
91.13042657541604
 21
-242.09278049107621
  0
LINE
  5
61
100
AcDbEntity
  8
LC-003-002-----0
  6
CONTINUOUS
 62
             7
100
AcDbLine
 10
89.13840457541591
 20
-250.0608704910762
 11
79.93298557541579
 21
-263.20757249107612
  0
LINE
  5
60
100
AcDbEntity
  8
LC-003-002-----0
  6
CONTINUOUS
 62
             7
100
AcDbLine
 10
117.67966757541571
 20
-230.22633849107621
 11
111.82594857541601
 21
-232.57223349107619
  0
LINE
  5
5F
100
AcDbEntity
  8
LC-003-002-----0
  6
CONTINUOUS
 62
             7
100
AcDbLine
 10
94.60482257541588
 20
-235.1519204910762
 11
94.38946857541595
 21
-239.26112849107619
  0
LINE
  5
5E
100
AcDbEntity
  8
LC-003-002-----0
  6
CONTINUOUS
 62
             7
100
AcDbLine
 10
150.1465305754158
 20
-227.10544349107619
 11
150.14653057541591
 21
-227.95603649107619
  0
LINE
  5
5D
100
AcDbEntity
  8
LC-003-002-----0
  6
CONTINUOUS
 62
             7
100
AcDbLine
 10
150.14653057541591
 20
-227.95603649107619
 11
117.67966757541571
 21
-230.22633849107621
  0
LINE
  5
5C
100
AcDbEntity
  8
LC-003-002-----0
  6
CONTINUOUS
 62
             7
100
AcDbLine
 10
-79.9330874245839
 20
-325.7891494910761
 11
-79.9330874245839
 21
-263.21854549107621
  0
LINE
  5
5B
100
AcDbEntity
  8
LC-003-002-----0
  6
CONTINUOUS
 62
             7
100
AcDbLine
 10
-116.96386242458409
 20
-230.27693649107621
 11
-111.0937884245842
 21
-232.62346849107621
  0
LINE
  5
5A
100
AcDbEntity
  8
LC-003-002-----0
  6
CONTINUOUS
 62
             7
100
AcDbLine
 10
-94.61260942458426
 20
-235.1519204910762
 11
-94.39725442458399
 21
-239.26112849107619
  0
LINE
  5
59
100
AcDbEntity
  8
LC-003-002-----0
  6
CONTINUOUS
 62
             7
100
AcDbLine
 10
-150.15431742458409
 20
-227.10544349107619
 11
-150.15431742458409
 21
-227.95603649107619
  0
LINE
  5
58
100
AcDbEntity
  8
LC-003-002-----0
  6
CONTINUOUS
 62
             7
100
AcDbLine
 10
-150.15431742458409
 20
-227.95603649107619
 11
-116.96386242458409
 21
-230.27693649107621
  0
LINE
  5
57
100
AcDbEntity
  8
LC-003-002-----0
  6
CONTINUOUS
 62
             7
100
AcDbLine
 10
-250.00104642258131
 20
-221.11131692091951
 11
-250.00103842458421
 21
-225.11031549107619
  0
LINE
  5
56
100
AcDbEntity
  8
1
  6
PHANTOM
 62
             2
100
AcDbLine
 10
-0.00005092458403
 20
-398.19165225299298
 11
-0.00005092458396
 21
-211.64277265123499
  0
LINE
  5
55
100
AcDbEntity
  8
1
  6
CONTINUOUS
 62
             7
100
AcDbLine
 10
89.13840457541591
 20
-244.0848034910762
 11
89.13840457541591
 21
-250.0608704910762
  0
LINE
  5
54
100
AcDbEntity
  8
LC-001-002-----0
  6
CONTINUOUS
 62
             7
100
AcDbLine
 10
-68.00077042458412
 20
-337.74379795135809
 11
-57.50077042458411
 21
-337.74379795135809
  0
LINE
  5
53
100
AcDbEntity
  8
LC-001-002-----0
  6
CONTINUOUS
 62
             7
100
AcDbLine
 10
67.9993955754158
 20
-337.74364995135812
 11
57.499387575416
 21
-337.74364295135803
  0
LINE
  5
52
100
AcDbEntity
  8
LC-001-002-----0
  6
CONTINUOUS
 62
             7
100
AcDbLine
 10
57.499387575416
 20
-337.74364295135803
 11
-37.5007704245841
 21
-337.74358120125532
  0
LINE
  5
51
100
AcDbEntity
  8
LC-001-002-----0
  6
CONTINUOUS
 62
             7
100
AcDbLine
 10
-57.50077042458411
 20
-337.74379795135809
 11
-37.5007704245841
 21
-337.74379795135809
  0
LINE
  5
50
100
AcDbEntity
  8
1
  6
CONTINUOUS
 62
             7
100
AcDbLine
 10
79.9329855754159
 20
-325.79260649107613
 11
-79.9330874245839
 21
-325.79260649107613
  0
LINE
  5
4F
100
AcDbEntity
  8
1
  6
CONTINUOUS
 62
             7
100
AcDbLine
 10
-79.9330874245839
 20
-263.21854549107621
 11
79.93298557541579
 21
-263.21854549107621
  0
LINE
  5
4E
100
AcDbEntity
  8
LC-003-002-----0
  6
CONTINUOUS
 62
             7
100
AcDbLine
 10
79.93298557541579
 20
-263.21854549107621
 11
79.93298557541579
 21
-263.20757249107612
  0
LINE
  5
4D
100
AcDbEntity
  8
1
  6
CONTINUOUS
 62
             7
100
AcDbLine
 10
89.13840457541591
 20
-250.0608704910762
 11
-89.14619142458406
 21
-250.0608704910762
  0
LINE
  5
4C
100
AcDbEntity
  8
1
  6
CONTINUOUS
 62
             7
100
AcDbLine
 10
-89.14619142458406
 20
-244.0848034910762
 11
89.13840457541591
 21
-244.0848034910762
  0
LINE
  5
4B
100
AcDbEntity
  8
1
  6
CONTINUOUS
 62
             7
100
AcDbLine
 10
94.38946857866694
 20
-239.26112910775211
 11
-94.39725542783509
 21
-239.26112910775211
  0
LINE
  5
4A
100
AcDbEntity
  8
1
  6
CONTINUOUS
 62
             7
100
AcDbLine
 10
-94.61260942458426
 20
-235.1519204910762
 11
94.60482257541588
 21
-235.1519204910762
  0
LINE
  5
49
100
AcDbEntity
  8
1
  6
CONTINUOUS
 62
             7
100
AcDbLine
 10
95.99257529581786
 20
-233.73973283594219
 11
-96.00036042458402
 21
-233.73973283594219
  0
LINE
  5
48
100
AcDbEntity
  8
1
  6
CONTINUOUS
 62
             7
100
AcDbLine
 10
-111.0937884245842
 20
-232.62346849107621
 11
111.82594857541601
 21
-232.62346849107621
  0
LINE
  5
47
100
AcDbEntity
  8
1
  6
CONTINUOUS
 62
             7
100
AcDbLine
 10
117.67966757541571
 20
-230.22633849107621
 11
-116.96386242458409
 21
-230.22633849107621
  0
LINE
  5
46
100
AcDbEntity
  8
1
  6
CONTINUOUS
 62
             7
100
AcDbLine
 10
-147.87580142458421
 20
-225.11031549107619
 11
148.0070177672138
 21
-225.11031549107619
  0
LINE
  5
45
100
AcDbEntity
  8
1
  6
CONTINUOUS
 62
             7
100
AcDbLine
 10
150.14653057541591
 20
-227.95603649107619
 11
-150.15431742458409
 21
-227.95603649107619
  0
LINE
  5
44
100
AcDbEntity
  8
1
  6
CONTINUOUS
 62
             7
100
AcDbLine
 10
-91.13821342458419
 20
-242.09278049107621
 11
91.13042657541604
 21
-242.09278049107621
  0
LINE
  5
43
100
AcDbEntity
  8
LC-001-002-----0
  6
CONTINUOUS
 62
             7
100
AcDbLine
 10
34.5
 20
-395.74347049088692
 11
37.50000199999977
 21
-392.74347249088697
  0
LINE
  5
42
100
AcDbEntity
  8
LC-001-002-----0
  6
CONTINUOUS
 62
             7
100
AcDbLine
 10
34.5
 20
-395.74347049088692
 11
0.0
 21
-395.74344749088692
  0
LINE
  5
41
100
AcDbEntity
  8
LC-001-002-----0
  6
CONTINUOUS
 62
             7
100
AcDbLine
 10
37.5000379999999
 20
-337.74347249088697
 11
37.50000199999977
 21
-392.74347249088697
  0
LINE
  5
40
100
AcDbEntity
  8
LC-001-002-----0
  6
CONTINUOUS
 62
             7
100
AcDbLine
 10
-34.50012100000004
 20
-395.74363949088701
 11
-37.50012100000004
 21
-392.74363949088701
  0
LINE
  5
3F
100
AcDbEntity
  8
LC-001-002-----0
  6
CONTINUOUS
 62
             7
100
AcDbLine
 10
-34.50012100000004
 20
-395.74363949088701
 11
-0.00012100000004
 21
-395.74363949088701
  0
LINE
  5
3E
100
AcDbEntity
  8
LC-001-002-----0
  6
CONTINUOUS
 62
             7
100
AcDbLine
 10
-37.50012100000004
 20
-337.74363949088701
 11
-37.50012100000004
 21
-392.74363949088701
  0
LINE
  5
3D
100
AcDbEntity
  8
1
  6
CONTINUOUS
 62
             7
100
AcDbLine
 10
-37.50012100000004
 20
-392.74363949088701
 11
37.50000199989046
 21
-392.74363949088701
  0
POINT
  5
3C
100
AcDbEntity
  8
0
 62
             7
100
AcDbPoint
 10
148.0157635754158
 20
-225.10972249107621
  0
POINT
  5
3B
100
AcDbEntity
  8
0
 62
             7
100
AcDbPoint
 10
150.14653057541591
 20
-227.95603649107619
  0
POINT
  5
3A
100
AcDbEntity
  8
0
 62
             7
100
AcDbPoint
 10
-150.15431742458409
 20
-227.95603649107619
  0
POINT
  5
39
100
AcDbEntity
  8
0
 62
             7
100
AcDbPoint
 10
-150.15431742458409
 20
-227.95603649107619
  0
POINT
  5
38
100
AcDbEntity
  8
0
 62
             7
100
AcDbPoint
 10
-68.00077042458412
 20
-337.74379795135809
  0
POINT
  5
37
100
AcDbEntity
  8
0
 62
             7
100
AcDbPoint
 10
79.9993955754158
 20
-325.743654951358
  0
POINT
  5
36
100
AcDbEntity
  8
0
 62
             7
100
AcDbPoint
 10
-80.00077042458412
 20
-325.74379795135809
  0
POINT
  5
35
100
AcDbEntity
  8
LC-005-003-----0
 62
             7
100
AcDbPoint
 10
37.50000199999977
 20
-392.74347249088697
  0
POINT
  5
34
100
AcDbEntity
  8
LC-005-003-----0
 62
             7
100
AcDbPoint
 10
-37.50012100000004
 20
-392.74363949088701
  0
ENDBLK
  5
77
100
AcDbEntity
  8
0
100
AcDbBlockEnd
  0
BLOCK
  5
2F
100
AcDbEntity
  8
0
100
AcDbBlockBegin
  2
0317_3E_GLOCKE
 70
             0
 10
1654.873738435324
 20
361.42612967596511
 30
0.0
  3
0317_3E_GLOCKE
  1

  0
HATCH
  5
C6
100
AcDbEntity
  8
1
  6
CONTINUOUS
 62
             3
100
AcDbHatch
 10
0.0
 20
0.0
 30
0.0
210
0.0
220
0.0
230
1.0
  2
USER
 70
             0
 71
             1
 91
        1
 92
        1
 93
        4
 72
             1
 10
23.825030477035259
 20
-132.4639629076446
 11
23.825030477035259
 21
-134.4639629076446
 72
             2
 10
22.825030477035259
 20
-134.4639629076446
 40
1.0
 50
0.0
 51
-180.0
 73
             0
 72
             1
 10
21.825030477035259
 20
-134.4639629076446
 11
21.825030477035259
 21
-132.4639629076446
 72
             2
 10
22.825030477035259
 20
-132.4639629076446
 40
1.0
 50
-180.0
 51
0.0
 73
             0
 97
        4
330
93
330
BB
330
94
330
BA
 75
             1
 76
             0
 52
135.0
 41
1.0
 77
             0
 78
             1
 53
135.0
 43
-45677.916586778512
 44
-64516.581546353758
 45
-0.7071067811865476
 46
-0.7071067811865475
 79
             0
 98
        1
 10
0.0
 20
0.0
  0
HATCH
  5
C5
100
AcDbEntity
  8
1
  6
CONTINUOUS
 62
             3
100
AcDbHatch
 10
0.0
 20
0.0
 30
0.0
210
0.0
220
0.0
230
1.0
  2
USER
 70
             0
 71
             1
 91
        1
 92
        1
 93
        4
 72
             1
 10
-23.824969522962562
 20
-132.4639629076446
 11
-23.824969522962562
 21
-134.4639629076446
 72
             2
 10
-22.824969522962562
 20
-134.4639629076446
 40
1.0
 50
180.0
 51
0.0
 73
             1
 72
             1
 10
-21.824969522962562
 20
-134.4639629076446
 11
-21.824969522962562
 21
-132.4639629076446
 72
             2
 10
-22.824969522962562
 20
-132.4639629076446
 40
1.0
 50
0.0
 51
180.0
 73
             1
 97
        4
330
87
330
B6
330
86
330
B7
 75
             1
 76
             0
 52
135.0
 41
1.0
 77
             0
 78
             1
 53
135.0
 43
-45677.916586778512
 44
-64516.581546353758
 45
-0.7071067811865476
 46
-0.7071067811865475
 79
             0
 98
        1
 10
0.0
 20
0.0
  0
HATCH
  5
C4
100
AcDbEntity
  8
1
  6
CONTINUOUS
 62
             3
100
AcDbHatch
 10
0.0
 20
0.0
 30
0.0
210
0.0
220
0.0
230
1.0
  2
USER
 70
             0
 71
             1
 91
        1
 92
        1
 93
        3
 72
             1
 10
3.279849477037573
 20
-65.334233907648013
 11
0.0000304770381661
 21
-90.246926907646412
 72
             1
 10
0.0000304770381661
 20
-90.246926907646412
 11
-3.2797875229645399
 21
-65.334233907648013
 72
             1
 10
-3.2797875229645399
 20
-65.334233907648013
 11
3.279849477037573
 21
-65.334233907648013
 97
        3
330
9D
330
9C
330
9E
 75
             1
 76
             0
 52
45.0
 41
5.0
 77
             0
 78
             2
 53
45.0
 43
-45677.916586778512
 44
-64516.581546353758
 45
-3.5355339059327373
 46
3.5355339059327378
 79
             0
 53
135.00000000000003
 43
-45677.916586778512
 44
-64516.581546353758
 45
-3.5355339059327364
 46
-3.5355339059327391
 79
             0
 98
        1
 10
0.0
 20
0.0
  0
ARC
  5
C3
100
AcDbEntity
  8
1
  6
CONTINUOUS
 62
             7
100
AcDbCircle
 10
31.75007548579183
 20
-47.96360390764676
 40
11.99999999999981
100
AcDbArc
 50
-0.0000434657671
 51
90.0
  0
ARC
  5
C2
100
AcDbEntity
  8
1
  6
CONTINUOUS
 62
             7
100
AcDbCircle
 10
4.7500814857793
 20
-34.96378890764754
 40
9.00000000000001
100
AcDbArc
 50
0.0
 51
90.0
  0
ARC
  5
C1
100
AcDbEntity
  8
1
  6
CONTINUOUS
 62
             7
100
AcDbCircle
 10
-4.74991551421968
 20
-34.96378890764754
 40
9.0
100
AcDbArc
 50
90.0
 51
180.0
  0
ARC
  5
C0
100
AcDbEntity
  8
1
  6
CONTINUOUS
 62
             7
100
AcDbCircle
 10
4.7500814857793
 20
-34.96378890764754
 40
5.0
100
AcDbArc
 50
0.0
 51
90.0
  0
ARC
  5
BF
100
AcDbEntity
  8
1
  6
CONTINUOUS
 62
             7
100
AcDbCircle
 10
-4.74991551421968
 20
-34.96378890764754
 40
5.0
100
AcDbArc
 50
90.0
 51
180.0
  0
ARC
  5
BE
100
AcDbEntity
  8
LC-001-002-----0
  6
CONTINUOUS
 62
             7
100
AcDbCircle
 10
-31.75013951421911
 20
-47.96378990764788
 40
12.0
100
AcDbArc
 50
90.0
 51
180.0
  0
ARC
  5
BD
100
AcDbEntity
  8
LC-002-002-RND-0
  6
CONTINUOUS
 62
             7
100
AcDbCircle
 10
25.25003047703817
 20
-152.61396290764611
 40
0.75
100
AcDbArc
 50
-90.0
 51
0.0
  0
ARC
  5
BC
100
AcDbEntity
  8
LC-002-002-RND-0
  6
CONTINUOUS
 62
             7
100
AcDbCircle
 10
25.25003047703817
 20
-152.44954490764579
 40
0.75
100
AcDbArc
 50
0.0
 51
75.96375700013918
  0
ARC
  5
BB
102
{ACAD_REACTORS
330
C6
102
}
100
AcDbEntity
  8
LC-001-002-----0
  6
CONTINUOUS
 62
             7
100
AcDbCircle
 10
22.82503047703526
 20
-134.4639629076446
 40
1.0
100
AcDbArc
 50
180.0
 51
0.0
  0
ARC
  5
BA
102
{ACAD_REACTORS
330
C6
102
}
100
AcDbEntity
  8
LC-001-002-----0
  6
CONTINUOUS
 62
             7
100
AcDbCircle
 10
22.82503047703526
 20
-132.4639629076446
 40
1.0
100
AcDbArc
 50
0.0
 51
180.0
  0
ARC
  5
B9
100
AcDbEntity
  8
LC-002-002-RND-0
  6
CONTINUOUS
 62
             7
100
AcDbCircle
 10
36.90003047703598
 20
-131.4639629076446
 40
12.99999999999708
100
AcDbArc
 50
116.99072817682243
 51
180.0
  0
ARC
  5
B8
100
AcDbEntity
  8
LC-002-002-RND-0
  6
CONTINUOUS
 62
             7
100
AcDbCircle
 10
-36.89996952296329
 20
-131.4639629076446
 40
13.0
100
AcDbArc
 50
0.0
 51
63.00927182317758
  0
ARC
  5
B7
102
{ACAD_REACTORS
330
C5
102
}
100
AcDbEntity
  8
LC-001-002-----0
  6
CONTINUOUS
 62
             7
100
AcDbCircle
 10
-22.82496952296256
 20
-132.4639629076446
 40
1.0
100
AcDbArc
 50
0.0
 51
180.0
  0
ARC
  5
B6
102
{ACAD_REACTORS
330
C5
102
}
100
AcDbEntity
  8
LC-001-002-----0
  6
CONTINUOUS
 62
             7
100
AcDbCircle
 10
-22.82496952296256
 20
-134.4639629076446
 40
1.0
100
AcDbArc
 50
180.0
 51
0.0
  0
ARC
  5
B5
100
AcDbEntity
  8
LC-002-002-RND-0
  6
CONTINUOUS
 62
             7
100
AcDbCircle
 10
-25.24996952296183
 20
-152.44954490764579
 40
0.74999999999902
100
AcDbArc
 50
104.03624300013071
 51
180.0
  0
ARC
  5
B4
100
AcDbEntity
  8
LC-002-002-RND-0
  6
CONTINUOUS
 62
             7
100
AcDbCircle
 10
-25.24996952296183
 20
-152.61396290764611
 40
0.75
100
AcDbArc
 50
180.0
 51
-90.0
  0
LINE
  5
B3
100
AcDbEntity
  8
1
  6
CONTINUOUS
 62
             7
100
AcDbLine
 10
9.7500814857793
 20
-35.96378990764788
 11
13.75008148577931
 21
-35.96360390764676
  0
LINE
  5
B2
100
AcDbEntity
  8
1
  6
CONTINUOUS
 62
             7
100
AcDbLine
 10
-9.74991551421968
 20
-35.96378990764788
 11
9.7500814857793
 21
-35.96360390764676
  0
LINE
  5
B1
100
AcDbEntity
  8
1
  6
CONTINUOUS
 62
             7
100
AcDbLine
 10
-13.74991551421968
 20
-35.96378990764788
 11
-9.74991551421968
 21
-35.96378990764788
  0
LINE
  5
B0
100
AcDbEntity
  8
1
  6
CONTINUOUS
 62
             7
100
AcDbLine
 10
13.75008148577931
 20
-35.96360390764676
 11
31.75007548579183
 21
-35.96360390764676
  0
LINE
  5
AF
100
AcDbEntity
  8
1
  6
CONTINUOUS
 62
             7
100
AcDbLine
 10
13.75008148577931
 20
-34.96378890764754
 11
13.75008148577931
 21
-35.96360390764676
  0
LINE
  5
AE
100
AcDbEntity
  8
LC-001-002-----0
  6
CONTINUOUS
 62
             7
100
AcDbLine
 10
9.7500814857793
 20
-35.96360390764676
 11
9.7500814857793
 21
-35.96378990764788
  0
LINE
  5
AD
100
AcDbEntity
  8
LC-001-002-----0
  6
CONTINUOUS
 62
             7
100
AcDbLine
 10
-41.75013951421911
 20
-108.46378990764789
 11
41.7498644857786
 21
-108.46378990764789
  0
LINE
  5
AC
100
AcDbEntity
  8
LC-001-002-----0
  6
CONTINUOUS
 62
             7
100
AcDbLine
 10
-31.75013951421911
 20
-35.96378990764788
 11
-13.74991551421968
 21
-35.96378990764788
  0
LINE
  5
AB
100
AcDbEntity
  8
LC-001-002-----0
  6
CONTINUOUS
 62
             7
100
AcDbLine
 10
-43.75013951421911
 20
-47.96378990764788
 11
-43.75013951421911
 21
-106.46378990764789
  0
LINE
  5
AA
100
AcDbEntity
  8
LC-001-002-----0
  6
CONTINUOUS
 62
             7
100
AcDbLine
 10
-13.74991551421968
 20
-34.96378890764754
 11
-13.74991551421968
 21
-35.96378990764788
  0
LINE
  5
A9
100
AcDbEntity
  8
LC-001-002-----0
  6
CONTINUOUS
 62
             7
100
AcDbLine
 10
-9.74991551421968
 20
-34.96378890764754
 11
-9.74991551421968
 21
-35.96378990764788
  0
LINE
  5
A8
100
AcDbEntity
  8
LC-001-002-----0
  6
CONTINUOUS
 62
             7
100
AcDbLine
 10
9.7500814857793
 20
-34.96378890764754
 11
9.7500814857793
 21
-35.96360390764676
  0
LINE
  5
A7
100
AcDbEntity
  8
LC-001-002-----0
  6
CONTINUOUS
 62
             7
100
AcDbLine
 10
9.7500814857793
 20
-35.9637879076472
 11
9.7500814857793
 21
-35.96360390764676
  0
LINE
  5
A6
100
AcDbEntity
  8
LC-001-002-----0
  6
CONTINUOUS
 62
             7
100
AcDbLine
 10
43.75007548578819
 20
-47.96361301109573
 11
43.75003148578057
 21
-106.46362290764959
  0
LINE
  5
A5
100
AcDbEntity
  8
LC-001-002-----0
  6
CONTINUOUS
 62
             7
100
AcDbLine
 10
-41.75013951421911
 20
-108.46378990764789
 11
-43.75013951421911
 21
-106.46378990764789
  0
LINE
  5
A4
100
AcDbEntity
  8
LC-001-002-----0
  6
CONTINUOUS
 62
             7
100
AcDbLine
 10
41.7498644857786
 20
-108.46378990764789
 11
43.75003148578057
 21
-106.46362290764959
  0
LINE
  5
A3
100
AcDbEntity
  8
LC-001-002-----0
  6
CONTINUOUS
 62
             7
100
AcDbLine
 10
-4.74991551421968
 20
-29.96378890764754
 11
4.7500814857793
 21
-29.96378890764754
  0
LINE
  5
A2
100
AcDbEntity
  8
LC-001-002-----0
  6
CONTINUOUS
 62
             7
100
AcDbLine
 10
-4.74991551421968
 20
-25.96378890764754
 11
4.7500814857793
 21
-25.96378890764754
  0
LINE
  5
A1
100
AcDbEntity
  8
1
  6
CONTINUOUS
 62
             7
100
AcDbLine
 10
-43.75013951421911
 20
-106.46378990764789
 11
43.75003148565324
 21
-106.46378990764789
  0
LINE
  5
A0
100
AcDbEntity
  8
1
  6
PHANTOM
 62
             2
100
AcDbLine
 10
-0.00002036056517
 20
-16.95648741352488
 11
-0.00007306635067
 21
-157.10596589883789
  0
LINE
  5
9F
100
AcDbEntity
  8
LC-001-002-----0
  6
CONTINUOUS
 62
             7
100
AcDbLine
 10
31.00002847697928
 20
-119.8799231805351
 11
31.0000359122549
 21
-108.46378990764789
  0
LINE
  5
9E
102
{ACAD_REACTORS
330
C4
102
}
100
AcDbEntity
  8
LC-001-002-----0
  6
CONTINUOUS
 62
             7
100
AcDbLine
 10
-3.27978752296454
 20
-65.33423390764801
 11
3.27984947703757
 21
-65.33423390764801
  0
LINE
  5
9D
102
{ACAD_REACTORS
330
C4
102
}
100
AcDbEntity
  8
LC-001-002-----0
  6
CONTINUOUS
 62
             7
100
AcDbLine
 10
0.00003047703817
 20
-90.24692690764641
 11
3.27984947703757
 21
-65.33423390764801
  0
LINE
  5
9C
102
{ACAD_REACTORS
330
C4
102
}
100
AcDbEntity
  8
LC-001-002-----0
  6
CONTINUOUS
 62
             7
100
AcDbLine
 10
0.00003047703817
 20
-90.24692690764641
 11
-3.27978752296454
 21
-65.33423390764801
  0
LINE
  5
9B
100
AcDbEntity
  8
LC-001-002-----0
  6
CONTINUOUS
 62
             7
100
AcDbLine
 10
0.00003047703817
 20
-53.31062890764588
 11
0.00003047703817
 21
-65.33423390764801
  0
LINE
  5
9A
100
AcDbEntity
  8
LC-001-002-----0
  6
CONTINUOUS
 62
             7
100
AcDbLine
 10
26.00003047703817
 20
-152.44954490764579
 11
26.00003047703817
 21
-152.61396290764611
  0
LINE
  5
99
100
AcDbEntity
  8
LC-001-002-----0
  6
CONTINUOUS
 62
             7
100
AcDbLine
 10
22.00003047703817
 20
-147.4639629076446
 11
22.00003047703817
 21
-150.86396290764611
  0
LINE
  5
98
100
AcDbEntity
  8
LC-001-002-----0
  6
CONTINUOUS
 62
             7
100
AcDbLine
 10
23.90003047703598
 20
-147.4639629076446
 11
22.00003047703817
 21
-147.4639629076446
  0
LINE
  5
97
100
AcDbEntity
  8
LC-001-002-----0
  6
CONTINUOUS
 62
             7
100
AcDbLine
 10
23.90003047703598
 20
-145.4639629076446
 11
23.90003047703598
 21
-147.4639629076446
  0
LINE
  5
96
100
AcDbEntity
  8
LC-001-002-----0
  6
CONTINUOUS
 62
             7
100
AcDbLine
 10
23.90003047703598
 20
-145.4639629076446
 11
-21.74996952296183
 21
-145.4639629076446
  0
LINE
  5
95
100
AcDbEntity
  8
LC-001-002-----0
  6
CONTINUOUS
 62
             7
100
AcDbLine
 10
21.75003047703817
 20
-138.4639629076446
 11
21.75003047703817
 21
-145.4639629076446
  0
LINE
  5
94
102
{ACAD_REACTORS
330
C6
102
}
100
AcDbEntity
  8
LC-001-002-----0
  6
CONTINUOUS
 62
             7
100
AcDbLine
 10
21.82503047703526
 20
-132.4639629076446
 11
21.82503047703526
 21
-134.4639629076446
  0
LINE
  5
93
102
{ACAD_REACTORS
330
C6
102
}
100
AcDbEntity
  8
LC-001-002-----0
  6
CONTINUOUS
 62
             7
100
AcDbLine
 10
23.82503047703526
 20
-132.4639629076446
 11
23.82503047703526
 21
-134.4639629076446
  0
LINE
  5
92
100
AcDbEntity
  8
LC-001-002-----0
  6
CONTINUOUS
 62
             7
100
AcDbLine
 10
23.90003047703598
 20
-138.4639629076446
 11
21.75003047703817
 21
-138.4639629076446
  0
LINE
  5
91
100
AcDbEntity
  8
LC-001-002-----0
  6
CONTINUOUS
 62
             7
100
AcDbLine
 10
23.90003047703598
 20
-138.4639629076446
 11
23.90003047703598
 21
-135.4639629076446
  0
LINE
  5
90
100
AcDbEntity
  8
LC-001-002-----0
  6
CONTINUOUS
 62
             7
100
AcDbLine
 10
23.90003047703598
 20
-135.4639629076446
 11
21.75003047703817
 21
-135.4639629076446
  0
LINE
  5
8F
100
AcDbEntity
  8
LC-001-002-----0
  6
CONTINUOUS
 62
             7
100
AcDbLine
 10
23.90003047703598
 20
-131.4639629076446
 11
21.75003047703817
 21
-131.4639629076446
  0
LINE
  5
8E
100
AcDbEntity
  8
1
  6
CONTINUOUS
 62
             7
100
AcDbLine
 10
22.00003047703817
 20
-150.86396290764611
 11
25.43193218987094
 21
-151.72193803105259
  0
LINE
  5
8D
100
AcDbEntity
  8
1
  6
CONTINUOUS
 62
             7
100
AcDbLine
 10
-25.43187123579824
 20
-151.72193803105259
 11
-21.99996952296183
 21
-150.86396290764611
  0
LINE
  5
8C
100
AcDbEntity
  8
LC-001-002-----0
  6
CONTINUOUS
 62
             7
100
AcDbLine
 10
-21.74996952296183
 20
-131.4639629076446
 11
-23.89996952296329
 21
-131.4639629076446
  0
LINE
  5
8B
100
AcDbEntity
  8
LC-001-002-----0
  6
CONTINUOUS
 62
             7
100
AcDbLine
 10
-21.74996952296183
 20
-135.4639629076446
 11
-21.74996952296183
 21
-131.4639629076446
  0
LINE
  5
8A
100
AcDbEntity
  8
LC-001-002-----0
  6
CONTINUOUS
 62
             7
100
AcDbLine
 10
-21.74996952296183
 20
-135.4639629076446
 11
-23.89996952296329
 21
-135.4639629076446
  0
LINE
  5
89
100
AcDbEntity
  8
LC-001-002-----0
  6
CONTINUOUS
 62
             7
100
AcDbLine
 10
-23.89996952296329
 20
-135.4639629076446
 11
-23.89996952296329
 21
-138.4639629076446
  0
LINE
  5
88
100
AcDbEntity
  8
LC-001-002-----0
  6
CONTINUOUS
 62
             7
100
AcDbLine
 10
-21.74996952296183
 20
-138.4639629076446
 11
-23.89996952296329
 21
-138.4639629076446
  0
LINE
  5
87
102
{ACAD_REACTORS
330
C5
102
}
100
AcDbEntity
  8
LC-001-002-----0
  6
CONTINUOUS
 62
             7
100
AcDbLine
 10
-23.82496952296256
 20
-134.4639629076446
 11
-23.82496952296256
 21
-132.4639629076446
  0
LINE
  5
86
102
{ACAD_REACTORS
330
C5
102
}
100
AcDbEntity
  8
LC-001-002-----0
  6
CONTINUOUS
 62
             7
100
AcDbLine
 10
-21.82496952296256
 20
-134.4639629076446
 11
-21.82496952296256
 21
-132.4639629076446
  0
LINE
  5
85
100
AcDbEntity
  8
LC-001-002-----0
  6
CONTINUOUS
 62
             7
100
AcDbLine
 10
-21.74996952296183
 20
-145.4639629076446
 11
-21.74996952296183
 21
-138.4639629076446
  0
LINE
  5
84
100
AcDbEntity
  8
LC-001-002-----0
  6
CONTINUOUS
 62
             7
100
AcDbLine
 10
-21.74996952296183
 20
-145.4639629076446
 11
-23.89996952296329
 21
-145.4639629076446
  0
LINE
  5
83
100
AcDbEntity
  8
LC-001-002-----0
  6
CONTINUOUS
 62
             7
100
AcDbLine
 10
-23.89996952296329
 20
-147.4639629076446
 11
-23.89996952296329
 21
-145.4639629076446
  0
LINE
  5
82
100
AcDbEntity
  8
LC-001-002-----0
  6
CONTINUOUS
 62
             7
100
AcDbLine
 10
22.00003047703817
 20
-147.4639629076446
 11
-23.89996952296329
 21
-147.4639629076446
  0
LINE
  5
81
100
AcDbEntity
  8
LC-001-002-----0
  6
CONTINUOUS
 62
             7
100
AcDbLine
 10
-21.99996952296183
 20
-150.86396290764611
 11
-21.99996952296183
 21
-147.4639629076446
  0
LINE
  5
80
100
AcDbEntity
  8
LC-001-002-----0
  6
CONTINUOUS
 62
             7
100
AcDbLine
 10
25.25003047703817
 20
-153.36396290764611
 11
-25.24996952296183
 21
-153.36396290764611
  0
LINE
  5
7F
100
AcDbEntity
  8
LC-001-002-----0
  6
CONTINUOUS
 62
             7
100
AcDbLine
 10
-25.99996952296183
 20
-152.61396290764611
 11
-25.99996952296183
 21
-152.44954490764579
  0
LINE
  5
7E
100
AcDbEntity
  8
LC-001-002-----0
  6
CONTINUOUS
 62
             7
100
AcDbLine
 10
-30.99997495818585
 20
-108.46378990764789
 11
-30.99996752290659
 21
-119.8799231805351
  0
LINE
  5
7D
100
AcDbEntity
  8
1
  6
CONTINUOUS
 62
             7
100
AcDbLine
 10
-30.99996752290659
 20
-119.8799231805351
 11
31.00002847697928
 21
-119.8799231805351
  0
LINE
  5
7C
100
AcDbEntity
  8
LC-001-002-----0
  6
CONTINUOUS
 62
             7
100
AcDbLine
 10
21.75003047703817
 20
-131.4639629076446
 11
21.75003047703817
 21
-135.4639629076446
  0
LINE
  5
7B
100
AcDbEntity
  8
1
  6
CONTINUOUS
 62
             7
100
AcDbLine
 10
-21.99996952296183
 20
-150.86396290764611
 11
22.00003047703817
 21
-150.86396290764611
  0
LINE
  5
7A
100
AcDbEntity
  8
1
  6
CONTINUOUS
 62
             7
100
AcDbLine
 10
21.75003047703817
 20
-138.4639629076446
 11
-21.74996952296183
 21
-138.4639629076446
  0
LINE
  5
79
100
AcDbEntity
  8
1
  6
CONTINUOUS
 62
             7
100
AcDbLine
 10
-21.74996952296183
 20
-135.4639629076446
 11
21.75003047703817
 21
-135.4639629076446
  0
LINE
  5
78
100
AcDbEntity
  8
1
  6
CONTINUOUS
 62
             7
100
AcDbLine
 10
21.75003047703817
 20
-131.4639629076446
 11
-21.74996952296183
 21
-131.4639629076446
  0
ENDBLK
  5
C7
100
AcDbEntity
  8
0
100
AcDbBlockEnd
  0
BLOCK
  5
CA
100
AcDbEntity
  8
0
100
AcDbBlockBegin
  2
*D2
 70
             1
 10
0.0
 20
0.0
 30
0.0
  3
*D2
  1

  0
LINE
  5
CB
100
AcDbEntity
  8
0
  6
CONTINUOUS
 62
             4
100
AcDbLine
 10
-37.50012828482628
 20
-414.9551201377638
 11
37.4999947151107
 21
-414.95514473598274
  0
LINE
  5
CC
100
AcDbEntity
  8
0
  6
CONTINUOUS
 62
             4
100
AcDbLine
 10
37.50000199999976
 20
-392.74347249088703
 11
37.49999405915926
 21
-416.95514473598263
  0
LINE
  5
CD
100
AcDbEntity
  8
0
  6
CONTINUOUS
 62
             4
100
AcDbLine
 10
-37.50012100000005
 20
-392.74363949088701
 11
-37.50012894077771
 21
-416.95512013776369
  0
SOLID
  5
CE
100
AcDbEntity
  8
0
 62
             4
100
AcDbTrace
 10
27.499994283323
 20
-416.27166643209938
 11
27.49999514689947
 21
-413.63861648035157
 12
37.4999947151107
 22
-414.95514473598274
 13
37.4999947151107
 23
-414.95514473598274
  0
SOLID
  5
CF
100
AcDbEntity
  8
0
 62
             4
100
AcDbTrace
 10
-27.50012785303858
 20
-413.63859844164716
 11
-27.50012871661505
 21
-416.27164839339497
 12
-37.50012828482628
 22
-414.9551201377638
 13
-37.50012828482628
 23
-414.9551201377638
  0
MTEXT
  5
D1
100
AcDbEntity
  8
0
 62
             1
100
AcDbMText
 10
-15.82452857941168
 20
-412.95517238035762
 30
0.0
 40
10.0
 41
0.0
 71
             7
 72
             1
  1
\C1;DN\C1;75
  7
CONVERTER_1
 11
0.99999999999706
 21
0.00000242406841
 31
0.0
  0
ENDBLK
  5
D2
100
AcDbEntity
  8
0
100
AcDbBlockEnd
  0
BLOCK
  5
D6
100
AcDbEntity
  8
0
100
AcDbBlockBegin
  2
*D3
 70
             1
 10
0.0
 20
0.0
 30
0.0
  3
*D3
  1

  0
LINE
  5
D7
100
AcDbEntity
  8
0
  6
CONTINUOUS
 62
             4
100
AcDbLine
 10
-79.9330874245839
 20
-441.15165811174199
 11
79.9329855754159
 21
-441.15165811174199
  0
LINE
  5
D8
100
AcDbEntity
  8
0
  6
CONTINUOUS
 62
             4
100
AcDbLine
 10
79.9329855754159
 20
-325.79260649107607
 11
79.9329855754159
 21
-443.15165811174199
  0
LINE
  5
D9
100
AcDbEntity
  8
0
  6
CONTINUOUS
 62
             4
100
AcDbLine
 10
-79.9330874245839
 20
-325.7891494910761
 11
-79.9330874245839
 21
-443.15165811174199
  0
SOLID
  5
DA
100
AcDbEntity
  8
0
 62
             4
100
AcDbTrace
 10
69.9329855754159
 20
-442.46818308761596
 11
69.9329855754159
 21
-439.83513313586803
 12
79.9329855754159
 22
-441.15165811174199
 13
79.9329855754159
 23
-441.15165811174199
  0
SOLID
  5
DB
100
AcDbEntity
  8
0
 62
             4
100
AcDbTrace
 10
-69.9330874245839
 20
-439.83513313586803
 11
-69.9330874245839
 21
-442.46818308761596
 12
-79.9330874245839
 22
-441.15165811174199
 13
-79.9330874245839
 23
-441.15165811174199
  0
MTEXT
  5
DC
100
AcDbEntity
  8
0
 62
             1
100
AcDbMText
 10
-16.95130073389949
 20
-439.15167798910289
 30
0.0
 40
10.0
 41
0.0
 71
             7
 72
             1
  1
\C1;Ø\C1;160
  7
CONVERTER_1
 11
0.99999999999706
 21
0.00000242406841
 31
0.0
  0
ENDBLK
  5
DD
100
AcDbEntity
  8
0
100
AcDbBlockEnd
  0
BLOCK
  5
E1
100
AcDbEntity
  8
0
100
AcDbBlockBegin
  2
*D4
 70
             1
 10
0.0
 20
0.0
 30
0.0
  3
*D4
  1

  0
LINE
  5
E2
100
AcDbEntity
  8
0
  6
CONTINUOUS
 62
             4
100
AcDbLine
 10
-150.15432042967831
 20
-203.96820784715754
 11
150.14652757031661
 21
-203.96816884369363
  0
LINE
  5
E3
100
AcDbEntity
  8
0
  6
CONTINUOUS
 62
             4
100
AcDbLine
 10
150.1465305754158
 20
-227.10544349107619
 11
150.14652731055401
 21
-201.96816884369366
  0
LINE
  5
E4
100
AcDbEntity
  8
0
  6
CONTINUOUS
 62
             4
100
AcDbLine
 10
-150.15431742458409
 20
-227.10544349107619
 11
-150.15432068944091
 21
-201.96820784715757
  0
SOLID
  5
E5
100
AcDbEntity
  8
0
 62
             4
100
AcDbTrace
 10
140.14652774130866
 20
-205.28469511838057
 11
140.14652739932473
 21
-202.65164516663268
 12
150.14652757031661
 22
-203.96816884369363
 13
150.14652757031661
 23
-203.96816884369363
  0
SOLID
  5
E6
100
AcDbEntity
  8
0
 62
             4
100
AcDbTrace
 10
-140.15432060067036
 20
-202.65168157247058
 11
-140.15432025868643
 21
-205.2847315242185
 12
-150.15432042967831
 22
-203.96820784715754
 13
-150.15432042967831
 23
-203.96820784715754
  0
MTEXT
  5
E7
100
AcDbEntity
  8
0
 62
             1
100
AcDbMText
 10
-43.46749666809607
 20
-201.96821280286866
 30
0.0
 40
10.0
 41
0.0
 71
             7
 72
             1
  1
\C1;Ø\C1;300
  7
CONVERTER_1
 11
0.99999999999706
 21
0.00000242406841
 31
0.0
  0
ENDBLK
  5
E8
100
AcDbEntity
  8
0
100
AcDbBlockEnd
  0
BLOCK
  5
EC
100
AcDbEntity
  8
0
100
AcDbBlockBegin
  2
*D5
 70
             1
 10
0.0
 20
0.0
 30
0.0
  3
*D5
  1

  0
LINE
  5
ED
100
AcDbEntity
  8
0
  6
CONTINUOUS
 62
             4
100
AcDbLine
 10
-250.0010509124678
 20
-186.54216373212347
 11
249.99894908578099
 21
-186.54209879147447
  0
LINE
  5
EE
100
AcDbEntity
  8
0
  6
CONTINUOUS
 62
             4
100
AcDbLine
 10
249.99895357541578
 20
-221.10931449107619
 11
249.99894882601839
 21
-184.5420987914745
  0
LINE
  5
EF
100
AcDbEntity
  8
0
  6
CONTINUOUS
 62
             4
100
AcDbLine
 10
-250.00104642258128
 20
-221.11131692091948
 11
-250.0010511722304
 21
-184.5421637321235
  0
SOLID
  5
F0
100
AcDbEntity
  8
0
 62
             4
100
AcDbTrace
 10
239.99894925677305
 20
-187.85862506616141
 11
239.99894891478911
 21
-185.22557511441352
 12
249.99894908578099
 22
-186.54209879147447
 13
249.99894908578099
 23
-186.54209879147447
  0
SOLID
  5
F1
100
AcDbEntity
  8
0
 62
             4
100
AcDbTrace
 10
-240.00105108345986
 20
-185.22563745743651
 11
-240.00105074147592
 21
-187.85868740918443
 12
-250.0010509124678
 22
-186.54216373212347
 13
-250.0010509124678
 23
-186.54216373212347
  0
MTEXT
  5
F2
100
AcDbEntity
  8
0
 62
             1
100
AcDbMText
 10
12.47934150727244
 20
-184.54214845316366
 30
0.0
 40
10.0
 41
0.0
 71
             7
 72
             1
  1
\C1;Ø\C1;500
  7
CONVERTER_1
 11
0.99999999999706
 21
0.00000242406841
 31
0.0
  0
ENDBLK
  5
F3
100
AcDbEntity
  8
0
100
AcDbBlockEnd
  0
BLOCK
  5
F7
100
AcDbEntity
  8
0
100
AcDbBlockBegin
  2
*D6
 70
             1
 10
0.0
 20
0.0
 30
0.0
  3
*D6
  1

  0
LINE
  5
F8
100
AcDbEntity
  8
0
  6
CONTINUOUS
 62
             4
100
AcDbLine
 10
266.48051555020697
 20
-337.74364295135803
 11
266.48051555020697
 21
-221.10931449107619
  0
LINE
  5
F9
100
AcDbEntity
  8
0
  6
CONTINUOUS
 62
             4
100
AcDbLine
 10
249.99895357541581
 20
-221.10931449107619
 11
268.48051555020697
 21
-221.10931449107619
  0
LINE
  5
FA
100
AcDbEntity
  8
0
  6
CONTINUOUS
 62
             4
100
AcDbLine
 10
57.49938757541597
 20
-337.74364295135803
 11
268.48051555020697
 21
-337.74364295135803
  0
SOLID
  5
FB
100
AcDbEntity
  8
0
 62
             4
100
AcDbTrace
 10
265.16399057433301
 20
-327.74364295135803
 11
267.79704052608093
 21
-327.74364295135803
 12
266.48051555020697
 22
-337.74364295135803
 13
266.48051555020697
 23
-337.74364295135803
  0
SOLID
  5
FC
100
AcDbEntity
  8
0
 62
             4
100
AcDbTrace
 10
267.79704052608093
 20
-231.10931449107619
 11
265.16399057433301
 21
-231.10931449107619
 12
266.48051555020697
 22
-221.10931449107619
 13
266.48051555020697
 23
-221.10931449107619
  0
MTEXT
  5
FD
100
AcDbEntity
  8
0
 62
             1
100
AcDbMText
 10
264.48051555020697
 20
-287.32069395855751
 30
0.0
 40
10.0
 41
0.0
 71
             7
 72
             1
  1
117
  7
CONVERTER_1
 11
0.0
 21
1.0
 31
0.0
  0
ENDBLK
  5
FE
100
AcDbEntity
  8
0
100
AcDbBlockEnd
  0
ENDSEC
  0
SECTION
  2
ENTITIES
  0
DIMENSION
  5
100
100
AcDbEntity
  8
1
100
AcDbDimension
  2
*D6
 10
266.48051555020697
 20
-337.74364295135803
 11
259.48051555020697
 21
-278.32069395855751
 31
0.0
 53
89.99999999999999
  1
<>
  3
ME10_DIM_4
100
AcDbAlignedDimension
 13
249.99895357541581
 23
-221.10931449107619
 14
57.499387575416
 24
-337.74364295135803
 50
89.99999999999999
100
AcDbRotatedDimension
  0
DIMENSION
  5
F5
100
AcDbEntity
  8
1
100
AcDbDimension
  2
*D5
 10
249.99894908578099
 20
-186.54209879147447
 11
26.6793408578418
 21
-179.54212779651499
 31
0.0
 53
0.00013888888889
  1
<>
  3
ME10_DIM_3
100
AcDbAlignedDimension
 13
-250.00104642258131
 23
-221.11131692091951
 14
249.99895357541581
 24
-221.10931449107619
 50
0.00000744165021
100
AcDbRotatedDimension
  0
DIMENSION
  5
EA
100
AcDbEntity
  8
1
100
AcDbDimension
  2
*D4
 10
150.14652757031661
 20
-203.96816884369363
 11
-29.2674973175267
 21
-196.96819214621999
 31
0.0
 53
0.00013888888889
  1
<>
  3
ME10_DIM_2
100
AcDbAlignedDimension
 13
-150.15431742458409
 23
-227.10544349107619
 14
150.1465305754158
 24
-227.10544349107619
 50
0.00000744165021
100
AcDbRotatedDimension
  0
DIMENSION
  5
DF
100
AcDbEntity
  8
1
100
AcDbDimension
  2
*D3
 10
79.9329855754159
 20
-441.15165811174199
 11
-4.25130073392359
 21
-434.15165811174199
 31
0.0
 53
180.0
  1
<>
  3
ME10_DIM_1
100
AcDbAlignedDimension
 13
-79.9330874245839
 23
-325.7891494910761
 14
79.9329855754159
 24
-325.79260649107613
 50
180.0
100
AcDbRotatedDimension
  0
DIMENSION
  5
D4
100
AcDbEntity
  8
1
100
AcDbDimension
  2
*D2
 10
37.4999947151107
 20
-414.95514473598274
 11
-2.92452693958111
 21
-407.95513147772101
 31
0.0
 53
359.99998120837586
  1
<>
  3
ME10_DIM_0
100
AcDbAlignedDimension
 13
-37.50012100000004
 23
-392.74363949088701
 14
37.50000199999977
 24
-392.74347249088697
 50
359.99998120837586
100
AcDbRotatedDimension
  0
INSERT
  5
32
100
AcDbEntity
  8
0
100
AcDbBlockReference
  2
HL317KHN_K_RPER
 10
235.71725050498799
 20
-383.534829702011
  0
INSERT
  5
33
100
AcDbEntity
  8
1
100
AcDbBlockReference
  2
0317_3E_GLOCKE
 10
1654.873738435324
 20
361.42612967596511
  0
ENDSEC
  0
SECTION
  2
OBJECTS
  0
DICTIONARY
  5
19
100
AcDbDictionary
  3
ACAD_GROUP
350
1A
  3
ACAD_MLINESTYLE
350
1B
  0
DICTIONARY
  5
1A
102
{ACAD_REACTORS
330
19
102
}
100
AcDbDictionary
  0
DICTIONARY
  5
1B
102
{ACAD_REACTORS
330
19
102
}
100
AcDbDictionary
  3
STANDARD
350
1C
  0
MLINESTYLE
  5
1C
102
{ACAD_REACTORS
330
1B
102
}
100
AcDbMlineStyle
  2
STANDARD
 70
             0
  3

 62
             0
 51
90.0
 52
90.0
 71
             2
 49
0.5
 62
           256
  6
BYLAYER
 49
-0.5
 62
           256
  6
BYLAYER
  0
ENDSEC
  0
EOF
