  0
SECTION
  2
HEADER
  9
$ACADVER
  1
AC1014
  9
$ACADMAINTVER
 70
             0
  9
$DWGCODEPAGE
  3
ANSI_1252
  9
$INSBASE
 10
0.0
 20
0.0
 30
0.0
  9
$EXTMIN
 10
1.00000000000000E+20
 20
1.00000000000000E+20
 30
1.00000000000000E+20
  9
$EXTMAX
 10
-1.00000000000000E+20
 20
-1.00000000000000E+20
 30
-1.00000000000000E+20
  9
$LIMMIN
 10
0.0
 20
0.0
  9
$LIMMAX
 10
0.0
 20
0.0
  9
$ORTHOMODE
 70
             0
  9
$REGENMODE
 70
             1
  9
$FILLMODE
 70
             1
  9
$QTEXTMODE
 70
             0
  9
$MIRRTEXT
 70
             1
  9
$DRAGMODE
 70
             2
  9
$LTSCALE
 40
1.0
  9
$OSMODE
 70
             0
  9
$ATTMODE
 70
             1
  9
$TEXTSIZE
 40
0.2
  9
$TRACEWID
 40
0.05
  9
$TEXTSTYLE
  7
STANDARD
  9
$CLAYER
  8
0
  9
$CELTYPE
  6
CONTINUOUS
  9
$CECOLOR
 62
           256
  9
$CELTSCALE
 40
1.0
  9
$DELOBJ
 70
             1
  9
$DISPSILH
 70
             0
  9
$DIMSCALE
 40
1.0
  9
$DIMASZ
 40
0.18
  9
$DIMEXO
 40
0.0625
  9
$DIMDLI
 40
0.38
  9
$DIMRND
 40
0.0
  9
$DIMDLE
 40
0.0
  9
$DIMEXE
 40
0.18
  9
$DIMTP
 40
0.0
  9
$DIMTM
 40
0.0
  9
$DIMTXT
 40
0.18
  9
$DIMCEN
 40
0.09
  9
$DIMTSZ
 40
0.0
  9
$DIMTOL
 70
             0
  9
$DIMLIM
 70
             0
  9
$DIMTIH
 70
             1
  9
$DIMTOH
 70
             1
  9
$DIMSE1
 70
             0
  9
$DIMSE2
 70
             0
  9
$DIMTAD
 70
             0
  9
$DIMZIN
 70
             0
  9
$DIMBLK
  1

  9
$DIMASO
 70
             1
  9
$DIMSHO
 70
             1
  9
$DIMPOST
  1

  9
$DIMAPOST
  1

  9
$DIMALT
 70
             0
  9
$DIMALTD
 70
             2
  9
$DIMALTF
 40
25.4
  9
$DIMLFAC
 40
1.0
  9
$DIMTOFL
 70
             0
  9
$DIMTVP
 40
0.0
  9
$DIMTIX
 70
             0
  9
$DIMSOXD
 70
             0
  9
$DIMSAH
 70
             0
  9
$DIMBLK1
  1

  9
$DIMBLK2
  1

  9
$DIMSTYLE
  2
STANDARD
  9
$DIMCLRD
 70
             0
  9
$DIMCLRE
 70
             0
  9
$DIMCLRT
 70
             0
  9
$DIMTFAC
 40
1.0
  9
$DIMGAP
 40
0.09
  9
$DIMJUST
 70
             0
  9
$DIMSD1
 70
             0
  9
$DIMSD2
 70
             0
  9
$DIMTOLJ
 70
             1
  9
$DIMTZIN
 70
             0
  9
$DIMALTZ
 70
             0
  9
$DIMALTTZ
 70
             0
  9
$DIMFIT
 70
             3
  9
$DIMUPT
 70
             0
  9
$DIMUNIT
 70
             2
  9
$DIMDEC
 70
             4
  9
$DIMTDEC
 70
             4
  9
$DIMALTU
 70
             2
  9
$DIMALTTD
 70
             2
  9
$DIMTXSTY
  7
STANDARD
  9
$DIMAUNIT
 70
             0
  9
$LUNITS
 70
             2
  9
$LUPREC
 70
             4
  9
$SKETCHINC
 40
0.1
  9
$FILLETRAD
 40
0.0
  9
$AUNITS
 70
             0
  9
$AUPREC
 70
             0
  9
$MENU
  1
acad
  9
$ELEVATION
 40
0.0
  9
$PELEVATION
 40
0.0
  9
$THICKNESS
 40
0.0
  9
$LIMCHECK
 70
             0
  9
$BLIPMODE
 70
             1
  9
$CHAMFERA
 40
0.0
  9
$CHAMFERB
 40
0.0
  9
$CHAMFERC
 40
0.0
  9
$CHAMFERD
 40
0.0
  9
$SKPOLY
 70
             0
  9
$TDCREATE
 40
0.000000000
  9
$TDUPDATE
 40
0.000000000
  9
$TDINDWG
 40
0.0000000000
  9
$TDUSRTIMER
 40
0.0000000000
  9
$USRTIMER
 70
             1
  9
$ANGBASE
 50
0.0
  9
$ANGDIR
 70
             0
  9
$PDMODE
 70
             0
  9
$PDSIZE
 40
0.0
  9
$PLINEWID
 40
0.0
  9
$COORDS
 70
             0
  9
$SPLFRAME
 70
             0
  9
$SPLINETYPE
 70
             6
  9
$SPLINESEGS
 70
             8
  9
$ATTDIA
 70
             0
  9
$ATTREQ
 70
             1
  9
$HANDLING
 70
             1
  9
$HANDSEED
  5
EA
  9
$SURFTAB1
 70
             6
  9
$SURFTAB2
 70
             6
  9
$SURFTYPE
 70
             6
  9
$SURFU
 70
             6
  9
$SURFV
 70
             6
  9
$UCSNAME
  2

  9
$UCSORG
 10
0.0
 20
0.0
 30
0.0
  9
$UCSXDIR
 10
1.0
 20
0.0
 30
0.0
  9
$UCSYDIR
 10
0.0
 20
1.0
 30
0.0
  9
$PUCSNAME
  2

  9
$PUCSORG
 10
0.0
 20
0.0
 30
0.0
  9
$PUCSXDIR
 10
1.0
 20
0.0
 30
0.0
  9
$PUCSYDIR
 10
0.0
 20
1.0
 30
0.0
  9
$USERI1
 70
             0
  9
$USERI2
 70
             0
  9
$USERI3
 70
             0
  9
$USERI4
 70
             0
  9
$USERI5
 70
             0
  9
$USERR1
 40
11.6
  9
$USERR2
 40
0.0
  9
$USERR3
 40
0.0
  9
$USERR4
 40
0.0
  9
$USERR5
 40
0.0
  9
$WORLDVIEW
 70
             1
  9
$SHADEDGE
 70
             3
  9
$SHADEDIF
 70
            70
  9
$TILEMODE
 70
             1
  9
$MAXACTVP
 70
            16
  9
$PINSBASE
 10
0.0
 20
0.0
 30
0.0
  9
$PLIMCHECK
 70
             0
  9
$PEXTMIN
 10
1.00000000000000E+20
 20
1.00000000000000E+20
 30
1.00000000000000E+20
  9
$PEXTMAX
 10
-1.00000000000000E+20
 20
-1.00000000000000E+20
 30
-1.00000000000000E+20
  9
$PLIMMIN
 10
0.0
 20
0.0
  9
$PLIMMAX
 10
12.0
 20
9.0
  9
$UNITMODE
 70
             0
  9
$VISRETAIN
 70
             0
  9
$PLINEGEN
 70
             1
  9
$PSLTSCALE
 70
             0
  9
$TREEDEPTH
 70
          3020
  9
$PICKSTYLE
 70
             1
  9
$CMLSTYLE
  2
STANDARD
  9
$CMLJUST
 70
             0
  9
$CMLSCALE
 40
1.0
  9
$PROXYGRAPHICS
 70
             0
  9
$MEASUREMENT
 70
             1
  0
ENDSEC
  0
SECTION
  2
CLASSES
  0
CLASS
  1
LWPOLYLINE
  2
AcDbPolyline
  3
"AutoCAD"
 90
        0
280
             0
281
             1
  0
CLASS
  1
IMAGE
  2
AcDbRasterImage
  3
ISM
 90
      127
280
             0
281
             1
  0
CLASS
  1
OLE2FRAME
  2
AcDbOle2Frame
  3
""
 90
        0
280
             0
281
             1
  0
CLASS
  1
HATCH
  2
AcDbHatch
  3
"ACAD_SEDONA"
 90
        0
280
             0
281
             1
  0
CLASS
  1
DICTIONARYVAR
  2
AcDbDictionaryVar
  3
"AutoCAD"
 90
        0
280
             0
281
             0
  0
CLASS
  1
RASTERVARIABLES
  2
AcDbRasterVariables
  3
ISM
 90
        0
280
             0
281
             0
  0
CLASS
  1
IMAGEDEF
  2
AcDbRasterImageDef
  3
ISM
 90
        0
280
             0
281
             0
  0
CLASS
  1
IMAGEDEF_REACTOR
  2
AcDbRasterImageDefReactor
  3
ISM
 90
        1
280
             0
281
             0
  0
CLASS
  1
IDBUFFER
  2
AcDbIdBuffer
  3
"Acad"
 90
        0
280
             0
281
             0
  0
CLASS
  1
SPATIAL_FILTER
  2
AcDbSpatialFilter
  3
"Acad"
 90
        0
280
             0
281
             0
  0
CLASS
  1
XRECORD
  2
AcDbXrecord
  3
"<Built In>"
 90
        0
280
             0
281
             0
  0
CLASS
  1
SORTENTSTABLE
  2
AcDbSortentsTable
  3
"AutoCAD"
 90
        0
280
             0
281
             0
  0
CLASS
  1
LAYER_INDEX
  2
AcDbLayerIndex
  3
"Acad"
 90
        0
280
             0
281
             0
  0
CLASS
  1
SPATIAL_INDEX
  2
AcDbSpatialIndex
  3
"Acad"
 90
        0
280
             0
281
             0
  0
CLASS
  1
OBJECT_PTR
  2
CAseDLPNTableRecord
  3
"ASE-LPNTableRecord"
 90
        1
280
             0
281
             0
  0
CLASS
  1
LAYOUT
  2
AcDbLayout
  3
"AutoCAD 2000"
 90
        1
280
             0
281
             0
  0
CLASS
  1
PLOTSETTINGS
  2
AcDbPlotSettings
  3
"AutoCAD 2000"
 90
        1
280
             0
281
             0
  0
CLASS
  1
ACDBDICTIONARYWDFLT
  2
AcDbDictionaryWithDefault
  3
"AutoCAD 2000"
 90
        1
280
             0
281
             0
  0
CLASS
  1
ACDBPLACEHOLDER
  2
AcDbPlaceHolder
  3
"AutoCAD 2000"
 90
        1
280
             0
281
             0
  0
ENDSEC
  0
SECTION
  2
TABLES
  0
TABLE
  2
VPORT
  5
7
100
AcDbSymbolTable
 70
             1
  0
VPORT
  5
15
100
AcDbSymbolTableRecord
100
AcDbViewportTableRecord
  2
*ACTIVE
 70
             0
 10
0.0
 20
0.0
 11
1.0
 21
1.0
 12
-10.9999529081981
 22
-17.1001456184011
 13
0.0
 23
0.0
 14
1.0
 24
1.0
 15
0.0
 25
0.0
 16
0.0
 26
0.0
 36
1.0
 17
0.0
 27
0.0
 37
0.0
 40
427.9382359598327
 41
1.60267857142857
 42
50.0
 43
0.0
 44
0.0
 50
0.0
 51
0.0
 71
             0
 72
           100
 73
             1
 74
             1
 75
             0
 76
             0
 77
             0
 78
             0
  0
ENDTAB
  0
TABLE
  2
LTYPE
  5
4
100
AcDbSymbolTable
 70
            10
  0
LTYPE
  5
11
100
AcDbSymbolTableRecord
100
AcDbLinetypeTableRecord
  2
BYBLOCK
 70
            64
  3

 72
            65
 73
             0
 40
0.0
  0
LTYPE
  5
12
100
AcDbSymbolTableRecord
100
AcDbLinetypeTableRecord
  2
BYLAYER
 70
            64
  3

 72
            65
 73
             0
 40
0.0
  0
LTYPE
  5
13
100
AcDbSymbolTableRecord
100
AcDbLinetypeTableRecord
  2
CONTINUOUS
 70
            64
  3
Solid line
 72
            65
 73
             0
 40
0.0
  0
LTYPE
  5
1D
100
AcDbSymbolTableRecord
100
AcDbLinetypeTableRecord
  2
DASHED
 70
            64
  3
Dashed
 72
            65
 73
             2
 40
15.0
 49
12.0
 74
             0
 49
-3.0
 74
             0
  0
LTYPE
  5
1E
100
AcDbSymbolTableRecord
100
AcDbLinetypeTableRecord
  2
DOTTED
 70
            64
  3
Dotted
 72
            65
 73
             2
 40
3.5
 49
0.5
 74
             0
 49
-3.0
 74
             0
  0
LTYPE
  5
1F
100
AcDbSymbolTableRecord
100
AcDbLinetypeTableRecord
  2
DOT_CENTER
 70
            64
  3
Dot_Center
 72
            65
 73
             4
 40
2.0
 49
1.25
 74
             0
 49
-0.25
 74
             0
 49
0.25
 74
             0
 49
-0.25
 74
             0
  0
LTYPE
  5
20
100
AcDbSymbolTableRecord
100
AcDbLinetypeTableRecord
  2
LONG_DASHED
 70
            64
  3
Long_Dashed
 72
            65
 73
             2
 40
2.0
 49
1.5
 74
             0
 49
-0.5
 74
             0
  0
LTYPE
  5
21
100
AcDbSymbolTableRecord
100
AcDbLinetypeTableRecord
  2
DASH_CENTER
 70
            64
  3
Dash_Center
 72
            65
 73
             4
 40
36.0
 49
24.0
 74
             0
 49
-3.0
 74
             0
 49
6.0
 74
             0
 49
-3.0
 74
             0
  0
LTYPE
  5
22
100
AcDbSymbolTableRecord
100
AcDbLinetypeTableRecord
  2
PHANTOM
 70
            64
  3
Phantom
 72
            65
 73
             6
 40
2.5
 49
1.25
 74
             0
 49
-0.25
 74
             0
 49
0.25
 74
             0
 49
-0.25
 74
             0
 49
0.25
 74
             0
 49
-0.25
 74
             0
  0
LTYPE
  5
23
100
AcDbSymbolTableRecord
100
AcDbLinetypeTableRecord
  2
CENTER_DASH_DASH
 70
            64
  3
Center_Dash_Dash
 72
            65
 73
             6
 40
22.0
 49
12.0
 74
             0
 49
-3.0
 74
             0
 49
0.5
 74
             0
 49
-3.0
 74
             0
 49
0.5
 74
             0
 49
-3.0
 74
             0
  0
ENDTAB
  0
TABLE
  2
LAYER
  5
2
100
AcDbSymbolTable
 70
             6
  0
LAYER
  5
14
100
AcDbSymbolTableRecord
100
AcDbLayerTableRecord
  2
0
 70
             0
 62
             7
  6
CONTINUOUS
  0
LAYER
  5
24
100
AcDbSymbolTableRecord
100
AcDbLayerTableRecord
  2
1
 70
             0
 62
             7
  6
CONTINUOUS
  0
LAYER
  5
25
100
AcDbSymbolTableRecord
100
AcDbLayerTableRecord
  2
LC-001-002-----0
 70
             0
 62
             7
  6
CONTINUOUS
  0
LAYER
  5
26
100
AcDbSymbolTableRecord
100
AcDbLayerTableRecord
  2
LC-002-002-RND-0
 70
             0
 62
             7
  6
CONTINUOUS
  0
LAYER
  5
27
100
AcDbSymbolTableRecord
100
AcDbLayerTableRecord
  2
LC-003-002-RND-0
 70
             0
 62
             7
  6
CONTINUOUS
  0
LAYER
  5
28
100
AcDbSymbolTableRecord
100
AcDbLayerTableRecord
  2
LC-004-005-----0
 70
             0
 62
             7
  6
CONTINUOUS
  0
ENDTAB
  0
TABLE
  2
STYLE
  5
3
100
AcDbSymbolTable
 70
             2
  0
STYLE
  5
17
100
AcDbSymbolTableRecord
100
AcDbTextStyleTableRecord
  2
STANDARD
 70
             0
 40
0.0
 41
1.0
 50
0.0
 71
             0
 42
0.0
  3
txt
  4

  0
STYLE
  5
C3
100
AcDbSymbolTableRecord
100
AcDbTextStyleTableRecord
  2
CONVERTER_1
 70
             0
 40
0.0
 41
0.9
 50
0.0
 71
             0
 42
0.0
  3
txt.shx
  4

  0
ENDTAB
  0
TABLE
  2
VIEW
  5
5
100
AcDbSymbolTable
 70
             0
  0
ENDTAB
  0
TABLE
  2
UCS
  5
6
100
AcDbSymbolTable
 70
             0
  0
ENDTAB
  0
TABLE
  2
APPID
  5
8
100
AcDbSymbolTable
 70
             1
  0
APPID
  5
16
100
AcDbSymbolTableRecord
100
AcDbRegAppTableRecord
  2
ACAD
 70
             0
  0
ENDTAB
  0
TABLE
  2
DIMSTYLE
  5
9
100
AcDbSymbolTable
 70
             5
  0
DIMSTYLE
105
18
100
AcDbSymbolTableRecord
100
AcDbDimStyleTableRecord
  2
STANDARD
 70
             0
  3

  4

  5

  6

  7

 40
1.0
 41
0.18
 42
0.0625
 43
0.38
 44
0.18
 45
0.0
 46
0.0
 47
0.0
 48
0.0
 71
             0
 72
             0
 73
             1
 74
             1
 75
             0
 76
             0
 77
             0
 78
             0
140
0.18
141
0.09
142
0.0
143
25.4
144
1.0
145
0.0
146
1.0
147
0.09
170
             0
171
             2
172
             0
173
             0
174
             0
175
             0
176
             0
177
             0
178
             0
270
             2
271
             4
272
             4
273
             2
274
             2
275
             0
280
             0
281
             0
282
             0
283
             1
284
             0
285
             0
286
             0
287
             0
288
             0
340
17
  0
DIMSTYLE
105
C6
100
AcDbSymbolTableRecord
100
AcDbDimStyleTableRecord
  2
ME10_DIM_0
 70
             0
  3
DN<>
  4

  5

  6

  7

 40
1.0
 41
10.0
 42
0.0
 43
0.38
 44
2.0
 45
0.0
 46
0.0
 47
0.0
 48
0.0
 71
             0
 72
             0
 73
             0
 74
             0
 75
             0
 76
             0
 77
             1
 78
             8
140
10.0
141
0.09
142
0.0
143
25.4
144
1.0
145
0.0
146
1.0
147
0.625
170
             0
171
             2
172
             0
173
             1
174
             0
175
             0
176
             4
177
             4
178
             1
270
             2
271
             2
272
             4
273
             2
274
             2
275
             0
280
             0
281
             0
282
             0
283
             1
284
             0
285
             0
286
             0
287
             0
288
             0
340
17
  0
DIMSTYLE
105
D1
100
AcDbSymbolTableRecord
100
AcDbDimStyleTableRecord
  2
ME10_DIM_1
 70
             0
  3
Ø<>
  4

  5

  6

  7

 40
1.0
 41
10.0
 42
0.0
 43
0.38
 44
2.0
 45
0.0
 46
0.0
 47
0.0
 48
0.0
 71
             0
 72
             0
 73
             0
 74
             0
 75
             0
 76
             0
 77
             1
 78
             8
140
10.0
141
0.09
142
0.0
143
25.4
144
1.0
145
0.0
146
1.0
147
0.625
170
             0
171
             2
172
             0
173
             1
174
             0
175
             0
176
             4
177
             4
178
             1
270
             2
271
             2
272
             4
273
             2
274
             2
275
             0
280
             0
281
             0
282
             0
283
             1
284
             0
285
             0
286
             0
287
             0
288
             0
340
17
  0
DIMSTYLE
105
DC
100
AcDbSymbolTableRecord
100
AcDbDimStyleTableRecord
  2
ME10_DIM_2
 70
             0
  3

  4

  5

  6

  7

 40
1.0
 41
10.0
 42
0.0
 43
0.38
 44
2.0
 45
0.0
 46
0.0
 47
0.0
 48
0.0
 71
             0
 72
             0
 73
             0
 74
             0
 75
             0
 76
             0
 77
             1
 78
             8
140
10.0
141
0.09
142
0.0
143
25.4
144
1.0
145
0.0
146
1.0
147
0.625
170
             0
171
             2
172
             0
173
             1
174
             0
175
             0
176
             4
177
             4
178
             1
270
             2
271
             2
272
             4
273
             2
274
             2
275
             0
280
             0
281
             0
282
             0
283
             1
284
             0
285
             0
286
             0
287
             0
288
             0
340
17
  0
DIMSTYLE
105
E7
100
AcDbSymbolTableRecord
100
AcDbDimStyleTableRecord
  2
ME10_DIM_3
 70
             0
  3
Ø<>
  4

  5

  6

  7

 40
1.0
 41
10.0
 42
0.0
 43
0.38
 44
2.0
 45
0.0
 46
0.0
 47
0.0
 48
0.0
 71
             0
 72
             0
 73
             0
 74
             0
 75
             0
 76
             0
 77
             1
 78
             8
140
10.0
141
0.09
142
0.0
143
25.4
144
1.0
145
0.0
146
1.0
147
0.625
170
             0
171
             2
172
             0
173
             1
174
             0
175
             0
176
             4
177
             4
178
             1
270
             2
271
             2
272
             4
273
             2
274
             2
275
             0
280
             0
281
             0
282
             0
283
             1
284
             0
285
             0
286
             0
287
             0
288
             0
340
17
  0
ENDTAB
  0
TABLE
  2
BLOCK_RECORD
  5
1
100
AcDbSymbolTable
 70
             6
  0
BLOCK_RECORD
  5
A
100
AcDbSymbolTableRecord
100
AcDbBlockTableRecord
  2
*MODEL_SPACE
  0
BLOCK_RECORD
  5
B
100
AcDbSymbolTableRecord
100
AcDbBlockTableRecord
  2
*PAPER_SPACE
  0
BLOCK_RECORD
  5
29
100
AcDbSymbolTableRecord
100
AcDbBlockTableRecord
  2
0317_3E_GLOCKE
  0
BLOCK_RECORD
  5
2B
100
AcDbSymbolTableRecord
100
AcDbBlockTableRecord
  2
HL317KN_ABLAUFK_RPER
  0
BLOCK_RECORD
  5
BC
100
AcDbSymbolTableRecord
100
AcDbBlockTableRecord
  2
*D2
  0
BLOCK_RECORD
  5
C8
100
AcDbSymbolTableRecord
100
AcDbBlockTableRecord
  2
*D3
  0
BLOCK_RECORD
  5
D3
100
AcDbSymbolTableRecord
100
AcDbBlockTableRecord
  2
*D4
  0
BLOCK_RECORD
  5
DE
100
AcDbSymbolTableRecord
100
AcDbBlockTableRecord
  2
*D5
  0
ENDTAB
  0
ENDSEC
  0
SECTION
  2
BLOCKS
  0
BLOCK
  5
D
100
AcDbEntity
  8
0
100
AcDbBlockBegin
  2
*MODEL_SPACE
 70
             0
 10
0.0
 20
0.0
 30
0.0
  3
*MODEL_SPACE
  1

  0
ENDBLK
  5
E
100
AcDbEntity
  8
0
100
AcDbBlockEnd
  0
BLOCK
  5
F
100
AcDbEntity
 67
             1
  8
0
100
AcDbBlockBegin
  2
*PAPER_SPACE
 70
             0
 10
0.0
 20
0.0
 30
0.0
  3
*PAPER_SPACE
  1

  0
ENDBLK
  5
10
100
AcDbEntity
 67
             1
  8
0
100
AcDbBlockEnd
  0
BLOCK
  5
2A
100
AcDbEntity
  8
0
100
AcDbBlockBegin
  2
0317_3E_GLOCKE
 70
             0
 10
1654.87367028532
 20
555.79985145283354
 30
0.0
  3
0317_3E_GLOCKE
  1

  0
HATCH
  5
7F
100
AcDbEntity
  8
1
  6
CONTINUOUS
 62
             3
100
AcDbHatch
 10
0.0
 20
0.0
 30
0.0
210
0.0
220
0.0
230
1.0
  2
USER
 70
             0
 71
             1
 91
        1
 92
        1
 93
        4
 72
             2
 10
22.824962327030448
 20
61.909758869218678
 40
1.0
 50
0.0
 51
180.0
 73
             1
 72
             1
 10
21.824962327030448
 20
61.909758869218678
 11
21.824962327030448
 21
59.909758869218678
 72
             2
 10
22.824962327030448
 20
59.909758869218678
 40
1.0
 50
180.0
 51
0.0
 73
             1
 72
             1
 10
23.824962327030448
 20
59.909758869218678
 11
23.824962327030448
 21
61.909758869218678
 97
        4
330
73
330
4D
330
74
330
4C
 75
             1
 76
             0
 52
135.0
 41
1.0
 77
             0
 78
             1
 53
135.0
 43
-22767.75470309611
 44
-32011.20782457689
 45
-0.7071067811865476
 46
-0.7071067811865475
 79
             0
 98
        1
 10
0.0
 20
0.0
  0
HATCH
  5
7E
100
AcDbEntity
  8
1
  6
CONTINUOUS
 62
             3
100
AcDbHatch
 10
0.0
 20
0.0
 30
0.0
210
0.0
220
0.0
230
1.0
  2
USER
 70
             0
 71
             1
 91
        1
 92
        1
 93
        4
 72
             2
 10
-22.825037672967369
 20
61.909758869218678
 40
1.0
 50
-180.0
 51
0.0
 73
             0
 72
             1
 10
-21.825037672967369
 20
61.909758869218678
 11
-21.825037672967369
 21
59.909758869218678
 72
             2
 10
-22.825037672967369
 20
59.909758869218678
 40
1.0
 50
0.0
 51
-180.0
 73
             0
 72
             1
 10
-23.825037672967369
 20
59.909758869218678
 11
-23.825037672967369
 21
61.909758869218678
 97
        4
330
70
330
3F
330
6F
330
40
 75
             1
 76
             0
 52
135.0
 41
1.0
 77
             0
 78
             1
 53
135.0
 43
-22767.75470309611
 44
-32011.20782457689
 45
-0.7071067811865476
 46
-0.7071067811865475
 79
             0
 98
        1
 10
0.0
 20
0.0
  0
HATCH
  5
7D
100
AcDbEntity
  8
1
  6
CONTINUOUS
 62
             3
100
AcDbHatch
 10
0.0
 20
0.0
 30
0.0
210
0.0
220
0.0
230
1.0
  2
USER
 70
             0
 71
             1
 91
        1
 92
        1
 93
        3
 72
             1
 10
3.2797813270327651
 20
129.03948786921529
 11
-3.2798556729693469
 21
129.03948786921529
 72
             1
 10
-3.2798556729693469
 20
129.03948786921529
 11
-0.0000376729666414
 21
104.12679486921689
 72
             1
 10
-0.0000376729666414
 20
104.12679486921689
 11
3.2797813270327651
 21
129.03948786921529
 97
        3
330
57
330
55
330
56
 75
             1
 76
             0
 52
45.0
 41
5.0
 77
             0
 78
             2
 53
45.0
 43
-22767.75470309611
 44
-32011.20782457689
 45
-3.5355339059327373
 46
3.5355339059327378
 79
             0
 53
135.00000000000003
 43
-22767.75470309611
 44
-32011.20782457689
 45
-3.5355339059327364
 46
-3.5355339059327391
 79
             0
 98
        1
 10
0.0
 20
0.0
  0
ARC
  5
7C
100
AcDbEntity
  8
1
  6
CONTINUOUS
 62
             7
100
AcDbCircle
 10
31.75000733578702
 20
146.41011786921649
 40
11.99999999999981
100
AcDbArc
 50
-0.0000434657667
 51
90.0
  0
ARC
  5
7B
100
AcDbEntity
  8
1
  6
CONTINUOUS
 62
             7
100
AcDbCircle
 10
4.7500133357745
 20
159.40993286921571
 40
9.0
100
AcDbArc
 50
0.0
 51
90.0
  0
ARC
  5
7A
100
AcDbEntity
  8
1
  6
CONTINUOUS
 62
             7
100
AcDbCircle
 10
-4.74998366422449
 20
159.40993286921571
 40
9.0
100
AcDbArc
 50
90.0
 51
180.0
  0
ARC
  5
79
100
AcDbEntity
  8
1
  6
CONTINUOUS
 62
             7
100
AcDbCircle
 10
4.7500133357745
 20
159.40993286921571
 40
5.0
100
AcDbArc
 50
0.0
 51
90.0
  0
ARC
  5
78
100
AcDbEntity
  8
1
  6
CONTINUOUS
 62
             7
100
AcDbCircle
 10
-4.74998366422449
 20
159.40993286921571
 40
5.0
100
AcDbArc
 50
90.0
 51
180.0
  0
ARC
  5
77
100
AcDbEntity
  8
LC-001-002-----0
  6
CONTINUOUS
 62
             7
100
AcDbCircle
 10
-31.75020766422392
 20
146.4099318692154
 40
12.0
100
AcDbArc
 50
90.0
 51
180.0
  0
ARC
  5
76
100
AcDbEntity
  8
LC-002-002-RND-0
  6
CONTINUOUS
 62
             7
100
AcDbCircle
 10
25.24996232703336
 20
41.75975886921722
 40
0.75
100
AcDbArc
 50
-90.0
 51
0.0
  0
ARC
  5
75
100
AcDbEntity
  8
LC-002-002-RND-0
  6
CONTINUOUS
 62
             7
100
AcDbCircle
 10
25.24996232703336
 20
41.92417686921752
 40
0.75
100
AcDbArc
 50
0.0
 51
75.96375700013893
  0
ARC
  5
74
102
{ACAD_REACTORS
330
7F
102
}
100
AcDbEntity
  8
LC-001-002-----0
  6
CONTINUOUS
 62
             7
100
AcDbCircle
 10
22.82496232703045
 20
59.90975886921868
 40
1.0
100
AcDbArc
 50
180.0
 51
0.0
  0
ARC
  5
73
102
{ACAD_REACTORS
330
7F
102
}
100
AcDbEntity
  8
LC-001-002-----0
  6
CONTINUOUS
 62
             7
100
AcDbCircle
 10
22.82496232703045
 20
61.90975886921868
 40
1.0
100
AcDbArc
 50
0.0
 51
180.0
  0
ARC
  5
72
100
AcDbEntity
  8
LC-002-002-RND-0
  6
CONTINUOUS
 62
             7
100
AcDbCircle
 10
36.89996232703118
 20
62.90975886921868
 40
12.99999999999708
100
AcDbArc
 50
116.99072817682251
 51
180.0
  0
ARC
  5
71
100
AcDbEntity
  8
LC-002-002-RND-0
  6
CONTINUOUS
 62
             7
100
AcDbCircle
 10
-36.9000376729681
 20
62.90975886921868
 40
13.0
100
AcDbArc
 50
0.0
 51
63.00927182317757
  0
ARC
  5
70
102
{ACAD_REACTORS
330
7E
102
}
100
AcDbEntity
  8
LC-001-002-----0
  6
CONTINUOUS
 62
             7
100
AcDbCircle
 10
-22.82503767296737
 20
61.90975886921868
 40
1.0
100
AcDbArc
 50
0.0
 51
180.0
  0
ARC
  5
6F
102
{ACAD_REACTORS
330
7E
102
}
100
AcDbEntity
  8
LC-001-002-----0
  6
CONTINUOUS
 62
             7
100
AcDbCircle
 10
-22.82503767296737
 20
59.90975886921868
 40
1.0
100
AcDbArc
 50
180.0
 51
0.0
  0
ARC
  5
6E
100
AcDbEntity
  8
LC-002-002-RND-0
  6
CONTINUOUS
 62
             7
100
AcDbCircle
 10
-25.25003767296664
 20
41.92417686921752
 40
0.74999999999902
100
AcDbArc
 50
104.03624300013071
 51
180.0
  0
ARC
  5
6D
100
AcDbEntity
  8
LC-002-002-RND-0
  6
CONTINUOUS
 62
             7
100
AcDbCircle
 10
-25.25003767296664
 20
41.75975886921722
 40
0.75
100
AcDbArc
 50
180.0
 51
-90.0
  0
LINE
  5
6C
100
AcDbEntity
  8
1
  6
CONTINUOUS
 62
             7
100
AcDbLine
 10
9.7500133357745
 20
158.4099318692154
 11
13.7500133357745
 21
158.41011786921649
  0
LINE
  5
6B
100
AcDbEntity
  8
1
  6
CONTINUOUS
 62
             7
100
AcDbLine
 10
-9.74998366422449
 20
158.4099318692154
 11
9.7500133357745
 21
158.41011786921649
  0
LINE
  5
6A
100
AcDbEntity
  8
1
  6
CONTINUOUS
 62
             7
100
AcDbLine
 10
-13.74998366422449
 20
158.4099318692154
 11
-9.74998366422449
 21
158.4099318692154
  0
LINE
  5
69
100
AcDbEntity
  8
1
  6
CONTINUOUS
 62
             7
100
AcDbLine
 10
13.7500133357745
 20
158.41011786921649
 11
31.75000733578702
 21
158.41011786921649
  0
LINE
  5
68
100
AcDbEntity
  8
1
  6
CONTINUOUS
 62
             7
100
AcDbLine
 10
13.7500133357745
 20
159.40993286921571
 11
13.7500133357745
 21
158.41011786921649
  0
LINE
  5
67
100
AcDbEntity
  8
LC-001-002-----0
  6
CONTINUOUS
 62
             7
100
AcDbLine
 10
9.7500133357745
 20
158.41011786921649
 11
9.7500133357745
 21
158.4099318692154
  0
LINE
  5
66
100
AcDbEntity
  8
LC-001-002-----0
  6
CONTINUOUS
 62
             7
100
AcDbLine
 10
-41.75020766422392
 20
85.9099318692154
 11
41.74979633577379
 21
85.9099318692154
  0
LINE
  5
65
100
AcDbEntity
  8
LC-001-002-----0
  6
CONTINUOUS
 62
             7
100
AcDbLine
 10
-31.75020766422392
 20
158.4099318692154
 11
-13.74998366422449
 21
158.4099318692154
  0
LINE
  5
64
100
AcDbEntity
  8
LC-001-002-----0
  6
CONTINUOUS
 62
             7
100
AcDbLine
 10
-43.75020766422392
 20
146.4099318692154
 11
-43.75020766422392
 21
87.9099318692154
  0
LINE
  5
63
100
AcDbEntity
  8
LC-001-002-----0
  6
CONTINUOUS
 62
             7
100
AcDbLine
 10
-13.74998366422449
 20
159.40993286921571
 11
-13.74998366422449
 21
158.4099318692154
  0
LINE
  5
62
100
AcDbEntity
  8
LC-001-002-----0
  6
CONTINUOUS
 62
             7
100
AcDbLine
 10
-9.74998366422449
 20
159.40993286921571
 11
-9.74998366422449
 21
158.4099318692154
  0
LINE
  5
61
100
AcDbEntity
  8
LC-001-002-----0
  6
CONTINUOUS
 62
             7
100
AcDbLine
 10
9.7500133357745
 20
159.40993286921571
 11
9.7500133357745
 21
158.41011786921649
  0
LINE
  5
60
100
AcDbEntity
  8
LC-001-002-----0
  6
CONTINUOUS
 62
             7
100
AcDbLine
 10
9.7500133357745
 20
158.4099338692161
 11
9.7500133357745
 21
158.41011786921649
  0
LINE
  5
5F
100
AcDbEntity
  8
LC-001-002-----0
  6
CONTINUOUS
 62
             7
100
AcDbLine
 10
43.75000733578338
 20
146.4101087657676
 11
43.74996333577576
 21
87.91009886921373
  0
LINE
  5
5E
100
AcDbEntity
  8
LC-001-002-----0
  6
CONTINUOUS
 62
             7
100
AcDbLine
 10
-41.75020766422392
 20
85.9099318692154
 11
-43.75020766422392
 21
87.9099318692154
  0
LINE
  5
5D
100
AcDbEntity
  8
LC-001-002-----0
  6
CONTINUOUS
 62
             7
100
AcDbLine
 10
41.74979633577379
 20
85.9099318692154
 11
43.74996333577576
 21
87.91009886921373
  0
LINE
  5
5C
100
AcDbEntity
  8
LC-001-002-----0
  6
CONTINUOUS
 62
             7
100
AcDbLine
 10
-4.74998366422449
 20
164.40993286921571
 11
4.7500133357745
 21
164.40993286921571
  0
LINE
  5
5B
100
AcDbEntity
  8
LC-001-002-----0
  6
CONTINUOUS
 62
             7
100
AcDbLine
 10
-4.74998366422449
 20
168.40993286921571
 11
4.7500133357745
 21
168.40993286921571
  0
LINE
  5
5A
100
AcDbEntity
  8
1
  6
CONTINUOUS
 62
             7
100
AcDbLine
 10
-43.75020766422392
 20
87.9099318692154
 11
43.74996333565014
 21
87.9099318692154
  0
LINE
  5
59
100
AcDbEntity
  8
1
  6
PHANTOM
 62
             2
100
AcDbLine
 10
-0.00008851056941
 20
177.41723436334101
 11
-0.00014121635621
 21
37.26775587802834
  0
LINE
  5
58
100
AcDbEntity
  8
LC-001-002-----0
  6
CONTINUOUS
 62
             7
100
AcDbLine
 10
30.99996032697447
 20
74.49379859632816
 11
30.9999677622518
 21
85.9099318692154
  0
LINE
  5
57
102
{ACAD_REACTORS
330
7D
102
}
100
AcDbEntity
  8
LC-001-002-----0
  6
CONTINUOUS
 62
             7
100
AcDbLine
 10
-3.27985567296935
 20
129.03948786921529
 11
3.27978132703277
 21
129.03948786921529
  0
LINE
  5
56
102
{ACAD_REACTORS
330
7D
102
}
100
AcDbEntity
  8
LC-001-002-----0
  6
CONTINUOUS
 62
             7
100
AcDbLine
 10
-0.00003767296664
 20
104.12679486921689
 11
3.27978132703277
 21
129.03948786921529
  0
LINE
  5
55
102
{ACAD_REACTORS
330
7D
102
}
100
AcDbEntity
  8
LC-001-002-----0
  6
CONTINUOUS
 62
             7
100
AcDbLine
 10
-0.00003767296664
 20
104.12679486921689
 11
-3.27985567296935
 21
129.03948786921529
  0
LINE
  5
54
100
AcDbEntity
  8
LC-001-002-----0
  6
CONTINUOUS
 62
             7
100
AcDbLine
 10
-0.00003767296664
 20
141.0630928692174
 11
-0.00003767296664
 21
129.03948786921529
  0
LINE
  5
53
100
AcDbEntity
  8
LC-001-002-----0
  6
CONTINUOUS
 62
             7
100
AcDbLine
 10
25.99996232703336
 20
41.92417686921752
 11
25.99996232703336
 21
41.75975886921722
  0
LINE
  5
52
100
AcDbEntity
  8
LC-001-002-----0
  6
CONTINUOUS
 62
             7
100
AcDbLine
 10
21.99996232703336
 20
46.90975886921868
 11
21.99996232703336
 21
43.50975886921722
  0
LINE
  5
51
100
AcDbEntity
  8
LC-001-002-----0
  6
CONTINUOUS
 62
             7
100
AcDbLine
 10
23.89996232703118
 20
46.90975886921868
 11
21.99996232703336
 21
46.90975886921868
  0
LINE
  5
50
100
AcDbEntity
  8
LC-001-002-----0
  6
CONTINUOUS
 62
             7
100
AcDbLine
 10
23.89996232703118
 20
48.90975886921868
 11
23.89996232703118
 21
46.90975886921868
  0
LINE
  5
4F
100
AcDbEntity
  8
LC-001-002-----0
  6
CONTINUOUS
 62
             7
100
AcDbLine
 10
23.89996232703118
 20
48.90975886921868
 11
-21.75003767296664
 21
48.90975886921868
  0
LINE
  5
4E
100
AcDbEntity
  8
LC-001-002-----0
  6
CONTINUOUS
 62
             7
100
AcDbLine
 10
21.74996232703336
 20
55.90975886921868
 11
21.74996232703336
 21
48.90975886921868
  0
LINE
  5
4D
102
{ACAD_REACTORS
330
7F
102
}
100
AcDbEntity
  8
LC-001-002-----0
  6
CONTINUOUS
 62
             7
100
AcDbLine
 10
21.82496232703045
 20
61.90975886921868
 11
21.82496232703045
 21
59.90975886921868
  0
LINE
  5
4C
102
{ACAD_REACTORS
330
7F
102
}
100
AcDbEntity
  8
LC-001-002-----0
  6
CONTINUOUS
 62
             7
100
AcDbLine
 10
23.82496232703045
 20
61.90975886921868
 11
23.82496232703045
 21
59.90975886921868
  0
LINE
  5
4B
100
AcDbEntity
  8
LC-001-002-----0
  6
CONTINUOUS
 62
             7
100
AcDbLine
 10
23.89996232703118
 20
55.90975886921868
 11
21.74996232703336
 21
55.90975886921868
  0
LINE
  5
4A
100
AcDbEntity
  8
LC-001-002-----0
  6
CONTINUOUS
 62
             7
100
AcDbLine
 10
23.89996232703118
 20
55.90975886921868
 11
23.89996232703118
 21
58.90975886921868
  0
LINE
  5
49
100
AcDbEntity
  8
LC-001-002-----0
  6
CONTINUOUS
 62
             7
100
AcDbLine
 10
23.89996232703118
 20
58.90975886921868
 11
21.74996232703336
 21
58.90975886921868
  0
LINE
  5
48
100
AcDbEntity
  8
LC-001-002-----0
  6
CONTINUOUS
 62
             7
100
AcDbLine
 10
23.89996232703118
 20
62.90975886921868
 11
21.74996232703336
 21
62.90975886921868
  0
LINE
  5
47
100
AcDbEntity
  8
1
  6
CONTINUOUS
 62
             7
100
AcDbLine
 10
21.99996232703336
 20
43.50975886921722
 11
25.43186403986613
 21
42.65178374581072
  0
LINE
  5
46
100
AcDbEntity
  8
1
  6
CONTINUOUS
 62
             7
100
AcDbLine
 10
-25.43193938580305
 20
42.65178374581072
 11
-22.00003767296664
 21
43.50975886921722
  0
LINE
  5
45
100
AcDbEntity
  8
LC-001-002-----0
  6
CONTINUOUS
 62
             7
100
AcDbLine
 10
-21.75003767296664
 20
62.90975886921868
 11
-23.9000376729681
 21
62.90975886921868
  0
LINE
  5
44
100
AcDbEntity
  8
LC-001-002-----0
  6
CONTINUOUS
 62
             7
100
AcDbLine
 10
-21.75003767296664
 20
58.90975886921868
 11
-21.75003767296664
 21
62.90975886921868
  0
LINE
  5
43
100
AcDbEntity
  8
LC-001-002-----0
  6
CONTINUOUS
 62
             7
100
AcDbLine
 10
-21.75003767296664
 20
58.90975886921868
 11
-23.9000376729681
 21
58.90975886921868
  0
LINE
  5
42
100
AcDbEntity
  8
LC-001-002-----0
  6
CONTINUOUS
 62
             7
100
AcDbLine
 10
-23.9000376729681
 20
58.90975886921868
 11
-23.9000376729681
 21
55.90975886921868
  0
LINE
  5
41
100
AcDbEntity
  8
LC-001-002-----0
  6
CONTINUOUS
 62
             7
100
AcDbLine
 10
-21.75003767296664
 20
55.90975886921868
 11
-23.9000376729681
 21
55.90975886921868
  0
LINE
  5
40
102
{ACAD_REACTORS
330
7E
102
}
100
AcDbEntity
  8
LC-001-002-----0
  6
CONTINUOUS
 62
             7
100
AcDbLine
 10
-23.82503767296737
 20
59.90975886921868
 11
-23.82503767296737
 21
61.90975886921868
  0
LINE
  5
3F
102
{ACAD_REACTORS
330
7E
102
}
100
AcDbEntity
  8
LC-001-002-----0
  6
CONTINUOUS
 62
             7
100
AcDbLine
 10
-21.82503767296737
 20
59.90975886921868
 11
-21.82503767296737
 21
61.90975886921868
  0
LINE
  5
3E
100
AcDbEntity
  8
LC-001-002-----0
  6
CONTINUOUS
 62
             7
100
AcDbLine
 10
-21.75003767296664
 20
48.90975886921868
 11
-21.75003767296664
 21
55.90975886921868
  0
LINE
  5
3D
100
AcDbEntity
  8
LC-001-002-----0
  6
CONTINUOUS
 62
             7
100
AcDbLine
 10
-21.75003767296664
 20
48.90975886921868
 11
-23.9000376729681
 21
48.90975886921868
  0
LINE
  5
3C
100
AcDbEntity
  8
LC-001-002-----0
  6
CONTINUOUS
 62
             7
100
AcDbLine
 10
-23.9000376729681
 20
46.90975886921868
 11
-23.9000376729681
 21
48.90975886921868
  0
LINE
  5
3B
100
AcDbEntity
  8
LC-001-002-----0
  6
CONTINUOUS
 62
             7
100
AcDbLine
 10
21.99996232703336
 20
46.90975886921868
 11
-23.9000376729681
 21
46.90975886921868
  0
LINE
  5
3A
100
AcDbEntity
  8
LC-001-002-----0
  6
CONTINUOUS
 62
             7
100
AcDbLine
 10
-22.00003767296664
 20
43.50975886921722
 11
-22.00003767296664
 21
46.90975886921868
  0
LINE
  5
39
100
AcDbEntity
  8
LC-001-002-----0
  6
CONTINUOUS
 62
             7
100
AcDbLine
 10
25.24996232703336
 20
41.00975886921722
 11
-25.25003767296664
 21
41.00975886921722
  0
LINE
  5
38
100
AcDbEntity
  8
LC-001-002-----0
  6
CONTINUOUS
 62
             7
100
AcDbLine
 10
-26.00003767296664
 20
41.75975886921722
 11
-26.00003767296664
 21
41.92417686921752
  0
LINE
  5
37
100
AcDbEntity
  8
LC-001-002-----0
  6
CONTINUOUS
 62
             7
100
AcDbLine
 10
-31.00004310818872
 20
85.9099318692154
 11
-31.0000356729114
 21
74.49379859632816
  0
LINE
  5
36
100
AcDbEntity
  8
1
  6
CONTINUOUS
 62
             7
100
AcDbLine
 10
-31.0000356729114
 20
74.49379859632816
 11
30.99996032697447
 21
74.49379859632816
  0
LINE
  5
35
100
AcDbEntity
  8
LC-001-002-----0
  6
CONTINUOUS
 62
             7
100
AcDbLine
 10
21.74996232703336
 20
62.90975886921868
 11
21.74996232703336
 21
58.90975886921868
  0
LINE
  5
34
100
AcDbEntity
  8
1
  6
CONTINUOUS
 62
             7
100
AcDbLine
 10
-22.00003767296664
 20
43.50975886921722
 11
21.99996232703336
 21
43.50975886921722
  0
LINE
  5
33
100
AcDbEntity
  8
1
  6
CONTINUOUS
 62
             7
100
AcDbLine
 10
21.74996232703336
 20
55.90975886921868
 11
-21.75003767296664
 21
55.90975886921868
  0
LINE
  5
32
100
AcDbEntity
  8
1
  6
CONTINUOUS
 62
             7
100
AcDbLine
 10
-21.75003767296664
 20
58.90975886921868
 11
21.74996232703336
 21
58.90975886921868
  0
LINE
  5
31
100
AcDbEntity
  8
1
  6
CONTINUOUS
 62
             7
100
AcDbLine
 10
21.74996232703336
 20
62.90975886921868
 11
-21.75003767296664
 21
62.90975886921868
  0
ENDBLK
  5
80
100
AcDbEntity
  8
0
100
AcDbBlockEnd
  0
BLOCK
  5
2C
100
AcDbEntity
  8
0
100
AcDbBlockBegin
  2
HL317KN_ABLAUFK_RPER
 70
             0
 10
621.1670532607169
 20
-131.42319905118239
 30
0.0
  3
HL317KN_ABLAUFK_RPER
  1

  0
ARC
  5
B9
100
AcDbEntity
  8
LC-001-002-----0
  6
CONTINUOUS
 62
             7
100
AcDbCircle
 10
91.20333159180188
 20
-18.96348
 40
1.99870400000023
100
AcDbArc
 50
94.1709139999931
 51
179.99973299999482
  0
ARC
  5
B8
100
AcDbEntity
  8
LC-001-002-----0
  6
CONTINUOUS
 62
             7
100
AcDbCircle
 10
95.20078559180172
 20
-9.166923
 40
0.99935199999966
100
AcDbArc
 50
93.99999700001509
 51
179.99974799998128
  0
ARC
  5
B7
100
AcDbEntity
  8
LC-001-002-----0
  6
CONTINUOUS
 62
             7
100
AcDbCircle
 10
90.20400759180166
 20
-13.022605
 40
3.99740799999977
100
AcDbArc
 50
-77.70959299999326
 51
-0.00025200000531
  0
ARC
  5
B6
100
AcDbEntity
  8
LC-003-002-RND-0
  6
CONTINUOUS
 62
             7
100
AcDbCircle
 10
80.91649359180178
 20
-34.746139
 40
2.99902800000001
100
AcDbArc
 50
-90.0
 51
-22.35248800000412
  0
ARC
  5
B5
100
AcDbEntity
  8
LC-001-002-----0
  6
CONTINUOUS
 62
             7
100
AcDbCircle
 10
-91.20323740819811
 20
-18.96348
 40
1.99870399999974
100
AcDbArc
 50
0.00026700000519
 51
85.82908600001666
  0
ARC
  5
B4
100
AcDbEntity
  8
LC-001-002-----0
  6
CONTINUOUS
 62
             7
100
AcDbCircle
 10
-90.20391340819799
 20
-13.022605
 40
3.99740799999973
100
AcDbArc
 50
-179.9997479999947
 51
-102.29040700000516
  0
ARC
  5
B3
100
AcDbEntity
  8
LC-001-002-----0
  6
CONTINUOUS
 62
             7
100
AcDbCircle
 10
-95.20069140819817
 20
-9.166923
 40
0.99935199999976
100
AcDbArc
 50
0.00025200001873
 51
86.00000299997355
  0
ARC
  5
B2
100
AcDbEntity
  8
LC-003-002-RND-0
  6
CONTINUOUS
 62
             7
100
AcDbCircle
 10
-80.91639940819812
 20
-34.746139
 40
2.9990279999999
100
AcDbArc
 50
-157.64751199999591
 51
-90.0
  0
ARC
  5
B1
100
AcDbEntity
  8
LC-001-002-----0
  6
CONTINUOUS
 62
             7
100
AcDbCircle
 10
68.00004359180184
 20
-100.25003700000001
 40
12.00000000000029
100
AcDbArc
 50
-90.00018899999817
 51
-0.00003700000056
  0
ARC
  5
B0
100
AcDbEntity
  8
LC-001-002-----0
  6
CONTINUOUS
 62
             7
100
AcDbCircle
 10
-68.00012240819808
 20
-100.250187
 40
12.0
100
AcDbArc
 50
180.0
 51
-89.99994199999759
  0
LINE
  5
AF
100
AcDbEntity
  8
1
  6
PHANTOM
 62
             2
100
AcDbLine
 10
0.00000319082977
 20
8.14047441043971
 11
-0.00006850541172
 21
-174.7716408277108
  0
LINE
  5
AE
100
AcDbEntity
  8
1
  6
CONTINUOUS
 62
             7
100
AcDbLine
 10
110.9412635918019
 20
-7.06445000000002
 11
-110.93873740819809
 21
-7.06445000000002
  0
LINE
  5
AD
100
AcDbEntity
  8
1
  6
CONTINUOUS
 62
             7
100
AcDbLine
 10
-150.664725408198
 20
-2.248186
 11
150.6648195918018
 21
-2.248186
  0
LINE
  5
AC
100
AcDbEntity
  8
1
  6
CONTINUOUS
 62
             7
100
AcDbLine
 10
117.9660275918019
 20
-4.534706
 11
-117.9659334081981
 21
-4.534706
  0
LINE
  5
AB
100
AcDbEntity
  8
1
  6
CONTINUOUS
 62
             7
100
AcDbLine
 10
-150.664725408198
 20
0.0
 11
70.38515558527786
 21
0.0
  0
LINE
  5
AA
100
AcDbEntity
  8
1
  6
CONTINUOUS
 62
             7
100
AcDbLine
 10
95.13107459180185
 20
-8.170006
 11
-95.13097940819819
 21
-8.170006
  0
LINE
  5
A9
100
AcDbEntity
  8
1
  6
CONTINUOUS
 62
             7
100
AcDbLine
 10
91.05796204326566
 20
-16.97006951192302
 11
-91.05786685966177
 21
-16.97006951192302
  0
LINE
  5
A8
100
AcDbEntity
  8
1
  6
CONTINUOUS
 62
             7
100
AcDbLine
 10
89.2046275918018
 20
-18.963471
 11
-89.20453240819779
 21
-18.963471
  0
LINE
  5
A7
100
AcDbEntity
  8
1
  6
CONTINUOUS
 62
             7
100
AcDbLine
 10
89.20458859180178
 20
-24.04736800000001
 11
-89.20449340819778
 21
-24.04736800000001
  0
LINE
  5
A6
100
AcDbEntity
  8
1
  6
CONTINUOUS
 62
             7
100
AcDbLine
 10
80.00009159180183
 20
-37.745417
 11
-79.99999640819789
 21
-37.745417
  0
LINE
  5
A5
100
AcDbEntity
  8
1
  6
CONTINUOUS
 62
             7
100
AcDbLine
 10
70.38515558527786
 20
0.0
 11
150.6648195918018
 21
0.0
  0
LINE
  5
A4
100
AcDbEntity
  8
LC-001-002-----0
  6
CONTINUOUS
 62
             7
100
AcDbLine
 10
-68.00012240819808
 20
-112.250187
 11
-57.50012240819808
 21
-112.250187
  0
LINE
  5
A3
100
AcDbEntity
  8
LC-001-002-----0
  6
CONTINUOUS
 62
             7
100
AcDbLine
 10
68.00004359180184
 20
-112.250039
 11
57.50003559180203
 21
-112.250032
  0
LINE
  5
A2
100
AcDbEntity
  8
LC-001-002-----0
  6
CONTINUOUS
 62
             7
100
AcDbLine
 10
-80.91639940819812
 20
-37.74516700000001
 11
-80.00012240819808
 21
-37.74516700000001
  0
LINE
  5
A1
100
AcDbEntity
  8
LC-001-002-----0
  6
CONTINUOUS
 62
             7
100
AcDbLine
 10
150.6648195918018
 20
0.0
 11
150.6648195918018
 21
-2.248186
  0
LINE
  5
A0
100
AcDbEntity
  8
LC-001-002-----0
  6
CONTINUOUS
 62
             7
100
AcDbLine
 10
117.9660275918019
 20
-4.534706
 11
110.9388315918019
 21
-7.02968000000001
  0
LINE
  5
9F
100
AcDbEntity
  8
LC-001-002-----0
  6
CONTINUOUS
 62
             7
100
AcDbLine
 10
89.2046275918018
 20
-18.963471
 11
89.20458859180178
 21
-24.04736800000001
  0
LINE
  5
9E
100
AcDbEntity
  8
LC-001-002-----0
  6
CONTINUOUS
 62
             7
100
AcDbLine
 10
150.6648195918018
 20
-2.248186
 11
117.9660275918019
 21
-4.534706
  0
LINE
  5
9D
100
AcDbEntity
  8
LC-001-002-----0
  6
CONTINUOUS
 62
             7
100
AcDbLine
 10
94.2014335918019
 20
-9.16691900000001
 11
94.20141659180183
 21
-13.02262300000001
  0
LINE
  5
9C
100
AcDbEntity
  8
LC-001-002-----0
  6
CONTINUOUS
 62
             7
100
AcDbLine
 10
110.9412635918019
 20
-7.06445000000002
 11
95.13107459180185
 21
-8.170006
  0
LINE
  5
9B
100
AcDbEntity
  8
LC-001-002-----0
  6
CONTINUOUS
 62
             7
100
AcDbLine
 10
89.20461559180183
 20
-21.54708400000001
 11
89.20459159180189
 21
-23.31988700000002
  0
LINE
  5
9A
100
AcDbEntity
  8
LC-001-002-----0
  6
CONTINUOUS
 62
             7
100
AcDbLine
 10
80.91649359180178
 20
-37.745417
 11
80.00009159180183
 21
-37.745417
  0
LINE
  5
99
100
AcDbEntity
  8
LC-001-002-----0
  6
CONTINUOUS
 62
             7
100
AcDbLine
 10
89.20458859180178
 20
-24.04736800000001
 11
83.69017959180178
 21
-35.88668000000001
  0
LINE
  5
98
100
AcDbEntity
  8
LC-001-002-----0
  6
CONTINUOUS
 62
             7
100
AcDbLine
 10
-89.20453340819802
 20
-18.963471
 11
-89.20449440819817
 21
-24.04736800000001
  0
LINE
  5
97
100
AcDbEntity
  8
LC-001-002-----0
  6
CONTINUOUS
 62
             7
100
AcDbLine
 10
-94.20133940819807
 20
-9.16691900000001
 11
-94.20132240819808
 21
-13.02262300000001
  0
LINE
  5
96
100
AcDbEntity
  8
LC-001-002-----0
  6
CONTINUOUS
 62
             7
100
AcDbLine
 10
-110.94116940819811
 20
-7.06445000000002
 11
-95.13097940819819
 21
-8.170006
  0
LINE
  5
95
100
AcDbEntity
  8
LC-001-002-----0
  6
CONTINUOUS
 62
             7
100
AcDbLine
 10
-117.9659334081981
 20
-4.534706
 11
-110.93873740819809
 21
-7.02968000000001
  0
LINE
  5
94
100
AcDbEntity
  8
LC-001-002-----0
  6
CONTINUOUS
 62
             7
100
AcDbLine
 10
-150.664725408198
 20
-2.248186
 11
-117.9659334081981
 21
-4.534706
  0
LINE
  5
93
100
AcDbEntity
  8
LC-001-002-----0
  6
CONTINUOUS
 62
             7
100
AcDbLine
 10
-150.664725408198
 20
-2.248186
 11
-150.664725408198
 21
0.0
  0
LINE
  5
92
100
AcDbEntity
  8
LC-001-002-----0
  6
CONTINUOUS
 62
             7
100
AcDbLine
 10
-89.20449440819817
 20
-24.04736800000001
 11
-83.69008540819812
 21
-35.88668000000001
  0
LINE
  5
91
100
AcDbEntity
  8
LC-001-002-----0
  6
CONTINUOUS
 62
             7
100
AcDbLine
 10
80.00009259180183
 20
-37.745417
 11
80.00004359180184
 21
-100.250044
  0
LINE
  5
90
100
AcDbEntity
  8
LC-001-002-----0
  6
CONTINUOUS
 62
             7
100
AcDbLine
 10
57.50003559180203
 20
-112.250032
 11
-37.50012240819808
 21
-112.2499702498972
  0
LINE
  5
8F
100
AcDbEntity
  8
LC-001-002-----0
  6
CONTINUOUS
 62
             7
100
AcDbLine
 10
-80.00012240819808
 20
-37.74516700000001
 11
-80.00012240819808
 21
-100.250187
  0
LINE
  5
8E
100
AcDbEntity
  8
LC-001-002-----0
  6
CONTINUOUS
 62
             7
100
AcDbLine
 10
-57.50012240819808
 20
-112.250187
 11
-37.50012240819808
 21
-112.250187
  0
LINE
  5
8D
100
AcDbEntity
  8
LC-004-005-----0
  6
CONTINUOUS
 62
             7
100
AcDbLine
 10
73.77119359180176
 20
-110.77167
 11
78.52098759180183
 21
-106.021877
  0
LINE
  5
8C
100
AcDbEntity
  8
LC-001-002-----0
  6
CONTINUOUS
 62
             7
100
AcDbLine
 10
37.50003559180203
 20
-112.25001899999999
 11
37.50001700248708
 21
-167.507200186581
  0
LINE
  5
8B
100
AcDbEntity
  8
LC-001-002-----0
  6
CONTINUOUS
 62
             7
100
AcDbLine
 10
-37.50012240819808
 20
-112.2499702498972
 11
-37.50012240819808
 21
-167.5072001865808
  0
LINE
  5
8A
100
AcDbEntity
  8
1
  6
CONTINUOUS
 62
             7
100
AcDbLine
 10
-36.56230023468913
 20
-171.0072001865808
 11
36.56219356699029
 21
-171.0072001865808
  0
LINE
  5
89
100
AcDbEntity
  8
1
  6
CONTINUOUS
 62
             7
100
AcDbLine
 10
-37.50012240819808
 20
-167.5072001865808
 11
-36.56230023468913
 21
-171.0072001865808
  0
LINE
  5
88
100
AcDbEntity
  8
1
  6
CONTINUOUS
 62
             7
100
AcDbLine
 10
37.50001700248708
 20
-167.507200186581
 11
36.56219356699029
 21
-171.0072001865808
  0
LINE
  5
87
100
AcDbEntity
  8
1
  6
CONTINUOUS
 62
             7
100
AcDbLine
 10
-37.50012240819808
 20
-167.5072001865808
 11
37.50001700248708
 21
-167.507200186581
  0
POINT
  5
86
100
AcDbEntity
  8
0
 62
             7
100
AcDbPoint
 10
-68.00012240819808
 20
-112.250187
  0
POINT
  5
85
100
AcDbEntity
  8
0
 62
             7
100
AcDbPoint
 10
-150.664725408198
 20
-2.248186
  0
POINT
  5
84
100
AcDbEntity
  8
0
 62
             7
100
AcDbPoint
 10
150.6648195918018
 20
0.757192
  0
POINT
  5
83
100
AcDbEntity
  8
0
 62
             7
100
AcDbPoint
 10
-150.664725408198
 20
-2.248186
  0
POINT
  5
82
100
AcDbEntity
  8
0
 62
             7
100
AcDbPoint
 10
80.00004359180184
 20
-100.250044
  0
POINT
  5
81
100
AcDbEntity
  8
0
 62
             7
100
AcDbPoint
 10
-80.00012240819808
 20
-100.250187
  0
ENDBLK
  5
BA
100
AcDbEntity
  8
0
100
AcDbBlockEnd
  0
BLOCK
  5
BD
100
AcDbEntity
  8
0
100
AcDbBlockBegin
  2
*D2
 70
             1
 10
0.0
 20
0.0
 30
0.0
  3
*D2
  1

  0
LINE
  5
BE
100
AcDbEntity
  8
0
  6
CONTINUOUS
 62
             4
100
AcDbLine
 10
-37.50013123876564
 20
-190.03582592323338
 11
37.500008171908
 21
-190.03585532111171
  0
LINE
  5
BF
100
AcDbEntity
  8
0
  6
CONTINUOUS
 62
             4
100
AcDbLine
 10
37.50001700248709
 20
-167.50720018658103
 11
37.50000738796604
 21
-192.03585532111157
  0
LINE
  5
C0
100
AcDbEntity
  8
0
  6
CONTINUOUS
 62
             4
100
AcDbLine
 10
-37.50012240819808
 20
-167.50720018658083
 11
-37.5001320227076
 21
-192.03582592323323
  0
SOLID
  5
C1
100
AcDbEntity
  8
0
 62
             4
100
AcDbTrace
 10
27.50000765586918
 20
-191.3523763772757
 11
27.50000868794836
 21
-188.71932642552801
 12
37.500008171908
 22
-190.03585532111171
 13
37.500008171908
 23
-190.03585532111171
  0
SOLID
  5
C2
100
AcDbEntity
  8
0
 62
             4
100
AcDbTrace
 10
-27.50013072272682
 20
-188.71930486706938
 11
-27.500131754806
 21
-191.35235481881708
 12
-37.50013123876564
 22
-190.03582592323338
 13
-37.50013123876564
 23
-190.03582592323338
  0
MTEXT
  5
C4
100
AcDbEntity
  8
0
 62
             1
100
AcDbMText
 10
-11.61458414770399
 20
-188.03588225266253
 30
0.0
 40
10.0
 41
0.0
 71
             7
 72
             1
  1
\C1;DN\C1;75
  7
CONVERTER_1
 11
0.99999999999706
 21
0.00000242406841
 31
0.0
  0
ENDBLK
  5
C5
100
AcDbEntity
  8
0
100
AcDbBlockEnd
  0
BLOCK
  5
C9
100
AcDbEntity
  8
0
100
AcDbBlockBegin
  2
*D3
 70
             1
 10
0.0
 20
0.0
 30
0.0
  3
*D3
  1

  0
LINE
  5
CA
100
AcDbEntity
  8
0
  6
CONTINUOUS
 62
             4
100
AcDbLine
 10
-80.00012240819808
 20
-209.61752560014321
 11
80.00004359180184
 21
-209.61752560014321
  0
LINE
  5
CB
100
AcDbEntity
  8
0
  6
CONTINUOUS
 62
             4
100
AcDbLine
 10
80.00004359180184
 20
-100.25004400000002
 11
80.00004359180184
 21
-211.61752560014321
  0
LINE
  5
CC
100
AcDbEntity
  8
0
  6
CONTINUOUS
 62
             4
100
AcDbLine
 10
-80.00012240819808
 20
-100.25018700000001
 11
-80.00012240819808
 21
-211.61752560014321
  0
SOLID
  5
CD
100
AcDbEntity
  8
0
 62
             4
100
AcDbTrace
 10
-70.00012240819808
 20
-208.30100062426925
 11
-70.00012240819808
 21
-210.93405057601717
 12
-80.00012240819808
 22
-209.61752560014321
 13
-80.00012240819808
 23
-209.61752560014321
  0
SOLID
  5
CE
100
AcDbEntity
  8
0
 62
             4
100
AcDbTrace
 10
70.00004359180184
 20
-210.93405057601717
 11
70.00004359180184
 21
-208.30100062426925
 12
80.00004359180184
 22
-209.61752560014321
 13
80.00004359180184
 23
-209.61752560014321
  0
MTEXT
  5
CF
100
AcDbEntity
  8
0
 62
             1
100
AcDbMText
 10
-11.41458218787292
 20
-207.61754547750414
 30
0.0
 40
10.0
 41
0.0
 71
             7
 72
             1
  1
\C1;Ø\C1;160
  7
CONVERTER_1
 11
0.99999999999706
 21
0.00000242406841
 31
0.0
  0
ENDBLK
  5
D0
100
AcDbEntity
  8
0
100
AcDbBlockEnd
  0
BLOCK
  5
D4
100
AcDbEntity
  8
0
100
AcDbBlockBegin
  2
*D4
 70
             1
 10
0.0
 20
0.0
 30
0.0
  3
*D4
  1

  0
LINE
  5
D5
100
AcDbEntity
  8
0
  6
CONTINUOUS
 62
             4
100
AcDbLine
 10
-160.664725408198
 20
-112.25018700000001
 11
-160.664725408198
 21
-2.24818600000001
  0
LINE
  5
D6
100
AcDbEntity
  8
0
  6
CONTINUOUS
 62
             4
100
AcDbLine
 10
-150.664725408198
 20
-2.24818600000001
 11
-162.664725408198
 21
-2.24818600000001
  0
LINE
  5
D7
100
AcDbEntity
  8
0
  6
CONTINUOUS
 62
             4
100
AcDbLine
 10
-57.5001224081981
 20
-112.25018700000001
 11
-162.664725408198
 21
-112.25018700000001
  0
SOLID
  5
D8
100
AcDbEntity
  8
0
 62
             4
100
AcDbTrace
 10
-161.98125038407196
 20
-102.25018700000001
 11
-159.34820043232403
 21
-102.25018700000001
 12
-160.664725408198
 22
-112.25018700000001
 13
-160.664725408198
 23
-112.25018700000001
  0
SOLID
  5
D9
100
AcDbEntity
  8
0
 62
             4
100
AcDbTrace
 10
-159.34820043232403
 20
-12.24818600000001
 11
-161.98125038407196
 21
-12.24818600000001
 12
-160.664725408198
 22
-2.24818600000001
 13
-160.664725408198
 23
-2.24818600000001
  0
MTEXT
  5
DA
100
AcDbEntity
  8
0
 62
             1
100
AcDbMText
 10
-162.664725408198
 20
-66.31017073380389
 30
0.0
 40
10.0
 41
0.0
 71
             7
 72
             1
  1
110
  7
CONVERTER_1
 11
0.0
 21
1.0
 31
0.0
  0
ENDBLK
  5
DB
100
AcDbEntity
  8
0
100
AcDbBlockEnd
  0
BLOCK
  5
DF
100
AcDbEntity
  8
0
100
AcDbBlockBegin
  2
*D5
 70
             1
 10
0.0
 20
0.0
 30
0.0
  3
*D5
  1

  0
LINE
  5
E0
100
AcDbEntity
  8
0
  6
CONTINUOUS
 62
             4
100
AcDbLine
 10
-150.664725408198
 20
15.23423060246
 11
150.6648195918018
 21
15.23423060246
  0
LINE
  5
E1
100
AcDbEntity
  8
0
  6
CONTINUOUS
 62
             4
100
AcDbLine
 10
150.6648195918018
 20
0.0
 11
150.6648195918018
 21
17.23423060246
  0
LINE
  5
E2
100
AcDbEntity
  8
0
  6
CONTINUOUS
 62
             4
100
AcDbLine
 10
-150.664725408198
 20
0.0
 11
-150.664725408198
 21
17.23423060246
  0
SOLID
  5
E3
100
AcDbEntity
  8
0
 62
             4
100
AcDbTrace
 10
-140.664725408198
 20
16.55075557833396
 11
-140.664725408198
 21
13.91770562658604
 12
-150.664725408198
 22
15.23423060246
 13
-150.664725408198
 23
15.23423060246
  0
SOLID
  5
E4
100
AcDbEntity
  8
0
 62
             4
100
AcDbTrace
 10
140.6648195918018
 20
13.91770562658604
 11
140.6648195918018
 21
16.55075557833396
 12
150.6648195918018
 22
15.23423060246
 13
150.6648195918018
 23
15.23423060246
  0
MTEXT
  5
E5
100
AcDbEntity
  8
0
 62
             1
100
AcDbMText
 10
51.90754572639109
 20
17.23421072509907
 30
0.0
 40
10.0
 41
0.0
 71
             7
 72
             1
  1
\C1;Ø\C1;300
  7
CONVERTER_1
 11
0.99999999999706
 21
0.00000242406841
 31
0.0
  0
ENDBLK
  5
E6
100
AcDbEntity
  8
0
100
AcDbBlockEnd
  0
ENDSEC
  0
SECTION
  2
ENTITIES
  0
DIMENSION
  5
E8
100
AcDbEntity
  8
1
100
AcDbDimension
  2
*D5
 10
-150.664725408198
 20
15.23423060246
 11
66.10754572636699
 21
22.23423060246
 31
0.0
 53
0.00013888888889
  1
Ø300
  3
ME10_DIM_3
100
AcDbAlignedDimension
 13
150.6648195918018
 23
0.0
 14
-150.664725408198
 24
0.0
100
AcDbRotatedDimension
  0
DIMENSION
  5
DD
100
AcDbEntity
  8
1
100
AcDbDimension
  2
*D4
 10
-160.664725408198
 20
-112.25018700000001
 11
-167.664725408198
 21
-57.31017073380389
 31
0.0
 53
90.00000000000003
  1
<>
  3
ME10_DIM_2
100
AcDbAlignedDimension
 13
-150.664725408198
 23
-2.248186
 14
-57.50012240819808
 24
-112.250187
 50
90.00000000000003
100
AcDbRotatedDimension
  0
DIMENSION
  5
D2
100
AcDbEntity
  8
1
100
AcDbDimension
  2
*D3
 10
-80.00012240819808
 20
-209.61752560014321
 11
1.28541781210299
 21
-202.61752560014321
 31
0.0
 53
0.00013888888889
  1
<>
  3
ME10_DIM_1
100
AcDbAlignedDimension
 13
80.00004359180184
 23
-100.250044
 14
-80.00012240819808
 24
-100.250187
100
AcDbRotatedDimension
  0
DIMENSION
  5
C7
100
AcDbEntity
  8
1
100
AcDbDimension
  2
*D2
 10
37.500008171908
 20
-190.03585532111171
 11
1.285417812103
 21
-183.03584112604261
 31
0.0
 53
179.99997754171704
  1
<>
  3
ME10_DIM_0
100
AcDbAlignedDimension
 13
-37.50012240819808
 23
-167.5072001865808
 14
37.50001700248708
 24
-167.507200186581
 50
179.99997754171704
100
AcDbRotatedDimension
  0
INSERT
  5
2F
100
AcDbEntity
  8
1
100
AcDbBlockReference
  2
0317_3E_GLOCKE
 10
1654.87367028532
 20
555.79985145283354
  0
INSERT
  5
30
100
AcDbEntity
  8
1
100
AcDbBlockReference
  2
HL317KN_ABLAUFK_RPER
 10
621.1670532607169
 20
-131.42319905118239
  0
ENDSEC
  0
SECTION
  2
OBJECTS
  0
DICTIONARY
  5
19
100
AcDbDictionary
  3
ACAD_GROUP
350
1A
  3
ACAD_MLINESTYLE
350
1B
  0
DICTIONARY
  5
1A
102
{ACAD_REACTORS
330
19
102
}
100
AcDbDictionary
  0
DICTIONARY
  5
1B
102
{ACAD_REACTORS
330
19
102
}
100
AcDbDictionary
  3
STANDARD
350
1C
  0
MLINESTYLE
  5
1C
102
{ACAD_REACTORS
330
1B
102
}
100
AcDbMlineStyle
  2
STANDARD
 70
             0
  3

 62
             0
 51
90.0
 52
90.0
 71
             2
 49
0.5
 62
           256
  6
BYLAYER
 49
-0.5
 62
           256
  6
BYLAYER
  0
ENDSEC
  0
EOF
