  0
SECTION
  2
HEADER
  9
$ACADVER
  1
AC1014
  9
$ACADMAINTVER
 70
             0
  9
$DWGCODEPAGE
  3
ANSI_1252
  9
$INSBASE
 10
0.0
 20
0.0
 30
0.0
  9
$EXTMIN
 10
-172.66477299999991
 20
-290.42702731263529
 30
0.0
  9
$EXTMAX
 10
150.66477199999991
 20
44.387147603486
 30
0.0
  9
$LIMMIN
 10
0.0
 20
0.0
  9
$LIMMAX
 10
0.0
 20
0.0
  9
$ORTHOMODE
 70
             0
  9
$REGENMODE
 70
             1
  9
$FILLMODE
 70
             1
  9
$QTEXTMODE
 70
             0
  9
$MIRRTEXT
 70
             1
  9
$DRAGMODE
 70
             2
  9
$LTSCALE
 40
1.0
  9
$OSMODE
 70
             0
  9
$ATTMODE
 70
             1
  9
$TEXTSIZE
 40
0.2
  9
$TRACEWID
 40
0.05
  9
$TEXTSTYLE
  7
STANDARD
  9
$CLAYER
  8
0
  9
$CELTYPE
  6
CONTINUOUS
  9
$CECOLOR
 62
           256
  9
$CELTSCALE
 40
1.0
  9
$DELOBJ
 70
             1
  9
$DISPSILH
 70
             0
  9
$DIMSCALE
 40
1.0
  9
$DIMASZ
 40
0.18
  9
$DIMEXO
 40
0.0625
  9
$DIMDLI
 40
0.38
  9
$DIMRND
 40
0.0
  9
$DIMDLE
 40
0.0
  9
$DIMEXE
 40
0.18
  9
$DIMTP
 40
0.0
  9
$DIMTM
 40
0.0
  9
$DIMTXT
 40
0.18
  9
$DIMCEN
 40
0.09
  9
$DIMTSZ
 40
0.0
  9
$DIMTOL
 70
             0
  9
$DIMLIM
 70
             0
  9
$DIMTIH
 70
             1
  9
$DIMTOH
 70
             1
  9
$DIMSE1
 70
             0
  9
$DIMSE2
 70
             0
  9
$DIMTAD
 70
             0
  9
$DIMZIN
 70
             0
  9
$DIMBLK
  1

  9
$DIMASO
 70
             1
  9
$DIMSHO
 70
             1
  9
$DIMPOST
  1

  9
$DIMAPOST
  1

  9
$DIMALT
 70
             0
  9
$DIMALTD
 70
             2
  9
$DIMALTF
 40
25.4
  9
$DIMLFAC
 40
1.0
  9
$DIMTOFL
 70
             0
  9
$DIMTVP
 40
0.0
  9
$DIMTIX
 70
             0
  9
$DIMSOXD
 70
             0
  9
$DIMSAH
 70
             0
  9
$DIMBLK1
  1

  9
$DIMBLK2
  1

  9
$DIMSTYLE
  2
STANDARD
  9
$DIMCLRD
 70
             0
  9
$DIMCLRE
 70
             0
  9
$DIMCLRT
 70
             0
  9
$DIMTFAC
 40
1.0
  9
$DIMGAP
 40
0.09
  9
$DIMJUST
 70
             0
  9
$DIMSD1
 70
             0
  9
$DIMSD2
 70
             0
  9
$DIMTOLJ
 70
             1
  9
$DIMTZIN
 70
             0
  9
$DIMALTZ
 70
             0
  9
$DIMALTTZ
 70
             0
  9
$DIMFIT
 70
             3
  9
$DIMUPT
 70
             0
  9
$DIMUNIT
 70
             2
  9
$DIMDEC
 70
             4
  9
$DIMTDEC
 70
             4
  9
$DIMALTU
 70
             2
  9
$DIMALTTD
 70
             2
  9
$DIMTXSTY
  7
STANDARD
  9
$DIMAUNIT
 70
             0
  9
$LUNITS
 70
             2
  9
$LUPREC
 70
             4
  9
$SKETCHINC
 40
0.1
  9
$FILLETRAD
 40
0.0
  9
$AUNITS
 70
             0
  9
$AUPREC
 70
             0
  9
$MENU
  1
acad
  9
$ELEVATION
 40
0.0
  9
$PELEVATION
 40
0.0
  9
$THICKNESS
 40
0.0
  9
$LIMCHECK
 70
             0
  9
$BLIPMODE
 70
             1
  9
$CHAMFERA
 40
0.0
  9
$CHAMFERB
 40
0.0
  9
$CHAMFERC
 40
0.0
  9
$CHAMFERD
 40
0.0
  9
$SKPOLY
 70
             0
  9
$TDCREATE
 40
0.000000000
  9
$TDUPDATE
 40
0.000000000
  9
$TDINDWG
 40
0.0000000000
  9
$TDUSRTIMER
 40
0.0000000000
  9
$USRTIMER
 70
             1
  9
$ANGBASE
 50
0.0
  9
$ANGDIR
 70
             0
  9
$PDMODE
 70
             0
  9
$PDSIZE
 40
0.0
  9
$PLINEWID
 40
0.0
  9
$COORDS
 70
             0
  9
$SPLFRAME
 70
             0
  9
$SPLINETYPE
 70
             6
  9
$SPLINESEGS
 70
             8
  9
$ATTDIA
 70
             0
  9
$ATTREQ
 70
             1
  9
$HANDLING
 70
             1
  9
$HANDSEED
  5
E6
  9
$SURFTAB1
 70
             6
  9
$SURFTAB2
 70
             6
  9
$SURFTYPE
 70
             6
  9
$SURFU
 70
             6
  9
$SURFV
 70
             6
  9
$UCSNAME
  2

  9
$UCSORG
 10
0.0
 20
0.0
 30
0.0
  9
$UCSXDIR
 10
1.0
 20
0.0
 30
0.0
  9
$UCSYDIR
 10
0.0
 20
1.0
 30
0.0
  9
$PUCSNAME
  2

  9
$PUCSORG
 10
0.0
 20
0.0
 30
0.0
  9
$PUCSXDIR
 10
1.0
 20
0.0
 30
0.0
  9
$PUCSYDIR
 10
0.0
 20
1.0
 30
0.0
  9
$USERI1
 70
             0
  9
$USERI2
 70
             0
  9
$USERI3
 70
             0
  9
$USERI4
 70
             0
  9
$USERI5
 70
             0
  9
$USERR1
 40
12.01
  9
$USERR2
 40
0.0
  9
$USERR3
 40
0.0
  9
$USERR4
 40
0.0
  9
$USERR5
 40
0.0
  9
$WORLDVIEW
 70
             1
  9
$SHADEDGE
 70
             3
  9
$SHADEDIF
 70
            70
  9
$TILEMODE
 70
             1
  9
$MAXACTVP
 70
            16
  9
$PINSBASE
 10
0.0
 20
0.0
 30
0.0
  9
$PLIMCHECK
 70
             0
  9
$PEXTMIN
 10
1.00000000000000E+20
 20
1.00000000000000E+20
 30
1.00000000000000E+20
  9
$PEXTMAX
 10
-1.00000000000000E+20
 20
-1.00000000000000E+20
 30
-1.00000000000000E+20
  9
$PLIMMIN
 10
0.0
 20
0.0
  9
$PLIMMAX
 10
12.0
 20
9.0
  9
$UNITMODE
 70
             0
  9
$VISRETAIN
 70
             0
  9
$PLINEGEN
 70
             1
  9
$PSLTSCALE
 70
             0
  9
$TREEDEPTH
 70
          3020
  9
$PICKSTYLE
 70
             1
  9
$CMLSTYLE
  2
STANDARD
  9
$CMLJUST
 70
             0
  9
$CMLSCALE
 40
1.0
  9
$PROXYGRAPHICS
 70
             0
  9
$MEASUREMENT
 70
             1
  0
ENDSEC
  0
SECTION
  2
CLASSES
  0
CLASS
  1
LWPOLYLINE
  2
AcDbPolyline
  3
"AutoCAD"
 90
        0
280
             0
281
             1
  0
CLASS
  1
IMAGE
  2
AcDbRasterImage
  3
ISM
 90
      127
280
             0
281
             1
  0
CLASS
  1
OLE2FRAME
  2
AcDbOle2Frame
  3
""
 90
        0
280
             0
281
             1
  0
CLASS
  1
HATCH
  2
AcDbHatch
  3
"ACAD_SEDONA"
 90
        0
280
             0
281
             1
  0
CLASS
  1
DICTIONARYVAR
  2
AcDbDictionaryVar
  3
"AutoCAD"
 90
        0
280
             0
281
             0
  0
CLASS
  1
RASTERVARIABLES
  2
AcDbRasterVariables
  3
ISM
 90
        0
280
             0
281
             0
  0
CLASS
  1
IMAGEDEF
  2
AcDbRasterImageDef
  3
ISM
 90
        0
280
             0
281
             0
  0
CLASS
  1
IMAGEDEF_REACTOR
  2
AcDbRasterImageDefReactor
  3
ISM
 90
        1
280
             0
281
             0
  0
CLASS
  1
IDBUFFER
  2
AcDbIdBuffer
  3
"Acad"
 90
        0
280
             0
281
             0
  0
CLASS
  1
SPATIAL_FILTER
  2
AcDbSpatialFilter
  3
"Acad"
 90
        0
280
             0
281
             0
  0
CLASS
  1
XRECORD
  2
AcDbXrecord
  3
"<Built In>"
 90
        0
280
             0
281
             0
  0
CLASS
  1
SORTENTSTABLE
  2
AcDbSortentsTable
  3
"AutoCAD"
 90
        0
280
             0
281
             0
  0
CLASS
  1
LAYER_INDEX
  2
AcDbLayerIndex
  3
"Acad"
 90
        0
280
             0
281
             0
  0
CLASS
  1
SPATIAL_INDEX
  2
AcDbSpatialIndex
  3
"Acad"
 90
        0
280
             0
281
             0
  0
CLASS
  1
OBJECT_PTR
  2
CAseDLPNTableRecord
  3
"ASE-LPNTableRecord"
 90
        1
280
             0
281
             0
  0
CLASS
  1
LAYOUT
  2
AcDbLayout
  3
"AutoCAD 2000"
 90
        0
280
             0
281
             0
  0
CLASS
  1
PLOTSETTINGS
  2
AcDbPlotSettings
  3
"AutoCAD 2000"
 90
        0
280
             0
281
             0
  0
CLASS
  1
ACDBDICTIONARYWDFLT
  2
AcDbDictionaryWithDefault
  3
"AutoCAD 2000"
 90
        0
280
             0
281
             0
  0
CLASS
  1
ACDBPLACEHOLDER
  2
AcDbPlaceHolder
  3
"AutoCAD 2000"
 90
        0
280
             0
281
             0
  0
ENDSEC
  0
SECTION
  2
TABLES
  0
TABLE
  2
VPORT
  5
7
100
AcDbSymbolTable
 70
             1
  0
VPORT
  5
15
100
AcDbSymbolTableRecord
100
AcDbViewportTableRecord
  2
*ACTIVE
 70
             0
 10
0.0
 20
0.0
 11
1.0
 21
1.0
 12
-11.0000005
 22
-123.01993985457464
 13
0.0
 23
0.0
 14
1.0
 24
1.0
 15
0.0
 25
0.0
 16
0.0
 26
0.0
 36
1.0
 17
0.0
 27
0.0
 37
0.0
 40
368.29559240773341
 41
1.60267857142857
 42
50.0
 43
0.0
 44
0.0
 50
0.0
 51
0.0
 71
             0
 72
           100
 73
             1
 74
             1
 75
             0
 76
             0
 77
             0
 78
             0
  0
ENDTAB
  0
TABLE
  2
LTYPE
  5
4
100
AcDbSymbolTable
 70
            11
  0
LTYPE
  5
11
100
AcDbSymbolTableRecord
100
AcDbLinetypeTableRecord
  2
BYBLOCK
 70
            64
  3

 72
            65
 73
             0
 40
0.0
  0
LTYPE
  5
12
100
AcDbSymbolTableRecord
100
AcDbLinetypeTableRecord
  2
BYLAYER
 70
            64
  3

 72
            65
 73
             0
 40
0.0
  0
LTYPE
  5
13
100
AcDbSymbolTableRecord
100
AcDbLinetypeTableRecord
  2
CONTINUOUS
 70
            64
  3
Solid line
 72
            65
 73
             0
 40
0.0
  0
LTYPE
  5
1D
100
AcDbSymbolTableRecord
100
AcDbLinetypeTableRecord
  2
DASHED
 70
            64
  3
Dashed
 72
            65
 73
             2
 40
15.0
 49
7.0
 74
             0
 49
-8.0
 74
             0
  0
LTYPE
  5
1E
100
AcDbSymbolTableRecord
100
AcDbLinetypeTableRecord
  2
DOTTED
 70
            64
  3
Dotted
 72
            65
 73
             2
 40
1.0
 49
0.0
 74
             0
 49
-1.0
 74
             0
  0
LTYPE
  5
1F
100
AcDbSymbolTableRecord
100
AcDbLinetypeTableRecord
  2
DOT_CENTER
 70
            64
  3
Dot_Center
 72
            65
 73
             4
 40
14.0
 49
12.0
 74
             0
 49
-1.0
 74
             0
 49
0.0
 74
             0
 49
-1.0
 74
             0
  0
LTYPE
  5
20
100
AcDbSymbolTableRecord
100
AcDbLinetypeTableRecord
  2
LONG_DASHED
 70
            64
  3
Long_Dashed
 72
            65
 73
             2
 40
15.0
 49
10.0
 74
             0
 49
-5.0
 74
             0
  0
LTYPE
  5
21
100
AcDbSymbolTableRecord
100
AcDbLinetypeTableRecord
  2
DASH_CENTER
 70
            64
  3
Dash_Center
 72
            65
 73
             4
 40
14.0
 49
11.0
 74
             0
 49
-1.0
 74
             0
 49
1.0
 74
             0
 49
-1.0
 74
             0
  0
LTYPE
  5
22
100
AcDbSymbolTableRecord
100
AcDbLinetypeTableRecord
  2
PHANTOM
 70
            64
  3
Phantom
 72
            65
 73
             6
 40
13.0
 49
10.0
 74
             0
 49
-1.0
 74
             0
 49
0.0
 74
             0
 49
-1.0
 74
             0
 49
0.0
 74
             0
 49
-1.0
 74
             0
  0
LTYPE
  5
23
100
AcDbSymbolTableRecord
100
AcDbLinetypeTableRecord
  2
CENTER_DASH_DASH
 70
            64
  3
Center_Dash_Dash
 72
            65
 73
             6
 40
14.0
 49
9.0
 74
             0
 49
-1.0
 74
             0
 49
1.0
 74
             0
 49
-1.0
 74
             0
 49
1.0
 74
             0
 49
-1.0
 74
             0
  0
LTYPE
  5
24
100
AcDbSymbolTableRecord
100
AcDbLinetypeTableRecord
  2
DASHDOT
 70
            64
  3
DASHDOT
 72
            65
 73
             4
 40
16.0
 49
10.0
 74
             0
 49
-3.0
 74
             0
 49
0.0
 74
             0
 49
-3.0
 74
             0
  0
ENDTAB
  0
TABLE
  2
LAYER
  5
2
100
AcDbSymbolTable
 70
             5
  0
LAYER
  5
14
100
AcDbSymbolTableRecord
100
AcDbLayerTableRecord
  2
0
 70
             0
 62
             7
  6
CONTINUOUS
  0
LAYER
  5
25
100
AcDbSymbolTableRecord
100
AcDbLayerTableRecord
  2
1
 70
             0
 62
             7
  6
CONTINUOUS
  0
LAYER
  5
26
100
AcDbSymbolTableRecord
100
AcDbLayerTableRecord
  2
LC-001-002-----0
 70
             0
 62
             7
  6
CONTINUOUS
  0
LAYER
  5
27
100
AcDbSymbolTableRecord
100
AcDbLayerTableRecord
  2
LC-003-002-RND-0
 70
             0
 62
             7
  6
CONTINUOUS
  0
LAYER
  5
28
100
AcDbSymbolTableRecord
100
AcDbLayerTableRecord
  2
LC-004-005-----0
 70
             0
 62
             7
  6
CONTINUOUS
  0
ENDTAB
  0
TABLE
  2
STYLE
  5
3
100
AcDbSymbolTable
 70
             2
  0
STYLE
  5
17
100
AcDbSymbolTableRecord
100
AcDbTextStyleTableRecord
  2
STANDARD
 70
             0
 40
0.0
 41
1.0
 50
0.0
 71
             0
 42
0.0
  3
txt
  4

  0
STYLE
  5
9E
100
AcDbSymbolTableRecord
100
AcDbTextStyleTableRecord
  2
CONVERTER_1
 70
             0
 40
0.0
 41
0.9
 50
0.0
 71
             0
 42
0.0
  3
txt.shx
  4

  0
ENDTAB
  0
TABLE
  2
VIEW
  5
5
100
AcDbSymbolTable
 70
             0
  0
ENDTAB
  0
TABLE
  2
UCS
  5
6
100
AcDbSymbolTable
 70
             0
  0
ENDTAB
  0
TABLE
  2
APPID
  5
8
100
AcDbSymbolTable
 70
             1
  0
APPID
  5
16
100
AcDbSymbolTableRecord
100
AcDbRegAppTableRecord
  2
ACAD
 70
             0
  0
ENDTAB
  0
TABLE
  2
DIMSTYLE
  5
9
100
AcDbSymbolTable
 70
             8
  0
DIMSTYLE
105
18
100
AcDbSymbolTableRecord
100
AcDbDimStyleTableRecord
  2
STANDARD
 70
             0
  3

  4

  5

  6

  7

 40
1.0
 41
0.18
 42
0.0625
 43
0.38
 44
0.18
 45
0.0
 46
0.0
 47
0.0
 48
0.0
 71
             0
 72
             0
 73
             1
 74
             1
 75
             0
 76
             0
 77
             0
 78
             0
140
0.18
141
0.09
142
0.0
143
25.4
144
1.0
145
0.0
146
1.0
147
0.09
170
             0
171
             2
172
             0
173
             0
174
             0
175
             0
176
             0
177
             0
178
             0
270
             2
271
             4
272
             4
273
             2
274
             2
275
             0
280
             0
281
             0
282
             0
283
             1
284
             0
285
             0
286
             0
287
             3
288
             0
340
17
  0
DIMSTYLE
105
A1
100
AcDbSymbolTableRecord
100
AcDbDimStyleTableRecord
  2
ME10_DIM_0
 70
             0
  3
Ø<>
  4

  5

  6

  7

 40
1.0
 41
10.0
 42
0.0
 43
0.38
 44
2.0
 45
0.0
 46
0.0
 47
0.0
 48
0.0
 71
             0
 72
             0
 73
             0
 74
             0
 75
             0
 76
             0
 77
             1
 78
             8
140
10.0
141
0.09
142
0.0
143
25.4
144
1.0
145
0.0
146
1.0
147
0.625
170
             0
171
             2
172
             1
173
             1
174
             0
175
             0
176
             4
177
             4
178
             1
270
             2
271
             2
272
             4
273
             2
274
             2
275
             0
280
             0
281
             0
282
             0
283
             1
284
             0
285
             0
286
             0
287
             3
288
             0
340
9E
  0
DIMSTYLE
105
AC
100
AcDbSymbolTableRecord
100
AcDbDimStyleTableRecord
  2
ME10_DIM_1
 70
             0
  3
DN<>
  4

  5

  6

  7

 40
1.0
 41
10.0
 42
0.0
 43
0.38
 44
2.0
 45
0.0
 46
0.0
 47
0.0
 48
0.0
 71
             0
 72
             0
 73
             0
 74
             0
 75
             0
 76
             0
 77
             1
 78
             8
140
10.0
141
0.09
142
0.0
143
25.4
144
1.0
145
0.0
146
1.0
147
0.625
170
             0
171
             2
172
             1
173
             1
174
             0
175
             0
176
             4
177
             4
178
             1
270
             2
271
             2
272
             4
273
             2
274
             2
275
             0
280
             0
281
             0
282
             0
283
             1
284
             0
285
             0
286
             0
287
             3
288
             0
340
9E
  0
DIMSTYLE
105
B7
100
AcDbSymbolTableRecord
100
AcDbDimStyleTableRecord
  2
ME10_DIM_2
 70
             0
  3
Ø<>
  4

  5

  6

  7

 40
1.0
 41
10.0
 42
0.0
 43
0.38
 44
2.0
 45
0.0
 46
0.0
 47
0.0
 48
0.0
 71
             0
 72
             0
 73
             0
 74
             0
 75
             0
 76
             0
 77
             1
 78
             8
140
10.0
141
0.09
142
0.0
143
25.4
144
1.0
145
0.0
146
1.0
147
0.625
170
             0
171
             2
172
             1
173
             1
174
             0
175
             0
176
             4
177
             4
178
             1
270
             2
271
             2
272
             4
273
             2
274
             2
275
             0
280
             0
281
             0
282
             0
283
             1
284
             0
285
             0
286
             0
287
             3
288
             0
340
9E
  0
DIMSTYLE
105
C2
100
AcDbSymbolTableRecord
100
AcDbDimStyleTableRecord
  2
ME10_DIM_3
 70
             0
  3
DN<>
  4

  5

  6

  7

 40
1.0
 41
10.0
 42
0.0
 43
0.38
 44
2.0
 45
0.0
 46
0.0
 47
0.0
 48
0.0
 71
             0
 72
             0
 73
             0
 74
             0
 75
             0
 76
             0
 77
             1
 78
             8
140
10.0
141
0.09
142
0.0
143
25.4
144
1.0
145
0.0
146
1.0
147
0.625
170
             0
171
             2
172
             1
173
             1
174
             0
175
             0
176
             4
177
             4
178
             1
270
             2
271
             2
272
             4
273
             2
274
             2
275
             0
280
             0
281
             0
282
             0
283
             1
284
             0
285
             0
286
             0
287
             3
288
             0
340
9E
  0
DIMSTYLE
105
CD
100
AcDbSymbolTableRecord
100
AcDbDimStyleTableRecord
  2
ME10_DIM_4
 70
             0
  3
DN<>
  4

  5

  6

  7

 40
1.0
 41
10.0
 42
0.0
 43
0.38
 44
2.0
 45
0.0
 46
0.0
 47
0.0
 48
0.0
 71
             0
 72
             0
 73
             0
 74
             0
 75
             0
 76
             0
 77
             1
 78
             8
140
10.0
141
0.09
142
0.0
143
25.4
144
1.0
145
0.0
146
1.0
147
0.625
170
             0
171
             2
172
             1
173
             1
174
             0
175
             0
176
             4
177
             4
178
             1
270
             2
271
             2
272
             4
273
             2
274
             2
275
             0
280
             0
281
             0
282
             0
283
             1
284
             0
285
             0
286
             0
287
             3
288
             0
340
9E
  0
DIMSTYLE
105
D8
100
AcDbSymbolTableRecord
100
AcDbDimStyleTableRecord
  2
ME10_DIM_5
 70
             0
  3

  4

  5

  6

  7

 40
1.0
 41
10.0
 42
0.0
 43
0.38
 44
2.0
 45
0.0
 46
0.0
 47
0.0
 48
0.0
 71
             0
 72
             0
 73
             0
 74
             0
 75
             0
 76
             0
 77
             1
 78
             8
140
10.0
141
0.09
142
0.0
143
25.4
144
1.0
145
0.0
146
1.0
147
0.625
170
             0
171
             2
172
             1
173
             1
174
             0
175
             0
176
             4
177
             4
178
             1
270
             2
271
             2
272
             4
273
             2
274
             2
275
             0
280
             0
281
             0
282
             0
283
             1
284
             0
285
             0
286
             0
287
             3
288
             0
340
9E
  0
DIMSTYLE
105
E3
100
AcDbSymbolTableRecord
100
AcDbDimStyleTableRecord
  2
ME10_DIM_6
 70
             0
  3
Ø<>
  4

  5

  6

  7

 40
1.0
 41
10.0
 42
0.0
 43
0.38
 44
2.0
 45
0.0
 46
0.0
 47
0.0
 48
0.0
 71
             0
 72
             0
 73
             0
 74
             0
 75
             0
 76
             0
 77
             1
 78
             8
140
10.0
141
0.09
142
0.0
143
25.4
144
1.0
145
0.0
146
1.0
147
0.625
170
             0
171
             2
172
             1
173
             1
174
             0
175
             0
176
             4
177
             4
178
             1
270
             2
271
             2
272
             4
273
             2
274
             2
275
             0
280
             0
281
             0
282
             0
283
             1
284
             0
285
             0
286
             0
287
             3
288
             0
340
9E
  0
ENDTAB
  0
TABLE
  2
BLOCK_RECORD
  5
1
100
AcDbSymbolTable
 70
             9
  0
BLOCK_RECORD
  5
A
100
AcDbSymbolTableRecord
100
AcDbBlockTableRecord
  2
*MODEL_SPACE
  0
BLOCK_RECORD
  5
B
100
AcDbSymbolTableRecord
100
AcDbBlockTableRecord
  2
*PAPER_SPACE
  0
BLOCK_RECORD
  5
29
100
AcDbSymbolTableRecord
100
AcDbBlockTableRecord
  2
0317_4E_REDUKTION
  0
BLOCK_RECORD
  5
2B
100
AcDbSymbolTableRecord
100
AcDbBlockTableRecord
  2
HL_317K_BODENABLAUFK_RR__1
  0
BLOCK_RECORD
  5
97
100
AcDbSymbolTableRecord
100
AcDbBlockTableRecord
  2
*D2
  0
BLOCK_RECORD
  5
A3
100
AcDbSymbolTableRecord
100
AcDbBlockTableRecord
  2
*D3
  0
BLOCK_RECORD
  5
AE
100
AcDbSymbolTableRecord
100
AcDbBlockTableRecord
  2
*D4
  0
BLOCK_RECORD
  5
B9
100
AcDbSymbolTableRecord
100
AcDbBlockTableRecord
  2
*D5
  0
BLOCK_RECORD
  5
C4
100
AcDbSymbolTableRecord
100
AcDbBlockTableRecord
  2
*D6
  0
BLOCK_RECORD
  5
CF
100
AcDbSymbolTableRecord
100
AcDbBlockTableRecord
  2
*D7
  0
BLOCK_RECORD
  5
DA
100
AcDbSymbolTableRecord
100
AcDbBlockTableRecord
  2
*D8
  0
ENDTAB
  0
ENDSEC
  0
SECTION
  2
BLOCKS
  0
BLOCK
  5
D
100
AcDbEntity
  8
0
100
AcDbBlockBegin
  2
*MODEL_SPACE
 70
             0
 10
0.0
 20
0.0
 30
0.0
  3
*MODEL_SPACE
  1

  0
ENDBLK
  5
E
100
AcDbEntity
  8
0
100
AcDbBlockEnd
  0
BLOCK
  5
F
100
AcDbEntity
 67
             1
  8
0
100
AcDbBlockBegin
  2
*PAPER_SPACE
 70
             0
 10
0.0
 20
0.0
 30
0.0
  3
*PAPER_SPACE
  1

  0
ENDBLK
  5
10
100
AcDbEntity
 67
             1
  8
0
100
AcDbBlockEnd
  0
BLOCK
  5
2A
100
AcDbEntity
  8
0
100
AcDbBlockBegin
  2
0317_4E_REDUKTION
 70
             0
 10
-49.0001700000002
 20
-273.52503471379362
 30
0.0
  3
0317_4E_REDUKTION
  1

  0
ARC
  5
4B
100
AcDbEntity
  8
LC-003-002-RND-0
  6
CONTINUOUS
 62
             7
100
AcDbCircle
 10
-39.40017000000012
 20
-127.31637293541461
 40
5.0000000000003
100
AcDbArc
 50
134.99999999999903
 51
180.0
  0
ARC
  5
4A
100
AcDbEntity
  8
LC-003-002-RND-0
  6
CONTINUOUS
 62
             7
100
AcDbCircle
 10
39.39983000000009
 20
-127.31637293541461
 40
5.0
100
AcDbArc
 50
0.0
 51
45.00000000000075
  0
ARC
  5
49
100
AcDbEntity
  8
LC-003-002-RND-0
  6
CONTINUOUS
 62
             7
100
AcDbCircle
 10
58.99983000000009
 20
-138.24530493541471
 40
2.0
100
AcDbArc
 50
0.0
 51
90.0
  0
ARC
  5
48
100
AcDbEntity
  8
LC-003-002-RND-0
  6
CONTINUOUS
 62
             7
100
AcDbCircle
 10
-47.00017000000011
 20
-138.24530493541471
 40
2.0
100
AcDbArc
 50
90.0
 51
180.0
  0
LINE
  5
47
100
AcDbEntity
  8
1
  6
CONTINUOUS
 62
             7
100
AcDbLine
 10
-37.50017
 20
-117.74530493541459
 11
-38.40017000000012
 21
-117.74530493541459
  0
LINE
  5
46
100
AcDbEntity
  8
1
  6
CONTINUOUS
 62
             7
100
AcDbLine
 10
37.49998614971619
 20
-117.74530493541459
 11
-37.50017
 21
-117.74530493541459
  0
LINE
  5
45
100
AcDbEntity
  8
1
  6
CONTINUOUS
 62
             7
100
AcDbLine
 10
38.39983000000009
 20
-117.74530493541459
 11
37.49998614971619
 21
-117.74530493541459
  0
LINE
  5
44
100
AcDbEntity
  8
1
  6
CONTINUOUS
 62
             7
100
AcDbLine
 10
-40.40017000000012
 20
-121.24530493541459
 11
40.39983000000009
 21
-121.24530493541459
  0
LINE
  5
43
100
AcDbEntity
  8
1
  6
CONTINUOUS
 62
             7
100
AcDbLine
 10
44.39983000000009
 20
-136.24530493541471
 11
-44.40017000000012
 21
-136.24530493541471
  0
LINE
  5
42
100
AcDbEntity
  8
1
  6
CONTINUOUS
 62
             7
100
AcDbLine
 10
-49.0001700000002
 20
-206.24530493541471
 11
60.99983000000009
 21
-206.24530493541471
  0
LINE
  5
41
100
AcDbEntity
  8
LC-001-002-----0
  6
CONTINUOUS
 62
             7
100
AcDbLine
 10
44.39983000000009
 20
-127.31637293541461
 11
44.39983000000009
 21
-136.24530493541471
  0
LINE
  5
40
100
AcDbEntity
  8
LC-001-002-----0
  6
CONTINUOUS
 62
             7
100
AcDbLine
 10
-47.94220800000002
 20
-212.24530493541471
 11
59.941868
 21
-212.24530493541471
  0
LINE
  5
3F
100
AcDbEntity
  8
LC-001-002-----0
  6
CONTINUOUS
 62
             7
100
AcDbLine
 10
40.39983000000009
 20
-117.74530493541459
 11
38.39983000000009
 21
-117.74530493541459
  0
LINE
  5
3E
100
AcDbEntity
  8
LC-001-002-----0
  6
CONTINUOUS
 62
             7
100
AcDbLine
 10
-38.40017000000012
 20
-117.74530493541459
 11
-40.40017000000012
 21
-117.74530493541459
  0
LINE
  5
3D
100
AcDbEntity
  8
LC-001-002-----0
  6
CONTINUOUS
 62
             7
100
AcDbLine
 10
-44.40017000000012
 20
-127.31637293541461
 11
-44.40017000000012
 21
-136.24530493541471
  0
LINE
  5
3C
100
AcDbEntity
  8
LC-001-002-----0
  6
CONTINUOUS
 62
             7
100
AcDbLine
 10
-40.40017000000012
 20
-121.24530493541459
 11
-42.9357039999999
 21
-123.78083893541459
  0
LINE
  5
3B
100
AcDbEntity
  8
LC-001-002-----0
  6
CONTINUOUS
 62
             7
100
AcDbLine
 10
-40.40017000000012
 20
-117.74530493541459
 11
-40.40017000000012
 21
-121.24530493541459
  0
LINE
  5
3A
100
AcDbEntity
  8
LC-001-002-----0
  6
CONTINUOUS
 62
             7
100
AcDbLine
 10
40.39983000000009
 20
-121.24530493541459
 11
42.93536399999999
 21
-123.78083893541459
  0
LINE
  5
39
100
AcDbEntity
  8
LC-001-002-----0
  6
CONTINUOUS
 62
             7
100
AcDbLine
 10
-49.00017000000011
 20
-138.24530493541471
 11
-49.0001700000002
 21
-206.24530493541471
  0
LINE
  5
38
100
AcDbEntity
  8
LC-001-002-----0
  6
CONTINUOUS
 62
             7
100
AcDbLine
 10
58.99983000000009
 20
-136.24530493541471
 11
44.39983000000009
 21
-136.24530493541471
  0
LINE
  5
37
100
AcDbEntity
  8
LC-001-002-----0
  6
CONTINUOUS
 62
             7
100
AcDbLine
 10
60.99983000000009
 20
-206.24530493541471
 11
59.941868
 21
-212.24530493541471
  0
LINE
  5
36
100
AcDbEntity
  8
LC-001-002-----0
  6
CONTINUOUS
 62
             7
100
AcDbLine
 10
60.99983000000009
 20
-138.24530493541471
 11
60.99983000000009
 21
-206.24530493541471
  0
LINE
  5
35
100
AcDbEntity
  8
LC-001-002-----0
  6
CONTINUOUS
 62
             7
100
AcDbLine
 10
-49.0001700000002
 20
-206.24530493541471
 11
-47.94220800000002
 21
-212.24530493541471
  0
LINE
  5
34
100
AcDbEntity
  8
LC-001-002-----0
  6
CONTINUOUS
 62
             7
100
AcDbLine
 10
40.39983000000009
 20
-117.74530493541459
 11
40.39983000000009
 21
-121.24530493541459
  0
LINE
  5
33
100
AcDbEntity
  8
LC-001-002-----0
  6
CONTINUOUS
 62
             7
100
AcDbLine
 10
-47.00017000000011
 20
-136.24530493541471
 11
-44.40017000000012
 21
-136.24530493541471
  0
LINE
  5
32
100
AcDbEntity
  8
LC-001-002-----0
  6
DASHDOT
 62
             2
100
AcDbLine
 10
5.99983
 20
-132.83769493541459
 11
5.99983
 21
-215.24530493541459
  0
LINE
  5
31
100
AcDbEntity
  8
LC-004-005-----0
  6
CONTINUOUS
 62
             7
100
AcDbLine
 10
59.03405000000009
 20
-136.24559793541471
 11
60.99953700000009
 21
-138.2110849354147
  0
ENDBLK
  5
4C
100
AcDbEntity
  8
0
100
AcDbBlockEnd
  0
BLOCK
  5
2C
100
AcDbEntity
  8
0
100
AcDbBlockBegin
  2
HL_317K_BODENABLAUFK_RR__1
 70
             0
 10
16.90084582327913
 20
-286.4119917242848
 30
0.0
  3
HL_317K_BODENABLAUFK_RR__1
  1

  0
ARC
  5
92
100
AcDbEntity
  8
LC-001-002-----0
  6
CONTINUOUS
 62
             7
100
AcDbCircle
 10
91.203284
 20
-18.96348000000001
 40
1.99870400000025
100
AcDbArc
 50
94.17091399999308
 51
179.99973299999451
  0
ARC
  5
91
100
AcDbEntity
  8
LC-001-002-----0
  6
CONTINUOUS
 62
             7
100
AcDbCircle
 10
95.20073799999977
 20
-9.166923
 40
0.99935199999966
100
AcDbArc
 50
93.99999700001509
 51
179.99974799998128
  0
ARC
  5
90
100
AcDbEntity
  8
LC-001-002-----0
  6
CONTINUOUS
 62
             7
100
AcDbCircle
 10
90.20395999999977
 20
-13.022605
 40
3.99740799999977
100
AcDbArc
 50
-77.70959299999326
 51
-0.00025200000531
  0
ARC
  5
8F
100
AcDbEntity
  8
LC-003-002-RND-0
  6
CONTINUOUS
 62
             7
100
AcDbCircle
 10
80.91644599999989
 20
-34.746139
 40
2.99902800000001
100
AcDbArc
 50
-90.0
 51
-22.35248800000453
  0
ARC
  5
8E
100
AcDbEntity
  8
LC-001-002-----0
  6
CONTINUOUS
 62
             7
100
AcDbCircle
 10
-91.20328500000002
 20
-18.96348000000001
 40
1.99870399999972
100
AcDbArc
 50
0.0002670000055
 51
85.82908600001669
  0
ARC
  5
8D
100
AcDbEntity
  8
LC-001-002-----0
  6
CONTINUOUS
 62
             7
100
AcDbCircle
 10
-90.20396099999991
 20
-13.022605
 40
3.99740799999975
100
AcDbArc
 50
-179.9997479999947
 51
-102.29040700000516
  0
ARC
  5
8C
100
AcDbEntity
  8
LC-001-002-----0
  6
CONTINUOUS
 62
             7
100
AcDbCircle
 10
-95.2007390000001
 20
-9.166923
 40
0.99935199999976
100
AcDbArc
 50
0.00025200001873
 51
86.00000299997274
  0
ARC
  5
8B
100
AcDbEntity
  8
LC-003-002-RND-0
  6
CONTINUOUS
 62
             7
100
AcDbCircle
 10
-80.91644700000001
 20
-34.746139
 40
2.99902799999996
100
AcDbArc
 50
-157.64751199999631
 51
-90.0
  0
ARC
  5
8A
100
AcDbEntity
  8
LC-001-002-----0
  6
CONTINUOUS
 62
             7
100
AcDbCircle
 10
67.9999959999999
 20
-100.24817649024349
 40
12.00000000000029
100
AcDbArc
 50
-90.0001889999979
 51
-0.00003700000063
  0
ARC
  5
89
100
AcDbEntity
  8
LC-001-002-----0
  6
CONTINUOUS
 62
             7
100
AcDbCircle
 10
-68.00017000000001
 20
-100.2483264902435
 40
12.0
100
AcDbArc
 50
180.0
 51
-89.99994199999759
  0
LINE
  5
88
100
AcDbEntity
  8
1
  6
CONTINUOUS
 62
             7
100
AcDbLine
 10
-80.00017000000001
 20
-100.2483264902435
 11
79.99999599999677
 21
-100.2483264902435
  0
LINE
  5
87
100
AcDbEntity
  8
1
  6
CONTINUOUS
 62
             7
100
AcDbLine
 10
110.941216
 20
-7.06445000000003
 11
-110.938785
 21
-7.06445000000003
  0
LINE
  5
86
100
AcDbEntity
  8
1
  6
CONTINUOUS
 62
             7
100
AcDbLine
 10
-150.66477299999991
 20
-2.24818600000001
 11
150.66477199999991
 21
-2.24818600000001
  0
LINE
  5
85
100
AcDbEntity
  8
1
  6
CONTINUOUS
 62
             7
100
AcDbLine
 10
117.96598
 20
-4.534706
 11
-117.965981
 21
-4.534706
  0
LINE
  5
84
100
AcDbEntity
  8
1
  6
CONTINUOUS
 62
             7
100
AcDbLine
 10
0.0
 20
-8.170006
 11
-95.1310270000001
 21
-8.170006
  0
LINE
  5
83
100
AcDbEntity
  8
1
  6
CONTINUOUS
 62
             7
100
AcDbLine
 10
0.0
 20
-16.97006951192302
 11
-91.05791445146372
 21
-16.97006951192302
  0
LINE
  5
82
100
AcDbEntity
  8
1
  6
CONTINUOUS
 62
             7
100
AcDbLine
 10
0.0
 20
-18.963471
 11
-89.20457999999971
 21
-18.963471
  0
LINE
  5
81
100
AcDbEntity
  8
1
  6
CONTINUOUS
 62
             7
100
AcDbLine
 10
0.0
 20
-24.04736800000001
 11
-89.20454099999971
 21
-24.04736800000001
  0
LINE
  5
80
100
AcDbEntity
  8
1
  6
CONTINUOUS
 62
             7
100
AcDbLine
 10
0.0
 20
-37.74541700000001
 11
-80.0000439999998
 21
-37.74541700000001
  0
LINE
  5
7F
100
AcDbEntity
  8
1
  6
CONTINUOUS
 62
             7
100
AcDbLine
 10
0.0
 20
0.0
 11
150.66477199999991
 21
0.0
  0
LINE
  5
7E
100
AcDbEntity
  8
LC-001-002-----0
  6
DASHDOT
 62
             2
100
AcDbLine
 10
0.0
 20
-16.963471
 11
0.0
 21
-14.97006951192302
  0
LINE
  5
7D
100
AcDbEntity
  8
1
  6
CONTINUOUS
 62
             7
100
AcDbLine
 10
89.20457999999991
 20
-18.963471
 11
0.0
 21
-18.963471
  0
LINE
  5
7C
100
AcDbEntity
  8
LC-001-002-----0
  6
DASHDOT
 62
             2
100
AcDbLine
 10
0.0
 20
-14.97006951192302
 11
0.0
 21
-6.170006
  0
LINE
  5
7B
100
AcDbEntity
  8
1
  6
CONTINUOUS
 62
             7
100
AcDbLine
 10
91.05791445146377
 20
-16.97006951192302
 11
0.0
 21
-16.97006951192302
  0
LINE
  5
7A
100
AcDbEntity
  8
LC-001-002-----0
  6
DASHDOT
 62
             2
100
AcDbLine
 10
0.0
 20
-6.170006
 11
0.0
 21
2.0
  0
LINE
  5
79
100
AcDbEntity
  8
1
  6
CONTINUOUS
 62
             7
100
AcDbLine
 10
95.1310269999999
 20
-8.170006
 11
0.0
 21
-8.170006
  0
LINE
  5
78
100
AcDbEntity
  8
LC-001-002-----0
  6
DASHDOT
 62
             2
100
AcDbLine
 10
0.0
 20
-22.04736800000001
 11
0.0
 21
-16.963471
  0
LINE
  5
77
100
AcDbEntity
  8
1
  6
CONTINUOUS
 62
             7
100
AcDbLine
 10
89.20454099999989
 20
-24.04736800000001
 11
0.0
 21
-24.04736800000001
  0
LINE
  5
76
100
AcDbEntity
  8
LC-001-002-----0
  6
DASHDOT
 62
             2
100
AcDbLine
 10
0.0
 20
-35.74541700000001
 11
0.0
 21
-22.04736800000001
  0
LINE
  5
75
100
AcDbEntity
  8
1
  6
CONTINUOUS
 62
             7
100
AcDbLine
 10
80.00004399999989
 20
-37.74541700000001
 11
0.0
 21
-37.74541700000001
  0
LINE
  5
74
100
AcDbEntity
  8
LC-001-002-----0
  6
CONTINUOUS
 62
             7
100
AcDbLine
 10
-68.00017000000001
 20
-112.2483264902435
 11
-57.50017
 21
-112.2483264902435
  0
LINE
  5
73
100
AcDbEntity
  8
LC-001-002-----0
  6
CONTINUOUS
 62
             7
100
AcDbLine
 10
67.9999959999999
 20
-112.2481784902435
 11
57.49998800000009
 21
-112.24817149024349
  0
LINE
  5
72
100
AcDbEntity
  8
1
  6
CONTINUOUS
 62
             7
100
AcDbLine
 10
-37.50017
 20
-217.90749361107771
 11
-37.50017
 21
-214.90749361107771
  0
LINE
  5
71
100
AcDbEntity
  8
1
  6
CONTINUOUS
 62
             7
100
AcDbLine
 10
-25.00017
 20
-218.55467090650259
 11
-25.00017
 21
-215.55467090650259
  0
LINE
  5
70
100
AcDbEntity
  8
1
  6
CONTINUOUS
 62
             7
100
AcDbLine
 10
37.49995299999998
 20
-215.55467090650259
 11
37.49995299999998
 21
-218.55467090650259
  0
LINE
  5
6F
100
AcDbEntity
  8
1
  6
CONTINUOUS
 62
             7
100
AcDbLine
 10
24.99995799999988
 20
-214.90749361107771
 11
24.99995799999988
 21
-217.90749361107771
  0
LINE
  5
6E
100
AcDbEntity
  8
LC-001-002-----0
  6
DASHDOT
 62
             2
100
AcDbLine
 10
0.0
 20
-137.83788393541471
 11
0.0
 21
-35.74541700000001
  0
LINE
  5
6D
100
AcDbEntity
  8
LC-001-002-----0
  6
CONTINUOUS
 62
             7
100
AcDbLine
 10
-80.91644700000001
 20
-37.74516700000001
 11
-80.00017000000001
 21
-37.74516700000001
  0
LINE
  5
6C
100
AcDbEntity
  8
LC-001-002-----0
  6
CONTINUOUS
 62
             7
100
AcDbLine
 10
150.66477199999991
 20
0.0
 11
150.66477199999991
 21
-2.24818600000001
  0
LINE
  5
6B
100
AcDbEntity
  8
LC-001-002-----0
  6
CONTINUOUS
 62
             7
100
AcDbLine
 10
117.96598
 20
-4.534706
 11
110.938784
 21
-7.02968000000002
  0
LINE
  5
6A
100
AcDbEntity
  8
LC-001-002-----0
  6
CONTINUOUS
 62
             7
100
AcDbLine
 10
89.20457999999991
 20
-18.963471
 11
89.20454099999989
 21
-24.04736800000001
  0
LINE
  5
69
100
AcDbEntity
  8
LC-001-002-----0
  6
CONTINUOUS
 62
             7
100
AcDbLine
 10
150.66477199999991
 20
-2.24818600000001
 11
117.96598
 21
-4.534706
  0
LINE
  5
68
100
AcDbEntity
  8
LC-001-002-----0
  6
CONTINUOUS
 62
             7
100
AcDbLine
 10
94.20138600000001
 20
-9.16691900000001
 11
94.20136899999989
 21
-13.02262300000001
  0
LINE
  5
67
100
AcDbEntity
  8
LC-001-002-----0
  6
CONTINUOUS
 62
             7
100
AcDbLine
 10
110.941216
 20
-7.06445000000003
 11
95.1310269999999
 21
-8.170006
  0
LINE
  5
66
100
AcDbEntity
  8
LC-001-002-----0
  6
CONTINUOUS
 62
             7
100
AcDbLine
 10
89.20456799999988
 20
-21.54708400000002
 11
89.204544
 21
-23.31988700000003
  0
LINE
  5
65
100
AcDbEntity
  8
LC-001-002-----0
  6
CONTINUOUS
 62
             7
100
AcDbLine
 10
80.91644599999989
 20
-37.74541700000001
 11
80.00004399999989
 21
-37.74541700000001
  0
LINE
  5
64
100
AcDbEntity
  8
LC-001-002-----0
  6
CONTINUOUS
 62
             7
100
AcDbLine
 10
89.20454099999989
 20
-24.04736800000001
 11
83.69013199999989
 21
-35.88668000000002
  0
LINE
  5
63
100
AcDbEntity
  8
LC-001-002-----0
  6
CONTINUOUS
 62
             7
100
AcDbLine
 10
-89.20458099999991
 20
-18.963471
 11
-89.2045420000001
 21
-24.04736800000001
  0
LINE
  5
62
100
AcDbEntity
  8
LC-001-002-----0
  6
CONTINUOUS
 62
             7
100
AcDbLine
 10
-94.201387
 20
-9.16691900000001
 11
-94.20137
 21
-13.02262300000001
  0
LINE
  5
61
100
AcDbEntity
  8
LC-001-002-----0
  6
CONTINUOUS
 62
             7
100
AcDbLine
 10
-110.94121699999999
 20
-7.06445000000003
 11
-95.1310270000001
 21
-8.170006
  0
LINE
  5
60
100
AcDbEntity
  8
LC-001-002-----0
  6
CONTINUOUS
 62
             7
100
AcDbLine
 10
-117.965981
 20
-4.534706
 11
-110.938785
 21
-7.02968000000002
  0
LINE
  5
5F
100
AcDbEntity
  8
LC-001-002-----0
  6
CONTINUOUS
 62
             7
100
AcDbLine
 10
-150.66477299999991
 20
-2.24818600000001
 11
-117.965981
 21
-4.534706
  0
LINE
  5
5E
100
AcDbEntity
  8
LC-001-002-----0
  6
CONTINUOUS
 62
             7
100
AcDbLine
 10
-150.66477299999991
 20
-2.24818600000001
 11
-150.66477299999991
 21
0.0
  0
LINE
  5
5D
100
AcDbEntity
  8
LC-001-002-----0
  6
CONTINUOUS
 62
             7
100
AcDbLine
 10
-89.2045420000001
 20
-24.04736800000001
 11
-83.690133
 21
-35.88668000000002
  0
LINE
  5
5C
100
AcDbEntity
  8
LC-001-002-----0
  6
CONTINUOUS
 62
             7
100
AcDbLine
 10
80.00004499999989
 20
-37.74541700000001
 11
79.9999959999999
 21
-100.24818349024351
  0
LINE
  5
5B
100
AcDbEntity
  8
LC-001-002-----0
  6
CONTINUOUS
 62
             7
100
AcDbLine
 10
37.49998800000009
 20
-112.2481584902434
 11
37.49998614971619
 21
-117.74530493541459
  0
LINE
  5
5A
100
AcDbEntity
  8
LC-001-002-----0
  6
CONTINUOUS
 62
             7
100
AcDbLine
 10
57.49998800000009
 20
-112.24817149024349
 11
-37.50017
 21
-112.24810974014071
  0
LINE
  5
59
100
AcDbEntity
  8
LC-001-002-----0
  6
CONTINUOUS
 62
             7
100
AcDbLine
 10
-80.00017000000001
 20
-37.74516700000001
 11
-80.00017000000001
 21
-100.2483264902435
  0
LINE
  5
58
100
AcDbEntity
  8
LC-001-002-----0
  6
CONTINUOUS
 62
             7
100
AcDbLine
 10
-37.50017
 20
-112.24810974014071
 11
-37.50017
 21
-117.74530493541459
  0
LINE
  5
57
100
AcDbEntity
  8
LC-001-002-----0
  6
CONTINUOUS
 62
             7
100
AcDbLine
 10
-57.50017
 20
-112.2483264902435
 11
-37.50017
 21
-112.2483264902435
  0
LINE
  5
56
100
AcDbEntity
  8
LC-004-005-----0
  6
CONTINUOUS
 62
             7
100
AcDbLine
 10
73.77114599999982
 20
-110.7698094902435
 11
78.52093999999988
 21
-106.02001649024351
  0
LINE
  5
55
100
AcDbEntity
  8
1
  6
CONTINUOUS
 62
             7
100
AcDbLine
 10
-150.66477299999991
 20
0.0
 11
0.0
 21
0.0
  0
LINE
  5
54
100
AcDbEntity
  8
1
  6
DOT_CENTER
 62
             2
100
AcDbLine
 10
-72.5
 20
3.0
 11
-72.5
 21
6.0
  0
LINE
  5
53
100
AcDbEntity
  8
1
  6
DOT_CENTER
 62
             2
100
AcDbLine
 10
72.50000000000001
 20
6.0
 11
72.50000000000001
 21
3.0
  0
POINT
  5
52
100
AcDbEntity
  8
0
 62
             7
100
AcDbPoint
 10
-68.00017000000001
 20
-112.2483264902435
  0
POINT
  5
51
100
AcDbEntity
  8
0
 62
             7
100
AcDbPoint
 10
-150.66477299999991
 20
-2.24818600000001
  0
POINT
  5
50
100
AcDbEntity
  8
0
 62
             7
100
AcDbPoint
 10
150.66477199999991
 20
0.757192
  0
POINT
  5
4F
100
AcDbEntity
  8
0
 62
             7
100
AcDbPoint
 10
-150.66477299999991
 20
-2.24818600000001
  0
POINT
  5
4E
100
AcDbEntity
  8
0
 62
             7
100
AcDbPoint
 10
79.9999959999999
 20
-100.24818349024351
  0
POINT
  5
4D
100
AcDbEntity
  8
0
 62
             7
100
AcDbPoint
 10
-80.00017000000001
 20
-100.2483264902435
  0
ENDBLK
  5
93
100
AcDbEntity
  8
0
100
AcDbBlockEnd
  0
BLOCK
  5
98
100
AcDbEntity
  8
0
100
AcDbBlockBegin
  2
*D2
 70
             1
 10
0.0
 20
0.0
 30
0.0
  3
*D2
  1

  0
LINE
  5
99
100
AcDbEntity
  8
0
  6
CONTINUOUS
 62
             4
100
AcDbLine
 10
72.50000000000001
 20
16.0
 11
-72.50000000000001
 21
16.0
  0
LINE
  5
9A
100
AcDbEntity
  8
0
  6
CONTINUOUS
 62
             4
100
AcDbLine
 10
-72.50000000000001
 20
6.0
 11
-72.50000000000001
 21
18.0
  0
LINE
  5
9B
100
AcDbEntity
  8
0
  6
CONTINUOUS
 62
             4
100
AcDbLine
 10
72.50000000000001
 20
6.0
 11
72.50000000000001
 21
18.0
  0
SOLID
  5
9C
100
AcDbEntity
  8
0
 62
             4
100
AcDbTrace
 10
62.50000000000001
 20
14.68347502412605
 11
62.50000000000001
 21
17.31652497587396
 12
72.50000000000001
 22
16.0
 13
72.50000000000001
 23
16.0
  0
SOLID
  5
9D
100
AcDbEntity
  8
0
 62
             4
100
AcDbTrace
 10
-62.50000000000001
 20
17.31652497587396
 11
-62.50000000000001
 21
14.68347502412604
 12
-72.50000000000001
 22
16.0
 13
-72.50000000000001
 23
16.0
  0
MTEXT
  5
9F
100
AcDbEntity
  8
0
 62
             1
100
AcDbMText
 10
-34.20417331941131
 20
17.99998012263907
 30
0.0
 40
10.0
 41
0.0
 71
             7
 72
             1
  1
\C1;Ø\C1;145
  7
CONVERTER_1
 11
0.99999999999706
 21
0.00000242406841
 31
0.0
  0
ENDBLK
  5
A0
100
AcDbEntity
  8
0
100
AcDbBlockEnd
  0
BLOCK
  5
A4
100
AcDbEntity
  8
0
100
AcDbBlockBegin
  2
*D3
 70
             1
 10
0.0
 20
0.0
 30
0.0
  3
*D3
  1

  0
LINE
  5
A5
100
AcDbEntity
  8
0
  6
CONTINUOUS
 62
             4
100
AcDbLine
 10
-49.0001700000002
 20
-271.52503471379362
 11
60.99983000000009
 21
-271.52503471379362
  0
LINE
  5
A6
100
AcDbEntity
  8
0
  6
CONTINUOUS
 62
             4
100
AcDbLine
 10
60.99983000000009
 20
-206.24530493541465
 11
60.99983000000009
 21
-273.52503471379362
  0
LINE
  5
A7
100
AcDbEntity
  8
0
  6
CONTINUOUS
 62
             4
100
AcDbLine
 10
-49.0001700000002
 20
-206.24530493541465
 11
-49.0001700000002
 21
-273.52503471379362
  0
SOLID
  5
A8
100
AcDbEntity
  8
0
 62
             4
100
AcDbTrace
 10
-39.0001700000002
 20
-270.20850973791966
 11
-39.0001700000002
 21
-272.84155968966758
 12
-49.0001700000002
 22
-271.52503471379362
 13
-49.0001700000002
 23
-271.52503471379362
  0
SOLID
  5
A9
100
AcDbEntity
  8
0
 62
             4
100
AcDbTrace
 10
50.99983000000009
 20
-272.84155968966758
 11
50.99983000000009
 21
-270.20850973791966
 12
60.99983000000009
 22
-271.52503471379362
 13
60.99983000000009
 23
-271.52503471379362
  0
MTEXT
  5
AA
100
AcDbEntity
  8
0
 62
             1
100
AcDbMText
 10
6.26002417016509
 20
-269.52507446851547
 30
0.0
 40
10.0
 41
0.0
 71
             7
 72
             1
  1
\C1;DN\C1;110
  7
CONVERTER_1
 11
0.99999999999706
 21
0.00000242406841
 31
0.0
  0
ENDBLK
  5
AB
100
AcDbEntity
  8
0
100
AcDbBlockEnd
  0
BLOCK
  5
AF
100
AcDbEntity
  8
0
100
AcDbBlockBegin
  2
*D4
 70
             1
 10
0.0
 20
0.0
 30
0.0
  3
*D4
  1

  0
LINE
  5
B0
100
AcDbEntity
  8
0
  6
CONTINUOUS
 62
             4
100
AcDbLine
 10
-80.00017000000001
 20
-288.42702731263529
 11
79.99999599999993
 21
-288.42702731263529
  0
LINE
  5
B1
100
AcDbEntity
  8
0
  6
CONTINUOUS
 62
             4
100
AcDbLine
 10
79.99999599999993
 20
-100.24818349024349
 11
79.99999599999993
 21
-290.42702731263529
  0
LINE
  5
B2
100
AcDbEntity
  8
0
  6
CONTINUOUS
 62
             4
100
AcDbLine
 10
-80.00017000000001
 20
-100.2483264902435
 11
-80.00017000000001
 21
-290.42702731263529
  0
SOLID
  5
B3
100
AcDbEntity
  8
0
 62
             4
100
AcDbTrace
 10
-70.00017000000001
 20
-287.11050233676133
 11
-70.00017000000001
 21
-289.74355228850925
 12
-80.00017000000001
 22
-288.42702731263529
 13
-80.00017000000001
 23
-288.42702731263529
  0
SOLID
  5
B4
100
AcDbEntity
  8
0
 62
             4
100
AcDbTrace
 10
69.99999599999993
 20
-289.74355228850925
 11
69.99999599999993
 21
-287.11050233676133
 12
79.99999599999993
 22
-288.42702731263529
 13
79.99999599999993
 23
-288.42702731263529
  0
MTEXT
  5
B5
100
AcDbEntity
  8
0
 62
             1
100
AcDbMText
 10
-36.51365339507088
 20
-286.42704718999619
 30
0.0
 40
10.0
 41
0.0
 71
             7
 72
             1
  1
\C1;Ø\C1;160
  7
CONVERTER_1
 11
0.99999999999706
 21
0.00000242406841
 31
0.0
  0
ENDBLK
  5
B6
100
AcDbEntity
  8
0
100
AcDbBlockEnd
  0
BLOCK
  5
BA
100
AcDbEntity
  8
0
100
AcDbBlockBegin
  2
*D5
 70
             1
 10
0.0
 20
0.0
 30
0.0
  3
*D5
  1

  0
LINE
  5
BB
100
AcDbEntity
  8
0
  6
CONTINUOUS
 62
             4
100
AcDbLine
 10
-37.50017
 20
-253.68065791293671
 11
37.49995299999998
 21
-253.68065791293671
  0
LINE
  5
BC
100
AcDbEntity
  8
0
  6
CONTINUOUS
 62
             4
100
AcDbLine
 10
37.49995299999998
 20
-218.55467090650268
 11
37.49995299999998
 21
-255.68065791293671
  0
LINE
  5
BD
100
AcDbEntity
  8
0
  6
CONTINUOUS
 62
             4
100
AcDbLine
 10
-37.50017
 20
-217.90749361107771
 11
-37.50017
 21
-255.68065791293671
  0
SOLID
  5
BE
100
AcDbEntity
  8
0
 62
             4
100
AcDbTrace
 10
-27.50017
 20
-252.36413293706275
 11
-27.50017
 21
-254.99718288881067
 12
-37.50017
 22
-253.68065791293671
 13
-37.50017
 23
-253.68065791293671
  0
SOLID
  5
BF
100
AcDbEntity
  8
0
 62
             4
100
AcDbTrace
 10
27.49995299999998
 20
-254.99718288881067
 11
27.49995299999998
 21
-252.36413293706275
 12
37.49995299999998
 22
-253.68065791293671
 13
37.49995299999998
 23
-253.68065791293671
  0
MTEXT
  5
C0
100
AcDbEntity
  8
0
 62
             1
100
AcDbMText
 10
-12.55511249542491
 20
-251.68069766765856
 30
0.0
 40
10.0
 41
0.0
 71
             7
 72
             1
  1
\C1;DN\C1;75
  7
CONVERTER_1
 11
0.99999999999706
 21
0.00000242406841
 31
0.0
  0
ENDBLK
  5
C1
100
AcDbEntity
  8
0
100
AcDbBlockEnd
  0
BLOCK
  5
C5
100
AcDbEntity
  8
0
100
AcDbBlockBegin
  2
*D6
 70
             1
 10
0.0
 20
0.0
 30
0.0
  3
*D6
  1

  0
LINE
  5
C6
100
AcDbEntity
  8
0
  6
CONTINUOUS
 62
             4
100
AcDbLine
 10
-25.00017
 20
-233.9145789950646
 11
24.99995799999988
 21
-233.9145789950646
  0
LINE
  5
C7
100
AcDbEntity
  8
0
  6
CONTINUOUS
 62
             4
100
AcDbLine
 10
24.99995799999988
 20
-217.90749361107765
 11
24.99995799999988
 21
-235.9145789950646
  0
LINE
  5
C8
100
AcDbEntity
  8
0
  6
CONTINUOUS
 62
             4
100
AcDbLine
 10
-25.00017
 20
-218.55467090650262
 11
-25.00017
 21
-235.9145789950646
  0
SOLID
  5
C9
100
AcDbEntity
  8
0
 62
             4
100
AcDbTrace
 10
-15.00017
 20
-232.59805401919064
 11
-15.00017
 21
-235.23110397093856
 12
-25.00017
 22
-233.9145789950646
 13
-25.00017
 23
-233.9145789950646
  0
SOLID
  5
CA
100
AcDbEntity
  8
0
 62
             4
100
AcDbTrace
 10
14.99995799999988
 20
-235.23110397093856
 11
14.99995799999988
 21
-232.59805401919064
 12
24.99995799999988
 22
-233.9145789950646
 13
24.99995799999988
 23
-233.9145789950646
  0
MTEXT
  5
CB
100
AcDbEntity
  8
0
 62
             1
100
AcDbMText
 10
-12.03913393812913
 20
-231.91461874978646
 30
0.0
 40
10.0
 41
0.0
 71
             7
 72
             1
  1
\C1;DN\C1;50
  7
CONVERTER_1
 11
0.99999999999706
 21
0.00000242406841
 31
0.0
  0
ENDBLK
  5
CC
100
AcDbEntity
  8
0
100
AcDbBlockEnd
  0
BLOCK
  5
D0
100
AcDbEntity
  8
0
100
AcDbBlockBegin
  2
*D7
 70
             1
 10
0.0
 20
0.0
 30
0.0
  3
*D7
  1

  0
LINE
  5
D1
100
AcDbEntity
  8
0
  6
CONTINUOUS
 62
             4
100
AcDbLine
 10
-160.66477299999991
 20
-112.24832649024347
 11
-160.66477299999991
 21
-2.24818600000001
  0
LINE
  5
D2
100
AcDbEntity
  8
0
  6
CONTINUOUS
 62
             4
100
AcDbLine
 10
-150.66477299999991
 20
-2.24818600000001
 11
-162.66477299999991
 21
-2.24818600000001
  0
LINE
  5
D3
100
AcDbEntity
  8
0
  6
CONTINUOUS
 62
             4
100
AcDbLine
 10
-57.50017000000001
 20
-112.24832649024347
 11
-162.66477299999991
 21
-112.24832649024347
  0
SOLID
  5
D4
100
AcDbEntity
  8
0
 62
             4
100
AcDbTrace
 10
-161.98129797587387
 20
-102.24832649024347
 11
-159.34824802412595
 21
-102.24832649024347
 12
-160.66477299999991
 22
-112.24832649024347
 13
-160.66477299999991
 23
-112.24832649024347
  0
SOLID
  5
D5
100
AcDbEntity
  8
0
 62
             4
100
AcDbTrace
 10
-159.34824802412595
 20
-12.24818600000001
 11
-161.98129797587387
 21
-12.24818600000001
 12
-160.66477299999991
 22
-2.24818600000001
 13
-160.66477299999991
 23
-2.24818600000001
  0
MTEXT
  5
D6
100
AcDbEntity
  8
0
 62
             1
100
AcDbMText
 10
-162.66477299999991
 20
-66.3092394474738
 30
0.0
 40
10.0
 41
0.0
 71
             7
 72
             1
  1
110
  7
CONVERTER_1
 11
0.0
 21
1.0
 31
0.0
  0
ENDBLK
  5
D7
100
AcDbEntity
  8
0
100
AcDbBlockEnd
  0
BLOCK
  5
DB
100
AcDbEntity
  8
0
100
AcDbBlockBegin
  2
*D8
 70
             1
 10
0.0
 20
0.0
 30
0.0
  3
*D8
  1

  0
LINE
  5
DC
100
AcDbEntity
  8
0
  6
CONTINUOUS
 62
             4
100
AcDbLine
 10
-150.66477299999988
 20
32.387147603486
 11
150.66477199999991
 21
32.387147603486
  0
LINE
  5
DD
100
AcDbEntity
  8
0
  6
CONTINUOUS
 62
             4
100
AcDbLine
 10
150.66477199999991
 20
0.0
 11
150.66477199999991
 21
34.387147603486
  0
LINE
  5
DE
100
AcDbEntity
  8
0
  6
CONTINUOUS
 62
             4
100
AcDbLine
 10
-150.66477299999988
 20
0.0
 11
-150.66477299999988
 21
34.387147603486
  0
SOLID
  5
DF
100
AcDbEntity
  8
0
 62
             4
100
AcDbTrace
 10
-140.66477299999988
 20
33.70367257935996
 11
-140.66477299999988
 21
31.07062262761204
 12
-150.66477299999988
 22
32.387147603486
 13
-150.66477299999988
 23
32.387147603486
  0
SOLID
  5
E0
100
AcDbEntity
  8
0
 62
             4
100
AcDbTrace
 10
140.66477199999991
 20
31.07062262761204
 11
140.66477199999991
 21
33.70367257935996
 12
150.66477199999991
 22
32.387147603486
 13
150.66477199999991
 23
32.387147603486
  0
MTEXT
  5
E1
100
AcDbEntity
  8
0
 62
             1
100
AcDbMText
 10
9.60794472521189
 20
34.38712772612507
 30
0.0
 40
10.0
 41
0.0
 71
             7
 72
             1
  1
\C1;Ø\C1;300
  7
CONVERTER_1
 11
0.99999999999706
 21
0.00000242406841
 31
0.0
  0
ENDBLK
  5
E2
100
AcDbEntity
  8
0
100
AcDbBlockEnd
  0
ENDSEC
  0
SECTION
  2
ENTITIES
  0
DIMENSION
  5
E4
100
AcDbEntity
  8
1
100
AcDbDimension
  2
*D8
 10
-150.66477299999988
 20
32.387147603486
 11
23.8079447251878
 21
39.387147603486
 31
0.0
 53
0.00013888888889
  1
Ø300
  3
ME10_DIM_6
100
AcDbAlignedDimension
 13
150.66477199999991
 23
0.0
 14
-150.66477299999991
 24
0.0
100
AcDbRotatedDimension
  0
DIMENSION
  5
D9
100
AcDbEntity
  8
1
100
AcDbDimension
  2
*D7
 10
-160.66477299999991
 20
-112.24832649024347
 11
-167.66477299999991
 21
-57.3092394474738
 31
0.0
 53
90.00000000000003
  1
<>
  3
ME10_DIM_5
100
AcDbAlignedDimension
 13
-150.66477299999991
 23
-2.24818600000001
 14
-57.50017
 24
-112.2483264902435
 50
90.00000000000003
100
AcDbRotatedDimension
  0
DIMENSION
  5
CE
100
AcDbEntity
  8
1
100
AcDbDimension
  2
*D6
 10
-25.00017
 20
-233.9145789950646
 11
0.86086606182269
 21
-226.9145789950646
 31
0.0
 53
0.00013888888889
  1
<>
  3
ME10_DIM_4
100
AcDbAlignedDimension
 13
24.99995799999988
 23
-217.90749361107771
 14
-25.00017
 24
-218.55467090650259
100
AcDbRotatedDimension
  0
DIMENSION
  5
C3
100
AcDbEntity
  8
1
100
AcDbDimension
  2
*D5
 10
-37.50017
 20
-253.68065791293671
 11
0.34488750452691
 21
-246.68065791293671
 31
0.0
 53
0.00013888888889
  1
<>
  3
ME10_DIM_3
100
AcDbAlignedDimension
 13
37.49995299999998
 23
-218.55467090650259
 14
-37.50017
 24
-217.90749361107771
100
AcDbRotatedDimension
  0
DIMENSION
  5
B8
100
AcDbEntity
  8
1
100
AcDbDimension
  2
*D4
 10
-80.00017000000001
 20
-288.42702731263529
 11
-23.81365339509497
 21
-281.42702731263529
 31
0.0
 53
180.0
  1
<>
  3
ME10_DIM_2
100
AcDbAlignedDimension
 13
79.9999959999999
 23
-100.24818349024351
 14
-80.00017000000001
 24
-100.2483264902435
 50
180.0
100
AcDbRotatedDimension
  0
DIMENSION
  5
AD
100
AcDbEntity
  8
1
100
AcDbDimension
  2
*D3
 10
-49.0001700000002
 20
-271.52503471379362
 11
20.66002417011691
 21
-264.52503471379362
 31
0.0
 53
180.0
  1
<>
  3
ME10_DIM_1
100
AcDbAlignedDimension
 13
60.99983000000009
 23
-206.24530493541471
 14
-49.0001700000002
 24
-206.24530493541471
 50
180.0
100
AcDbRotatedDimension
  0
DIMENSION
  5
A2
100
AcDbEntity
  8
1
100
AcDbDimension
  2
*D2
 10
72.50000000000001
 20
16.0
 11
-21.5041733194354
 21
23.0
 31
0.0
 53
0.00013888888889
  1
<>
  3
ME10_DIM_0
100
AcDbAlignedDimension
 13
-72.5
 23
6.0
 14
72.50000000000001
 24
6.0
100
AcDbRotatedDimension
  0
XLINE
  5
96
100
AcDbEntity
  8
1
  6
DOT_CENTER
 62
             3
 60
             1
100
AcDbXline
 10
508.50638500000002
 20
302.11790999999999
 30
0.0
 11
1.0
 21
0.0
 31
0.0
  0
POINT
  5
95
100
AcDbEntity
  8
1
 62
             3
 60
             1
100
AcDbPoint
 10
508.50638500000002
 20
302.11790999999999
  0
INSERT
  5
2F
100
AcDbEntity
  8
1
100
AcDbBlockReference
  2
0317_4E_REDUKTION
 10
-49.0001700000002
 20
-273.52503471379362
  0
INSERT
  5
30
100
AcDbEntity
  8
1
100
AcDbBlockReference
  2
HL_317K_BODENABLAUFK_RR__1
 10
16.90084582327913
 20
-286.4119917242848
  0
ENDSEC
  0
SECTION
  2
OBJECTS
  0
DICTIONARY
  5
19
100
AcDbDictionary
  3
ACAD_GROUP
350
1A
  3
ACAD_MLINESTYLE
350
1B
  0
DICTIONARY
  5
1A
102
{ACAD_REACTORS
330
19
102
}
100
AcDbDictionary
  0
DICTIONARY
  5
1B
102
{ACAD_REACTORS
330
19
102
}
100
AcDbDictionary
  3
STANDARD
350
1C
  0
MLINESTYLE
  5
1C
102
{ACAD_REACTORS
330
1B
102
}
100
AcDbMlineStyle
  2
STANDARD
 70
             0
  3

 62
             0
 51
90.0
 52
90.0
 71
             2
 49
0.5
 62
           256
  6
BYLAYER
 49
-0.5
 62
           256
  6
BYLAYER
  0
ENDSEC
  0
EOF
