  0
SECTION
  2
HEADER
  9
$ACADVER
  1
AC1014
  9
$ACADMAINTVER
 70
             0
  9
$DWGCODEPAGE
  3
ANSI_1252
  9
$INSBASE
 10
0.0
 20
0.0
 30
0.0
  9
$EXTMIN
 10
-172.664725408198
 20
-290.4288878223918
 30
0.0
  9
$EXTMAX
 10
150.6648195918018
 20
112.026120640822
 30
0.0
  9
$LIMMIN
 10
0.0
 20
0.0
  9
$LIMMAX
 10
0.0
 20
0.0
  9
$ORTHOMODE
 70
             0
  9
$REGENMODE
 70
             1
  9
$FILLMODE
 70
             1
  9
$QTEXTMODE
 70
             0
  9
$MIRRTEXT
 70
             1
  9
$DRAGMODE
 70
             2
  9
$LTSCALE
 40
1.0
  9
$OSMODE
 70
             0
  9
$ATTMODE
 70
             1
  9
$TEXTSIZE
 40
0.2
  9
$TRACEWID
 40
0.05
  9
$TEXTSTYLE
  7
STANDARD
  9
$CLAYER
  8
0
  9
$CELTYPE
  6
CONTINUOUS
  9
$CECOLOR
 62
           256
  9
$CELTSCALE
 40
1.0
  9
$DELOBJ
 70
             1
  9
$DISPSILH
 70
             0
  9
$DIMSCALE
 40
1.0
  9
$DIMASZ
 40
0.18
  9
$DIMEXO
 40
0.0625
  9
$DIMDLI
 40
0.38
  9
$DIMRND
 40
0.0
  9
$DIMDLE
 40
0.0
  9
$DIMEXE
 40
0.18
  9
$DIMTP
 40
0.0
  9
$DIMTM
 40
0.0
  9
$DIMTXT
 40
0.18
  9
$DIMCEN
 40
0.09
  9
$DIMTSZ
 40
0.0
  9
$DIMTOL
 70
             0
  9
$DIMLIM
 70
             0
  9
$DIMTIH
 70
             1
  9
$DIMTOH
 70
             1
  9
$DIMSE1
 70
             0
  9
$DIMSE2
 70
             0
  9
$DIMTAD
 70
             0
  9
$DIMZIN
 70
             0
  9
$DIMBLK
  1

  9
$DIMASO
 70
             1
  9
$DIMSHO
 70
             1
  9
$DIMPOST
  1

  9
$DIMAPOST
  1

  9
$DIMALT
 70
             0
  9
$DIMALTD
 70
             2
  9
$DIMALTF
 40
25.4
  9
$DIMLFAC
 40
1.0
  9
$DIMTOFL
 70
             0
  9
$DIMTVP
 40
0.0
  9
$DIMTIX
 70
             0
  9
$DIMSOXD
 70
             0
  9
$DIMSAH
 70
             0
  9
$DIMBLK1
  1

  9
$DIMBLK2
  1

  9
$DIMSTYLE
  2
STANDARD
  9
$DIMCLRD
 70
             0
  9
$DIMCLRE
 70
             0
  9
$DIMCLRT
 70
             0
  9
$DIMTFAC
 40
1.0
  9
$DIMGAP
 40
0.09
  9
$DIMJUST
 70
             0
  9
$DIMSD1
 70
             0
  9
$DIMSD2
 70
             0
  9
$DIMTOLJ
 70
             1
  9
$DIMTZIN
 70
             0
  9
$DIMALTZ
 70
             0
  9
$DIMALTTZ
 70
             0
  9
$DIMFIT
 70
             3
  9
$DIMUPT
 70
             0
  9
$DIMUNIT
 70
             2
  9
$DIMDEC
 70
             4
  9
$DIMTDEC
 70
             4
  9
$DIMALTU
 70
             2
  9
$DIMALTTD
 70
             2
  9
$DIMTXSTY
  7
STANDARD
  9
$DIMAUNIT
 70
             0
  9
$LUNITS
 70
             2
  9
$LUPREC
 70
             4
  9
$SKETCHINC
 40
0.1
  9
$FILLETRAD
 40
0.0
  9
$AUNITS
 70
             0
  9
$AUPREC
 70
             0
  9
$MENU
  1
acad
  9
$ELEVATION
 40
0.0
  9
$PELEVATION
 40
0.0
  9
$THICKNESS
 40
0.0
  9
$LIMCHECK
 70
             0
  9
$BLIPMODE
 70
             1
  9
$CHAMFERA
 40
0.0
  9
$CHAMFERB
 40
0.0
  9
$CHAMFERC
 40
0.0
  9
$CHAMFERD
 40
0.0
  9
$SKPOLY
 70
             0
  9
$TDCREATE
 40
0.000000000
  9
$TDUPDATE
 40
0.000000000
  9
$TDINDWG
 40
0.0000000000
  9
$TDUSRTIMER
 40
0.0000000000
  9
$USRTIMER
 70
             1
  9
$ANGBASE
 50
0.0
  9
$ANGDIR
 70
             0
  9
$PDMODE
 70
             0
  9
$PDSIZE
 40
0.0
  9
$PLINEWID
 40
0.0
  9
$COORDS
 70
             0
  9
$SPLFRAME
 70
             0
  9
$SPLINETYPE
 70
             6
  9
$SPLINESEGS
 70
             8
  9
$ATTDIA
 70
             0
  9
$ATTREQ
 70
             1
  9
$HANDLING
 70
             1
  9
$HANDSEED
  5
F9
  9
$SURFTAB1
 70
             6
  9
$SURFTAB2
 70
             6
  9
$SURFTYPE
 70
             6
  9
$SURFU
 70
             6
  9
$SURFV
 70
             6
  9
$UCSNAME
  2

  9
$UCSORG
 10
0.0
 20
0.0
 30
0.0
  9
$UCSXDIR
 10
1.0
 20
0.0
 30
0.0
  9
$UCSYDIR
 10
0.0
 20
1.0
 30
0.0
  9
$PUCSNAME
  2

  9
$PUCSORG
 10
0.0
 20
0.0
 30
0.0
  9
$PUCSXDIR
 10
1.0
 20
0.0
 30
0.0
  9
$PUCSYDIR
 10
0.0
 20
1.0
 30
0.0
  9
$USERI1
 70
             0
  9
$USERI2
 70
             0
  9
$USERI3
 70
             0
  9
$USERI4
 70
             0
  9
$USERI5
 70
             0
  9
$USERR1
 40
12.01
  9
$USERR2
 40
0.0
  9
$USERR3
 40
0.0
  9
$USERR4
 40
0.0
  9
$USERR5
 40
0.0
  9
$WORLDVIEW
 70
             1
  9
$SHADEDGE
 70
             3
  9
$SHADEDIF
 70
            70
  9
$TILEMODE
 70
             1
  9
$MAXACTVP
 70
            16
  9
$PINSBASE
 10
0.0
 20
0.0
 30
0.0
  9
$PLIMCHECK
 70
             0
  9
$PEXTMIN
 10
1.00000000000000E+20
 20
1.00000000000000E+20
 30
1.00000000000000E+20
  9
$PEXTMAX
 10
-1.00000000000000E+20
 20
-1.00000000000000E+20
 30
-1.00000000000000E+20
  9
$PLIMMIN
 10
0.0
 20
0.0
  9
$PLIMMAX
 10
12.0
 20
9.0
  9
$UNITMODE
 70
             0
  9
$VISRETAIN
 70
             0
  9
$PLINEGEN
 70
             1
  9
$PSLTSCALE
 70
             0
  9
$TREEDEPTH
 70
          3020
  9
$PICKSTYLE
 70
             1
  9
$CMLSTYLE
  2
STANDARD
  9
$CMLJUST
 70
             0
  9
$CMLSCALE
 40
1.0
  9
$PROXYGRAPHICS
 70
             0
  9
$MEASUREMENT
 70
             1
  0
ENDSEC
  0
SECTION
  2
CLASSES
  0
CLASS
  1
LWPOLYLINE
  2
AcDbPolyline
  3
"AutoCAD"
 90
        0
280
             0
281
             1
  0
CLASS
  1
IMAGE
  2
AcDbRasterImage
  3
ISM
 90
      127
280
             0
281
             1
  0
CLASS
  1
OLE2FRAME
  2
AcDbOle2Frame
  3
""
 90
        0
280
             0
281
             1
  0
CLASS
  1
HATCH
  2
AcDbHatch
  3
"ACAD_SEDONA"
 90
        0
280
             0
281
             1
  0
CLASS
  1
DICTIONARYVAR
  2
AcDbDictionaryVar
  3
"AutoCAD"
 90
        0
280
             0
281
             0
  0
CLASS
  1
RASTERVARIABLES
  2
AcDbRasterVariables
  3
ISM
 90
        0
280
             0
281
             0
  0
CLASS
  1
IMAGEDEF
  2
AcDbRasterImageDef
  3
ISM
 90
        0
280
             0
281
             0
  0
CLASS
  1
IMAGEDEF_REACTOR
  2
AcDbRasterImageDefReactor
  3
ISM
 90
        1
280
             0
281
             0
  0
CLASS
  1
IDBUFFER
  2
AcDbIdBuffer
  3
"Acad"
 90
        0
280
             0
281
             0
  0
CLASS
  1
SPATIAL_FILTER
  2
AcDbSpatialFilter
  3
"Acad"
 90
        0
280
             0
281
             0
  0
CLASS
  1
XRECORD
  2
AcDbXrecord
  3
"<Built In>"
 90
        0
280
             0
281
             0
  0
CLASS
  1
SORTENTSTABLE
  2
AcDbSortentsTable
  3
"AutoCAD"
 90
        0
280
             0
281
             0
  0
CLASS
  1
LAYER_INDEX
  2
AcDbLayerIndex
  3
"Acad"
 90
        0
280
             0
281
             0
  0
CLASS
  1
SPATIAL_INDEX
  2
AcDbSpatialIndex
  3
"Acad"
 90
        0
280
             0
281
             0
  0
CLASS
  1
OBJECT_PTR
  2
CAseDLPNTableRecord
  3
"ASE-LPNTableRecord"
 90
        1
280
             0
281
             0
  0
CLASS
  1
LAYOUT
  2
AcDbLayout
  3
"AutoCAD 2000"
 90
        0
280
             0
281
             0
  0
CLASS
  1
PLOTSETTINGS
  2
AcDbPlotSettings
  3
"AutoCAD 2000"
 90
        0
280
             0
281
             0
  0
CLASS
  1
ACDBDICTIONARYWDFLT
  2
AcDbDictionaryWithDefault
  3
"AutoCAD 2000"
 90
        0
280
             0
281
             0
  0
CLASS
  1
ACDBPLACEHOLDER
  2
AcDbPlaceHolder
  3
"AutoCAD 2000"
 90
        0
280
             0
281
             0
  0
ENDSEC
  0
SECTION
  2
TABLES
  0
TABLE
  2
VPORT
  5
7
100
AcDbSymbolTable
 70
             1
  0
VPORT
  5
15
100
AcDbSymbolTableRecord
100
AcDbViewportTableRecord
  2
*ACTIVE
 70
             0
 10
0.0
 20
0.0
 11
1.0
 21
1.0
 12
-10.9999529081981
 22
-89.2013835907849
 13
0.0
 23
0.0
 14
1.0
 24
1.0
 15
0.0
 25
0.0
 16
0.0
 26
0.0
 36
1.0
 17
0.0
 27
0.0
 37
0.0
 40
442.70050930953522
 41
1.60267857142857
 42
50.0
 43
0.0
 44
0.0
 50
0.0
 51
0.0
 71
             0
 72
           100
 73
             1
 74
             1
 75
             0
 76
             0
 77
             0
 78
             0
  0
ENDTAB
  0
TABLE
  2
LTYPE
  5
4
100
AcDbSymbolTable
 70
            11
  0
LTYPE
  5
11
100
AcDbSymbolTableRecord
100
AcDbLinetypeTableRecord
  2
BYBLOCK
 70
            64
  3

 72
            65
 73
             0
 40
0.0
  0
LTYPE
  5
12
100
AcDbSymbolTableRecord
100
AcDbLinetypeTableRecord
  2
BYLAYER
 70
            64
  3

 72
            65
 73
             0
 40
0.0
  0
LTYPE
  5
13
100
AcDbSymbolTableRecord
100
AcDbLinetypeTableRecord
  2
CONTINUOUS
 70
            64
  3
Solid line
 72
            65
 73
             0
 40
0.0
  0
LTYPE
  5
1D
100
AcDbSymbolTableRecord
100
AcDbLinetypeTableRecord
  2
DASHED
 70
            64
  3
Dashed
 72
            65
 73
             2
 40
15.0
 49
7.0
 74
             0
 49
-8.0
 74
             0
  0
LTYPE
  5
1E
100
AcDbSymbolTableRecord
100
AcDbLinetypeTableRecord
  2
DOTTED
 70
            64
  3
Dotted
 72
            65
 73
             2
 40
1.0
 49
0.0
 74
             0
 49
-1.0
 74
             0
  0
LTYPE
  5
1F
100
AcDbSymbolTableRecord
100
AcDbLinetypeTableRecord
  2
DOT_CENTER
 70
            64
  3
Dot_Center
 72
            65
 73
             4
 40
14.0
 49
12.0
 74
             0
 49
-1.0
 74
             0
 49
0.0
 74
             0
 49
-1.0
 74
             0
  0
LTYPE
  5
20
100
AcDbSymbolTableRecord
100
AcDbLinetypeTableRecord
  2
LONG_DASHED
 70
            64
  3
Long_Dashed
 72
            65
 73
             2
 40
15.0
 49
10.0
 74
             0
 49
-5.0
 74
             0
  0
LTYPE
  5
21
100
AcDbSymbolTableRecord
100
AcDbLinetypeTableRecord
  2
DASH_CENTER
 70
            64
  3
Dash_Center
 72
            65
 73
             4
 40
14.0
 49
11.0
 74
             0
 49
-1.0
 74
             0
 49
1.0
 74
             0
 49
-1.0
 74
             0
  0
LTYPE
  5
22
100
AcDbSymbolTableRecord
100
AcDbLinetypeTableRecord
  2
PHANTOM
 70
            64
  3
Phantom
 72
            65
 73
             6
 40
13.0
 49
10.0
 74
             0
 49
-1.0
 74
             0
 49
0.0
 74
             0
 49
-1.0
 74
             0
 49
0.0
 74
             0
 49
-1.0
 74
             0
  0
LTYPE
  5
23
100
AcDbSymbolTableRecord
100
AcDbLinetypeTableRecord
  2
CENTER_DASH_DASH
 70
            64
  3
Center_Dash_Dash
 72
            65
 73
             6
 40
14.0
 49
9.0
 74
             0
 49
-1.0
 74
             0
 49
1.0
 74
             0
 49
-1.0
 74
             0
 49
1.0
 74
             0
 49
-1.0
 74
             0
  0
LTYPE
  5
24
100
AcDbSymbolTableRecord
100
AcDbLinetypeTableRecord
  2
DASHDOT
 70
            64
  3
DASHDOT
 72
            65
 73
             4
 40
16.0
 49
10.0
 74
             0
 49
-3.0
 74
             0
 49
0.0
 74
             0
 49
-3.0
 74
             0
  0
ENDTAB
  0
TABLE
  2
LAYER
  5
2
100
AcDbSymbolTable
 70
             6
  0
LAYER
  5
14
100
AcDbSymbolTableRecord
100
AcDbLayerTableRecord
  2
0
 70
             0
 62
             7
  6
CONTINUOUS
  0
LAYER
  5
25
100
AcDbSymbolTableRecord
100
AcDbLayerTableRecord
  2
1
 70
             0
 62
             7
  6
CONTINUOUS
  0
LAYER
  5
26
100
AcDbSymbolTableRecord
100
AcDbLayerTableRecord
  2
LC-001-002-----0
 70
             0
 62
             7
  6
CONTINUOUS
  0
LAYER
  5
27
100
AcDbSymbolTableRecord
100
AcDbLayerTableRecord
  2
LC-002-001-----0
 70
             0
 62
             7
  6
CONTINUOUS
  0
LAYER
  5
28
100
AcDbSymbolTableRecord
100
AcDbLayerTableRecord
  2
LC-003-002-RND-0
 70
             0
 62
             7
  6
CONTINUOUS
  0
LAYER
  5
29
100
AcDbSymbolTableRecord
100
AcDbLayerTableRecord
  2
LC-004-005-----0
 70
             0
 62
             7
  6
CONTINUOUS
  0
ENDTAB
  0
TABLE
  2
STYLE
  5
3
100
AcDbSymbolTable
 70
             2
  0
STYLE
  5
17
100
AcDbSymbolTableRecord
100
AcDbTextStyleTableRecord
  2
STANDARD
 70
             0
 40
0.0
 41
1.0
 50
0.0
 71
             0
 42
0.0
  3
txt
  4

  0
STYLE
  5
A6
100
AcDbSymbolTableRecord
100
AcDbTextStyleTableRecord
  2
CONVERTER_1
 70
             0
 40
0.0
 41
0.9
 50
0.0
 71
             0
 42
0.0
  3
txt.shx
  4

  0
ENDTAB
  0
TABLE
  2
VIEW
  5
5
100
AcDbSymbolTable
 70
             0
  0
ENDTAB
  0
TABLE
  2
UCS
  5
6
100
AcDbSymbolTable
 70
             0
  0
ENDTAB
  0
TABLE
  2
APPID
  5
8
100
AcDbSymbolTable
 70
             1
  0
APPID
  5
16
100
AcDbSymbolTableRecord
100
AcDbRegAppTableRecord
  2
ACAD
 70
             0
  0
ENDTAB
  0
TABLE
  2
DIMSTYLE
  5
9
100
AcDbSymbolTable
 70
             9
  0
DIMSTYLE
105
18
100
AcDbSymbolTableRecord
100
AcDbDimStyleTableRecord
  2
STANDARD
 70
             0
  3

  4

  5

  6

  7

 40
1.0
 41
0.18
 42
0.0625
 43
0.38
 44
0.18
 45
0.0
 46
0.0
 47
0.0
 48
0.0
 71
             0
 72
             0
 73
             1
 74
             1
 75
             0
 76
             0
 77
             0
 78
             0
140
0.18
141
0.09
142
0.0
143
25.4
144
1.0
145
0.0
146
1.0
147
0.09
170
             0
171
             2
172
             0
173
             0
174
             0
175
             0
176
             0
177
             0
178
             0
270
             2
271
             4
272
             4
273
             2
274
             2
275
             0
280
             0
281
             0
282
             0
283
             1
284
             0
285
             0
286
             0
287
             3
288
             0
340
17
  0
DIMSTYLE
105
A9
100
AcDbSymbolTableRecord
100
AcDbDimStyleTableRecord
  2
ME10_DIM_0
 70
             0
  3
20-<>
  4

  5

  6

  7

 40
1.0
 41
10.0
 42
0.0
 43
0.38
 44
2.0
 45
0.0
 46
0.0
 47
0.0
 48
0.0
 71
             0
 72
             0
 73
             0
 74
             0
 75
             0
 76
             0
 77
             1
 78
             8
140
10.0
141
0.09
142
0.0
143
25.4
144
1.0
145
0.0
146
1.0
147
0.625
170
             0
171
             2
172
             1
173
             1
174
             0
175
             0
176
             4
177
             4
178
             1
270
             2
271
             2
272
             4
273
             2
274
             2
275
             0
280
             0
281
             0
282
             0
283
             1
284
             0
285
             0
286
             0
287
             3
288
             0
340
A6
  0
DIMSTYLE
105
B4
100
AcDbSymbolTableRecord
100
AcDbDimStyleTableRecord
  2
ME10_DIM_1
 70
             0
  3
x150
  4

  5

  6

  7

 40
1.0
 41
10.0
 42
0.0
 43
0.38
 44
2.0
 45
0.0
 46
0.0
 47
0.0
 48
0.0
 71
             0
 72
             0
 73
             0
 74
             0
 75
             0
 76
             0
 77
             1
 78
             8
140
10.0
141
0.09
142
0.0
143
25.4
144
1.0
145
0.0
146
1.0
147
0.625
170
             0
171
             2
172
             1
173
             1
174
             0
175
             0
176
             4
177
             4
178
             1
270
             2
271
             2
272
             4
273
             2
274
             2
275
             0
280
             0
281
             0
282
             0
283
             1
284
             0
285
             0
286
             0
287
             3
288
             0
340
A6
  0
DIMSTYLE
105
BF
100
AcDbSymbolTableRecord
100
AcDbDimStyleTableRecord
  2
ME10_DIM_2
 70
             0
  3
Ø<>
  4

  5

  6

  7

 40
1.0
 41
10.0
 42
0.0
 43
0.38
 44
2.0
 45
0.0
 46
0.0
 47
0.0
 48
0.0
 71
             0
 72
             0
 73
             0
 74
             0
 75
             0
 76
             0
 77
             1
 78
             8
140
10.0
141
0.09
142
0.0
143
25.4
144
1.0
145
0.0
146
1.0
147
0.625
170
             0
171
             2
172
             1
173
             1
174
             0
175
             0
176
             4
177
             4
178
             1
270
             2
271
             2
272
             4
273
             2
274
             2
275
             0
280
             0
281
             0
282
             0
283
             1
284
             0
285
             0
286
             0
287
             3
288
             0
340
A6
  0
DIMSTYLE
105
CA
100
AcDbSymbolTableRecord
100
AcDbDimStyleTableRecord
  2
ME10_DIM_3
 70
             0
  3

  4

  5

  6

  7

 40
1.0
 41
10.0
 42
0.0
 43
0.38
 44
2.0
 45
0.0
 46
0.0
 47
0.0
 48
0.0
 71
             0
 72
             0
 73
             0
 74
             0
 75
             0
 76
             0
 77
             1
 78
             8
140
10.0
141
0.09
142
0.0
143
25.4
144
1.0
145
0.0
146
1.0
147
0.625
170
             0
171
             2
172
             1
173
             1
174
             0
175
             0
176
             4
177
             4
178
             1
270
             2
271
             2
272
             4
273
             2
274
             2
275
             0
280
             0
281
             0
282
             0
283
             1
284
             0
285
             0
286
             0
287
             3
288
             0
340
A6
  0
DIMSTYLE
105
D5
100
AcDbSymbolTableRecord
100
AcDbDimStyleTableRecord
  2
ME10_DIM_4
 70
             0
  3
DN<>
  4

  5

  6

  7

 40
1.0
 41
10.0
 42
0.0
 43
0.38
 44
2.0
 45
0.0
 46
0.0
 47
0.0
 48
0.0
 71
             0
 72
             0
 73
             0
 74
             0
 75
             0
 76
             0
 77
             1
 78
             8
140
10.0
141
0.09
142
0.0
143
25.4
144
1.0
145
0.0
146
1.0
147
0.625
170
             0
171
             2
172
             1
173
             1
174
             0
175
             0
176
             4
177
             4
178
             1
270
             2
271
             2
272
             4
273
             2
274
             2
275
             0
280
             0
281
             0
282
             0
283
             1
284
             0
285
             0
286
             0
287
             3
288
             0
340
A6
  0
DIMSTYLE
105
E0
100
AcDbSymbolTableRecord
100
AcDbDimStyleTableRecord
  2
ME10_DIM_5
 70
             0
  3
DN<>
  4

  5

  6

  7

 40
1.0
 41
10.0
 42
0.0
 43
0.38
 44
2.0
 45
0.0
 46
0.0
 47
0.0
 48
0.0
 71
             0
 72
             0
 73
             0
 74
             0
 75
             0
 76
             0
 77
             1
 78
             8
140
10.0
141
0.09
142
0.0
143
25.4
144
1.0
145
0.0
146
1.0
147
0.625
170
             0
171
             2
172
             1
173
             1
174
             0
175
             0
176
             4
177
             4
178
             1
270
             2
271
             2
272
             4
273
             2
274
             2
275
             0
280
             0
281
             0
282
             0
283
             1
284
             0
285
             0
286
             0
287
             3
288
             0
340
A6
  0
DIMSTYLE
105
EB
100
AcDbSymbolTableRecord
100
AcDbDimStyleTableRecord
  2
ME10_DIM_6
 70
             0
  3
DN<>
  4

  5

  6

  7

 40
1.0
 41
10.0
 42
0.0
 43
0.38
 44
2.0
 45
0.0
 46
0.0
 47
0.0
 48
0.0
 71
             0
 72
             0
 73
             0
 74
             0
 75
             0
 76
             0
 77
             1
 78
             8
140
10.0
141
0.09
142
0.0
143
25.4
144
1.0
145
0.0
146
1.0
147
0.625
170
             0
171
             2
172
             1
173
             1
174
             0
175
             0
176
             4
177
             4
178
             1
270
             2
271
             2
272
             4
273
             2
274
             2
275
             0
280
             0
281
             0
282
             0
283
             1
284
             0
285
             0
286
             0
287
             3
288
             0
340
A6
  0
DIMSTYLE
105
F6
100
AcDbSymbolTableRecord
100
AcDbDimStyleTableRecord
  2
ME10_DIM_7
 70
             0
  3
Ø<>
  4

  5

  6

  7

 40
1.0
 41
10.0
 42
0.0
 43
0.38
 44
2.0
 45
0.0
 46
0.0
 47
0.0
 48
0.0
 71
             0
 72
             0
 73
             0
 74
             0
 75
             0
 76
             0
 77
             1
 78
             8
140
10.0
141
0.09
142
0.0
143
25.4
144
1.0
145
0.0
146
1.0
147
0.625
170
             0
171
             2
172
             1
173
             1
174
             0
175
             0
176
             4
177
             4
178
             1
270
             2
271
             2
272
             4
273
             2
274
             2
275
             0
280
             0
281
             0
282
             0
283
             1
284
             0
285
             0
286
             0
287
             3
288
             0
340
A6
  0
ENDTAB
  0
TABLE
  2
BLOCK_RECORD
  5
1
100
AcDbSymbolTable
 70
            11
  0
BLOCK_RECORD
  5
A
100
AcDbSymbolTableRecord
100
AcDbBlockTableRecord
  2
*MODEL_SPACE
  0
BLOCK_RECORD
  5
B
100
AcDbSymbolTableRecord
100
AcDbBlockTableRecord
  2
*PAPER_SPACE
  0
BLOCK_RECORD
  5
2A
100
AcDbSymbolTableRecord
100
AcDbBlockTableRecord
  2
0317_2E_AUFSATZ
  0
BLOCK_RECORD
  5
2C
100
AcDbSymbolTableRecord
100
AcDbBlockTableRecord
  2
HL_317K_K_RPER
  0
BLOCK_RECORD
  5
2E
100
AcDbSymbolTableRecord
100
AcDbBlockTableRecord
  2
0317_4E_REDUKTION
  0
BLOCK_RECORD
  5
9F
100
AcDbSymbolTableRecord
100
AcDbBlockTableRecord
  2
*D3
  0
BLOCK_RECORD
  5
AB
100
AcDbSymbolTableRecord
100
AcDbBlockTableRecord
  2
*D4
  0
BLOCK_RECORD
  5
B6
100
AcDbSymbolTableRecord
100
AcDbBlockTableRecord
  2
*D5
  0
BLOCK_RECORD
  5
C1
100
AcDbSymbolTableRecord
100
AcDbBlockTableRecord
  2
*D6
  0
BLOCK_RECORD
  5
CC
100
AcDbSymbolTableRecord
100
AcDbBlockTableRecord
  2
*D7
  0
BLOCK_RECORD
  5
D7
100
AcDbSymbolTableRecord
100
AcDbBlockTableRecord
  2
*D8
  0
BLOCK_RECORD
  5
E2
100
AcDbSymbolTableRecord
100
AcDbBlockTableRecord
  2
*D9
  0
BLOCK_RECORD
  5
ED
100
AcDbSymbolTableRecord
100
AcDbBlockTableRecord
  2
*D10
  0
ENDTAB
  0
ENDSEC
  0
SECTION
  2
BLOCKS
  0
BLOCK
  5
D
100
AcDbEntity
  8
0
100
AcDbBlockBegin
  2
*MODEL_SPACE
 70
             0
 10
0.0
 20
0.0
 30
0.0
  3
*MODEL_SPACE
  1

  0
ENDBLK
  5
E
100
AcDbEntity
  8
0
100
AcDbBlockEnd
  0
BLOCK
  5
F
100
AcDbEntity
 67
             1
  8
0
100
AcDbBlockBegin
  2
*PAPER_SPACE
 70
             0
 10
0.0
 20
0.0
 30
0.0
  3
*PAPER_SPACE
  1

  0
ENDBLK
  5
10
100
AcDbEntity
 67
             1
  8
0
100
AcDbBlockEnd
  0
BLOCK
  5
2B
100
AcDbEntity
  8
0
100
AcDbBlockBegin
  2
0317_2E_AUFSATZ
 70
             0
 10
92.72877062342013
 20
-183.50968280775851
 30
0.0
  3
0317_2E_AUFSATZ
  1

  0
LINE
  5
43
100
AcDbEntity
  8
LC-001-002-----0
  6
CONTINUOUS
 62
             7
100
AcDbLine
 10
-73.7107026122703
 20
56.49993499999982
 11
-73.7107026122703
 21
51.49993499999982
  0
LINE
  5
42
100
AcDbEntity
  8
LC-001-002-----0
  6
CONTINUOUS
 62
             7
100
AcDbLine
 10
-73.7107026122703
 20
51.49993499999982
 11
-70.38466961227275
 21
51.49993499999982
  0
LINE
  5
41
100
AcDbEntity
  8
LC-001-002-----0
  6
CONTINUOUS
 62
             7
100
AcDbLine
 10
73.76253138772702
 20
56.49999700000262
 11
73.70945438772654
 21
51.49999700000262
  0
LINE
  5
40
100
AcDbEntity
  8
LC-001-002-----0
  6
CONTINUOUS
 62
             7
100
AcDbLine
 10
73.70945438772654
 20
51.49999700000262
 11
70.38459338772921
 21
51.49999899999966
  0
LINE
  5
3F
100
AcDbEntity
  8
LC-001-002-----0
  6
CONTINUOUS
 62
             7
100
AcDbLine
 10
-73.7107026122703
 20
70.0
 11
-73.7107026122703
 21
56.49993499999982
  0
LINE
  5
3E
100
AcDbEntity
  8
LC-001-002-----0
  6
CONTINUOUS
 62
             7
100
AcDbLine
 10
73.70945438772654
 20
70.0
 11
73.70944538772713
 21
56.49999700000262
  0
LINE
  5
3D
100
AcDbEntity
  8
LC-001-002-----0
  6
CONTINUOUS
 62
             7
100
AcDbLine
 10
-73.7107026122703
 20
70.0
 11
73.70945338772984
 21
70.0
  0
LINE
  5
3C
100
AcDbEntity
  8
LC-001-002-----0
  6
CONTINUOUS
 62
             7
100
AcDbLine
 10
-73.7107026122703
 20
58.49993499999982
 11
-73.7107026122703
 21
58.49993499999982
  0
LINE
  5
3B
100
AcDbEntity
  8
LC-001-002-----0
  6
CONTINUOUS
 62
             7
100
AcDbLine
 10
-73.7107026122703
 20
54.49993499999982
 11
-73.7107026122703
 21
54.24134700000286
  0
LINE
  5
3A
100
AcDbEntity
  8
LC-002-001-----0
  6
CONTINUOUS
 62
             7
100
AcDbLine
 10
-73.7107026122703
 20
52.27697700000135
 11
-72.93365961227207
 21
51.49993499999982
  0
LINE
  5
39
100
AcDbEntity
  8
1
  6
CONTINUOUS
 62
             7
100
AcDbLine
 10
-70.38466961227275
 20
51.49993499999982
 11
70.38459338772921
 21
51.49993499999982
  0
LINE
  5
38
100
AcDbEntity
  8
LC-001-002-----0
  6
CONTINUOUS
 62
             7
100
AcDbLine
 10
70.38459338772921
 20
51.49993499999982
 11
70.38459338772921
 21
51.49999800000296
  0
LINE
  5
37
100
AcDbEntity
  8
LC-001-002-----0
  6
CONTINUOUS
 62
             7
100
AcDbLine
 10
70.38457661453325
 20
0.0
 11
70.38459338772921
 21
51.49993499999982
  0
LINE
  5
36
100
AcDbEntity
  8
LC-001-002-----0
  6
CONTINUOUS
 62
             7
100
AcDbLine
 10
-70.38466961227275
 20
-0.00056376108114
 11
-70.38466961227275
 21
51.49993499999982
  0
LINE
  5
35
100
AcDbEntity
  8
1
  6
PHANTOM
 62
             2
100
AcDbLine
 10
-0.00004785574832
 20
-8.17000599999786
 11
-0.00003439665031
 21
74.47884386569743
  0
ENDBLK
  5
44
100
AcDbEntity
  8
0
100
AcDbBlockEnd
  0
BLOCK
  5
2D
100
AcDbEntity
  8
0
100
AcDbBlockBegin
  2
HL_317K_K_RPER
 70
             0
 10
272.33522699999992
 20
-302.43057705118241
 30
0.0
  3
HL_317K_K_RPER
  1

  0
ARC
  5
79
100
AcDbEntity
  8
LC-001-002-----0
  6
CONTINUOUS
 62
             7
100
AcDbCircle
 10
-68.0001224081981
 20
-100.250187
 40
12.0
100
AcDbArc
 50
180.0
 51
-89.99994199999759
  0
ARC
  5
78
100
AcDbEntity
  8
LC-001-002-----0
  6
CONTINUOUS
 62
             7
100
AcDbCircle
 10
68.00004359180181
 20
-100.25003700000001
 40
12.00000000000029
100
AcDbArc
 50
-90.0001889999979
 51
-0.00003700000056
  0
ARC
  5
77
100
AcDbEntity
  8
LC-003-002-RND-0
  6
CONTINUOUS
 62
             7
100
AcDbCircle
 10
-80.91639940819809
 20
-34.746139
 40
2.99902799999996
100
AcDbArc
 50
-157.64751199999631
 51
-90.0
  0
ARC
  5
76
100
AcDbEntity
  8
LC-001-002-----0
  6
CONTINUOUS
 62
             7
100
AcDbCircle
 10
-95.20069140819818
 20
-9.166923
 40
0.99935199999976
100
AcDbArc
 50
0.00025200001873
 51
86.00000299997274
  0
ARC
  5
75
100
AcDbEntity
  8
LC-001-002-----0
  6
CONTINUOUS
 62
             7
100
AcDbCircle
 10
-90.20391340819799
 20
-13.022605
 40
3.99740799999975
100
AcDbArc
 50
-179.9997479999947
 51
-102.29040700000516
  0
ARC
  5
74
100
AcDbEntity
  8
LC-001-002-----0
  6
CONTINUOUS
 62
             7
100
AcDbCircle
 10
-91.20323740819811
 20
-18.96348000000001
 40
1.99870399999972
100
AcDbArc
 50
0.0002670000055
 51
85.82908600001669
  0
ARC
  5
73
100
AcDbEntity
  8
LC-003-002-RND-0
  6
CONTINUOUS
 62
             7
100
AcDbCircle
 10
80.91649359180181
 20
-34.746139
 40
2.99902800000001
100
AcDbArc
 50
-90.0
 51
-22.35248800000453
  0
ARC
  5
72
100
AcDbEntity
  8
LC-001-002-----0
  6
CONTINUOUS
 62
             7
100
AcDbCircle
 10
90.20400759180168
 20
-13.022605
 40
3.99740799999977
100
AcDbArc
 50
-77.70959299999326
 51
-0.00025200000531
  0
ARC
  5
71
100
AcDbEntity
  8
LC-001-002-----0
  6
CONTINUOUS
 62
             7
100
AcDbCircle
 10
95.20078559180169
 20
-9.166923
 40
0.99935199999966
100
AcDbArc
 50
93.99999700001509
 51
179.99974799998128
  0
ARC
  5
70
100
AcDbEntity
  8
LC-001-002-----0
  6
CONTINUOUS
 62
             7
100
AcDbCircle
 10
91.20333159180191
 20
-18.96348000000001
 40
1.99870400000025
100
AcDbArc
 50
94.17091399999308
 51
179.99973299999451
  0
LINE
  5
6F
100
AcDbEntity
  8
LC-001-002-----0
  6
CONTINUOUS
 62
             7
100
AcDbLine
 10
-37.50012240819807
 20
-112.2499702498972
 11
-37.50012240819807
 21
-117.750032
  0
LINE
  5
6E
100
AcDbEntity
  8
LC-001-002-----0
  6
CONTINUOUS
 62
             7
100
AcDbLine
 10
37.50003559180201
 20
-112.25001899999999
 11
37.50003374151812
 21
-117.750032
  0
LINE
  5
6D
100
AcDbEntity
  8
LC-004-005-----0
  6
CONTINUOUS
 62
             7
100
AcDbLine
 10
73.77119359180173
 20
-110.77167
 11
78.5209875918018
 21
-106.021877
  0
LINE
  5
6C
100
AcDbEntity
  8
LC-001-002-----0
  6
CONTINUOUS
 62
             7
100
AcDbLine
 10
-57.50012240819807
 20
-112.250187
 11
-37.50012240819807
 21
-112.250187
  0
LINE
  5
6B
100
AcDbEntity
  8
LC-001-002-----0
  6
CONTINUOUS
 62
             7
100
AcDbLine
 10
-80.0001224081981
 20
-37.74516700000001
 11
-80.0001224081981
 21
-100.250187
  0
LINE
  5
6A
100
AcDbEntity
  8
LC-001-002-----0
  6
CONTINUOUS
 62
             7
100
AcDbLine
 10
57.50003559180201
 20
-112.250032
 11
-37.50012240819807
 21
-112.2499702498972
  0
LINE
  5
69
100
AcDbEntity
  8
LC-001-002-----0
  6
CONTINUOUS
 62
             7
100
AcDbLine
 10
80.0000925918018
 20
-37.74541700000001
 11
80.00004359180181
 21
-100.250044
  0
LINE
  5
68
100
AcDbEntity
  8
LC-001-002-----0
  6
CONTINUOUS
 62
             7
100
AcDbLine
 10
-89.20449440819819
 20
-24.04736800000001
 11
-83.69008540819809
 21
-35.88668000000002
  0
LINE
  5
67
100
AcDbEntity
  8
LC-001-002-----0
  6
CONTINUOUS
 62
             7
100
AcDbLine
 10
-150.664725408198
 20
-2.24818600000001
 11
-150.664725408198
 21
0.0
  0
LINE
  5
66
100
AcDbEntity
  8
LC-001-002-----0
  6
CONTINUOUS
 62
             7
100
AcDbLine
 10
-150.664725408198
 20
-2.24818600000001
 11
-117.9659334081981
 21
-4.534706
  0
LINE
  5
65
100
AcDbEntity
  8
LC-001-002-----0
  6
CONTINUOUS
 62
             7
100
AcDbLine
 10
-117.9659334081981
 20
-4.534706
 11
-110.93873740819809
 21
-7.02968000000002
  0
LINE
  5
64
100
AcDbEntity
  8
LC-001-002-----0
  6
CONTINUOUS
 62
             7
100
AcDbLine
 10
-110.94116940819811
 20
-7.06445000000003
 11
-95.13097940819819
 21
-8.170006
  0
LINE
  5
63
100
AcDbEntity
  8
LC-001-002-----0
  6
CONTINUOUS
 62
             7
100
AcDbLine
 10
-94.20133940819808
 20
-9.16691900000001
 11
-94.20132240819808
 21
-13.02262300000001
  0
LINE
  5
62
100
AcDbEntity
  8
LC-001-002-----0
  6
CONTINUOUS
 62
             7
100
AcDbLine
 10
-89.20453340819799
 20
-18.963471
 11
-89.20449440819819
 21
-24.04736800000001
  0
LINE
  5
61
100
AcDbEntity
  8
LC-001-002-----0
  6
CONTINUOUS
 62
             7
100
AcDbLine
 10
89.20458859180181
 20
-24.04736800000001
 11
83.69017959180181
 21
-35.88668000000002
  0
LINE
  5
60
100
AcDbEntity
  8
LC-001-002-----0
  6
CONTINUOUS
 62
             7
100
AcDbLine
 10
80.91649359180181
 20
-37.74541700000001
 11
80.00009159180181
 21
-37.74541700000001
  0
LINE
  5
5F
100
AcDbEntity
  8
LC-001-002-----0
  6
CONTINUOUS
 62
             7
100
AcDbLine
 10
89.2046155918018
 20
-21.54708400000002
 11
89.20459159180192
 21
-23.31988700000003
  0
LINE
  5
5E
100
AcDbEntity
  8
LC-001-002-----0
  6
CONTINUOUS
 62
             7
100
AcDbLine
 10
110.9412635918019
 20
-7.06445000000003
 11
95.13107459180182
 21
-8.170006
  0
LINE
  5
5D
100
AcDbEntity
  8
LC-001-002-----0
  6
CONTINUOUS
 62
             7
100
AcDbLine
 10
94.20143359180193
 20
-9.16691900000001
 11
94.2014165918018
 21
-13.02262300000001
  0
LINE
  5
5C
100
AcDbEntity
  8
LC-001-002-----0
  6
CONTINUOUS
 62
             7
100
AcDbLine
 10
150.6648195918018
 20
-2.24818600000001
 11
117.9660275918019
 21
-4.534706
  0
LINE
  5
5B
100
AcDbEntity
  8
LC-001-002-----0
  6
CONTINUOUS
 62
             7
100
AcDbLine
 10
89.20462759180182
 20
-18.963471
 11
89.20458859180181
 21
-24.04736800000001
  0
LINE
  5
5A
100
AcDbEntity
  8
LC-001-002-----0
  6
CONTINUOUS
 62
             7
100
AcDbLine
 10
117.9660275918019
 20
-4.534706
 11
110.9388315918019
 21
-7.02968000000002
  0
LINE
  5
59
100
AcDbEntity
  8
LC-001-002-----0
  6
CONTINUOUS
 62
             7
100
AcDbLine
 10
150.6648195918018
 20
0.0
 11
150.6648195918018
 21
-2.24818600000001
  0
LINE
  5
58
100
AcDbEntity
  8
LC-001-002-----0
  6
CONTINUOUS
 62
             7
100
AcDbLine
 10
-80.91639940819809
 20
-37.74516700000001
 11
-80.0001224081981
 21
-37.74516700000001
  0
LINE
  5
57
100
AcDbEntity
  8
LC-001-002-----0
  6
CONTINUOUS
 62
             7
100
AcDbLine
 10
68.00004359180181
 20
-112.250039
 11
57.50003559180201
 21
-112.250032
  0
LINE
  5
56
100
AcDbEntity
  8
LC-001-002-----0
  6
CONTINUOUS
 62
             7
100
AcDbLine
 10
-68.0001224081981
 20
-112.250187
 11
-57.50012240819807
 21
-112.250187
  0
LINE
  5
55
100
AcDbEntity
  8
1
  6
CONTINUOUS
 62
             7
100
AcDbLine
 10
70.38515558527783
 20
0.0
 11
150.6648195918018
 21
0.0
  0
LINE
  5
54
100
AcDbEntity
  8
1
  6
CONTINUOUS
 62
             7
100
AcDbLine
 10
80.00009159180181
 20
-37.74541700000001
 11
-79.99999640819789
 21
-37.74541700000001
  0
LINE
  5
53
100
AcDbEntity
  8
1
  6
CONTINUOUS
 62
             7
100
AcDbLine
 10
89.20458859180181
 20
-24.04736800000001
 11
-89.20449340819779
 21
-24.04736800000001
  0
LINE
  5
52
100
AcDbEntity
  8
1
  6
CONTINUOUS
 62
             7
100
AcDbLine
 10
89.20462759180182
 20
-18.963471
 11
-89.20453240819779
 21
-18.963471
  0
LINE
  5
51
100
AcDbEntity
  8
1
  6
CONTINUOUS
 62
             7
100
AcDbLine
 10
91.05796204326569
 20
-16.97006951192302
 11
-91.0578668596618
 21
-16.97006951192302
  0
LINE
  5
50
100
AcDbEntity
  8
1
  6
CONTINUOUS
 62
             7
100
AcDbLine
 10
95.13107459180182
 20
-8.170006
 11
-95.13097940819819
 21
-8.170006
  0
LINE
  5
4F
100
AcDbEntity
  8
1
  6
CONTINUOUS
 62
             7
100
AcDbLine
 10
-150.664725408198
 20
0.0
 11
70.38515558527783
 21
0.0
  0
LINE
  5
4E
100
AcDbEntity
  8
1
  6
CONTINUOUS
 62
             7
100
AcDbLine
 10
117.9660275918019
 20
-4.534706
 11
-117.9659334081981
 21
-4.534706
  0
LINE
  5
4D
100
AcDbEntity
  8
1
  6
CONTINUOUS
 62
             7
100
AcDbLine
 10
-150.664725408198
 20
-2.24818600000001
 11
150.6648195918018
 21
-2.24818600000001
  0
LINE
  5
4C
100
AcDbEntity
  8
1
  6
CONTINUOUS
 62
             7
100
AcDbLine
 10
110.9412635918019
 20
-7.06445000000003
 11
-110.93873740819809
 21
-7.06445000000003
  0
LINE
  5
4B
100
AcDbEntity
  8
1
  6
PHANTOM
 62
             2
100
AcDbLine
 10
0.00000319082975
 20
8.14047441043971
 11
-0.0000553785892
 21
-141.28236969008969
  0
POINT
  5
4A
100
AcDbEntity
  8
0
 62
             7
100
AcDbPoint
 10
-80.0001224081981
 20
-100.250187
  0
POINT
  5
49
100
AcDbEntity
  8
0
 62
             7
100
AcDbPoint
 10
80.00004359180181
 20
-100.250044
  0
POINT
  5
48
100
AcDbEntity
  8
0
 62
             7
100
AcDbPoint
 10
-150.664725408198
 20
-2.24818600000001
  0
POINT
  5
47
100
AcDbEntity
  8
0
 62
             7
100
AcDbPoint
 10
150.6648195918018
 20
0.757192
  0
POINT
  5
46
100
AcDbEntity
  8
0
 62
             7
100
AcDbPoint
 10
-150.664725408198
 20
-2.24818600000001
  0
POINT
  5
45
100
AcDbEntity
  8
0
 62
             7
100
AcDbPoint
 10
-68.0001224081981
 20
-112.250187
  0
ENDBLK
  5
7A
100
AcDbEntity
  8
0
100
AcDbBlockEnd
  0
BLOCK
  5
2F
100
AcDbEntity
  8
0
100
AcDbBlockBegin
  2
0317_4E_REDUKTION
 70
             0
 10
272.33522700000009
 20
-302.43057705118241
 30
0.0
  3
0317_4E_REDUKTION
  1

  0
ARC
  5
9A
100
AcDbEntity
  8
LC-003-002-RND-0
  6
CONTINUOUS
 62
             7
100
AcDbCircle
 10
-47.00012240819819
 20
-138.250032
 40
2.0
100
AcDbArc
 50
90.0
 51
180.0
  0
ARC
  5
99
100
AcDbEntity
  8
LC-003-002-RND-0
  6
CONTINUOUS
 62
             7
100
AcDbCircle
 10
58.99987759180201
 20
-138.250032
 40
2.0
100
AcDbArc
 50
0.0
 51
90.0
  0
ARC
  5
98
100
AcDbEntity
  8
LC-003-002-RND-0
  6
CONTINUOUS
 62
             7
100
AcDbCircle
 10
39.39987759180201
 20
-127.3211
 40
5.0
100
AcDbArc
 50
0.0
 51
45.0000000000007
  0
ARC
  5
97
100
AcDbEntity
  8
LC-003-002-RND-0
  6
CONTINUOUS
 62
             7
100
AcDbCircle
 10
-39.40012240819819
 20
-127.3211
 40
5.0000000000003
100
AcDbArc
 50
134.99999999999903
 51
180.0
  0
LINE
  5
96
100
AcDbEntity
  8
LC-004-005-----0
  6
CONTINUOUS
 62
             7
100
AcDbLine
 10
59.03409759180202
 20
-136.250325
 11
60.99958459180201
 21
-138.215812
  0
LINE
  5
95
100
AcDbEntity
  8
LC-001-002-----0
  6
DASHDOT
 62
             2
100
AcDbLine
 10
5.99987759180193
 20
-132.842422
 11
5.99987759180193
 21
-212.250032
  0
LINE
  5
94
100
AcDbEntity
  8
LC-001-002-----0
  6
CONTINUOUS
 62
             7
100
AcDbLine
 10
-47.00012240819819
 20
-136.250032
 11
-44.40012240819819
 21
-136.250032
  0
LINE
  5
93
100
AcDbEntity
  8
LC-001-002-----0
  6
CONTINUOUS
 62
             7
100
AcDbLine
 10
40.39987759180201
 20
-117.750032
 11
40.39987759180201
 21
-121.250032
  0
LINE
  5
92
100
AcDbEntity
  8
LC-001-002-----0
  6
CONTINUOUS
 62
             7
100
AcDbLine
 10
-49.00012240819828
 20
-206.250032
 11
-47.9421604081981
 21
-212.250032
  0
LINE
  5
91
100
AcDbEntity
  8
LC-001-002-----0
  6
CONTINUOUS
 62
             7
100
AcDbLine
 10
60.99987759180201
 20
-138.250032
 11
60.99987759180201
 21
-206.250032
  0
LINE
  5
90
100
AcDbEntity
  8
LC-001-002-----0
  6
CONTINUOUS
 62
             7
100
AcDbLine
 10
60.99987759180201
 20
-206.250032
 11
59.94191559180192
 21
-212.250032
  0
LINE
  5
8F
100
AcDbEntity
  8
LC-001-002-----0
  6
CONTINUOUS
 62
             7
100
AcDbLine
 10
58.99987759180201
 20
-136.250032
 11
44.39987759180201
 21
-136.250032
  0
LINE
  5
8E
100
AcDbEntity
  8
LC-001-002-----0
  6
CONTINUOUS
 62
             7
100
AcDbLine
 10
-49.00012240819819
 20
-138.250032
 11
-49.00012240819828
 21
-206.250032
  0
LINE
  5
8D
100
AcDbEntity
  8
LC-001-002-----0
  6
CONTINUOUS
 62
             7
100
AcDbLine
 10
40.39987759180201
 20
-121.250032
 11
42.93541159180192
 21
-123.785566
  0
LINE
  5
8C
100
AcDbEntity
  8
LC-001-002-----0
  6
CONTINUOUS
 62
             7
100
AcDbLine
 10
-40.40012240819819
 20
-117.750032
 11
-40.40012240819819
 21
-121.250032
  0
LINE
  5
8B
100
AcDbEntity
  8
LC-001-002-----0
  6
CONTINUOUS
 62
             7
100
AcDbLine
 10
-40.40012240819819
 20
-121.250032
 11
-42.93565640819798
 21
-123.785566
  0
LINE
  5
8A
100
AcDbEntity
  8
LC-001-002-----0
  6
CONTINUOUS
 62
             7
100
AcDbLine
 10
-44.40012240819819
 20
-127.3211
 11
-44.40012240819819
 21
-136.250032
  0
LINE
  5
89
100
AcDbEntity
  8
LC-001-002-----0
  6
CONTINUOUS
 62
             7
100
AcDbLine
 10
-38.40012240819819
 20
-117.750032
 11
-40.40012240819819
 21
-117.750032
  0
LINE
  5
88
100
AcDbEntity
  8
LC-001-002-----0
  6
CONTINUOUS
 62
             7
100
AcDbLine
 10
40.39987759180201
 20
-117.750032
 11
38.39987759180201
 21
-117.750032
  0
LINE
  5
87
100
AcDbEntity
  8
LC-001-002-----0
  6
CONTINUOUS
 62
             7
100
AcDbLine
 10
59.94191559180192
 20
-212.250032
 11
9.99987759180192
 21
-212.250032
  0
LINE
  5
86
100
AcDbEntity
  8
LC-001-002-----0
  6
CONTINUOUS
 62
             7
100
AcDbLine
 10
-47.9421604081981
 20
-212.250032
 11
9.99987759180192
 21
-212.250032
  0
LINE
  5
85
100
AcDbEntity
  8
1
  6
CONTINUOUS
 62
             7
100
AcDbLine
 10
25.0000055918018
 20
-214.91222067566301
 11
25.0000055918018
 21
-217.91222067566301
  0
LINE
  5
84
100
AcDbEntity
  8
1
  6
CONTINUOUS
 62
             7
100
AcDbLine
 10
37.5000005918019
 20
-215.559397971088
 11
37.5000005918019
 21
-218.559397971088
  0
LINE
  5
83
100
AcDbEntity
  8
1
  6
CONTINUOUS
 62
             7
100
AcDbLine
 10
-25.00012240819808
 20
-218.559397971088
 11
-25.00012240819808
 21
-215.559397971088
  0
LINE
  5
82
100
AcDbEntity
  8
1
  6
CONTINUOUS
 62
             7
100
AcDbLine
 10
-37.50012240819807
 20
-217.91222067566301
 11
-37.50012240819807
 21
-214.91222067566301
  0
LINE
  5
81
100
AcDbEntity
  8
LC-001-002-----0
  6
CONTINUOUS
 62
             7
100
AcDbLine
 10
44.39987759180201
 20
-127.3211
 11
44.39987759180201
 21
-136.250032
  0
LINE
  5
80
100
AcDbEntity
  8
1
  6
CONTINUOUS
 62
             7
100
AcDbLine
 10
-49.00012240819828
 20
-206.250032
 11
60.99987759180201
 21
-206.250032
  0
LINE
  5
7F
100
AcDbEntity
  8
1
  6
CONTINUOUS
 62
             7
100
AcDbLine
 10
44.39987759180201
 20
-136.250032
 11
-44.40012240819819
 21
-136.250032
  0
LINE
  5
7E
100
AcDbEntity
  8
1
  6
CONTINUOUS
 62
             7
100
AcDbLine
 10
-40.40012240819819
 20
-121.250032
 11
40.39987759180201
 21
-121.250032
  0
LINE
  5
7D
100
AcDbEntity
  8
1
  6
CONTINUOUS
 62
             7
100
AcDbLine
 10
38.39987759180201
 20
-117.750032
 11
37.50003374151812
 21
-117.750032
  0
LINE
  5
7C
100
AcDbEntity
  8
1
  6
CONTINUOUS
 62
             7
100
AcDbLine
 10
37.50003374151812
 20
-117.750032
 11
-37.50012240819807
 21
-117.750032
  0
LINE
  5
7B
100
AcDbEntity
  8
1
  6
CONTINUOUS
 62
             7
100
AcDbLine
 10
-37.50012240819807
 20
-117.750032
 11
-38.40012240819819
 21
-117.750032
  0
ENDBLK
  5
9B
100
AcDbEntity
  8
0
100
AcDbBlockEnd
  0
BLOCK
  5
A0
100
AcDbEntity
  8
0
100
AcDbBlockBegin
  2
*D3
 70
             1
 10
0.0
 20
0.0
 30
0.0
  3
*D3
  1

  0
LINE
  5
A1
100
AcDbEntity
  8
0
  6
CONTINUOUS
 62
             4
100
AcDbLine
 10
100.30970204142544
 20
-0.0000117297808
 11
100.30972947939469
 21
69.99998957346365
  0
LINE
  5
A2
100
AcDbEntity
  8
0
  6
CONTINUOUS
 62
             4
100
AcDbLine
 10
73.70945338772984
 20
70.0
 11
102.30972947939453
 21
69.99998878952168
  0
LINE
  5
A3
100
AcDbEntity
  8
0
  6
CONTINUOUS
 62
             4
100
AcDbLine
 10
70.38457661453325
 20
0.0
 11
102.30970204142528
 21
-0.00001251372277
  0
SOLID
  5
A4
100
AcDbEntity
  8
0
 62
             4
100
AcDbTrace
 10
98.99318098526143
 20
9.99998878625802
 11
101.62623093700915
 21
9.99998775417884
 12
100.30970204142544
 22
-0.0000117297808
 13
100.30970204142544
 23
-0.0000117297808
  0
SOLID
  5
A5
100
AcDbEntity
  8
0
 62
             4
100
AcDbTrace
 10
101.62625053555868
 20
59.99998905742483
 11
98.99320058381098
 21
59.99999008950401
 12
100.30972947939469
 22
69.99998957346365
 13
100.30972947939469
 23
69.99998957346365
  0
MTEXT
  5
A7
100
AcDbEntity
  8
0
 62
             1
100
AcDbMText
 10
98.3097100265079
 20
20.37160499109287
 30
0.0
 40
10.0
 41
0.0
 71
             7
 72
             1
  1
\C1;20-\C1;70
  7
CONVERTER_1
 11
0.00000039197098
 21
0.99999999999992
 31
0.0
  0
ENDBLK
  5
A8
100
AcDbEntity
  8
0
100
AcDbBlockEnd
  0
BLOCK
  5
AC
100
AcDbEntity
  8
0
100
AcDbBlockBegin
  2
*D4
 70
             1
 10
0.0
 20
0.0
 30
0.0
  3
*D4
  1

  0
LINE
  5
AD
100
AcDbEntity
  8
0
  6
CONTINUOUS
 62
             4
100
AcDbLine
 10
73.70945627468228
 20
81.58730861796772
 11
-73.71070072531065
 21
81.58733262486371
  0
LINE
  5
AE
100
AcDbEntity
  8
0
  6
CONTINUOUS
 62
             4
100
AcDbLine
 10
-73.7107026122703
 20
70.0
 11
-73.71070039961711
 21
83.58733262486368
  0
LINE
  5
AF
100
AcDbEntity
  8
0
  6
CONTINUOUS
 62
             4
100
AcDbLine
 10
73.70945438772654
 20
70.0
 11
73.70945660037582
 21
83.58730861796769
  0
SOLID
  5
B0
100
AcDbEntity
  8
0
 62
             4
100
AcDbTrace
 10
63.70945606029057
 20
80.27078527056153
 11
63.70945648907426
 21
82.90383522230941
 12
73.70945627468228
 22
81.58730861796772
 13
73.70945627468228
 23
81.58730861796772
  0
SOLID
  5
B1
100
AcDbEntity
  8
0
 62
             4
100
AcDbTrace
 10
-63.71070051091893
 20
82.9038559722699
 11
-63.71070093970262
 21
80.27080602052202
 12
-73.71070072531065
 22
81.58733262486371
 13
-73.71070072531065
 23
81.58733262486371
  0
MTEXT
  5
B2
100
AcDbEntity
  8
0
 62
             1
100
AcDbMText
 10
-24.57986609211899
 20
83.58732462406616
 30
0.0
 40
10.0
 41
0.0
 71
             7
 72
             1
  1
\C1;150\C1;x150
  7
CONVERTER_1
 11
0.99999999999706
 21
0.00000242406841
 31
0.0
  0
ENDBLK
  5
B3
100
AcDbEntity
  8
0
100
AcDbBlockEnd
  0
BLOCK
  5
B7
100
AcDbEntity
  8
0
100
AcDbBlockBegin
  2
*D5
 70
             1
 10
0.0
 20
0.0
 30
0.0
  3
*D5
  1

  0
LINE
  5
B8
100
AcDbEntity
  8
0
  6
CONTINUOUS
 62
             4
100
AcDbLine
 10
-150.664725408198
 20
100.026120640822
 11
150.6648195918018
 21
100.026120640822
  0
LINE
  5
B9
100
AcDbEntity
  8
0
  6
CONTINUOUS
 62
             4
100
AcDbLine
 10
150.6648195918018
 20
0.0
 11
150.6648195918018
 21
102.026120640822
  0
LINE
  5
BA
100
AcDbEntity
  8
0
  6
CONTINUOUS
 62
             4
100
AcDbLine
 10
-150.664725408198
 20
0.0
 11
-150.664725408198
 21
102.026120640822
  0
SOLID
  5
BB
100
AcDbEntity
  8
0
 62
             4
100
AcDbTrace
 10
-140.664725408198
 20
101.34264561669596
 11
-140.664725408198
 21
98.70959566494804
 12
-150.664725408198
 22
100.026120640822
 13
-150.664725408198
 23
100.026120640822
  0
SOLID
  5
BC
100
AcDbEntity
  8
0
 62
             4
100
AcDbTrace
 10
140.6648195918018
 20
98.70959566494804
 11
140.6648195918018
 21
101.34264561669596
 12
150.6648195918018
 22
100.026120640822
 13
150.6648195918018
 23
100.026120640822
  0
MTEXT
  5
BD
100
AcDbEntity
  8
0
 62
             1
100
AcDbMText
 10
11.91404312394199
 20
102.02610076346107
 30
0.0
 40
10.0
 41
0.0
 71
             7
 72
             1
  1
\C1;Ø\C1;300
  7
CONVERTER_1
 11
0.99999999999706
 21
0.00000242406841
 31
0.0
  0
ENDBLK
  5
BE
100
AcDbEntity
  8
0
100
AcDbBlockEnd
  0
BLOCK
  5
C2
100
AcDbEntity
  8
0
100
AcDbBlockBegin
  2
*D6
 70
             1
 10
0.0
 20
0.0
 30
0.0
  3
*D6
  1

  0
LINE
  5
C3
100
AcDbEntity
  8
0
  6
CONTINUOUS
 62
             4
100
AcDbLine
 10
-160.664725408198
 20
-112.25018700000001
 11
-160.664725408198
 21
-2.24818600000001
  0
LINE
  5
C4
100
AcDbEntity
  8
0
  6
CONTINUOUS
 62
             4
100
AcDbLine
 10
-57.5001224081981
 20
-112.25018700000001
 11
-162.664725408198
 21
-112.25018700000001
  0
LINE
  5
C5
100
AcDbEntity
  8
0
  6
CONTINUOUS
 62
             4
100
AcDbLine
 10
-150.664725408198
 20
-2.24818600000001
 11
-162.664725408198
 21
-2.24818600000001
  0
SOLID
  5
C6
100
AcDbEntity
  8
0
 62
             4
100
AcDbTrace
 10
-161.98125038407196
 20
-102.25018700000001
 11
-159.34820043232403
 21
-102.25018700000001
 12
-160.664725408198
 22
-112.25018700000001
 13
-160.664725408198
 23
-112.25018700000001
  0
SOLID
  5
C7
100
AcDbEntity
  8
0
 62
             4
100
AcDbTrace
 10
-159.34820043232403
 20
-12.24818600000001
 11
-161.98125038407196
 21
-12.24818600000001
 12
-160.664725408198
 22
-2.24818600000001
 13
-160.664725408198
 23
-2.24818600000001
  0
MTEXT
  5
C8
100
AcDbEntity
  8
0
 62
             1
100
AcDbMText
 10
-162.664725408198
 20
-66.31017073380389
 30
0.0
 40
10.0
 41
0.0
 71
             7
 72
             1
  1
110
  7
CONVERTER_1
 11
0.0
 21
1.0
 31
0.0
  0
ENDBLK
  5
C9
100
AcDbEntity
  8
0
100
AcDbBlockEnd
  0
BLOCK
  5
CD
100
AcDbEntity
  8
0
100
AcDbBlockBegin
  2
*D7
 70
             1
 10
0.0
 20
0.0
 30
0.0
  3
*D7
  1

  0
LINE
  5
CE
100
AcDbEntity
  8
0
  6
CONTINUOUS
 62
             4
100
AcDbLine
 10
-25.00012240819808
 20
-233.91930605965001
 11
25.0000055918018
 21
-233.91930605965001
  0
LINE
  5
CF
100
AcDbEntity
  8
0
  6
CONTINUOUS
 62
             4
100
AcDbLine
 10
-25.00012240819808
 20
-218.55939797108803
 11
-25.00012240819808
 21
-235.91930605965001
  0
LINE
  5
D0
100
AcDbEntity
  8
0
  6
CONTINUOUS
 62
             4
100
AcDbLine
 10
25.0000055918018
 20
-217.91222067566304
 11
25.0000055918018
 21
-235.91930605965001
  0
SOLID
  5
D1
100
AcDbEntity
  8
0
 62
             4
100
AcDbTrace
 10
-15.00012240819808
 20
-232.60278108377605
 11
-15.00012240819808
 21
-235.23583103552397
 12
-25.00012240819808
 22
-233.91930605965001
 13
-25.00012240819808
 23
-233.91930605965001
  0
SOLID
  5
D2
100
AcDbEntity
  8
0
 62
             4
100
AcDbTrace
 10
15.0000055918018
 20
-235.23583103552397
 11
15.0000055918018
 21
-232.60278108377605
 12
25.0000055918018
 22
-233.91930605965001
 13
25.0000055918018
 23
-233.91930605965001
  0
MTEXT
  5
D3
100
AcDbEntity
  8
0
 62
             1
100
AcDbMText
 10
-12.0390863463272
 20
-231.91934581437187
 30
0.0
 40
10.0
 41
0.0
 71
             7
 72
             1
  1
\C1;DN\C1;50
  7
CONVERTER_1
 11
0.99999999999706
 21
0.00000242406841
 31
0.0
  0
ENDBLK
  5
D4
100
AcDbEntity
  8
0
100
AcDbBlockEnd
  0
BLOCK
  5
D8
100
AcDbEntity
  8
0
100
AcDbBlockBegin
  2
*D8
 70
             1
 10
0.0
 20
0.0
 30
0.0
  3
*D8
  1

  0
LINE
  5
D9
100
AcDbEntity
  8
0
  6
CONTINUOUS
 62
             4
100
AcDbLine
 10
-37.50012240819807
 20
-253.68538497752201
 11
37.5000005918019
 21
-253.68538497752201
  0
LINE
  5
DA
100
AcDbEntity
  8
0
  6
CONTINUOUS
 62
             4
100
AcDbLine
 10
-37.50012240819807
 20
-217.91222067566301
 11
-37.50012240819807
 21
-255.68538497752201
  0
LINE
  5
DB
100
AcDbEntity
  8
0
  6
CONTINUOUS
 62
             4
100
AcDbLine
 10
37.5000005918019
 20
-218.559397971088
 11
37.5000005918019
 21
-255.68538497752201
  0
SOLID
  5
DC
100
AcDbEntity
  8
0
 62
             4
100
AcDbTrace
 10
-27.50012240819807
 20
-252.36886000164804
 11
-27.50012240819807
 21
-255.00190995339597
 12
-37.50012240819807
 22
-253.68538497752201
 13
-37.50012240819807
 23
-253.68538497752201
  0
SOLID
  5
DD
100
AcDbEntity
  8
0
 62
             4
100
AcDbTrace
 10
27.5000005918019
 20
-255.00190995339597
 11
27.5000005918019
 21
-252.36886000164804
 12
37.5000005918019
 22
-253.68538497752201
 13
37.5000005918019
 23
-253.68538497752201
  0
MTEXT
  5
DE
100
AcDbEntity
  8
0
 62
             1
100
AcDbMText
 10
-12.55506490362297
 20
-251.68542473224386
 30
0.0
 40
10.0
 41
0.0
 71
             7
 72
             1
  1
\C1;DN\C1;75
  7
CONVERTER_1
 11
0.99999999999706
 21
0.00000242406841
 31
0.0
  0
ENDBLK
  5
DF
100
AcDbEntity
  8
0
100
AcDbBlockEnd
  0
BLOCK
  5
E3
100
AcDbEntity
  8
0
100
AcDbBlockBegin
  2
*D9
 70
             1
 10
0.0
 20
0.0
 30
0.0
  3
*D9
  1

  0
LINE
  5
E4
100
AcDbEntity
  8
0
  6
CONTINUOUS
 62
             4
100
AcDbLine
 10
-49.00012240819828
 20
-271.529761778379
 11
60.999877591802
 21
-271.529761778379
  0
LINE
  5
E5
100
AcDbEntity
  8
0
  6
CONTINUOUS
 62
             4
100
AcDbLine
 10
-49.00012240819828
 20
-206.250032
 11
-49.00012240819828
 21
-273.529761778379
  0
LINE
  5
E6
100
AcDbEntity
  8
0
  6
CONTINUOUS
 62
             4
100
AcDbLine
 10
60.999877591802
 20
-206.250032
 11
60.999877591802
 21
-273.529761778379
  0
SOLID
  5
E7
100
AcDbEntity
  8
0
 62
             4
100
AcDbTrace
 10
-39.00012240819828
 20
-270.21323680250504
 11
-39.00012240819828
 21
-272.84628675425296
 12
-49.00012240819828
 22
-271.529761778379
 13
-49.00012240819828
 23
-271.529761778379
  0
SOLID
  5
E8
100
AcDbEntity
  8
0
 62
             4
100
AcDbTrace
 10
50.999877591802
 20
-272.84628675425296
 11
50.999877591802
 21
-270.21323680250504
 12
60.999877591802
 22
-271.529761778379
 13
60.999877591802
 23
-271.529761778379
  0
MTEXT
  5
E9
100
AcDbEntity
  8
0
 62
             1
100
AcDbMText
 10
6.26007176196702
 20
-269.52980153310085
 30
0.0
 40
10.0
 41
0.0
 71
             7
 72
             1
  1
\C1;DN\C1;110
  7
CONVERTER_1
 11
0.99999999999706
 21
0.00000242406841
 31
0.0
  0
ENDBLK
  5
EA
100
AcDbEntity
  8
0
100
AcDbBlockEnd
  0
BLOCK
  5
EE
100
AcDbEntity
  8
0
100
AcDbBlockBegin
  2
*D10
 70
             1
 10
0.0
 20
0.0
 30
0.0
  3
*D10
  1

  0
LINE
  5
EF
100
AcDbEntity
  8
0
  6
CONTINUOUS
 62
             4
100
AcDbLine
 10
-80.00012240819808
 20
-288.4288878223918
 11
80.00004359180184
 21
-288.4288878223918
  0
LINE
  5
F0
100
AcDbEntity
  8
0
  6
CONTINUOUS
 62
             4
100
AcDbLine
 10
-80.00012240819808
 20
-100.25018700000001
 11
-80.00012240819808
 21
-290.4288878223918
  0
LINE
  5
F1
100
AcDbEntity
  8
0
  6
CONTINUOUS
 62
             4
100
AcDbLine
 10
80.00004359180184
 20
-100.250044
 11
80.00004359180184
 21
-290.4288878223918
  0
SOLID
  5
F2
100
AcDbEntity
  8
0
 62
             4
100
AcDbTrace
 10
-70.00012240819808
 20
-287.11236284651784
 11
-70.00012240819808
 21
-289.74541279826576
 12
-80.00012240819808
 22
-288.4288878223918
 13
-80.00012240819808
 23
-288.4288878223918
  0
SOLID
  5
F3
100
AcDbEntity
  8
0
 62
             4
100
AcDbTrace
 10
70.00004359180184
 20
-289.74541279826576
 11
70.00004359180184
 21
-287.11236284651784
 12
80.00004359180184
 22
-288.4288878223918
 13
80.00004359180184
 23
-288.4288878223918
  0
MTEXT
  5
F4
100
AcDbEntity
  8
0
 62
             1
100
AcDbMText
 10
-36.51360580326896
 20
-286.4289076997527
 30
0.0
 40
10.0
 41
0.0
 71
             7
 72
             1
  1
\C1;Ø\C1;160
  7
CONVERTER_1
 11
0.99999999999706
 21
0.00000242406841
 31
0.0
  0
ENDBLK
  5
F5
100
AcDbEntity
  8
0
100
AcDbBlockEnd
  0
ENDSEC
  0
SECTION
  2
ENTITIES
  0
DIMENSION
  5
F7
100
AcDbEntity
  8
1
100
AcDbDimension
  2
*D10
 10
-80.00012240819808
 20
-288.4288878223918
 11
-23.81360580329305
 21
-281.4288878223918
 31
0.0
 53
0.00013888888889
  1
<>
  3
ME10_DIM_7
100
AcDbAlignedDimension
 13
80.00004359180181
 23
-100.250044
 14
-80.0001224081981
 24
-100.250187
100
AcDbRotatedDimension
  0
DIMENSION
  5
EC
100
AcDbEntity
  8
1
100
AcDbDimension
  2
*D9
 10
-49.00012240819828
 20
-271.529761778379
 11
20.66007176191884
 21
-264.529761778379
 31
0.0
 53
180.0
  1
<>
  3
ME10_DIM_6
100
AcDbAlignedDimension
 13
60.99987759180201
 23
-206.250032
 14
-49.00012240819828
 24
-206.250032
 50
180.0
100
AcDbRotatedDimension
  0
DIMENSION
  5
E1
100
AcDbEntity
  8
1
100
AcDbDimension
  2
*D8
 10
-37.50012240819807
 20
-253.68538497752201
 11
0.34493509632884
 21
-246.68538497752201
 31
0.0
 53
180.0
  1
<>
  3
ME10_DIM_5
100
AcDbAlignedDimension
 13
37.5000005918019
 23
-218.559397971088
 14
-37.50012240819807
 24
-217.91222067566301
 50
180.0
100
AcDbRotatedDimension
  0
DIMENSION
  5
D6
100
AcDbEntity
  8
1
100
AcDbDimension
  2
*D7
 10
-25.00012240819808
 20
-233.91930605965001
 11
0.86091365362461
 21
-226.91930605965001
 31
0.0
 53
0.00013888888889
  1
<>
  3
ME10_DIM_4
100
AcDbAlignedDimension
 13
25.0000055918018
 23
-217.91222067566301
 14
-25.00012240819808
 24
-218.559397971088
100
AcDbRotatedDimension
  0
DIMENSION
  5
CB
100
AcDbEntity
  8
1
100
AcDbDimension
  2
*D6
 10
-160.664725408198
 20
-112.25018700000001
 11
-167.664725408198
 21
-57.31017073380389
 31
0.0
 53
90.00000000000003
  1
<>
  3
ME10_DIM_3
100
AcDbAlignedDimension
 13
-150.664725408198
 23
-2.24818600000001
 14
-57.50012240819807
 24
-112.250187
 50
90.00000000000003
100
AcDbRotatedDimension
  0
DIMENSION
  5
C0
100
AcDbEntity
  8
1
100
AcDbDimension
  2
*D5
 10
-150.664725408198
 20
100.026120640822
 11
26.1140431239179
 21
107.026120640822
 31
0.0
 53
0.00013888888889
  1
Ø300
  3
ME10_DIM_2
100
AcDbAlignedDimension
 13
150.6648195918018
 23
0.0
 14
-150.664725408198
 24
0.0
100
AcDbRotatedDimension
  0
DIMENSION
  5
B5
100
AcDbEntity
  8
1
100
AcDbDimension
  2
*D4
 10
73.70945627468228
 20
81.58730861796772
 11
3.42013472211448
 21
88.5873200643566
 31
0.0
 53
179.99999066956755
  1
150
  3
ME10_DIM_1
100
AcDbAlignedDimension
 13
-73.7107026122703
 23
70.0
 14
73.70945438772654
 24
70.0
 50
179.99999066956755
100
AcDbRotatedDimension
  0
DIMENSION
  5
AA
100
AcDbEntity
  8
1
100
AcDbDimension
  2
*D3
 10
100.30970204142544
 20
-0.0000117297808
 11
93.30971712118306
 21
38.47160695094639
 31
0.0
 53
89.99997754171704
  1
<>
  3
ME10_DIM_0
100
AcDbAlignedDimension
 13
73.70945338772984
 23
70.0
 14
70.38457661453325
 24
0.0
 50
89.99997754171704
100
AcDbRotatedDimension
  0
XLINE
  5
9E
100
AcDbEntity
  8
1
  6
DOT_CENTER
 62
             3
 60
             1
100
AcDbXline
 10
508.50638500000002
 20
302.11790999999999
 30
0.0
 11
1.0
 21
0.0
 31
0.0
  0
POINT
  5
9D
100
AcDbEntity
  8
1
 62
             3
 60
             1
100
AcDbPoint
 10
508.50638500000002
 20
302.11790999999999
  0
INSERT
  5
32
100
AcDbEntity
  8
1
100
AcDbBlockReference
  2
0317_2E_AUFSATZ
 10
92.72877062342013
 20
-183.50968280775851
  0
INSERT
  5
33
100
AcDbEntity
  8
1
100
AcDbBlockReference
  2
HL_317K_K_RPER
 10
272.33522699999992
 20
-302.43057705118241
  0
INSERT
  5
34
100
AcDbEntity
  8
1
100
AcDbBlockReference
  2
0317_4E_REDUKTION
 10
272.33522700000009
 20
-302.43057705118241
  0
ENDSEC
  0
SECTION
  2
OBJECTS
  0
DICTIONARY
  5
19
100
AcDbDictionary
  3
ACAD_GROUP
350
1A
  3
ACAD_MLINESTYLE
350
1B
  0
DICTIONARY
  5
1A
102
{ACAD_REACTORS
330
19
102
}
100
AcDbDictionary
  0
DICTIONARY
  5
1B
102
{ACAD_REACTORS
330
19
102
}
100
AcDbDictionary
  3
STANDARD
350
1C
  0
MLINESTYLE
  5
1C
102
{ACAD_REACTORS
330
1B
102
}
100
AcDbMlineStyle
  2
STANDARD
 70
             0
  3

 62
             0
 51
90.0
 52
90.0
 71
             2
 49
0.5
 62
           256
  6
BYLAYER
 49
-0.5
 62
           256
  6
BYLAYER
  0
ENDSEC
  0
EOF
