  0
SECTION
  2
HEADER
  9
$ACADVER
  1
AC1014
  9
$ACADMAINTVER
 70
             0
  9
$DWGCODEPAGE
  3
ANSI_1252
  9
$INSBASE
 10
0.0
 20
0.0
 30
0.0
  9
$EXTMIN
 10
-208.41149124725499
 20
-170.17507377662
 30
0.0
  9
$EXTMAX
 10
74.62566632272862
 20
66.5025469127783
 30
0.0
  9
$LIMMIN
 10
0.0
 20
0.0
  9
$LIMMAX
 10
0.0
 20
0.0
  9
$ORTHOMODE
 70
             0
  9
$REGENMODE
 70
             1
  9
$FILLMODE
 70
             1
  9
$QTEXTMODE
 70
             0
  9
$MIRRTEXT
 70
             1
  9
$DRAGMODE
 70
             2
  9
$LTSCALE
 40
1.0
  9
$OSMODE
 70
             0
  9
$ATTMODE
 70
             1
  9
$TEXTSIZE
 40
0.2
  9
$TRACEWID
 40
0.05
  9
$TEXTSTYLE
  7
STANDARD
  9
$CLAYER
  8
0
  9
$CELTYPE
  6
CONTINUOUS
  9
$CECOLOR
 62
           256
  9
$CELTSCALE
 40
1.0
  9
$DELOBJ
 70
             1
  9
$DISPSILH
 70
             0
  9
$DIMSCALE
 40
1.0
  9
$DIMASZ
 40
0.18
  9
$DIMEXO
 40
0.0625
  9
$DIMDLI
 40
0.38
  9
$DIMRND
 40
0.0
  9
$DIMDLE
 40
0.0
  9
$DIMEXE
 40
0.18
  9
$DIMTP
 40
0.0
  9
$DIMTM
 40
0.0
  9
$DIMTXT
 40
0.18
  9
$DIMCEN
 40
0.09
  9
$DIMTSZ
 40
0.0
  9
$DIMTOL
 70
             0
  9
$DIMLIM
 70
             0
  9
$DIMTIH
 70
             1
  9
$DIMTOH
 70
             1
  9
$DIMSE1
 70
             0
  9
$DIMSE2
 70
             0
  9
$DIMTAD
 70
             0
  9
$DIMZIN
 70
             0
  9
$DIMBLK
  1

  9
$DIMASO
 70
             1
  9
$DIMSHO
 70
             1
  9
$DIMPOST
  1

  9
$DIMAPOST
  1

  9
$DIMALT
 70
             0
  9
$DIMALTD
 70
             2
  9
$DIMALTF
 40
25.4
  9
$DIMLFAC
 40
1.0
  9
$DIMTOFL
 70
             0
  9
$DIMTVP
 40
0.0
  9
$DIMTIX
 70
             0
  9
$DIMSOXD
 70
             0
  9
$DIMSAH
 70
             0
  9
$DIMBLK1
  1

  9
$DIMBLK2
  1

  9
$DIMSTYLE
  2
STANDARD
  9
$DIMCLRD
 70
             0
  9
$DIMCLRE
 70
             0
  9
$DIMCLRT
 70
             0
  9
$DIMTFAC
 40
1.0
  9
$DIMGAP
 40
0.09
  9
$DIMJUST
 70
             0
  9
$DIMSD1
 70
             0
  9
$DIMSD2
 70
             0
  9
$DIMTOLJ
 70
             1
  9
$DIMTZIN
 70
             0
  9
$DIMALTZ
 70
             0
  9
$DIMALTTZ
 70
             0
  9
$DIMFIT
 70
             3
  9
$DIMUPT
 70
             0
  9
$DIMUNIT
 70
             2
  9
$DIMDEC
 70
             4
  9
$DIMTDEC
 70
             4
  9
$DIMALTU
 70
             2
  9
$DIMALTTD
 70
             2
  9
$DIMTXSTY
  7
STANDARD
  9
$DIMAUNIT
 70
             0
  9
$LUNITS
 70
             2
  9
$LUPREC
 70
             4
  9
$SKETCHINC
 40
0.1
  9
$FILLETRAD
 40
0.0
  9
$AUNITS
 70
             0
  9
$AUPREC
 70
             0
  9
$MENU
  1
acad
  9
$ELEVATION
 40
0.0
  9
$PELEVATION
 40
0.0
  9
$THICKNESS
 40
0.0
  9
$LIMCHECK
 70
             0
  9
$BLIPMODE
 70
             1
  9
$CHAMFERA
 40
0.0
  9
$CHAMFERB
 40
0.0
  9
$CHAMFERC
 40
0.0
  9
$CHAMFERD
 40
0.0
  9
$SKPOLY
 70
             0
  9
$TDCREATE
 40
0.000000000
  9
$TDUPDATE
 40
0.000000000
  9
$TDINDWG
 40
0.0000000000
  9
$TDUSRTIMER
 40
0.0000000000
  9
$USRTIMER
 70
             1
  9
$ANGBASE
 50
0.0
  9
$ANGDIR
 70
             0
  9
$PDMODE
 70
             0
  9
$PDSIZE
 40
0.0
  9
$PLINEWID
 40
0.0
  9
$COORDS
 70
             0
  9
$SPLFRAME
 70
             0
  9
$SPLINETYPE
 70
             6
  9
$SPLINESEGS
 70
             8
  9
$ATTDIA
 70
             0
  9
$ATTREQ
 70
             1
  9
$HANDLING
 70
             1
  9
$HANDSEED
  5
1DB
  9
$SURFTAB1
 70
             6
  9
$SURFTAB2
 70
             6
  9
$SURFTYPE
 70
             6
  9
$SURFU
 70
             6
  9
$SURFV
 70
             6
  9
$UCSNAME
  2

  9
$UCSORG
 10
0.0
 20
0.0
 30
0.0
  9
$UCSXDIR
 10
1.0
 20
0.0
 30
0.0
  9
$UCSYDIR
 10
0.0
 20
1.0
 30
0.0
  9
$PUCSNAME
  2

  9
$PUCSORG
 10
0.0
 20
0.0
 30
0.0
  9
$PUCSXDIR
 10
1.0
 20
0.0
 30
0.0
  9
$PUCSYDIR
 10
0.0
 20
1.0
 30
0.0
  9
$USERI1
 70
             0
  9
$USERI2
 70
             0
  9
$USERI3
 70
             0
  9
$USERI4
 70
             0
  9
$USERI5
 70
             0
  9
$USERR1
 40
12.01
  9
$USERR2
 40
0.0
  9
$USERR3
 40
0.0
  9
$USERR4
 40
0.0
  9
$USERR5
 40
0.0
  9
$WORLDVIEW
 70
             1
  9
$SHADEDGE
 70
             3
  9
$SHADEDIF
 70
            70
  9
$TILEMODE
 70
             1
  9
$MAXACTVP
 70
            16
  9
$PINSBASE
 10
0.0
 20
0.0
 30
0.0
  9
$PLIMCHECK
 70
             0
  9
$PEXTMIN
 10
1.00000000000000E+20
 20
1.00000000000000E+20
 30
1.00000000000000E+20
  9
$PEXTMAX
 10
-1.00000000000000E+20
 20
-1.00000000000000E+20
 30
-1.00000000000000E+20
  9
$PLIMMIN
 10
0.0
 20
0.0
  9
$PLIMMAX
 10
12.0
 20
9.0
  9
$UNITMODE
 70
             0
  9
$VISRETAIN
 70
             0
  9
$PLINEGEN
 70
             1
  9
$PSLTSCALE
 70
             0
  9
$TREEDEPTH
 70
          3020
  9
$PICKSTYLE
 70
             1
  9
$CMLSTYLE
  2
STANDARD
  9
$CMLJUST
 70
             0
  9
$CMLSCALE
 40
1.0
  9
$PROXYGRAPHICS
 70
             0
  9
$MEASUREMENT
 70
             1
  0
ENDSEC
  0
SECTION
  2
CLASSES
  0
CLASS
  1
LWPOLYLINE
  2
AcDbPolyline
  3
"AutoCAD"
 90
        0
280
             0
281
             1
  0
CLASS
  1
IMAGE
  2
AcDbRasterImage
  3
ISM
 90
      127
280
             0
281
             1
  0
CLASS
  1
OLE2FRAME
  2
AcDbOle2Frame
  3
""
 90
        0
280
             0
281
             1
  0
CLASS
  1
HATCH
  2
AcDbHatch
  3
"ACAD_SEDONA"
 90
        0
280
             0
281
             1
  0
CLASS
  1
DICTIONARYVAR
  2
AcDbDictionaryVar
  3
"AutoCAD"
 90
        0
280
             0
281
             0
  0
CLASS
  1
RASTERVARIABLES
  2
AcDbRasterVariables
  3
ISM
 90
        0
280
             0
281
             0
  0
CLASS
  1
IMAGEDEF
  2
AcDbRasterImageDef
  3
ISM
 90
        0
280
             0
281
             0
  0
CLASS
  1
IMAGEDEF_REACTOR
  2
AcDbRasterImageDefReactor
  3
ISM
 90
        1
280
             0
281
             0
  0
CLASS
  1
IDBUFFER
  2
AcDbIdBuffer
  3
"Acad"
 90
        0
280
             0
281
             0
  0
CLASS
  1
SPATIAL_FILTER
  2
AcDbSpatialFilter
  3
"Acad"
 90
        0
280
             0
281
             0
  0
CLASS
  1
XRECORD
  2
AcDbXrecord
  3
"<Built In>"
 90
        0
280
             0
281
             0
  0
CLASS
  1
SORTENTSTABLE
  2
AcDbSortentsTable
  3
"AutoCAD"
 90
        0
280
             0
281
             0
  0
CLASS
  1
LAYER_INDEX
  2
AcDbLayerIndex
  3
"Acad"
 90
        0
280
             0
281
             0
  0
CLASS
  1
SPATIAL_INDEX
  2
AcDbSpatialIndex
  3
"Acad"
 90
        0
280
             0
281
             0
  0
CLASS
  1
OBJECT_PTR
  2
CAseDLPNTableRecord
  3
"ASE-LPNTableRecord"
 90
        1
280
             0
281
             0
  0
CLASS
  1
LAYOUT
  2
AcDbLayout
  3
"AutoCAD 2000"
 90
        0
280
             0
281
             0
  0
CLASS
  1
PLOTSETTINGS
  2
AcDbPlotSettings
  3
"AutoCAD 2000"
 90
        0
280
             0
281
             0
  0
CLASS
  1
ACDBDICTIONARYWDFLT
  2
AcDbDictionaryWithDefault
  3
"AutoCAD 2000"
 90
        0
280
             0
281
             0
  0
CLASS
  1
ACDBPLACEHOLDER
  2
AcDbPlaceHolder
  3
"AutoCAD 2000"
 90
        0
280
             0
281
             0
  0
ENDSEC
  0
SECTION
  2
TABLES
  0
TABLE
  2
VPORT
  5
7
100
AcDbSymbolTable
 70
             1
  0
VPORT
  5
15
100
AcDbSymbolTableRecord
100
AcDbViewportTableRecord
  2
*ACTIVE
 70
             0
 10
0.0
 20
0.0
 11
1.0
 21
1.0
 12
-66.89291246226318
 22
-51.83626343192085
 13
0.0
 23
0.0
 14
1.0
 24
1.0
 15
0.0
 25
0.0
 16
0.0
 26
0.0
 36
1.0
 17
0.0
 27
0.0
 37
0.0
 40
260.34538275833813
 41
1.60267857142857
 42
50.0
 43
0.0
 44
0.0
 50
0.0
 51
0.0
 71
             0
 72
           100
 73
             1
 74
             1
 75
             0
 76
             0
 77
             0
 78
             0
  0
ENDTAB
  0
TABLE
  2
LTYPE
  5
4
100
AcDbSymbolTable
 70
            10
  0
LTYPE
  5
11
100
AcDbSymbolTableRecord
100
AcDbLinetypeTableRecord
  2
BYBLOCK
 70
            64
  3

 72
            65
 73
             0
 40
0.0
  0
LTYPE
  5
12
100
AcDbSymbolTableRecord
100
AcDbLinetypeTableRecord
  2
BYLAYER
 70
            64
  3

 72
            65
 73
             0
 40
0.0
  0
LTYPE
  5
13
100
AcDbSymbolTableRecord
100
AcDbLinetypeTableRecord
  2
CONTINUOUS
 70
            64
  3
Solid line
 72
            65
 73
             0
 40
0.0
  0
LTYPE
  5
1D
100
AcDbSymbolTableRecord
100
AcDbLinetypeTableRecord
  2
DASHED
 70
            64
  3
Dashed
 72
            65
 73
             2
 40
15.0
 49
7.0
 74
             0
 49
-8.0
 74
             0
  0
LTYPE
  5
1E
100
AcDbSymbolTableRecord
100
AcDbLinetypeTableRecord
  2
DOTTED
 70
            64
  3
Dotted
 72
            65
 73
             2
 40
1.0
 49
0.0
 74
             0
 49
-1.0
 74
             0
  0
LTYPE
  5
1F
100
AcDbSymbolTableRecord
100
AcDbLinetypeTableRecord
  2
DOT_CENTER
 70
            64
  3
Dot_Center
 72
            65
 73
             4
 40
14.0
 49
12.0
 74
             0
 49
-1.0
 74
             0
 49
0.0
 74
             0
 49
-1.0
 74
             0
  0
LTYPE
  5
20
100
AcDbSymbolTableRecord
100
AcDbLinetypeTableRecord
  2
LONG_DASHED
 70
            64
  3
Long_Dashed
 72
            65
 73
             2
 40
15.0
 49
10.0
 74
             0
 49
-5.0
 74
             0
  0
LTYPE
  5
21
100
AcDbSymbolTableRecord
100
AcDbLinetypeTableRecord
  2
DASH_CENTER
 70
            64
  3
Dash_Center
 72
            65
 73
             4
 40
14.0
 49
11.0
 74
             0
 49
-1.0
 74
             0
 49
1.0
 74
             0
 49
-1.0
 74
             0
  0
LTYPE
  5
22
100
AcDbSymbolTableRecord
100
AcDbLinetypeTableRecord
  2
PHANTOM
 70
            64
  3
Phantom
 72
            65
 73
             6
 40
13.0
 49
10.0
 74
             0
 49
-1.0
 74
             0
 49
0.0
 74
             0
 49
-1.0
 74
             0
 49
0.0
 74
             0
 49
-1.0
 74
             0
  0
LTYPE
  5
23
100
AcDbSymbolTableRecord
100
AcDbLinetypeTableRecord
  2
CENTER_DASH_DASH
 70
            64
  3
Center_Dash_Dash
 72
            65
 73
             6
 40
14.0
 49
9.0
 74
             0
 49
-1.0
 74
             0
 49
1.0
 74
             0
 49
-1.0
 74
             0
 49
1.0
 74
             0
 49
-1.0
 74
             0
  0
ENDTAB
  0
TABLE
  2
LAYER
  5
2
100
AcDbSymbolTable
 70
             2
  0
LAYER
  5
14
100
AcDbSymbolTableRecord
100
AcDbLayerTableRecord
  2
0
 70
             0
 62
             7
  6
CONTINUOUS
  0
LAYER
  5
24
100
AcDbSymbolTableRecord
100
AcDbLayerTableRecord
  2
1
 70
             0
 62
             7
  6
CONTINUOUS
  0
ENDTAB
  0
TABLE
  2
STYLE
  5
3
100
AcDbSymbolTable
 70
             2
  0
STYLE
  5
17
100
AcDbSymbolTableRecord
100
AcDbTextStyleTableRecord
  2
STANDARD
 70
             0
 40
0.0
 41
1.0
 50
0.0
 71
             0
 42
0.0
  3
txt
  4

  0
STYLE
  5
191
100
AcDbSymbolTableRecord
100
AcDbTextStyleTableRecord
  2
CONVERTER_1
 70
             0
 40
0.0
 41
0.9
 50
0.0
 71
             0
 42
0.0
  3
txt.shx
  4

  0
ENDTAB
  0
TABLE
  2
VIEW
  5
5
100
AcDbSymbolTable
 70
             0
  0
ENDTAB
  0
TABLE
  2
UCS
  5
6
100
AcDbSymbolTable
 70
             0
  0
ENDTAB
  0
TABLE
  2
APPID
  5
8
100
AcDbSymbolTable
 70
             1
  0
APPID
  5
16
100
AcDbSymbolTableRecord
100
AcDbRegAppTableRecord
  2
ACAD
 70
             0
  0
ENDTAB
  0
TABLE
  2
DIMSTYLE
  5
9
100
AcDbSymbolTable
 70
             8
  0
DIMSTYLE
105
18
100
AcDbSymbolTableRecord
100
AcDbDimStyleTableRecord
  2
STANDARD
 70
             0
  3

  4

  5

  6

  7

 40
1.0
 41
0.18
 42
0.0625
 43
0.38
 44
0.18
 45
0.0
 46
0.0
 47
0.0
 48
0.0
 71
             0
 72
             0
 73
             1
 74
             1
 75
             0
 76
             0
 77
             0
 78
             0
140
0.18
141
0.09
142
0.0
143
25.4
144
1.0
145
0.0
146
1.0
147
0.09
170
             0
171
             2
172
             0
173
             0
174
             0
175
             0
176
             0
177
             0
178
             0
270
             2
271
             4
272
             4
273
             2
274
             2
275
             0
280
             0
281
             0
282
             0
283
             1
284
             0
285
             0
286
             0
287
             3
288
             0
340
17
  0
DIMSTYLE
105
194
100
AcDbSymbolTableRecord
100
AcDbDimStyleTableRecord
  2
ME10_DIM_0
 70
             0
  3

  4

  5

  6

  7

 40
1.0
 41
7.0
 42
0.0
 43
0.38
 44
2.0
 45
0.0
 46
0.0
 47
0.0
 48
0.0
 71
             0
 72
             0
 73
             0
 74
             0
 75
             0
 76
             0
 77
             1
 78
             8
140
7.0
141
0.09
142
0.0
143
25.4
144
1.0
145
0.0
146
1.0
147
0.625
170
             0
171
             2
172
             1
173
             1
174
             0
175
             0
176
             4
177
             4
178
             1
270
             2
271
             2
272
             4
273
             2
274
             2
275
             0
280
             0
281
             0
282
             0
283
             1
284
             0
285
             0
286
             0
287
             3
288
             0
340
191
  0
DIMSTYLE
105
1A0
100
AcDbSymbolTableRecord
100
AcDbDimStyleTableRecord
  2
ME10_DIM_1
 70
             0
  3
DN<>
  4

  5

  6

  7

 40
1.0
 41
7.0
 42
0.0
 43
0.38
 44
2.0
 45
0.0
 46
0.0
 47
0.0
 48
0.0
 71
             0
 72
             0
 73
             0
 74
             0
 75
             0
 76
             0
 77
             1
 78
             8
140
7.0
141
0.09
142
0.0
143
25.4
144
1.0
145
0.0
146
1.0
147
0.625
170
             0
171
             2
172
             1
173
             1
174
             0
175
             0
176
             4
177
             4
178
             1
270
             2
271
             2
272
             4
273
             2
274
             2
275
             0
280
             0
281
             0
282
             0
283
             1
284
             0
285
             0
286
             0
287
             3
288
             0
340
191
  0
DIMSTYLE
105
1AB
100
AcDbSymbolTableRecord
100
AcDbDimStyleTableRecord
  2
ME10_DIM_2
 70
             0
  3
DN<>
  4

  5

  6

  7

 40
1.0
 41
7.0
 42
0.0
 43
0.38
 44
2.0
 45
0.0
 46
0.0
 47
0.0
 48
0.0
 71
             0
 72
             0
 73
             0
 74
             0
 75
             0
 76
             0
 77
             1
 78
             8
140
7.0
141
0.09
142
0.0
143
25.4
144
1.0
145
0.0
146
1.0
147
0.625
170
             0
171
             2
172
             1
173
             1
174
             0
175
             0
176
             4
177
             4
178
             1
270
             2
271
             2
272
             4
273
             2
274
             2
275
             0
280
             0
281
             0
282
             0
283
             1
284
             0
285
             0
286
             0
287
             3
288
             0
340
191
  0
DIMSTYLE
105
1B6
100
AcDbSymbolTableRecord
100
AcDbDimStyleTableRecord
  2
ME10_DIM_3
 70
             0
  3
-160
  4

  5

  6

  7

 40
1.0
 41
7.0
 42
0.0
 43
0.38
 44
2.0
 45
0.0
 46
0.0
 47
0.0
 48
0.0
 71
             0
 72
             0
 73
             0
 74
             0
 75
             0
 76
             0
 77
             1
 78
             8
140
7.0
141
0.09
142
0.0
143
25.4
144
1.0
145
0.0
146
1.0
147
0.625
170
             0
171
             2
172
             1
173
             1
174
             0
175
             0
176
             4
177
             4
178
             1
270
             2
271
             2
272
             4
273
             2
274
             2
275
             0
280
             0
281
             0
282
             0
283
             1
284
             0
285
             0
286
             0
287
             3
288
             0
340
191
  0
DIMSTYLE
105
1C2
100
AcDbSymbolTableRecord
100
AcDbDimStyleTableRecord
  2
ME10_DIM_4
 70
             0
  3
DN<>-DN40
  4

  5

  6

  7

 40
1.0
 41
7.0
 42
0.0
 43
0.38
 44
2.0
 45
0.0
 46
0.0
 47
0.0
 48
0.0
 71
             0
 72
             0
 73
             0
 74
             0
 75
             0
 76
             0
 77
             1
 78
             8
140
7.0
141
0.09
142
0.0
143
25.4
144
1.0
145
0.0
146
1.0
147
0.625
170
             0
171
             2
172
             1
173
             1
174
             0
175
             0
176
             4
177
             4
178
             1
270
             2
271
             2
272
             4
273
             2
274
             2
275
             0
280
             0
281
             0
282
             0
283
             1
284
             0
285
             0
286
             0
287
             3
288
             0
340
191
  0
DIMSTYLE
105
1CD
100
AcDbSymbolTableRecord
100
AcDbDimStyleTableRecord
  2
ME10_DIM_5
 70
             0
  3

  4

  5

  6

  7

 40
1.0
 41
7.0
 42
0.0
 43
0.38
 44
2.0
 45
0.0
 46
0.0
 47
0.0
 48
0.0
 71
             0
 72
             0
 73
             0
 74
             0
 75
             0
 76
             0
 77
             1
 78
             8
140
7.0
141
0.09
142
0.0
143
25.4
144
1.0
145
0.0
146
1.0
147
0.625
170
             0
171
             2
172
             1
173
             1
174
             0
175
             0
176
             4
177
             4
178
             1
270
             2
271
             2
272
             4
273
             2
274
             2
275
             0
280
             0
281
             0
282
             0
283
             1
284
             0
285
             0
286
             0
287
             3
288
             0
340
191
  0
DIMSTYLE
105
1D8
100
AcDbSymbolTableRecord
100
AcDbDimStyleTableRecord
  2
ME10_DIM_6
 70
             0
  3

  4

  5

  6

  7

 40
1.0
 41
7.0
 42
0.0
 43
0.38
 44
2.0
 45
0.0
 46
0.0
 47
0.0
 48
0.0
 71
             0
 72
             0
 73
             0
 74
             0
 75
             0
 76
             0
 77
             1
 78
             8
140
7.0
141
0.09
142
0.0
143
25.4
144
1.0
145
0.0
146
1.0
147
0.625
170
             0
171
             2
172
             1
173
             1
174
             0
175
             0
176
             4
177
             4
178
             1
270
             2
271
             0
272
             4
273
             2
274
             2
275
             0
280
             0
281
             0
282
             0
283
             1
284
             0
285
             0
286
             0
287
             3
288
             0
340
191
  0
ENDTAB
  0
TABLE
  2
BLOCK_RECORD
  5
1
100
AcDbSymbolTable
 70
            10
  0
BLOCK_RECORD
  5
A
100
AcDbSymbolTableRecord
100
AcDbBlockTableRecord
  2
*MODEL_SPACE
  0
BLOCK_RECORD
  5
B
100
AcDbSymbolTableRecord
100
AcDbBlockTableRecord
  2
*PAPER_SPACE
  0
BLOCK_RECORD
  5
25
100
AcDbSymbolTableRecord
100
AcDbBlockTableRecord
  2
HL_34_SIFONANSCHLU_WINIKEL
  0
BLOCK_RECORD
  5
27
100
AcDbSymbolTableRecord
100
AcDbBlockTableRecord
  2
HL_34_VERSCHLU_KAPPE
  0
BLOCK_RECORD
  5
29
100
AcDbSymbolTableRecord
100
AcDbBlockTableRecord
  2
HL_34_DICHTUNG
  0
BLOCK_RECORD
  5
188
100
AcDbSymbolTableRecord
100
AcDbBlockTableRecord
  2
*D3
  0
BLOCK_RECORD
  5
196
100
AcDbSymbolTableRecord
100
AcDbBlockTableRecord
  2
*D4
  0
BLOCK_RECORD
  5
1A2
100
AcDbSymbolTableRecord
100
AcDbBlockTableRecord
  2
*D5
  0
BLOCK_RECORD
  5
1AD
100
AcDbSymbolTableRecord
100
AcDbBlockTableRecord
  2
*D6
  0
BLOCK_RECORD
  5
1B8
100
AcDbSymbolTableRecord
100
AcDbBlockTableRecord
  2
*D7
  0
BLOCK_RECORD
  5
1C4
100
AcDbSymbolTableRecord
100
AcDbBlockTableRecord
  2
*D8
  0
BLOCK_RECORD
  5
1CF
100
AcDbSymbolTableRecord
100
AcDbBlockTableRecord
  2
*D9
  0
ENDTAB
  0
ENDSEC
  0
SECTION
  2
BLOCKS
  0
BLOCK
  5
D
100
AcDbEntity
  8
0
100
AcDbBlockBegin
  2
*MODEL_SPACE
 70
             0
 10
0.0
 20
0.0
 30
0.0
  3
*MODEL_SPACE
  1

  0
ENDBLK
  5
E
100
AcDbEntity
  8
0
100
AcDbBlockEnd
  0
BLOCK
  5
F
100
AcDbEntity
 67
             1
  8
0
100
AcDbBlockBegin
  2
*PAPER_SPACE
 70
             0
 10
0.0
 20
0.0
 30
0.0
  3
*PAPER_SPACE
  1

  0
ENDBLK
  5
10
100
AcDbEntity
 67
             1
  8
0
100
AcDbBlockEnd
  0
BLOCK
  5
26
100
AcDbEntity
  8
0
100
AcDbBlockBegin
  2
HL_34_SIFONANSCHLU_WINIKEL
 70
             0
 10
-195.12964595283529
 20
44.05270675199608
 30
0.0
  3
HL_34_SIFONANSCHLU_WINIKEL
  1

  0
ARC
  5
15C
100
AcDbEntity
  8
1
  6
CONTINUOUS
 62
             7
100
AcDbCircle
 10
-163.10000000000221
 20
13.05270675199608
 40
0.5
100
AcDbArc
 50
0.0
 51
90.0
  0
ARC
  5
15B
100
AcDbEntity
  8
1
  6
CONTINUOUS
 62
             7
100
AcDbCircle
 10
-165.10000000000221
 20
13.05270675199608
 40
0.5
100
AcDbArc
 50
90.0
 51
180.0
  0
ARC
  5
15A
100
AcDbEntity
  8
1
  6
CONTINUOUS
 62
             7
100
AcDbCircle
 10
-124.1000000000022
 20
-40.59729324800401
 40
1.00000000000011
100
AcDbArc
 50
90.0
 51
180.0
  0
ARC
  5
159
100
AcDbEntity
  8
1
  6
CONTINUOUS
 62
             7
100
AcDbCircle
 10
-159.6000000000021
 20
-107.0472932480039
 40
0.5
100
AcDbArc
 50
90.0
 51
180.0
  0
ARC
  5
158
100
AcDbEntity
  8
1
  6
CONTINUOUS
 62
             7
100
AcDbCircle
 10
-140.6000000000021
 20
-107.0472932480039
 40
0.49999999999989
100
AcDbArc
 50
0.0
 51
90.0
  0
ARC
  5
157
100
AcDbEntity
  8
1
  6
CONTINUOUS
 62
             7
100
AcDbCircle
 10
-159.6000000000021
 20
-107.7472932480039
 40
0.50000000000011
100
AcDbArc
 50
180.0
 51
-90.0
  0
ARC
  5
156
100
AcDbEntity
  8
1
  6
CONTINUOUS
 62
             7
100
AcDbCircle
 10
-140.6000000000021
 20
-107.7472932480039
 40
0.5
100
AcDbArc
 50
-90.0
 51
0.0
  0
ARC
  5
155
100
AcDbEntity
  8
1
  6
CONTINUOUS
 62
             7
100
AcDbCircle
 10
-163.10000000000221
 20
-46.46218826750896
 40
0.5
100
AcDbArc
 50
-90.0
 51
0.0
  0
ARC
  5
154
100
AcDbEntity
  8
1
  6
CONTINUOUS
 62
             7
100
AcDbCircle
 10
-165.10000000000221
 20
-46.46218826750896
 40
0.5
100
AcDbArc
 50
180.0
 51
-90.0
  0
ARC
  5
153
100
AcDbEntity
  8
1
  6
CONTINUOUS
 62
             7
100
AcDbCircle
 10
-162.1000000000021
 20
-22.94729324800392
 40
0.50000000000011
100
AcDbArc
 50
180.0
 51
-90.0
  0
ARC
  5
152
100
AcDbEntity
  8
1
  6
CONTINUOUS
 62
             7
100
AcDbCircle
 10
-162.1000000000021
 20
-25.94729324800392
 40
0.49999999999989
100
AcDbArc
 50
90.0
 51
180.0
  0
ARC
  5
151
100
AcDbEntity
  8
1
  6
CONTINUOUS
 62
             7
100
AcDbCircle
 10
-162.10000000000221
 20
-0.9472932480038
 40
0.5
100
AcDbArc
 50
180.0
 51
-90.0
  0
ARC
  5
150
100
AcDbEntity
  8
1
  6
CONTINUOUS
 62
             7
100
AcDbCircle
 10
-162.10000000000221
 20
-3.94729324800386
 40
0.5
100
AcDbArc
 50
90.0
 51
180.0
  0
ARC
  5
14F
100
AcDbEntity
  8
1
  6
CONTINUOUS
 62
             7
100
AcDbCircle
 10
-157.10000000000221
 20
-2.9472932480038
 40
0.5
100
AcDbArc
 50
-90.0
 51
0.0
  0
ARC
  5
14E
100
AcDbEntity
  8
1
  6
CONTINUOUS
 62
             7
100
AcDbCircle
 10
-125.1000000000021
 20
-40.44729324800403
 40
40.00000000000004
100
AcDbArc
 50
120.00000000000017
 51
143.9938295651115
  0
ARC
  5
14D
100
AcDbEntity
  8
1
  6
CONTINUOUS
 62
             7
100
AcDbCircle
 10
-125.1000000000021
 20
-40.44729324800403
 40
40.00000000000003
100
AcDbArc
 50
91.56365756511288
 51
120.00000000000017
  0
ARC
  5
14C
100
AcDbEntity
  8
1
  6
CONTINUOUS
 62
             7
100
AcDbCircle
 10
-125.1000000000021
 20
-40.44729324800403
 40
40.00000000000013
100
AcDbArc
 50
143.9938295651115
 51
154.84933658745626
  0
ARC
  5
14B
100
AcDbEntity
  8
1
  6
CONTINUOUS
 62
             7
100
AcDbCircle
 10
-125.1000000000021
 20
-40.44729324800403
 40
39.99999999999998
100
AcDbArc
 50
157.97568716295783
 51
159.63586519368224
  0
ARC
  5
14A
100
AcDbEntity
  8
1
  6
CONTINUOUS
 62
             7
100
AcDbCircle
 10
-125.1000000000021
 20
-47.81218826750887
 40
40.00000000000011
100
AcDbArc
 50
178.78237303450709
 51
180.0
  0
ARC
  5
149
100
AcDbEntity
  8
1
  6
CONTINUOUS
 62
             7
100
AcDbCircle
 10
-125.1000000000021
 20
-47.81218826750887
 40
40.00000000000011
100
AcDbArc
 50
178.78237303450709
 51
180.0
  0
ARC
  5
148
100
AcDbEntity
  8
1
  6
CONTINUOUS
 62
             7
100
AcDbCircle
 10
-145.6111603389347
 20
12.18646352585552
 40
18.0000000000003
100
AcDbArc
 50
-127.62502060996663
 51
-88.37270733934585
  0
ARC
  5
147
100
AcDbEntity
  8
1
  6
CONTINUOUS
 62
             7
100
AcDbCircle
 10
-145.6111603389347
 20
12.18646352585552
 40
18.00000000000035
100
AcDbArc
 50
-160.70406971491542
 51
-130.76176501402512
  0
ARC
  5
146
100
AcDbEntity
  8
1
  6
CONTINUOUS
 62
             7
100
AcDbCircle
 10
-145.6111603389347
 20
12.18646352585552
 40
18.00000000000023
100
AcDbArc
 50
-130.76176501402512
 51
-127.62502060996663
  0
LINE
  5
145
100
AcDbEntity
  8
1
  6
CONTINUOUS
 62
             7
100
AcDbLine
 10
-107.6000000000021
 20
15.55270675199608
 11
-107.8679491924332
 21
16.55270675199608
  0
LINE
  5
144
100
AcDbEntity
  8
1
  6
CONTINUOUS
 62
             7
100
AcDbLine
 10
-109.6000000000021
 20
15.55270675199608
 11
-109.33205080757099
 21
16.55270675199608
  0
LINE
  5
143
100
AcDbEntity
  8
1
  6
CONTINUOUS
 62
             7
100
AcDbLine
 10
-91.6000000000021
 20
15.55270675199608
 11
-91.33205080757099
 21
16.55270675199608
  0
LINE
  5
142
100
AcDbEntity
  8
1
  6
CONTINUOUS
 62
             7
100
AcDbLine
 10
-89.6000000000021
 20
15.55270675199608
 11
-89.8679491924332
 21
16.55270675199608
  0
LINE
  5
141
100
AcDbEntity
  8
1
  6
CONTINUOUS
 62
             7
100
AcDbLine
 10
-89.6000000000021
 20
-42.44729324800403
 11
-89.8679491924332
 21
-43.44729324800403
  0
LINE
  5
140
100
AcDbEntity
  8
1
  6
CONTINUOUS
 62
             7
100
AcDbLine
 10
-91.6000000000021
 20
-42.44729324800403
 11
-91.33205080757099
 21
-43.44729324800403
  0
LINE
  5
13F
100
AcDbEntity
  8
1
  6
CONTINUOUS
 62
             7
100
AcDbLine
 10
-109.6000000000021
 20
-42.44729324800403
 11
-109.33205080757099
 21
-43.44729324800403
  0
LINE
  5
13E
100
AcDbEntity
  8
1
  6
CONTINUOUS
 62
             7
100
AcDbLine
 10
-107.6000000000021
 20
-42.44729324800403
 11
-107.8679491924332
 21
-43.44729324800403
  0
LINE
  5
13D
100
AcDbEntity
  8
1
  6
CONTINUOUS
 62
             7
100
AcDbLine
 10
-107.8679491924332
 20
-43.44729324800403
 11
-109.33205080757099
 21
-43.44729324800403
  0
LINE
  5
13C
100
AcDbEntity
  8
1
  6
CONTINUOUS
 62
             7
100
AcDbLine
 10
-109.6000000000021
 20
-40.44729324800403
 11
-109.6000000000021
 21
-42.44729324800403
  0
LINE
  5
13B
100
AcDbEntity
  8
1
  6
CONTINUOUS
 62
             7
100
AcDbLine
 10
-107.6000000000021
 20
-40.44729324800403
 11
-101.3277568135686
 21
-40.44729324800403
  0
LINE
  5
13A
100
AcDbEntity
  8
1
  6
CONTINUOUS
 62
             7
100
AcDbLine
 10
-107.6000000000021
 20
13.55270675199608
 11
-107.6000000000021
 21
-42.44729324800403
  0
LINE
  5
139
100
AcDbEntity
  8
1
  6
CONTINUOUS
 62
             7
100
AcDbLine
 10
-109.6000000000021
 20
13.55270675199608
 11
-117.9440933195792
 21
13.55270675199608
  0
LINE
  5
138
100
AcDbEntity
  8
1
  6
CONTINUOUS
 62
             7
100
AcDbLine
 10
-109.6000000000021
 20
15.55270675199608
 11
-109.6000000000021
 21
-40.44729324800403
  0
LINE
  5
137
100
AcDbEntity
  8
1
  6
CONTINUOUS
 62
             7
100
AcDbLine
 10
-107.6000000000021
 20
15.55270675199608
 11
-107.6000000000021
 21
13.55270675199608
  0
LINE
  5
136
100
AcDbEntity
  8
1
  6
CONTINUOUS
 62
             7
100
AcDbLine
 10
-107.8679491924332
 20
16.55270675199608
 11
-109.33205080757099
 21
16.55270675199608
  0
LINE
  5
135
100
AcDbEntity
  8
1
  6
CONTINUOUS
 62
             7
100
AcDbLine
 10
-89.8679491924332
 20
16.55270675199608
 11
-91.33205080757099
 21
16.55270675199608
  0
LINE
  5
134
100
AcDbEntity
  8
1
  6
CONTINUOUS
 62
             7
100
AcDbLine
 10
-91.6000000000021
 20
13.55270675199608
 11
-92.17224318643568
 21
13.55270675199608
  0
LINE
  5
133
100
AcDbEntity
  8
1
  6
CONTINUOUS
 62
             7
100
AcDbLine
 10
-91.6000000000021
 20
15.55270675199608
 11
-91.6000000000021
 21
-40.44729324800403
  0
LINE
  5
132
100
AcDbEntity
  8
1
  6
CONTINUOUS
 62
             7
100
AcDbLine
 10
-89.6000000000021
 20
15.55270675199608
 11
-89.6000000000021
 21
13.07591183275281
  0
LINE
  5
131
100
AcDbEntity
  8
1
  6
CONTINUOUS
 62
             7
100
AcDbLine
 10
-89.8679491924332
 20
-43.44729324800403
 11
-91.33205080757099
 21
-43.44729324800403
  0
LINE
  5
130
100
AcDbEntity
  8
1
  6
CONTINUOUS
 62
             7
100
AcDbLine
 10
-91.6000000000021
 20
-40.44729324800403
 11
-91.6000000000021
 21
-42.44729324800403
  0
LINE
  5
12F
100
AcDbEntity
  8
1
  6
CONTINUOUS
 62
             7
100
AcDbLine
 10
-89.6000000000021
 20
-39.97049832876064
 11
-89.50000000000208
 21
-39.59729324800389
  0
LINE
  5
12E
100
AcDbEntity
  8
1
  6
CONTINUOUS
 62
             7
100
AcDbLine
 10
-89.6000000000021
 20
-42.44729324800403
 11
-89.6000000000021
 21
13.07591183275281
  0
LINE
  5
12D
100
AcDbEntity
  8
1
  6
CONTINUOUS
 62
             7
100
AcDbLine
 10
-165.10000000000221
 20
13.55270675199608
 11
-163.10000000000221
 21
13.55270675199608
  0
LINE
  5
12C
100
AcDbEntity
  8
1
  6
CONTINUOUS
 62
             7
100
AcDbLine
 10
-158.82105117430089
 20
-25.44729324800403
 11
-162.18099243548039
 21
-25.44729324800403
  0
LINE
  5
12B
100
AcDbEntity
  8
1
  6
CONTINUOUS
 62
             7
100
AcDbLine
 10
-162.60000000000221
 20
-18.93239822849898
 11
-162.60000000000221
 21
-22.94729324800392
  0
LINE
  5
12A
100
AcDbEntity
  8
1
  6
CONTINUOUS
 62
             7
100
AcDbLine
 10
-145.10000000000221
 20
-23.44729324800397
 11
-157.45814754002151
 21
-23.44729324800397
  0
LINE
  5
129
100
AcDbEntity
  8
1
  6
CONTINUOUS
 62
             7
100
AcDbLine
 10
-162.60000000000221
 20
-16.19729324800392
 11
-162.60000000000221
 21
-18.93239822849898
  0
LINE
  5
128
100
AcDbEntity
  8
1
  6
CONTINUOUS
 62
             7
100
AcDbLine
 10
-165.60000000000221
 20
-16.19729324800392
 11
-165.60000000000221
 21
-10.69729324800403
  0
LINE
  5
127
100
AcDbEntity
  8
1
  6
CONTINUOUS
 62
             7
100
AcDbLine
 10
-162.60000000000221
 20
-16.19729324800392
 11
-165.60000000000221
 21
-16.19729324800392
  0
LINE
  5
126
100
AcDbEntity
  8
1
  6
CONTINUOUS
 62
             7
100
AcDbLine
 10
-162.60000000000221
 20
-10.69729324800403
 11
-162.60000000000221
 21
-16.19729324800392
  0
LINE
  5
125
100
AcDbEntity
  8
1
  6
CONTINUOUS
 62
             7
100
AcDbLine
 10
-165.60000000000221
 20
-10.69729324800403
 11
-165.60000000000221
 21
13.05270675199608
  0
LINE
  5
124
100
AcDbEntity
  8
1
  6
CONTINUOUS
 62
             7
100
AcDbLine
 10
-162.60000000000221
 20
-10.69729324800403
 11
-165.60000000000221
 21
-10.69729324800403
  0
LINE
  5
123
100
AcDbEntity
  8
1
  6
CONTINUOUS
 62
             7
100
AcDbLine
 10
-165.0909677302285
 20
-46.96218826750896
 11
-163.10000000000221
 21
-46.96218826750896
  0
LINE
  5
122
100
AcDbEntity
  8
1
  6
DOT_CENTER
 62
             2
100
AcDbLine
 10
-145.10000000000221
 20
-5.8062770966265
 11
-145.10000000000221
 21
2.58395675199608
  0
LINE
  5
121
100
AcDbEntity
  8
1
  6
CONTINUOUS
 62
             7
100
AcDbLine
 10
-162.60000000000221
 20
11.55270675199608
 11
-162.60000000000221
 21
6.23841115801679
  0
LINE
  5
120
100
AcDbEntity
  8
1
  6
CONTINUOUS
 62
             7
100
AcDbLine
 10
-117.9440933195792
 20
11.93220567720539
 11
-125.1000000000021
 21
-40.59729324800401
  0
LINE
  5
11F
100
AcDbEntity
  8
1
  6
CONTINUOUS
 62
             7
100
AcDbLine
 10
-125.1000000000021
 20
-0.46218826750896
 11
-125.1000000000021
 21
-40.59729324800401
  0
LINE
  5
11E
100
AcDbEntity
  8
1
  6
CONTINUOUS
 62
             7
100
AcDbLine
 10
-117.9440933195792
 20
11.93220567720539
 11
-117.9440933195792
 21
13.55270675199608
  0
LINE
  5
11D
100
AcDbEntity
  8
1
  6
CONTINUOUS
 62
             7
100
AcDbLine
 10
-117.9440933195792
 20
11.93220567720539
 11
-125.1000000000021
 21
-0.46218826750896
  0
LINE
  5
11C
100
AcDbEntity
  8
1
  6
CONTINUOUS
 62
             7
100
AcDbLine
 10
-117.9440933195792
 20
-39.59729324800389
 11
-117.9440933195792
 21
11.93220567720539
  0
LINE
  5
11B
100
AcDbEntity
  8
1
  6
CONTINUOUS
 62
             7
100
AcDbLine
 10
-126.1915034121777
 20
-0.46218826750896
 11
-125.1000000000021
 21
-0.46218826750896
  0
LINE
  5
11A
100
AcDbEntity
  8
1
  6
DOT_CENTER
 62
             2
100
AcDbLine
 10
-145.10000000000221
 20
-29.96218826750896
 11
-145.10000000000221
 21
-5.8062770966265
  0
LINE
  5
119
100
AcDbEntity
  8
1
  6
DOT_CENTER
 62
             2
100
AcDbLine
 10
-145.10000000000221
 20
-152.41604324800389
 11
-145.10000000000221
 21
-31.96218826750885
  0
LINE
  5
118
100
AcDbEntity
  8
1
  6
CONTINUOUS
 62
             7
100
AcDbLine
 10
-165.10000000000221
 20
-93.54729324800388
 11
-125.1000000000021
 21
-103.5472932480039
  0
LINE
  5
117
100
AcDbEntity
  8
1
  6
CONTINUOUS
 62
             7
100
AcDbLine
 10
-122.1000000000021
 20
-143.04729324800391
 11
-122.1000000000021
 21
-106.5472932480039
  0
LINE
  5
116
100
AcDbEntity
  8
1
  6
CONTINUOUS
 62
             7
100
AcDbLine
 10
-125.1000000000021
 20
-103.5472932480039
 11
-125.1000000000021
 21
-40.59729324800401
  0
LINE
  5
115
100
AcDbEntity
  8
1
  6
CONTINUOUS
 62
             7
100
AcDbLine
 10
-178.1000000000021
 20
-143.04729324800391
 11
-178.1000000000021
 21
-106.5472932480039
  0
LINE
  5
114
100
AcDbEntity
  8
1
  6
CONTINUOUS
 62
             7
100
AcDbLine
 10
-101.1000000000022
 20
-39.59729324800389
 11
-101.1000000000022
 21
12.70270675199606
  0
LINE
  5
113
100
AcDbEntity
  8
1
  6
CONTINUOUS
 62
             7
100
AcDbLine
 10
-98.20000000000206
 20
-39.59729324800389
 11
-98.20000000000206
 21
12.70270675199606
  0
LINE
  5
112
100
AcDbEntity
  8
1
  6
CONTINUOUS
 62
             7
100
AcDbLine
 10
-95.30000000000209
 20
-39.59729324800389
 11
-95.30000000000209
 21
12.70270675199606
  0
LINE
  5
111
100
AcDbEntity
  8
1
  6
CONTINUOUS
 62
             7
100
AcDbLine
 10
-92.40000000000217
 20
-39.59729324800389
 11
-92.40000000000217
 21
12.70270675199606
  0
LINE
  5
110
100
AcDbEntity
  8
1
  6
CONTINUOUS
 62
             7
100
AcDbLine
 10
-89.50000000000208
 20
-39.59729324800389
 11
-89.50000000000208
 21
12.70270675199606
  0
LINE
  5
10F
100
AcDbEntity
  8
1
  6
CONTINUOUS
 62
             7
100
AcDbLine
 10
-86.60000000000215
 20
-39.59729324800389
 11
-86.60000000000215
 21
12.70270675199606
  0
LINE
  5
10E
100
AcDbEntity
  8
1
  6
CONTINUOUS
 62
             7
100
AcDbLine
 10
-83.70000000000212
 20
-39.59729324800389
 11
-83.70000000000212
 21
12.70270675199606
  0
LINE
  5
10D
100
AcDbEntity
  8
1
  6
CONTINUOUS
 62
             7
100
AcDbLine
 10
-80.80000000000214
 20
-39.59729324800389
 11
-80.80000000000214
 21
12.70270675199606
  0
LINE
  5
10C
100
AcDbEntity
  8
1
  6
CONTINUOUS
 62
             7
100
AcDbLine
 10
-77.90000000000217
 20
-39.59729324800389
 11
-77.90000000000217
 21
12.70270675199606
  0
LINE
  5
10B
100
AcDbEntity
  8
1
  6
CONTINUOUS
 62
             7
100
AcDbLine
 10
-75.00000000000213
 20
-39.59729324800389
 11
-75.00000000000213
 21
12.70270675199606
  0
LINE
  5
10A
100
AcDbEntity
  8
1
  6
CONTINUOUS
 62
             7
100
AcDbLine
 10
-72.10000000000215
 20
-39.59729324800389
 11
-72.10000000000215
 21
12.70270675199606
  0
LINE
  5
109
100
AcDbEntity
  8
1
  6
CONTINUOUS
 62
             7
100
AcDbLine
 10
-69.20000000000215
 20
-39.59729324800389
 11
-69.20000000000215
 21
12.70270675199606
  0
LINE
  5
108
100
AcDbEntity
  8
1
  6
CONTINUOUS
 62
             7
100
AcDbLine
 10
-66.30000000000214
 20
-39.59729324800389
 11
-66.30000000000214
 21
12.70270675199606
  0
LINE
  5
107
100
AcDbEntity
  8
1
  6
CONTINUOUS
 62
             7
100
AcDbLine
 10
-63.40000000000217
 20
-39.59729324800389
 11
-63.40000000000217
 21
12.70270675199606
  0
LINE
  5
106
100
AcDbEntity
  8
1
  6
CONTINUOUS
 62
             7
100
AcDbLine
 10
-60.50000000000213
 20
-39.59729324800389
 11
-60.50000000000213
 21
12.70270675199606
  0
LINE
  5
105
100
AcDbEntity
  8
1
  6
CONTINUOUS
 62
             7
100
AcDbLine
 10
-57.60000000000215
 20
-39.59729324800389
 11
-57.60000000000215
 21
12.70270675199606
  0
LINE
  5
104
100
AcDbEntity
  8
1
  6
CONTINUOUS
 62
             7
100
AcDbLine
 10
-54.70000000000215
 20
-39.59729324800389
 11
-54.70000000000215
 21
12.70270675199606
  0
LINE
  5
103
100
AcDbEntity
  8
1
  6
CONTINUOUS
 62
             7
100
AcDbLine
 10
-51.80000000000217
 20
-39.59729324800389
 11
-51.80000000000217
 21
12.70270675199606
  0
LINE
  5
102
100
AcDbEntity
  8
1
  6
CONTINUOUS
 62
             7
100
AcDbLine
 10
-48.90000000000217
 20
-39.59729324800389
 11
-48.90000000000217
 21
12.70270675199606
  0
LINE
  5
101
100
AcDbEntity
  8
1
  6
CONTINUOUS
 62
             7
100
AcDbLine
 10
-46.00000000000216
 20
-39.59729324800389
 11
-46.00000000000216
 21
12.70270675199606
  0
LINE
  5
100
100
AcDbEntity
  8
1
  6
CONTINUOUS
 62
             7
100
AcDbLine
 10
-43.10000000000215
 20
-39.59729324800384
 11
-43.10000000000215
 21
12.70270675199612
  0
LINE
  5
FF
100
AcDbEntity
  8
1
  6
CONTINUOUS
 62
             7
100
AcDbLine
 10
-40.20000000000218
 20
-39.59729324800384
 11
-40.20000000000218
 21
12.70270675199612
  0
LINE
  5
FE
100
AcDbEntity
  8
1
  6
CONTINUOUS
 62
             7
100
AcDbLine
 10
-37.30000000000217
 20
-39.59729324800384
 11
-37.30000000000217
 21
12.70270675199612
  0
LINE
  5
FD
100
AcDbEntity
  8
1
  6
CONTINUOUS
 62
             7
100
AcDbLine
 10
-34.40000000000217
 20
-39.59729324800384
 11
-34.40000000000217
 21
12.70270675199612
  0
LINE
  5
FC
100
AcDbEntity
  8
1
  6
CONTINUOUS
 62
             7
100
AcDbLine
 10
-31.50000000000216
 20
-39.59729324800384
 11
-31.50000000000216
 21
12.70270675199612
  0
LINE
  5
FB
100
AcDbEntity
  8
1
  6
CONTINUOUS
 62
             7
100
AcDbLine
 10
-28.60000000000215
 20
-39.59729324800384
 11
-28.60000000000215
 21
12.70270675199612
  0
LINE
  5
FA
100
AcDbEntity
  8
1
  6
CONTINUOUS
 62
             7
100
AcDbLine
 10
-25.70000000000215
 20
-39.59729324800384
 11
-25.70000000000215
 21
12.70270675199612
  0
LINE
  5
F9
100
AcDbEntity
  8
1
  6
CONTINUOUS
 62
             7
100
AcDbLine
 10
-22.80000000000217
 20
-39.59729324800384
 11
-22.80000000000217
 21
12.70270675199612
  0
LINE
  5
F8
100
AcDbEntity
  8
1
  6
CONTINUOUS
 62
             7
100
AcDbLine
 10
-19.90000000000217
 20
-39.59729324800384
 11
-19.90000000000217
 21
12.70270675199612
  0
LINE
  5
F7
100
AcDbEntity
  8
1
  6
CONTINUOUS
 62
             7
100
AcDbLine
 10
-17.00000000000216
 20
-39.59729324800384
 11
-17.00000000000216
 21
12.70270675199612
  0
LINE
  5
F6
100
AcDbEntity
  8
1
  6
CONTINUOUS
 62
             7
100
AcDbLine
 10
-14.10000000000218
 20
-39.59729324800384
 11
-14.10000000000218
 21
12.70270675199612
  0
LINE
  5
F5
100
AcDbEntity
  8
1
  6
CONTINUOUS
 62
             7
100
AcDbLine
 10
-11.20000000000218
 20
-39.59729324800384
 11
-11.20000000000218
 21
12.70270675199612
  0
LINE
  5
F4
100
AcDbEntity
  8
1
  6
CONTINUOUS
 62
             7
100
AcDbLine
 10
-8.30000000000217
 20
-39.59729324800384
 11
-8.30000000000217
 21
12.70270675199612
  0
LINE
  5
F3
100
AcDbEntity
  8
1
  6
CONTINUOUS
 62
             7
100
AcDbLine
 10
-5.40000000000217
 20
-39.59729324800384
 11
-5.40000000000217
 21
12.70270675199612
  0
LINE
  5
F2
100
AcDbEntity
  8
1
  6
CONTINUOUS
 62
             7
100
AcDbLine
 10
-2.50000000000216
 20
-39.59729324800384
 11
-2.50000000000216
 21
12.70270675199612
  0
LINE
  5
F1
100
AcDbEntity
  8
1
  6
CONTINUOUS
 62
             7
100
AcDbLine
 10
0.39999999999782
 20
-39.59729324800384
 11
0.39999999999782
 21
12.70270675199612
  0
LINE
  5
F0
100
AcDbEntity
  8
1
  6
CONTINUOUS
 62
             7
100
AcDbLine
 10
3.29999999999782
 20
-39.59729324800384
 11
3.29999999999782
 21
12.70270675199612
  0
LINE
  5
EF
100
AcDbEntity
  8
1
  6
CONTINUOUS
 62
             7
100
AcDbLine
 10
6.19999999999783
 20
-39.59729324800384
 11
6.19999999999783
 21
12.70270675199612
  0
LINE
  5
EE
100
AcDbEntity
  8
1
  6
CONTINUOUS
 62
             7
100
AcDbLine
 10
9.09999999999783
 20
-39.59729324800384
 11
9.09999999999783
 21
12.70270675199612
  0
LINE
  5
ED
100
AcDbEntity
  8
1
  6
CONTINUOUS
 62
             7
100
AcDbLine
 10
-165.60000000000221
 20
-46.46218826750896
 11
-165.60000000000221
 21
-16.19729324800392
  0
LINE
  5
EC
100
AcDbEntity
  8
1
  6
CONTINUOUS
 62
             7
100
AcDbLine
 10
-165.0909677302285
 20
-46.96218826750896
 11
-165.10000000000221
 21
-46.96218826750896
  0
LINE
  5
EB
100
AcDbEntity
  8
1
  6
CONTINUOUS
 62
             7
100
AcDbLine
 10
-117.71633650601269
 20
-40.44729324800403
 11
-115.27185013314561
 21
-40.44729324800403
  0
LINE
  5
EA
100
AcDbEntity
  8
1
  6
CONTINUOUS
 62
             7
100
AcDbLine
 10
-117.9440933195792
 20
-39.59729324800389
 11
-117.71633650601269
 21
-40.44729324800403
  0
LINE
  5
E9
100
AcDbEntity
  8
1
  6
CONTINUOUS
 62
             7
100
AcDbLine
 10
-101.3277568135686
 20
-40.44729324800403
 11
-101.1000000000022
 21
-39.59729324800389
  0
LINE
  5
E8
100
AcDbEntity
  8
1
  6
CONTINUOUS
 62
             7
100
AcDbLine
 10
-101.1000000000022
 20
-39.59729324800389
 11
-98.20000000000206
 21
-39.59729324800389
  0
LINE
  5
E7
100
AcDbEntity
  8
1
  6
CONTINUOUS
 62
             7
100
AcDbLine
 10
-95.30000000000209
 20
-39.59729324800389
 11
-92.40000000000217
 21
-39.59729324800389
  0
LINE
  5
E6
100
AcDbEntity
  8
1
  6
CONTINUOUS
 62
             7
100
AcDbLine
 10
-89.50000000000208
 20
-39.59729324800389
 11
-86.60000000000215
 21
-39.59729324800389
  0
LINE
  5
E5
100
AcDbEntity
  8
1
  6
CONTINUOUS
 62
             7
100
AcDbLine
 10
-83.70000000000212
 20
-39.59729324800389
 11
-80.80000000000214
 21
-39.59729324800389
  0
LINE
  5
E4
100
AcDbEntity
  8
1
  6
CONTINUOUS
 62
             7
100
AcDbLine
 10
-77.90000000000217
 20
-39.59729324800389
 11
-75.00000000000213
 21
-39.59729324800389
  0
LINE
  5
E3
100
AcDbEntity
  8
1
  6
CONTINUOUS
 62
             7
100
AcDbLine
 10
-72.10000000000215
 20
-39.59729324800389
 11
-69.20000000000215
 21
-39.59729324800389
  0
LINE
  5
E2
100
AcDbEntity
  8
1
  6
CONTINUOUS
 62
             7
100
AcDbLine
 10
-66.30000000000214
 20
-39.59729324800389
 11
-63.40000000000217
 21
-39.59729324800389
  0
LINE
  5
E1
100
AcDbEntity
  8
1
  6
CONTINUOUS
 62
             7
100
AcDbLine
 10
-60.50000000000213
 20
-39.59729324800389
 11
-57.60000000000215
 21
-39.59729324800389
  0
LINE
  5
E0
100
AcDbEntity
  8
1
  6
CONTINUOUS
 62
             7
100
AcDbLine
 10
-54.70000000000215
 20
-39.59729324800389
 11
-51.80000000000217
 21
-39.59729324800389
  0
LINE
  5
DF
100
AcDbEntity
  8
1
  6
CONTINUOUS
 62
             7
100
AcDbLine
 10
-48.90000000000217
 20
-39.59729324800389
 11
-46.00000000000216
 21
-39.59729324800389
  0
LINE
  5
DE
100
AcDbEntity
  8
1
  6
CONTINUOUS
 62
             7
100
AcDbLine
 10
-43.10000000000215
 20
-39.59729324800384
 11
-40.20000000000218
 21
-39.59729324800384
  0
LINE
  5
DD
100
AcDbEntity
  8
1
  6
CONTINUOUS
 62
             7
100
AcDbLine
 10
-37.30000000000217
 20
-39.59729324800384
 11
-34.40000000000217
 21
-39.59729324800384
  0
LINE
  5
DC
100
AcDbEntity
  8
1
  6
CONTINUOUS
 62
             7
100
AcDbLine
 10
-31.50000000000216
 20
-39.59729324800384
 11
-28.60000000000215
 21
-39.59729324800384
  0
LINE
  5
DB
100
AcDbEntity
  8
1
  6
CONTINUOUS
 62
             7
100
AcDbLine
 10
-25.70000000000215
 20
-39.59729324800384
 11
-22.80000000000217
 21
-39.59729324800384
  0
LINE
  5
DA
100
AcDbEntity
  8
1
  6
CONTINUOUS
 62
             7
100
AcDbLine
 10
-19.90000000000217
 20
-39.59729324800384
 11
-17.00000000000216
 21
-39.59729324800384
  0
LINE
  5
D9
100
AcDbEntity
  8
1
  6
CONTINUOUS
 62
             7
100
AcDbLine
 10
-14.10000000000218
 20
-39.59729324800384
 11
-11.20000000000218
 21
-39.59729324800384
  0
LINE
  5
D8
100
AcDbEntity
  8
1
  6
CONTINUOUS
 62
             7
100
AcDbLine
 10
-8.30000000000217
 20
-39.59729324800384
 11
-5.40000000000217
 21
-39.59729324800384
  0
LINE
  5
D7
100
AcDbEntity
  8
1
  6
CONTINUOUS
 62
             7
100
AcDbLine
 10
-2.50000000000216
 20
-39.59729324800384
 11
0.39999999999782
 21
-39.59729324800384
  0
LINE
  5
D6
100
AcDbEntity
  8
1
  6
CONTINUOUS
 62
             7
100
AcDbLine
 10
3.29999999999782
 20
-39.59729324800384
 11
6.19999999999783
 21
-39.59729324800384
  0
LINE
  5
D5
100
AcDbEntity
  8
1
  6
CONTINUOUS
 62
             7
100
AcDbLine
 10
-97.97224318643569
 20
-40.44729324800403
 11
-95.52775681356857
 21
-40.44729324800403
  0
LINE
  5
D4
100
AcDbEntity
  8
1
  6
CONTINUOUS
 62
             7
100
AcDbLine
 10
-98.20000000000206
 20
-39.59729324800389
 11
-97.97224318643569
 21
-40.44729324800403
  0
LINE
  5
D3
100
AcDbEntity
  8
1
  6
CONTINUOUS
 62
             7
100
AcDbLine
 10
-95.52775681356857
 20
-40.44729324800403
 11
-95.30000000000209
 21
-39.59729324800389
  0
LINE
  5
D2
100
AcDbEntity
  8
1
  6
CONTINUOUS
 62
             7
100
AcDbLine
 10
-92.17224318643568
 20
-40.44729324800403
 11
-91.6000000000021
 21
-40.44729324800403
  0
LINE
  5
D1
100
AcDbEntity
  8
1
  6
CONTINUOUS
 62
             7
100
AcDbLine
 10
-92.40000000000217
 20
-39.59729324800389
 11
-92.17224318643568
 21
-40.44729324800403
  0
LINE
  5
D0
100
AcDbEntity
  8
1
  6
CONTINUOUS
 62
             7
100
AcDbLine
 10
-86.37224318643567
 20
-40.44729324800403
 11
-83.92775681356861
 21
-40.44729324800403
  0
LINE
  5
CF
100
AcDbEntity
  8
1
  6
CONTINUOUS
 62
             7
100
AcDbLine
 10
-86.60000000000215
 20
-39.59729324800389
 11
-86.37224318643567
 21
-40.44729324800403
  0
LINE
  5
CE
100
AcDbEntity
  8
1
  6
CONTINUOUS
 62
             7
100
AcDbLine
 10
-83.92775681356861
 20
-40.44729324800403
 11
-83.70000000000212
 21
-39.59729324800389
  0
LINE
  5
CD
100
AcDbEntity
  8
1
  6
CONTINUOUS
 62
             7
100
AcDbLine
 10
-80.57224318643571
 20
-40.44729324800403
 11
-78.1277568135686
 21
-40.44729324800403
  0
LINE
  5
CC
100
AcDbEntity
  8
1
  6
CONTINUOUS
 62
             7
100
AcDbLine
 10
-80.80000000000214
 20
-39.59729324800389
 11
-80.57224318643571
 21
-40.44729324800403
  0
LINE
  5
CB
100
AcDbEntity
  8
1
  6
CONTINUOUS
 62
             7
100
AcDbLine
 10
-78.1277568135686
 20
-40.44729324800403
 11
-77.90000000000217
 21
-39.59729324800389
  0
LINE
  5
CA
100
AcDbEntity
  8
1
  6
CONTINUOUS
 62
             7
100
AcDbLine
 10
-74.7722431864357
 20
-40.44729324800403
 11
-72.32775681356858
 21
-40.44729324800403
  0
LINE
  5
C9
100
AcDbEntity
  8
1
  6
CONTINUOUS
 62
             7
100
AcDbLine
 10
-75.00000000000213
 20
-39.59729324800389
 11
-74.7722431864357
 21
-40.44729324800403
  0
LINE
  5
C8
100
AcDbEntity
  8
1
  6
CONTINUOUS
 62
             7
100
AcDbLine
 10
-72.32775681356858
 20
-40.44729324800403
 11
-72.10000000000215
 21
-39.59729324800389
  0
LINE
  5
C7
100
AcDbEntity
  8
1
  6
CONTINUOUS
 62
             7
100
AcDbLine
 10
-68.97224318643569
 20
-40.44729324800403
 11
-66.5277568135686
 21
-40.44729324800403
  0
LINE
  5
C6
100
AcDbEntity
  8
1
  6
CONTINUOUS
 62
             7
100
AcDbLine
 10
-69.20000000000215
 20
-39.59729324800389
 11
-68.97224318643569
 21
-40.44729324800403
  0
LINE
  5
C5
100
AcDbEntity
  8
1
  6
CONTINUOUS
 62
             7
100
AcDbLine
 10
-66.5277568135686
 20
-40.44729324800403
 11
-66.30000000000214
 21
-39.59729324800389
  0
LINE
  5
C4
100
AcDbEntity
  8
1
  6
CONTINUOUS
 62
             7
100
AcDbLine
 10
-63.17224318643568
 20
-40.44729324800403
 11
-60.72775681356862
 21
-40.44729324800403
  0
LINE
  5
C3
100
AcDbEntity
  8
1
  6
CONTINUOUS
 62
             7
100
AcDbLine
 10
-63.40000000000217
 20
-39.59729324800389
 11
-63.17224318643568
 21
-40.44729324800403
  0
LINE
  5
C2
100
AcDbEntity
  8
1
  6
CONTINUOUS
 62
             7
100
AcDbLine
 10
-60.72775681356862
 20
-40.44729324800403
 11
-60.50000000000213
 21
-39.59729324800389
  0
LINE
  5
C1
100
AcDbEntity
  8
1
  6
CONTINUOUS
 62
             7
100
AcDbLine
 10
-57.3722431864357
 20
-40.44729324800403
 11
-54.92775681356861
 21
-40.44729324800403
  0
LINE
  5
C0
100
AcDbEntity
  8
1
  6
CONTINUOUS
 62
             7
100
AcDbLine
 10
-57.60000000000215
 20
-39.59729324800389
 11
-57.3722431864357
 21
-40.44729324800403
  0
LINE
  5
BF
100
AcDbEntity
  8
1
  6
CONTINUOUS
 62
             7
100
AcDbLine
 10
-54.92775681356861
 20
-40.44729324800403
 11
-54.70000000000215
 21
-39.59729324800389
  0
LINE
  5
BE
100
AcDbEntity
  8
1
  6
CONTINUOUS
 62
             7
100
AcDbLine
 10
-51.57224318643571
 20
-40.44729324800403
 11
-49.12775681356862
 21
-40.44729324800403
  0
LINE
  5
BD
100
AcDbEntity
  8
1
  6
CONTINUOUS
 62
             7
100
AcDbLine
 10
-51.80000000000217
 20
-39.59729324800389
 11
-51.57224318643571
 21
-40.44729324800403
  0
LINE
  5
BC
100
AcDbEntity
  8
1
  6
CONTINUOUS
 62
             7
100
AcDbLine
 10
-49.12775681356862
 20
-40.44729324800403
 11
-48.90000000000217
 21
-39.59729324800389
  0
LINE
  5
BB
100
AcDbEntity
  8
1
  6
CONTINUOUS
 62
             7
100
AcDbLine
 10
-45.7722431864357
 20
-40.44729324800403
 11
-43.32775681356861
 21
-40.44729324800397
  0
LINE
  5
BA
100
AcDbEntity
  8
1
  6
CONTINUOUS
 62
             7
100
AcDbLine
 10
-46.00000000000216
 20
-39.59729324800389
 11
-45.7722431864357
 21
-40.44729324800403
  0
LINE
  5
B9
100
AcDbEntity
  8
1
  6
CONTINUOUS
 62
             7
100
AcDbLine
 10
-43.32775681356861
 20
-40.44729324800397
 11
-43.10000000000215
 21
-39.59729324800384
  0
LINE
  5
B8
100
AcDbEntity
  8
1
  6
CONTINUOUS
 62
             7
100
AcDbLine
 10
-39.97224318643569
 20
-40.44729324800397
 11
-37.52775681356863
 21
-40.44729324800397
  0
LINE
  5
B7
100
AcDbEntity
  8
1
  6
CONTINUOUS
 62
             7
100
AcDbLine
 10
-40.20000000000218
 20
-39.59729324800384
 11
-39.97224318643569
 21
-40.44729324800397
  0
LINE
  5
B6
100
AcDbEntity
  8
1
  6
CONTINUOUS
 62
             7
100
AcDbLine
 10
-37.52775681356863
 20
-40.44729324800397
 11
-37.30000000000217
 21
-39.59729324800384
  0
LINE
  5
B5
100
AcDbEntity
  8
1
  6
CONTINUOUS
 62
             7
100
AcDbLine
 10
-34.17224318643571
 20
-40.44729324800397
 11
-31.72775681356865
 21
-40.44729324800397
  0
LINE
  5
B4
100
AcDbEntity
  8
1
  6
CONTINUOUS
 62
             7
100
AcDbLine
 10
-34.40000000000217
 20
-39.59729324800384
 11
-34.17224318643571
 21
-40.44729324800397
  0
LINE
  5
B3
100
AcDbEntity
  8
1
  6
CONTINUOUS
 62
             7
100
AcDbLine
 10
-31.72775681356865
 20
-40.44729324800397
 11
-31.50000000000216
 21
-39.59729324800384
  0
LINE
  5
B2
100
AcDbEntity
  8
1
  6
CONTINUOUS
 62
             7
100
AcDbLine
 10
-28.37224318643572
 20
-40.44729324800397
 11
-25.92775681356864
 21
-40.44729324800397
  0
LINE
  5
B1
100
AcDbEntity
  8
1
  6
CONTINUOUS
 62
             7
100
AcDbLine
 10
-28.60000000000215
 20
-39.59729324800384
 11
-28.37224318643572
 21
-40.44729324800397
  0
LINE
  5
B0
100
AcDbEntity
  8
1
  6
CONTINUOUS
 62
             7
100
AcDbLine
 10
-25.92775681356864
 20
-40.44729324800397
 11
-25.70000000000215
 21
-39.59729324800384
  0
LINE
  5
AF
100
AcDbEntity
  8
1
  6
CONTINUOUS
 62
             7
100
AcDbLine
 10
-22.57224318643571
 20
-40.44729324800397
 11
-20.12775681356862
 21
-40.44729324800397
  0
LINE
  5
AE
100
AcDbEntity
  8
1
  6
CONTINUOUS
 62
             7
100
AcDbLine
 10
-22.80000000000217
 20
-39.59729324800384
 11
-22.57224318643571
 21
-40.44729324800397
  0
LINE
  5
AD
100
AcDbEntity
  8
1
  6
CONTINUOUS
 62
             7
100
AcDbLine
 10
-20.12775681356862
 20
-40.44729324800397
 11
-19.90000000000217
 21
-39.59729324800384
  0
LINE
  5
AC
100
AcDbEntity
  8
1
  6
CONTINUOUS
 62
             7
100
AcDbLine
 10
-16.7722431864357
 20
-40.44729324800397
 11
-14.32775681356861
 21
-40.44729324800397
  0
LINE
  5
AB
100
AcDbEntity
  8
1
  6
CONTINUOUS
 62
             7
100
AcDbLine
 10
-17.00000000000216
 20
-39.59729324800384
 11
-16.7722431864357
 21
-40.44729324800397
  0
LINE
  5
AA
100
AcDbEntity
  8
1
  6
CONTINUOUS
 62
             7
100
AcDbLine
 10
-14.32775681356861
 20
-40.44729324800397
 11
-14.10000000000218
 21
-39.59729324800384
  0
LINE
  5
A9
100
AcDbEntity
  8
1
  6
CONTINUOUS
 62
             7
100
AcDbLine
 10
-10.97224318643572
 20
-40.44729324800397
 11
-8.52775681356863
 21
-40.44729324800397
  0
LINE
  5
A8
100
AcDbEntity
  8
1
  6
CONTINUOUS
 62
             7
100
AcDbLine
 10
-11.20000000000218
 20
-39.59729324800384
 11
-10.97224318643572
 21
-40.44729324800397
  0
LINE
  5
A7
100
AcDbEntity
  8
1
  6
CONTINUOUS
 62
             7
100
AcDbLine
 10
-8.52775681356863
 20
-40.44729324800397
 11
-8.30000000000217
 21
-39.59729324800384
  0
LINE
  5
A6
100
AcDbEntity
  8
1
  6
CONTINUOUS
 62
             7
100
AcDbLine
 10
-5.17224318643571
 20
-40.44729324800397
 11
-2.72775681356862
 21
-40.44729324800397
  0
LINE
  5
A5
100
AcDbEntity
  8
1
  6
CONTINUOUS
 62
             7
100
AcDbLine
 10
-5.40000000000217
 20
-39.59729324800384
 11
-5.17224318643571
 21
-40.44729324800397
  0
LINE
  5
A4
100
AcDbEntity
  8
1
  6
CONTINUOUS
 62
             7
100
AcDbLine
 10
-2.72775681356862
 20
-40.44729324800397
 11
-2.50000000000216
 21
-39.59729324800384
  0
LINE
  5
A3
100
AcDbEntity
  8
1
  6
CONTINUOUS
 62
             7
100
AcDbLine
 10
0.62775681356428
 20
-40.44729324800397
 11
3.07224318643136
 21
-40.44729324800397
  0
LINE
  5
A2
100
AcDbEntity
  8
1
  6
CONTINUOUS
 62
             7
100
AcDbLine
 10
0.39999999999782
 20
-39.59729324800384
 11
0.62775681356428
 21
-40.44729324800397
  0
LINE
  5
A1
100
AcDbEntity
  8
1
  6
CONTINUOUS
 62
             7
100
AcDbLine
 10
3.07224318643136
 20
-40.44729324800397
 11
3.29999999999782
 21
-39.59729324800384
  0
LINE
  5
A0
100
AcDbEntity
  8
1
  6
CONTINUOUS
 62
             7
100
AcDbLine
 10
6.42775681356429
 20
-40.44729324800397
 11
8.87224318643138
 21
-40.44729324800397
  0
LINE
  5
9F
100
AcDbEntity
  8
1
  6
CONTINUOUS
 62
             7
100
AcDbLine
 10
9.09999999999783
 20
-39.59729324800384
 11
10.89999999999782
 21
-39.59729324800384
  0
LINE
  5
9E
100
AcDbEntity
  8
1
  6
CONTINUOUS
 62
             7
100
AcDbLine
 10
6.19999999999783
 20
-39.59729324800384
 11
6.42775681356429
 21
-40.44729324800397
  0
LINE
  5
9D
100
AcDbEntity
  8
1
  6
CONTINUOUS
 62
             7
100
AcDbLine
 10
8.87224318643138
 20
-40.44729324800397
 11
9.09999999999783
 21
-39.59729324800384
  0
LINE
  5
9C
100
AcDbEntity
  8
1
  6
CONTINUOUS
 62
             7
100
AcDbLine
 10
-101.1000000000022
 20
12.70270675199606
 11
-101.3277568135686
 21
13.55270675199608
  0
LINE
  5
9B
100
AcDbEntity
  8
1
  6
CONTINUOUS
 62
             7
100
AcDbLine
 10
-98.20000000000206
 20
12.70270675199606
 11
-101.1000000000022
 21
12.70270675199606
  0
LINE
  5
9A
100
AcDbEntity
  8
1
  6
CONTINUOUS
 62
             7
100
AcDbLine
 10
-92.40000000000217
 20
12.70270675199606
 11
-95.30000000000209
 21
12.70270675199606
  0
LINE
  5
99
100
AcDbEntity
  8
1
  6
CONTINUOUS
 62
             7
100
AcDbLine
 10
-86.60000000000215
 20
12.70270675199606
 11
-89.50000000000208
 21
12.70270675199606
  0
LINE
  5
98
100
AcDbEntity
  8
1
  6
CONTINUOUS
 62
             7
100
AcDbLine
 10
-80.80000000000214
 20
12.70270675199606
 11
-83.70000000000212
 21
12.70270675199606
  0
LINE
  5
97
100
AcDbEntity
  8
1
  6
CONTINUOUS
 62
             7
100
AcDbLine
 10
-75.00000000000213
 20
12.70270675199606
 11
-77.90000000000217
 21
12.70270675199606
  0
LINE
  5
96
100
AcDbEntity
  8
1
  6
CONTINUOUS
 62
             7
100
AcDbLine
 10
-69.20000000000215
 20
12.70270675199606
 11
-72.10000000000215
 21
12.70270675199606
  0
LINE
  5
95
100
AcDbEntity
  8
1
  6
CONTINUOUS
 62
             7
100
AcDbLine
 10
-63.40000000000217
 20
12.70270675199606
 11
-66.30000000000214
 21
12.70270675199606
  0
LINE
  5
94
100
AcDbEntity
  8
1
  6
CONTINUOUS
 62
             7
100
AcDbLine
 10
-57.60000000000215
 20
12.70270675199606
 11
-60.50000000000213
 21
12.70270675199606
  0
LINE
  5
93
100
AcDbEntity
  8
1
  6
CONTINUOUS
 62
             7
100
AcDbLine
 10
-51.80000000000217
 20
12.70270675199606
 11
-54.70000000000215
 21
12.70270675199606
  0
LINE
  5
92
100
AcDbEntity
  8
1
  6
CONTINUOUS
 62
             7
100
AcDbLine
 10
-46.00000000000216
 20
12.70270675199606
 11
-48.90000000000217
 21
12.70270675199606
  0
LINE
  5
91
100
AcDbEntity
  8
1
  6
CONTINUOUS
 62
             7
100
AcDbLine
 10
-40.20000000000218
 20
12.70270675199612
 11
-43.10000000000215
 21
12.70270675199612
  0
LINE
  5
90
100
AcDbEntity
  8
1
  6
CONTINUOUS
 62
             7
100
AcDbLine
 10
-34.40000000000217
 20
12.70270675199612
 11
-37.30000000000217
 21
12.70270675199612
  0
LINE
  5
8F
100
AcDbEntity
  8
1
  6
CONTINUOUS
 62
             7
100
AcDbLine
 10
-28.60000000000215
 20
12.70270675199612
 11
-31.50000000000216
 21
12.70270675199612
  0
LINE
  5
8E
100
AcDbEntity
  8
1
  6
CONTINUOUS
 62
             7
100
AcDbLine
 10
-22.80000000000217
 20
12.70270675199612
 11
-25.70000000000215
 21
12.70270675199612
  0
LINE
  5
8D
100
AcDbEntity
  8
1
  6
CONTINUOUS
 62
             7
100
AcDbLine
 10
-17.00000000000216
 20
12.70270675199612
 11
-19.90000000000217
 21
12.70270675199612
  0
LINE
  5
8C
100
AcDbEntity
  8
1
  6
CONTINUOUS
 62
             7
100
AcDbLine
 10
-11.20000000000218
 20
12.70270675199612
 11
-14.10000000000218
 21
12.70270675199612
  0
LINE
  5
8B
100
AcDbEntity
  8
1
  6
CONTINUOUS
 62
             7
100
AcDbLine
 10
-5.40000000000217
 20
12.70270675199612
 11
-8.30000000000217
 21
12.70270675199612
  0
LINE
  5
8A
100
AcDbEntity
  8
1
  6
CONTINUOUS
 62
             7
100
AcDbLine
 10
0.39999999999782
 20
12.70270675199612
 11
-2.50000000000216
 21
12.70270675199612
  0
LINE
  5
89
100
AcDbEntity
  8
1
  6
CONTINUOUS
 62
             7
100
AcDbLine
 10
6.19999999999783
 20
12.70270675199612
 11
3.29999999999782
 21
12.70270675199612
  0
LINE
  5
88
100
AcDbEntity
  8
1
  6
CONTINUOUS
 62
             7
100
AcDbLine
 10
-95.52775681356857
 20
13.55270675199608
 11
-97.97224318643569
 21
13.55270675199608
  0
LINE
  5
87
100
AcDbEntity
  8
1
  6
CONTINUOUS
 62
             7
100
AcDbLine
 10
-97.97224318643569
 20
13.55270675199608
 11
-98.20000000000206
 21
12.70270675199606
  0
LINE
  5
86
100
AcDbEntity
  8
1
  6
CONTINUOUS
 62
             7
100
AcDbLine
 10
-95.30000000000209
 20
12.70270675199606
 11
-95.52775681356857
 21
13.55270675199608
  0
LINE
  5
85
100
AcDbEntity
  8
1
  6
CONTINUOUS
 62
             7
100
AcDbLine
 10
-92.17224318643568
 20
13.55270675199608
 11
-92.40000000000217
 21
12.70270675199606
  0
LINE
  5
84
100
AcDbEntity
  8
1
  6
CONTINUOUS
 62
             7
100
AcDbLine
 10
-89.50000000000208
 20
12.70270675199606
 11
-89.6000000000021
 21
13.07591183275281
  0
LINE
  5
83
100
AcDbEntity
  8
1
  6
CONTINUOUS
 62
             7
100
AcDbLine
 10
-83.92775681356861
 20
13.55270675199608
 11
-86.37224318643567
 21
13.55270675199608
  0
LINE
  5
82
100
AcDbEntity
  8
1
  6
CONTINUOUS
 62
             7
100
AcDbLine
 10
-86.37224318643567
 20
13.55270675199608
 11
-86.60000000000215
 21
12.70270675199606
  0
LINE
  5
81
100
AcDbEntity
  8
1
  6
CONTINUOUS
 62
             7
100
AcDbLine
 10
-83.70000000000212
 20
12.70270675199606
 11
-83.92775681356861
 21
13.55270675199608
  0
LINE
  5
80
100
AcDbEntity
  8
1
  6
CONTINUOUS
 62
             7
100
AcDbLine
 10
-78.1277568135686
 20
13.55270675199608
 11
-80.57224318643571
 21
13.55270675199608
  0
LINE
  5
7F
100
AcDbEntity
  8
1
  6
CONTINUOUS
 62
             7
100
AcDbLine
 10
-80.57224318643571
 20
13.55270675199608
 11
-80.80000000000214
 21
12.70270675199606
  0
LINE
  5
7E
100
AcDbEntity
  8
1
  6
CONTINUOUS
 62
             7
100
AcDbLine
 10
-77.90000000000217
 20
12.70270675199606
 11
-78.1277568135686
 21
13.55270675199608
  0
LINE
  5
7D
100
AcDbEntity
  8
1
  6
CONTINUOUS
 62
             7
100
AcDbLine
 10
-72.32775681356858
 20
13.55270675199608
 11
-74.7722431864357
 21
13.55270675199608
  0
LINE
  5
7C
100
AcDbEntity
  8
1
  6
CONTINUOUS
 62
             7
100
AcDbLine
 10
-74.7722431864357
 20
13.55270675199608
 11
-75.00000000000213
 21
12.70270675199606
  0
LINE
  5
7B
100
AcDbEntity
  8
1
  6
CONTINUOUS
 62
             7
100
AcDbLine
 10
-72.10000000000215
 20
12.70270675199606
 11
-72.32775681356858
 21
13.55270675199608
  0
LINE
  5
7A
100
AcDbEntity
  8
1
  6
CONTINUOUS
 62
             7
100
AcDbLine
 10
-66.5277568135686
 20
13.55270675199608
 11
-68.97224318643569
 21
13.55270675199608
  0
LINE
  5
79
100
AcDbEntity
  8
1
  6
CONTINUOUS
 62
             7
100
AcDbLine
 10
-68.97224318643569
 20
13.55270675199608
 11
-69.20000000000215
 21
12.70270675199606
  0
LINE
  5
78
100
AcDbEntity
  8
1
  6
CONTINUOUS
 62
             7
100
AcDbLine
 10
-66.30000000000214
 20
12.70270675199606
 11
-66.5277568135686
 21
13.55270675199608
  0
LINE
  5
77
100
AcDbEntity
  8
1
  6
CONTINUOUS
 62
             7
100
AcDbLine
 10
-60.72775681356862
 20
13.55270675199608
 11
-63.17224318643568
 21
13.55270675199608
  0
LINE
  5
76
100
AcDbEntity
  8
1
  6
CONTINUOUS
 62
             7
100
AcDbLine
 10
-63.17224318643568
 20
13.55270675199608
 11
-63.40000000000217
 21
12.70270675199606
  0
LINE
  5
75
100
AcDbEntity
  8
1
  6
CONTINUOUS
 62
             7
100
AcDbLine
 10
-60.50000000000213
 20
12.70270675199606
 11
-60.72775681356862
 21
13.55270675199608
  0
LINE
  5
74
100
AcDbEntity
  8
1
  6
CONTINUOUS
 62
             7
100
AcDbLine
 10
-54.92775681356861
 20
13.55270675199608
 11
-57.3722431864357
 21
13.55270675199608
  0
LINE
  5
73
100
AcDbEntity
  8
1
  6
CONTINUOUS
 62
             7
100
AcDbLine
 10
-57.3722431864357
 20
13.55270675199608
 11
-57.60000000000215
 21
12.70270675199606
  0
LINE
  5
72
100
AcDbEntity
  8
1
  6
CONTINUOUS
 62
             7
100
AcDbLine
 10
-54.70000000000215
 20
12.70270675199606
 11
-54.92775681356861
 21
13.55270675199608
  0
LINE
  5
71
100
AcDbEntity
  8
1
  6
CONTINUOUS
 62
             7
100
AcDbLine
 10
-49.12775681356862
 20
13.55270675199608
 11
-51.57224318643571
 21
13.55270675199608
  0
LINE
  5
70
100
AcDbEntity
  8
1
  6
CONTINUOUS
 62
             7
100
AcDbLine
 10
-51.57224318643571
 20
13.55270675199608
 11
-51.80000000000217
 21
12.70270675199606
  0
LINE
  5
6F
100
AcDbEntity
  8
1
  6
CONTINUOUS
 62
             7
100
AcDbLine
 10
-48.90000000000217
 20
12.70270675199606
 11
-49.12775681356862
 21
13.55270675199608
  0
LINE
  5
6E
100
AcDbEntity
  8
1
  6
CONTINUOUS
 62
             7
100
AcDbLine
 10
-43.32775681356861
 20
13.55270675199608
 11
-45.7722431864357
 21
13.55270675199608
  0
LINE
  5
6D
100
AcDbEntity
  8
1
  6
CONTINUOUS
 62
             7
100
AcDbLine
 10
-45.7722431864357
 20
13.55270675199608
 11
-46.00000000000216
 21
12.70270675199606
  0
LINE
  5
6C
100
AcDbEntity
  8
1
  6
CONTINUOUS
 62
             7
100
AcDbLine
 10
-43.10000000000215
 20
12.70270675199612
 11
-43.32775681356861
 21
13.55270675199608
  0
LINE
  5
6B
100
AcDbEntity
  8
1
  6
CONTINUOUS
 62
             7
100
AcDbLine
 10
-37.52775681356863
 20
13.55270675199608
 11
-39.97224318643569
 21
13.55270675199608
  0
LINE
  5
6A
100
AcDbEntity
  8
1
  6
CONTINUOUS
 62
             7
100
AcDbLine
 10
-39.97224318643569
 20
13.55270675199608
 11
-40.20000000000218
 21
12.70270675199612
  0
LINE
  5
69
100
AcDbEntity
  8
1
  6
CONTINUOUS
 62
             7
100
AcDbLine
 10
-37.30000000000217
 20
12.70270675199612
 11
-37.52775681356863
 21
13.55270675199608
  0
LINE
  5
68
100
AcDbEntity
  8
1
  6
CONTINUOUS
 62
             7
100
AcDbLine
 10
-31.72775681356865
 20
13.55270675199608
 11
-34.17224318643571
 21
13.55270675199608
  0
LINE
  5
67
100
AcDbEntity
  8
1
  6
CONTINUOUS
 62
             7
100
AcDbLine
 10
-34.17224318643571
 20
13.55270675199608
 11
-34.40000000000217
 21
12.70270675199612
  0
LINE
  5
66
100
AcDbEntity
  8
1
  6
CONTINUOUS
 62
             7
100
AcDbLine
 10
-31.50000000000216
 20
12.70270675199612
 11
-31.72775681356865
 21
13.55270675199608
  0
LINE
  5
65
100
AcDbEntity
  8
1
  6
CONTINUOUS
 62
             7
100
AcDbLine
 10
-25.92775681356864
 20
13.55270675199608
 11
-28.37224318643572
 21
13.55270675199608
  0
LINE
  5
64
100
AcDbEntity
  8
1
  6
CONTINUOUS
 62
             7
100
AcDbLine
 10
-28.37224318643572
 20
13.55270675199608
 11
-28.60000000000215
 21
12.70270675199612
  0
LINE
  5
63
100
AcDbEntity
  8
1
  6
CONTINUOUS
 62
             7
100
AcDbLine
 10
-25.70000000000215
 20
12.70270675199612
 11
-25.92775681356864
 21
13.55270675199608
  0
LINE
  5
62
100
AcDbEntity
  8
1
  6
CONTINUOUS
 62
             7
100
AcDbLine
 10
-20.12775681356862
 20
13.55270675199608
 11
-22.57224318643571
 21
13.55270675199608
  0
LINE
  5
61
100
AcDbEntity
  8
1
  6
CONTINUOUS
 62
             7
100
AcDbLine
 10
-22.57224318643571
 20
13.55270675199608
 11
-22.80000000000217
 21
12.70270675199612
  0
LINE
  5
60
100
AcDbEntity
  8
1
  6
CONTINUOUS
 62
             7
100
AcDbLine
 10
-19.90000000000217
 20
12.70270675199612
 11
-20.12775681356862
 21
13.55270675199608
  0
LINE
  5
5F
100
AcDbEntity
  8
1
  6
CONTINUOUS
 62
             7
100
AcDbLine
 10
-14.32775681356861
 20
13.55270675199608
 11
-16.7722431864357
 21
13.55270675199608
  0
LINE
  5
5E
100
AcDbEntity
  8
1
  6
CONTINUOUS
 62
             7
100
AcDbLine
 10
-16.7722431864357
 20
13.55270675199608
 11
-17.00000000000216
 21
12.70270675199612
  0
LINE
  5
5D
100
AcDbEntity
  8
1
  6
CONTINUOUS
 62
             7
100
AcDbLine
 10
-14.10000000000218
 20
12.70270675199612
 11
-14.32775681356861
 21
13.55270675199608
  0
LINE
  5
5C
100
AcDbEntity
  8
1
  6
CONTINUOUS
 62
             7
100
AcDbLine
 10
-8.52775681356863
 20
13.55270675199608
 11
-10.97224318643572
 21
13.55270675199608
  0
LINE
  5
5B
100
AcDbEntity
  8
1
  6
CONTINUOUS
 62
             7
100
AcDbLine
 10
-10.97224318643572
 20
13.55270675199608
 11
-11.20000000000218
 21
12.70270675199612
  0
LINE
  5
5A
100
AcDbEntity
  8
1
  6
CONTINUOUS
 62
             7
100
AcDbLine
 10
-8.30000000000217
 20
12.70270675199612
 11
-8.52775681356863
 21
13.55270675199608
  0
LINE
  5
59
100
AcDbEntity
  8
1
  6
CONTINUOUS
 62
             7
100
AcDbLine
 10
-2.72775681356862
 20
13.55270675199608
 11
-5.17224318643571
 21
13.55270675199608
  0
LINE
  5
58
100
AcDbEntity
  8
1
  6
CONTINUOUS
 62
             7
100
AcDbLine
 10
-5.17224318643571
 20
13.55270675199608
 11
-5.40000000000217
 21
12.70270675199612
  0
LINE
  5
57
100
AcDbEntity
  8
1
  6
CONTINUOUS
 62
             7
100
AcDbLine
 10
-2.50000000000216
 20
12.70270675199612
 11
-2.72775681356862
 21
13.55270675199608
  0
LINE
  5
56
100
AcDbEntity
  8
1
  6
CONTINUOUS
 62
             7
100
AcDbLine
 10
3.07224318643136
 20
13.55270675199608
 11
0.62775681356428
 21
13.55270675199608
  0
LINE
  5
55
100
AcDbEntity
  8
1
  6
CONTINUOUS
 62
             7
100
AcDbLine
 10
0.62775681356428
 20
13.55270675199608
 11
0.39999999999782
 21
12.70270675199612
  0
LINE
  5
54
100
AcDbEntity
  8
1
  6
CONTINUOUS
 62
             7
100
AcDbLine
 10
3.29999999999782
 20
12.70270675199612
 11
3.07224318643136
 21
13.55270675199608
  0
LINE
  5
53
100
AcDbEntity
  8
1
  6
CONTINUOUS
 62
             7
100
AcDbLine
 10
8.87224318643138
 20
13.55270675199608
 11
6.42775681356429
 21
13.55270675199608
  0
LINE
  5
52
100
AcDbEntity
  8
1
  6
CONTINUOUS
 62
             7
100
AcDbLine
 10
6.42775681356429
 20
13.55270675199608
 11
6.19999999999783
 21
12.70270675199612
  0
LINE
  5
51
100
AcDbEntity
  8
1
  6
CONTINUOUS
 62
             7
100
AcDbLine
 10
9.09999999999783
 20
12.70270675199612
 11
8.87224318643138
 21
13.55270675199608
  0
LINE
  5
50
100
AcDbEntity
  8
1
  6
CONTINUOUS
 62
             7
100
AcDbLine
 10
-117.9440933195792
 20
-39.59729324800389
 11
-124.1000000000022
 21
-39.59729324800389
  0
LINE
  5
4F
100
AcDbEntity
  8
1
  6
CONTINUOUS
 62
             7
100
AcDbLine
 10
-117.71633650601269
 20
-40.44729324800403
 11
-109.6000000000021
 21
-40.44729324800403
  0
LINE
  5
4E
100
AcDbEntity
  8
1
  6
DOT_CENTER
 62
             2
100
AcDbLine
 10
17.93333333333123
 20
-13.44729324800392
 11
-160.06666666666879
 21
-13.44729324800392
  0
LINE
  5
4D
100
AcDbEntity
  8
1
  6
DOT_CENTER
 62
             2
100
AcDbLine
 10
-150.1000000000021
 20
-150.81187658133689
 11
-150.1000000000021
 21
-93.81187658133689
  0
LINE
  5
4C
100
AcDbEntity
  8
1
  6
CONTINUOUS
 62
             7
100
AcDbLine
 10
-123.037822173511
 20
-146.54729324800391
 11
-177.16217782649329
 21
-146.54729324800391
  0
LINE
  5
4B
100
AcDbEntity
  8
1
  6
CONTINUOUS
 62
             7
100
AcDbLine
 10
-165.10000000000221
 20
-93.54729324800388
 11
-178.1000000000021
 21
-106.5472932480039
  0
LINE
  5
4A
100
AcDbEntity
  8
1
  6
CONTINUOUS
 62
             7
100
AcDbLine
 10
-165.10000000000221
 20
-93.54729324800388
 11
-165.10000000000221
 21
-47.81218826750887
  0
LINE
  5
49
100
AcDbEntity
  8
1
  6
CONTINUOUS
 62
             7
100
AcDbLine
 10
-178.1000000000021
 20
-143.04729324800391
 11
-177.16217782649329
 21
-146.54729324800391
  0
LINE
  5
48
100
AcDbEntity
  8
1
  6
CONTINUOUS
 62
             7
100
AcDbLine
 10
-122.1000000000021
 20
-143.04729324800391
 11
-123.037822173511
 21
-146.54729324800391
  0
LINE
  5
47
100
AcDbEntity
  8
1
  6
CONTINUOUS
 62
             7
100
AcDbLine
 10
-101.3277568135686
 20
13.55270675199608
 11
-107.6000000000021
 21
13.55270675199608
  0
LINE
  5
46
100
AcDbEntity
  8
1
  6
CONTINUOUS
 62
             7
100
AcDbLine
 10
-140.10000000000221
 20
-107.7472932480039
 11
-140.10000000000221
 21
-107.0472932480039
  0
LINE
  5
45
100
AcDbEntity
  8
1
  6
CONTINUOUS
 62
             7
100
AcDbLine
 10
-160.10000000000221
 20
-107.7472932480039
 11
-160.10000000000221
 21
-107.0472932480039
  0
LINE
  5
44
100
AcDbEntity
  8
1
  6
CONTINUOUS
 62
             7
100
AcDbLine
 10
-159.6000000000021
 20
-108.2472932480039
 11
-140.6000000000021
 21
-108.2472932480039
  0
LINE
  5
43
100
AcDbEntity
  8
1
  6
CONTINUOUS
 62
             7
100
AcDbLine
 10
-140.6000000000021
 20
-106.5472932480039
 11
-159.6000000000021
 21
-106.5472932480039
  0
LINE
  5
42
100
AcDbEntity
  8
1
  6
CONTINUOUS
 62
             7
100
AcDbLine
 10
-162.60000000000221
 20
-25.94729324800392
 11
-162.60000000000221
 21
-26.52788234092895
  0
LINE
  5
41
100
AcDbEntity
  8
1
  6
DOT_CENTER
 62
             2
100
AcDbLine
 10
-160.06666666666879
 20
-13.44729324800392
 11
-167.06666666666891
 21
-13.44729324800392
  0
LINE
  5
40
100
AcDbEntity
  8
1
  6
CONTINUOUS
 62
             7
100
AcDbLine
 10
-122.1000000000021
 20
-143.04729324800391
 11
-178.1000000000021
 21
-143.04729324800391
  0
LINE
  5
3F
100
AcDbEntity
  8
1
  6
CONTINUOUS
 62
             7
100
AcDbLine
 10
-162.60000000000221
 20
6.23841115801679
 11
-162.60000000000221
 21
-0.9472932480038
  0
LINE
  5
3E
100
AcDbEntity
  8
1
  6
CONTINUOUS
 62
             7
100
AcDbLine
 10
-162.60000000000221
 20
-26.52788234092895
 11
-162.60000000000221
 21
-46.46218826750896
  0
LINE
  5
3D
100
AcDbEntity
  8
1
  6
CONTINUOUS
 62
             7
100
AcDbLine
 10
-162.10000000000221
 20
-3.44729324800386
 11
-158.60000000000221
 21
-3.44729324800386
  0
LINE
  5
3C
100
AcDbEntity
  8
1
  6
CONTINUOUS
 62
             7
100
AcDbLine
 10
-162.10000000000221
 20
-1.4472932480038
 11
-158.60000000000221
 21
-1.4472932480038
  0
LINE
  5
3B
100
AcDbEntity
  8
1
  6
CONTINUOUS
 62
             7
100
AcDbLine
 10
-162.60000000000221
 20
-3.94729324800386
 11
-162.60000000000221
 21
-10.69729324800403
  0
LINE
  5
3A
100
AcDbEntity
  8
1
  6
CONTINUOUS
 62
             7
100
AcDbLine
 10
-158.60000000000221
 20
-1.4472932480038
 11
-158.60000000000221
 21
-3.44729324800386
  0
LINE
  5
39
100
AcDbEntity
  8
1
  6
CONTINUOUS
 62
             7
100
AcDbLine
 10
-158.60000000000221
 20
-3.44729324800386
 11
-157.10000000000221
 21
-3.4472932480038
  0
LINE
  5
38
100
AcDbEntity
  8
1
  6
CONTINUOUS
 62
             7
100
AcDbLine
 10
-158.60000000000221
 20
-1.4472932480038
 11
-157.36363566251029
 21
-1.4472932480038
  0
LINE
  5
37
100
AcDbEntity
  8
1
  6
CONTINUOUS
 62
             7
100
AcDbLine
 10
-157.45814754002151
 20
-23.44729324800397
 11
-162.1000000000021
 21
-23.44729324800397
  0
LINE
  5
36
100
AcDbEntity
  8
1
  6
CONTINUOUS
 62
             7
100
AcDbLine
 10
-145.10000000000221
 20
-25.44729324800403
 11
-158.82105117430089
 21
-25.44729324800403
  0
LINE
  5
35
100
AcDbEntity
  8
1
  6
CONTINUOUS
 62
             7
100
AcDbLine
 10
-156.60000000000221
 20
-2.9472932480038
 11
-156.60000000000221
 21
-2.06995267539787
  0
LINE
  5
34
100
AcDbEntity
  8
1
  6
CONTINUOUS
 62
             7
100
AcDbLine
 10
10.89999999999782
 20
12.70270675199612
 11
9.09999999999783
 21
12.70270675199612
  0
LINE
  5
33
100
AcDbEntity
  8
1
  6
CONTINUOUS
 62
             7
100
AcDbLine
 10
14.89999999999785
 20
20.2354100102569
 11
14.89999999999785
 21
22.2354100102569
  0
LINE
  5
32
100
AcDbEntity
  8
1
  6
CONTINUOUS
 62
             7
100
AcDbLine
 10
-122.1000000000021
 20
-106.5472932480039
 11
-125.1000000000021
 21
-103.5472932480039
  0
LINE
  5
31
100
AcDbEntity
  8
1
  6
CONTINUOUS
 62
             7
100
AcDbLine
 10
-178.1000000000021
 20
-106.5472932480039
 11
-159.6000000000021
 21
-106.5472932480039
  0
LINE
  5
30
100
AcDbEntity
  8
1
  6
CONTINUOUS
 62
             7
100
AcDbLine
 10
-122.1000000000021
 20
-106.5472932480039
 11
-140.6000000000021
 21
-106.5472932480039
  0
ENDBLK
  5
15D
100
AcDbEntity
  8
0
100
AcDbBlockEnd
  0
BLOCK
  5
28
100
AcDbEntity
  8
0
100
AcDbBlockBegin
  2
HL_34_VERSCHLU_KAPPE
 70
             0
 10
21.89999999999782
 20
-13.44729324800767
 30
0.0
  3
HL_34_VERSCHLU_KAPPE
  1

  0
HATCH
  5
17A
100
AcDbEntity
  8
1
  6
CONTINUOUS
 62
             3
100
AcDbHatch
 10
0.0
 20
0.0
 30
0.0
210
0.0
220
0.0
230
1.0
  2
USER
 70
             0
 71
             1
 91
        1
 92
        1
 93
       25
 72
             1
 10
69.399999999997817
 20
-37.447293248007611
 11
69.399999999997817
 21
-26.947293248007671
 72
             1
 10
69.399999999997817
 20
-26.947293248007671
 11
69.399999999997817
 21
-15.75669432475661
 72
             1
 10
69.399999999997817
 20
-15.75669432475661
 11
73.399999999997817
 21
-13.44729324800767
 72
             1
 10
73.399999999997817
 20
-13.44729324800767
 11
69.399999999997817
 21
-11.137892171247589
 72
             1
 10
69.399999999997817
 20
-11.137892171247589
 11
69.399999999997817
 21
0.0527067519923889
 72
             1
 10
69.399999999997817
 20
0.0527067519923889
 11
69.399999999997817
 21
10.552706751992391
 72
             2
 10
68.399999999997817
 20
10.552706751992391
 40
1.0
 50
0.0
 51
90.0
 73
             1
 72
             1
 10
68.399999999997817
 20
11.552706751992391
 11
67.899999999997817
 21
11.552706751992391
 72
             1
 10
67.899999999997817
 20
11.552706751992391
 11
67.899999999997817
 21
2.0527067519923889
 72
             2
 10
67.399999999997817
 20
2.0527067519923889
 40
0.5
 50
0.0
 51
90.0
 73
             0
 72
             1
 10
67.399999999997817
 20
1.5527067519923889
 11
52.399999999997817
 21
1.5527067519923889
 72
             1
 10
52.399999999997817
 20
1.5527067519923889
 11
47.899999999997817
 21
0.3469353860527917
 72
             1
 10
47.899999999997817
 20
0.3469353860527917
 11
47.899999999997817
 21
0.0527067519923889
 72
             1
 10
47.899999999997817
 20
0.0527067519923889
 11
67.399999999997817
 21
0.0527067519923889
 72
             2
 10
67.399999999997817
 20
-0.4472932480076111
 40
0.5
 50
-90.0
 51
0.0
 73
             0
 72
             1
 10
67.899999999997817
 20
-0.4472932480076111
 11
67.899999999997817
 21
-26.447293248007671
 72
             2
 10
67.399999999997817
 20
-26.447293248007671
 40
0.5
 50
0.0
 51
90.0
 73
             0
 72
             1
 10
67.399999999997817
 20
-26.947293248007671
 11
47.899999999997817
 21
-26.947293248007671
 72
             1
 10
47.899999999997817
 20
-26.947293248007671
 11
47.899999999997817
 21
-27.2415218820679
 72
             1
 10
47.899999999997817
 20
-27.2415218820679
 11
52.399999999997817
 21
-28.447293248007611
 72
             1
 10
52.399999999997817
 20
-28.447293248007611
 11
67.399999999997817
 21
-28.447293248007611
 72
             2
 10
67.399999999997817
 20
-28.947293248007611
 40
0.5
 50
-90.0
 51
0.0
 73
             0
 72
             1
 10
67.899999999997817
 20
-28.947293248007611
 11
67.899999999997817
 21
-38.447293248007611
 72
             1
 10
67.899999999997817
 20
-38.447293248007611
 11
68.399999999997817
 21
-38.447293248007611
 72
             2
 10
68.399999999997817
 20
-37.447293248007611
 40
1.0
 50
-90.0
 51
0.0
 73
             1
 97
       25
330
166
330
16A
330
173
330
171
330
172
330
16D
330
177
330
160
330
161
330
178
330
16F
330
162
330
168
330
16C
330
175
330
15F
330
174
330
169
330
16B
330
165
330
170
330
179
330
164
330
163
330
176
 75
             1
 76
             0
 52
45.0
 41
3.0
 77
             0
 78
             1
 53
45.0
 43
12581.806835621241
 44
16354.51021577643
 45
-2.1213203435596424
 46
2.1213203435596428
 79
             0
 98
        1
 10
0.0
 20
0.0
  0
ARC
  5
179
102
{ACAD_REACTORS
330
17A
102
}
100
AcDbEntity
  8
1
  6
CONTINUOUS
 62
             7
100
AcDbCircle
 10
67.39999999999782
 20
-28.94729324800761
 40
0.5
100
AcDbArc
 50
0.0
 51
90.0
  0
ARC
  5
178
102
{ACAD_REACTORS
330
17A
102
}
100
AcDbEntity
  8
1
  6
CONTINUOUS
 62
             7
100
AcDbCircle
 10
67.39999999999782
 20
2.05270675199239
 40
0.5
100
AcDbArc
 50
-90.0
 51
0.0
  0
ARC
  5
177
102
{ACAD_REACTORS
330
17A
102
}
100
AcDbEntity
  8
1
  6
CONTINUOUS
 62
             7
100
AcDbCircle
 10
68.39999999999782
 20
10.55270675199239
 40
1.0
100
AcDbArc
 50
0.0
 51
90.0
  0
ARC
  5
176
102
{ACAD_REACTORS
330
17A
102
}
100
AcDbEntity
  8
1
  6
CONTINUOUS
 62
             7
100
AcDbCircle
 10
68.39999999999782
 20
-37.44729324800761
 40
1.0
100
AcDbArc
 50
-90.0
 51
0.0
  0
ARC
  5
175
102
{ACAD_REACTORS
330
17A
102
}
100
AcDbEntity
  8
1
  6
CONTINUOUS
 62
             7
100
AcDbCircle
 10
67.39999999999782
 20
-0.44729324800761
 40
0.5
100
AcDbArc
 50
0.0
 51
90.0
  0
ARC
  5
174
102
{ACAD_REACTORS
330
17A
102
}
100
AcDbEntity
  8
1
  6
CONTINUOUS
 62
             7
100
AcDbCircle
 10
67.39999999999782
 20
-26.44729324800767
 40
0.5
100
AcDbArc
 50
-90.0
 51
0.0
  0
LINE
  5
173
102
{ACAD_REACTORS
330
17A
102
}
100
AcDbEntity
  8
1
  6
CONTINUOUS
 62
             7
100
AcDbLine
 10
69.39999999999782
 20
-15.75669432475661
 11
73.39999999999782
 21
-13.44729324800767
  0
LINE
  5
172
102
{ACAD_REACTORS
330
17A
102
}
100
AcDbEntity
  8
1
  6
CONTINUOUS
 62
             7
100
AcDbLine
 10
69.39999999999782
 20
0.05270675199239
 11
69.39999999999782
 21
-11.13789217124759
  0
LINE
  5
171
102
{ACAD_REACTORS
330
17A
102
}
100
AcDbEntity
  8
1
  6
CONTINUOUS
 62
             7
100
AcDbLine
 10
73.39999999999782
 20
-13.44729324800767
 11
69.39999999999782
 21
-11.13789217124759
  0
LINE
  5
170
102
{ACAD_REACTORS
330
17A
102
}
100
AcDbEntity
  8
1
  6
CONTINUOUS
 62
             7
100
AcDbLine
 10
67.39999999999782
 20
-28.44729324800761
 11
52.39999999999782
 21
-28.44729324800761
  0
LINE
  5
16F
102
{ACAD_REACTORS
330
17A
102
}
100
AcDbEntity
  8
1
  6
CONTINUOUS
 62
             7
100
AcDbLine
 10
52.39999999999782
 20
1.55270675199239
 11
67.39999999999782
 21
1.55270675199239
  0
LINE
  5
16E
100
AcDbEntity
  8
1
  6
CONTINUOUS
 62
             7
100
AcDbLine
 10
47.89999999999782
 20
-13.44729324800767
 11
47.89999999999782
 21
0.05270675199239
  0
LINE
  5
16D
102
{ACAD_REACTORS
330
17A
102
}
100
AcDbEntity
  8
1
  6
CONTINUOUS
 62
             7
100
AcDbLine
 10
69.39999999999782
 20
10.55270675199239
 11
69.39999999999782
 21
0.05270675199239
  0
LINE
  5
16C
102
{ACAD_REACTORS
330
17A
102
}
100
AcDbEntity
  8
1
  6
CONTINUOUS
 62
             7
100
AcDbLine
 10
47.89999999999782
 20
0.05270675199239
 11
67.39999999999782
 21
0.05270675199239
  0
LINE
  5
16B
102
{ACAD_REACTORS
330
17A
102
}
100
AcDbEntity
  8
1
  6
CONTINUOUS
 62
             7
100
AcDbLine
 10
47.89999999999782
 20
-27.2415218820679
 11
47.89999999999782
 21
-26.94729324800767
  0
LINE
  5
16A
102
{ACAD_REACTORS
330
17A
102
}
100
AcDbEntity
  8
1
  6
CONTINUOUS
 62
             7
100
AcDbLine
 10
69.39999999999782
 20
-15.75669432475661
 11
69.39999999999782
 21
-26.94729324800767
  0
LINE
  5
169
102
{ACAD_REACTORS
330
17A
102
}
100
AcDbEntity
  8
1
  6
CONTINUOUS
 62
             7
100
AcDbLine
 10
47.89999999999782
 20
-26.94729324800767
 11
67.39999999999782
 21
-26.94729324800767
  0
LINE
  5
168
102
{ACAD_REACTORS
330
17A
102
}
100
AcDbEntity
  8
1
  6
CONTINUOUS
 62
             7
100
AcDbLine
 10
47.89999999999782
 20
0.05270675199239
 11
47.89999999999782
 21
0.34693538605279
  0
LINE
  5
167
100
AcDbEntity
  8
1
  6
CONTINUOUS
 62
             7
100
AcDbLine
 10
47.89999999999782
 20
-26.94729324800767
 11
47.89999999999782
 21
-13.44729324800767
  0
LINE
  5
166
102
{ACAD_REACTORS
330
17A
102
}
100
AcDbEntity
  8
1
  6
CONTINUOUS
 62
             7
100
AcDbLine
 10
69.39999999999782
 20
-26.94729324800767
 11
69.39999999999782
 21
-37.44729324800761
  0
LINE
  5
165
102
{ACAD_REACTORS
330
17A
102
}
100
AcDbEntity
  8
1
  6
CONTINUOUS
 62
             7
100
AcDbLine
 10
52.39999999999782
 20
-28.44729324800761
 11
47.89999999999782
 21
-27.2415218820679
  0
LINE
  5
164
102
{ACAD_REACTORS
330
17A
102
}
100
AcDbEntity
  8
1
  6
CONTINUOUS
 62
             7
100
AcDbLine
 10
67.89999999999782
 20
-38.44729324800761
 11
67.89999999999782
 21
-28.94729324800761
  0
LINE
  5
163
102
{ACAD_REACTORS
330
17A
102
}
100
AcDbEntity
  8
1
  6
CONTINUOUS
 62
             7
100
AcDbLine
 10
68.39999999999782
 20
-38.44729324800761
 11
67.89999999999782
 21
-38.44729324800761
  0
LINE
  5
162
102
{ACAD_REACTORS
330
17A
102
}
100
AcDbEntity
  8
1
  6
CONTINUOUS
 62
             7
100
AcDbLine
 10
47.89999999999782
 20
0.34693538605279
 11
52.39999999999782
 21
1.55270675199239
  0
LINE
  5
161
102
{ACAD_REACTORS
330
17A
102
}
100
AcDbEntity
  8
1
  6
CONTINUOUS
 62
             7
100
AcDbLine
 10
67.89999999999782
 20
2.05270675199239
 11
67.89999999999782
 21
11.55270675199239
  0
LINE
  5
160
102
{ACAD_REACTORS
330
17A
102
}
100
AcDbEntity
  8
1
  6
CONTINUOUS
 62
             7
100
AcDbLine
 10
67.89999999999782
 20
11.55270675199239
 11
68.39999999999782
 21
11.55270675199239
  0
LINE
  5
15F
102
{ACAD_REACTORS
330
17A
102
}
100
AcDbEntity
  8
1
  6
CONTINUOUS
 62
             7
100
AcDbLine
 10
67.89999999999782
 20
-0.44729324800761
 11
67.89999999999782
 21
-26.44729324800767
  0
LINE
  5
15E
100
AcDbEntity
  8
1
  6
DASH_CENTER
 62
             2
100
AcDbLine
 10
45.41347420362763
 20
-13.44729324800767
 11
74.62566632272862
 21
-13.44729324800767
  0
ENDBLK
  5
17B
100
AcDbEntity
  8
0
100
AcDbBlockEnd
  0
BLOCK
  5
2A
100
AcDbEntity
  8
0
100
AcDbBlockBegin
  2
HL_34_DICHTUNG
 70
             0
 10
18.89999999999782
 20
-13.4472932480038
 30
0.0
  3
HL_34_DICHTUNG
  1

  0
ARC
  5
185
100
AcDbEntity
  8
1
  6
CONTINUOUS
 62
             7
100
AcDbCircle
 10
16.89999999999782
 20
-40.94729324800392
 40
2.0
100
AcDbArc
 50
-90.0
 51
0.0
  0
ARC
  5
184
100
AcDbEntity
  8
1
  6
CONTINUOUS
 62
             7
100
AcDbCircle
 10
16.89999999999782
 20
14.05270675199608
 40
2.0
100
AcDbArc
 50
0.0
 51
90.0
  0
LINE
  5
183
100
AcDbEntity
  8
1
  6
CONTINUOUS
 62
             7
100
AcDbLine
 10
10.89999999999782
 20
-42.94729324800392
 11
16.89999999999782
 21
-42.94729324800392
  0
LINE
  5
182
100
AcDbEntity
  8
1
  6
CONTINUOUS
 62
             7
100
AcDbLine
 10
18.89999999999782
 20
-40.94729324800392
 11
18.89999999999782
 21
14.05270675199608
  0
LINE
  5
181
100
AcDbEntity
  8
1
  6
CONTINUOUS
 62
             7
100
AcDbLine
 10
10.89999999999782
 20
16.05270675199608
 11
10.89999999999782
 21
-42.94729324800392
  0
LINE
  5
180
100
AcDbEntity
  8
1
  6
CONTINUOUS
 62
             7
100
AcDbLine
 10
16.89999999999782
 20
16.05270675199608
 11
10.89999999999782
 21
16.05270675199608
  0
LINE
  5
17F
100
AcDbEntity
  8
1
  6
CONTINUOUS
 62
             7
100
AcDbLine
 10
22.4929563893819
 20
-25.44729324800392
 11
24.4929563893819
 21
-25.44729324800392
  0
LINE
  5
17E
100
AcDbEntity
  8
1
  6
CONTINUOUS
 62
             7
100
AcDbLine
 10
22.4929563893819
 20
-0.94729324800392
 11
24.4929563893819
 21
-0.94729324800392
  0
LINE
  5
17D
100
AcDbEntity
  8
1
  6
CONTINUOUS
 62
             7
100
AcDbLine
 10
16.89999999999782
 20
16.05270675199608
 11
16.89999999999782
 21
-42.94729324800392
  0
LINE
  5
17C
100
AcDbEntity
  8
1
  6
PHANTOM
 62
             2
100
AcDbLine
 10
10.89999999999782
 20
-13.44729324800392
 11
18.89999999999782
 21
-13.44729324800392
  0
ENDBLK
  5
186
100
AcDbEntity
  8
0
100
AcDbBlockEnd
  0
BLOCK
  5
189
100
AcDbEntity
  8
0
100
AcDbBlockBegin
  2
*D3
 70
             1
 10
0.0
 20
0.0
 30
0.0
  3
*D3
  1

  0
LINE
  5
18A
100
AcDbEntity
  8
0
  6
CONTINUOUS
 62
             4
100
AcDbLine
 10
-91.6000000000021
 20
-58.2388179603901
 11
-77.6000000000021
 21
-58.2388179603901
  0
LINE
  5
18B
100
AcDbEntity
  8
0
  6
CONTINUOUS
 62
             4
100
AcDbLine
 10
-107.6000000000021
 20
-58.2388179603901
 11
-91.6000000000021
 21
-58.2388179603901
  0
LINE
  5
18C
100
AcDbEntity
  8
0
  6
CONTINUOUS
 62
             4
100
AcDbLine
 10
-121.6000000000021
 20
-58.2388179603901
 11
-107.6000000000021
 21
-58.2388179603901
  0
LINE
  5
18D
100
AcDbEntity
  8
0
  6
CONTINUOUS
 62
             4
100
AcDbLine
 10
-91.6000000000021
 20
-42.44729324800403
 11
-91.6000000000021
 21
-60.2388179603901
  0
LINE
  5
18E
100
AcDbEntity
  8
0
  6
CONTINUOUS
 62
             4
100
AcDbLine
 10
-107.6000000000021
 20
-42.44729324800403
 11
-107.6000000000021
 21
-60.2388179603901
  0
SOLID
  5
18F
100
AcDbEntity
  8
0
 62
             4
100
AcDbTrace
 10
-114.6000000000021
 20
-59.16038544350187
 11
-114.6000000000021
 21
-57.31725047727833
 12
-107.6000000000021
 22
-58.2388179603901
 13
-107.6000000000021
 23
-58.2388179603901
  0
SOLID
  5
190
100
AcDbEntity
  8
0
 62
             4
100
AcDbTrace
 10
-84.6000000000021
 20
-57.31725047727833
 11
-84.6000000000021
 21
-59.16038544350187
 12
-91.6000000000021
 22
-58.2388179603901
 13
-91.6000000000021
 23
-58.2388179603901
  0
MTEXT
  5
192
100
AcDbEntity
  8
0
 62
             1
100
AcDbMText
 10
-103.9239774877326
 20
-56.2388179603901
 30
0.0
 40
7.0
 41
0.0
 71
             7
 72
             1
  1
16
  7
CONVERTER_1
 11
0.99999999999706
 21
0.00000242406841
 31
0.0
  0
ENDBLK
  5
193
100
AcDbEntity
  8
0
100
AcDbBlockEnd
  0
BLOCK
  5
197
100
AcDbEntity
  8
0
100
AcDbBlockBegin
  2
*D4
 70
             1
 10
0.0
 20
0.0
 30
0.0
  3
*D4
  1

  0
LINE
  5
198
100
AcDbEntity
  8
0
  6
CONTINUOUS
 62
             4
100
AcDbLine
 10
-125.1000000000021
 20
-83.54729324800388
 11
-165.10000000000221
 21
-83.54729324800388
  0
LINE
  5
199
100
AcDbEntity
  8
0
  6
CONTINUOUS
 62
             4
100
AcDbLine
 10
-92.241501767042
 20
-83.54729324800388
 11
-125.1000000000021
 21
-83.54729324800388
  0
LINE
  5
19A
100
AcDbEntity
  8
0
  6
CONTINUOUS
 62
             4
100
AcDbLine
 10
-165.10000000000221
 20
-93.54729324800388
 11
-165.10000000000221
 21
-81.54729324800388
  0
LINE
  5
19B
100
AcDbEntity
  8
0
  6
CONTINUOUS
 62
             4
100
AcDbLine
 10
-125.1000000000021
 20
-103.5472932480039
 11
-125.1000000000021
 21
-81.54729324800388
  0
SOLID
  5
19C
100
AcDbEntity
  8
0
 62
             4
100
AcDbTrace
 10
-132.1000000000021
 20
-84.46886073111566
 11
-132.1000000000021
 21
-82.62572576489211
 12
-125.1000000000021
 22
-83.54729324800388
 13
-125.1000000000021
 23
-83.54729324800388
  0
SOLID
  5
19D
100
AcDbEntity
  8
0
 62
             4
100
AcDbTrace
 10
-158.10000000000221
 20
-82.62572576489211
 11
-158.10000000000221
 21
-84.46886073111566
 12
-165.10000000000221
 22
-83.54729324800388
 13
-165.10000000000221
 23
-83.54729324800388
  0
MTEXT
  5
19E
100
AcDbEntity
  8
0
 62
             1
100
AcDbMText
 10
-114.22150176700826
 20
-81.54732107630917
 30
0.0
 40
7.0
 41
0.0
 71
             7
 72
             1
  1
\C1;DN\C1;40
  7
CONVERTER_1
 11
0.99999999999706
 21
0.00000242406841
 31
0.0
  0
ENDBLK
  5
19F
100
AcDbEntity
  8
0
100
AcDbBlockEnd
  0
BLOCK
  5
1A3
100
AcDbEntity
  8
0
100
AcDbBlockBegin
  2
*D5
 70
             1
 10
0.0
 20
0.0
 30
0.0
  3
*D5
  1

  0
LINE
  5
1A4
100
AcDbEntity
  8
0
  6
CONTINUOUS
 62
             4
100
AcDbLine
 10
-178.10000000000213
 20
-168.17507377662
 11
-122.10000000000213
 21
-168.17507377662
  0
LINE
  5
1A5
100
AcDbEntity
  8
0
  6
CONTINUOUS
 62
             4
100
AcDbLine
 10
-122.10000000000213
 20
-143.04729324800391
 11
-122.10000000000213
 21
-170.17507377662
  0
LINE
  5
1A6
100
AcDbEntity
  8
0
  6
CONTINUOUS
 62
             4
100
AcDbLine
 10
-178.10000000000213
 20
-143.04729324800391
 11
-178.10000000000213
 21
-170.17507377662
  0
SOLID
  5
1A7
100
AcDbEntity
  8
0
 62
             4
100
AcDbTrace
 10
-171.10000000000213
 20
-167.25350629350822
 11
-171.10000000000213
 21
-169.09664125973177
 12
-178.10000000000213
 22
-168.17507377662
 13
-178.10000000000213
 23
-168.17507377662
  0
SOLID
  5
1A8
100
AcDbEntity
  8
0
 62
             4
100
AcDbTrace
 10
-129.10000000000213
 20
-169.09664125973177
 11
-129.10000000000213
 21
-167.25350629350822
 12
-122.10000000000213
 22
-168.17507377662
 13
-122.10000000000213
 23
-168.17507377662
  0
MTEXT
  5
1A9
100
AcDbEntity
  8
0
 62
             1
100
AcDbMText
 10
-157.49234391789008
 20
-166.17510160492529
 30
0.0
 40
7.0
 41
0.0
 71
             7
 72
             1
  1
\C1;DN\C1;56
  7
CONVERTER_1
 11
0.99999999999706
 21
0.00000242406841
 31
0.0
  0
ENDBLK
  5
1AA
100
AcDbEntity
  8
0
100
AcDbBlockEnd
  0
BLOCK
  5
1AE
100
AcDbEntity
  8
0
100
AcDbBlockBegin
  2
*D6
 70
             1
 10
0.0
 20
0.0
 30
0.0
  3
*D6
  1

  0
LINE
  5
1AF
100
AcDbEntity
  8
0
  6
CONTINUOUS
 62
             4
100
AcDbLine
 10
-145.10000000000221
 20
32.2354100102569
 11
14.89999999999785
 21
32.2354100102569
  0
LINE
  5
1B0
100
AcDbEntity
  8
0
  6
CONTINUOUS
 62
             4
100
AcDbLine
 10
14.89999999999785
 20
22.2354100102569
 11
14.89999999999785
 21
34.2354100102569
  0
LINE
  5
1B1
100
AcDbEntity
  8
0
  6
CONTINUOUS
 62
             4
100
AcDbLine
 10
-145.10000000000221
 20
2.58395675199608
 11
-145.10000000000221
 21
34.2354100102569
  0
SOLID
  5
1B2
100
AcDbEntity
  8
0
 62
             4
100
AcDbTrace
 10
-138.10000000000221
 20
33.15697749336867
 11
-138.10000000000221
 21
31.31384252714513
 12
-145.10000000000221
 22
32.2354100102569
 13
-145.10000000000221
 23
32.2354100102569
  0
SOLID
  5
1B3
100
AcDbEntity
  8
0
 62
             4
100
AcDbTrace
 10
7.89999999999785
 20
31.31384252714513
 11
7.89999999999785
 21
33.15697749336867
 12
14.89999999999785
 22
32.2354100102569
 13
14.89999999999785
 23
32.2354100102569
  0
MTEXT
  5
1B4
100
AcDbEntity
  8
0
 62
             1
100
AcDbMText
 10
-75.1690010457976
 20
34.2354100102569
 30
0.0
 40
7.0
 41
0.0
 71
             7
 72
             1
  1
\C1;56\C1;-160
  7
CONVERTER_1
 11
0.99999999999706
 21
0.00000242406841
 31
0.0
  0
ENDBLK
  5
1B5
100
AcDbEntity
  8
0
100
AcDbBlockEnd
  0
BLOCK
  5
1B9
100
AcDbEntity
  8
0
100
AcDbBlockBegin
  2
*D7
 70
             1
 10
0.0
 20
0.0
 30
0.0
  3
*D7
  1

  0
LINE
  5
1BA
100
AcDbEntity
  8
0
  6
CONTINUOUS
 62
             4
100
AcDbLine
 10
34.6252187573267
 20
-0.94729324800392
 11
34.6252187573267
 21
66.5025469127783
  0
LINE
  5
1BB
100
AcDbEntity
  8
0
  6
CONTINUOUS
 62
             4
100
AcDbLine
 10
34.6252187573267
 20
-25.44729324800392
 11
34.6252187573267
 21
-0.94729324800392
  0
LINE
  5
1BC
100
AcDbEntity
  8
0
  6
CONTINUOUS
 62
             4
100
AcDbLine
 10
22.4929563893819
 20
-0.94729324800392
 11
36.6252187573267
 21
-0.94729324800392
  0
LINE
  5
1BD
100
AcDbEntity
  8
0
  6
CONTINUOUS
 62
             4
100
AcDbLine
 10
22.4929563893819
 20
-25.44729324800392
 11
36.6252187573267
 21
-25.44729324800392
  0
SOLID
  5
1BE
100
AcDbEntity
  8
0
 62
             4
100
AcDbTrace
 10
33.70365127421493
 20
-18.44729324800392
 11
35.54678624043847
 21
-18.44729324800392
 12
34.6252187573267
 22
-25.44729324800392
 13
34.6252187573267
 23
-25.44729324800392
  0
SOLID
  5
1BF
100
AcDbEntity
  8
0
 62
             4
100
AcDbTrace
 10
35.54678624043847
 20
-7.94729324800392
 11
33.70365127421493
 21
-7.94729324800392
 12
34.6252187573267
 22
-0.94729324800392
 13
34.6252187573267
 23
-0.94729324800392
  0
MTEXT
  5
1C0
100
AcDbEntity
  8
0
 62
             1
100
AcDbMText
 10
32.6252187573267
 20
10.9225469127783
 30
0.0
 40
7.0
 41
0.0
 71
             7
 72
             1
  1
\C1;DN\C1;32\C1;-DN40
  7
CONVERTER_1
 11
0.0
 21
1.0
 31
0.0
  0
ENDBLK
  5
1C1
100
AcDbEntity
  8
0
100
AcDbBlockEnd
  0
BLOCK
  5
1C5
100
AcDbEntity
  8
0
100
AcDbBlockBegin
  2
*D8
 70
             1
 10
0.0
 20
0.0
 30
0.0
  3
*D8
  1

  0
LINE
  5
1C6
100
AcDbEntity
  8
0
  6
CONTINUOUS
 62
             4
100
AcDbLine
 10
-185.1000000000021
 20
-146.54729324800388
 11
-185.1000000000021
 21
-106.54729324800392
  0
LINE
  5
1C7
100
AcDbEntity
  8
0
  6
CONTINUOUS
 62
             4
100
AcDbLine
 10
-178.1000000000021
 20
-106.54729324800392
 11
-187.1000000000021
 21
-106.54729324800392
  0
LINE
  5
1C8
100
AcDbEntity
  8
0
  6
CONTINUOUS
 62
             4
100
AcDbLine
 10
-177.16217782649329
 20
-146.54729324800388
 11
-187.1000000000021
 21
-146.54729324800388
  0
SOLID
  5
1C9
100
AcDbEntity
  8
0
 62
             4
100
AcDbTrace
 10
-186.02156748311387
 20
-139.54729324800388
 11
-184.17843251689033
 21
-139.54729324800388
 12
-185.1000000000021
 22
-146.54729324800388
 13
-185.1000000000021
 23
-146.54729324800388
  0
SOLID
  5
1CA
100
AcDbEntity
  8
0
 62
             4
100
AcDbTrace
 10
-184.17843251689033
 20
-113.54729324800392
 11
-186.02156748311387
 21
-113.54729324800392
 12
-185.1000000000021
 22
-106.54729324800392
 13
-185.1000000000021
 23
-106.54729324800392
  0
MTEXT
  5
1CB
100
AcDbEntity
  8
0
 62
             1
100
AcDbMText
 10
-187.1000000000021
 20
-130.6337603798149
 30
0.0
 40
7.0
 41
0.0
 71
             7
 72
             1
  1
40
  7
CONVERTER_1
 11
0.0
 21
1.0
 31
0.0
  0
ENDBLK
  5
1CC
100
AcDbEntity
  8
0
100
AcDbBlockEnd
  0
BLOCK
  5
1D0
100
AcDbEntity
  8
0
100
AcDbBlockBegin
  2
*D9
 70
             1
 10
0.0
 20
0.0
 30
0.0
  3
*D9
  1

  0
LINE
  5
1D1
100
AcDbEntity
  8
0
  6
CONTINUOUS
 62
             4
100
AcDbLine
 10
-199.41149124725499
 20
-146.54729324800391
 11
-199.41149124725499
 21
-13.44729324800392
  0
LINE
  5
1D2
100
AcDbEntity
  8
0
  6
CONTINUOUS
 62
             4
100
AcDbLine
 10
-160.06666666666879
 20
-13.44729324800392
 11
-201.41149124725499
 21
-13.44729324800392
  0
LINE
  5
1D3
100
AcDbEntity
  8
0
  6
CONTINUOUS
 62
             4
100
AcDbLine
 10
-177.16217782649329
 20
-146.54729324800391
 11
-201.41149124725499
 21
-146.54729324800391
  0
SOLID
  5
1D4
100
AcDbEntity
  8
0
 62
             4
100
AcDbTrace
 10
-200.33305873036676
 20
-139.54729324800391
 11
-198.48992376414321
 21
-139.54729324800391
 12
-199.41149124725499
 22
-146.54729324800391
 13
-199.41149124725499
 23
-146.54729324800391
  0
SOLID
  5
1D5
100
AcDbEntity
  8
0
 62
             4
100
AcDbTrace
 10
-198.48992376414321
 20
-20.44729324800392
 11
-200.33305873036676
 21
-20.44729324800392
 12
-199.41149124725499
 22
-13.44729324800392
 13
-199.41149124725499
 23
-13.44729324800392
  0
MTEXT
  5
1D6
100
AcDbEntity
  8
0
 62
             1
100
AcDbMText
 10
-201.41149124725499
 20
-91.11265678016076
 30
0.0
 40
7.0
 41
0.0
 71
             7
 72
             1
  1
133
  7
CONVERTER_1
 11
0.0
 21
1.0
 31
0.0
  0
ENDBLK
  5
1D7
100
AcDbEntity
  8
0
100
AcDbBlockEnd
  0
ENDSEC
  0
SECTION
  2
ENTITIES
  0
DIMENSION
  5
1D9
100
AcDbEntity
  8
1
100
AcDbDimension
  2
*D9
 10
-199.41149124725499
 20
-146.54729324800391
 11
-204.91149124725499
 21
-83.76265678016077
 31
0.0
 53
-90.0
  1
<>
  3
ME10_DIM_6
100
AcDbAlignedDimension
 13
-160.06666666666879
 23
-13.44729324800392
 14
-177.16217782649329
 24
-146.54729324800391
 50
-90.0
100
AcDbRotatedDimension
  0
DIMENSION
  5
1CE
100
AcDbEntity
  8
1
100
AcDbDimension
  2
*D8
 10
-185.1000000000021
 20
-146.54729324800388
 11
-190.6000000000021
 21
-125.3837603798149
 31
0.0
 53
-90.0
  1
<>
  3
ME10_DIM_5
100
AcDbAlignedDimension
 13
-178.1000000000021
 23
-106.5472932480039
 14
-177.16217782649329
 24
-146.54729324800391
 50
-90.0
100
AcDbRotatedDimension
  0
DIMENSION
  5
1C3
100
AcDbEntity
  8
1
100
AcDbDimension
  2
*D7
 10
34.6252187573267
 20
-25.44729324800392
 11
29.1252187573267
 21
36.7525469127783
 31
0.0
 53
90.0
  1
DN32
  3
ME10_DIM_4
100
AcDbAlignedDimension
 13
22.4929563893819
 23
-0.94729324800392
 14
22.4929563893819
 24
-25.44729324800392
 50
90.0
100
AcDbRotatedDimension
  0
DIMENSION
  5
1B7
100
AcDbEntity
  8
1
100
AcDbDimension
  2
*D6
 10
-145.10000000000221
 20
32.2354100102569
 11
-58.0190010457976
 21
37.7354100102569
 31
0.0
 53
0.00013888888889
  1
56
  3
ME10_DIM_3
100
AcDbAlignedDimension
 13
14.89999999999785
 23
22.2354100102569
 14
-145.10000000000221
 24
2.58395675199608
100
AcDbRotatedDimension
  0
DIMENSION
  5
1AC
100
AcDbEntity
  8
1
100
AcDbDimension
  2
*D5
 10
-178.10000000000213
 20
-168.17507377662
 11
-148.46234391792379
 21
-162.67507377662
 31
0.0
 53
0.00013888888889
  1
<>
  3
ME10_DIM_2
100
AcDbAlignedDimension
 13
-122.1000000000021
 23
-143.04729324800391
 14
-178.1000000000021
 24
-143.04729324800391
100
AcDbRotatedDimension
  0
DIMENSION
  5
1A1
100
AcDbEntity
  8
1
100
AcDbDimension
  2
*D4
 10
-125.1000000000021
 20
-83.54729324800388
 11
-105.191501767042
 21
-78.04729324800388
 31
0.0
 53
0.00013888888889
  1
<>
  3
ME10_DIM_1
100
AcDbAlignedDimension
 13
-165.10000000000221
 23
-93.54729324800388
 14
-125.1000000000021
 24
-103.5472932480039
100
AcDbRotatedDimension
  0
DIMENSION
  5
195
100
AcDbEntity
  8
1
100
AcDbDimension
  2
*D3
 10
-107.6000000000021
 20
-58.2388179603901
 11
-99.7239774877326
 21
-52.7388179603901
 31
0.0
 53
0.00013888888889
  1
<>
  3
ME10_DIM_0
100
AcDbAlignedDimension
 13
-91.6000000000021
 23
-42.44729324800403
 14
-107.6000000000021
 24
-42.44729324800403
100
AcDbRotatedDimension
  0
INSERT
  5
2D
100
AcDbEntity
  8
1
100
AcDbBlockReference
  2
HL_34_SIFONANSCHLU_WINIKEL
 10
-195.12964595283529
 20
44.05270675199608
  0
INSERT
  5
2E
100
AcDbEntity
  8
0
100
AcDbBlockReference
  2
HL_34_VERSCHLU_KAPPE
 10
21.89999999999782
 20
-13.44729324800767
  0
INSERT
  5
2F
100
AcDbEntity
  8
1
100
AcDbBlockReference
  2
HL_34_DICHTUNG
 10
18.89999999999782
 20
-13.4472932480038
  0
ENDSEC
  0
SECTION
  2
OBJECTS
  0
DICTIONARY
  5
19
100
AcDbDictionary
  3
ACAD_GROUP
350
1A
  3
ACAD_MLINESTYLE
350
1B
  0
DICTIONARY
  5
1A
102
{ACAD_REACTORS
330
19
102
}
100
AcDbDictionary
  0
DICTIONARY
  5
1B
102
{ACAD_REACTORS
330
19
102
}
100
AcDbDictionary
  3
STANDARD
350
1C
  0
MLINESTYLE
  5
1C
102
{ACAD_REACTORS
330
1B
102
}
100
AcDbMlineStyle
  2
STANDARD
 70
             0
  3

 62
             0
 51
90.0
 52
90.0
 71
             2
 49
0.5
 62
           256
  6
BYLAYER
 49
-0.5
 62
           256
  6
BYLAYER
  0
ENDSEC
  0
EOF
