  0
SECTION
  2
HEADER
  9
$ACADVER
  1
AC1015
  9
$ACADMAINTVER
 70
     6
  9
$DWGCODEPAGE
  3
ANSI_1252
  9
$INSBASE
 10
0.0
 20
0.0
 30
0.0
  9
$EXTMIN
 10
-462.5164349550634
 20
-243.292383901958
 30
0.0
  9
$EXTMAX
 10
518.2652319999994
 20
123.7119022908792
 30
0.0
  9
$LIMMIN
 10
0.0
 20
0.0
  9
$LIMMAX
 10
12.0
 20
9.0
  9
$ORTHOMODE
 70
     0
  9
$REGENMODE
 70
     1
  9
$FILLMODE
 70
     1
  9
$QTEXTMODE
 70
     0
  9
$MIRRTEXT
 70
     1
  9
$LTSCALE
 40
1.0
  9
$ATTMODE
 70
     1
  9
$TEXTSIZE
 40
0.2
  9
$TRACEWID
 40
0.05
  9
$TEXTSTYLE
  7
Standard
  9
$CLAYER
  8
0
  9
$CELTYPE
  6
ByLayer
  9
$CECOLOR
 62
   256
  9
$CELTSCALE
 40
1.0
  9
$DISPSILH
 70
     0
  9
$DIMSCALE
 40
1.0
  9
$DIMASZ
 40
0.18
  9
$DIMEXO
 40
0.0625
  9
$DIMDLI
 40
0.38
  9
$DIMRND
 40
0.0
  9
$DIMDLE
 40
0.0
  9
$DIMEXE
 40
0.18
  9
$DIMTP
 40
0.0
  9
$DIMTM
 40
0.0
  9
$DIMTXT
 40
0.18
  9
$DIMCEN
 40
0.09
  9
$DIMTSZ
 40
0.0
  9
$DIMTOL
 70
     0
  9
$DIMLIM
 70
     0
  9
$DIMTIH
 70
     1
  9
$DIMTOH
 70
     1
  9
$DIMSE1
 70
     0
  9
$DIMSE2
 70
     0
  9
$DIMTAD
 70
     0
  9
$DIMZIN
 70
     0
  9
$DIMBLK
  1

  9
$DIMASO
 70
     1
  9
$DIMSHO
 70
     1
  9
$DIMPOST
  1

  9
$DIMAPOST
  1

  9
$DIMALT
 70
     0
  9
$DIMALTD
 70
     2
  9
$DIMALTF
 40
25.4
  9
$DIMLFAC
 40
1.0
  9
$DIMTOFL
 70
     0
  9
$DIMTVP
 40
0.0
  9
$DIMTIX
 70
     0
  9
$DIMSOXD
 70
     0
  9
$DIMSAH
 70
     0
  9
$DIMBLK1
  1

  9
$DIMBLK2
  1

  9
$DIMSTYLE
  2
Standard
  9
$DIMCLRD
 70
     0
  9
$DIMCLRE
 70
     0
  9
$DIMCLRT
 70
     0
  9
$DIMTFAC
 40
1.0
  9
$DIMGAP
 40
0.09
  9
$DIMJUST
 70
     0
  9
$DIMSD1
 70
     0
  9
$DIMSD2
 70
     0
  9
$DIMTOLJ
 70
     1
  9
$DIMTZIN
 70
     0
  9
$DIMALTZ
 70
     0
  9
$DIMALTTZ
 70
     0
  9
$DIMUPT
 70
     0
  9
$DIMDEC
 70
     4
  9
$DIMTDEC
 70
     4
  9
$DIMALTU
 70
     2
  9
$DIMALTTD
 70
     2
  9
$DIMTXSTY
  7
Standard
  9
$DIMAUNIT
 70
     0
  9
$DIMADEC
 70
     0
  9
$DIMALTRND
 40
0.0
  9
$DIMAZIN
 70
     0
  9
$DIMDSEP
 70
    46
  9
$DIMATFIT
 70
     3
  9
$DIMFRAC
 70
     0
  9
$DIMLDRBLK
  1

  9
$DIMLUNIT
 70
     2
  9
$DIMLWD
 70
    -2
  9
$DIMLWE
 70
    -2
  9
$DIMTMOVE
 70
     0
  9
$LUNITS
 70
     2
  9
$LUPREC
 70
     4
  9
$SKETCHINC
 40
0.1
  9
$FILLETRAD
 40
0.5
  9
$AUNITS
 70
     0
  9
$AUPREC
 70
     0
  9
$MENU
  1
.
  9
$ELEVATION
 40
0.0
  9
$PELEVATION
 40
0.0
  9
$THICKNESS
 40
0.0
  9
$LIMCHECK
 70
     0
  9
$CHAMFERA
 40
0.5
  9
$CHAMFERB
 40
0.5
  9
$CHAMFERC
 40
1.0
  9
$CHAMFERD
 40
0.0
  9
$SKPOLY
 70
     0
  9
$TDCREATE
 40
2456966.621582431
  9
$TDUCREATE
 40
2456966.579915764
  9
$TDUPDATE
 40
2456966.621582789
  9
$TDUUPDATE
 40
2456966.579916123
  9
$TDINDWG
 40
0.0000000116
  9
$TDUSRTIMER
 40
0.0000000116
  9
$USRTIMER
 70
     1
  9
$ANGBASE
 50
0.0
  9
$ANGDIR
 70
     0
  9
$PDMODE
 70
     0
  9
$PDSIZE
 40
0.0
  9
$PLINEWID
 40
0.0
  9
$SPLFRAME
 70
     0
  9
$SPLINETYPE
 70
     6
  9
$SPLINESEGS
 70
     8
  9
$HANDSEED
  5
635
  9
$SURFTAB1
 70
     6
  9
$SURFTAB2
 70
     6
  9
$SURFTYPE
 70
     6
  9
$SURFU
 70
     6
  9
$SURFV
 70
     6
  9
$UCSBASE
  2

  9
$UCSNAME
  2

  9
$UCSORG
 10
0.0
 20
0.0
 30
0.0
  9
$UCSXDIR
 10
1.0
 20
0.0
 30
0.0
  9
$UCSYDIR
 10
0.0
 20
1.0
 30
0.0
  9
$UCSORTHOREF
  2

  9
$UCSORTHOVIEW
 70
     0
  9
$UCSORGTOP
 10
0.0
 20
0.0
 30
0.0
  9
$UCSORGBOTTOM
 10
0.0
 20
0.0
 30
0.0
  9
$UCSORGLEFT
 10
0.0
 20
0.0
 30
0.0
  9
$UCSORGRIGHT
 10
0.0
 20
0.0
 30
0.0
  9
$UCSORGFRONT
 10
0.0
 20
0.0
 30
0.0
  9
$UCSORGBACK
 10
0.0
 20
0.0
 30
0.0
  9
$PUCSBASE
  2

  9
$PUCSNAME
  2

  9
$PUCSORG
 10
0.0
 20
0.0
 30
0.0
  9
$PUCSXDIR
 10
1.0
 20
0.0
 30
0.0
  9
$PUCSYDIR
 10
0.0
 20
1.0
 30
0.0
  9
$PUCSORTHOREF
  2

  9
$PUCSORTHOVIEW
 70
     0
  9
$PUCSORGTOP
 10
0.0
 20
0.0
 30
0.0
  9
$PUCSORGBOTTOM
 10
0.0
 20
0.0
 30
0.0
  9
$PUCSORGLEFT
 10
0.0
 20
0.0
 30
0.0
  9
$PUCSORGRIGHT
 10
0.0
 20
0.0
 30
0.0
  9
$PUCSORGFRONT
 10
0.0
 20
0.0
 30
0.0
  9
$PUCSORGBACK
 10
0.0
 20
0.0
 30
0.0
  9
$USERI1
 70
     0
  9
$USERI2
 70
     0
  9
$USERI3
 70
     0
  9
$USERI4
 70
     0
  9
$USERI5
 70
     0
  9
$USERR1
 40
18.1
  9
$USERR2
 40
0.0
  9
$USERR3
 40
0.0
  9
$USERR4
 40
0.0
  9
$USERR5
 40
0.0
  9
$WORLDVIEW
 70
     1
  9
$SHADEDGE
 70
     3
  9
$SHADEDIF
 70
    70
  9
$TILEMODE
 70
     1
  9
$MAXACTVP
 70
    64
  9
$PINSBASE
 10
0.0
 20
0.0
 30
0.0
  9
$PLIMCHECK
 70
     0
  9
$PEXTMIN
 10
1.00000000000000E+20
 20
1.00000000000000E+20
 30
1.00000000000000E+20
  9
$PEXTMAX
 10
-1.00000000000000E+20
 20
-1.00000000000000E+20
 30
-1.00000000000000E+20
  9
$PLIMMIN
 10
0.0
 20
0.0
  9
$PLIMMAX
 10
12.0
 20
9.0
  9
$UNITMODE
 70
     0
  9
$VISRETAIN
 70
     1
  9
$PLINEGEN
 70
     0
  9
$PSLTSCALE
 70
     1
  9
$TREEDEPTH
 70
  3020
  9
$CMLSTYLE
  2
Standard
  9
$CMLJUST
 70
     0
  9
$CMLSCALE
 40
1.0
  9
$PROXYGRAPHICS
 70
     1
  9
$MEASUREMENT
 70
     1
  9
$CELWEIGHT
370
    -1
  9
$ENDCAPS
280
     0
  9
$JOINSTYLE
280
     0
  9
$LWDISPLAY
290
     0
  9
$INSUNITS
 70
     1
  9
$HYPERLINKBASE
  1

  9
$STYLESHEET
  1

  9
$XEDIT
290
     1
  9
$CEPSNTYPE
380
     0
  9
$PSTYLEMODE
290
     1
  9
$FINGERPRINTGUID
  2
{FAA6A59F-CB4E-4DF4-8DE5-011B4DC5753D}
  9
$VERSIONGUID
  2
{FAEB1C32-E019-11D5-929B-00C0DF256EC4}
  9
$EXTNAMES
290
     1
  9
$PSVPSCALE
 40
0.0
  9
$OLESTARTUP
290
     0
  0
ENDSEC
  0
SECTION
  2
CLASSES
  0
CLASS
  1
ACDBDICTIONARYWDFLT
  2
AcDbDictionaryWithDefault
  3
ObjectDBX Classes
 90
        0
280
     0
281
     0
  0
CLASS
  1
VISUALSTYLE
  2
AcDbVisualStyle
  3
ObjectDBX Classes
 90
     4095
280
     0
281
     0
  0
CLASS
  1
MATERIAL
  2
AcDbMaterial
  3
ObjectDBX Classes
 90
     1153
280
     0
281
     0
  0
CLASS
  1
DICTIONARYVAR
  2
AcDbDictionaryVar
  3
ObjectDBX Classes
 90
        0
280
     0
281
     0
  0
CLASS
  1
ACDBPLACEHOLDER
  2
AcDbPlaceHolder
  3
ObjectDBX Classes
 90
        0
280
     0
281
     0
  0
CLASS
  1
LAYOUT
  2
AcDbLayout
  3
ObjectDBX Classes
 90
        0
280
     0
281
     0
  0
ENDSEC
  0
SECTION
  2
TABLES
  0
TABLE
  2
VPORT
  5
8
330
0
100
AcDbSymbolTable
 70
     1
  0
VPORT
  5
29
330
8
100
AcDbSymbolTableRecord
100
AcDbViewportTableRecord
  2
*Active
 70
     0
 10
0.0
 20
0.0
 11
1.0
 21
1.0
 12
27.874398522468
 22
-59.7902408055394
 13
0.0
 23
0.0
 14
0.5
 24
0.5
 15
0.5
 25
0.5
 16
0.0
 26
0.0
 36
1.0
 17
0.0
 27
0.0
 37
0.0
 40
673.1604533084333
 41
1.60267857142857
 42
50.0
 43
0.0
 44
0.0
 50
0.0
 51
0.0
 71
     0
 72
   100
 73
     1
 74
     3
 75
     0
 76
     0
 77
     0
 78
     0
281
     0
 65
     1
110
0.0
120
0.0
130
0.0
111
1.0
121
0.0
131
0.0
112
0.0
122
1.0
132
0.0
 79
     0
146
0.0
  0
ENDTAB
  0
TABLE
  2
LTYPE
  5
5
330
0
100
AcDbSymbolTable
 70
     9
  0
LTYPE
  5
14
330
5
100
AcDbSymbolTableRecord
100
AcDbLinetypeTableRecord
  2
ByBlock
 70
     0
  3

 72
    65
 73
     0
 40
0.0
  0
LTYPE
  5
15
330
5
100
AcDbSymbolTableRecord
100
AcDbLinetypeTableRecord
  2
ByLayer
 70
     0
  3

 72
    65
 73
     0
 40
0.0
  0
LTYPE
  5
16
330
5
100
AcDbSymbolTableRecord
100
AcDbLinetypeTableRecord
  2
Continuous
 70
     0
  3
Solid line
 72
    65
 73
     0
 40
0.0
  0
LTYPE
  5
3F
330
5
100
AcDbSymbolTableRecord
100
AcDbLinetypeTableRecord
  2
DASHED
 70
     0
  3
Dashed
 72
    65
 73
     2
 40
15.0
 49
7.0
 74
     0
 49
-8.0
 74
     0
  0
LTYPE
  5
40
330
5
100
AcDbSymbolTableRecord
100
AcDbLinetypeTableRecord
  2
DOTTED
 70
     0
  3
Dotted
 72
    65
 73
     2
 40
1.0
 49
0.0
 74
     0
 49
-1.0
 74
     0
  0
LTYPE
  5
41
330
5
100
AcDbSymbolTableRecord
100
AcDbLinetypeTableRecord
  2
DOT_CENTER
 70
     0
  3
Dot_Center
 72
    65
 73
     4
 40
14.0
 49
12.0
 74
     0
 49
-1.0
 74
     0
 49
0.0
 74
     0
 49
-1.0
 74
     0
  0
LTYPE
  5
42
330
5
100
AcDbSymbolTableRecord
100
AcDbLinetypeTableRecord
  2
LONG_DASHED
 70
     0
  3
Long_Dashed
 72
    65
 73
     2
 40
15.0
 49
10.0
 74
     0
 49
-5.0
 74
     0
  0
LTYPE
  5
43
330
5
100
AcDbSymbolTableRecord
100
AcDbLinetypeTableRecord
  2
DASH_CENTER
 70
     0
  3
Dash_Center
 72
    65
 73
     4
 40
14.0
 49
11.0
 74
     0
 49
-1.0
 74
     0
 49
1.0
 74
     0
 49
-1.0
 74
     0
  0
LTYPE
  5
44
330
5
100
AcDbSymbolTableRecord
100
AcDbLinetypeTableRecord
  2
PHANTOM
 70
     0
  3
Phantom
 72
    65
 73
     6
 40
13.0
 49
10.0
 74
     0
 49
-1.0
 74
     0
 49
0.0
 74
     0
 49
-1.0
 74
     0
 49
0.0
 74
     0
 49
-1.0
 74
     0
  0
LTYPE
  5
45
330
5
100
AcDbSymbolTableRecord
100
AcDbLinetypeTableRecord
  2
CENTER_DASH_DASH
 70
     0
  3
Center_Dash_Dash
 72
    65
 73
     6
 40
14.0
 49
9.0
 74
     0
 49
-1.0
 74
     0
 49
1.0
 74
     0
 49
-1.0
 74
     0
 49
1.0
 74
     0
 49
-1.0
 74
     0
  0
LTYPE
  5
46
330
5
100
AcDbSymbolTableRecord
100
AcDbLinetypeTableRecord
  2
DASHDOT
 70
     0
  3
DASHDOT
 72
    65
 73
     4
 40
16.0
 49
10.0
 74
     0
 49
-3.0
 74
     0
 49
0.0
 74
     0
 49
-3.0
 74
     0
  0
ENDTAB
  0
TABLE
  2
LAYER
  5
2
330
0
100
AcDbSymbolTable
 70
     6
  0
LAYER
  5
10
330
2
100
AcDbSymbolTableRecord
100
AcDbLayerTableRecord
  2
0
 70
     0
 62
     7
  6
Continuous
370
    -3
390
F
  0
LAYER
  5
47
330
2
100
AcDbSymbolTableRecord
100
AcDbLayerTableRecord
  2
1
 70
     0
 62
     7
  6
Continuous
370
    -3
390
F
  0
LAYER
  5
48
330
2
100
AcDbSymbolTableRecord
100
AcDbLayerTableRecord
  2
LC-001-002-RND-0
 70
     0
 62
     7
  6
Continuous
370
    -3
390
F
  0
LAYER
  5
49
330
2
100
AcDbSymbolTableRecord
100
AcDbLayerTableRecord
  2
LC-002-002-----0
 70
     0
 62
     7
  6
Continuous
370
    -3
390
F
  0
LAYER
  5
4A
330
2
100
AcDbSymbolTableRecord
100
AcDbLayerTableRecord
  2
LC-006-002-___-0
 70
     0
 62
     7
  6
Continuous
370
    -3
390
F
  0
LAYER
  5
4B
330
2
100
AcDbSymbolTableRecord
100
AcDbLayerTableRecord
  2
LC-008-001-----0
 70
     0
 62
     7
  6
Continuous
370
    -3
390
F
  0
ENDTAB
  0
TABLE
  2
STYLE
  5
3
330
0
100
AcDbSymbolTable
 70
     2
  0
STYLE
  5
11
330
3
100
AcDbSymbolTableRecord
100
AcDbTextStyleTableRecord
  2
Standard
 70
     0
 40
0.0
 41
1.0
 50
0.0
 71
     0
 42
0.2
  3
txt
  4

  0
STYLE
  5
48C
330
3
100
AcDbSymbolTableRecord
100
AcDbTextStyleTableRecord
  2
CONVERTER_11
 70
     0
 40
0.0
 41
0.9
 50
0.0
 71
     0
 42
0.2
  3
txt.shx
  4

  0
ENDTAB
  0
TABLE
  2
VIEW
  5
6
330
0
100
AcDbSymbolTable
 70
     0
  0
ENDTAB
  0
TABLE
  2
UCS
  5
7
330
0
100
AcDbSymbolTable
 70
     0
  0
ENDTAB
  0
TABLE
  2
APPID
  5
9
330
0
100
AcDbSymbolTable
 70
     1
  0
APPID
  5
12
330
9
100
AcDbSymbolTableRecord
100
AcDbRegAppTableRecord
  2
ACAD
 70
     0
  0
ENDTAB
  0
TABLE
  2
DIMSTYLE
  5
A
330
0
100
AcDbSymbolTable
 70
    15
100
AcDbDimStyleTable
  0
DIMSTYLE
105
27
330
A
100
AcDbSymbolTableRecord
100
AcDbDimStyleTableRecord
  2
Standard
 70
     0
178
     0
340
11
  0
DIMSTYLE
105
490
102
{ACAD_REACTORS
330
491
102
}
330
A
100
AcDbSymbolTableRecord
100
AcDbDimStyleTableRecord
  2
ME10_DIM_10
 70
     0
  3
DN<>
 41
10.0
 42
0.0
 44
2.0
 73
     0
 74
     0
 77
     1
 78
     8
140
10.0
147
2.0
172
     1
173
     1
174
     1
175
     1
176
     4
177
     4
271
     2
178
     1
271
     2
340
48C
  0
DIMSTYLE
105
49B
102
{ACAD_REACTORS
330
49C
102
}
330
A
100
AcDbSymbolTableRecord
100
AcDbDimStyleTableRecord
  2
ME10_DIM_11
 70
     0
  3
DN<>
 41
10.0
 42
0.0
 44
2.0
 73
     0
 74
     0
 77
     1
 78
     8
140
10.0
147
2.0
172
     1
173
     1
174
     1
175
     1
176
     4
177
     4
271
     2
178
     1
271
     2
340
48C
  0
DIMSTYLE
105
4A6
102
{ACAD_REACTORS
330
4A7
102
}
330
A
100
AcDbSymbolTableRecord
100
AcDbDimStyleTableRecord
  2
ME10_DIM_12
 70
     0
  3
75-<>
 41
10.0
 42
0.0
 44
2.0
 73
     0
 74
     0
 77
     1
 78
     8
140
10.0
147
2.0
172
     1
173
     1
174
     1
175
     1
176
     4
177
     4
271
     2
178
     1
271
     2
340
48C
  0
DIMSTYLE
105
4B1
102
{ACAD_REACTORS
330
4B2
102
}
330
A
100
AcDbSymbolTableRecord
100
AcDbDimStyleTableRecord
  2
ME10_DIM_13
 70
     0
 41
10.0
 42
0.0
 44
2.0
 73
     0
 74
     0
 77
     1
 78
     8
140
10.0
147
2.0
172
     1
173
     1
174
     1
175
     1
176
     4
177
     4
271
     2
178
     1
271
     2
340
48C
  0
DIMSTYLE
105
4BC
102
{ACAD_REACTORS
330
4BD
102
}
330
A
100
AcDbSymbolTableRecord
100
AcDbDimStyleTableRecord
  2
ME10_DIM_14
 70
     0
 41
10.0
 42
0.0
 44
2.0
 73
     0
 74
     0
 77
     1
 78
     8
140
10.0
147
2.0
172
     1
173
     1
174
     1
175
     1
176
     4
177
     4
271
     2
178
     1
271
     2
340
48C
  0
DIMSTYLE
105
4C7
102
{ACAD_REACTORS
330
4C8
102
}
330
A
100
AcDbSymbolTableRecord
100
AcDbDimStyleTableRecord
  2
ME10_DIM_15
 70
     0
 41
10.0
 42
0.0
 44
2.0
 73
     0
 74
     0
 77
     1
 78
     8
140
10.0
147
2.0
172
     1
173
     1
174
     1
175
     1
176
     4
177
     4
271
     2
178
     1
271
     2
340
48C
  0
DIMSTYLE
105
4D2
102
{ACAD_REACTORS
330
4D3
102
}
330
A
100
AcDbSymbolTableRecord
100
AcDbDimStyleTableRecord
  2
ME10_DIM_16
 70
     0
 41
10.0
 42
0.0
 44
2.0
 73
     0
 74
     0
 77
     1
 78
     8
140
10.0
147
2.0
172
     1
173
     1
174
     1
175
     1
176
     4
177
     4
271
     2
178
     1
271
     2
340
48C
  0
DIMSTYLE
105
4DD
102
{ACAD_REACTORS
330
4DE
102
}
330
A
100
AcDbSymbolTableRecord
100
AcDbDimStyleTableRecord
  2
ME10_DIM_17
 70
     0
 41
10.0
 42
0.0
 44
2.0
 73
     0
 74
     0
 77
     1
 78
     8
140
10.0
147
2.0
172
     1
173
     1
174
     1
175
     1
176
     4
177
     4
271
     2
178
     1
271
     2
340
48C
  0
DIMSTYLE
105
4E9
102
{ACAD_REACTORS
330
4EA
102
}
330
A
100
AcDbSymbolTableRecord
100
AcDbDimStyleTableRecord
  2
ME10_DIM_18
 70
     0
 41
10.0
 42
0.0
 44
2.0
 73
     0
 74
     0
 77
     1
 78
     8
140
10.0
147
2.0
172
     1
173
     1
174
     1
175
     1
176
     4
177
     4
271
     2
178
     1
271
     2
340
48C
  0
DIMSTYLE
105
4F4
102
{ACAD_REACTORS
330
4F5
102
}
330
A
100
AcDbSymbolTableRecord
100
AcDbDimStyleTableRecord
  2
ME10_DIM_19
 70
     0
 41
10.0
 42
0.0
 44
2.0
 73
     0
 74
     0
 77
     1
 78
     8
140
10.0
147
2.0
172
     1
173
     1
174
     1
175
     1
176
     4
177
     4
271
     2
178
     1
271
     2
340
48C
  0
DIMSTYLE
105
4FF
102
{ACAD_REACTORS
330
500
102
}
330
A
100
AcDbSymbolTableRecord
100
AcDbDimStyleTableRecord
  2
ME10_DIM_20
 70
     0
 41
10.0
 42
0.0
 44
2.0
 73
     0
 74
     0
 77
     1
 78
     8
140
10.0
147
2.0
172
     1
173
     1
174
     1
175
     1
176
     4
177
     4
271
     1
178
     1
271
     1
340
48C
  0
DIMSTYLE
105
50A
102
{ACAD_REACTORS
330
50B
102
}
330
A
100
AcDbSymbolTableRecord
100
AcDbDimStyleTableRecord
  2
ME10_DIM_21
 70
     0
 41
10.0
 42
0.0
 44
2.0
 73
     0
 74
     0
 77
     1
 78
     8
140
10.0
147
2.0
172
     1
173
     1
174
     1
175
     1
176
     4
177
     4
271
     2
178
     1
271
     2
340
48C
  0
DIMSTYLE
105
516
102
{ACAD_REACTORS
330
517
102
}
330
A
100
AcDbSymbolTableRecord
100
AcDbDimStyleTableRecord
  2
ME10_DIM_22
 70
     0
 41
10.0
 42
0.0
 44
2.0
 73
     0
 74
     0
 77
     1
 78
     8
140
10.0
147
2.0
172
     1
173
     1
174
     1
175
     1
176
     4
177
     4
271
     2
178
     1
271
     2
340
48C
  0
DIMSTYLE
105
523
102
{ACAD_REACTORS
330
524
102
}
330
A
100
AcDbSymbolTableRecord
100
AcDbDimStyleTableRecord
  2
ME10_DIM_23
 70
     0
 41
10.0
 42
0.0
 44
2.0
 73
     0
 74
     0
 77
     1
 78
     8
140
10.0
147
2.0
172
     1
173
     1
174
     1
175
     1
176
     4
177
     4
271
     2
178
     1
271
     2
340
48C
  0
ENDTAB
  0
TABLE
  2
BLOCK_RECORD
  5
1
330
0
100
AcDbSymbolTable
 70
    25
  0
BLOCK_RECORD
  5
1F
330
1
100
AcDbSymbolTableRecord
100
AcDbBlockTableRecord
  2
*Model_Space
340
22
  0
BLOCK_RECORD
  5
1B
330
1
100
AcDbSymbolTableRecord
100
AcDbBlockTableRecord
  2
*Paper_Space
340
1E
  0
BLOCK_RECORD
  5
23
330
1
100
AcDbSymbolTableRecord
100
AcDbBlockTableRecord
  2
*Paper_Space0
340
26
  0
BLOCK_RECORD
  5
4C
330
1
100
AcDbSymbolTableRecord
100
AcDbBlockTableRecord
  2
HL19_ABS_10003_ABS__1
340
0
102
{BLKREFS
331
50
102
}
  0
BLOCK_RECORD
  5
4F
330
1
100
AcDbSymbolTableRecord
100
AcDbBlockTableRecord
  2
Katalog-HL19ABSC__2
340
0
102
{BLKREFS
331
57
102
}
  0
BLOCK_RECORD
  5
53
330
1
100
AcDbSymbolTableRecord
100
AcDbBlockTableRecord
  2
HL_406_2_Waschgeräte_Sifon__3
340
0
102
{BLKREFS
331
58
102
}
  0
BLOCK_RECORD
  5
56
330
1
100
AcDbSymbolTableRecord
100
AcDbBlockTableRecord
  2
HL_406_2_Waschgeräte_Sifon__4
340
0
102
{BLKREFS
331
70
102
}
  0
BLOCK_RECORD
  5
5B
330
1
100
AcDbSymbolTableRecord
100
AcDbBlockTableRecord
  2
Dichtstopfen__5
340
0
102
{BLKREFS
331
65
102
}
  0
BLOCK_RECORD
  5
5E
330
1
100
AcDbSymbolTableRecord
100
AcDbBlockTableRecord
  2
HL19_ABS_10003_ABS__6
340
0
102
{BLKREFS
331
66
102
}
  0
BLOCK_RECORD
  5
61
330
1
100
AcDbSymbolTableRecord
100
AcDbBlockTableRecord
  2
Holländermutter_1__7
340
0
102
{BLKREFS
331
67
102
}
  0
BLOCK_RECORD
  5
64
330
1
100
AcDbSymbolTableRecord
100
AcDbBlockTableRecord
  2
Katalog-HL19ABSC__8
340
0
102
{BLKREFS
331
71
102
}
  0
BLOCK_RECORD
  5
6A
330
1
100
AcDbSymbolTableRecord
100
AcDbBlockTableRecord
  2
Holländermutter_1__9
340
0
102
{BLKREFS
331
72
102
}
  0
BLOCK_RECORD
  5
6D
330
1
100
AcDbSymbolTableRecord
100
AcDbBlockTableRecord
  2
Dichtstopfen__10
340
0
102
{BLKREFS
331
73
102
}
  0
BLOCK_RECORD
  5
485
330
1
100
AcDbSymbolTableRecord
100
AcDbBlockTableRecord
  2
*D11
340
0
  0
BLOCK_RECORD
  5
492
330
1
100
AcDbSymbolTableRecord
100
AcDbBlockTableRecord
  2
*D12
340
0
  0
BLOCK_RECORD
  5
49D
330
1
100
AcDbSymbolTableRecord
100
AcDbBlockTableRecord
  2
*D13
340
0
  0
BLOCK_RECORD
  5
4A8
330
1
100
AcDbSymbolTableRecord
100
AcDbBlockTableRecord
  2
*D14
340
0
  0
BLOCK_RECORD
  5
4B3
330
1
100
AcDbSymbolTableRecord
100
AcDbBlockTableRecord
  2
*D15
340
0
  0
BLOCK_RECORD
  5
4BE
330
1
100
AcDbSymbolTableRecord
100
AcDbBlockTableRecord
  2
*D16
340
0
  0
BLOCK_RECORD
  5
4C9
330
1
100
AcDbSymbolTableRecord
100
AcDbBlockTableRecord
  2
*D17
340
0
  0
BLOCK_RECORD
  5
4D4
330
1
100
AcDbSymbolTableRecord
100
AcDbBlockTableRecord
  2
*D18
340
0
  0
BLOCK_RECORD
  5
4DF
330
1
100
AcDbSymbolTableRecord
100
AcDbBlockTableRecord
  2
*D19
340
0
  0
BLOCK_RECORD
  5
4EB
330
1
100
AcDbSymbolTableRecord
100
AcDbBlockTableRecord
  2
*D20
340
0
  0
BLOCK_RECORD
  5
4F6
330
1
100
AcDbSymbolTableRecord
100
AcDbBlockTableRecord
  2
*D21
340
0
  0
BLOCK_RECORD
  5
501
330
1
100
AcDbSymbolTableRecord
100
AcDbBlockTableRecord
  2
*D22
340
0
  0
BLOCK_RECORD
  5
50C
330
1
100
AcDbSymbolTableRecord
100
AcDbBlockTableRecord
  2
*D23
340
0
  0
BLOCK_RECORD
  5
518
330
1
100
AcDbSymbolTableRecord
100
AcDbBlockTableRecord
  2
*D24
340
0
  0
ENDTAB
  0
ENDSEC
  0
SECTION
  2
BLOCKS
  0
BLOCK
  5
20
330
1F
100
AcDbEntity
  8
0
100
AcDbBlockBegin
  2
*Model_Space
 70
     0
 10
0.0
 20
0.0
 30
0.0
  3
*Model_Space
  1

  0
ENDBLK
  5
21
330
1F
100
AcDbEntity
  8
0
100
AcDbBlockEnd
  0
BLOCK
  5
1C
330
1B
100
AcDbEntity
 67
     1
  8
0
100
AcDbBlockBegin
  2
*Paper_Space
 70
     0
 10
0.0
 20
0.0
 30
0.0
  3
*Paper_Space
  1

  0
ENDBLK
  5
1D
330
1B
100
AcDbEntity
 67
     1
  8
0
100
AcDbBlockEnd
  0
BLOCK
  5
24
330
23
100
AcDbEntity
  8
0
100
AcDbBlockBegin
  2
*Paper_Space0
 70
     0
 10
0.0
 20
0.0
 30
0.0
  3
*Paper_Space0
  1

  0
ENDBLK
  5
25
330
23
100
AcDbEntity
  8
0
100
AcDbBlockEnd
  0
BLOCK
  5
4D
330
4C
100
AcDbEntity
  8
0
100
AcDbBlockBegin
  2
HL19_ABS_10003_ABS__1
 70
     0
 10
-428.5668251208929
 20
-24.40803859687901
 30
0.0
  3
HL19_ABS_10003_ABS__1
  1

  0
LINE
  5
74
330
4C
100
AcDbEntity
  8
1
  6
DOT_CENTER
 62
     2
100
AcDbLine
 10
-434.0021492407776
 20
-24.358038596879
 30
0.0
 11
-434.0021492407777
 21
-58.15803859687901
 31
0.0
  0
LINE
  5
75
330
4C
100
AcDbEntity
  8
1
  6
DOT_CENTER
 62
     2
100
AcDbLine
 10
-434.0021492407775
 20
-23.858038596879
 30
0.0
 11
-434.0021492407775
 21
-9.65803859687901
 31
0.0
  0
LINE
  5
76
330
4C
100
AcDbEntity
  8
1
  6
DOT_CENTER
 62
     2
100
AcDbLine
 10
-411.3815010010081
 20
-0.15803859687901
 30
0.0
 11
-424.5021492407775
 21
-0.15803859687901
 31
0.0
  0
LINE
  5
77
330
4C
100
AcDbEntity
  8
0
  6
Continuous
 62
     7
100
AcDbLine
 10
-424.2521492407776
 20
-44.858038596879
 30
0.0
 11
-425.2521492407776
 21
-51.358038596879
 31
0.0
  0
LINE
  5
78
330
4C
100
AcDbEntity
  8
0
  6
Continuous
 62
     7
100
AcDbLine
 10
-423.7521492407776
 20
-37.858038596879
 30
0.0
 11
-425.0021492407776
 21
-44.858038596879
 31
0.0
  0
LINE
  5
79
330
4C
100
AcDbEntity
  8
0
  6
Continuous
 62
     7
100
AcDbLine
 10
-411.3815010010081
 20
-9.65803859687901
 30
0.0
 11
-424.5021492407775
 21
-9.65803859687901
 31
0.0
  0
LINE
  5
7A
330
4C
100
AcDbEntity
  8
0
  6
Continuous
 62
     7
100
AcDbLine
 10
-411.3815010010081
 20
9.34196140312099
 30
0.0
 11
-424.5021492407775
 21
9.34196140312099
 31
0.0
  0
LINE
  5
7B
330
4C
100
AcDbEntity
  8
0
  6
Continuous
 62
     3
100
AcDbLine
 10
-424.5021492407775
 20
-9.65803859687901
 30
0.0
 11
-424.5021492407775
 21
9.2551160330776
 31
0.0
  0
LINE
  5
7C
330
4C
100
AcDbEntity
  8
0
  6
Continuous
 62
     7
100
AcDbLine
 10
-424.0021492407775
 20
-24.358038596879
 30
0.0
 11
-422.2521492407776
 21
-24.358038596879
 31
0.0
  0
LINE
  5
7D
330
4C
100
AcDbEntity
  8
0
  6
Continuous
 62
     7
100
AcDbLine
 10
-445.7521492407776
 20
-24.358038596879
 30
0.0
 11
-443.5021492407776
 21
-31.358038596879
 31
0.0
  0
LINE
  5
7E
330
4C
100
AcDbEntity
  8
0
  6
Continuous
 62
     3
100
AcDbLine
 10
-424.5021492407775
 20
-9.65803859687901
 30
0.0
 11
-443.4153038707341
 21
-9.65803859687901
 31
0.0
  0
LINE
  5
7F
330
4C
100
AcDbEntity
  8
0
  6
Continuous
 62
     7
100
AcDbLine
 10
-444.0021492407775
 20
-24.358038596879
 30
0.0
 11
-424.0021492407775
 21
-24.358038596879
 31
0.0
  0
LINE
  5
80
330
4C
100
AcDbEntity
  8
0
  6
Continuous
 62
     7
100
AcDbLine
 10
-445.7521492407776
 20
-24.358038596879
 30
0.0
 11
-444.0021492407775
 21
-24.358038596879
 31
0.0
  0
LINE
  5
81
330
4C
100
AcDbEntity
  8
0
  6
Continuous
 62
     7
100
AcDbLine
 10
-443.4153038707341
 20
-9.65803859687901
 30
0.0
 11
-443.5021492407775
 21
-9.65803859687901
 31
0.0
  0
LINE
  5
82
330
4C
100
AcDbEntity
  8
0
  6
Continuous
 62
     3
100
AcDbLine
 10
-443.0021492407775
 20
-5.8850028332941
 30
0.0
 11
-443.0021492407775
 21
-5.15803859687901
 31
0.0
  0
LINE
  5
83
330
4C
100
AcDbEntity
  8
0
  6
Continuous
 62
     3
100
AcDbLine
 10
-428.2751850043623
 20
8.84196140312099
 30
0.0
 11
-429.0021492407775
 21
8.84196140312099
 31
0.0
  0
LINE
  5
84
330
4C
100
AcDbEntity
  8
0
  6
Continuous
 62
     3
100
AcDbLine
 10
-429.0021492407775
 20
9.34196140312099
 30
0.0
 11
-429.0021492407775
 21
8.84196140312099
 31
0.0
  0
LINE
  5
85
330
4C
100
AcDbEntity
  8
0
  6
Continuous
 62
     3
100
AcDbLine
 10
-443.5021492407775
 20
-5.15803859687901
 30
0.0
 11
-443.0021492407775
 21
-5.15803859687901
 31
0.0
  0
LINE
  5
86
330
4C
100
AcDbEntity
  8
0
  6
Continuous
 62
     7
100
AcDbLine
 10
-424.5021492407775
 20
9.34196140312099
 30
0.0
 11
-429.0021492407775
 21
9.34196140312099
 31
0.0
  0
LINE
  5
87
330
4C
100
AcDbEntity
  8
0
  6
Continuous
 62
     7
100
AcDbLine
 10
-424.5021492407775
 20
9.34196140312099
 30
0.0
 11
-424.5021492407775
 21
9.2551160330776
 31
0.0
  0
LINE
  5
88
330
4C
100
AcDbEntity
  8
0
  6
Continuous
 62
     7
100
AcDbLine
 10
-425.0021492407776
 20
-51.358038596879
 30
0.0
 11
-425.487863526492
 21
-58.15803859687901
 31
0.0
  0
LINE
  5
89
330
4C
100
AcDbEntity
  8
0
  6
Continuous
 62
     7
100
AcDbLine
 10
-443.7521492407776
 20
-44.858038596879
 30
0.0
 11
-442.7521492407776
 21
-51.358038596879
 31
0.0
  0
LINE
  5
8A
330
4C
100
AcDbEntity
  8
0
  6
Continuous
 62
     7
100
AcDbLine
 10
-422.2521492407776
 20
-24.358038596879
 30
0.0
 11
-424.5021492407776
 21
-31.358038596879
 31
0.0
  0
LINE
  5
8B
330
4C
100
AcDbEntity
  8
0
  6
Continuous
 62
     7
100
AcDbLine
 10
-445.0021492407776
 20
-31.358038596879
 30
0.0
 11
-443.2521492407776
 21
-37.858038596879
 31
0.0
  0
LINE
  5
8C
330
4C
100
AcDbEntity
  8
0
  6
Continuous
 62
     7
100
AcDbLine
 10
-443.5021492407775
 20
-23.858038596879
 30
0.0
 11
-443.5021492407775
 21
-9.65803859687901
 31
0.0
  0
LINE
  5
8D
330
4C
100
AcDbEntity
  8
0
  6
Continuous
 62
     3
100
AcDbLine
 10
-443.5021492407775
 20
-23.858038596879
 30
0.0
 11
-424.5021492407775
 21
-23.858038596879
 31
0.0
  0
LINE
  5
8E
330
4C
100
AcDbEntity
  8
0
  6
Continuous
 62
     7
100
AcDbLine
 10
-424.5021492407775
 20
-23.858038596879
 30
0.0
 11
-424.5021492407775
 21
-9.65803859687901
 31
0.0
  0
LINE
  5
8F
330
4C
100
AcDbEntity
  8
0
  6
Continuous
 62
     7
100
AcDbLine
 10
-424.5021492407776
 20
-31.358038596879
 30
0.0
 11
-423.0021492407776
 21
-31.358038596879
 31
0.0
  0
LINE
  5
90
330
4C
100
AcDbEntity
  8
0
  6
Continuous
 62
     7
100
AcDbLine
 10
-443.5021492407776
 20
-31.358038596879
 30
0.0
 11
-424.5021492407776
 21
-31.358038596879
 31
0.0
  0
LINE
  5
91
330
4C
100
AcDbEntity
  8
0
  6
Continuous
 62
     7
100
AcDbLine
 10
-445.0021492407776
 20
-31.358038596879
 30
0.0
 11
-443.5021492407776
 21
-31.358038596879
 31
0.0
  0
LINE
  5
92
330
4C
100
AcDbEntity
  8
0
  6
Continuous
 62
     7
100
AcDbLine
 10
-444.2521492407776
 20
-37.858038596879
 30
0.0
 11
-443.0021492407776
 21
-44.858038596879
 31
0.0
  0
LINE
  5
93
330
4C
100
AcDbEntity
  8
0
  6
Continuous
 62
     7
100
AcDbLine
 10
-443.2521492407776
 20
-37.858038596879
 30
0.0
 11
-424.7521492407776
 21
-37.858038596879
 31
0.0
  0
LINE
  5
94
330
4C
100
AcDbEntity
  8
0
  6
Continuous
 62
     7
100
AcDbLine
 10
-444.2521492407776
 20
-37.858038596879
 30
0.0
 11
-443.2521492407776
 21
-37.858038596879
 31
0.0
  0
LINE
  5
95
330
4C
100
AcDbEntity
  8
0
  6
Continuous
 62
     7
100
AcDbLine
 10
-423.0021492407776
 20
-31.358038596879
 30
0.0
 11
-424.7521492407776
 21
-37.858038596879
 31
0.0
  0
LINE
  5
96
330
4C
100
AcDbEntity
  8
0
  6
Continuous
 62
     7
100
AcDbLine
 10
-424.7521492407776
 20
-37.858038596879
 30
0.0
 11
-423.7521492407776
 21
-37.858038596879
 31
0.0
  0
LINE
  5
97
330
4C
100
AcDbEntity
  8
0
  6
Continuous
 62
     7
100
AcDbLine
 10
-425.0021492407776
 20
-44.858038596879
 30
0.0
 11
-424.2521492407776
 21
-44.858038596879
 31
0.0
  0
LINE
  5
98
330
4C
100
AcDbEntity
  8
0
  6
Continuous
 62
     7
100
AcDbLine
 10
-443.0021492407776
 20
-44.858038596879
 30
0.0
 11
-425.0021492407776
 21
-44.858038596879
 31
0.0
  0
LINE
  5
99
330
4C
100
AcDbEntity
  8
0
  6
Continuous
 62
     7
100
AcDbLine
 10
-443.7521492407776
 20
-44.858038596879
 30
0.0
 11
-443.0021492407776
 21
-44.858038596879
 31
0.0
  0
LINE
  5
9A
330
4C
100
AcDbEntity
  8
0
  6
Continuous
 62
     7
100
AcDbLine
 10
-441.5021492407776
 20
-58.15803859687901
 30
0.0
 11
-426.5021492407776
 21
-58.15803859687901
 31
0.0
  0
LINE
  5
9B
330
4C
100
AcDbEntity
  8
0
  6
Continuous
 62
     7
100
AcDbLine
 10
-442.5164349550634
 20
-58.15803859687901
 30
0.0
 11
-441.5021492407776
 21
-58.15803859687901
 31
0.0
  0
LINE
  5
9C
330
4C
100
AcDbEntity
  8
0
  6
Continuous
 62
     7
100
AcDbLine
 10
-426.5021492407776
 20
-58.15803859687901
 30
0.0
 11
-425.487863526492
 21
-58.15803859687901
 31
0.0
  0
LINE
  5
9D
330
4C
100
AcDbEntity
  8
0
  6
Continuous
 62
     7
100
AcDbLine
 10
-442.7521492407776
 20
-51.358038596879
 30
0.0
 11
-425.2521492407776
 21
-51.358038596879
 31
0.0
  0
LINE
  5
9E
330
4C
100
AcDbEntity
  8
0
  6
Continuous
 62
     7
100
AcDbLine
 10
-443.0021492407776
 20
-51.358038596879
 30
0.0
 11
-442.7521492407776
 21
-51.358038596879
 31
0.0
  0
LINE
  5
9F
330
4C
100
AcDbEntity
  8
0
  6
Continuous
 62
     7
100
AcDbLine
 10
-425.2521492407776
 20
-51.358038596879
 30
0.0
 11
-425.0021492407776
 21
-51.358038596879
 31
0.0
  0
LINE
  5
A0
330
4C
100
AcDbEntity
  8
0
  6
Continuous
 62
     7
100
AcDbLine
 10
-443.0021492407776
 20
-51.358038596879
 30
0.0
 11
-442.5164349550634
 21
-58.15803859687901
 31
0.0
  0
LINE
  5
A1
330
4C
100
AcDbEntity
  8
0
  6
Continuous
 62
     7
100
AcDbLine
 10
-443.5021492407775
 20
-9.65803859687901
 30
0.0
 11
-443.5021492407775
 21
-5.15803859687901
 31
0.0
  0
ARC
  5
A2
330
4C
100
AcDbEntity
  8
0
  6
Continuous
 62
     7
100
AcDbCircle
 10
-424.5021492407775
 20
-9.65803859687901
 30
0.0
 40
18.88083151964685
100
AcDbArc
 50
101.5272633654949
 51
168.4727366345048
  0
ARC
  5
A3
330
4C
100
AcDbEntity
  8
0
  6
Continuous
 62
     7
100
AcDbCircle
 10
-424.0021492407775
 20
-23.858038596879
 30
0.0
 40
0.5
100
AcDbArc
 50
180.0
 51
270.0
  0
ARC
  5
A4
330
4C
100
AcDbEntity
  8
0
  6
Continuous
 62
     7
100
AcDbCircle
 10
-444.0021492407775
 20
-23.858038596879
 30
0.0
 40
0.5
100
AcDbArc
 50
270.0
 51
0.0
  0
ARC
  5
A5
330
4C
100
AcDbEntity
  8
0
  6
Continuous
 62
     7
100
AcDbCircle
 10
-429.0021492407775
 20
-5.15803859687901
 30
0.0
 40
14.5
100
AcDbArc
 50
90.0
 51
180.0
  0
ARC
  5
A6
330
4C
100
AcDbEntity
  8
0
  6
Continuous
 62
     3
100
AcDbCircle
 10
-429.0021492407775
 20
-5.15803859687901
 30
0.0
 40
14.0
100
AcDbArc
 50
90.0
 51
180.0
  0
SPLINE
  5
A7
330
4C
100
AcDbEntity
  8
0
  6
Continuous
 62
     7
100
AcDbSpline
210
0.0
220
0.0
230
1.0
 70
     8
 71
     3
 72
    15
 73
    11
 74
     9
 42
0.000000001
 43
0.0000000001
 44
0.00000001
 40
0.0
 40
0.0
 40
0.0
 40
0.0
 40
0.4439488647976498
 40
0.9511273298791645
 40
1.3979620453146
 40
1.90001147174334
 40
2.391246916737726
 40
2.849526182425776
 40
3.33814342601729
 40
3.801863316338682
 40
3.801863316338682
 40
3.801863316338682
 40
3.801863316338682
 10
-443.4153038707341
 20
-9.65803859687901
 30
0.0
 10
-443.4140327482769
 20
-9.510050956630623
 30
0.0
 10
-443.4113094478738
 20
-9.192998475622224
 30
0.0
 10
-443.3893298222615
 20
-8.727410073549555
 30
0.0
 10
-443.3537789103601
 20
-8.243324927012921
 30
0.0
 10
-443.3057193691733
 20
-7.765631304527689
 30
0.0
 10
-443.2449857696758
 20
-7.285552835501202
 30
0.0
 10
-443.1735745850635
 20
-6.811493004262514
 30
0.0
 10
-443.0939761373831
 20
-6.348018658110252
 30
0.0
 10
-443.0322200391151
 20
-6.036627833212687
 30
0.0
 10
-443.0021492407775
 20
-5.885002833294095
 30
0.0
 11
-443.4153038707341
 21
-9.65803859687901
 31
0.0
 11
-443.4088258043646
 21
-9.214136997966305
 31
0.0
 11
-443.3860371374339
 21
-8.707470764016705
 31
0.0
 11
-443.353242510756
 21
-8.261841124374666
 31
0.0
 11
-443.3032096259754
 21
-7.762290989377902
 31
0.0
 11
-443.2416206600594
 21
-7.274931715401722
 31
0.0
 11
-443.1735788893254
 21
-6.821731756331899
 31
0.0
 11
-443.090460690414
 21
-6.340235987132263
 31
0.0
 11
-443.0021492407775
 21
-5.885002833294095
 31
0.0
  0
SPLINE
  5
A8
330
4C
100
AcDbEntity
  8
0
  6
Continuous
 62
     7
100
AcDbSpline
210
0.0
220
0.0
230
1.0
 70
     8
 71
     3
 72
    15
 73
    11
 74
     9
 42
0.000000001
 43
0.0000000001
 44
0.00000001
 40
0.0
 40
0.0
 40
0.0
 40
0.0
 40
0.4630613827634555
 40
0.9509492982054779
 40
1.409363257319795
 40
1.900728412138587
 40
2.37897308986014
 40
2.849384513720528
 40
3.357347376122289
 40
3.801863350846774
 40
3.801863350846774
 40
3.801863350846774
 40
3.801863350846774
 10
-428.2751850043623
 20
8.84196140312099
 30
0.0
 10
-428.123775567664
 20
8.871990658227567
 30
0.0
 10
-427.8128390390652
 20
8.9336591396741
 30
0.0
 10
-427.3497803133509
 20
9.013208749470724
 30
0.0
 10
-426.8758784368834
 20
9.084626659483956
 30
0.0
 10
-426.4035881639081
 20
9.144403778892658
 30
0.0
 10
-425.9259670524907
 20
9.192780793548998
 30
0.0
 10
-425.4417179264919
 20
9.228713225770207
 30
0.0
 10
-424.967829099327
 20
9.251110029149299
 30
0.0
 10
-424.6503259802876
 20
9.253841349802899
 30
0.0
 10
-424.5021492407775
 20
9.255116033077599
 30
0.0
 11
-428.2751850043623
 21
8.84196140312099
 31
0.0
 11
-427.8205995366855
 21
8.930153787120721
 31
0.0
 11
-427.3398262936949
 21
9.013170091973507
 31
0.0
 11
-426.886497419638
 21
9.081260399385712
 31
0.0
 11
-426.3990131562594
 21
9.142894874827107
 31
0.0
 11
-425.9231830802858
 21
9.190891863146767
 31
0.0
 11
-425.4540662584285
 21
9.225767578689982
 31
0.0
 11
-424.9466177694253
 21
9.248621486700053
 31
0.0
 11
-424.5021492407775
 21
9.255116033077599
 31
0.0
  0
ENDBLK
  5
4E
330
4C
100
AcDbEntity
  8
0
100
AcDbBlockEnd
  0
BLOCK
  5
51
330
4F
100
AcDbEntity
  8
0
100
AcDbBlockBegin
  2
Katalog-HL19ABSC__2
 70
     0
 10
-419.8168251208929
 20
-19.7330385968782
 30
0.0
  3
Katalog-HL19ABSC__2
  1

  0
INSERT
  5
50
330
4F
100
AcDbEntity
  8
0
100
AcDbBlockReference
  2
HL19_ABS_10003_ABS__1
 10
-428.5668251208929
 20
-24.40803859687901
 30
0.0
  0
ENDBLK
  5
52
330
4F
100
AcDbEntity
  8
0
100
AcDbBlockEnd
  0
BLOCK
  5
54
330
53
100
AcDbEntity
  8
0
100
AcDbBlockBegin
  2
HL_406_2_Waschgeräte_Sifon__3
 70
     0
 10
37.86635579023579
 20
-67.0107857172505
 30
0.0
  3
HL_406_2_Waschgeräte_Sifon__3
  1

  0
POINT
  5
A9
330
53
100
AcDbEntity
  8
0
 62
     7
100
AcDbPoint
 10
0.0
 20
42.0
 30
0.0
  0
POINT
  5
AA
330
53
100
AcDbEntity
  8
0
 62
     7
100
AcDbPoint
 10
32.94456500000001
 20
-73.0
 30
0.0
  0
POINT
  5
AB
330
53
100
AcDbEntity
  8
0
 62
     7
100
AcDbPoint
 10
101.999271
 20
27.00145799999996
 30
0.0
  0
POINT
  5
AC
330
53
100
AcDbEntity
  8
0
 62
     7
100
AcDbPoint
 10
101.999271
 20
-26.99854200000004
 30
0.0
  0
POINT
  5
AD
330
53
100
AcDbEntity
  8
0
 62
     7
100
AcDbPoint
 10
102.119989
 20
27.0
 30
0.0
  0
POINT
  5
AE
330
53
100
AcDbEntity
  8
0
 62
     7
100
AcDbPoint
 10
147.5
 20
50.0
 30
0.0
  0
POINT
  5
AF
330
53
100
AcDbEntity
  8
0
 62
     7
100
AcDbPoint
 10
147.5
 20
-50.0
 30
0.0
  0
POINT
  5
B0
330
53
100
AcDbEntity
  8
0
 62
     7
100
AcDbPoint
 10
42.99927100000002
 20
-68.22355100000004
 30
0.0
  0
POINT
  5
B1
330
53
100
AcDbEntity
  8
0
 62
     7
100
AcDbPoint
 10
106.999271
 20
-21.99854200000004
 30
0.0
  0
POINT
  5
B2
330
53
100
AcDbEntity
  8
0
 62
     7
100
AcDbPoint
 10
-106.995729
 20
-22.22209300000003
 30
0.0
  0
POINT
  5
B3
330
53
100
AcDbEntity
  8
0
 62
     7
100
AcDbPoint
 10
80.0
 20
57.13718499999999
 30
0.0
  0
POINT
  5
B4
330
53
100
AcDbEntity
  8
0
 62
     7
100
AcDbPoint
 10
-80.0
 20
57.13718499999999
 30
0.0
  0
LINE
  5
B5
330
53
100
AcDbEntity
  8
LC-002-002-----0
  6
Continuous
 62
     7
100
AcDbLine
 10
-160.0
 20
11.03999999999996
 30
0.0
 11
-158.3689359999998
 21
11.03999999999996
 31
0.0
  0
LINE
  5
B6
330
53
100
AcDbEntity
  8
LC-002-002-----0
  6
Continuous
 62
     7
100
AcDbLine
 10
-148.2800000000002
 20
11.03999999999996
 30
0.0
 11
-149.9110639999999
 21
11.03999999999996
 31
0.0
  0
LINE
  5
B7
330
53
100
AcDbEntity
  8
LC-002-002-----0
  6
Continuous
 62
     7
100
AcDbLine
 10
-148.2800000000002
 20
17.24000000000001
 30
0.0
 11
-160.0
 21
17.24000000000001
 31
0.0
  0
LINE
  5
B8
330
53
100
AcDbEntity
  8
LC-002-002-----0
  6
Continuous
 62
     7
100
AcDbLine
 10
-160.0
 20
-11.04000000000002
 30
0.0
 11
-158.3689359999998
 21
-11.04000000000002
 31
0.0
  0
LINE
  5
B9
330
53
100
AcDbEntity
  8
LC-002-002-----0
  6
Continuous
 62
     7
100
AcDbLine
 10
-148.2800000000002
 20
-11.04000000000002
 30
0.0
 11
-149.9110639999999
 21
-11.04000000000002
 31
0.0
  0
LINE
  5
BA
330
53
100
AcDbEntity
  8
LC-002-002-----0
  6
Continuous
 62
     7
100
AcDbLine
 10
-148.2800000000002
 20
-17.24000000000001
 30
0.0
 11
-160.0
 21
-17.24000000000001
 31
0.0
  0
LINE
  5
BB
330
53
100
AcDbEntity
  8
LC-002-002-----0
  6
Continuous
 62
     7
100
AcDbLine
 10
-168.3899999999999
 20
4.25
 30
0.0
 11
-159.8899999999999
 21
4.25
 31
0.0
  0
LINE
  5
BC
330
53
100
AcDbEntity
  8
LC-002-002-----0
  6
Continuous
 62
     7
100
AcDbLine
 10
-168.3899999999999
 20
-4.25
 30
0.0
 11
-159.8899999999999
 21
-4.25
 31
0.0
  0
LINE
  5
BD
330
53
100
AcDbEntity
  8
LC-002-002-----0
  6
Continuous
 62
     7
100
AcDbLine
 10
-393.8814130000001
 20
-20.15823
 30
0.0
 11
-393.8815890000001
 21
19.84111899999999
 31
0.0
  0
LINE
  5
BE
330
53
100
AcDbEntity
  8
LC-002-002-----0
  6
Continuous
 62
     7
100
AcDbLine
 10
-303.040606
 20
-2.25800800000002
 30
0.0
 11
-295.040606
 21
-2.25800800000002
 31
0.0
  0
LINE
  5
BF
330
53
100
AcDbEntity
  8
LC-002-002-----0
  6
Continuous
 62
     7
100
AcDbLine
 10
-303.040606
 20
1.94199199999997
 30
0.0
 11
-295.040606
 21
1.94199199999997
 31
0.0
  0
LINE
  5
C0
330
53
100
AcDbEntity
  8
LC-002-002-----0
  6
Continuous
 62
     7
100
AcDbLine
 10
-317.040606
 20
-5.658008
 30
0.0
 11
-316.540606
 21
-5.658008
 31
0.0
  0
LINE
  5
C1
330
53
100
AcDbEntity
  8
LC-002-002-----0
  6
Continuous
 62
     7
100
AcDbLine
 10
-317.040606
 20
5.341992
 30
0.0
 11
-316.540606
 21
5.341992
 31
0.0
  0
LINE
  5
C2
330
53
100
AcDbEntity
  8
LC-002-002-----0
  6
Continuous
 62
     7
100
AcDbLine
 10
-317.540606
 20
4.841992
 30
0.0
 11
-317.540606
 21
-5.158008
 31
0.0
  0
LINE
  5
C3
330
53
100
AcDbEntity
  8
LC-002-002-----0
  6
Continuous
 62
     7
100
AcDbLine
 10
42.99927100000002
 20
-50.0
 30
0.0
 11
42.99927100000002
 21
-68.0
 31
0.0
  0
LINE
  5
C4
330
53
100
AcDbEntity
  8
LC-002-002-----0
  6
Continuous
 62
     7
100
AcDbLine
 10
-42.99072899999999
 20
-50.0
 30
0.0
 11
-42.9907290000001
 21
-68.0
 31
0.0
  0
LINE
  5
C5
330
53
100
AcDbEntity
  8
LC-002-002-----0
  6
Continuous
 62
     7
100
AcDbLine
 10
-380.881615
 20
9.14951400000001
 30
0.0
 11
-380.881615
 21
16.341992
 31
0.0
  0
LINE
  5
C6
330
53
100
AcDbEntity
  8
LC-002-002-----0
  6
Continuous
 62
     7
100
AcDbLine
 10
-355.881615
 20
11.341992
 30
0.0
 11
-357.881615
 21
13.341992
 31
0.0
  0
LINE
  5
C7
330
53
100
AcDbEntity
  8
LC-002-002-----0
  6
Continuous
 62
     7
100
AcDbLine
 10
-352.881615
 20
11.341992
 30
0.0
 11
-352.881615
 21
13.341992
 31
0.0
  0
LINE
  5
C8
330
53
100
AcDbEntity
  8
LC-002-002-----0
  6
Continuous
 62
     7
100
AcDbLine
 10
-336.5816150000001
 20
13.341992
 30
0.0
 11
-336.5816150000001
 21
10.76983000000001
 31
0.0
  0
LINE
  5
C9
330
53
100
AcDbEntity
  8
LC-002-002-----0
  6
Continuous
 62
     7
100
AcDbLine
 10
-335.0816150000001
 20
9.14951400000001
 30
0.0
 11
-335.0816150000001
 21
13.341992
 31
0.0
  0
LINE
  5
CA
330
53
100
AcDbEntity
  8
LC-002-002-----0
  6
Continuous
 62
     7
100
AcDbLine
 10
-355.881615
 20
-11.658008
 30
0.0
 11
-357.881615
 21
-13.658008
 31
0.0
  0
LINE
  5
CB
330
53
100
AcDbEntity
  8
LC-002-002-----0
  6
Continuous
 62
     7
100
AcDbLine
 10
-352.881615
 20
-13.658008
 30
0.0
 11
-352.881615
 21
-11.49324200000001
 31
0.0
  0
LINE
  5
CC
330
53
100
AcDbEntity
  8
LC-002-002-----0
  6
Continuous
 62
     7
100
AcDbLine
 10
-336.60736
 20
-13.64061800000002
 30
0.0
 11
-336.60736
 21
-11.08584500000001
 31
0.0
  0
LINE
  5
CD
330
53
100
AcDbEntity
  8
LC-002-002-----0
  6
Continuous
 62
     7
100
AcDbLine
 10
-335.0816150000001
 20
-9.45048600000001
 30
0.0
 11
-335.0816150000001
 21
-13.658008
 31
0.0
  0
LINE
  5
CE
330
53
100
AcDbEntity
  8
LC-002-002-----0
  6
Continuous
 62
     7
100
AcDbLine
 10
-351.881615
 20
-18.658008
 30
0.0
 11
-336.5816150000001
 21
-18.658008
 31
0.0
  0
LINE
  5
CF
330
53
100
AcDbEntity
  8
LC-002-002-----0
  6
Continuous
 62
     7
100
AcDbLine
 10
-336.5816150000001
 20
-19.658008
 30
0.0
 11
-335.0816150000001
 21
-19.658008
 31
0.0
  0
LINE
  5
D0
330
53
100
AcDbEntity
  8
LC-002-002-----0
  6
Continuous
 62
     7
100
AcDbLine
 10
-336.5816150000001
 20
19.341992
 30
0.0
 11
-335.0816150000001
 21
19.341992
 31
0.0
  0
LINE
  5
D1
330
53
100
AcDbEntity
  8
LC-002-002-----0
  6
Continuous
 62
     7
100
AcDbLine
 10
-351.881615
 20
18.341992
 30
0.0
 11
-336.5816150000001
 21
18.341992
 31
0.0
  0
LINE
  5
D2
330
53
100
AcDbEntity
  8
LC-002-002-----0
  6
Continuous
 62
     7
100
AcDbLine
 10
-336.5816150000001
 20
16.76956300000001
 30
0.0
 11
-352.381615
 21
16.76956300000001
 31
0.0
  0
LINE
  5
D3
330
53
100
AcDbEntity
  8
LC-002-002-----0
  6
Continuous
 62
     7
100
AcDbLine
 10
-336.5816150000001
 20
14.33392599999996
 30
0.0
 11
-352.381615
 21
14.33392599999996
 31
0.0
  0
LINE
  5
D4
330
53
100
AcDbEntity
  8
LC-002-002-----0
  6
Continuous
 62
     7
100
AcDbLine
 10
-336.5816150000001
 20
-2.15800799999999
 30
0.0
 11
-352.381615
 21
-2.15800799999999
 31
0.0
  0
LINE
  5
D5
330
53
100
AcDbEntity
  8
LC-002-002-----0
  6
Continuous
 62
     7
100
AcDbLine
 10
-336.5816150000001
 20
1.841992
 30
0.0
 11
-352.381615
 21
1.841992
 31
0.0
  0
LINE
  5
D6
330
53
100
AcDbEntity
  8
LC-002-002-----0
  6
Continuous
 62
     7
100
AcDbLine
 10
-336.5816150000001
 20
10.76983000000001
 30
0.0
 11
-352.381615
 21
10.76983000000001
 31
0.0
  0
LINE
  5
D7
330
53
100
AcDbEntity
  8
LC-002-002-----0
  6
Continuous
 62
     7
100
AcDbLine
 10
-336.5816150000001
 20
7.30572899999999
 30
0.0
 11
-352.381615
 21
7.30572899999999
 31
0.0
  0
LINE
  5
D8
330
53
100
AcDbEntity
  8
LC-002-002-----0
  6
Continuous
 62
     7
100
AcDbLine
 10
-336.5816150000001
 20
-17.085578
 30
0.0
 11
-352.381615
 21
-17.085578
 31
0.0
  0
LINE
  5
D9
330
53
100
AcDbEntity
  8
LC-002-002-----0
  6
Continuous
 62
     7
100
AcDbLine
 10
-352.381615
 20
7.30572899999999
 30
0.0
 11
-352.381615
 21
10.76983000000001
 31
0.0
  0
LINE
  5
DA
330
53
100
AcDbEntity
  8
LC-002-002-----0
  6
Continuous
 62
     7
100
AcDbLine
 10
-352.381615
 20
-14.64994100000001
 30
0.0
 11
-352.381615
 21
-17.085578
 31
0.0
  0
LINE
  5
DB
330
53
100
AcDbEntity
  8
LC-002-002-----0
  6
Continuous
 62
     7
100
AcDbLine
 10
-336.5816150000001
 20
-14.64994100000001
 30
0.0
 11
-352.381615
 21
-14.64994100000001
 31
0.0
  0
LINE
  5
DC
330
53
100
AcDbEntity
  8
LC-002-002-----0
  6
Continuous
 62
     7
100
AcDbLine
 10
-352.381615
 20
-7.62174400000004
 30
0.0
 11
-352.381615
 21
-11.08584500000001
 31
0.0
  0
LINE
  5
DD
330
53
100
AcDbEntity
  8
LC-002-002-----0
  6
Continuous
 62
     7
100
AcDbLine
 10
-336.5816150000001
 20
-11.08584500000001
 30
0.0
 11
-352.381615
 21
-11.08584500000001
 31
0.0
  0
LINE
  5
DE
330
53
100
AcDbEntity
  8
LC-002-002-----0
  6
Continuous
 62
     7
100
AcDbLine
 10
-352.381615
 20
1.841992
 30
0.0
 11
-352.381615
 21
-2.15800799999999
 31
0.0
  0
LINE
  5
DF
330
53
100
AcDbEntity
  8
LC-002-002-----0
  6
Continuous
 62
     7
100
AcDbLine
 10
-336.5816150000001
 20
-7.62174400000004
 30
0.0
 11
-352.381615
 21
-7.62174400000004
 31
0.0
  0
LINE
  5
E0
330
53
100
AcDbEntity
  8
LC-002-002-----0
  6
Continuous
 62
     7
100
AcDbLine
 10
-335.0816150000001
 20
16.341992
 30
0.0
 11
-335.0816150000001
 21
16.341992
 31
0.0
  0
LINE
  5
E1
330
53
100
AcDbEntity
  8
LC-002-002-----0
  6
Continuous
 62
     7
100
AcDbLine
 10
-352.381615
 20
14.33392599999996
 30
0.0
 11
-352.381615
 21
16.76956300000001
 31
0.0
  0
LINE
  5
E2
330
53
100
AcDbEntity
  8
LC-002-002-----0
  6
Continuous
 62
     7
100
AcDbLine
 10
-335.0816150000001
 20
-16.658008
 30
0.0
 11
-335.0816150000001
 21
-16.658008
 31
0.0
  0
LINE
  5
E3
330
53
100
AcDbEntity
  8
LC-002-002-----0
  6
Continuous
 62
     7
100
AcDbLine
 10
-380.881615
 20
-9.12460900000002
 30
0.0
 11
-380.881615
 21
-16.658008
 31
0.0
  0
LINE
  5
E4
330
53
100
AcDbEntity
  8
LC-002-002-----0
  6
Continuous
 62
     7
100
AcDbLine
 10
-380.881615
 20
9.14951400000001
 30
0.0
 11
-380.881615
 21
-9.45048600000001
 31
0.0
  0
LINE
  5
E5
330
53
100
AcDbEntity
  8
LC-002-002-----0
  6
Continuous
 62
     7
100
AcDbLine
 10
-352.881615
 20
-13.658008
 30
0.0
 11
-352.881615
 21
-17.658008
 31
0.0
  0
LINE
  5
E6
330
53
100
AcDbEntity
  8
LC-002-002-----0
  6
Continuous
 62
     7
100
AcDbLine
 10
-352.881615
 20
11.341992
 30
0.0
 11
-352.881615
 21
-11.49324200000001
 31
0.0
  0
LINE
  5
E7
330
53
100
AcDbEntity
  8
LC-002-002-----0
  6
Continuous
 62
     7
100
AcDbLine
 10
-352.881615
 20
17.341992
 30
0.0
 11
-352.881615
 21
13.341992
 31
0.0
  0
LINE
  5
E8
330
53
100
AcDbEntity
  8
LC-002-002-----0
  6
Continuous
 62
     7
100
AcDbLine
 10
-335.0816150000001
 20
9.14951400000001
 30
0.0
 11
-335.0816150000001
 21
-9.45048600000001
 31
0.0
  0
LINE
  5
E9
330
53
100
AcDbEntity
  8
LC-002-002-----0
  6
Continuous
 62
     7
100
AcDbLine
 10
-336.5816150000001
 20
10.76983000000001
 30
0.0
 11
-336.5816150000001
 21
-11.08584500000001
 31
0.0
  0
LINE
  5
EA
330
53
100
AcDbEntity
  8
LC-002-002-----0
  6
Continuous
 62
     7
100
AcDbLine
 10
-336.5816150000001
 20
-13.658008
 30
0.0
 11
-336.5816150000001
 21
-19.658008
 31
0.0
  0
LINE
  5
EB
330
53
100
AcDbEntity
  8
LC-002-002-----0
  6
Continuous
 62
     7
100
AcDbLine
 10
-336.5816150000001
 20
19.341992
 30
0.0
 11
-336.5816150000001
 21
13.341992
 31
0.0
  0
LINE
  5
EC
330
53
100
AcDbEntity
  8
LC-002-002-----0
  6
Continuous
 62
     7
100
AcDbLine
 10
-335.0816150000001
 20
-13.658008
 30
0.0
 11
-335.0816150000001
 21
-19.658008
 31
0.0
  0
LINE
  5
ED
330
53
100
AcDbEntity
  8
LC-002-002-----0
  6
Continuous
 62
     7
100
AcDbLine
 10
-335.0816150000001
 20
19.341992
 30
0.0
 11
-335.0816150000001
 21
13.341992
 31
0.0
  0
LINE
  5
EE
330
53
100
AcDbEntity
  8
LC-002-002-----0
  6
Continuous
 62
     7
100
AcDbLine
 10
-355.790182
 20
-11.49324200000001
 30
0.0
 11
-352.881615
 21
-11.49324200000001
 31
0.0
  0
LINE
  5
EF
330
53
100
AcDbEntity
  8
LC-002-002-----0
  6
Continuous
 62
     7
100
AcDbLine
 10
-355.881615
 20
11.341992
 30
0.0
 11
-355.881615
 21
-11.658008
 31
0.0
  0
LINE
  5
F0
330
53
100
AcDbEntity
  8
LC-002-002-----0
  6
Continuous
 62
     7
100
AcDbLine
 10
-357.881615
 20
-13.658008
 30
0.0
 11
-360.881615
 21
-16.658008
 31
0.0
  0
LINE
  5
F1
330
53
100
AcDbEntity
  8
LC-002-002-----0
  6
Continuous
 62
     7
100
AcDbLine
 10
-357.881615
 20
13.341992
 30
0.0
 11
-360.881615
 21
16.341992
 31
0.0
  0
LINE
  5
F2
330
53
100
AcDbEntity
  8
LC-002-002-----0
  6
Continuous
 62
     7
100
AcDbLine
 10
-360.881615
 20
-16.658008
 30
0.0
 11
-380.881615
 21
-16.658008
 31
0.0
  0
LINE
  5
F3
330
53
100
AcDbEntity
  8
LC-002-002-----0
  6
Continuous
 62
     7
100
AcDbLine
 10
-360.881615
 20
16.341992
 30
0.0
 11
-380.881615
 21
16.341992
 31
0.0
  0
LINE
  5
F4
330
53
100
AcDbEntity
  8
LC-002-002-----0
  6
Continuous
 62
     7
100
AcDbLine
 10
-355.881615
 20
11.341992
 30
0.0
 11
-352.881615
 21
11.341992
 31
0.0
  0
LINE
  5
F5
330
53
100
AcDbEntity
  8
LC-002-002-----0
  6
Continuous
 62
     7
100
AcDbLine
 10
-385.881615
 20
43.59935200000001
 30
0.0
 11
-385.881615
 21
-17.158008
 31
0.0
  0
LINE
  5
F6
330
53
100
AcDbEntity
  8
LC-002-002-----0
  6
Continuous
 62
     7
100
AcDbLine
 10
-380.881615
 20
49.841992
 30
0.0
 11
-385.002935
 21
45.72067199999998
 31
0.0
  0
LINE
  5
F7
330
53
100
AcDbEntity
  8
LC-002-002-----0
  6
Continuous
 62
     7
100
AcDbLine
 10
-385.881615
 20
-17.158008
 30
0.0
 11
-385.881615
 21
-43.915367
 31
0.0
  0
LINE
  5
F8
330
53
100
AcDbEntity
  8
LC-002-002-----0
  6
Continuous
 62
     7
100
AcDbLine
 10
-285.040606
 20
-73.158008
 30
0.0
 11
-282.040606
 21
-73.158008
 31
0.0
  0
LINE
  5
F9
330
53
100
AcDbEntity
  8
LC-002-002-----0
  6
Continuous
 62
     7
100
AcDbLine
 10
-285.040606
 20
-27.15655000000004
 30
0.0
 11
-282.040606
 21
-27.15655000000004
 31
0.0
  0
LINE
  5
FA
330
53
100
AcDbEntity
  8
LC-002-002-----0
  6
Continuous
 62
     7
100
AcDbLine
 10
-285.040606
 20
26.84344999999996
 30
0.0
 11
-282.040606
 21
26.84344999999996
 31
0.0
  0
LINE
  5
FB
330
53
100
AcDbEntity
  8
LC-002-002-----0
  6
Continuous
 62
     7
100
AcDbLine
 10
-285.040606
 20
30.841992
 30
0.0
 11
-282.040606
 21
30.841992
 31
0.0
  0
LINE
  5
FC
330
53
100
AcDbEntity
  8
LC-002-002-----0
  6
Continuous
 62
     7
100
AcDbLine
 10
-285.040606
 20
-27.15655000000004
 30
0.0
 11
-295.040606
 21
-27.15655000000004
 31
0.0
  0
LINE
  5
FD
330
53
100
AcDbEntity
  8
LC-002-002-----0
  6
Continuous
 62
     7
100
AcDbLine
 10
-285.040606
 20
26.84344999999996
 30
0.0
 11
-295.040606
 21
26.84344999999996
 31
0.0
  0
LINE
  5
FE
330
53
100
AcDbEntity
  8
LC-002-002-----0
  6
Continuous
 62
     7
100
AcDbLine
 10
-285.040606
 20
-73.158008
 30
0.0
 11
-285.040606
 21
30.841992
 31
0.0
  0
LINE
  5
FF
330
53
100
AcDbEntity
  8
LC-002-002-----0
  6
Continuous
 62
     7
100
AcDbLine
 10
-295.040606
 20
-73.158008
 30
0.0
 11
-285.040606
 21
-73.158008
 31
0.0
  0
LINE
  5
100
330
53
100
AcDbEntity
  8
LC-002-002-----0
  6
Continuous
 62
     7
100
AcDbLine
 10
-295.040606
 20
30.841992
 30
0.0
 11
-295.040606
 21
-73.158008
 31
0.0
  0
LINE
  5
101
330
53
100
AcDbEntity
  8
LC-002-002-----0
  6
Continuous
 62
     7
100
AcDbLine
 10
-285.040606
 20
30.841992
 30
0.0
 11
-295.040606
 21
30.841992
 31
0.0
  0
LINE
  5
102
330
53
100
AcDbEntity
  8
LC-002-002-----0
  6
Continuous
 62
     7
100
AcDbLine
 10
-67.5
 20
-41.25
 30
0.0
 11
-67.5
 21
-48.45631600000002
 31
0.0
  0
LINE
  5
103
330
53
100
AcDbEntity
  8
LC-002-002-----0
  6
Continuous
 62
     7
100
AcDbLine
 10
-68.29368400000021
 20
-49.25
 30
0.0
 11
-91.70631599999979
 21
-49.25
 31
0.0
  0
LINE
  5
104
330
53
100
AcDbEntity
  8
LC-002-002-----0
  6
Continuous
 62
     7
100
AcDbLine
 10
-67.5
 20
-48.45631600000002
 30
0.0
 11
-68.29368400000021
 21
-49.25
 31
0.0
  0
LINE
  5
105
330
53
100
AcDbEntity
  8
LC-002-002-----0
  6
Continuous
 62
     7
100
AcDbLine
 10
-92.5
 20
-48.45631600000002
 30
0.0
 11
-91.70631599999979
 21
-49.25
 31
0.0
  0
LINE
  5
106
330
53
100
AcDbEntity
  8
LC-002-002-----0
  6
Continuous
 62
     7
100
AcDbLine
 10
-92.5
 20
-48.45631600000002
 30
0.0
 11
-92.5
 21
-41.25
 31
0.0
  0
LINE
  5
107
330
53
100
AcDbEntity
  8
LC-002-002-----0
  6
Continuous
 62
     7
100
AcDbLine
 10
-380.881615
 20
-50.158008
 30
0.0
 11
-385.002935
 21
-46.03668700000003
 31
0.0
  0
LINE
  5
108
330
53
100
AcDbEntity
  8
LC-002-002-----0
  6
Continuous
 62
     7
100
AcDbLine
 10
-380.881615
 20
-50.158008
 30
0.0
 11
-380.881615
 21
-16.658008
 31
0.0
  0
LINE
  5
109
330
53
100
AcDbEntity
  8
LC-002-002-----0
  6
Continuous
 62
     7
100
AcDbLine
 10
-316.040606
 20
-34.66080700000003
 30
0.0
 11
-302.9406060000001
 21
-34.66080700000003
 31
0.0
  0
LINE
  5
10A
330
53
100
AcDbEntity
  8
LC-002-002-----0
  6
Continuous
 62
     7
100
AcDbLine
 10
-95.0
 20
29.83268899999996
 30
0.0
 11
-95.0
 21
9.37778700000001
 31
0.0
  0
LINE
  5
10B
330
53
100
AcDbEntity
  8
LC-002-002-----0
  6
Continuous
 62
     7
100
AcDbLine
 10
-65.0
 20
29.83268899999996
 30
0.0
 11
-65.0
 21
9.37778700000001
 31
0.0
  0
LINE
  5
10C
330
53
100
AcDbEntity
  8
LC-002-002-----0
  6
Continuous
 62
     7
100
AcDbLine
 10
-316.040606
 20
-44.66080700000003
 30
0.0
 11
-316.040606
 21
-34.66080700000003
 31
0.0
  0
LINE
  5
10D
330
53
100
AcDbEntity
  8
LC-002-002-----0
  6
Continuous
 62
     7
100
AcDbLine
 10
-95.0
 20
9.37778700000001
 30
0.0
 11
-65.0
 21
9.37778700000001
 31
0.0
  0
LINE
  5
10E
330
53
100
AcDbEntity
  8
LC-002-002-----0
  6
Continuous
 62
     7
100
AcDbLine
 10
-316.040606
 20
-44.66080700000003
 30
0.0
 11
-302.9406060000001
 21
-44.66080700000003
 31
0.0
  0
LINE
  5
10F
330
53
100
AcDbEntity
  8
LC-002-002-----0
  6
Continuous
 62
     7
100
AcDbLine
 10
-302.9406060000001
 20
-44.66080700000003
 30
0.0
 11
-302.9406060000001
 21
-34.66080700000003
 31
0.0
  0
LINE
  5
110
330
53
100
AcDbEntity
  8
LC-002-002-----0
  6
Continuous
 62
     7
100
AcDbLine
 10
-302.9406060000001
 20
-23.158008
 30
0.0
 11
-302.9406060000001
 21
-20.658008
 31
0.0
  0
LINE
  5
111
330
53
100
AcDbEntity
  8
LC-002-002-----0
  6
Continuous
 62
     7
100
AcDbLine
 10
-316.040606
 20
-23.158008
 30
0.0
 11
-316.040606
 21
-20.658008
 31
0.0
  0
LINE
  5
112
330
53
100
AcDbEntity
  8
LC-002-002-----0
  6
Continuous
 62
     7
100
AcDbLine
 10
-93.0
 20
9.37778700000001
 30
0.0
 11
-93.0
 21
-16.75
 31
0.0
  0
LINE
  5
113
330
53
100
AcDbEntity
  8
LC-002-002-----0
  6
Continuous
 62
     7
100
AcDbLine
 10
-67.0
 20
-16.75
 30
0.0
 11
-67.0
 21
9.37778700000001
 31
0.0
  0
LINE
  5
114
330
53
100
AcDbEntity
  8
LC-002-002-----0
  6
Continuous
 62
     7
100
AcDbLine
 10
-67.75
 20
-36.25
 30
0.0
 11
-66.5
 21
-36.25
 31
0.0
  0
LINE
  5
115
330
53
100
AcDbEntity
  8
LC-002-002-----0
  6
Continuous
 62
     7
100
AcDbLine
 10
-93.5
 20
-36.25
 30
0.0
 11
-92.25
 21
-36.25
 31
0.0
  0
LINE
  5
116
330
53
100
AcDbEntity
  8
LC-002-002-----0
  6
Continuous
 62
     7
100
AcDbLine
 10
-93.5
 20
-41.25
 30
0.0
 11
-93.5
 21
-36.25
 31
0.0
  0
LINE
  5
117
330
53
100
AcDbEntity
  8
LC-002-002-----0
  6
Continuous
 62
     7
100
AcDbLine
 10
-66.5
 20
-41.25
 30
0.0
 11
-93.5
 21
-41.25
 31
0.0
  0
LINE
  5
118
330
53
100
AcDbEntity
  8
LC-002-002-----0
  6
Continuous
 62
     7
100
AcDbLine
 10
-66.5
 20
-36.25
 30
0.0
 11
-66.5
 21
-41.25
 31
0.0
  0
LINE
  5
119
330
53
100
AcDbEntity
  8
LC-002-002-----0
  6
Continuous
 62
     7
100
AcDbLine
 10
-92.25
 20
-36.25
 30
0.0
 11
-92.25
 21
-33.75
 31
0.0
  0
LINE
  5
11A
330
53
100
AcDbEntity
  8
LC-002-002-----0
  6
Continuous
 62
     7
100
AcDbLine
 10
-67.75
 20
-36.25
 30
0.0
 11
-92.25
 21
-36.25
 31
0.0
  0
LINE
  5
11B
330
53
100
AcDbEntity
  8
LC-002-002-----0
  6
Continuous
 62
     7
100
AcDbLine
 10
-67.75
 20
-33.75
 30
0.0
 11
-67.75
 21
-36.25
 31
0.0
  0
LINE
  5
11C
330
53
100
AcDbEntity
  8
LC-002-002-----0
  6
Continuous
 62
     7
100
AcDbLine
 10
-95.5
 20
-19.25
 30
0.0
 11
-64.5
 21
-19.25
 31
0.0
  0
LINE
  5
11D
330
53
100
AcDbEntity
  8
LC-002-002-----0
  6
Continuous
 62
     7
100
AcDbLine
 10
-40.07038499999999
 20
-50.0
 30
0.0
 11
-38.97425800000019
 21
-78.38107300000001
 31
0.0
  0
LINE
  5
11E
330
53
100
AcDbEntity
  8
LC-002-002-----0
  6
Continuous
 62
     7
100
AcDbLine
 10
-219.1399999999999
 20
25.0
 30
0.0
 11
-140.0
 21
25.0
 31
0.0
  0
LINE
  5
11F
330
53
100
AcDbEntity
  8
LC-002-002-----0
  6
Continuous
 62
     7
100
AcDbLine
 10
-219.1399999999999
 20
-25.0
 30
0.0
 11
-140.0
 21
-25.0
 31
0.0
  0
LINE
  5
120
330
53
100
AcDbEntity
  8
LC-002-002-----0
  6
Continuous
 62
     7
100
AcDbLine
 10
-278.040606
 20
-37.67282600000004
 30
0.0
 11
-278.040606
 21
-27.158008
 31
0.0
  0
LINE
  5
121
330
53
100
AcDbEntity
  8
LC-002-002-----0
  6
Continuous
 62
     7
100
AcDbLine
 10
-278.040606
 20
-66.158008
 30
0.0
 11
-280.040606
 21
-66.158008
 31
0.0
  0
LINE
  5
122
330
53
100
AcDbEntity
  8
LC-002-002-----0
  6
Continuous
 62
     7
100
AcDbLine
 10
-67.0
 20
-16.75
 30
0.0
 11
-64.5
 21
-19.25
 31
0.0
  0
LINE
  5
123
330
53
100
AcDbEntity
  8
LC-002-002-----0
  6
Continuous
 62
     7
100
AcDbLine
 10
-93.0
 20
-16.75
 30
0.0
 11
-95.5
 21
-19.25
 31
0.0
  0
LINE
  5
124
330
53
100
AcDbEntity
  8
LC-002-002-----0
  6
Continuous
 62
     7
100
AcDbLine
 10
-219.1399999999999
 20
25.0
 30
0.0
 11
-219.1399999999999
 21
-25.0
 31
0.0
  0
LINE
  5
125
330
53
100
AcDbEntity
  8
LC-002-002-----0
  6
Continuous
 62
     7
100
AcDbLine
 10
-64.5
 20
-19.25
 30
0.0
 11
-64.5
 21
-33.75
 31
0.0
  0
LINE
  5
126
330
53
100
AcDbEntity
  8
LC-002-002-----0
  6
Continuous
 62
     7
100
AcDbLine
 10
-302.9406060000001
 20
-20.658008
 30
0.0
 11
-316.040606
 21
-20.658008
 31
0.0
  0
LINE
  5
127
330
53
100
AcDbEntity
  8
LC-002-002-----0
  6
Continuous
 62
     7
100
AcDbLine
 10
-95.5
 20
-33.75
 30
0.0
 11
-95.5
 21
-19.25
 31
0.0
  0
LINE
  5
128
330
53
100
AcDbEntity
  8
LC-002-002-----0
  6
Continuous
 62
     7
100
AcDbLine
 10
-64.5
 20
-33.75
 30
0.0
 11
-95.5
 21
-33.75
 31
0.0
  0
LINE
  5
129
330
53
100
AcDbEntity
  8
LC-002-002-----0
  6
Continuous
 62
     7
100
AcDbLine
 10
-278.040606
 20
26.841992
 30
0.0
 11
-278.040606
 21
40.35681099999999
 31
0.0
  0
LINE
  5
12A
330
53
100
AcDbEntity
  8
LC-002-002-----0
  6
Continuous
 62
     7
100
AcDbLine
 10
-282.040606
 20
40.35681099999999
 30
0.0
 11
-278.040606
 21
40.35681099999999
 31
0.0
  0
LINE
  5
12B
330
53
100
AcDbEntity
  8
LC-002-002-----0
  6
Continuous
 62
     7
100
AcDbLine
 10
-282.040606
 20
26.841992
 30
0.0
 11
-282.040606
 21
40.35681099999999
 31
0.0
  0
LINE
  5
12C
330
53
100
AcDbEntity
  8
LC-002-002-----0
  6
Continuous
 62
     7
100
AcDbLine
 10
-93.0
 20
-16.75
 30
0.0
 11
-67.0
 21
-16.75
 31
0.0
  0
LINE
  5
12D
330
53
100
AcDbEntity
  8
LC-002-002-----0
  6
Continuous
 62
     7
100
AcDbLine
 10
-302.9406060000001
 20
-23.158008
 30
0.0
 11
-316.040606
 21
-23.158008
 31
0.0
  0
LINE
  5
12E
330
53
100
AcDbEntity
  8
LC-002-002-----0
  6
Continuous
 62
     7
100
AcDbLine
 10
-92.5
 20
-49.0
 30
0.0
 11
-136.5
 21
-49.0
 31
0.0
  0
LINE
  5
12F
330
53
100
AcDbEntity
  8
LC-002-002-----0
  6
Continuous
 62
     7
100
AcDbLine
 10
-65.51011599999993
 20
49.0
 30
0.0
 11
65.50584400000025
 21
49.0
 31
0.0
  0
LINE
  5
130
330
53
100
AcDbEntity
  8
LC-002-002-----0
  6
Continuous
 62
     7
100
AcDbLine
 10
201.7200000000003
 20
11.03999999999996
 30
0.0
 11
200.0889360000001
 21
11.03999999999996
 31
0.0
  0
LINE
  5
131
330
53
100
AcDbEntity
  8
LC-002-002-----0
  6
Continuous
 62
     7
100
AcDbLine
 10
190.0
 20
11.03999999999996
 30
0.0
 11
191.6310640000002
 21
11.03999999999996
 31
0.0
  0
LINE
  5
132
330
53
100
AcDbEntity
  8
LC-002-002-----0
  6
Continuous
 62
     7
100
AcDbLine
 10
190.0
 20
17.24000000000001
 30
0.0
 11
201.7200000000003
 21
17.24000000000001
 31
0.0
  0
LINE
  5
133
330
53
100
AcDbEntity
  8
LC-002-002-----0
  6
Continuous
 62
     7
100
AcDbLine
 10
-136.5
 20
49.0
 30
0.0
 11
-94.48988400000007
 21
49.0
 31
0.0
  0
LINE
  5
134
330
53
100
AcDbEntity
  8
LC-002-002-----0
  6
Continuous
 62
     7
100
AcDbLine
 10
-139.0
 20
-46.5
 30
0.0
 11
-139.0
 21
46.5
 31
0.0
  0
LINE
  5
135
330
53
100
AcDbEntity
  8
LC-002-002-----0
  6
Continuous
 62
     7
100
AcDbLine
 10
201.7200000000003
 20
-11.04000000000002
 30
0.0
 11
200.0889360000001
 21
-11.04000000000002
 31
0.0
  0
LINE
  5
136
330
53
100
AcDbEntity
  8
LC-002-002-----0
  6
Continuous
 62
     7
100
AcDbLine
 10
-302.9406060000001
 20
19.841992
 30
0.0
 11
-302.9406060000001
 21
22.341992
 31
0.0
  0
LINE
  5
137
330
53
100
AcDbEntity
  8
LC-002-002-----0
  6
Continuous
 62
     7
100
AcDbLine
 10
139.0
 20
-46.81384500000001
 30
0.0
 11
139.0
 21
46.5
 31
0.0
  0
LINE
  5
138
330
53
100
AcDbEntity
  8
LC-002-002-----0
  6
Continuous
 62
     7
100
AcDbLine
 10
-280.040606
 20
-37.67282600000004
 30
0.0
 11
-280.040606
 21
-73.158008
 31
0.0
  0
LINE
  5
139
330
53
100
AcDbEntity
  8
LC-002-002-----0
  6
Continuous
 62
     7
100
AcDbLine
 10
-282.040606
 20
-37.67282600000004
 30
0.0
 11
-278.040606
 21
-37.67282600000004
 31
0.0
  0
LINE
  5
13A
330
53
100
AcDbEntity
  8
LC-002-002-----0
  6
Continuous
 62
     7
100
AcDbLine
 10
190.0
 20
-11.04000000000002
 30
0.0
 11
191.6310640000002
 21
-11.04000000000002
 31
0.0
  0
LINE
  5
13B
330
53
100
AcDbEntity
  8
LC-002-002-----0
  6
Continuous
 62
     7
100
AcDbLine
 10
-278.040606
 20
-73.158008
 30
0.0
 11
-278.040606
 21
-66.158008
 31
0.0
  0
LINE
  5
13C
330
53
100
AcDbEntity
  8
LC-002-002-----0
  6
Continuous
 62
     7
100
AcDbLine
 10
-282.040606
 20
-73.158008
 30
0.0
 11
-278.040606
 21
-73.158008
 31
0.0
  0
LINE
  5
13D
330
53
100
AcDbEntity
  8
LC-002-002-----0
  6
Continuous
 62
     7
100
AcDbLine
 10
-282.040606
 20
-62.158008
 30
0.0
 11
-282.040606
 21
-73.158008
 31
0.0
  0
LINE
  5
13E
330
53
100
AcDbEntity
  8
LC-002-002-----0
  6
Continuous
 62
     7
100
AcDbLine
 10
190.0
 20
-17.24000000000001
 30
0.0
 11
201.7200000000003
 21
-17.24000000000001
 31
0.0
  0
LINE
  5
13F
330
53
100
AcDbEntity
  8
LC-002-002-----0
  6
Continuous
 62
     7
100
AcDbLine
 10
-282.040606
 20
-10.158008
 30
0.0
 11
-282.040606
 21
-18.158008
 31
0.0
  0
LINE
  5
140
330
53
100
AcDbEntity
  8
LC-002-002-----0
  6
Continuous
 62
     7
100
AcDbLine
 10
-282.040606
 20
17.841992
 30
0.0
 11
-282.040606
 21
9.841992
 31
0.0
  0
LINE
  5
141
330
53
100
AcDbEntity
  8
LC-002-002-----0
  6
Continuous
 62
     7
100
AcDbLine
 10
-278.040606
 20
25.341992
 30
0.0
 11
-278.040606
 21
26.841992
 31
0.0
  0
LINE
  5
142
330
53
100
AcDbEntity
  8
LC-002-002-----0
  6
Continuous
 62
     7
100
AcDbLine
 10
-280.040606
 20
25.341992
 30
0.0
 11
-278.040606
 21
25.341992
 31
0.0
  0
LINE
  5
143
330
53
100
AcDbEntity
  8
LC-002-002-----0
  6
Continuous
 62
     7
100
AcDbLine
 10
-280.040606
 20
-25.658008
 30
0.0
 11
-280.040606
 21
25.341992
 31
0.0
  0
LINE
  5
144
330
53
100
AcDbEntity
  8
LC-002-002-----0
  6
Continuous
 62
     7
100
AcDbLine
 10
-278.040606
 20
-25.658008
 30
0.0
 11
-280.040606
 21
-25.658008
 31
0.0
  0
LINE
  5
145
330
53
100
AcDbEntity
  8
LC-002-002-----0
  6
Continuous
 62
     7
100
AcDbLine
 10
-278.040606
 20
-27.158008
 30
0.0
 11
-278.040606
 21
-25.658008
 31
0.0
  0
LINE
  5
146
330
53
100
AcDbEntity
  8
LC-002-002-----0
  6
Continuous
 62
     7
100
AcDbLine
 10
-282.040606
 20
-27.158008
 30
0.0
 11
-278.040606
 21
-27.158008
 31
0.0
  0
LINE
  5
147
330
53
100
AcDbEntity
  8
LC-002-002-----0
  6
Continuous
 62
     7
100
AcDbLine
 10
-282.040606
 20
-18.158008
 30
0.0
 11
-282.040606
 21
-62.158008
 31
0.0
  0
LINE
  5
148
330
53
100
AcDbEntity
  8
LC-002-002-----0
  6
Continuous
 62
     7
100
AcDbLine
 10
210.1100000000001
 20
4.25
 30
0.0
 11
201.6100000000001
 21
4.25
 31
0.0
  0
LINE
  5
149
330
53
100
AcDbEntity
  8
LC-002-002-----0
  6
Continuous
 62
     7
100
AcDbLine
 10
210.1100000000001
 20
-4.25
 30
0.0
 11
201.6100000000001
 21
-4.25
 31
0.0
  0
LINE
  5
14A
330
53
100
AcDbEntity
  8
LC-002-002-----0
  6
Continuous
 62
     7
100
AcDbLine
 10
-282.040606
 20
9.841992
 30
0.0
 11
-282.040606
 21
-10.158008
 31
0.0
  0
LINE
  5
14B
330
53
100
AcDbEntity
  8
LC-002-002-----0
  6
Continuous
 62
     7
100
AcDbLine
 10
-282.040606
 20
26.841992
 30
0.0
 11
-282.040606
 21
17.841992
 31
0.0
  0
LINE
  5
14C
330
53
100
AcDbEntity
  8
LC-002-002-----0
  6
Continuous
 62
     7
100
AcDbLine
 10
-278.040606
 20
26.841992
 30
0.0
 11
-282.040606
 21
26.841992
 31
0.0
  0
LINE
  5
14D
330
53
100
AcDbEntity
  8
LC-002-002-----0
  6
Continuous
 62
     7
100
AcDbLine
 10
230.0
 20
-11.04000000000002
 30
0.0
 11
231.6310640000002
 21
-11.04000000000002
 31
0.0
  0
LINE
  5
14E
330
53
100
AcDbEntity
  8
LC-002-002-----0
  6
Continuous
 62
     7
100
AcDbLine
 10
241.7200000000003
 20
-11.04000000000002
 30
0.0
 11
240.0889360000001
 21
-11.04000000000002
 31
0.0
  0
LINE
  5
14F
330
53
100
AcDbEntity
  8
LC-002-002-----0
  6
Continuous
 62
     7
100
AcDbLine
 10
230.0
 20
11.03999999999996
 30
0.0
 11
231.6310640000002
 21
11.03999999999996
 31
0.0
  0
LINE
  5
150
330
53
100
AcDbEntity
  8
LC-002-002-----0
  6
Continuous
 62
     7
100
AcDbLine
 10
241.7200000000003
 20
11.03999999999996
 30
0.0
 11
240.0889360000001
 21
11.03999999999996
 31
0.0
  0
LINE
  5
151
330
53
100
AcDbEntity
  8
LC-002-002-----0
  6
Continuous
 62
     7
100
AcDbLine
 10
67.49572900000021
 20
-49.0
 30
0.0
 11
9.08846153846126
 21
-49.0
 31
0.0
  0
LINE
  5
152
330
53
100
AcDbEntity
  8
LC-002-002-----0
  6
Continuous
 62
     7
100
AcDbLine
 10
94.48561299999983
 20
49.0
 30
0.0
 11
136.5
 21
49.0
 31
0.0
  0
LINE
  5
153
330
53
100
AcDbEntity
  8
LC-002-002-----0
  6
Continuous
 62
     7
100
AcDbLine
 10
92.49572899999998
 20
-41.25
 30
0.0
 11
92.49572900000021
 21
-48.45631600000002
 31
0.0
  0
LINE
  5
154
330
53
100
AcDbEntity
  8
LC-002-002-----0
  6
Continuous
 62
     7
100
AcDbLine
 10
91.70204400000011
 20
-49.25
 30
0.0
 11
68.28941299999997
 21
-49.25
 31
0.0
  0
LINE
  5
155
330
53
100
AcDbEntity
  8
LC-002-002-----0
  6
Continuous
 62
     7
100
AcDbLine
 10
92.49572900000021
 20
-48.45631600000002
 30
0.0
 11
91.70204400000011
 21
-49.25
 31
0.0
  0
LINE
  5
156
330
53
100
AcDbEntity
  8
LC-002-002-----0
  6
Continuous
 62
     7
100
AcDbLine
 10
67.49572899999998
 20
-48.45631600000002
 30
0.0
 11
68.28941299999997
 21
-49.25
 31
0.0
  0
LINE
  5
157
330
53
100
AcDbEntity
  8
LC-002-002-----0
  6
Continuous
 62
     7
100
AcDbLine
 10
67.49572899999998
 20
-48.45631600000002
 30
0.0
 11
67.49572900000021
 21
-41.25
 31
0.0
  0
LINE
  5
158
330
53
100
AcDbEntity
  8
LC-002-002-----0
  6
Continuous
 62
     7
100
AcDbLine
 10
423.1911909999999
 20
-30.5
 30
0.0
 11
423.1911909999999
 21
-30.5
 31
0.0
  0
LINE
  5
159
330
53
100
AcDbEntity
  8
LC-002-002-----0
  6
Continuous
 62
     7
100
AcDbLine
 10
424.289894
 20
-30.5
 30
0.0
 11
423.1911909999999
 21
-30.5
 31
0.0
  0
LINE
  5
15A
330
53
100
AcDbEntity
  8
LC-002-002-----0
  6
Continuous
 62
     7
100
AcDbLine
 10
427.1911909999999
 20
-10.75
 30
0.0
 11
426.287336
 21
-28.601136
 31
0.0
  0
LINE
  5
15B
330
53
100
AcDbEntity
  8
LC-002-002-----0
  6
Continuous
 62
     7
100
AcDbLine
 10
426.287336
 20
28.601136
 30
0.0
 11
427.1911909999999
 21
10.75
 31
0.0
  0
LINE
  5
15C
330
53
100
AcDbEntity
  8
LC-002-002-----0
  6
Continuous
 62
     7
100
AcDbLine
 10
427.1911909999999
 20
10.75
 30
0.0
 11
427.1911909999999
 21
-10.75
 31
0.0
  0
LINE
  5
15D
330
53
100
AcDbEntity
  8
LC-002-002-----0
  6
Continuous
 62
     7
100
AcDbLine
 10
423.1911909999999
 20
30.5
 30
0.0
 11
423.1911909999999
 21
-30.5
 31
0.0
  0
LINE
  5
15E
330
53
100
AcDbEntity
  8
LC-002-002-----0
  6
Continuous
 62
     7
100
AcDbLine
 10
424.289894
 20
30.5
 30
0.0
 11
423.1911909999999
 21
30.5
 31
0.0
  0
LINE
  5
15F
330
53
100
AcDbEntity
  8
LC-002-002-----0
  6
Continuous
 62
     7
100
AcDbLine
 10
-140.0
 20
-47.5
 30
0.0
 11
-140.0
 21
48.68071499999996
 31
0.0
  0
LINE
  5
160
330
53
100
AcDbEntity
  8
LC-002-002-----0
  6
Continuous
 62
     7
100
AcDbLine
 10
137.5
 20
-50.0
 30
0.0
 11
8.93461538461511
 21
-50.0
 31
0.0
  0
LINE
  5
161
330
53
100
AcDbEntity
  8
LC-002-002-----0
  6
Continuous
 62
     7
100
AcDbLine
 10
136.5
 20
-49.0
 30
0.0
 11
92.49572900000021
 21
-49.0
 31
0.0
  0
LINE
  5
162
330
53
100
AcDbEntity
  8
LC-002-002-----0
  6
Continuous
 62
     7
100
AcDbLine
 10
64.99572900000021
 20
29.83268899999996
 30
0.0
 11
64.99572900000021
 21
9.37778700000001
 31
0.0
  0
LINE
  5
163
330
53
100
AcDbEntity
  8
LC-002-002-----0
  6
Continuous
 62
     7
100
AcDbLine
 10
94.99572900000021
 20
29.83268899999996
 30
0.0
 11
94.99572900000021
 21
9.37778700000001
 31
0.0
  0
LINE
  5
164
330
53
100
AcDbEntity
  8
LC-002-002-----0
  6
Continuous
 62
     7
100
AcDbLine
 10
64.99572900000021
 20
9.37778700000001
 30
0.0
 11
94.99572900000021
 21
9.37778700000001
 31
0.0
  0
LINE
  5
165
330
53
100
AcDbEntity
  8
LC-002-002-----0
  6
Continuous
 62
     7
100
AcDbLine
 10
66.99572900000021
 20
9.37778700000001
 30
0.0
 11
66.99572900000021
 21
-16.75
 31
0.0
  0
LINE
  5
166
330
53
100
AcDbEntity
  8
LC-002-002-----0
  6
Continuous
 62
     7
100
AcDbLine
 10
92.99572900000021
 20
-16.75
 30
0.0
 11
92.99572900000021
 21
9.37778700000001
 31
0.0
  0
LINE
  5
167
330
53
100
AcDbEntity
  8
LC-002-002-----0
  6
Continuous
 62
     7
100
AcDbLine
 10
140.0
 20
25.0
 30
0.0
 11
260.8600000000001
 21
25.0
 31
0.0
  0
LINE
  5
168
330
53
100
AcDbEntity
  8
LC-002-002-----0
  6
Continuous
 62
     7
100
AcDbLine
 10
140.0
 20
-25.0
 30
0.0
 11
260.8600000000001
 21
-25.0
 31
0.0
  0
LINE
  5
169
330
53
100
AcDbEntity
  8
LC-002-002-----0
  6
Continuous
 62
     7
100
AcDbLine
 10
170.1100000000001
 20
4.25
 30
0.0
 11
161.6100000000001
 21
4.25
 31
0.0
  0
LINE
  5
16A
330
53
100
AcDbEntity
  8
LC-002-002-----0
  6
Continuous
 62
     7
100
AcDbLine
 10
170.1100000000001
 20
-4.25
 30
0.0
 11
161.6100000000001
 21
-4.25
 31
0.0
  0
LINE
  5
16B
330
53
100
AcDbEntity
  8
LC-002-002-----0
  6
Continuous
 62
     7
100
AcDbLine
 10
161.7200000000003
 20
-11.04000000000002
 30
0.0
 11
160.0889360000001
 21
-11.04000000000002
 31
0.0
  0
LINE
  5
16C
330
53
100
AcDbEntity
  8
LC-002-002-----0
  6
Continuous
 62
     7
100
AcDbLine
 10
150.0
 20
-11.04000000000002
 30
0.0
 11
151.6310640000002
 21
-11.04000000000002
 31
0.0
  0
LINE
  5
16D
330
53
100
AcDbEntity
  8
LC-002-002-----0
  6
Continuous
 62
     7
100
AcDbLine
 10
150.0
 20
-17.24000000000001
 30
0.0
 11
161.7200000000003
 21
-17.24000000000001
 31
0.0
  0
LINE
  5
16E
330
53
100
AcDbEntity
  8
LC-002-002-----0
  6
Continuous
 62
     7
100
AcDbLine
 10
161.7200000000003
 20
11.03999999999996
 30
0.0
 11
160.0889360000001
 21
11.03999999999996
 31
0.0
  0
LINE
  5
16F
330
53
100
AcDbEntity
  8
LC-002-002-----0
  6
Continuous
 62
     7
100
AcDbLine
 10
150.0
 20
11.03999999999996
 30
0.0
 11
151.6310640000002
 21
11.03999999999996
 31
0.0
  0
LINE
  5
170
330
53
100
AcDbEntity
  8
LC-002-002-----0
  6
Continuous
 62
     7
100
AcDbLine
 10
150.0
 20
17.24000000000001
 30
0.0
 11
161.7200000000003
 21
17.24000000000001
 31
0.0
  0
LINE
  5
171
330
53
100
AcDbEntity
  8
LC-002-002-----0
  6
Continuous
 62
     7
100
AcDbLine
 10
-188.2800000000002
 20
-11.04000000000002
 30
0.0
 11
-189.9110639999999
 21
-11.04000000000002
 31
0.0
  0
LINE
  5
172
330
53
100
AcDbEntity
  8
LC-002-002-----0
  6
Continuous
 62
     7
100
AcDbLine
 10
-200.0
 20
-11.04000000000002
 30
0.0
 11
-198.3689359999998
 21
-11.04000000000002
 31
0.0
  0
LINE
  5
173
330
53
100
AcDbEntity
  8
LC-002-002-----0
  6
Continuous
 62
     7
100
AcDbLine
 10
-188.2800000000002
 20
11.03999999999996
 30
0.0
 11
-189.9110639999999
 21
11.03999999999996
 31
0.0
  0
LINE
  5
174
330
53
100
AcDbEntity
  8
LC-002-002-----0
  6
Continuous
 62
     7
100
AcDbLine
 10
-200.0
 20
11.03999999999996
 30
0.0
 11
-198.3689359999998
 21
11.03999999999996
 31
0.0
  0
LINE
  5
175
330
53
100
AcDbEntity
  8
LC-002-002-----0
  6
Continuous
 62
     7
100
AcDbLine
 10
-188.2800000000002
 20
-17.24000000000001
 30
0.0
 11
-200.0
 21
-17.24000000000001
 31
0.0
  0
LINE
  5
176
330
53
100
AcDbEntity
  8
LC-002-002-----0
  6
Continuous
 62
     7
100
AcDbLine
 10
-208.3899999999999
 20
-4.25
 30
0.0
 11
-199.8899999999999
 21
-4.25
 31
0.0
  0
LINE
  5
177
330
53
100
AcDbEntity
  8
LC-002-002-----0
  6
Continuous
 62
     7
100
AcDbLine
 10
140.0
 20
-47.5
 30
0.0
 11
140.0
 21
47.5
 31
0.0
  0
LINE
  5
178
330
53
100
AcDbEntity
  8
LC-002-002-----0
  6
Continuous
 62
     7
100
AcDbLine
 10
-92.5
 20
-50.0
 30
0.0
 11
-137.5
 21
-50.0
 31
0.0
  0
LINE
  5
179
330
53
100
AcDbEntity
  8
LC-002-002-----0
  6
Continuous
 62
     7
100
AcDbLine
 10
-8.93461538461568
 20
-50.0
 30
0.0
 11
-92.5
 21
-50.0
 31
0.0
  0
LINE
  5
17A
330
53
100
AcDbEntity
  8
LC-002-002-----0
  6
Continuous
 62
     7
100
AcDbLine
 10
-65.94700199999988
 20
50.0
 30
0.0
 11
66.1876470000002
 21
50.0
 31
0.0
  0
LINE
  5
17B
330
53
100
AcDbEntity
  8
LC-002-002-----0
  6
Continuous
 62
     7
100
AcDbLine
 10
230.0
 20
-17.24000000000001
 30
0.0
 11
241.7200000000003
 21
-17.24000000000001
 31
0.0
  0
LINE
  5
17C
330
53
100
AcDbEntity
  8
LC-002-002-----0
  6
Continuous
 62
     7
100
AcDbLine
 10
250.1100000000001
 20
-4.25
 30
0.0
 11
241.6100000000001
 21
-4.25
 31
0.0
  0
LINE
  5
17D
330
53
100
AcDbEntity
  8
LC-002-002-----0
  6
Continuous
 62
     7
100
AcDbLine
 10
92.24572900000021
 20
-36.25
 30
0.0
 11
93.49572900000021
 21
-36.25
 31
0.0
  0
LINE
  5
17E
330
53
100
AcDbEntity
  8
LC-002-002-----0
  6
Continuous
 62
     7
100
AcDbLine
 10
66.49572900000021
 20
-36.25
 30
0.0
 11
67.74572900000021
 21
-36.25
 31
0.0
  0
LINE
  5
17F
330
53
100
AcDbEntity
  8
LC-002-002-----0
  6
Continuous
 62
     7
100
AcDbLine
 10
66.49572900000021
 20
-41.25
 30
0.0
 11
66.49572900000021
 21
-36.25
 31
0.0
  0
LINE
  5
180
330
53
100
AcDbEntity
  8
LC-002-002-----0
  6
Continuous
 62
     7
100
AcDbLine
 10
93.49572900000021
 20
-41.25
 30
0.0
 11
66.49572900000021
 21
-41.25
 31
0.0
  0
LINE
  5
181
330
53
100
AcDbEntity
  8
LC-002-002-----0
  6
Continuous
 62
     7
100
AcDbLine
 10
250.1100000000001
 20
4.25
 30
0.0
 11
241.6100000000001
 21
4.25
 31
0.0
  0
LINE
  5
182
330
53
100
AcDbEntity
  8
LC-002-002-----0
  6
Continuous
 62
     7
100
AcDbLine
 10
93.49572900000021
 20
-36.25
 30
0.0
 11
93.49572900000021
 21
-41.25
 31
0.0
  0
LINE
  5
183
330
53
100
AcDbEntity
  8
LC-002-002-----0
  6
Continuous
 62
     7
100
AcDbLine
 10
67.74572900000021
 20
-36.25
 30
0.0
 11
67.74572900000021
 21
-33.75
 31
0.0
  0
LINE
  5
184
330
53
100
AcDbEntity
  8
LC-002-002-----0
  6
Continuous
 62
     7
100
AcDbLine
 10
92.24572900000021
 20
-36.25
 30
0.0
 11
67.74572900000021
 21
-36.25
 31
0.0
  0
LINE
  5
185
330
53
100
AcDbEntity
  8
LC-002-002-----0
  6
Continuous
 62
     7
100
AcDbLine
 10
92.24572900000021
 20
-33.75
 30
0.0
 11
92.24572900000021
 21
-36.25
 31
0.0
  0
LINE
  5
186
330
53
100
AcDbEntity
  8
LC-002-002-----0
  6
Continuous
 62
     7
100
AcDbLine
 10
64.49572900000021
 20
-19.25
 30
0.0
 11
95.49572900000021
 21
-19.25
 31
0.0
  0
LINE
  5
187
330
53
100
AcDbEntity
  8
LC-002-002-----0
  6
Continuous
 62
     7
100
AcDbLine
 10
-208.3899999999999
 20
4.25
 30
0.0
 11
-199.8899999999999
 21
4.25
 31
0.0
  0
LINE
  5
188
330
53
100
AcDbEntity
  8
LC-002-002-----0
  6
Continuous
 62
     7
100
AcDbLine
 10
-188.2800000000002
 20
17.24000000000001
 30
0.0
 11
-200.0
 21
17.24000000000001
 31
0.0
  0
LINE
  5
189
330
53
100
AcDbEntity
  8
LC-002-002-----0
  6
Continuous
 62
     7
100
AcDbLine
 10
418.1810219999998
 20
-13.5
 30
0.0
 11
341.8513889999999
 21
-13.5
 31
0.0
  0
LINE
  5
18A
330
53
100
AcDbEntity
  8
LC-002-002-----0
  6
Continuous
 62
     7
100
AcDbLine
 10
418.1810219999998
 20
13.5
 30
0.0
 11
360.8513889999999
 21
13.5
 31
0.0
  0
LINE
  5
18B
330
53
100
AcDbEntity
  8
LC-002-002-----0
  6
Continuous
 62
     7
100
AcDbLine
 10
-9.08846153846183
 20
-49.0
 30
0.0
 11
-68.04368400000021
 21
-49.0
 31
0.0
  0
LINE
  5
18C
330
53
100
AcDbEntity
  8
LC-002-002-----0
  6
Continuous
 62
     7
100
AcDbLine
 10
423.1911909999999
 20
44.270805
 30
0.0
 11
423.1911909999999
 21
-44.270805
 31
0.0
  0
LINE
  5
18D
330
53
100
AcDbEntity
  8
LC-002-002-----0
  6
Continuous
 62
     7
100
AcDbLine
 10
333.8513889999999
 20
27.0
 30
0.0
 11
360.8513889999999
 21
27.0
 31
0.0
  0
LINE
  5
18E
330
53
100
AcDbEntity
  8
LC-002-002-----0
  6
Continuous
 62
     7
100
AcDbLine
 10
-300.040606
 20
39.841992
 30
0.0
 11
-321.540606
 21
39.841992
 31
0.0
  0
LINE
  5
18F
330
53
100
AcDbEntity
  8
LC-002-002-----0
  6
Continuous
 62
     7
100
AcDbLine
 10
-302.540606
 20
-86.158008
 30
0.0
 11
-340.540606
 21
-86.158008
 31
0.0
  0
LINE
  5
190
330
53
100
AcDbEntity
  8
LC-002-002-----0
  6
Continuous
 62
     7
100
AcDbLine
 10
-299.040606
 20
41.841992
 30
0.0
 11
-298.040606
 21
41.841992
 31
0.0
  0
LINE
  5
191
330
53
100
AcDbEntity
  8
LC-002-002-----0
  6
Continuous
 62
     7
100
AcDbLine
 10
-298.040606
 20
-88.158008
 30
0.0
 11
-299.040606
 21
-88.158008
 31
0.0
  0
LINE
  5
192
330
53
100
AcDbEntity
  8
LC-002-002-----0
  6
Continuous
 62
     7
100
AcDbLine
 10
-302.540606
 20
-86.158008
 30
0.0
 11
-300.040606
 21
-86.158008
 31
0.0
  0
LINE
  5
193
330
53
100
AcDbEntity
  8
LC-002-002-----0
  6
Continuous
 62
     7
100
AcDbLine
 10
-346.540606
 20
-189.6580080000001
 30
0.0
 11
-344.5198800000001
 21
-193.1580080000001
 31
0.0
  0
LINE
  5
194
330
53
100
AcDbEntity
  8
LC-002-002-----0
  6
Continuous
 62
     7
100
AcDbLine
 10
-296.540606
 20
-189.6580080000001
 30
0.0
 11
-298.5613320000002
 21
-193.1580080000001
 31
0.0
  0
LINE
  5
195
330
53
100
AcDbEntity
  8
LC-008-001-----0
  6
Continuous
 62
     7
100
AcDbLine
 10
-346.540606
 20
-189.6580080000001
 30
0.0
 11
-296.540606
 21
-189.6580080000001
 31
0.0
  0
LINE
  5
196
330
53
100
AcDbEntity
  8
LC-002-002-----0
  6
Continuous
 62
     7
100
AcDbLine
 10
-343.040606
 20
-83.658008
 30
0.0
 11
-343.040606
 21
-61.158008
 31
0.0
  0
LINE
  5
197
330
53
100
AcDbEntity
  8
LC-002-002-----0
  6
Continuous
 62
     7
100
AcDbLine
 10
-301.540606
 20
-86.158008
 30
0.0
 11
-301.540606
 21
-136.658008
 31
0.0
  0
LINE
  5
198
330
53
100
AcDbEntity
  8
LC-002-002-----0
  6
Continuous
 62
     7
100
AcDbLine
 10
-346.540606
 20
-143.158008
 30
0.0
 11
-346.540606
 21
-189.6580080000001
 31
0.0
  0
LINE
  5
199
330
53
100
AcDbEntity
  8
LC-002-002-----0
  6
Continuous
 62
     7
100
AcDbLine
 10
-294.040606
 20
-139.158008
 30
0.0
 11
-299.040606
 21
-139.158008
 31
0.0
  0
LINE
  5
19A
330
53
100
AcDbEntity
  8
LC-002-002-----0
  6
Continuous
 62
     7
100
AcDbLine
 10
-380.881615
 20
16.341992
 30
0.0
 11
-380.881615
 21
50.017583
 31
0.0
  0
LINE
  5
19B
330
53
100
AcDbEntity
  8
LC-002-002-----0
  6
Continuous
 62
     7
100
AcDbLine
 10
-386.878275
 20
-27.157873
 30
0.0
 11
-385.878449
 21
-26.86160799999999
 31
0.0
  0
LINE
  5
19C
330
53
100
AcDbEntity
  8
LC-002-002-----0
  6
Continuous
 62
     7
100
AcDbLine
 10
-386.8783820000001
 20
-26.24580500000002
 30
0.0
 11
-385.878553
 21
-25.94953900000002
 31
0.0
  0
LINE
  5
19D
330
53
100
AcDbEntity
  8
LC-002-002-----0
  6
Continuous
 62
     7
100
AcDbLine
 10
-385.878449
 20
-26.86160799999999
 30
0.0
 11
-385.8786600000001
 21
-25.07986600000004
 31
0.0
  0
LINE
  5
19E
330
53
100
AcDbEntity
  8
LC-002-002-----0
  6
Continuous
 62
     7
100
AcDbLine
 10
-385.8786520000001
 20
-25.07986600000004
 30
0.0
 11
-386.8786809999999
 21
-23.69818100000003
 31
0.0
  0
LINE
  5
19F
330
53
100
AcDbEntity
  8
LC-002-002-----0
  6
Continuous
 62
     7
100
AcDbLine
 10
-386.8789159999999
 20
-21.74580500000002
 30
0.0
 11
-385.879087
 21
-21.44954000000001
 31
0.0
  0
LINE
  5
1A0
330
53
100
AcDbEntity
  8
LC-002-002-----0
  6
Continuous
 62
     7
100
AcDbLine
 10
-386.8814789999999
 20
10.83788099999998
 30
0.0
 11
-385.881615
 21
11.134028
 31
0.0
  0
LINE
  5
1A1
330
53
100
AcDbEntity
  8
LC-002-002-----0
  6
Continuous
 62
     7
100
AcDbLine
 10
-386.8801739999999
 20
-11.15351200000003
 30
0.0
 11
-385.8802740000001
 21
-11.44954000000001
 31
0.0
  0
LINE
  5
1A2
330
53
100
AcDbEntity
  8
LC-002-002-----0
  6
Continuous
 62
     7
100
AcDbLine
 10
-385.881615
 20
5.634028
 30
0.0
 11
-385.881615
 21
-0.158008
 31
0.0
  0
LINE
  5
1A3
330
53
100
AcDbEntity
  8
LC-002-002-----0
  6
Continuous
 62
     7
100
AcDbLine
 10
-386.8814789999999
 20
5.93017499999996
 30
0.0
 11
-385.881615
 21
5.634028
 31
0.0
  0
LINE
  5
1A4
330
53
100
AcDbEntity
  8
LC-002-002-----0
  6
Continuous
 62
     7
100
AcDbLine
 10
-385.881615
 20
21.134028
 30
0.0
 11
-385.881615
 21
11.134028
 31
0.0
  0
LINE
  5
1A5
330
53
100
AcDbEntity
  8
LC-002-002-----0
  6
Continuous
 62
     7
100
AcDbLine
 10
-385.879087
 20
-21.44954000000001
 30
0.0
 11
-385.8802740000001
 21
-11.44954000000001
 31
0.0
  0
LINE
  5
1A6
330
53
100
AcDbEntity
  8
LC-002-002-----0
  6
Continuous
 62
     7
100
AcDbLine
 10
-21.0
 20
-139.0
 30
0.0
 11
21.0
 21
-139.0
 31
0.0
  0
LINE
  5
1A7
330
53
100
AcDbEntity
  8
LC-002-002-----0
  6
Continuous
 62
     7
100
AcDbLine
 10
-25.0
 20
-189.5000000000001
 30
0.0
 11
25.0
 21
-189.5000000000001
 31
0.0
  0
LINE
  5
1A8
330
53
100
AcDbEntity
  8
LC-002-002-----0
  6
Continuous
 62
     7
100
AcDbLine
 10
-24.06217800000013
 20
-193.0000000000001
 30
0.0
 11
24.06217800000013
 21
-193.0000000000001
 31
0.0
  0
LINE
  5
1A9
330
53
100
AcDbEntity
  8
LC-002-002-----0
  6
Continuous
 62
     7
100
AcDbLine
 10
435.8513889999999
 20
12.5
 30
0.0
 11
435.8513889999999
 21
-12.5
 31
0.0
  0
LINE
  5
1AA
330
53
100
AcDbEntity
  8
LC-002-002-----0
  6
Continuous
 62
     7
100
AcDbLine
 10
360.8513889999999
 20
13.5
 30
0.0
 11
347.3513889999999
 21
0.0
 31
0.0
  0
LINE
  5
1AB
330
53
100
AcDbEntity
  8
LC-002-002-----0
  6
Continuous
 62
     7
100
AcDbLine
 10
434.8513889999999
 20
13.5
 30
0.0
 11
427.05195
 21
13.5
 31
0.0
  0
LINE
  5
1AC
330
53
100
AcDbEntity
  8
LC-002-002-----0
  6
Continuous
 62
     7
100
AcDbLine
 10
360.8513889999999
 20
27.0
 30
0.0
 11
360.8513889999999
 21
13.5
 31
0.0
  0
LINE
  5
1AD
330
53
100
AcDbEntity
  8
LC-002-002-----0
  6
Continuous
 62
     7
100
AcDbLine
 10
333.8513889999999
 20
27.0
 30
0.0
 11
333.8513889999999
 21
9.30000000000001
 31
0.0
  0
LINE
  5
1AE
330
53
100
AcDbEntity
  8
LC-002-002-----0
  6
Continuous
 62
     7
100
AcDbLine
 10
434.8513889999999
 20
-13.5
 30
0.0
 11
427.05195
 21
-13.5
 31
0.0
  0
LINE
  5
1AF
330
53
100
AcDbEntity
  8
LC-002-002-----0
  6
Continuous
 62
     7
100
AcDbLine
 10
333.3513889999999
 20
9.30000000000001
 30
0.0
 11
333.8513889999999
 21
9.30000000000001
 31
0.0
  0
LINE
  5
1B0
330
53
100
AcDbEntity
  8
LC-002-002-----0
  6
Continuous
 62
     7
100
AcDbLine
 10
333.3513889999999
 20
-9.30000000000001
 30
0.0
 11
336.9158029999999
 21
-9.30000000000001
 31
0.0
  0
LINE
  5
1B1
330
53
100
AcDbEntity
  8
LC-002-002-----0
  6
Continuous
 62
     7
100
AcDbLine
 10
336.8513889999999
 20
5.99374899999998
 30
0.0
 11
336.8513889999999
 21
-8.5
 31
0.0
  0
LINE
  5
1B2
330
53
100
AcDbEntity
  8
LC-002-002-----0
  6
Continuous
 62
     7
100
AcDbLine
 10
333.3513889999999
 20
9.30000000000001
 30
0.0
 11
333.3513889999999
 21
-9.30000000000001
 31
0.0
  0
LINE
  5
1B3
330
53
100
AcDbEntity
  8
LC-002-002-----0
  6
Continuous
 62
     7
100
AcDbLine
 10
496.3197959999998
 20
56.40974599999998
 30
0.0
 11
493.8449220000002
 21
53.93487199999998
 31
0.0
  0
LINE
  5
1B4
330
53
100
AcDbEntity
  8
LC-002-002-----0
  6
Continuous
 62
     7
100
AcDbLine
 10
517.532999
 20
35.19654299999996
 30
0.0
 11
515.0581259999999
 21
32.72166899999996
 31
0.0
  0
LINE
  5
1B5
330
53
100
AcDbEntity
  8
LC-002-002-----0
  6
Continuous
 62
     7
100
AcDbLine
 10
499.8553299999999
 20
56.40974599999998
 30
0.0
 11
517.532999
 21
38.732077
 31
0.0
  0
LINE
  5
1B6
330
53
100
AcDbEntity
  8
LC-002-002-----0
  6
Continuous
 62
     7
100
AcDbLine
 10
506.9263980000001
 20
36.61075599999998
 30
0.0
 11
515.0581259999999
 21
28.47902799999997
 31
0.0
  0
LINE
  5
1B7
330
53
100
AcDbEntity
  8
LC-002-002-----0
  6
Continuous
 62
     7
100
AcDbLine
 10
489.6022809999999
 20
53.93487199999998
 30
0.0
 11
497.7340089999998
 21
45.80314399999997
 31
0.0
  0
LINE
  5
1B8
330
53
100
AcDbEntity
  8
LC-002-002-----0
  6
Continuous
 62
     7
100
AcDbLine
 10
501.9766500000001
 20
31.66100899999998
 30
0.0
 11
510.1083779999999
 21
23.52928099999997
 31
0.0
  0
LINE
  5
1B9
330
53
100
AcDbEntity
  8
LC-002-002-----0
  6
Continuous
 62
     7
100
AcDbLine
 10
461.351389
 20
-48.446957
 30
0.0
 11
461.3513889999999
 21
-43.74064200000004
 31
0.0
  0
LINE
  5
1BA
330
53
100
AcDbEntity
  8
LC-002-002-----0
  6
Continuous
 62
     7
100
AcDbLine
 10
486.3513889999999
 20
-48.446957
 30
0.0
 11
485.5577039999998
 21
-49.24064200000004
 31
0.0
  0
LINE
  5
1BB
330
53
100
AcDbEntity
  8
LC-002-002-----0
  6
Continuous
 62
     7
100
AcDbLine
 10
461.351389
 20
-48.446957
 30
0.0
 11
462.1450730000001
 21
-49.24064200000004
 31
0.0
  0
LINE
  5
1BC
330
53
100
AcDbEntity
  8
LC-002-002-----0
  6
Continuous
 62
     7
100
AcDbLine
 10
485.5577039999998
 20
-49.24064200000004
 30
0.0
 11
462.1450730000001
 21
-49.24064200000004
 31
0.0
  0
LINE
  5
1BD
330
53
100
AcDbEntity
  8
LC-002-002-----0
  6
Continuous
 62
     7
100
AcDbLine
 10
-20.0
 20
-88.0
 30
0.0
 11
-20.0
 21
-139.0
 31
0.0
  0
LINE
  5
1BE
330
53
100
AcDbEntity
  8
LC-002-002-----0
  6
Continuous
 62
     7
100
AcDbLine
 10
-25.0
 20
-143.0
 30
0.0
 11
-25.0
 21
-189.5000000000001
 31
0.0
  0
LINE
  5
1BF
330
53
100
AcDbEntity
  8
LC-002-002-----0
  6
Continuous
 62
     7
100
AcDbLine
 10
484.6525339999998
 20
48.98512499999998
 30
0.0
 11
492.7842620000001
 21
40.85339699999997
 31
0.0
  0
LINE
  5
1C0
330
53
100
AcDbEntity
  8
LC-002-002-----0
  6
Continuous
 62
     7
100
AcDbLine
 10
25.0
 20
-143.0
 30
0.0
 11
25.0
 21
-189.5000000000001
 31
0.0
  0
LINE
  5
1C1
330
53
100
AcDbEntity
  8
LC-002-002-----0
  6
Continuous
 62
     7
100
AcDbLine
 10
-300.040606
 20
19.841992
 30
0.0
 11
-300.040606
 21
40.841992
 31
0.0
  0
LINE
  5
1C2
330
53
100
AcDbEntity
  8
LC-002-002-----0
  6
Continuous
 62
     7
100
AcDbLine
 10
-385.881619
 20
26.54609599999998
 30
0.0
 11
-385.881619
 21
24.76435399999997
 31
0.0
  0
LINE
  5
1C3
330
53
100
AcDbEntity
  8
LC-002-002-----0
  6
Continuous
 62
     7
100
AcDbLine
 10
-300.040606
 20
-87.158008
 30
0.0
 11
-300.040606
 21
-2.25800800000002
 31
0.0
  0
LINE
  5
1C4
330
53
100
AcDbEntity
  8
LC-002-002-----0
  6
Continuous
 62
     7
100
AcDbLine
 10
-302.9406060000001
 20
22.341992
 30
0.0
 11
-316.040606
 21
22.341992
 31
0.0
  0
LINE
  5
1C5
330
53
100
AcDbEntity
  8
LC-002-002-----0
  6
Continuous
 62
     7
100
AcDbLine
 10
-326.1120719999999
 20
26.841992
 30
0.0
 11
-333.924254
 21
-13.658008
 31
0.0
  0
LINE
  5
1C6
330
53
100
AcDbEntity
  8
LC-002-002-----0
  6
Continuous
 62
     7
100
AcDbLine
 10
-295.040606
 20
19.841992
 30
0.0
 11
-295.040606
 21
37.841992
 31
0.0
  0
LINE
  5
1C7
330
53
100
AcDbEntity
  8
LC-002-002-----0
  6
Continuous
 62
     7
100
AcDbLine
 10
-295.040606
 20
-84.158008
 30
0.0
 11
-295.040606
 21
19.841992
 31
0.0
  0
LINE
  5
1C8
330
53
100
AcDbEntity
  8
LC-002-002-----0
  6
Continuous
 62
     7
100
AcDbLine
 10
-298.540606
 20
19.841992
 30
0.0
 11
-298.540606
 21
41.841992
 31
0.0
  0
LINE
  5
1C9
330
53
100
AcDbEntity
  8
LC-002-002-----0
  6
Continuous
 62
     7
100
AcDbLine
 10
-298.540606
 20
-88.158008
 30
0.0
 11
-298.540606
 21
-2.29056600000001
 31
0.0
  0
LINE
  5
1CA
330
53
100
AcDbEntity
  8
LC-002-002-----0
  6
Continuous
 62
     7
100
AcDbLine
 10
-297.040606
 20
19.841992
 30
0.0
 11
-297.040606
 21
40.841992
 31
0.0
  0
LINE
  5
1CB
330
53
100
AcDbEntity
  8
LC-002-002-----0
  6
Continuous
 62
     7
100
AcDbLine
 10
-297.040606
 20
-87.158008
 30
0.0
 11
-297.040606
 21
-2.25800800000002
 31
0.0
  0
LINE
  5
1CC
330
53
100
AcDbEntity
  8
LC-002-002-----0
  6
Continuous
 62
     7
100
AcDbLine
 10
230.0
 20
17.24000000000001
 30
0.0
 11
241.7200000000003
 21
17.24000000000001
 31
0.0
  0
LINE
  5
1CD
330
53
100
AcDbEntity
  8
LC-002-002-----0
  6
Continuous
 62
     7
100
AcDbLine
 10
-25.0
 20
-189.5000000000001
 30
0.0
 11
-24.06217800000013
 21
-193.0000000000001
 31
0.0
  0
LINE
  5
1CE
330
53
100
AcDbEntity
  8
LC-002-002-----0
  6
Continuous
 62
     7
100
AcDbLine
 10
25.0
 20
-189.5000000000001
 30
0.0
 11
24.06217800000013
 21
-193.0000000000001
 31
0.0
  0
LINE
  5
1CF
330
53
100
AcDbEntity
  8
LC-002-002-----0
  6
Continuous
 62
     7
100
AcDbLine
 10
31.62629800000013
 20
-83.60934600000002
 30
0.0
 11
35.802437
 21
-50.0
 31
0.0
  0
LINE
  5
1D0
330
53
100
AcDbEntity
  8
LC-002-002-----0
  6
Continuous
 62
     7
100
AcDbLine
 10
333.3513889999999
 20
-84.0
 30
0.0
 11
333.3513889999999
 21
20.0
 31
0.0
  0
LINE
  5
1D1
330
53
100
AcDbEntity
  8
LC-002-002-----0
  6
Continuous
 62
     7
100
AcDbLine
 10
323.3513889999999
 20
-73.0
 30
0.0
 11
320.3513889999999
 21
-73.0
 31
0.0
  0
LINE
  5
1D2
330
53
100
AcDbEntity
  8
LC-002-002-----0
  6
Continuous
 62
     7
100
AcDbLine
 10
323.3513889999999
 20
-26.99854200000004
 30
0.0
 11
320.3513889999999
 21
-26.99854200000004
 31
0.0
  0
LINE
  5
1D3
330
53
100
AcDbEntity
  8
LC-002-002-----0
  6
Continuous
 62
     7
100
AcDbLine
 10
323.3513889999999
 20
27.00145799999996
 30
0.0
 11
320.3513889999999
 21
27.00145799999996
 31
0.0
  0
LINE
  5
1D4
330
53
100
AcDbEntity
  8
LC-002-002-----0
  6
Continuous
 62
     7
100
AcDbLine
 10
323.3513889999999
 20
31.0
 30
0.0
 11
320.3513889999999
 21
31.0
 31
0.0
  0
LINE
  5
1D5
330
53
100
AcDbEntity
  8
LC-002-002-----0
  6
Continuous
 62
     7
100
AcDbLine
 10
323.3513889999999
 20
-26.99854200000004
 30
0.0
 11
333.3513889999999
 21
-26.99854200000004
 31
0.0
  0
LINE
  5
1D6
330
53
100
AcDbEntity
  8
LC-002-002-----0
  6
Continuous
 62
     7
100
AcDbLine
 10
323.3513889999999
 20
27.00145799999996
 30
0.0
 11
333.3513889999999
 21
27.00145799999996
 31
0.0
  0
LINE
  5
1D7
330
53
100
AcDbEntity
  8
LC-002-002-----0
  6
Continuous
 62
     7
100
AcDbLine
 10
323.3513889999999
 20
-73.0
 30
0.0
 11
323.3513889999999
 21
31.0
 31
0.0
  0
LINE
  5
1D8
330
53
100
AcDbEntity
  8
LC-002-002-----0
  6
Continuous
 62
     7
100
AcDbLine
 10
497.7340089999998
 20
45.80314399999997
 30
0.0
 11
492.7842620000001
 21
40.85339699999997
 31
0.0
  0
LINE
  5
1D9
330
53
100
AcDbEntity
  8
LC-002-002-----0
  6
Continuous
 62
     7
100
AcDbLine
 10
506.9263980000001
 20
36.61075599999998
 30
0.0
 11
501.9766500000001
 21
31.66100899999998
 31
0.0
  0
LINE
  5
1DA
330
53
100
AcDbEntity
  8
LC-002-002-----0
  6
Continuous
 62
     7
100
AcDbLine
 10
489.6022809999999
 20
53.93487199999998
 30
0.0
 11
484.6525339999998
 21
48.98512499999998
 31
0.0
  0
LINE
  5
1DB
330
53
100
AcDbEntity
  8
LC-002-002-----0
  6
Continuous
 62
     7
100
AcDbLine
 10
515.0581259999999
 20
28.47902799999997
 30
0.0
 11
510.1083779999999
 21
23.52928099999997
 31
0.0
  0
LINE
  5
1DC
330
53
100
AcDbEntity
  8
LC-002-002-----0
  6
Continuous
 62
     7
100
AcDbLine
 10
354.3513889999999
 20
-34.50279900000004
 30
0.0
 11
341.251389
 21
-34.50279900000004
 31
0.0
  0
LINE
  5
1DD
330
53
100
AcDbEntity
  8
LC-002-002-----0
  6
Continuous
 62
     7
100
AcDbLine
 10
354.3513889999999
 20
-44.50279900000004
 30
0.0
 11
354.3513889999999
 21
-34.50279900000004
 31
0.0
  0
LINE
  5
1DE
330
53
100
AcDbEntity
  8
LC-002-002-----0
  6
Continuous
 62
     7
100
AcDbLine
 10
354.3513889999999
 20
-44.50279900000004
 30
0.0
 11
341.251389
 21
-44.50279900000004
 31
0.0
  0
LINE
  5
1DF
330
53
100
AcDbEntity
  8
LC-002-002-----0
  6
Continuous
 62
     7
100
AcDbLine
 10
341.251389
 20
-44.50279900000004
 30
0.0
 11
341.251389
 21
-34.50279900000004
 31
0.0
  0
LINE
  5
1E0
330
53
100
AcDbEntity
  8
LC-002-002-----0
  6
Continuous
 62
     7
100
AcDbLine
 10
341.251389
 20
-23.0
 30
0.0
 11
341.251389
 21
-20.5
 31
0.0
  0
LINE
  5
1E1
330
53
100
AcDbEntity
  8
LC-002-002-----0
  6
Continuous
 62
     7
100
AcDbLine
 10
354.3513889999999
 20
-23.0
 30
0.0
 11
354.3513889999999
 21
-20.5
 31
0.0
  0
LINE
  5
1E2
330
53
100
AcDbEntity
  8
LC-002-002-----0
  6
Continuous
 62
     7
100
AcDbLine
 10
341.251389
 20
-20.5
 30
0.0
 11
354.3513889999999
 21
-20.5
 31
0.0
  0
LINE
  5
1E3
330
53
100
AcDbEntity
  8
LC-002-002-----0
  6
Continuous
 62
     7
100
AcDbLine
 10
341.251389
 20
-23.0
 30
0.0
 11
354.3513889999999
 21
-23.0
 31
0.0
  0
LINE
  5
1E4
330
53
100
AcDbEntity
  8
LC-002-002-----0
  6
Continuous
 62
     7
100
AcDbLine
 10
341.251389
 20
20.0
 30
0.0
 11
341.251389
 21
22.5
 31
0.0
  0
LINE
  5
1E5
330
53
100
AcDbEntity
  8
LC-002-002-----0
  6
Continuous
 62
     7
100
AcDbLine
 10
333.3513889999999
 20
-73.0
 30
0.0
 11
323.3513889999999
 21
-73.0
 31
0.0
  0
LINE
  5
1E6
330
53
100
AcDbEntity
  8
LC-002-002-----0
  6
Continuous
 62
     7
100
AcDbLine
 10
323.3513889999999
 20
31.0
 30
0.0
 11
333.3513889999999
 21
31.0
 31
0.0
  0
LINE
  5
1E7
330
53
100
AcDbEntity
  8
LC-002-002-----0
  6
Continuous
 62
     7
100
AcDbLine
 10
316.3513889999999
 20
-37.51481899999999
 30
0.0
 11
316.3513889999999
 21
-27.0
 31
0.0
  0
LINE
  5
1E8
330
53
100
AcDbEntity
  8
LC-002-002-----0
  6
Continuous
 62
     7
100
AcDbLine
 10
-386.8814789999999
 20
21.43017499999996
 30
0.0
 11
-385.881615
 21
21.134028
 31
0.0
  0
LINE
  5
1E9
330
53
100
AcDbEntity
  8
LC-002-002-----0
  6
Continuous
 62
     7
100
AcDbLine
 10
316.3513889999999
 20
-66.0
 30
0.0
 11
318.3513889999999
 21
-66.0
 31
0.0
  0
LINE
  5
1EA
330
53
100
AcDbEntity
  8
LC-002-002-----0
  6
Continuous
 62
     7
100
AcDbLine
 10
338.3513889999999
 20
40.0
 30
0.0
 11
359.8513889999999
 21
40.0
 31
0.0
  0
LINE
  5
1EB
330
53
100
AcDbEntity
  8
LC-002-002-----0
  6
Continuous
 62
     7
100
AcDbLine
 10
340.8513889999999
 20
-86.0
 30
0.0
 11
378.8513889999999
 21
-86.0
 31
0.0
  0
LINE
  5
1EC
330
53
100
AcDbEntity
  8
LC-002-002-----0
  6
Continuous
 62
     7
100
AcDbLine
 10
337.3513889999999
 20
42.0
 30
0.0
 11
336.3513889999999
 21
42.0
 31
0.0
  0
LINE
  5
1ED
330
53
100
AcDbEntity
  8
LC-002-002-----0
  6
Continuous
 62
     7
100
AcDbLine
 10
336.3513889999999
 20
-88.0
 30
0.0
 11
337.3513889999999
 21
-88.0
 31
0.0
  0
LINE
  5
1EE
330
53
100
AcDbEntity
  8
LC-002-002-----0
  6
Continuous
 62
     7
100
AcDbLine
 10
340.8513889999999
 20
-86.0
 30
0.0
 11
338.3513889999999
 21
-86.0
 31
0.0
  0
LINE
  5
1EF
330
53
100
AcDbEntity
  8
LC-002-002-----0
  6
Continuous
 62
     7
100
AcDbLine
 10
384.8513889999999
 20
-189.5000000000001
 30
0.0
 11
382.8306629999997
 21
-193.0000000000001
 31
0.0
  0
LINE
  5
1F0
330
53
100
AcDbEntity
  8
LC-002-002-----0
  6
Continuous
 62
     7
100
AcDbLine
 10
334.8513889999999
 20
-189.5000000000001
 30
0.0
 11
336.8721150000001
 21
-193.0000000000001
 31
0.0
  0
LINE
  5
1F1
330
53
100
AcDbEntity
  8
LC-008-001-----0
  6
Continuous
 62
     7
100
AcDbLine
 10
384.8513889999999
 20
-189.5000000000001
 30
0.0
 11
334.8513889999999
 21
-189.5000000000001
 31
0.0
  0
LINE
  5
1F2
330
53
100
AcDbEntity
  8
LC-002-002-----0
  6
Continuous
 62
     7
100
AcDbLine
 10
381.3513889999999
 20
-83.5
 30
0.0
 11
381.3513889999999
 21
-61.0
 31
0.0
  0
LINE
  5
1F3
330
53
100
AcDbEntity
  8
LC-002-002-----0
  6
Continuous
 62
     7
100
AcDbLine
 10
339.8513889999999
 20
-86.0
 30
0.0
 11
339.8513889999999
 21
-136.5
 31
0.0
  0
LINE
  5
1F4
330
53
100
AcDbEntity
  8
LC-002-002-----0
  6
Continuous
 62
     7
100
AcDbLine
 10
384.8513889999999
 20
-143.0
 30
0.0
 11
384.8513889999999
 21
-189.5000000000001
 31
0.0
  0
LINE
  5
1F5
330
53
100
AcDbEntity
  8
LC-002-002-----0
  6
Continuous
 62
     7
100
AcDbLine
 10
332.3513889999999
 20
-139.0
 30
0.0
 11
337.3513889999999
 21
-139.0
 31
0.0
  0
LINE
  5
1F6
330
53
100
AcDbEntity
  8
LC-002-002-----0
  6
Continuous
 62
     7
100
AcDbLine
 10
493.8449220000002
 20
53.93487199999998
 30
0.0
 11
515.0581259999999
 21
32.72166899999996
 31
0.0
  0
LINE
  5
1F7
330
53
100
AcDbEntity
  8
LC-002-002-----0
  6
Continuous
 62
     7
100
AcDbLine
 10
484.6525339999998
 20
44.74248399999999
 30
0.0
 11
470.5103979999999
 21
30.60034899999999
 31
0.0
  0
LINE
  5
1F8
330
53
100
AcDbEntity
  8
LC-002-002-----0
  6
Continuous
 62
     7
100
AcDbLine
 10
-386.8814809999999
 20
26.842242
 30
0.0
 11
-386.8813969999999
 21
-27.157757
 31
0.0
  0
LINE
  5
1F9
330
53
100
AcDbEntity
  8
LC-002-002-----0
  6
Continuous
 62
     7
100
AcDbLine
 10
505.8657370000001
 20
23.52928099999997
 30
0.0
 11
491.723602
 21
9.38714499999998
 31
0.0
  0
LINE
  5
1FA
330
53
100
AcDbEntity
  8
LC-002-002-----0
  6
Continuous
 62
     7
100
AcDbLine
 10
484.6525339999998
 20
44.74248399999999
 30
0.0
 11
505.8657370000001
 21
23.52928099999997
 31
0.0
  0
LINE
  5
1FB
330
53
100
AcDbEntity
  8
LC-002-002-----0
  6
Continuous
 62
     7
100
AcDbLine
 10
491.723602
 20
9.38714499999998
 30
0.0
 11
490.132611
 21
10.97813500000001
 31
0.0
  0
LINE
  5
1FC
330
53
100
AcDbEntity
  8
LC-002-002-----0
  6
Continuous
 62
     7
100
AcDbLine
 10
-386.8814789999999
 20
25.93017499999996
 30
0.0
 11
-385.881615
 21
25.634028
 31
0.0
  0
LINE
  5
1FD
330
53
100
AcDbEntity
  8
LC-002-002-----0
  6
Continuous
 62
     7
100
AcDbLine
 10
470.5103979999999
 20
30.60034899999999
 30
0.0
 11
472.1013889999999
 21
29.00935799999996
 31
0.0
  0
LINE
  5
1FE
330
53
100
AcDbEntity
  8
LC-002-002-----0
  6
Continuous
 62
     7
100
AcDbLine
 10
460.8513889999999
 20
-14.24064200000004
 30
0.0
 11
460.8513889999999
 21
-16.74064200000004
 31
0.0
  0
LINE
  5
1FF
330
53
100
AcDbEntity
  8
LC-002-002-----0
  6
Continuous
 62
     7
100
AcDbLine
 10
435.8513889999999
 20
-12.74064200000004
 30
0.0
 11
459.3513889999999
 21
-12.74064200000004
 31
0.0
  0
LINE
  5
200
330
53
100
AcDbEntity
  8
LC-002-002-----0
  6
Continuous
 62
     7
100
AcDbLine
 10
486.8513889999999
 20
-16.74064200000004
 30
0.0
 11
486.8513889999999
 21
5.62584499999997
 31
0.0
  0
LINE
  5
201
330
53
100
AcDbEntity
  8
LC-002-002-----0
  6
Continuous
 62
     7
100
AcDbLine
 10
490.132611
 20
10.97813500000001
 30
0.0
 11
488.3158549999998
 21
9.16137900000001
 31
0.0
  0
LINE
  5
202
330
53
100
AcDbEntity
  8
LC-002-002-----0
  6
Continuous
 62
     7
100
AcDbLine
 10
457.3158549999998
 20
14.22382399999998
 30
0.0
 11
472.1013889999999
 21
29.00935799999996
 31
0.0
  0
LINE
  5
203
330
53
100
AcDbEntity
  8
LC-002-002-----0
  6
Continuous
 62
     7
100
AcDbLine
 10
453.7803210000002
 20
12.75935799999996
 30
0.0
 11
435.8513889999999
 21
12.75935799999996
 31
0.0
  0
LINE
  5
204
330
53
100
AcDbEntity
  8
LC-002-002-----0
  6
Continuous
 62
     7
100
AcDbLine
 10
472.1013889999999
 20
29.00935799999996
 30
0.0
 11
490.132611
 21
10.97813500000001
 31
0.0
  0
LINE
  5
205
330
53
100
AcDbEntity
  8
LC-002-002-----0
  6
Continuous
 62
     7
100
AcDbLine
 10
461.3513889999999
 20
-43.74064200000004
 30
0.0
 11
461.3513889999999
 21
-41.24064200000004
 31
0.0
  0
LINE
  5
206
330
53
100
AcDbEntity
  8
LC-002-002-----0
  6
Continuous
 62
     7
100
AcDbLine
 10
486.351389
 20
-41.24064200000004
 30
0.0
 11
486.3513889999999
 21
-48.446957
 31
0.0
  0
LINE
  5
207
330
53
100
AcDbEntity
  8
LC-002-002-----0
  6
Continuous
 62
     7
100
AcDbLine
 10
338.3513889999999
 20
27.0
 30
0.0
 11
338.3513889999999
 21
41.0
 31
0.0
  0
LINE
  5
208
330
53
100
AcDbEntity
  8
LC-002-002-----0
  6
Continuous
 62
     7
100
AcDbLine
 10
338.3513889999999
 20
-87.0
 30
0.0
 11
338.3513889999999
 21
-12.07071400000001
 31
0.0
  0
LINE
  5
209
330
53
100
AcDbEntity
  8
LC-002-002-----0
  6
Continuous
 62
     7
100
AcDbLine
 10
341.251389
 20
22.5
 30
0.0
 11
354.3513889999999
 21
22.5
 31
0.0
  0
LINE
  5
20A
330
53
100
AcDbEntity
  8
LC-002-002-----0
  6
Continuous
 62
     7
100
AcDbLine
 10
-302.9406060000001
 20
19.841992
 30
0.0
 11
-316.040606
 21
19.841992
 31
0.0
  0
LINE
  5
20B
330
53
100
AcDbEntity
  8
LC-002-002-----0
  6
Continuous
 62
     7
100
AcDbLine
 10
-303.040606
 20
4.841992
 30
0.0
 11
-303.040606
 21
-5.158008
 31
0.0
  0
LINE
  5
20C
330
53
100
AcDbEntity
  8
LC-002-002-----0
  6
Continuous
 62
     7
100
AcDbLine
 10
364.4228539999999
 20
27.0
 30
0.0
 11
367.0269149999999
 21
13.5
 31
0.0
  0
LINE
  5
20D
330
53
100
AcDbEntity
  8
LC-002-002-----0
  6
Continuous
 62
     7
100
AcDbLine
 10
333.3513889999999
 20
20.0
 30
0.0
 11
333.3513889999999
 21
38.0
 31
0.0
  0
LINE
  5
20E
330
53
100
AcDbEntity
  8
LC-002-002-----0
  6
Continuous
 62
     7
100
AcDbLine
 10
333.3513889999999
 20
-84.0
 30
0.0
 11
333.3513889999999
 21
20.0
 31
0.0
  0
LINE
  5
20F
330
53
100
AcDbEntity
  8
LC-002-002-----0
  6
Continuous
 62
     7
100
AcDbLine
 10
336.8513889999999
 20
27.0
 30
0.0
 11
336.8513889999999
 21
42.0
 31
0.0
  0
LINE
  5
210
330
53
100
AcDbEntity
  8
LC-002-002-----0
  6
Continuous
 62
     7
100
AcDbLine
 10
336.8513889999999
 20
-88.0
 30
0.0
 11
336.8513889999999
 21
-9.30000000000001
 31
0.0
  0
LINE
  5
211
330
53
100
AcDbEntity
  8
LC-002-002-----0
  6
Continuous
 62
     7
100
AcDbLine
 10
-386.880756
 20
-6.24580500000002
 30
0.0
 11
-385.8809269999999
 21
-5.94954000000001
 31
0.0
  0
LINE
  5
212
330
53
100
AcDbEntity
  8
LC-002-002-----0
  6
Continuous
 62
     7
100
AcDbLine
 10
-385.8809269999999
 20
-5.94954000000001
 30
0.0
 11
-385.881615
 21
-0.15750400000002
 31
0.0
  0
LINE
  5
213
330
53
100
AcDbEntity
  8
LC-002-002-----0
  6
Continuous
 62
     7
100
AcDbLine
 10
-386.8814809999999
 20
26.842242
 30
0.0
 11
-385.881619
 21
26.54609599999998
 31
0.0
  0
LINE
  5
214
330
53
100
AcDbEntity
  8
LC-002-002-----0
  6
Continuous
 62
     7
100
AcDbLine
 10
-385.881611
 20
24.76435399999997
 30
0.0
 11
-386.8814749999999
 21
23.38255099999998
 31
0.0
  0
LINE
  5
215
330
53
100
AcDbEntity
  8
LC-002-002-----0
  6
Continuous
 62
     7
100
AcDbLine
 10
335.3513889999999
 20
27.0
 30
0.0
 11
335.3513889999999
 21
41.0
 31
0.0
  0
LINE
  5
216
330
53
100
AcDbEntity
  8
LC-002-002-----0
  6
Continuous
 62
     7
100
AcDbLine
 10
335.3513889999999
 20
-87.0
 30
0.0
 11
335.3513889999999
 21
-9.30000000000001
 31
0.0
  0
LINE
  5
217
330
53
100
AcDbEntity
  8
LC-002-002-----0
  6
Continuous
 62
     7
100
AcDbLine
 10
-316.040606
 20
19.841992
 30
0.0
 11
-316.040606
 21
22.341992
 31
0.0
  0
LINE
  5
218
330
53
100
AcDbEntity
  8
LC-002-002-----0
  6
Continuous
 62
     7
100
AcDbLine
 10
-316.040606
 20
4.841992
 30
0.0
 11
-303.040606
 21
4.841992
 31
0.0
  0
LINE
  5
219
330
53
100
AcDbEntity
  8
LC-002-002-----0
  6
Continuous
 62
     7
100
AcDbLine
 10
486.1013889999999
 20
-36.24064200000004
 30
0.0
 11
487.3513889999999
 21
-36.24064200000004
 31
0.0
  0
LINE
  5
21A
330
53
100
AcDbEntity
  8
LC-002-002-----0
  6
Continuous
 62
     7
100
AcDbLine
 10
-316.040606
 20
-5.158008
 30
0.0
 11
-303.040606
 21
-5.158008
 31
0.0
  0
LINE
  5
21B
330
53
100
AcDbEntity
  8
LC-002-002-----0
  6
Continuous
 62
     7
100
AcDbLine
 10
-326.1120719999999
 20
26.841992
 30
0.0
 11
-323.995355
 21
37.81549699999999
 31
0.0
  0
LINE
  5
21C
330
53
100
AcDbEntity
  8
LC-002-002-----0
  6
Continuous
 62
     7
100
AcDbLine
 10
-342.995355
 20
-60.68450300000001
 30
0.0
 11
-333.924254
 21
-13.658008
 31
0.0
  0
LINE
  5
21D
330
53
100
AcDbEntity
  8
LC-002-002-----0
  6
Continuous
 62
     7
100
AcDbLine
 10
460.3513889999999
 20
-36.24064200000004
 30
0.0
 11
461.6013889999999
 21
-36.24064200000004
 31
0.0
  0
LINE
  5
21E
330
53
100
AcDbEntity
  8
LC-002-002-----0
  6
Continuous
 62
     7
100
AcDbLine
 10
460.3513889999999
 20
-41.24064200000004
 30
0.0
 11
460.3513889999999
 21
-36.24064200000004
 31
0.0
  0
LINE
  5
21F
330
53
100
AcDbEntity
  8
LC-002-002-----0
  6
Continuous
 62
     7
100
AcDbLine
 10
487.3513889999999
 20
-41.24064200000004
 30
0.0
 11
460.3513889999999
 21
-41.24064200000004
 31
0.0
  0
LINE
  5
220
330
53
100
AcDbEntity
  8
LC-002-002-----0
  6
Continuous
 62
     7
100
AcDbLine
 10
-316.040606
 20
-5.158008
 30
0.0
 11
-316.040606
 21
4.841992
 31
0.0
  0
LINE
  5
221
330
53
100
AcDbEntity
  8
LC-002-002-----0
  6
Continuous
 62
     7
100
AcDbLine
 10
487.3513889999999
 20
-36.24064200000004
 30
0.0
 11
487.3513889999999
 21
-41.24064200000004
 31
0.0
  0
LINE
  5
222
330
53
100
AcDbEntity
  8
LC-002-002-----0
  6
Continuous
 62
     7
100
AcDbLine
 10
-328.1374519999999
 20
16.341992
 30
0.0
 11
-335.0816150000001
 21
16.341992
 31
0.0
  0
LINE
  5
223
330
53
100
AcDbEntity
  8
LC-002-002-----0
  6
Continuous
 62
     7
100
AcDbLine
 10
461.6013889999999
 20
-36.24064200000004
 30
0.0
 11
461.6013889999999
 21
-33.74064200000004
 31
0.0
  0
LINE
  5
224
330
53
100
AcDbEntity
  8
LC-002-002-----0
  6
Continuous
 62
     7
100
AcDbLine
 10
-303.040606
 20
-5.158008
 30
0.0
 11
-303.040606
 21
4.841992
 31
0.0
  0
LINE
  5
225
330
53
100
AcDbEntity
  8
LC-002-002-----0
  6
Continuous
 62
     7
100
AcDbLine
 10
-300.540606
 20
-139.158008
 30
0.0
 11
-349.040606
 21
-139.158008
 31
0.0
  0
LINE
  5
226
330
53
100
AcDbEntity
  8
LC-002-002-----0
  6
Continuous
 62
     7
100
AcDbLine
 10
-296.540606
 20
-189.6580080000001
 30
0.0
 11
-296.540606
 21
-143.158008
 31
0.0
  0
LINE
  5
227
330
53
100
AcDbEntity
  8
LC-002-002-----0
  6
Continuous
 62
     7
100
AcDbLine
 10
-344.5198800000001
 20
-193.1580080000001
 30
0.0
 11
-298.5613320000002
 21
-193.1580080000001
 31
0.0
  0
LINE
  5
228
330
53
100
AcDbEntity
  8
LC-002-002-----0
  6
Continuous
 62
     7
100
AcDbLine
 10
486.1013889999999
 20
-36.24064200000004
 30
0.0
 11
461.6013889999999
 21
-36.24064200000004
 31
0.0
  0
LINE
  5
229
330
53
100
AcDbEntity
  8
LC-002-002-----0
  6
Continuous
 62
     7
100
AcDbLine
 10
-341.540606
 20
-136.833452
 30
0.0
 11
-341.540606
 21
-86.158008
 31
0.0
  0
LINE
  5
22A
330
53
100
AcDbEntity
  8
LC-002-002-----0
  6
Continuous
 62
     7
100
AcDbLine
 10
341.251389
 20
20.0
 30
0.0
 11
354.3513889999999
 21
20.0
 31
0.0
  0
LINE
  5
22B
330
53
100
AcDbEntity
  8
LC-002-002-----0
  6
Continuous
 62
     7
100
AcDbLine
 10
-349.040606
 20
-139.158008
 30
0.0
 11
-349.040606
 21
-141.658008
 31
0.0
  0
LINE
  5
22C
330
53
100
AcDbEntity
  8
LC-002-002-----0
  6
Continuous
 62
     7
100
AcDbLine
 10
-346.248705
 20
-141.658008
 30
0.0
 11
-349.040606
 21
-141.658008
 31
0.0
  0
LINE
  5
22D
330
53
100
AcDbEntity
  8
LC-002-002-----0
  6
Continuous
 62
     7
100
AcDbLine
 10
-294.040606
 20
-139.158008
 30
0.0
 11
-294.040606
 21
-141.658008
 31
0.0
  0
LINE
  5
22E
330
53
100
AcDbEntity
  8
LC-002-002-----0
  6
Continuous
 62
     7
100
AcDbLine
 10
-294.040606
 20
-141.658008
 30
0.0
 11
-296.8325070000001
 21
-141.658008
 31
0.0
  0
LINE
  5
22F
330
53
100
AcDbEntity
  8
LC-002-002-----0
  6
Continuous
 62
     7
100
AcDbLine
 10
486.1013889999999
 20
-33.74064200000004
 30
0.0
 11
486.1013889999999
 21
-36.24064200000004
 31
0.0
  0
LINE
  5
230
330
53
100
AcDbEntity
  8
LC-002-002-----0
  6
Continuous
 62
     7
100
AcDbLine
 10
458.3513889999999
 20
-19.24064200000004
 30
0.0
 11
489.3513889999999
 21
-19.24064200000004
 31
0.0
  0
LINE
  5
231
330
53
100
AcDbEntity
  8
LC-002-002-----0
  6
Continuous
 62
     7
100
AcDbLine
 10
486.8513889999999
 20
-16.74064200000004
 30
0.0
 11
489.3513889999999
 21
-19.24064200000004
 31
0.0
  0
LINE
  5
232
330
53
100
AcDbEntity
  8
LC-002-002-----0
  6
Continuous
 62
     7
100
AcDbLine
 10
460.8513889999999
 20
-16.74064200000004
 30
0.0
 11
458.3513889999999
 21
-19.24064200000004
 31
0.0
  0
LINE
  5
233
330
53
100
AcDbEntity
  8
LC-002-002-----0
  6
Continuous
 62
     7
100
AcDbLine
 10
489.3513889999999
 20
-19.24064200000004
 30
0.0
 11
489.3513889999999
 21
-33.74064200000004
 31
0.0
  0
LINE
  5
234
330
53
100
AcDbEntity
  8
LC-002-002-----0
  6
Continuous
 62
     7
100
AcDbLine
 10
458.3513889999999
 20
-33.74064200000004
 30
0.0
 11
458.3513889999999
 21
-19.24064200000004
 31
0.0
  0
LINE
  5
235
330
53
100
AcDbEntity
  8
LC-002-002-----0
  6
Continuous
 62
     7
100
AcDbLine
 10
489.3513889999999
 20
-33.74064200000004
 30
0.0
 11
458.3513889999999
 21
-33.74064200000004
 31
0.0
  0
LINE
  5
236
330
53
100
AcDbEntity
  8
LC-002-002-----0
  6
Continuous
 62
     7
100
AcDbLine
 10
460.8513889999999
 20
-16.74064200000004
 30
0.0
 11
486.8513889999999
 21
-16.74064200000004
 31
0.0
  0
LINE
  5
237
330
53
100
AcDbEntity
  8
LC-002-002-----0
  6
Continuous
 62
     7
100
AcDbLine
 10
418.1810219999998
 20
-50.50528700000001
 30
0.0
 11
422.3090540000003
 21
-46.39069000000001
 31
0.0
  0
LINE
  5
238
330
53
100
AcDbEntity
  8
LC-002-002-----0
  6
Continuous
 62
     7
100
AcDbLine
 10
354.3513889999999
 20
20.0
 30
0.0
 11
354.3513889999999
 21
22.5
 31
0.0
  0
LINE
  5
239
330
53
100
AcDbEntity
  8
LC-002-002-----0
  6
Continuous
 62
     7
100
AcDbLine
 10
316.3513889999999
 20
27.0
 30
0.0
 11
316.3513889999999
 21
40.51481899999999
 31
0.0
  0
LINE
  5
23A
330
53
100
AcDbEntity
  8
LC-002-002-----0
  6
Continuous
 62
     7
100
AcDbLine
 10
364.4228539999999
 20
27.0
 30
0.0
 11
362.3061379999999
 21
37.97350499999999
 31
0.0
  0
LINE
  5
23B
330
53
100
AcDbEntity
  8
LC-002-002-----0
  6
Continuous
 62
     7
100
AcDbLine
 10
320.3513889999999
 20
40.51481899999999
 30
0.0
 11
316.3513889999999
 21
40.51481899999999
 31
0.0
  0
LINE
  5
23C
330
53
100
AcDbEntity
  8
LC-002-002-----0
  6
Continuous
 62
     7
100
AcDbLine
 10
320.3513889999999
 20
27.0
 30
0.0
 11
320.3513889999999
 21
40.51481899999999
 31
0.0
  0
LINE
  5
23D
330
53
100
AcDbEntity
  8
LC-002-002-----0
  6
Continuous
 62
     7
100
AcDbLine
 10
381.3061379999999
 20
-60.52649500000001
 30
0.0
 11
372.2350369999999
 21
-13.5
 31
0.0
  0
LINE
  5
23E
330
53
100
AcDbEntity
  8
LC-002-002-----0
  6
Continuous
 62
     7
100
AcDbLine
 10
434.8513889999999
 20
10.50935799999996
 30
0.0
 11
434.8513889999999
 21
-10.49064200000004
 31
0.0
  0
LINE
  5
23F
330
53
100
AcDbEntity
  8
LC-002-002-----0
  6
Continuous
 62
     7
100
AcDbLine
 10
434.8513889999999
 20
13.5
 30
0.0
 11
434.8513889999999
 21
-13.5
 31
0.0
  0
LINE
  5
240
330
53
100
AcDbEntity
  8
LC-002-002-----0
  6
Continuous
 62
     7
100
AcDbLine
 10
435.8513889999999
 20
-12.5
 30
0.0
 11
434.8513889999999
 21
-13.5
 31
0.0
  0
LINE
  5
241
330
53
100
AcDbEntity
  8
LC-002-002-----0
  6
Continuous
 62
     7
100
AcDbLine
 10
338.8513889999999
 20
-139.0
 30
0.0
 11
387.3513889999999
 21
-139.0
 31
0.0
  0
LINE
  5
242
330
53
100
AcDbEntity
  8
LC-002-002-----0
  6
Continuous
 62
     7
100
AcDbLine
 10
334.8513889999999
 20
-189.5000000000001
 30
0.0
 11
334.8513889999999
 21
-143.0
 31
0.0
  0
LINE
  5
243
330
53
100
AcDbEntity
  8
LC-002-002-----0
  6
Continuous
 62
     7
100
AcDbLine
 10
382.8306629999997
 20
-193.0000000000001
 30
0.0
 11
336.8721150000001
 21
-193.0000000000001
 31
0.0
  0
LINE
  5
244
330
53
100
AcDbEntity
  8
LC-002-002-----0
  6
Continuous
 62
     7
100
AcDbLine
 10
379.8513889999999
 20
-136.675444
 30
0.0
 11
379.8513889999999
 21
-86.0
 31
0.0
  0
LINE
  5
245
330
53
100
AcDbEntity
  8
LC-002-002-----0
  6
Continuous
 62
     7
100
AcDbLine
 10
387.3513889999999
 20
-139.0
 30
0.0
 11
387.3513889999999
 21
-141.5
 31
0.0
  0
LINE
  5
246
330
53
100
AcDbEntity
  8
LC-002-002-----0
  6
Continuous
 62
     7
100
AcDbLine
 10
384.5594879999999
 20
-141.5
 30
0.0
 11
387.3513889999999
 21
-141.5
 31
0.0
  0
LINE
  5
247
330
53
100
AcDbEntity
  8
LC-002-002-----0
  6
Continuous
 62
     7
100
AcDbLine
 10
332.3513889999999
 20
-139.0
 30
0.0
 11
332.3513889999999
 21
-141.5
 31
0.0
  0
LINE
  5
248
330
53
100
AcDbEntity
  8
LC-002-002-----0
  6
Continuous
 62
     7
100
AcDbLine
 10
332.3513889999999
 20
-141.5
 30
0.0
 11
335.1432890000001
 21
-141.5
 31
0.0
  0
LINE
  5
249
330
53
100
AcDbEntity
  8
LC-002-002-----0
  6
Continuous
 62
     7
100
AcDbLine
 10
318.3513889999999
 20
-37.51481899999999
 30
0.0
 11
318.3513889999999
 21
-73.0
 31
0.0
  0
LINE
  5
24A
330
53
100
AcDbEntity
  8
LC-002-002-----0
  6
Continuous
 62
     7
100
AcDbLine
 10
320.3513889999999
 20
-37.51481899999999
 30
0.0
 11
316.3513889999999
 21
-37.51481899999999
 31
0.0
  0
LINE
  5
24B
330
53
100
AcDbEntity
  8
LC-002-002-----0
  6
Continuous
 62
     7
100
AcDbLine
 10
316.3513889999999
 20
-73.0
 30
0.0
 11
316.3513889999999
 21
-66.0
 31
0.0
  0
LINE
  5
24C
330
53
100
AcDbEntity
  8
LC-002-002-----0
  6
Continuous
 62
     7
100
AcDbLine
 10
435.8513889999999
 20
12.5
 30
0.0
 11
434.8513889999999
 21
13.5
 31
0.0
  0
LINE
  5
24D
330
53
100
AcDbEntity
  8
LC-002-002-----0
  6
Continuous
 62
     7
100
AcDbLine
 10
320.3513889999999
 20
-73.0
 30
0.0
 11
316.3513889999999
 21
-73.0
 31
0.0
  0
LINE
  5
24E
330
53
100
AcDbEntity
  8
LC-002-002-----0
  6
Continuous
 62
     7
100
AcDbLine
 10
92.99572900000021
 20
-16.75
 30
0.0
 11
95.49572900000021
 21
-19.25
 31
0.0
  0
LINE
  5
24F
330
53
100
AcDbEntity
  8
LC-002-002-----0
  6
Continuous
 62
     7
100
AcDbLine
 10
320.3513889999999
 20
-62.0
 30
0.0
 11
320.3513889999999
 21
-73.0
 31
0.0
  0
LINE
  5
250
330
53
100
AcDbEntity
  8
LC-002-002-----0
  6
Continuous
 62
     7
100
AcDbLine
 10
320.3513889999999
 20
-10.0
 30
0.0
 11
320.3513889999999
 21
-18.0
 31
0.0
  0
LINE
  5
251
330
53
100
AcDbEntity
  8
LC-002-002-----0
  6
Continuous
 62
     7
100
AcDbLine
 10
320.3513889999999
 20
18.0
 30
0.0
 11
320.3513889999999
 21
10.0
 31
0.0
  0
LINE
  5
252
330
53
100
AcDbEntity
  8
LC-002-002-----0
  6
Continuous
 62
     7
100
AcDbLine
 10
316.3513889999999
 20
25.5
 30
0.0
 11
316.3513889999999
 21
27.0
 31
0.0
  0
LINE
  5
253
330
53
100
AcDbEntity
  8
LC-002-002-----0
  6
Continuous
 62
     7
100
AcDbLine
 10
318.3513889999999
 20
25.5
 30
0.0
 11
316.3513889999999
 21
25.5
 31
0.0
  0
LINE
  5
254
330
53
100
AcDbEntity
  8
LC-002-002-----0
  6
Continuous
 62
     7
100
AcDbLine
 10
318.3513889999999
 20
-25.5
 30
0.0
 11
318.3513889999999
 21
25.5
 31
0.0
  0
LINE
  5
255
330
53
100
AcDbEntity
  8
LC-002-002-----0
  6
Continuous
 62
     7
100
AcDbLine
 10
316.3513889999999
 20
-25.5
 30
0.0
 11
318.3513889999999
 21
-25.5
 31
0.0
  0
LINE
  5
256
330
53
100
AcDbEntity
  8
LC-002-002-----0
  6
Continuous
 62
     7
100
AcDbLine
 10
418.1810219999998
 20
50.50528700000001
 30
0.0
 11
422.3090540000003
 21
46.39069000000001
 31
0.0
  0
LINE
  5
257
330
53
100
AcDbEntity
  8
LC-002-002-----0
  6
Continuous
 62
     7
100
AcDbLine
 10
418.1810219999998
 20
50.50528700000001
 30
0.0
 11
418.1810219999998
 21
-50.50528700000001
 31
0.0
  0
LINE
  5
258
330
53
100
AcDbEntity
  8
LC-002-002-----0
  6
Continuous
 62
     7
100
AcDbLine
 10
66.99572900000021
 20
-16.75
 30
0.0
 11
64.49572900000021
 21
-19.25
 31
0.0
  0
LINE
  5
259
330
53
100
AcDbEntity
  8
LC-002-002-----0
  6
Continuous
 62
     7
100
AcDbLine
 10
-137.5
 20
50.0
 30
0.0
 11
-94.052999
 21
50.0
 31
0.0
  0
LINE
  5
25A
330
53
100
AcDbEntity
  8
LC-002-002-----0
  6
Continuous
 62
     7
100
AcDbLine
 10
95.49572900000021
 20
-19.25
 30
0.0
 11
95.49572900000021
 21
-33.75
 31
0.0
  0
LINE
  5
25B
330
53
100
AcDbEntity
  8
LC-002-002-----0
  6
Continuous
 62
     7
100
AcDbLine
 10
64.49572900000021
 20
-33.75
 30
0.0
 11
64.49572900000021
 21
-19.25
 31
0.0
  0
LINE
  5
25C
330
53
100
AcDbEntity
  8
LC-002-002-----0
  6
Continuous
 62
     7
100
AcDbLine
 10
95.49572900000021
 20
-33.75
 30
0.0
 11
64.49572900000021
 21
-33.75
 31
0.0
  0
LINE
  5
25D
330
53
100
AcDbEntity
  8
LC-002-002-----0
  6
Continuous
 62
     7
100
AcDbLine
 10
66.99572900000021
 20
-16.75
 30
0.0
 11
92.99572900000021
 21
-16.75
 31
0.0
  0
LINE
  5
25E
330
53
100
AcDbEntity
  8
LC-002-002-----0
  6
Continuous
 62
     7
100
AcDbLine
 10
316.3513889999999
 20
-27.0
 30
0.0
 11
316.3513889999999
 21
-25.5
 31
0.0
  0
LINE
  5
25F
330
53
100
AcDbEntity
  8
LC-002-002-----0
  6
Continuous
 62
     7
100
AcDbLine
 10
320.3513889999999
 20
-27.0
 30
0.0
 11
316.3513889999999
 21
-27.0
 31
0.0
  0
LINE
  5
260
330
53
100
AcDbEntity
  8
LC-002-002-----0
  6
Continuous
 62
     7
100
AcDbLine
 10
320.3513889999999
 20
-18.0
 30
0.0
 11
320.3513889999999
 21
-62.0
 31
0.0
  0
LINE
  5
261
330
53
100
AcDbEntity
  8
LC-002-002-----0
  6
Continuous
 62
     7
100
AcDbLine
 10
320.3513889999999
 20
10.0
 30
0.0
 11
320.3513889999999
 21
-10.0
 31
0.0
  0
LINE
  5
262
330
53
100
AcDbEntity
  8
LC-002-002-----0
  6
Continuous
 62
     7
100
AcDbLine
 10
320.3513889999999
 20
27.0
 30
0.0
 11
320.3513889999999
 21
18.0
 31
0.0
  0
LINE
  5
263
330
53
100
AcDbEntity
  8
LC-002-002-----0
  6
Continuous
 62
     7
100
AcDbLine
 10
316.3513889999999
 20
27.0
 30
0.0
 11
320.3513889999999
 21
27.0
 31
0.0
  0
LINE
  5
264
330
53
100
AcDbEntity
  8
LC-002-002-----0
  6
Continuous
 62
     7
100
AcDbLine
 10
-297.040606
 20
1.94199199999997
 30
0.0
 11
-297.040606
 21
19.841992
 31
0.0
  0
LINE
  5
265
330
53
100
AcDbEntity
  8
LC-002-002-----0
  6
Continuous
 62
     7
100
AcDbLine
 10
-298.540606
 20
1.94199199999997
 30
0.0
 11
-298.540606
 21
19.841992
 31
0.0
  0
LINE
  5
266
330
53
100
AcDbEntity
  8
LC-002-002-----0
  6
Continuous
 62
     7
100
AcDbLine
 10
-300.040606
 20
1.94199199999997
 30
0.0
 11
-300.040606
 21
19.841992
 31
0.0
  0
LINE
  5
267
330
53
100
AcDbEntity
  8
LC-002-002-----0
  6
Continuous
 62
     7
100
AcDbLine
 10
-360.881615
 20
-16.658008
 30
0.0
 11
-360.881615
 21
16.341992
 31
0.0
  0
LINE
  5
268
330
53
100
AcDbEntity
  8
LC-002-002-----0
  6
Continuous
 62
     7
100
AcDbLine
 10
20.0
 20
-88.0
 30
0.0
 11
20.0
 21
-139.0
 31
0.0
  0
LINE
  5
269
330
53
100
AcDbEntity
  8
LC-002-002-----0
  6
Continuous
 62
     7
100
AcDbLine
 10
260.8600000000001
 20
25.0
 30
0.0
 11
260.8600000000001
 21
-25.0
 31
0.0
  0
LINE
  5
26A
330
53
100
AcDbEntity
  8
LC-002-002-----0
  6
Continuous
 62
     7
100
AcDbLine
 10
-28.98152200000004
 20
-88.0
 30
0.0
 11
26.66356700000006
 21
-88.0
 31
0.0
  0
LINE
  5
26B
330
53
100
AcDbEntity
  8
LC-002-002-----0
  6
Continuous
 62
     7
100
AcDbLine
 10
94.04872699999987
 20
50.0
 30
0.0
 11
137.5
 21
50.0
 31
0.0
  0
LINE
  5
26C
330
53
100
AcDbEntity
  8
LC-002-002-----0
  6
DASHED
 62
     7
100
AcDbLine
 10
-107.000729
 20
22.00145799999996
 30
0.0
 11
-107.000729
 21
-21.99854200000004
 31
0.0
  0
LINE
  5
26D
330
53
100
AcDbEntity
  8
LC-002-002-----0
  6
DASHED
 62
     7
100
AcDbLine
 10
101.999271
 20
-26.99854200000004
 30
0.0
 11
47.99927100000002
 21
-26.99854200000004
 31
0.0
  0
LINE
  5
26E
330
53
100
AcDbEntity
  8
LC-002-002-----0
  6
DASHED
 62
     7
100
AcDbLine
 10
56.00427100000002
 20
27.00145799999996
 30
0.0
 11
-55.99572899999998
 21
27.00145799999996
 31
0.0
  0
LINE
  5
26F
330
53
100
AcDbEntity
  8
LC-002-002-----0
  6
DASHED
 62
     7
100
AcDbLine
 10
-47.99072899999999
 20
-26.99854200000004
 30
0.0
 11
-102.000729
 21
-26.99854200000004
 31
0.0
  0
LINE
  5
270
330
53
100
AcDbEntity
  8
LC-002-002-----0
  6
DASHED
 62
     7
100
AcDbLine
 10
106.999271
 20
22.00145799999996
 30
0.0
 11
106.999271
 21
-21.99854200000004
 31
0.0
  0
LINE
  5
271
330
53
100
AcDbEntity
  8
LC-002-002-----0
  6
Continuous
 62
     7
100
AcDbLine
 10
-360.881615
 20
-15.158008
 30
0.0
 11
-380.881615
 21
-15.158008
 31
0.0
  0
LINE
  5
272
330
53
100
AcDbEntity
  8
LC-002-002-----0
  6
Continuous
 62
     7
100
AcDbLine
 10
-360.881615
 20
14.841992
 30
0.0
 11
-380.881615
 21
14.841992
 31
0.0
  0
LINE
  5
273
330
53
100
AcDbEntity
  8
LC-002-002-----0
  6
DASHED
 62
     7
100
AcDbLine
 10
-37.99072899999999
 20
-73.0
 30
0.0
 11
32.94456500000001
 21
-73.0
 31
0.0
  0
LINE
  5
274
330
53
100
AcDbEntity
  8
LC-002-002-----0
  6
DASHED
 62
     7
100
AcDbLine
 10
-51.99572899999998
 20
-29.51481899999999
 30
0.0
 11
-47.99572899999998
 21
-29.51481899999999
 31
0.0
  0
LINE
  5
275
330
53
100
AcDbEntity
  8
LC-002-002-----0
  6
DASHED
 62
     7
100
AcDbLine
 10
-51.99572899999998
 20
-35.51481899999999
 30
0.0
 11
-47.99572899999998
 21
-35.51481899999999
 31
0.0
  0
LINE
  5
276
330
53
100
AcDbEntity
  8
LC-002-002-----0
  6
DASHED
 62
     7
100
AcDbLine
 10
-43.99572899999998
 20
35.51481899999999
 30
0.0
 11
-43.99572899999998
 21
27.0
 31
0.0
  0
LINE
  5
277
330
53
100
AcDbEntity
  8
LC-002-002-----0
  6
DASHED
 62
     7
100
AcDbLine
 10
-46.99572899999998
 20
35.51481899999999
 30
0.0
 11
-46.99572899999998
 21
31.51481899999999
 31
0.0
  0
LINE
  5
278
330
53
100
AcDbEntity
  8
LC-002-002-----0
  6
DASHED
 62
     7
100
AcDbLine
 10
-52.99572899999998
 20
35.51481899999999
 30
0.0
 11
-52.99572899999998
 21
31.51481899999999
 31
0.0
  0
LINE
  5
279
330
53
100
AcDbEntity
  8
LC-002-002-----0
  6
DASHED
 62
     7
100
AcDbLine
 10
-55.99572899999998
 20
35.51481899999999
 30
0.0
 11
-55.99572899999998
 21
27.0
 31
0.0
  0
LINE
  5
27A
330
53
100
AcDbEntity
  8
LC-002-002-----0
  6
DASHED
 62
     7
100
AcDbLine
 10
57.00427100000002
 20
-32.51481899999999
 30
0.0
 11
57.00427100000002
 21
-27.0
 31
0.0
  0
LINE
  5
27B
330
53
100
AcDbEntity
  8
LC-002-002-----0
  6
DASHED
 62
     7
100
AcDbLine
 10
52.00427100000002
 20
-37.51481899999999
 30
0.0
 11
42.99927100000002
 21
-37.51481899999999
 31
0.0
  0
LINE
  5
27C
330
53
100
AcDbEntity
  8
LC-002-002-----0
  6
DASHED
 62
     7
100
AcDbLine
 10
52.00427100000002
 20
-29.51481899999999
 30
0.0
 11
48.00427100000002
 21
-29.51481899999999
 31
0.0
  0
LINE
  5
27D
330
53
100
AcDbEntity
  8
LC-002-002-----0
  6
DASHED
 62
     7
100
AcDbLine
 10
52.00427100000002
 20
-35.51481899999999
 30
0.0
 11
48.00427100000002
 21
-35.51481899999999
 31
0.0
  0
LINE
  5
27E
330
53
100
AcDbEntity
  8
LC-002-002-----0
  6
DASHED
 62
     7
100
AcDbLine
 10
53.00427100000002
 20
35.51481899999999
 30
0.0
 11
53.00427100000002
 21
31.51481899999999
 31
0.0
  0
LINE
  5
27F
330
53
100
AcDbEntity
  8
LC-002-002-----0
  6
DASHED
 62
     7
100
AcDbLine
 10
47.00427100000002
 20
35.51481899999999
 30
0.0
 11
47.00427100000002
 21
31.51481899999999
 31
0.0
  0
LINE
  5
280
330
53
100
AcDbEntity
  8
LC-002-002-----0
  6
DASHED
 62
     7
100
AcDbLine
 10
44.00427100000002
 20
35.51481899999999
 30
0.0
 11
44.00427100000002
 21
27.0
 31
0.0
  0
LINE
  5
281
330
53
100
AcDbEntity
  8
LC-002-002-----0
  6
DASHED
 62
     7
100
AcDbLine
 10
56.00427100000002
 20
35.51481899999999
 30
0.0
 11
56.00427100000002
 21
27.0
 31
0.0
  0
LINE
  5
282
330
53
100
AcDbEntity
  8
LC-002-002-----0
  6
DASHED
 62
     7
100
AcDbLine
 10
-55.99572899999998
 20
27.0
 30
0.0
 11
-101.995729
 21
27.0
 31
0.0
  0
LINE
  5
283
330
53
100
AcDbEntity
  8
LC-002-002-----0
  6
Continuous
 62
     7
100
AcDbLine
 10
-67.5
 20
-46.26909900000004
 30
0.0
 11
-92.5
 21
-48.45631600000002
 31
0.0
  0
LINE
  5
284
330
53
100
AcDbEntity
  8
LC-002-002-----0
  6
Continuous
 62
     7
100
AcDbLine
 10
-67.5
 20
-45.26527900000002
 30
0.0
 11
-92.5
 21
-47.452496
 31
0.0
  0
LINE
  5
285
330
53
100
AcDbEntity
  8
LC-002-002-----0
  6
Continuous
 62
     7
100
AcDbLine
 10
-67.5
 20
-44.261459
 30
0.0
 11
-92.5
 21
-46.44867600000003
 31
0.0
  0
LINE
  5
286
330
53
100
AcDbEntity
  8
LC-002-002-----0
  6
Continuous
 62
     7
100
AcDbLine
 10
-67.5
 20
-43.25763900000004
 30
0.0
 11
-92.5
 21
-45.44485600000002
 31
0.0
  0
LINE
  5
287
330
53
100
AcDbEntity
  8
LC-002-002-----0
  6
Continuous
 62
     7
100
AcDbLine
 10
-67.5
 20
-42.25382000000002
 30
0.0
 11
-92.5
 21
-44.441036
 31
0.0
  0
LINE
  5
288
330
53
100
AcDbEntity
  8
LC-002-002-----0
  6
Continuous
 62
     7
100
AcDbLine
 10
-80.0
 20
-41.339788
 30
0.0
 11
-92.5
 21
-42.43339700000001
 31
0.0
  0
LINE
  5
289
330
53
100
AcDbEntity
  8
LC-002-002-----0
  6
Continuous
 62
     7
100
AcDbLine
 10
-67.5
 20
-47.272919
 30
0.0
 11
-90.098139
 21
-49.25
 31
0.0
  0
LINE
  5
28A
330
53
100
AcDbEntity
  8
LC-002-002-----0
  6
Continuous
 62
     7
100
AcDbLine
 10
-67.5
 20
-48.27673900000002
 30
0.0
 11
-78.62442599999997
 21
-49.25
 31
0.0
  0
LINE
  5
28B
330
53
100
AcDbEntity
  8
LC-002-002-----0
  6
Continuous
 62
     7
100
AcDbLine
 10
-67.5
 20
-41.25
 30
0.0
 11
-92.5
 21
-43.43721600000003
 31
0.0
  0
LINE
  5
28C
330
53
100
AcDbEntity
  8
LC-002-002-----0
  6
DASHED
 62
     7
100
AcDbLine
 10
36.484399
 20
-44.51160600000003
 30
0.0
 11
37.5
 21
-36.33810500000004
 31
0.0
  0
LINE
  5
28D
330
53
100
AcDbEntity
  8
LC-002-002-----0
  6
DASHED
 62
     7
100
AcDbLine
 10
35.802437
 20
-50.0
 30
0.0
 11
41.99981700000001
 21
-0.12381099999999
 31
0.0
  0
LINE
  5
28E
330
53
100
AcDbEntity
  8
LC-002-002-----0
  6
DASHED
 62
     7
100
AcDbLine
 10
-56.99572899999998
 20
-32.51481899999999
 30
0.0
 11
-56.99572899999998
 21
-27.0
 31
0.0
  0
LINE
  5
28F
330
53
100
AcDbEntity
  8
LC-002-002-----0
  6
DASHED
 62
     7
100
AcDbLine
 10
-140.0
 20
25.0
 30
0.0
 11
140.0
 21
25.0
 31
0.0
  0
LINE
  5
290
330
53
100
AcDbEntity
  8
LC-006-002-___-0
  6
DASHED
 62
     7
100
AcDbLine
 10
-81.53022900000002
 20
9.17252999999999
 30
0.0
 11
-93.49572899999998
 21
7.17078599999996
 31
0.0
  0
LINE
  5
291
330
53
100
AcDbEntity
  8
LC-006-002-___-0
  6
DASHED
 62
     7
100
AcDbLine
 10
-78.461229
 20
-9.17252999999999
 30
0.0
 11
-68.80965199999997
 21
-7.55788899999999
 31
0.0
  0
LINE
  5
292
330
53
100
AcDbEntity
  8
LC-002-002-----0
  6
DASHED
 62
     7
100
AcDbLine
 10
-100.985729
 20
-5.91776100000004
 30
0.0
 11
-91.181806
 21
-7.55788899999999
 31
0.0
  0
LINE
  5
293
330
53
100
AcDbEntity
  8
LC-002-002-----0
  6
DASHED
 62
     7
100
AcDbLine
 10
-140.0
 20
-25.0
 30
0.0
 11
139.0
 21
-25.0
 31
0.0
  0
LINE
  5
294
330
53
100
AcDbEntity
  8
LC-002-002-----0
  6
DASHED
 62
     7
100
AcDbLine
 10
-101.037656
 20
5.90907499999997
 30
0.0
 11
-93.49572899999998
 21
7.17078599999996
 31
0.0
  0
LINE
  5
295
330
53
100
AcDbEntity
  8
LC-002-002-----0
  6
DASHED
 62
     7
100
AcDbLine
 10
-59.00572899999997
 20
-5.91776100000004
 30
0.0
 11
-68.80965199999997
 21
-7.55788899999999
 31
0.0
  0
LINE
  5
296
330
53
100
AcDbEntity
  8
LC-002-002-----0
  6
DASHED
 62
     7
100
AcDbLine
 10
-58.953802
 20
5.90907499999997
 30
0.0
 11
-66.49572899999998
 21
7.17078599999996
 31
0.0
  0
LINE
  5
297
330
53
100
AcDbEntity
  8
LC-006-002-___-0
  6
DASHED
 62
     7
100
AcDbLine
 10
-78.461229
 20
9.17252999999999
 30
0.0
 11
-66.49572899999998
 21
7.17078599999996
 31
0.0
  0
LINE
  5
298
330
53
100
AcDbEntity
  8
LC-006-002-___-0
  6
DASHED
 62
     7
100
AcDbLine
 10
-81.53022900000002
 20
-9.17252999999999
 30
0.0
 11
-91.181806
 21
-7.55788899999999
 31
0.0
  0
LINE
  5
299
330
53
100
AcDbEntity
  8
LC-002-002-----0
  6
DASHED
 62
     7
100
AcDbLine
 10
-66.49572899999998
 20
9.37778700000001
 30
0.0
 11
-66.49572899999998
 21
27.0
 31
0.0
  0
LINE
  5
29A
330
53
100
AcDbEntity
  8
LC-002-002-----0
  6
DASHED
 62
     7
100
AcDbLine
 10
-93.49572899999998
 20
9.37778700000001
 30
0.0
 11
-93.49572899999998
 21
27.0
 31
0.0
  0
LINE
  5
29B
330
53
100
AcDbEntity
  8
LC-002-002-----0
  6
DASHED
 62
     7
100
AcDbLine
 10
-51.99572899999998
 20
-37.51481899999999
 30
0.0
 11
-42.99572899999998
 21
-37.51481899999999
 31
0.0
  0
LINE
  5
29C
330
53
100
AcDbEntity
  8
LC-002-002-----0
  6
DASHED
 62
     7
100
AcDbLine
 10
-27.49572899999998
 20
-73.0
 30
0.0
 11
-37.99572899999998
 21
-73.0
 31
0.0
  0
LINE
  5
29D
330
53
100
AcDbEntity
  8
LC-002-002-----0
  6
Continuous
 62
     7
100
AcDbLine
 10
147.5
 20
-50.0
 30
0.0
 11
136.5
 21
-50.0
 31
0.0
  0
LINE
  5
29E
330
53
100
AcDbEntity
  8
LC-002-002-----0
  6
DASHED
 62
     7
100
AcDbLine
 10
-106.995729
 20
22.0
 30
0.0
 11
-106.995729
 21
-22.0
 31
0.0
  0
LINE
  5
29F
330
53
100
AcDbEntity
  8
LC-002-002-----0
  6
DASHED
 62
     7
100
AcDbLine
 10
102.004271
 20
27.0
 30
0.0
 11
56.00427100000002
 21
27.0
 31
0.0
  0
LINE
  5
2A0
330
53
100
AcDbEntity
  8
LC-002-002-----0
  6
DASHED
 62
     7
100
AcDbLine
 10
107.004271
 20
-22.0
 30
0.0
 11
107.004271
 21
22.0
 31
0.0
  0
LINE
  5
2A1
330
53
100
AcDbEntity
  8
LC-002-002-----0
  6
DASHED
 62
     7
100
AcDbLine
 10
-42.99072899999999
 20
-50.0
 30
0.0
 11
-42.99072899999999
 21
-31.99854200000004
 31
0.0
  0
LINE
  5
2A2
330
53
100
AcDbEntity
  8
LC-002-002-----0
  6
DASHED
 62
     7
100
AcDbLine
 10
42.99927100000002
 20
-50.0
 30
0.0
 11
42.99927100000002
 21
-31.99854200000004
 31
0.0
  0
LINE
  5
2A3
330
53
100
AcDbEntity
  8
LC-002-002-----0
  6
Continuous
 62
     7
100
AcDbLine
 10
92.49572899999998
 20
-46.26909900000004
 30
0.0
 11
67.49572899999998
 21
-48.45631600000002
 31
0.0
  0
LINE
  5
2A4
330
53
100
AcDbEntity
  8
LC-002-002-----0
  6
Continuous
 62
     7
100
AcDbLine
 10
92.49572899999998
 20
-45.26527900000002
 30
0.0
 11
67.49572899999998
 21
-47.452496
 31
0.0
  0
LINE
  5
2A5
330
53
100
AcDbEntity
  8
LC-002-002-----0
  6
Continuous
 62
     7
100
AcDbLine
 10
92.49572899999998
 20
-44.261459
 30
0.0
 11
67.49572899999998
 21
-46.44867600000003
 31
0.0
  0
LINE
  5
2A6
330
53
100
AcDbEntity
  8
LC-002-002-----0
  6
Continuous
 62
     7
100
AcDbLine
 10
92.49572899999998
 20
-43.25763900000004
 30
0.0
 11
67.49572899999998
 21
-45.44485600000002
 31
0.0
  0
LINE
  5
2A7
330
53
100
AcDbEntity
  8
LC-002-002-----0
  6
Continuous
 62
     7
100
AcDbLine
 10
92.49572899999998
 20
-42.25382000000002
 30
0.0
 11
67.49572899999998
 21
-44.441036
 31
0.0
  0
LINE
  5
2A8
330
53
100
AcDbEntity
  8
LC-002-002-----0
  6
Continuous
 62
     7
100
AcDbLine
 10
79.99572899999998
 20
-41.339788
 30
0.0
 11
67.49572899999998
 21
-42.43339700000001
 31
0.0
  0
LINE
  5
2A9
330
53
100
AcDbEntity
  8
LC-002-002-----0
  6
Continuous
 62
     7
100
AcDbLine
 10
92.49572899999998
 20
-47.272919
 30
0.0
 11
69.89759000000004
 21
-49.25
 31
0.0
  0
LINE
  5
2AA
330
53
100
AcDbEntity
  8
LC-002-002-----0
  6
Continuous
 62
     7
100
AcDbLine
 10
92.49572899999998
 20
-48.27673900000002
 30
0.0
 11
81.37130300000001
 21
-49.25
 31
0.0
  0
LINE
  5
2AB
330
53
100
AcDbEntity
  8
LC-002-002-----0
  6
Continuous
 62
     7
100
AcDbLine
 10
92.49572899999998
 20
-41.25
 30
0.0
 11
67.49572899999998
 21
-43.43721600000003
 31
0.0
  0
LINE
  5
2AC
330
53
100
AcDbEntity
  8
LC-002-002-----0
  6
Continuous
 62
     7
100
AcDbLine
 10
426.287336
 20
28.601136
 30
0.0
 11
426.287336
 21
-28.601136
 31
0.0
  0
LINE
  5
2AD
330
53
100
AcDbEntity
  8
LC-006-002-___-0
  6
DASHED
 62
     7
100
AcDbLine
 10
78.46550000000002
 20
9.17252999999999
 30
0.0
 11
61.62990100000002
 21
6.35605299999997
 31
0.0
  0
LINE
  5
2AE
330
53
100
AcDbEntity
  8
LC-006-002-___-0
  6
DASHED
 62
     7
100
AcDbLine
 10
81.53450000000004
 20
-9.17252999999999
 30
0.0
 11
91.18607700000001
 21
-7.55788899999999
 31
0.0
  0
LINE
  5
2AF
330
53
100
AcDbEntity
  8
LC-002-002-----0
  6
DASHED
 62
     7
100
AcDbLine
 10
59.00999999999999
 20
-5.91776100000004
 30
0.0
 11
68.81392299999999
 21
-7.55788899999999
 31
0.0
  0
LINE
  5
2B0
330
53
100
AcDbEntity
  8
LC-002-002-----0
  6
DASHED
 62
     7
100
AcDbLine
 10
58.95807300000001
 20
5.90907499999997
 30
0.0
 11
66.5
 21
7.17078599999996
 31
0.0
  0
LINE
  5
2B1
330
53
100
AcDbEntity
  8
LC-002-002-----0
  6
DASHED
 62
     7
100
AcDbLine
 10
100.99
 20
-5.91776100000004
 30
0.0
 11
91.18607700000001
 21
-7.55788899999999
 31
0.0
  0
LINE
  5
2B2
330
53
100
AcDbEntity
  8
LC-002-002-----0
  6
DASHED
 62
     7
100
AcDbLine
 10
356.651389
 20
27.0
 30
0.0
 11
356.651389
 21
9.30752100000001
 31
0.0
  0
LINE
  5
2B3
330
53
100
AcDbEntity
  8
LC-002-002-----0
  6
DASHED
 62
     7
100
AcDbLine
 10
338.051389
 20
27.0
 30
0.0
 11
338.051389
 21
0.70752099999999
 31
0.0
  0
LINE
  5
2B4
330
53
100
AcDbEntity
  8
LC-002-002-----0
  6
DASHED
 62
     7
100
AcDbLine
 10
435.851389
 20
-10.47247900000002
 30
0.0
 11
434.671389
 21
-9.29247900000001
 31
0.0
  0
LINE
  5
2B5
330
53
100
AcDbEntity
  8
LC-002-002-----0
  6
DASHED
 62
     7
100
AcDbLine
 10
435.851389
 20
10.48752099999996
 30
0.0
 11
434.671389
 21
9.30752100000001
 31
0.0
  0
LINE
  5
2B6
330
53
100
AcDbEntity
  8
LC-002-002-----0
  6
DASHED
 62
     7
100
AcDbLine
 10
396.351389
 20
-10.47247900000002
 30
0.0
 11
435.851389
 21
-10.47247900000002
 31
0.0
  0
LINE
  5
2B7
330
53
100
AcDbEntity
  8
LC-002-002-----0
  6
DASHED
 62
     7
100
AcDbLine
 10
348.051389
 20
-9.29247900000001
 30
0.0
 11
434.671389
 21
-9.29247900000001
 31
0.0
  0
LINE
  5
2B8
330
53
100
AcDbEntity
  8
LC-002-002-----0
  6
DASHED
 62
     7
100
AcDbLine
 10
356.65891
 20
9.30752100000001
 30
0.0
 11
434.671389
 21
9.30752100000001
 31
0.0
  0
LINE
  5
2B9
330
53
100
AcDbEntity
  8
LC-002-002-----0
  6
DASHED
 62
     7
100
AcDbLine
 10
-41.99998199999999
 20
-0.03858600000001
 30
0.0
 11
-40.07038499999999
 21
-50.0
 31
0.0
  0
LINE
  5
2BA
330
53
100
AcDbEntity
  8
LC-002-002-----0
  6
DASHED
 62
     7
100
AcDbLine
 10
396.351389
 20
10.48752099999996
 30
0.0
 11
435.851389
 21
10.48752099999996
 31
0.0
  0
LINE
  5
2BB
330
53
100
AcDbEntity
  8
LC-002-002-----0
  6
DASHED
 62
     7
100
AcDbLine
 10
434.851389
 20
-9.49064200000004
 30
0.0
 11
423.819026
 21
-9.49064200000004
 31
0.0
  0
LINE
  5
2BC
330
53
100
AcDbEntity
  8
LC-002-002-----0
  6
DASHED
 62
     7
100
AcDbLine
 10
423.819026
 20
9.50985099999997
 30
0.0
 11
434.819026
 21
9.50985099999997
 31
0.0
  0
LINE
  5
2BD
330
53
100
AcDbEntity
  8
LC-002-002-----0
  6
DASHED
 62
     7
100
AcDbLine
 10
424.819026
 20
-10.49064200000004
 30
0.0
 11
424.819026
 21
10.50985099999997
 31
0.0
  0
LINE
  5
2BE
330
53
100
AcDbEntity
  8
LC-002-002-----0
  6
DASHED
 62
     7
100
AcDbLine
 10
422.819026
 20
8.50985099999997
 30
0.0
 11
424.819026
 21
10.50985099999997
 31
0.0
  0
LINE
  5
2BF
330
53
100
AcDbEntity
  8
LC-002-002-----0
  6
DASHED
 62
     7
100
AcDbLine
 10
424.819026
 20
-10.49064200000004
 30
0.0
 11
422.819026
 21
-8.49064200000004
 31
0.0
  0
LINE
  5
2C0
330
53
100
AcDbEntity
  8
LC-002-002-----0
  6
DASHED
 62
     7
100
AcDbLine
 10
396.351389
 20
-10.48752100000002
 30
0.0
 11
435.851389
 21
-10.48752100000002
 31
0.0
  0
LINE
  5
2C1
330
53
100
AcDbEntity
  8
LC-002-002-----0
  6
DASHED
 62
     7
100
AcDbLine
 10
422.819026
 20
-8.49064200000004
 30
0.0
 11
422.819026
 21
8.50985099999997
 31
0.0
  0
LINE
  5
2C2
330
53
100
AcDbEntity
  8
LC-002-002-----0
  6
DASHED
 62
     7
100
AcDbLine
 10
424.819026
 20
10.50985099999997
 30
0.0
 11
434.819026
 21
10.50985099999997
 31
0.0
  0
LINE
  5
2C3
330
53
100
AcDbEntity
  8
LC-002-002-----0
  6
Continuous
 62
     7
100
AcDbLine
 10
473.851389
 20
-41.33043000000004
 30
0.0
 11
461.351389
 21
-42.424038
 31
0.0
  0
LINE
  5
2C4
330
53
100
AcDbEntity
  8
LC-002-002-----0
  6
Continuous
 62
     7
100
AcDbLine
 10
486.351389
 20
-47.26356100000004
 30
0.0
 11
463.75325
 21
-49.24064200000004
 31
0.0
  0
LINE
  5
2C5
330
53
100
AcDbEntity
  8
LC-002-002-----0
  6
Continuous
 62
     7
100
AcDbLine
 10
486.351389
 20
-46.25974100000002
 30
0.0
 11
461.351389
 21
-48.446957
 31
0.0
  0
LINE
  5
2C6
330
53
100
AcDbEntity
  8
LC-002-002-----0
  6
Continuous
 62
     7
100
AcDbLine
 10
486.351389
 20
-45.255921
 30
0.0
 11
461.351389
 21
-47.44313800000003
 31
0.0
  0
LINE
  5
2C7
330
53
100
AcDbEntity
  8
LC-002-002-----0
  6
Continuous
 62
     7
100
AcDbLine
 10
486.351389
 20
-44.25210100000004
 30
0.0
 11
461.351389
 21
-46.43931800000001
 31
0.0
  0
LINE
  5
2C8
330
53
100
AcDbEntity
  8
LC-002-002-----0
  6
Continuous
 62
     7
100
AcDbLine
 10
486.351389
 20
-43.24828100000002
 30
0.0
 11
461.351389
 21
-45.435498
 31
0.0
  0
LINE
  5
2C9
330
53
100
AcDbEntity
  8
LC-002-002-----0
  6
Continuous
 62
     7
100
AcDbLine
 10
486.351389
 20
-42.244461
 30
0.0
 11
461.351389
 21
-44.43167800000003
 31
0.0
  0
LINE
  5
2CA
330
53
100
AcDbEntity
  8
LC-002-002-----0
  6
Continuous
 62
     7
100
AcDbLine
 10
486.351389
 20
-41.24064200000004
 30
0.0
 11
461.351389
 21
-43.42785800000001
 31
0.0
  0
LINE
  5
2CB
330
53
100
AcDbEntity
  8
LC-002-002-----0
  6
DASHED
 62
     7
100
AcDbLine
 10
101.041927
 20
5.90907499999997
 30
0.0
 11
93.5
 21
7.17078599999996
 31
0.0
  0
LINE
  5
2CC
330
53
100
AcDbEntity
  8
LC-002-002-----0
  6
Continuous
 62
     7
100
AcDbLine
 10
455.851389
 20
12.75935799999996
 30
0.0
 11
455.851389
 21
0.00935799999996
 31
0.0
  0
LINE
  5
2CD
330
53
100
AcDbEntity
  8
LC-002-002-----0
  6
Continuous
 62
     7
100
AcDbLine
 10
460.851389
 20
-12.74064200000004
 30
0.0
 11
473.851389
 21
0.00935799999996
 31
0.0
  0
LINE
  5
2CE
330
53
100
AcDbEntity
  8
LC-002-002-----0
  6
DASHED
 62
     7
100
AcDbLine
 10
-316.040606
 20
-42.260807
 30
0.0
 11
-302.940606
 21
-42.260807
 31
0.0
  0
LINE
  5
2CF
330
53
100
AcDbEntity
  8
LC-002-002-----0
  6
DASHED
 62
     7
100
AcDbLine
 10
-316.040606
 20
-37.06080700000001
 30
0.0
 11
-302.940606
 21
-37.06080700000001
 31
0.0
  0
LINE
  5
2D0
330
53
100
AcDbEntity
  8
LC-002-002-----0
  6
DASHED
 62
     7
100
AcDbLine
 10
354.351389
 20
-42.102799
 30
0.0
 11
341.251389
 21
-42.102799
 31
0.0
  0
LINE
  5
2D1
330
53
100
AcDbEntity
  8
LC-002-002-----0
  6
DASHED
 62
     7
100
AcDbLine
 10
354.351389
 20
-36.90279900000002
 30
0.0
 11
341.251389
 21
-36.90279900000002
 31
0.0
  0
LINE
  5
2D2
330
53
100
AcDbEntity
  8
LC-002-002-----0
  6
DASHED
 62
     7
100
AcDbLine
 10
396.351389
 20
10.48752099999996
 30
0.0
 11
396.351389
 21
-10.47247900000002
 31
0.0
  0
LINE
  5
2D3
330
53
100
AcDbEntity
  8
LC-006-002-___-0
  6
DASHED
 62
     7
100
AcDbLine
 10
81.53450000000004
 20
9.17252999999999
 30
0.0
 11
93.5
 21
7.17078599999996
 31
0.0
  0
LINE
  5
2D4
330
53
100
AcDbEntity
  8
LC-006-002-___-0
  6
DASHED
 62
     7
100
AcDbLine
 10
78.46550000000002
 20
-9.17252999999999
 30
0.0
 11
68.81392299999999
 21
-7.55788899999999
 31
0.0
  0
LINE
  5
2D5
330
53
100
AcDbEntity
  8
LC-002-002-----0
  6
DASHED
 62
     7
100
AcDbLine
 10
93.5
 20
9.37778700000001
 30
0.0
 11
93.5
 21
27.0
 31
0.0
  0
LINE
  5
2D6
330
53
100
AcDbEntity
  8
LC-002-002-----0
  6
DASHED
 62
     7
100
AcDbLine
 10
32.94456500000001
 20
-73.0
 30
0.0
 11
37.99927100000002
 21
-73.0
 31
0.0
  0
LINE
  5
2D7
330
53
100
AcDbEntity
  8
LC-002-002-----0
  6
DASHED
 62
     7
100
AcDbLine
 10
66.5
 20
9.37778700000001
 30
0.0
 11
66.5
 21
27.0
 31
0.0
  0
LINE
  5
2D8
330
53
100
AcDbEntity
  8
LC-002-002-----0
  6
DASHED
 62
     7
100
AcDbLine
 10
93.5
 20
27.0
 30
0.0
 11
66.5
 21
27.0
 31
0.0
  0
LINE
  5
2D9
330
53
100
AcDbEntity
  8
LC-002-002-----0
  6
DASHDOT
 62
     7
100
AcDbLine
 10
38.62607800000001
 20
-39.00279900000004
 30
0.0
 11
46.22607800000003
 21
-39.00279900000004
 31
0.0
  0
LINE
  5
2DA
330
53
100
AcDbEntity
  8
1
  6
PHANTOM
 62
     2
100
AcDbLine
 10
0.0
 20
48.99999999999994
 30
0.0
 11
0.0
 21
-199.672656409454
 31
0.0
  0
LINE
  5
2DB
330
53
100
AcDbEntity
  8
1
  6
PHANTOM
 62
     2
100
AcDbLine
 10
-80.0
 20
63.75235042863102
 30
0.0
 11
-80.0
 21
-54.44387507993503
 31
0.0
  0
LINE
  5
2DC
330
53
100
AcDbEntity
  8
1
  6
PHANTOM
 62
     2
100
AcDbLine
 10
79.99572900000021
 20
65.651084974953
 30
0.0
 11
79.99572900000021
 21
-54.44387507993503
 31
0.0
  0
LINE
  5
2DD
330
53
100
AcDbEntity
  8
1
  6
PHANTOM
 62
     2
100
AcDbLine
 10
-321.540606
 20
-81.32394632071595
 30
0.0
 11
-321.540606
 21
-197.997910511972
 31
0.0
  0
LINE
  5
2DE
330
53
100
AcDbEntity
  8
1
  6
PHANTOM
 62
     2
100
AcDbLine
 10
359.8513889999999
 20
-197.277301270277
 30
0.0
 11
359.8513889999999
 21
-75.181571224572
 31
0.0
  0
LINE
  5
2DF
330
53
100
AcDbEntity
  8
1
  6
PHANTOM
 62
     2
100
AcDbLine
 10
-289.8999186606389
 20
-0.15800799999994
 30
0.0
 11
-442.5325204195278
 21
-0.15800800000005
 31
0.0
  0
LINE
  5
2E0
330
53
100
AcDbEntity
  8
1
  6
PHANTOM
 62
     2
100
AcDbLine
 10
-316.040606
 20
-39.66080700000001
 30
0.0
 11
-302.940606
 21
-39.66080700000001
 31
0.0
  0
LINE
  5
2E1
330
53
100
AcDbEntity
  8
1
  6
PHANTOM
 62
     2
100
AcDbLine
 10
-49.99572899999998
 20
41.1712377778627
 30
0.0
 11
-49.99572899999998
 21
27.0
 31
0.0
  0
LINE
  5
2E2
330
53
100
AcDbEntity
  8
1
  6
PHANTOM
 62
     2
100
AcDbLine
 10
-56.99572899999998
 20
-32.25668050000002
 30
0.0
 11
-42.99572899999998
 21
-32.25668050000002
 31
0.0
  0
LINE
  5
2E3
330
53
100
AcDbEntity
  8
1
  6
PHANTOM
 62
     2
100
AcDbLine
 10
50.00427100000002
 20
42.082647788625
 30
0.0
 11
50.00427100000002
 21
27.0
 31
0.0
  0
LINE
  5
2E4
330
53
100
AcDbEntity
  8
1
  6
PHANTOM
 62
     2
100
AcDbLine
 10
57.00427100000002
 20
-32.25668050000002
 30
0.0
 11
42.99927100000002
 21
-32.25668050000002
 31
0.0
  0
LINE
  5
2E5
330
53
100
AcDbEntity
  8
1
  6
PHANTOM
 62
     2
100
AcDbLine
 10
312.0912342833008
 20
0.00935799999996
 30
0.0
 11
473.851389
 21
0.00935799999996
 31
0.0
  0
LINE
  5
2E6
330
53
100
AcDbEntity
  8
1
  6
PHANTOM
 62
     2
100
AcDbLine
 10
473.8513889999999
 20
-48.446957
 30
0.0
 11
473.8513889999999
 21
16.64465349692651
 31
0.0
  0
LINE
  5
2E7
330
53
100
AcDbEntity
  8
1
  6
PHANTOM
 62
     2
100
AcDbLine
 10
511.5735653124393
 20
50.45031346604378
 30
0.0
 11
469.6269533419704
 21
8.50369852950132
 31
0.0
  0
LINE
  5
2E8
330
53
100
AcDbEntity
  8
1
  6
PHANTOM
 62
     2
100
AcDbLine
 10
354.351389
 20
-39.50279900000001
 30
0.0
 11
341.251389
 21
-39.50279900000001
 31
0.0
  0
LINE
  5
2E9
330
53
100
AcDbEntity
  8
1
  6
PHANTOM
 62
     2
100
AcDbLine
 10
-96.69572899999997
 20
0.0
 30
0.0
 11
-103.295729
 21
0.0
 31
0.0
  0
LINE
  5
2EA
330
53
100
AcDbEntity
  8
1
  6
PHANTOM
 62
     2
100
AcDbLine
 10
-99.99572899999998
 20
3.30000000000001
 30
0.0
 11
-99.99572899999998
 21
-3.30000000000001
 31
0.0
  0
LINE
  5
2EB
330
53
100
AcDbEntity
  8
1
  6
PHANTOM
 62
     2
100
AcDbLine
 10
-56.69572899999997
 20
0.0
 30
0.0
 11
-63.29572899999999
 21
0.0
 31
0.0
  0
LINE
  5
2EC
330
53
100
AcDbEntity
  8
1
  6
PHANTOM
 62
     2
100
AcDbLine
 10
-59.99572899999998
 20
3.30000000000001
 30
0.0
 11
-59.99572899999998
 21
-3.30000000000001
 31
0.0
  0
LINE
  5
2ED
330
53
100
AcDbEntity
  8
1
  6
PHANTOM
 62
     2
100
AcDbLine
 10
-41.5
 20
0.0
 30
0.0
 11
-52.5
 21
0.0
 31
0.0
  0
LINE
  5
2EE
330
53
100
AcDbEntity
  8
1
  6
PHANTOM
 62
     2
100
AcDbLine
 10
-47.0
 20
5.5
 30
0.0
 11
-47.0
 21
-5.5
 31
0.0
  0
LINE
  5
2EF
330
53
100
AcDbEntity
  8
1
  6
PHANTOM
 62
     2
100
AcDbLine
 10
-39.27392199999997
 20
-39.50279900000004
 30
0.0
 11
-50.27392199999997
 21
-39.50279900000004
 31
0.0
  0
LINE
  5
2F0
330
53
100
AcDbEntity
  8
1
  6
PHANTOM
 62
     2
100
AcDbLine
 10
-44.77392199999997
 20
-34.00279900000001
 30
0.0
 11
-44.77392199999997
 21
-45.00279900000007
 31
0.0
  0
LINE
  5
2F1
330
53
100
AcDbEntity
  8
1
  6
PHANTOM
 62
     2
100
AcDbLine
 10
46.72607799999969
 20
-39.00279900000004
 30
0.0
 11
35.72607800000037
 21
-39.00279900000004
 31
0.0
  0
LINE
  5
2F2
330
53
100
AcDbEntity
  8
1
  6
PHANTOM
 62
     2
100
AcDbLine
 10
41.22607800000003
 20
-33.50279900000038
 30
0.0
 11
41.22607800000003
 21
-44.5027989999997
 31
0.0
  0
LINE
  5
2F3
330
53
100
AcDbEntity
  8
1
  6
PHANTOM
 62
     2
100
AcDbLine
 10
52.5
 20
0.0
 30
0.0
 11
41.5
 21
0.0
 31
0.0
  0
LINE
  5
2F4
330
53
100
AcDbEntity
  8
1
  6
PHANTOM
 62
     2
100
AcDbLine
 10
47.0
 20
5.5
 30
0.0
 11
47.0
 21
-5.5
 31
0.0
  0
LINE
  5
2F5
330
53
100
AcDbEntity
  8
1
  6
PHANTOM
 62
     2
100
AcDbLine
 10
63.30000000000001
 20
0.0
 30
0.0
 11
56.69999999999999
 21
0.0
 31
0.0
  0
LINE
  5
2F6
330
53
100
AcDbEntity
  8
1
  6
PHANTOM
 62
     2
100
AcDbLine
 10
60.0
 20
3.30000000000001
 30
0.0
 11
60.0
 21
-3.30000000000001
 31
0.0
  0
LINE
  5
2F7
330
53
100
AcDbEntity
  8
1
  6
PHANTOM
 62
     2
100
AcDbLine
 10
103.3
 20
0.0
 30
0.0
 11
96.69999999999999
 21
0.0
 31
0.0
  0
LINE
  5
2F8
330
53
100
AcDbEntity
  8
1
  6
PHANTOM
 62
     2
100
AcDbLine
 10
100.0
 20
3.30000000000001
 30
0.0
 11
100.0
 21
-3.30000000000001
 31
0.0
  0
LINE
  5
2F9
330
53
100
AcDbEntity
  8
1
  6
PHANTOM
 62
     2
100
AcDbLine
 10
-216.9383166816601
 20
0.00000000000006
 30
0.0
 11
260.8600000000001
 21
0.0
 31
0.0
  0
ARC
  5
2FA
330
53
100
AcDbEntity
  8
LC-002-002-----0
  6
Continuous
 62
     7
100
AcDbCircle
 10
-149.9110639999999
 20
9.53999999999996
 30
0.0
 40
1.499999999999996
100
AcDbArc
 50
90.0
 51
156.8288990000111
  0
ARC
  5
2FB
330
53
100
AcDbEntity
  8
LC-002-002-----0
  6
Continuous
 62
     7
100
AcDbCircle
 10
-158.3689359999998
 20
9.53999999999996
 30
0.0
 40
1.499999999999316
100
AcDbArc
 50
23.17110099999658
 51
90.0
  0
ARC
  5
2FC
330
53
100
AcDbEntity
  8
LC-002-002-----0
  6
Continuous
 62
     7
100
AcDbCircle
 10
-154.1399999999999
 20
11.34999999999997
 30
0.0
 40
3.09999999999992
100
AcDbArc
 50
203.1711009999929
 51
336.8288990000041
  0
ARC
  5
2FD
330
53
100
AcDbEntity
  8
LC-002-002-----0
  6
Continuous
 62
     7
100
AcDbCircle
 10
-160.0
 20
14.13999999999999
 30
0.0
 40
3.100000000000019
100
AcDbArc
 50
90.0
 51
270.0
  0
ARC
  5
2FE
330
53
100
AcDbEntity
  8
LC-002-002-----0
  6
Continuous
 62
     7
100
AcDbCircle
 10
-148.2800000000002
 20
14.13999999999999
 30
0.0
 40
3.10000000000003
100
AcDbArc
 50
270.0
 51
90.0
  0
ARC
  5
2FF
330
53
100
AcDbEntity
  8
LC-002-002-----0
  6
Continuous
 62
     7
100
AcDbCircle
 10
-149.9110639999999
 20
-9.54000000000002
 30
0.0
 40
1.499999999999764
100
AcDbArc
 50
203.1711009999869
 51
270.0
  0
ARC
  5
300
330
53
100
AcDbEntity
  8
LC-002-002-----0
  6
Continuous
 62
     7
100
AcDbCircle
 10
-158.3689359999998
 20
-9.54000000000002
 30
0.0
 40
1.5
100
AcDbArc
 50
270.0
 51
336.8288990000054
  0
ARC
  5
301
330
53
100
AcDbEntity
  8
LC-002-002-----0
  6
Continuous
 62
     7
100
AcDbCircle
 10
-154.1399999999999
 20
-11.35000000000002
 30
0.0
 40
3.09999999999955
100
AcDbArc
 50
23.17110099999566
 51
156.8288990000072
  0
ARC
  5
302
330
53
100
AcDbEntity
  8
LC-002-002-----0
  6
Continuous
 62
     7
100
AcDbCircle
 10
-160.0
 20
-14.14000000000004
 30
0.0
 40
3.100000000000019
100
AcDbArc
 50
90.0
 51
270.0
  0
ARC
  5
303
330
53
100
AcDbEntity
  8
LC-002-002-----0
  6
Continuous
 62
     7
100
AcDbCircle
 10
-148.2800000000002
 20
-14.14000000000004
 30
0.0
 40
3.099999999999969
100
AcDbArc
 50
270.0
 51
90.0
  0
ARC
  5
304
330
53
100
AcDbEntity
  8
LC-002-002-----0
  6
Continuous
 62
     7
100
AcDbCircle
 10
-159.8899999999999
 20
0.0
 30
0.0
 40
4.25
100
AcDbArc
 50
270.0
 51
90.0
  0
ARC
  5
305
330
53
100
AcDbEntity
  8
LC-002-002-----0
  6
Continuous
 62
     7
100
AcDbCircle
 10
-168.3899999999999
 20
0.0
 30
0.0
 40
4.25
100
AcDbArc
 50
90.0
 51
270.0
  0
ARC
  5
306
330
53
100
AcDbEntity
  8
LC-002-002-----0
  6
Continuous
 62
     7
100
AcDbCircle
 10
-144.1399999999999
 20
0.0
 30
0.0
 40
4.249999999999726
100
AcDbArc
 50
13.06413600000364
 51
346.9358639999956
  0
ARC
  5
307
330
53
100
AcDbEntity
  8
LC-001-002-RND-0
  6
Continuous
 62
     7
100
AcDbCircle
 10
-317.040606
 20
4.841992
 30
0.0
 40
0.5
100
AcDbArc
 50
90.0
 51
180.0
  0
ARC
  5
308
330
53
100
AcDbEntity
  8
LC-001-002-RND-0
  6
Continuous
 62
     7
100
AcDbCircle
 10
-316.540606
 20
4.841992
 30
0.0
 40
0.5
100
AcDbArc
 50
0.0
 51
90.0
  0
ARC
  5
309
330
53
100
AcDbEntity
  8
LC-002-002-----0
  6
Continuous
 62
     7
100
AcDbCircle
 10
-307.915606
 20
-0.158008
 30
0.0
 40
10.62499999999969
100
AcDbArc
 50
154.9423850000001
 51
205.0576149999999
  0
ARC
  5
30A
330
53
100
AcDbEntity
  8
LC-001-002-RND-0
  6
Continuous
 62
     7
100
AcDbCircle
 10
-316.540606
 20
-5.158008
 30
0.0
 40
0.5
100
AcDbArc
 50
270.0
 51
0.0
  0
ARC
  5
30B
330
53
100
AcDbEntity
  8
LC-001-002-RND-0
  6
Continuous
 62
     7
100
AcDbCircle
 10
-317.040606
 20
-5.158008
 30
0.0
 40
0.5
100
AcDbArc
 50
180.0
 51
270.0
  0
ARC
  5
30C
330
53
100
AcDbEntity
  8
LC-002-002-----0
  6
Continuous
 62
     7
100
AcDbCircle
 10
-37.9907290000001
 20
-68.0
 30
0.0
 40
5.0
100
AcDbArc
 50
180.0
 51
256.1492120000069
  0
ARC
  5
30D
330
53
100
AcDbEntity
  8
LC-001-002-RND-0
  6
Continuous
 62
     7
100
AcDbCircle
 10
-351.881615
 20
-17.658008
 30
0.0
 40
1.0
100
AcDbArc
 50
180.0
 51
270.0
  0
ARC
  5
30E
330
53
100
AcDbEntity
  8
LC-001-002-RND-0
  6
Continuous
 62
     7
100
AcDbCircle
 10
-351.881615
 20
17.341992
 30
0.0
 40
1.0
100
AcDbArc
 50
90.0
 51
180.0
  0
ARC
  5
30F
330
53
100
AcDbEntity
  8
LC-002-002-----0
  6
Continuous
 62
     7
100
AcDbCircle
 10
-382.881615
 20
43.59935200000001
 30
0.0
 40
3.000000000000225
100
AcDbArc
 50
134.9999999999946
 51
180.0
  0
ARC
  5
310
330
53
100
AcDbEntity
  8
LC-002-002-----0
  6
Continuous
 62
     7
100
AcDbCircle
 10
0.0
 20
0.0
 30
0.0
 40
26.99999999999958
100
AcDbArc
 50
295.6992055817151
 51
244.3007944182833
  0
ARC
  5
311
330
53
100
AcDbEntity
  8
LC-002-002-----0
  6
Continuous
 62
     7
100
AcDbCircle
 10
-382.881615
 20
-43.915367
 30
0.0
 40
3.0
100
AcDbArc
 50
180.0
 51
225.0000000000053
  0
ARC
  5
312
330
53
100
AcDbEntity
  8
LC-002-002-----0
  6
Continuous
 62
     7
100
AcDbCircle
 10
-80.0
 20
1.80131
 30
0.0
 40
22.86819100000013
100
AcDbArc
 50
73.48671799999886
 51
106.5132820000012
  0
ARC
  5
313
330
53
100
AcDbEntity
  8
LC-002-002-----0
  6
Continuous
 62
     7
100
AcDbCircle
 10
-79.90540199999987
 20
43.75475
 30
0.0
 40
15.28537299999973
100
AcDbArc
 50
170.9382289999983
 51
15.51664700000035
  0
ARC
  5
314
330
53
100
AcDbEntity
  8
LC-002-002-----0
  6
Continuous
 62
     7
100
AcDbCircle
 10
-80.0
 20
47.80163799999997
 30
0.0
 40
15.08932799999996
100
AcDbArc
 50
201.0387659999988
 51
338.9612340000011
  0
ARC
  5
315
330
53
100
AcDbEntity
  8
LC-002-002-----0
  6
Continuous
 62
     7
100
AcDbCircle
 10
-65.16666699999996
 20
-38.75
 30
0.0
 40
2.833333000000131
100
AcDbArc
 50
118.0724490000097
 51
241.9271900000037
  0
ARC
  5
316
330
53
100
AcDbEntity
  8
LC-002-002-----0
  6
Continuous
 62
     7
100
AcDbCircle
 10
-94.83333399999992
 20
-38.75
 30
0.0
 40
2.833332999999817
100
AcDbArc
 50
298.0726039999946
 51
61.92757099999138
  0
ARC
  5
317
330
53
100
AcDbEntity
  8
LC-002-002-----0
  6
Continuous
 62
     7
100
AcDbCircle
 10
-73.375
 20
-34.22187500000001
 30
0.0
 40
7.028125000000005
100
AcDbArc
 50
223.9182580000009
 51
316.0815900000007
  0
ARC
  5
318
330
53
100
AcDbEntity
  8
LC-002-002-----0
  6
Continuous
 62
     7
100
AcDbCircle
 10
-68.67260699999997
 20
-38.75
 30
0.0
 40
0.4999999999998556
100
AcDbArc
 50
316.0816480000342
 51
43.91840999994997
  0
ARC
  5
319
330
53
100
AcDbEntity
  8
LC-002-002-----0
  6
Continuous
 62
     7
100
AcDbCircle
 10
-73.375
 20
-43.27812499999999
 30
0.0
 40
7.028124999999636
100
AcDbArc
 50
43.91840999999896
 51
136.0815709999984
  0
ARC
  5
31A
330
53
100
AcDbEntity
  8
LC-002-002-----0
  6
Continuous
 62
     7
100
AcDbCircle
 10
-78.07739300000003
 20
-38.75
 30
0.0
 40
0.499999999999908
100
AcDbArc
 50
136.0815900000501
 51
223.918258000007
  0
ARC
  5
31B
330
53
100
AcDbEntity
  8
LC-002-002-----0
  6
Continuous
 62
     7
100
AcDbCircle
 10
-86.625
 20
-34.22187500000001
 30
0.0
 40
7.028125000000005
100
AcDbArc
 50
223.9182580000009
 51
316.0815900000007
  0
ARC
  5
31C
330
53
100
AcDbEntity
  8
LC-002-002-----0
  6
Continuous
 62
     7
100
AcDbCircle
 10
-81.92260699999997
 20
-38.75
 30
0.0
 40
0.4999999999998556
100
AcDbArc
 50
316.0816480000342
 51
43.91840999994997
  0
ARC
  5
31D
330
53
100
AcDbEntity
  8
LC-002-002-----0
  6
Continuous
 62
     7
100
AcDbCircle
 10
-86.625
 20
-43.27812499999999
 30
0.0
 40
7.028124999999636
100
AcDbArc
 50
43.91840999999896
 51
136.0815709999984
  0
ARC
  5
31E
330
53
100
AcDbEntity
  8
LC-002-002-----0
  6
Continuous
 62
     7
100
AcDbCircle
 10
-91.32739300000003
 20
-38.75
 30
0.0
 40
0.499999999999908
100
AcDbArc
 50
136.0815900000501
 51
223.918258000007
  0
ARC
  5
31F
330
53
100
AcDbEntity
  8
LC-002-002-----0
  6
Continuous
 62
     7
100
AcDbCircle
 10
150.0
 20
-14.14000000000004
 30
0.0
 40
3.100000000000019
100
AcDbArc
 50
90.0
 51
270.0
  0
ARC
  5
320
330
53
100
AcDbEntity
  8
LC-002-002-----0
  6
Continuous
 62
     7
100
AcDbCircle
 10
150.0
 20
14.13999999999999
 30
0.0
 40
3.100000000000019
100
AcDbArc
 50
90.0
 51
270.0
  0
ARC
  5
321
330
53
100
AcDbEntity
  8
LC-002-002-----0
  6
Continuous
 62
     7
100
AcDbCircle
 10
191.6310640000002
 20
9.53999999999996
 30
0.0
 40
1.49999999999976
100
AcDbArc
 50
23.17110099998931
 51
90.0
  0
ARC
  5
322
330
53
100
AcDbEntity
  8
LC-002-002-----0
  6
Continuous
 62
     7
100
AcDbCircle
 10
200.0889360000001
 20
9.53999999999996
 30
0.0
 40
1.499999999999996
100
AcDbArc
 50
90.0
 51
156.8288990000111
  0
ARC
  5
323
330
53
100
AcDbEntity
  8
LC-002-002-----0
  6
Continuous
 62
     7
100
AcDbCircle
 10
195.8600000000001
 20
11.34999999999997
 30
0.0
 40
3.09999999999992
100
AcDbArc
 50
203.1711009999929
 51
336.8288990000041
  0
ARC
  5
324
330
53
100
AcDbEntity
  8
LC-001-002-RND-0
  6
Continuous
 62
     7
100
AcDbCircle
 10
136.5
 20
46.5
 30
0.0
 40
2.5
100
AcDbArc
 50
0.0
 51
90.0
  0
ARC
  5
325
330
53
100
AcDbEntity
  8
LC-001-002-RND-0
  6
Continuous
 62
     7
100
AcDbCircle
 10
136.5
 20
-46.5
 30
0.0
 40
2.5
100
AcDbArc
 50
270.0
 51
0.0
  0
ARC
  5
326
330
53
100
AcDbEntity
  8
LC-002-002-----0
  6
Continuous
 62
     7
100
AcDbCircle
 10
201.7200000000003
 20
14.13999999999999
 30
0.0
 40
3.10000000000003
100
AcDbArc
 50
270.0
 51
90.0
  0
ARC
  5
327
330
53
100
AcDbEntity
  8
LC-002-002-----0
  6
Continuous
 62
     7
100
AcDbCircle
 10
190.0
 20
14.13999999999999
 30
0.0
 40
3.100000000000019
100
AcDbArc
 50
90.0
 51
270.0
  0
ARC
  5
328
330
53
100
AcDbEntity
  8
LC-002-002-----0
  6
Continuous
 62
     7
100
AcDbCircle
 10
191.6310640000002
 20
-9.54000000000002
 30
0.0
 40
1.5
100
AcDbArc
 50
270.0
 51
336.8288990000127
  0
ARC
  5
329
330
53
100
AcDbEntity
  8
LC-001-002-RND-0
  6
Continuous
 62
     7
100
AcDbCircle
 10
-136.5
 20
46.5
 30
0.0
 40
2.5
100
AcDbArc
 50
90.0
 51
180.0
  0
ARC
  5
32A
330
53
100
AcDbEntity
  8
LC-002-002-----0
  6
Continuous
 62
     7
100
AcDbCircle
 10
200.0889360000001
 20
-9.54000000000002
 30
0.0
 40
1.499999999999764
100
AcDbArc
 50
203.1711009999869
 51
270.0
  0
ARC
  5
32B
330
53
100
AcDbEntity
  8
LC-002-002-----0
  6
Continuous
 62
     7
100
AcDbCircle
 10
195.8600000000001
 20
-11.35000000000002
 30
0.0
 40
3.09999999999955
100
AcDbArc
 50
23.17110099999566
 51
156.8288990000072
  0
ARC
  5
32C
330
53
100
AcDbEntity
  8
LC-002-002-----0
  6
Continuous
 62
     7
100
AcDbCircle
 10
201.7200000000003
 20
-14.14000000000004
 30
0.0
 40
3.099999999999969
100
AcDbArc
 50
270.0
 51
90.0
  0
ARC
  5
32D
330
53
100
AcDbEntity
  8
LC-002-002-----0
  6
Continuous
 62
     7
100
AcDbCircle
 10
190.0
 20
-14.14000000000004
 30
0.0
 40
3.100000000000019
100
AcDbArc
 50
90.0
 51
270.0
  0
ARC
  5
32E
330
53
100
AcDbEntity
  8
LC-002-002-----0
  6
Continuous
 62
     7
100
AcDbCircle
 10
201.6100000000001
 20
0.0
 30
0.0
 40
4.25
100
AcDbArc
 50
90.0
 51
270.0
  0
ARC
  5
32F
330
53
100
AcDbEntity
  8
LC-002-002-----0
  6
Continuous
 62
     7
100
AcDbCircle
 10
210.1100000000001
 20
0.0
 30
0.0
 40
4.25
100
AcDbArc
 50
270.0
 51
90.0
  0
ARC
  5
330
330
53
100
AcDbEntity
  8
LC-002-002-----0
  6
Continuous
 62
     7
100
AcDbCircle
 10
38.00427099999979
 20
-68.0
 30
0.0
 40
5.0
100
AcDbArc
 50
270.0
 51
0.0
  0
ARC
  5
331
330
53
100
AcDbEntity
  8
LC-002-002-----0
  6
Continuous
 62
     7
100
AcDbCircle
 10
240.0889360000001
 20
-9.54000000000002
 30
0.0
 40
1.499999999999764
100
AcDbArc
 50
203.1711009999869
 51
270.0
  0
ARC
  5
332
330
53
100
AcDbEntity
  8
LC-002-002-----0
  6
Continuous
 62
     7
100
AcDbCircle
 10
235.8600000000001
 20
-11.35000000000002
 30
0.0
 40
3.09999999999955
100
AcDbArc
 50
23.17110099999566
 51
156.8288990000072
  0
ARC
  5
333
330
53
100
AcDbEntity
  8
LC-002-002-----0
  6
Continuous
 62
     7
100
AcDbCircle
 10
231.6310640000002
 20
-9.54000000000002
 30
0.0
 40
1.5
100
AcDbArc
 50
270.0
 51
336.8288990000127
  0
ARC
  5
334
330
53
100
AcDbEntity
  8
LC-002-002-----0
  6
Continuous
 62
     7
100
AcDbCircle
 10
230.0
 20
-14.14000000000004
 30
0.0
 40
3.100000000000019
100
AcDbArc
 50
90.0
 51
270.0
  0
ARC
  5
335
330
53
100
AcDbEntity
  8
LC-002-002-----0
  6
Continuous
 62
     7
100
AcDbCircle
 10
-80.0
 20
0.0
 30
0.0
 40
30.50000000000067
100
AcDbArc
 50
301.7989130000004
 51
60.54082500000013
  0
ARC
  5
336
330
53
100
AcDbEntity
  8
LC-002-002-----0
  6
Continuous
 62
     7
100
AcDbCircle
 10
-80.0
 20
0.0
 30
0.0
 40
30.49999999999971
100
AcDbArc
 50
119.4591749999999
 51
239.4562109999992
  0
ARC
  5
337
330
53
100
AcDbEntity
  8
LC-001-002-RND-0
  6
Continuous
 62
     7
100
AcDbCircle
 10
424.289894
 20
-28.5
 30
0.0
 40
2.0
100
AcDbArc
 50
270.0
 51
357.1014229999957
  0
ARC
  5
338
330
53
100
AcDbEntity
  8
LC-001-002-RND-0
  6
Continuous
 62
     7
100
AcDbCircle
 10
424.289894
 20
28.5
 30
0.0
 40
1.999999999999591
100
AcDbArc
 50
2.89857700000254
 51
90.0
  0
ARC
  5
339
330
53
100
AcDbEntity
  8
LC-002-002-----0
  6
Continuous
 62
     7
100
AcDbCircle
 10
79.99572900000021
 20
1.80131
 30
0.0
 40
22.868191
100
AcDbArc
 50
73.48671799999994
 51
106.5132820000012
  0
ARC
  5
33A
330
53
100
AcDbEntity
  8
LC-001-002-RND-0
  6
Continuous
 62
     7
100
AcDbCircle
 10
-136.5
 20
-46.5
 30
0.0
 40
2.5
100
AcDbArc
 50
180.0
 51
270.0
  0
ARC
  5
33B
330
53
100
AcDbEntity
  8
LC-002-002-----0
  6
Continuous
 62
     7
100
AcDbCircle
 10
230.0
 20
-14.14000000000004
 30
0.0
 40
3.100000000000019
100
AcDbArc
 50
90.0
 51
270.0
  0
ARC
  5
33C
330
53
100
AcDbEntity
  8
LC-002-002-----0
  6
Continuous
 62
     7
100
AcDbCircle
 10
80.09032699999989
 20
43.75475
 30
0.0
 40
15.28537299999928
100
AcDbArc
 50
170.938228999998
 51
15.51664699999989
  0
ARC
  5
33D
330
53
100
AcDbEntity
  8
LC-002-002-----0
  6
Continuous
 62
     7
100
AcDbCircle
 10
79.99572900000021
 20
47.80163799999997
 30
0.0
 40
15.08932799999996
100
AcDbArc
 50
201.0387659999988
 51
338.9612340000006
  0
ARC
  5
33E
330
53
100
AcDbEntity
  8
LC-002-002-----0
  6
Continuous
 62
     7
100
AcDbCircle
 10
94.8290619999998
 20
-38.75
 30
0.0
 40
2.833332999999918
100
AcDbArc
 50
118.0724490000016
 51
241.9271900000037
  0
ARC
  5
33F
330
53
100
AcDbEntity
  8
LC-001-002-RND-0
  6
Continuous
 62
     7
100
AcDbCircle
 10
-297.040606
 20
37.841992
 30
0.0
 40
2.0
100
AcDbArc
 50
0.0
 51
90.0
  0
ARC
  5
340
330
53
100
AcDbEntity
  8
LC-001-002-RND-0
  6
Continuous
 62
     7
100
AcDbCircle
 10
-297.040606
 20
-84.158008
 30
0.0
 40
2.0
100
AcDbArc
 50
270.0
 51
0.0
  0
ARC
  5
341
330
53
100
AcDbEntity
  8
LC-002-002-----0
  6
Continuous
 62
     7
100
AcDbCircle
 10
65.16239499999983
 20
-38.75
 30
0.0
 40
2.833333000000031
100
AcDbArc
 50
298.0726040000027
 51
61.92757099998326
  0
ARC
  5
342
330
53
100
AcDbEntity
  8
LC-002-002-----0
  6
Continuous
 62
     7
100
AcDbCircle
 10
86.62072900000021
 20
-34.22187500000001
 30
0.0
 40
7.028125000000005
100
AcDbArc
 50
223.9182580000009
 51
316.0815900000007
  0
ARC
  5
343
330
53
100
AcDbEntity
  8
LC-002-002-----0
  6
Continuous
 62
     7
100
AcDbCircle
 10
91.32312199999978
 20
-38.75
 30
0.0
 40
0.4999999999998556
100
AcDbArc
 50
316.0816480000342
 51
43.91840999994997
  0
ARC
  5
344
330
53
100
AcDbEntity
  8
LC-002-002-----0
  6
Continuous
 62
     7
100
AcDbCircle
 10
161.6100000000001
 20
0.0
 30
0.0
 40
4.25
100
AcDbArc
 50
90.0
 51
270.0
  0
ARC
  5
345
330
53
100
AcDbEntity
  8
LC-002-002-----0
  6
Continuous
 62
     7
100
AcDbCircle
 10
170.1100000000001
 20
0.0
 30
0.0
 40
4.25
100
AcDbArc
 50
270.0
 51
90.0
  0
ARC
  5
346
330
53
100
AcDbEntity
  8
LC-002-002-----0
  6
Continuous
 62
     7
100
AcDbCircle
 10
151.6310640000002
 20
-9.54000000000002
 30
0.0
 40
1.5
100
AcDbArc
 50
270.0
 51
336.8288990000127
  0
ARC
  5
347
330
53
100
AcDbEntity
  8
LC-002-002-----0
  6
Continuous
 62
     7
100
AcDbCircle
 10
160.0889360000001
 20
-9.54000000000002
 30
0.0
 40
1.499999999999764
100
AcDbArc
 50
203.1711009999869
 51
270.0
  0
ARC
  5
348
330
53
100
AcDbEntity
  8
LC-002-002-----0
  6
Continuous
 62
     7
100
AcDbCircle
 10
155.8600000000001
 20
-11.35000000000002
 30
0.0
 40
3.09999999999955
100
AcDbArc
 50
23.17110099999566
 51
156.8288990000072
  0
ARC
  5
349
330
53
100
AcDbEntity
  8
LC-002-002-----0
  6
Continuous
 62
     7
100
AcDbCircle
 10
161.7200000000003
 20
-14.14000000000004
 30
0.0
 40
3.099999999999969
100
AcDbArc
 50
270.0
 51
90.0
  0
ARC
  5
34A
330
53
100
AcDbEntity
  8
LC-002-002-----0
  6
Continuous
 62
     7
100
AcDbCircle
 10
151.6310640000002
 20
9.53999999999996
 30
0.0
 40
1.49999999999976
100
AcDbArc
 50
23.17110099998931
 51
90.0
  0
ARC
  5
34B
330
53
100
AcDbEntity
  8
LC-002-002-----0
  6
Continuous
 62
     7
100
AcDbCircle
 10
160.0889360000001
 20
9.53999999999996
 30
0.0
 40
1.499999999999996
100
AcDbArc
 50
90.0
 51
156.8288990000111
  0
ARC
  5
34C
330
53
100
AcDbEntity
  8
LC-002-002-----0
  6
Continuous
 62
     7
100
AcDbCircle
 10
155.8600000000001
 20
11.34999999999997
 30
0.0
 40
3.09999999999992
100
AcDbArc
 50
203.1711009999929
 51
336.8288990000041
  0
ARC
  5
34D
330
53
100
AcDbEntity
  8
LC-002-002-----0
  6
Continuous
 62
     7
100
AcDbCircle
 10
161.7200000000003
 20
14.13999999999999
 30
0.0
 40
3.10000000000003
100
AcDbArc
 50
270.0
 51
90.0
  0
ARC
  5
34E
330
53
100
AcDbEntity
  8
LC-001-002-RND-0
  6
Continuous
 62
     7
100
AcDbCircle
 10
137.5
 20
47.5
 30
0.0
 40
2.5
100
AcDbArc
 50
0.0
 51
90.0
  0
ARC
  5
34F
330
53
100
AcDbEntity
  8
LC-001-002-RND-0
  6
Continuous
 62
     7
100
AcDbCircle
 10
137.5
 20
-47.5
 30
0.0
 40
2.5
100
AcDbArc
 50
270.0
 51
0.0
  0
ARC
  5
350
330
53
100
AcDbEntity
  8
LC-002-002-----0
  6
Continuous
 62
     7
100
AcDbCircle
 10
-198.3689359999998
 20
-9.54000000000002
 30
0.0
 40
1.5
100
AcDbArc
 50
270.0
 51
336.8288990000054
  0
ARC
  5
351
330
53
100
AcDbEntity
  8
LC-002-002-----0
  6
Continuous
 62
     7
100
AcDbCircle
 10
-194.1399999999999
 20
-11.35000000000002
 30
0.0
 40
3.09999999999955
100
AcDbArc
 50
23.17110099999566
 51
156.8288990000072
  0
ARC
  5
352
330
53
100
AcDbEntity
  8
LC-002-002-----0
  6
Continuous
 62
     7
100
AcDbCircle
 10
-189.9110639999999
 20
-9.54000000000002
 30
0.0
 40
1.499999999999764
100
AcDbArc
 50
203.1711009999869
 51
270.0
  0
ARC
  5
353
330
53
100
AcDbEntity
  8
LC-002-002-----0
  6
Continuous
 62
     7
100
AcDbCircle
 10
-188.2800000000002
 20
-14.14000000000004
 30
0.0
 40
3.099999999999969
100
AcDbArc
 50
270.0
 51
90.0
  0
ARC
  5
354
330
53
100
AcDbEntity
  8
LC-002-002-----0
  6
Continuous
 62
     7
100
AcDbCircle
 10
-188.2800000000002
 20
-14.14000000000004
 30
0.0
 40
3.099999999999969
100
AcDbArc
 50
270.0
 51
90.0
  0
ARC
  5
355
330
53
100
AcDbEntity
  8
LC-002-002-----0
  6
Continuous
 62
     7
100
AcDbCircle
 10
-200.0
 20
-14.14000000000004
 30
0.0
 40
3.100000000000019
100
AcDbArc
 50
90.0
 51
270.0
  0
ARC
  5
356
330
53
100
AcDbEntity
  8
LC-002-002-----0
  6
Continuous
 62
     7
100
AcDbCircle
 10
241.7200000000003
 20
-14.14000000000004
 30
0.0
 40
3.099999999999969
100
AcDbArc
 50
270.0
 51
90.0
  0
ARC
  5
357
330
53
100
AcDbEntity
  8
LC-002-002-----0
  6
Continuous
 62
     7
100
AcDbCircle
 10
86.62072900000021
 20
-43.27812499999999
 30
0.0
 40
7.028124999999636
100
AcDbArc
 50
43.91840999999896
 51
136.0815709999984
  0
ARC
  5
358
330
53
100
AcDbEntity
  8
LC-002-002-----0
  6
Continuous
 62
     7
100
AcDbCircle
 10
81.91833600000018
 20
-38.75
 30
0.0
 40
0.499999999999908
100
AcDbArc
 50
136.0815900000501
 51
223.918258000007
  0
ARC
  5
359
330
53
100
AcDbEntity
  8
LC-002-002-----0
  6
Continuous
 62
     7
100
AcDbCircle
 10
73.37072900000021
 20
-34.22187500000001
 30
0.0
 40
7.028125000000005
100
AcDbArc
 50
223.9182580000009
 51
316.0815900000007
  0
ARC
  5
35A
330
53
100
AcDbEntity
  8
LC-002-002-----0
  6
Continuous
 62
     7
100
AcDbCircle
 10
241.6100000000001
 20
0.0
 30
0.0
 40
4.25
100
AcDbArc
 50
90.0
 51
270.0
  0
ARC
  5
35B
330
53
100
AcDbEntity
  8
LC-002-002-----0
  6
Continuous
 62
     7
100
AcDbCircle
 10
78.07312199999978
 20
-38.75
 30
0.0
 40
0.4999999999998556
100
AcDbArc
 50
316.0816480000342
 51
43.91840999994997
  0
ARC
  5
35C
330
53
100
AcDbEntity
  8
LC-002-002-----0
  6
Continuous
 62
     7
100
AcDbCircle
 10
73.37072900000021
 20
-43.27812499999999
 30
0.0
 40
7.028124999999636
100
AcDbArc
 50
43.91840999999896
 51
136.0815709999984
  0
ARC
  5
35D
330
53
100
AcDbEntity
  8
LC-002-002-----0
  6
Continuous
 62
     7
100
AcDbCircle
 10
68.66833600000018
 20
-38.75
 30
0.0
 40
0.499999999999908
100
AcDbArc
 50
136.0815900000501
 51
223.918258000007
  0
ARC
  5
35E
330
53
100
AcDbEntity
  8
LC-002-002-----0
  6
Continuous
 62
     7
100
AcDbCircle
 10
250.1100000000001
 20
0.0
 30
0.0
 40
4.25
100
AcDbArc
 50
270.0
 51
90.0
  0
ARC
  5
35F
330
53
100
AcDbEntity
  8
LC-002-002-----0
  6
Continuous
 62
     7
100
AcDbCircle
 10
241.7200000000003
 20
14.13999999999999
 30
0.0
 40
3.10000000000003
100
AcDbArc
 50
270.0
 51
90.0
  0
ARC
  5
360
330
53
100
AcDbEntity
  8
LC-002-002-----0
  6
Continuous
 62
     7
100
AcDbCircle
 10
240.0889360000001
 20
9.53999999999996
 30
0.0
 40
1.499999999999996
100
AcDbArc
 50
90.0
 51
156.8288990000111
  0
ARC
  5
361
330
53
100
AcDbEntity
  8
LC-002-002-----0
  6
Continuous
 62
     7
100
AcDbCircle
 10
235.8600000000001
 20
11.34999999999997
 30
0.0
 40
3.09999999999992
100
AcDbArc
 50
203.1711009999929
 51
336.8288990000041
  0
ARC
  5
362
330
53
100
AcDbEntity
  8
LC-002-002-----0
  6
Continuous
 62
     7
100
AcDbCircle
 10
230.0
 20
14.13999999999999
 30
0.0
 40
3.100000000000019
100
AcDbArc
 50
90.0
 51
270.0
  0
ARC
  5
363
330
53
100
AcDbEntity
  8
LC-002-002-----0
  6
Continuous
 62
     7
100
AcDbCircle
 10
231.6310640000002
 20
9.53999999999996
 30
0.0
 40
1.49999999999976
100
AcDbArc
 50
23.17110099998931
 51
90.0
  0
ARC
  5
364
330
53
100
AcDbEntity
  8
LC-002-002-----0
  6
Continuous
 62
     7
100
AcDbCircle
 10
-199.8899999999999
 20
0.0
 30
0.0
 40
4.25
100
AcDbArc
 50
270.0
 51
90.0
  0
ARC
  5
365
330
53
100
AcDbEntity
  8
LC-002-002-----0
  6
Continuous
 62
     7
100
AcDbCircle
 10
-208.3899999999999
 20
0.0
 30
0.0
 40
4.25
100
AcDbArc
 50
90.0
 51
270.0
  0
ARC
  5
366
330
53
100
AcDbEntity
  8
LC-002-002-----0
  6
Continuous
 62
     7
100
AcDbCircle
 10
-200.0
 20
14.13999999999999
 30
0.0
 40
3.100000000000019
100
AcDbArc
 50
90.0
 51
270.0
  0
ARC
  5
367
330
53
100
AcDbEntity
  8
LC-002-002-----0
  6
Continuous
 62
     7
100
AcDbCircle
 10
-198.3689359999998
 20
9.53999999999996
 30
0.0
 40
1.499999999999316
100
AcDbArc
 50
23.17110099999658
 51
90.0
  0
ARC
  5
368
330
53
100
AcDbEntity
  8
LC-002-002-----0
  6
Continuous
 62
     7
100
AcDbCircle
 10
-194.1399999999999
 20
11.34999999999997
 30
0.0
 40
3.09999999999992
100
AcDbArc
 50
203.1711009999929
 51
336.8288990000041
  0
ARC
  5
369
330
53
100
AcDbEntity
  8
LC-001-002-RND-0
  6
Continuous
 62
     7
100
AcDbCircle
 10
-137.5
 20
47.5
 30
0.0
 40
2.5
100
AcDbArc
 50
90.0
 51
180.0
  0
ARC
  5
36A
330
53
100
AcDbEntity
  8
LC-002-002-----0
  6
Continuous
 62
     7
100
AcDbCircle
 10
-188.2800000000002
 20
14.13999999999999
 30
0.0
 40
3.10000000000003
100
AcDbArc
 50
270.0
 51
90.0
  0
ARC
  5
36B
330
53
100
AcDbEntity
  8
LC-002-002-----0
  6
Continuous
 62
     7
100
AcDbCircle
 10
-189.9110639999999
 20
9.53999999999996
 30
0.0
 40
1.499999999999996
100
AcDbArc
 50
90.0
 51
156.8288990000111
  0
ARC
  5
36C
330
53
100
AcDbEntity
  8
LC-002-002-----0
  6
Continuous
 62
     7
100
AcDbCircle
 10
-188.2800000000002
 20
14.13999999999999
 30
0.0
 40
3.10000000000003
100
AcDbArc
 50
270.0
 51
90.0
  0
ARC
  5
36D
330
53
100
AcDbEntity
  8
LC-002-002-----0
  6
Continuous
 62
     7
100
AcDbCircle
 10
-200.0
 20
14.13999999999999
 30
0.0
 40
3.100000000000019
100
AcDbArc
 50
90.0
 51
270.0
  0
ARC
  5
36E
330
53
100
AcDbEntity
  8
LC-001-002-RND-0
  6
Continuous
 62
     7
100
AcDbCircle
 10
-137.5
 20
-47.5
 30
0.0
 40
2.5
100
AcDbArc
 50
180.0
 51
270.0
  0
ARC
  5
36F
330
53
100
AcDbEntity
  8
LC-001-002-RND-0
  6
Continuous
 62
     7
100
AcDbCircle
 10
-299.040606
 20
40.841992
 30
0.0
 40
1.0
100
AcDbArc
 50
90.0
 51
180.0
  0
ARC
  5
370
330
53
100
AcDbEntity
  8
LC-001-002-RND-0
  6
Continuous
 62
     7
100
AcDbCircle
 10
-298.040606
 20
40.841992
 30
0.0
 40
1.0
100
AcDbArc
 50
0.0
 51
90.0
  0
ARC
  5
371
330
53
100
AcDbEntity
  8
LC-001-002-RND-0
  6
Continuous
 62
     7
100
AcDbCircle
 10
-298.040606
 20
-87.158008
 30
0.0
 40
1.0
100
AcDbArc
 50
270.0
 51
0.0
  0
ARC
  5
372
330
53
100
AcDbEntity
  8
LC-001-002-RND-0
  6
Continuous
 62
     7
100
AcDbCircle
 10
-299.040606
 20
-87.158008
 30
0.0
 40
1.0
100
AcDbArc
 50
180.0
 51
270.0
  0
ARC
  5
373
330
53
100
AcDbEntity
  8
LC-001-002-RND-0
  6
Continuous
 62
     7
100
AcDbCircle
 10
341.8513889999999
 20
-8.5
 30
0.0
 40
5.0
100
AcDbArc
 50
180.0
 51
270.0
  0
ARC
  5
374
330
53
100
AcDbEntity
  8
LC-002-002-----0
  6
Continuous
 62
     7
100
AcDbCircle
 10
333.5295059999999
 20
5.99374899999998
 30
0.0
 40
3.321883000000014
100
AcDbArc
 50
0.0
 51
84.43944599999789
  0
ARC
  5
375
330
53
100
AcDbEntity
  8
LC-001-002-RND-0
  6
Continuous
 62
     7
100
AcDbCircle
 10
498.087563
 20
54.64197899999999
 30
0.0
 40
2.499999999999337
100
AcDbArc
 50
45.00000000000277
 51
134.9999999999954
  0
ARC
  5
376
330
53
100
AcDbEntity
  8
LC-002-002-----0
  6
Continuous
 62
     7
100
AcDbCircle
 10
498.4116530000001
 20
37.28839999999997
 30
0.0
 40
8.541666999999862
100
AcDbArc
 50
355.4497190000032
 51
94.55028100000472
  0
ARC
  5
377
330
53
100
AcDbEntity
  8
LC-002-002-----0
  6
Continuous
 62
     7
100
AcDbCircle
 10
501.2990060000002
 20
40.17575299999999
 30
0.0
 40
8.541667000000372
100
AcDbArc
 50
175.4497190000035
 51
274.5502809999956
  0
ARC
  5
378
330
53
100
AcDbEntity
  8
LC-001-002-RND-0
  6
Continuous
 62
     7
100
AcDbCircle
 10
-342.540606
 20
-143.158008
 30
0.0
 40
3.99999999999993
100
AcDbArc
 50
103.3423640000018
 51
180.0
  0
ARC
  5
379
330
53
100
AcDbEntity
  8
LC-001-002-RND-0
  6
Continuous
 62
     7
100
AcDbCircle
 10
-300.540606
 20
-143.158008
 30
0.0
 40
4.0
100
AcDbArc
 50
0.0
 51
90.0
  0
ARC
  5
37A
330
53
100
AcDbEntity
  8
LC-002-002-----0
  6
Continuous
 62
     7
100
AcDbCircle
 10
230.0
 20
14.13999999999999
 30
0.0
 40
3.100000000000019
100
AcDbArc
 50
90.0
 51
270.0
  0
ARC
  5
37B
330
53
100
AcDbEntity
  8
LC-002-002-----0
  6
Continuous
 62
     7
100
AcDbCircle
 10
241.7200000000003
 20
14.13999999999999
 30
0.0
 40
3.10000000000003
100
AcDbArc
 50
270.0
 51
90.0
  0
ARC
  5
37C
330
53
100
AcDbEntity
  8
LC-002-002-----0
  6
Continuous
 62
     7
100
AcDbCircle
 10
-28.98152200000004
 20
-78.0
 30
0.0
 40
10.00000000000052
100
AcDbArc
 50
182.1839149999972
 51
270.0
  0
ARC
  5
37D
330
53
100
AcDbEntity
  8
LC-002-002-----0
  6
Continuous
 62
     7
100
AcDbCircle
 10
26.66356700000006
 20
-83.0
 30
0.0
 40
5.0
100
AcDbArc
 50
270.0
 51
352.999999999997
  0
ARC
  5
37E
330
53
100
AcDbEntity
  8
LC-001-002-RND-0
  6
Continuous
 62
     7
100
AcDbCircle
 10
512.9368050000003
 20
30.60034899999999
 30
0.0
 40
3.000000000000507
100
AcDbArc
 50
315.0
 51
45.00000000000015
  0
ARC
  5
37F
330
53
100
AcDbEntity
  8
LC-001-002-RND-0
  6
Continuous
 62
     7
100
AcDbCircle
 10
507.9870580000002
 20
25.65060099999999
 30
0.0
 40
3.000000000000507
100
AcDbArc
 50
225.0
 51
315.0
  0
ARC
  5
380
330
53
100
AcDbEntity
  8
LC-001-002-RND-0
  6
Continuous
 62
     7
100
AcDbCircle
 10
486.773854
 20
46.86380499999996
 30
0.0
 40
3.000000000000466
100
AcDbArc
 50
134.9999999999992
 51
225.0
  0
ARC
  5
381
330
53
100
AcDbEntity
  8
LC-001-002-RND-0
  6
Continuous
 62
     7
100
AcDbCircle
 10
491.723602
 20
51.81355199999996
 30
0.0
 40
3.000000000000466
100
AcDbArc
 50
45.00000000000077
 51
135.0
  0
ARC
  5
382
330
53
100
AcDbEntity
  8
LC-001-002-RND-0
  6
Continuous
 62
     7
100
AcDbCircle
 10
335.3513889999999
 20
38.0
 30
0.0
 40
2.0
100
AcDbArc
 50
90.0
 51
180.0
  0
ARC
  5
383
330
53
100
AcDbEntity
  8
LC-001-002-RND-0
  6
Continuous
 62
     7
100
AcDbCircle
 10
335.3513889999999
 20
-84.0
 30
0.0
 40
2.0
100
AcDbArc
 50
180.0
 51
270.0
  0
ARC
  5
384
330
53
100
AcDbEntity
  8
LC-001-002-RND-0
  6
Continuous
 62
     7
100
AcDbCircle
 10
337.3513889999999
 20
41.0
 30
0.0
 40
1.0
100
AcDbArc
 50
0.0
 51
90.0
  0
ARC
  5
385
330
53
100
AcDbEntity
  8
LC-001-002-RND-0
  6
Continuous
 62
     7
100
AcDbCircle
 10
336.3513889999999
 20
41.0
 30
0.0
 40
1.0
100
AcDbArc
 50
90.0
 51
180.0
  0
ARC
  5
386
330
53
100
AcDbEntity
  8
LC-001-002-RND-0
  6
Continuous
 62
     7
100
AcDbCircle
 10
336.3513889999999
 20
-87.0
 30
0.0
 40
1.0
100
AcDbArc
 50
180.0
 51
270.0
  0
ARC
  5
387
330
53
100
AcDbEntity
  8
LC-001-002-RND-0
  6
Continuous
 62
     7
100
AcDbCircle
 10
337.3513889999999
 20
-87.0
 30
0.0
 40
1.0
100
AcDbArc
 50
270.0
 51
0.0
  0
ARC
  5
388
330
53
100
AcDbEntity
  8
LC-002-002-----0
  6
Continuous
 62
     7
100
AcDbCircle
 10
459.3513889999999
 20
-14.24064200000004
 30
0.0
 40
1.5
100
AcDbArc
 50
0.0
 51
90.0
  0
ARC
  5
389
330
53
100
AcDbEntity
  8
LC-002-002-----0
  6
Continuous
 62
     7
100
AcDbCircle
 10
491.8513889999999
 20
5.62584499999997
 30
0.0
 40
5.000000000000322
100
AcDbArc
 50
134.9999999999995
 51
179.9998480000036
  0
ARC
  5
38A
330
53
100
AcDbEntity
  8
LC-002-002-----0
  6
Continuous
 62
     7
100
AcDbCircle
 10
453.7803210000002
 20
17.75935799999996
 30
0.0
 40
5.0
100
AcDbArc
 50
270.0
 51
315.0000579999964
  0
ARC
  5
38B
330
53
100
AcDbEntity
  8
LC-002-002-----0
  6
Continuous
 62
     7
100
AcDbCircle
 10
488.684722
 20
-38.74064200000004
 30
0.0
 40
2.833332999999994
100
AcDbArc
 50
118.072449000002
 51
241.9271900000021
  0
ARC
  5
38C
330
53
100
AcDbEntity
  8
LC-002-002-----0
  6
Continuous
 62
     7
100
AcDbCircle
 10
459.018055
 20
-38.74064200000004
 30
0.0
 40
2.833332999999767
100
AcDbArc
 50
298.0726039999951
 51
61.92757099999089
  0
ARC
  5
38D
330
53
100
AcDbEntity
  8
LC-002-002-----0
  6
Continuous
 62
     7
100
AcDbCircle
 10
480.4763889999999
 20
-34.21251699999999
 30
0.0
 40
7.028125000000045
100
AcDbArc
 50
223.9182580000005
 51
316.081590000001
  0
ARC
  5
38E
330
53
100
AcDbEntity
  8
LC-002-002-----0
  6
Continuous
 62
     7
100
AcDbCircle
 10
485.178782
 20
-38.74064200000004
 30
0.0
 40
0.4999999999998146
100
AcDbArc
 50
316.0816480000297
 51
43.91840999995901
  0
ARC
  5
38F
330
53
100
AcDbEntity
  8
LC-002-002-----0
  6
Continuous
 62
     7
100
AcDbCircle
 10
480.4763889999999
 20
-43.26876700000003
 30
0.0
 40
7.028124999999721
100
AcDbArc
 50
43.91840999999901
 51
136.0815709999955
  0
ARC
  5
390
330
53
100
AcDbEntity
  8
LC-002-002-----0
  6
Continuous
 62
     7
100
AcDbCircle
 10
475.7739959999999
 20
-38.74064200000004
 30
0.0
 40
0.4999999999995395
100
AcDbArc
 50
136.0815900000094
 51
223.918258000007
  0
ARC
  5
391
330
53
100
AcDbEntity
  8
LC-002-002-----0
  6
Continuous
 62
     7
100
AcDbCircle
 10
467.2263889999999
 20
-34.21251699999999
 30
0.0
 40
7.028125000000045
100
AcDbArc
 50
223.9182580000005
 51
316.081590000001
  0
ARC
  5
392
330
53
100
AcDbEntity
  8
LC-002-002-----0
  6
Continuous
 62
     7
100
AcDbCircle
 10
471.928782
 20
-38.74064200000004
 30
0.0
 40
0.4999999999998146
100
AcDbArc
 50
316.0816480000297
 51
43.91840999995901
  0
ARC
  5
393
330
53
100
AcDbEntity
  8
LC-002-002-----0
  6
Continuous
 62
     7
100
AcDbCircle
 10
467.2263889999999
 20
-43.26876700000003
 30
0.0
 40
7.028124999999721
100
AcDbArc
 50
43.91840999999901
 51
136.0815709999955
  0
ARC
  5
394
330
53
100
AcDbEntity
  8
LC-002-002-----0
  6
Continuous
 62
     7
100
AcDbCircle
 10
-387.1960079999999
 20
-20.474695
 30
0.0
 40
6.690725999999975
100
AcDbArc
 50
177.2889569999977
 51
272.7219149999985
  0
ARC
  5
395
330
53
100
AcDbEntity
  8
LC-002-002-----0
  6
Continuous
 62
     7
100
AcDbCircle
 10
-387.1984199999999
 20
20.15902699999998
 30
0.0
 40
6.690726000000087
100
AcDbArc
 50
87.28488600000186
 51
182.7178450000019
  0
ARC
  5
396
330
53
100
AcDbEntity
  8
LC-001-002-RND-0
  6
Continuous
 62
     7
100
AcDbCircle
 10
380.8513889999999
 20
-143.0
 30
0.0
 40
4.0
100
AcDbArc
 50
0.0
 51
76.65763599999268
  0
ARC
  5
397
330
53
100
AcDbEntity
  8
LC-001-002-RND-0
  6
Continuous
 62
     7
100
AcDbCircle
 10
338.8513889999999
 20
-143.0
 30
0.0
 40
4.0
100
AcDbArc
 50
90.0
 51
180.0
  0
ARC
  5
398
330
53
100
AcDbEntity
  8
LC-002-002-----0
  6
Continuous
 62
     7
100
AcDbCircle
 10
462.5239959999999
 20
-38.74064200000004
 30
0.0
 40
0.4999999999995395
100
AcDbArc
 50
136.0815900000094
 51
223.918258000007
  0
ARC
  5
399
330
53
100
AcDbEntity
  8
LC-001-002-RND-0
  6
Continuous
 62
     7
100
AcDbCircle
 10
-321.540606
 20
37.341992
 30
0.0
 40
2.5
100
AcDbArc
 50
90.0
 51
169.08211499999
  0
ARC
  5
39A
330
53
100
AcDbEntity
  8
LC-001-002-RND-0
  6
Continuous
 62
     7
100
AcDbCircle
 10
-340.540606
 20
-61.158008
 30
0.0
 40
2.499999999999996
100
AcDbArc
 50
169.08211499999
 51
180.0
  0
ARC
  5
39B
330
53
100
AcDbEntity
  8
LC-001-002-RND-0
  6
Continuous
 62
     7
100
AcDbCircle
 10
-344.040606
 20
-136.833452
 30
0.0
 40
2.499999999999588
100
AcDbArc
 50
283.3423640000029
 51
0.0
  0
ARC
  5
39C
330
53
100
AcDbEntity
  8
LC-001-002-RND-0
  6
Continuous
 62
     7
100
AcDbCircle
 10
-299.040606
 20
-136.658008
 30
0.0
 40
2.5
100
AcDbArc
 50
180.0
 51
270.0
  0
ARC
  5
39D
330
53
100
AcDbEntity
  8
LC-001-002-RND-0
  6
Continuous
 62
     7
100
AcDbCircle
 10
-340.540606
 20
-83.658008
 30
0.0
 40
2.5
100
AcDbArc
 50
180.0
 51
270.0
  0
ARC
  5
39E
330
53
100
AcDbEntity
  8
LC-002-002-----0
  6
Continuous
 62
     7
100
AcDbCircle
 10
420.1911949999999
 20
-44.26591400000001
 30
0.0
 40
2.999999999999628
100
AcDbArc
 50
314.9066060000007
 51
359.9066060000057
  0
ARC
  5
39F
330
53
100
AcDbEntity
  8
LC-002-002-----0
  6
Continuous
 62
     7
100
AcDbCircle
 10
420.1911949999999
 20
44.26591500000001
 30
0.0
 40
3.000000000000564
100
AcDbArc
 50
0.09339399999326
 51
45.09339399999847
  0
ARC
  5
3A0
330
53
100
AcDbEntity
  8
LC-001-002-RND-0
  6
Continuous
 62
     7
100
AcDbCircle
 10
359.8513889999999
 20
37.5
 30
0.0
 40
2.500000000000441
100
AcDbArc
 50
10.91788500000789
 51
90.0
  0
ARC
  5
3A1
330
53
100
AcDbEntity
  8
LC-001-002-RND-0
  6
Continuous
 62
     7
100
AcDbCircle
 10
378.8513889999999
 20
-61.0
 30
0.0
 40
2.5
100
AcDbArc
 50
0.0
 51
10.91788500000789
  0
ARC
  5
3A2
330
53
100
AcDbEntity
  8
LC-001-002-RND-0
  6
Continuous
 62
     7
100
AcDbCircle
 10
382.3513889999999
 20
-136.675444
 30
0.0
 40
2.5
100
AcDbArc
 50
180.0
 51
256.6576359999933
  0
ARC
  5
3A3
330
53
100
AcDbEntity
  8
LC-001-002-RND-0
  6
Continuous
 62
     7
100
AcDbCircle
 10
337.3513889999999
 20
-136.5
 30
0.0
 40
2.5
100
AcDbArc
 50
270.0
 51
0.0
  0
ARC
  5
3A4
330
53
100
AcDbEntity
  8
LC-001-002-RND-0
  6
Continuous
 62
     7
100
AcDbCircle
 10
378.8513889999999
 20
-83.5
 30
0.0
 40
2.5
100
AcDbArc
 50
270.0
 51
0.0
  0
ARC
  5
3A5
330
53
100
AcDbEntity
  8
LC-001-002-RND-0
  6
Continuous
 62
     7
100
AcDbCircle
 10
515.7652319999997
 20
36.96431000000001
 30
0.0
 40
2.499999999999658
100
AcDbArc
 50
315.0000000000028
 51
44.99999999999632
  0
ARC
  5
3A6
330
53
100
AcDbEntity
  8
LC-002-002-----0
  6
Continuous
 62
     7
100
AcDbCircle
 10
79.99572900000021
 20
0.0
 30
0.0
 40
30.50000000000043
100
AcDbArc
 50
301.7989129999996
 51
60.54082500000013
  0
ARC
  5
3A7
330
53
100
AcDbEntity
  8
LC-002-002-----0
  6
Continuous
 62
     7
100
AcDbCircle
 10
79.99572900000021
 20
0.0
 30
0.0
 40
30.49999999999993
100
AcDbArc
 50
119.4591750000006
 51
239.4562109999985
  0
ARC
  5
3A8
330
53
100
AcDbEntity
  8
LC-001-002-RND-0
  6
Continuous
 62
     7
100
AcDbCircle
 10
21.0
 20
-143.0
 30
0.0
 40
4.0
100
AcDbArc
 50
0.0
 51
90.0
  0
ARC
  5
3A9
330
53
100
AcDbEntity
  8
LC-001-002-RND-0
  6
Continuous
 62
     7
100
AcDbCircle
 10
-21.0
 20
-143.0
 30
0.0
 40
4.0
100
AcDbArc
 50
90.0
 51
180.0
  0
ARC
  5
3AA
330
53
100
AcDbEntity
  8
LC-002-002-----0
  6
DASHED
 62
     7
100
AcDbCircle
 10
-26.99572899999998
 20
27.0
 30
0.0
 40
4.0
100
AcDbArc
 50
0.0
 51
180.0
  0
ARC
  5
3AB
330
53
100
AcDbEntity
  8
LC-002-002-----0
  6
DASHED
 62
     7
100
AcDbCircle
 10
-47.99072899999999
 20
-31.99854200000004
 30
0.0
 40
5.0
100
AcDbArc
 50
0.0
 51
90.0
  0
ARC
  5
3AC
330
53
100
AcDbEntity
  8
LC-002-002-----0
  6
DASHED
 62
     7
100
AcDbCircle
 10
47.99927100000002
 20
-31.99854200000004
 30
0.0
 40
5.0
100
AcDbArc
 50
90.0
 51
180.0
  0
ARC
  5
3AD
330
53
100
AcDbEntity
  8
LC-002-002-----0
  6
DASHED
 62
     7
100
AcDbCircle
 10
101.999271
 20
22.00145799999996
 30
0.0
 40
5.0
100
AcDbArc
 50
0.0
 51
90.0
  0
ARC
  5
3AE
330
53
100
AcDbEntity
  8
LC-002-002-----0
  6
DASHED
 62
     7
100
AcDbCircle
 10
101.999271
 20
-21.99854200000004
 30
0.0
 40
5.0
100
AcDbArc
 50
270.0
 51
0.0
  0
ARC
  5
3AF
330
53
100
AcDbEntity
  8
LC-002-002-----0
  6
DASHED
 62
     7
100
AcDbCircle
 10
37.99927100000002
 20
-68.0
 30
0.0
 40
5.0
100
AcDbArc
 50
270.0
 51
0.0
  0
ARC
  5
3B0
330
53
100
AcDbEntity
  8
LC-002-002-----0
  6
DASHED
 62
     7
100
AcDbCircle
 10
-102.000729
 20
-21.99854200000004
 30
0.0
 40
5.0
100
AcDbArc
 50
180.0
 51
270.0
  0
ARC
  5
3B1
330
53
100
AcDbEntity
  8
LC-002-002-----0
  6
DASHED
 62
     7
100
AcDbCircle
 10
-102.000729
 20
22.00145799999996
 30
0.0
 40
5.0
100
AcDbArc
 50
90.0
 51
180.0
  0
ARC
  5
3B2
330
53
100
AcDbEntity
  8
LC-002-002-----0
  6
DASHED
 62
     7
100
AcDbCircle
 10
-49.99572899999998
 20
35.51481899999999
 30
0.0
 40
6.0
100
AcDbArc
 50
0.0
 51
180.0
  0
ARC
  5
3B3
330
53
100
AcDbEntity
  8
LC-002-002-----0
  6
DASHED
 62
     7
100
AcDbCircle
 10
50.00427100000002
 20
35.51481899999999
 30
0.0
 40
6.0
100
AcDbArc
 50
0.0
 51
180.0
  0
ARC
  5
3B4
330
53
100
AcDbEntity
  8
LC-002-002-----0
  6
DASHED
 62
     7
100
AcDbCircle
 10
-51.99572899999998
 20
-32.51481899999999
 30
0.0
 40
3.0
100
AcDbArc
 50
90.0
 51
270.0
  0
ARC
  5
3B5
330
53
100
AcDbEntity
  8
LC-002-002-----0
  6
DASHED
 62
     7
100
AcDbCircle
 10
-49.99572899999998
 20
31.51481899999999
 30
0.0
 40
3.0
100
AcDbArc
 50
180.0
 51
0.0
  0
ARC
  5
3B6
330
53
100
AcDbEntity
  8
LC-002-002-----0
  6
DASHED
 62
     7
100
AcDbCircle
 10
-49.99572899999998
 20
35.51481899999999
 30
0.0
 40
3.0
100
AcDbArc
 50
0.0
 51
180.0
  0
ARC
  5
3B7
330
53
100
AcDbEntity
  8
LC-002-002-----0
  6
DASHED
 62
     7
100
AcDbCircle
 10
52.00427100000002
 20
-32.51481899999999
 30
0.0
 40
5.0
100
AcDbArc
 50
270.0
 51
0.0
  0
ARC
  5
3B8
330
53
100
AcDbEntity
  8
LC-002-002-----0
  6
DASHED
 62
     7
100
AcDbCircle
 10
48.00427100000002
 20
-32.51481899999999
 30
0.0
 40
3.0
100
AcDbArc
 50
90.0
 51
270.0
  0
ARC
  5
3B9
330
53
100
AcDbEntity
  8
LC-002-002-----0
  6
DASHED
 62
     7
100
AcDbCircle
 10
52.00427100000002
 20
-32.51481899999999
 30
0.0
 40
3.0
100
AcDbArc
 50
270.0
 51
90.0
  0
ARC
  5
3BA
330
53
100
AcDbEntity
  8
LC-002-002-----0
  6
DASHED
 62
     7
100
AcDbCircle
 10
50.00427100000002
 20
31.51481899999999
 30
0.0
 40
3.0
100
AcDbArc
 50
180.0
 51
0.0
  0
ARC
  5
3BB
330
53
100
AcDbEntity
  8
LC-002-002-----0
  6
DASHED
 62
     7
100
AcDbCircle
 10
50.00427100000002
 20
35.51481899999999
 30
0.0
 40
3.0
100
AcDbArc
 50
0.0
 51
180.0
  0
ARC
  5
3BC
330
53
100
AcDbEntity
  8
LC-002-002-----0
  6
DASHED
 62
     7
100
AcDbCircle
 10
-101.995729
 20
-22.0
 30
0.0
 40
5.0
100
AcDbArc
 50
180.0
 51
270.0
  0
ARC
  5
3BD
330
53
100
AcDbEntity
  8
LC-002-002-----0
  6
DASHED
 62
     7
100
AcDbCircle
 10
102.004271
 20
22.0
 30
0.0
 40
5.0
100
AcDbArc
 50
0.0
 51
90.0
  0
ARC
  5
3BE
330
53
100
AcDbEntity
  8
LC-002-002-----0
  6
DASHED
 62
     7
100
AcDbCircle
 10
102.004271
 20
-22.0
 30
0.0
 40
5.0
100
AcDbArc
 50
270.0
 51
0.0
  0
ARC
  5
3BF
330
53
100
AcDbEntity
  8
LC-002-002-----0
  6
DASHED
 62
     7
100
AcDbCircle
 10
0.0
 20
0.0
 30
0.0
 40
42.0
100
AcDbArc
 50
90.0
 51
180.0526379999999
  0
ARC
  5
3C0
330
53
100
AcDbEntity
  8
LC-002-002-----0
  6
DASHED
 62
     7
100
AcDbCircle
 10
41.22607800000003
 20
-39.00279900000004
 30
0.0
 40
5.000000000000001
100
AcDbArc
 50
221.8223779999973
 51
136.5507939999962
  0
ARC
  5
3C1
330
53
100
AcDbEntity
  8
LC-002-002-----0
  6
DASHED
 62
     7
100
AcDbCircle
 10
-99.99572899999998
 20
0.0
 30
0.0
 40
5.999999999999836
100
AcDbArc
 50
100.0000000000045
 51
260.5027660000046
  0
ARC
  5
3C2
330
53
100
AcDbEntity
  8
LC-002-002-----0
  6
DASHED
 62
     7
100
AcDbCircle
 10
-59.99572899999998
 20
0.0
 30
0.0
 40
6.0000000000002
100
AcDbArc
 50
279.4972340000047
 51
79.99999999999567
  0
ARC
  5
3C3
330
53
100
AcDbEntity
  8
LC-002-002-----0
  6
DASHED
 62
     7
100
AcDbCircle
 10
-47.99572899999998
 20
-32.51481899999999
 30
0.0
 40
3.0
100
AcDbArc
 50
270.0
 51
90.0
  0
ARC
  5
3C4
330
53
100
AcDbEntity
  8
LC-002-002-----0
  6
DASHED
 62
     7
100
AcDbCircle
 10
-51.99572899999998
 20
-32.51481899999999
 30
0.0
 40
5.0
100
AcDbArc
 50
180.0
 51
270.0
  0
ARC
  5
3C5
330
53
100
AcDbEntity
  8
LC-002-002-----0
  6
DASHED
 62
     7
100
AcDbCircle
 10
41.22607800000003
 20
-39.00279900000004
 30
0.0
 40
4.99999999999971
100
AcDbArc
 50
209.2832060000024
 51
221.8223779999973
  0
ARC
  5
3C6
330
53
100
AcDbEntity
  8
LC-002-002-----0
  6
DASHED
 62
     7
100
AcDbCircle
 10
-44.77392199999997
 20
-39.50279900000004
 30
0.0
 40
4.999999999999789
100
AcDbArc
 50
33.009185999998
 51
331.414343000004
  0
ARC
  5
3C7
330
53
100
AcDbEntity
  8
LC-002-002-----0
  6
DASHED
 62
     7
100
AcDbCircle
 10
60.0
 20
0.0
 30
0.0
 40
5.999999999999834
100
AcDbArc
 50
100.0000000000043
 51
260.502766000005
  0
ARC
  5
3C8
330
53
100
AcDbEntity
  8
LC-002-002-----0
  6
DASHED
 62
     7
100
AcDbCircle
 10
100.0
 20
0.0
 30
0.0
 40
6.000000000000033
100
AcDbArc
 50
279.4972339999951
 51
79.99999999999567
  0
ARC
  5
3C9
330
53
100
AcDbEntity
  8
LC-001-002-RND-0
  6
DASHED
 62
     7
100
AcDbCircle
 10
348.051389
 20
0.70752099999999
 30
0.0
 40
10.0
100
AcDbArc
 50
180.0
 51
270.0
  0
ARC
  5
3CA
330
53
100
AcDbEntity
  8
LC-002-002-----0
  6
DASHED
 62
     7
100
AcDbCircle
 10
0.0
 20
0.0
 30
0.0
 40
41.99999999999987
100
AcDbArc
 50
359.8310980000003
 51
26.76550099999982
  0
ARC
  5
3CB
330
53
100
AcDbEntity
  8
LC-002-002-----0
  6
DASHED
 62
     7
100
AcDbCircle
 10
-395.553096
 20
28.12573199999997
 30
0.0
 40
8.451552999999592
100
AcDbArc
 50
281.4068880000003
 51
351.3165279999978
  0
ARC
  5
3CC
330
53
100
AcDbEntity
  8
LC-002-002-----0
  6
DASHED
 62
     7
100
AcDbCircle
 10
-395.549739
 20
-28.44239200000004
 30
0.0
 40
8.45155299999999
100
AcDbArc
 50
8.6902730000005
 51
78.59991400000024
  0
ARC
  5
3CD
330
53
100
AcDbEntity
  8
LC-002-002-----0
  6
Continuous
 62
     7
100
AcDbCircle
 10
-396.38526
 20
-0.20922300000001
 30
0.0
 40
9.503896999999945
100
AcDbArc
 50
341.9244180000027
 51
0.30876300000068
  0
ARC
  5
3CE
330
53
100
AcDbEntity
  8
LC-002-002-----0
  6
Continuous
 62
     7
100
AcDbCircle
 10
-392.698859
 20
-1.50982900000002
 30
0.0
 40
5.59665399999987
100
AcDbArc
 50
316.6148240000016
 51
342.8728069999989
  0
ARC
  5
3CF
330
53
100
AcDbEntity
  8
LC-002-002-----0
  6
Continuous
 62
     7
100
AcDbCircle
 10
-390.750669
 20
-3.263846
 30
0.0
 40
2.976644999999642
100
AcDbArc
 50
295.3632000000036
 51
315.3929340000062
  0
ARC
  5
3D0
330
53
100
AcDbEntity
  8
LC-002-002-----0
  6
Continuous
 62
     7
100
AcDbCircle
 10
-390.392785
 20
-3.99884400000002
 30
0.0
 40
2.159208999999838
100
AcDbArc
 50
270.3001400000003
 51
295.1363800000031
  0
ARC
  5
3D1
330
53
100
AcDbEntity
  8
LC-002-002-----0
  6
Continuous
 62
     7
100
AcDbCircle
 10
-390.370183
 20
-3.99884300000002
 30
0.0
 40
2.15920900000013
100
AcDbArc
 50
244.8641260000002
 51
269.7003660000009
  0
ARC
  5
3D2
330
53
100
AcDbEntity
  8
LC-002-002-----0
  6
Continuous
 62
     7
100
AcDbCircle
 10
-390.012305
 20
-3.26384300000001
 30
0.0
 40
2.976645000000133
100
AcDbArc
 50
224.6075710000043
 51
244.6373060000016
  0
ARC
  5
3D3
330
53
100
AcDbEntity
  8
LC-002-002-----0
  6
Continuous
 62
     7
100
AcDbCircle
 10
-388.06413
 20
-1.50980900000002
 30
0.0
 40
5.596654000000056
100
AcDbArc
 50
197.1276990000026
 51
223.3856809999992
  0
ARC
  5
3D4
330
53
100
AcDbEntity
  8
LC-002-002-----0
  6
Continuous
 62
     7
100
AcDbCircle
 10
-384.377742
 20
-0.20917000000003
 30
0.0
 40
9.50389699999995
100
AcDbArc
 50
179.6917429999977
 51
198.0760869999981
  0
ARC
  5
3D5
330
53
100
AcDbEntity
  8
LC-002-002-----0
  6
Continuous
 62
     7
100
AcDbCircle
 10
-384.377742
 20
-0.10682300000002
 30
0.0
 40
9.503896999999892
100
AcDbArc
 50
161.9244180000025
 51
180.3087630000007
  0
ARC
  5
3D6
330
53
100
AcDbEntity
  8
LC-002-002-----0
  6
Continuous
 62
     7
100
AcDbCircle
 10
-388.064142
 20
1.193783
 30
0.0
 40
5.596653999999829
100
AcDbArc
 50
136.6148240000012
 51
162.872806999999
  0
ARC
  5
3D7
330
53
100
AcDbEntity
  8
LC-002-002-----0
  6
Continuous
 62
     7
100
AcDbCircle
 10
-390.012333
 20
2.94779999999997
 30
0.0
 40
2.976644999999642
100
AcDbArc
 50
115.3632000000037
 51
135.3929340000054
  0
ARC
  5
3D8
330
53
100
AcDbEntity
  8
LC-002-002-----0
  6
Continuous
 62
     7
100
AcDbCircle
 10
-390.370217
 20
3.68279799999999
 30
0.0
 40
2.159208999999838
100
AcDbArc
 50
90.30013999999882
 51
115.1363800000031
  0
ARC
  5
3D9
330
53
100
AcDbEntity
  8
LC-002-002-----0
  6
Continuous
 62
     7
100
AcDbCircle
 10
-390.392819
 20
3.68279699999999
 30
0.0
 40
2.159209000000105
100
AcDbArc
 50
64.86412600000162
 51
89.70036600000084
  0
ARC
  5
3DA
330
53
100
AcDbEntity
  8
LC-002-002-----0
  6
Continuous
 62
     7
100
AcDbCircle
 10
-390.750696
 20
2.94779699999998
 30
0.0
 40
2.976645000000173
100
AcDbArc
 50
44.60757100000353
 51
64.63730600000164
  0
ARC
  5
3DB
330
53
100
AcDbEntity
  8
LC-002-002-----0
  6
Continuous
 62
     7
100
AcDbCircle
 10
-392.698871
 20
1.19376299999999
 30
0.0
 40
5.596654000000002
100
AcDbArc
 50
17.12769900000276
 51
43.3856809999992
  0
ARC
  5
3DC
330
53
100
AcDbEntity
  8
LC-002-002-----0
  6
Continuous
 62
     7
100
AcDbCircle
 10
-396.38526
 20
-0.106876
 30
0.0
 40
9.503897000000007
100
AcDbArc
 50
359.6917429999978
 51
18.07608699999811
  0
ARC
  5
3DD
330
53
100
AcDbEntity
  8
LC-002-002-----0
  6
Continuous
 62
     7
100
AcDbCircle
 10
-392.408777
 20
-13.17397800000003
 30
0.0
 40
5.522367000000122
100
AcDbArc
 50
336.2584889999969
 51
0.27984299999459
  0
ARC
  5
3DE
330
53
100
AcDbEntity
  8
LC-002-002-----0
  6
Continuous
 62
     7
100
AcDbCircle
 10
-391.166622
 20
-13.75722100000002
 30
0.0
 40
4.150652000000156
100
AcDbArc
 50
307.6080409999981
 51
336.7247640000031
  0
ARC
  5
3DF
330
53
100
AcDbEntity
  8
LC-002-002-----0
  6
Continuous
 62
     7
100
AcDbCircle
 10
-390.414889
 20
-14.72246999999999
 30
0.0
 40
2.927233999999655
100
AcDbArc
 50
270.619786
 51
307.4812710000014
  0
ARC
  5
3E0
330
53
100
AcDbEntity
  8
LC-002-002-----0
  6
Continuous
 62
     7
100
AcDbCircle
 10
-390.355789
 20
-14.72242700000004
 30
0.0
 40
2.927233999999693
100
AcDbArc
 50
232.6015009999954
 51
269.4629859999993
  0
ARC
  5
3E1
330
53
100
AcDbEntity
  8
LC-002-002-----0
  6
Continuous
 62
     7
100
AcDbCircle
 10
-389.605451
 20
-13.75609300000002
 30
0.0
 40
4.15065200000002
100
AcDbArc
 50
203.3580080000017
 51
232.4747309999995
  0
ARC
  5
3E2
330
53
100
AcDbEntity
  8
LC-002-002-----0
  6
Continuous
 62
     7
100
AcDbCircle
 10
-388.36414
 20
-13.17105700000002
 30
0.0
 40
5.522366999999963
100
AcDbArc
 50
179.8029290000037
 51
203.8242830000024
  0
ARC
  5
3E3
330
53
100
AcDbEntity
  8
LC-002-002-----0
  6
Continuous
 62
     7
100
AcDbCircle
 10
-388.364173
 20
-13.12509
 30
0.0
 40
5.522367000000122
100
AcDbArc
 50
156.258488999997
 51
180.2798429999946
  0
ARC
  5
3E4
330
53
100
AcDbEntity
  8
LC-002-002-----0
  6
Continuous
 62
     7
100
AcDbCircle
 10
-389.606328
 20
-12.54184800000002
 30
0.0
 40
4.150652000000128
100
AcDbArc
 50
127.6080409999974
 51
156.7247640000027
  0
ARC
  5
3E5
330
53
100
AcDbEntity
  8
LC-002-002-----0
  6
Continuous
 62
     7
100
AcDbCircle
 10
-390.358061
 20
-11.57659899999999
 30
0.0
 40
2.927233999999599
100
AcDbArc
 50
90.61978599999891
 51
127.481271000002
  0
ARC
  5
3E6
330
53
100
AcDbEntity
  8
LC-002-002-----0
  6
Continuous
 62
     7
100
AcDbCircle
 10
-390.417161
 20
-11.57664199999999
 30
0.0
 40
2.92723399999973
100
AcDbArc
 50
52.60150099999456
 51
89.46298599999928
  0
ARC
  5
3E7
330
53
100
AcDbEntity
  8
LC-002-002-----0
  6
Continuous
 62
     7
100
AcDbCircle
 10
-391.167499
 20
-12.54297600000001
 30
0.0
 40
4.15065200000002
100
AcDbArc
 50
23.35800800000174
 51
52.47473099999954
  0
ARC
  5
3E8
330
53
100
AcDbEntity
  8
LC-002-002-----0
  6
Continuous
 62
     7
100
AcDbCircle
 10
-392.40881
 20
-13.12801200000001
 30
0.0
 40
5.522366999999963
100
AcDbArc
 50
359.8029290000036
 51
23.82428300000216
  0
ARC
  5
3E9
330
53
100
AcDbEntity
  8
LC-002-002-----0
  6
Continuous
 62
     7
100
AcDbCircle
 10
-392.41035
 20
12.81172499999997
 30
0.0
 40
5.522366999999853
100
AcDbArc
 50
336.1825180000018
 51
0.20387299999814
  0
ARC
  5
3EA
330
53
100
AcDbEntity
  8
LC-002-002-----0
  6
Continuous
 62
     7
100
AcDbCircle
 10
-391.16897
 20
12.22683699999999
 30
0.0
 40
4.150652000000043
100
AcDbArc
 50
307.5320699999987
 51
336.6487940000051
  0
ARC
  5
3EB
330
53
100
AcDbEntity
  8
LC-002-002-----0
  6
Continuous
 62
     7
100
AcDbCircle
 10
-390.418517
 20
11.26059099999998
 30
0.0
 40
2.927234000000413
100
AcDbArc
 50
270.5438150000005
 51
307.405300999996
  0
ARC
  5
3EC
330
53
100
AcDbEntity
  8
LC-002-002-----0
  6
Continuous
 62
     7
100
AcDbCircle
 10
-390.359417
 20
11.26055600000001
 30
0.0
 40
2.927233999999989
100
AcDbArc
 50
232.5255309999995
 51
269.3870160000002
  0
ARC
  5
3ED
330
53
100
AcDbEntity
  8
LC-002-002-----0
  6
Continuous
 62
     7
100
AcDbCircle
 10
-389.607798
 20
12.22589399999998
 30
0.0
 40
4.150652000000133
100
AcDbArc
 50
203.2820380000035
 51
232.3987609999979
  0
ARC
  5
3EE
330
53
100
AcDbEntity
  8
LC-002-002-----0
  6
Continuous
 62
     7
100
AcDbCircle
 10
-388.365713
 20
12.80928399999999
 30
0.0
 40
5.522367000000002
100
AcDbArc
 50
179.7269590000055
 51
203.7483130000003
  0
ARC
  5
3EF
330
53
100
AcDbEntity
  8
LC-002-002-----0
  6
Continuous
 62
     7
100
AcDbCircle
 10
-388.365685
 20
12.85525000000001
 30
0.0
 40
5.522366999999881
100
AcDbArc
 50
156.1825180000026
 51
180.2038729999981
  0
ARC
  5
3F0
330
53
100
AcDbEntity
  8
LC-002-002-----0
  6
Continuous
 62
     7
100
AcDbCircle
 10
-389.607065
 20
13.44013899999999
 30
0.0
 40
4.150652000000074
100
AcDbArc
 50
127.5320699999994
 51
156.6487940000056
  0
ARC
  5
3F1
330
53
100
AcDbEntity
  8
LC-002-002-----0
  6
Continuous
 62
     7
100
AcDbCircle
 10
-390.357518
 20
14.406384
 30
0.0
 40
2.927234000000412
100
AcDbArc
 50
90.54381499999941
 51
127.405300999996
  0
ARC
  5
3F2
330
53
100
AcDbEntity
  8
LC-002-002-----0
  6
Continuous
 62
     7
100
AcDbCircle
 10
-390.416618
 20
14.40641999999997
 30
0.0
 40
2.927233999999983
100
AcDbArc
 50
52.52553099999941
 51
89.3870159999991
  0
ARC
  5
3F3
330
53
100
AcDbEntity
  8
LC-002-002-----0
  6
Continuous
 62
     7
100
AcDbCircle
 10
-391.168237
 20
13.441081
 30
0.0
 40
4.150652000000081
100
AcDbArc
 50
23.28203800000375
 51
52.39876099999798
  0
ARC
  5
3F4
330
53
100
AcDbEntity
  8
LC-002-002-----0
  6
Continuous
 62
     7
100
AcDbCircle
 10
-392.410322
 20
12.85769199999999
 30
0.0
 40
5.522367000000059
100
AcDbArc
 50
359.7269590000054
 51
23.74831300000008
  0
ARC
  5
3F5
330
53
100
AcDbEntity
  8
LC-002-002-----0
  6
Continuous
 62
     7
100
AcDbCircle
 10
82.621778
 20
38.39136400000001
 30
0.0
 40
15.43087999999965
100
AcDbArc
 50
19.32645799999941
 51
37.77560900000062
  0
ARC
  5
3F6
330
53
100
AcDbEntity
  8
LC-002-002-----0
  6
Continuous
 62
     7
100
AcDbCircle
 10
83.48814300000004
 20
38.71091200000001
 30
0.0
 40
14.50759000000015
100
AcDbArc
 50
0.04080000000113
 51
19.26793899999986
  0
ARC
  5
3F7
330
53
100
AcDbEntity
  8
LC-002-002-----0
  6
Continuous
 62
     7
100
AcDbCircle
 10
79.381304
 20
40.98960999999997
 30
0.0
 40
18.23904300000008
100
AcDbArc
 50
226.5054939999982
 51
251.1742539999995
  0
ARC
  5
3F8
330
53
100
AcDbEntity
  8
LC-002-002-----0
  6
Continuous
 62
     7
100
AcDbCircle
 10
77.678607
 20
39.20677000000001
 30
0.0
 40
15.77375999999981
100
AcDbArc
 50
199.3357609999991
 51
226.5349289999989
  0
ARC
  5
3F9
330
53
100
AcDbEntity
  8
LC-002-002-----0
  6
Continuous
 62
     7
100
AcDbCircle
 10
76.435789
 20
38.71906899999999
 30
0.0
 40
14.43964699999968
100
AcDbArc
 50
170.2769419999991
 51
199.1425560000004
  0
ARC
  5
3FA
330
53
100
AcDbEntity
  8
LC-002-002-----0
  6
Continuous
 62
     7
100
AcDbCircle
 10
77.11904099999998
 20
38.53618499999999
 30
0.0
 40
15.14410899999977
100
AcDbArc
 50
142.0765920000015
 51
170.0315309999997
  0
ARC
  5
3FB
330
53
100
AcDbEntity
  8
LC-002-002-----0
  6
Continuous
 62
     7
100
AcDbCircle
 10
83.08657499999998
 20
38.79966099999996
 30
0.0
 40
14.90935999999998
100
AcDbArc
 50
322.0603389999981
 51
359.6986409999989
  0
ARC
  5
3FC
330
53
100
AcDbEntity
  8
LC-002-002-----0
  6
Continuous
 62
     7
100
AcDbCircle
 10
80.81504699999999
 20
40.61040299999996
 30
0.0
 40
17.81414800000003
100
AcDbArc
 50
288.5955640000012
 51
321.9591829999991
  0
ARC
  5
3FD
330
53
100
AcDbEntity
  8
LC-002-002-----0
  6
Continuous
 62
     7
100
AcDbCircle
 10
75.476538
 20
45.11244499999998
 30
0.0
 40
10.70176700000057
100
AcDbArc
 50
126.1879730000008
 51
158.6992820000001
  0
ARC
  5
3FE
330
53
100
AcDbEntity
  8
LC-002-002-----0
  6
Continuous
 62
     7
100
AcDbCircle
 10
79.02589899999998
 20
40.45747799999998
 30
0.0
 40
16.5547969999997
100
AcDbArc
 50
102.3607390000001
 51
126.5900439999993
  0
ARC
  5
3FF
330
53
100
AcDbEntity
  8
LC-002-002-----0
  6
Continuous
 62
     7
100
AcDbCircle
 10
80.00055700000001
 20
36.82770899999997
 30
0.0
 40
20.30982099999968
100
AcDbArc
 50
81.73750799999962
 51
102.854591000001
  0
ARC
  5
400
330
53
100
AcDbEntity
  8
LC-002-002-----0
  6
Continuous
 62
     7
100
AcDbCircle
 10
80.51171499999998
 20
39.31215800000001
 30
0.0
 40
17.77832600000029
100
AcDbArc
 50
59.12269599999919
 51
82.21711400000103
  0
ARC
  5
401
330
53
100
AcDbEntity
  8
LC-002-002-----0
  6
Continuous
 62
     7
100
AcDbCircle
 10
83.64906300000001
 20
44.36522099999996
 30
0.0
 40
11.83176799999984
100
AcDbArc
 50
29.22225400000338
 51
59.60427999999929
  0
ARC
  5
402
330
53
100
AcDbEntity
  8
LC-002-002-----0
  6
Continuous
 62
     7
100
AcDbCircle
 10
86.707741
 20
46.16366099999999
 30
0.0
 40
8.284715999999527
100
AcDbArc
 50
350.0422850000002
 51
28.69446799999897
  0
ARC
  5
403
330
53
100
AcDbEntity
  8
LC-002-002-----0
  6
Continuous
 62
     7
100
AcDbCircle
 10
85.46547500000003
 20
46.598905
 30
0.0
 40
9.585916999999963
100
AcDbArc
 50
313.7424309999999
 51
348.7638440000019
  0
ARC
  5
404
330
53
100
AcDbEntity
  8
LC-002-002-----0
  6
Continuous
 62
     7
100
AcDbCircle
 10
81.70665600000001
 20
50.44607199999996
 30
0.0
 40
14.96433999999987
100
AcDbArc
 50
288.0212400000001
 51
313.9552380000021
  0
ARC
  5
405
330
53
100
AcDbEntity
  8
LC-002-002-----0
  6
Continuous
 62
     7
100
AcDbCircle
 10
80.01934299999999
 20
55.05973999999998
 30
0.0
 40
19.87446300000003
100
AcDbArc
 50
267.1052179999994
 51
288.5321169999999
  0
ARC
  5
406
330
53
100
AcDbEntity
  8
LC-002-002-----0
  6
Continuous
 62
     7
100
AcDbCircle
 10
79.819929
 20
54.19815599999998
 30
0.0
 40
19.00454499999975
100
AcDbArc
 50
245.4930529999994
 51
267.5744759999994
  0
ARC
  5
407
330
53
100
AcDbEntity
  8
LC-002-002-----0
  6
Continuous
 62
     7
100
AcDbCircle
 10
77.36569400000002
 20
49.10359
 30
0.0
 40
13.35145800000003
100
AcDbArc
 50
218.002643999998
 51
246.0075569999996
  0
ARC
  5
408
330
53
100
AcDbEntity
  8
LC-002-002-----0
  6
Continuous
 62
     7
100
AcDbCircle
 10
73.765897
 20
46.27094799999998
 30
0.0
 40
8.770843000000175
100
AcDbArc
 50
180.7105169999996
 51
217.9001819999988
  0
ARC
  5
409
330
53
100
AcDbEntity
  8
LC-002-002-----0
  6
Continuous
 62
     7
100
AcDbCircle
 10
-77.37395099999998
 20
38.39136400000001
 30
0.0
 40
15.43087999999996
100
AcDbArc
 50
19.32645899999893
 51
37.77560900000062
  0
ARC
  5
40A
330
53
100
AcDbEntity
  8
LC-002-002-----0
  6
Continuous
 62
     7
100
AcDbCircle
 10
-76.507586
 20
38.71091200000001
 30
0.0
 40
14.50758999999982
100
AcDbArc
 50
0.04080199999998
 51
19.26793999999903
  0
ARC
  5
40B
330
53
100
AcDbEntity
  8
LC-002-002-----0
  6
Continuous
 62
     7
100
AcDbCircle
 10
-80.61442399999999
 20
40.98960999999997
 30
0.0
 40
18.23904300000008
100
AcDbArc
 50
226.5054939999982
 51
251.1742539999993
  0
ARC
  5
40C
330
53
100
AcDbEntity
  8
LC-002-002-----0
  6
Continuous
 62
     7
100
AcDbCircle
 10
-82.31712199999998
 20
39.20677000000001
 30
0.0
 40
15.77375999999981
100
AcDbArc
 50
199.3357609999991
 51
226.5349289999988
  0
ARC
  5
40D
330
53
100
AcDbEntity
  8
LC-002-002-----0
  6
Continuous
 62
     7
100
AcDbCircle
 10
-83.55993899999999
 20
38.71906899999999
 30
0.0
 40
14.43964699999974
100
AcDbArc
 50
170.2769419999991
 51
199.1425560000004
  0
ARC
  5
40E
330
53
100
AcDbEntity
  8
LC-002-002-----0
  6
Continuous
 62
     7
100
AcDbCircle
 10
-82.876688
 20
38.53618499999999
 30
0.0
 40
15.14410899999977
100
AcDbArc
 50
142.0765920000015
 51
170.0315309999997
  0
ARC
  5
40F
330
53
100
AcDbEntity
  8
LC-002-002-----0
  6
Continuous
 62
     7
100
AcDbCircle
 10
-76.909153
 20
38.79966099999996
 30
0.0
 40
14.90935999999993
100
AcDbArc
 50
322.0603389999981
 51
359.6986430000005
  0
ARC
  5
410
330
53
100
AcDbEntity
  8
LC-002-002-----0
  6
Continuous
 62
     7
100
AcDbCircle
 10
-79.18068099999999
 20
40.61040299999996
 30
0.0
 40
17.81414800000003
100
AcDbArc
 50
288.5955640000012
 51
321.9591840000003
  0
ARC
  5
411
330
53
100
AcDbEntity
  8
LC-002-002-----0
  6
Continuous
 62
     7
100
AcDbCircle
 10
-73.83322800000002
 20
46.28533899999996
 30
0.0
 40
8.834087000000093
100
AcDbArc
 50
320.5715399999977
 51
359.2012230000008
  0
ARC
  5
412
330
53
100
AcDbEntity
  8
LC-002-002-----0
  6
Continuous
 62
     7
100
AcDbCircle
 10
-77.61971499999999
 20
49.41542199999998
 30
0.0
 40
13.7468039999999
100
AcDbArc
 50
291.8655269999992
 51
320.5178530000002
  0
ARC
  5
413
330
53
100
AcDbEntity
  8
LC-002-002-----0
  6
Continuous
 62
     7
100
AcDbCircle
 10
-79.90989200000001
 20
54.590574
 30
0.0
 40
19.40359900000031
100
AcDbArc
 50
269.7339239999998
 51
292.450329
  0
ARC
  5
414
330
53
100
AcDbEntity
  8
LC-002-002-----0
  6
Continuous
 62
     7
100
AcDbCircle
 10
-80.09010799999999
 20
54.590574
 30
0.0
 40
19.40359899999995
100
AcDbArc
 50
247.5496710000001
 51
270.2660760000004
  0
ARC
  5
415
330
53
100
AcDbEntity
  8
LC-002-002-----0
  6
Continuous
 62
     7
100
AcDbCircle
 10
-82.38028500000001
 20
49.41542199999998
 30
0.0
 40
13.74680399999974
100
AcDbArc
 50
219.482147
 51
248.1344730000008
  0
ARC
  5
416
330
53
100
AcDbEntity
  8
LC-002-002-----0
  6
Continuous
 62
     7
100
AcDbCircle
 10
-86.16677199999998
 20
46.28533899999996
 30
0.0
 40
8.834087000000281
100
AcDbArc
 50
180.7987769999993
 51
219.4284600000025
  0
ARC
  5
417
330
53
100
AcDbEntity
  8
LC-002-002-----0
  6
Continuous
 62
     7
100
AcDbCircle
 10
-86.16677199999998
 20
46.03902999999997
 30
0.0
 40
8.834087000000089
100
AcDbArc
 50
140.5715399999972
 51
179.2012230000003
  0
ARC
  5
418
330
53
100
AcDbEntity
  8
LC-002-002-----0
  6
Continuous
 62
     7
100
AcDbCircle
 10
-82.38028500000001
 20
42.90894800000001
 30
0.0
 40
13.74680399999991
100
AcDbArc
 50
111.8655269999992
 51
140.5178530000002
  0
ARC
  5
419
330
53
100
AcDbEntity
  8
LC-002-002-----0
  6
Continuous
 62
     7
100
AcDbCircle
 10
-80.09010799999999
 20
37.73379499999999
 30
0.0
 40
19.40359900000026
100
AcDbArc
 50
89.73392399999962
 51
112.450329
  0
ARC
  5
41A
330
53
100
AcDbEntity
  8
LC-002-002-----0
  6
Continuous
 62
     7
100
AcDbCircle
 10
-79.90989200000001
 20
37.73379499999999
 30
0.0
 40
19.40359899999993
100
AcDbArc
 50
67.54967099999989
 51
90.26607600000021
  0
ARC
  5
41B
330
53
100
AcDbEntity
  8
LC-002-002-----0
  6
Continuous
 62
     7
100
AcDbCircle
 10
-77.61971499999999
 20
42.90894800000001
 30
0.0
 40
13.74680399999975
100
AcDbArc
 50
39.48214699999965
 51
68.13447300000077
  0
ARC
  5
41C
330
53
100
AcDbEntity
  8
LC-002-002-----0
  6
Continuous
 62
     7
100
AcDbCircle
 10
-73.83322800000002
 20
46.03902999999997
 30
0.0
 40
8.834087000000283
100
AcDbArc
 50
0.79877699999969
 51
39.42846000000262
  0
ARC
  5
41D
330
53
100
AcDbEntity
  8
LC-002-002-----0
  6
Continuous
 62
     7
100
AcDbCircle
 10
-17.74939000000001
 20
16.49807699999997
 30
0.0
 40
5.03865500000049
100
AcDbArc
 50
264.6717109999961
 51
284.8711848987354
  0
ARC
  5
41E
330
53
100
AcDbEntity
  8
LC-002-002-----0
  6
Continuous
 62
     7
100
AcDbCircle
 10
-17.91695499999997
 20
14.67509100000001
 30
0.0
 40
3.207986000000052
100
AcDbArc
 50
225.8226090000074
 51
264.6280269999968
  0
ARC
  5
41F
330
53
100
AcDbEntity
  8
LC-002-002-----0
  6
Continuous
 62
     7
100
AcDbCircle
 10
-17.85182199999997
 20
14.60995700000001
 30
0.0
 40
3.207986000000062
100
AcDbArc
 50
185.3719730000031
 51
224.1773909999926
  0
ARC
  5
420
330
53
100
AcDbEntity
  8
LC-002-002-----0
  6
Continuous
 62
     7
100
AcDbCircle
 10
-16.02883500000002
 20
14.77752199999998
 30
0.0
 40
5.038655000000277
100
AcDbArc
 50
156.726457999995
 51
185.328289000004
  0
ARC
  5
421
330
53
100
AcDbEntity
  8
LC-002-002-----0
  6
Continuous
 62
     7
100
AcDbCircle
 10
-14.058359
 20
14.010989
 30
0.0
 40
7.152051999999984
100
AcDbArc
 50
134.7316639999972
 51
157.3226390000018
  0
ARC
  5
422
330
53
100
AcDbEntity
  8
LC-002-002-----0
  6
Continuous
 62
     7
100
AcDbCircle
 10
-14.010989
 20
14.058359
 30
0.0
 40
7.152051999999737
100
AcDbArc
 50
112.6773609999984
 51
135.2683360000028
  0
ARC
  5
423
330
53
100
AcDbEntity
  8
LC-002-002-----0
  6
Continuous
 62
     7
100
AcDbCircle
 10
-14.77752199999998
 20
16.02883499999996
 30
0.0
 40
5.038654999999521
100
AcDbArc
 50
84.67171099999496
 51
113.2735419999941
  0
ARC
  5
424
330
53
100
AcDbEntity
  8
LC-002-002-----0
  6
Continuous
 62
     7
100
AcDbCircle
 10
-14.60995700000001
 20
17.85182199999997
 30
0.0
 40
3.207986000000051
100
AcDbArc
 50
45.82260900000746
 51
84.62802699999689
  0
ARC
  5
425
330
53
100
AcDbEntity
  8
LC-002-002-----0
  6
Continuous
 62
     7
100
AcDbCircle
 10
-14.67509100000001
 20
17.91695499999997
 30
0.0
 40
3.207986000000062
100
AcDbArc
 50
5.37197300000315
 51
44.17739099999253
  0
ARC
  5
426
330
53
100
AcDbEntity
  8
LC-002-002-----0
  6
Continuous
 62
     7
100
AcDbCircle
 10
-16.49807699999997
 20
17.74939000000001
 30
0.0
 40
5.038655000000484
100
AcDbArc
 50
345.128815101272
 51
5.32828900000392
  0
ARC
  5
427
330
53
100
AcDbEntity
  8
LC-002-002-----0
  6
Continuous
 62
     7
100
AcDbCircle
 10
-24.21661699999999
 20
-0.88481200000001
 30
0.0
 40
5.038654999999787
100
AcDbArc
 50
309.6717110000046
 51
329.87119995899
  0
ARC
  5
428
330
53
100
AcDbEntity
  8
LC-002-002-----0
  6
Continuous
 62
     7
100
AcDbCircle
 10
-23.04605599999996
 20
-2.29234400000001
 30
0.0
 40
3.207985999999793
100
AcDbArc
 50
270.8226089999943
 51
309.6280270000066
  0
ARC
  5
429
330
53
100
AcDbEntity
  8
LC-002-002-----0
  6
Continuous
 62
     7
100
AcDbCircle
 10
-22.95394399999998
 20
-2.29234400000001
 30
0.0
 40
3.207985999999984
100
AcDbArc
 50
230.3719729999934
 51
269.1773910000046
  0
ARC
  5
42A
330
53
100
AcDbEntity
  8
LC-002-002-----0
  6
Continuous
 62
     7
100
AcDbCircle
 10
-21.78338400000001
 20
-0.88481200000001
 30
0.0
 40
5.038654999999836
100
AcDbArc
 50
201.7264580000013
 51
230.3282889999954
  0
ARC
  5
42B
330
53
100
AcDbEntity
  8
LC-002-002-----0
  6
Continuous
 62
     7
100
AcDbCircle
 10
-19.848027
 20
-0.03349500000002
 30
0.0
 40
7.152052000000022
100
AcDbArc
 50
179.7316640000014
 51
202.3226390000037
  0
ARC
  5
42C
330
53
100
AcDbEntity
  8
LC-002-002-----0
  6
Continuous
 62
     7
100
AcDbCircle
 10
-19.848027
 20
0.03349599999996
 30
0.0
 40
7.152051999999776
100
AcDbArc
 50
157.6773609999964
 51
180.2683359999982
  0
ARC
  5
42D
330
53
100
AcDbEntity
  8
LC-002-002-----0
  6
Continuous
 62
     7
100
AcDbCircle
 10
-21.78338400000001
 20
0.88481200000001
 30
0.0
 40
5.038654999999743
100
AcDbArc
 50
129.671711000005
 51
158.2735419999987
  0
ARC
  5
42E
330
53
100
AcDbEntity
  8
LC-002-002-----0
  6
Continuous
 62
     7
100
AcDbCircle
 10
-22.95394399999998
 20
2.29234500000001
 30
0.0
 40
3.207985999999735
100
AcDbArc
 50
90.82260899999542
 51
129.6280270000073
  0
ARC
  5
42F
330
53
100
AcDbEntity
  8
LC-002-002-----0
  6
Continuous
 62
     7
100
AcDbCircle
 10
-23.04605599999996
 20
2.29234500000001
 30
0.0
 40
3.207985999999939
100
AcDbArc
 50
50.37197299999273
 51
89.17739100000564
  0
ARC
  5
430
330
53
100
AcDbEntity
  8
LC-002-002-----0
  6
Continuous
 62
     7
100
AcDbCircle
 10
-24.21661699999999
 20
0.88481200000001
 30
0.0
 40
5.038654999999737
100
AcDbArc
 50
30.12880004100809
 51
50.32828899999497
  0
ARC
  5
431
330
53
100
AcDbEntity
  8
LC-002-002-----0
  6
Continuous
 62
     7
100
AcDbCircle
 10
-14.60995700000001
 20
-17.85182100000003
 30
0.0
 40
3.207986000000002
100
AcDbArc
 50
275.3719730000032
 51
314.1773909999933
  0
ARC
  5
432
330
53
100
AcDbEntity
  8
LC-002-002-----0
  6
Continuous
 62
     7
100
AcDbCircle
 10
-14.77752199999998
 20
-16.02883500000002
 30
0.0
 40
5.038654999999929
100
AcDbArc
 50
246.7264580000058
 51
275.328289000004
  0
ARC
  5
433
330
53
100
AcDbEntity
  8
LC-002-002-----0
  6
Continuous
 62
     7
100
AcDbCircle
 10
-14.010989
 20
-14.058359
 30
0.0
 40
7.152052000000019
100
AcDbArc
 50
224.7316639999974
 51
247.3226390000017
  0
ARC
  5
434
330
53
100
AcDbEntity
  8
LC-002-002-----0
  6
Continuous
 62
     7
100
AcDbCircle
 10
-14.058359
 20
-14.010989
 30
0.0
 40
7.152051999999792
100
AcDbArc
 50
202.6773609999982
 51
225.2683360000032
  0
ARC
  5
435
330
53
100
AcDbEntity
  8
LC-002-002-----0
  6
Continuous
 62
     7
100
AcDbCircle
 10
-16.02883500000002
 20
-14.77752200000003
 30
0.0
 40
5.038655000000484
100
AcDbArc
 50
174.6717109999954
 51
203.2735420000045
  0
ARC
  5
436
330
53
100
AcDbEntity
  8
LC-002-002-----0
  6
Continuous
 62
     7
100
AcDbCircle
 10
-17.85182199999997
 20
-14.60995700000001
 30
0.0
 40
3.20798600000001
100
AcDbArc
 50
135.8226090000082
 51
174.6280269999979
  0
ARC
  5
437
330
53
100
AcDbEntity
  8
LC-002-002-----0
  6
Continuous
 62
     7
100
AcDbCircle
 10
-17.91695499999997
 20
-14.67509000000001
 30
0.0
 40
3.207986
100
AcDbArc
 50
95.37197300000327
 51
134.1773909999933
  0
ARC
  5
438
330
53
100
AcDbEntity
  8
LC-002-002-----0
  6
Continuous
 62
     7
100
AcDbCircle
 10
-17.74939000000001
 20
-16.49807700000002
 30
0.0
 40
5.038655000000534
100
AcDbArc
 50
75.12881510126718
 51
95.32828900000386
  0
ARC
  5
439
330
53
100
AcDbEntity
  8
LC-002-002-----0
  6
Continuous
 62
     7
100
AcDbCircle
 10
-16.49807699999997
 20
-17.74939000000001
 30
0.0
 40
5.038655000000495
100
AcDbArc
 50
354.6717109999954
 51
14.87118489873581
  0
ARC
  5
43A
330
53
100
AcDbEntity
  8
LC-002-002-----0
  6
Continuous
 62
     7
100
AcDbCircle
 10
-14.67509100000001
 20
-17.91695500000003
 30
0.0
 40
3.20798600000001
100
AcDbArc
 50
315.8226090000082
 51
354.6280269999979
  0
ARC
  5
43B
330
53
100
AcDbEntity
  8
LC-002-002-----0
  6
Continuous
 62
     7
100
AcDbCircle
 10
14.010989
 20
-14.058359
 30
0.0
 40
7.152051999999792
100
AcDbArc
 50
292.6773609999983
 51
315.2683360000029
  0
ARC
  5
43C
330
53
100
AcDbEntity
  8
LC-002-002-----0
  6
Continuous
 62
     7
100
AcDbCircle
 10
14.77752200000003
 20
-16.02883500000002
 30
0.0
 40
5.038655000000545
100
AcDbArc
 50
264.6717109999955
 51
293.2735420000042
  0
ARC
  5
43D
330
53
100
AcDbEntity
  8
LC-002-002-----0
  6
Continuous
 62
     7
100
AcDbCircle
 10
14.60995700000001
 20
-17.85182100000003
 30
0.0
 40
3.207985999999967
100
AcDbArc
 50
225.8226090000074
 51
264.6280269999968
  0
ARC
  5
43E
330
53
100
AcDbEntity
  8
LC-002-002-----0
  6
Continuous
 62
     7
100
AcDbCircle
 10
14.67509000000001
 20
-17.91695500000003
 30
0.0
 40
3.207985999999994
100
AcDbArc
 50
185.3719730000022
 51
224.1773909999925
  0
ARC
  5
43F
330
53
100
AcDbEntity
  8
LC-002-002-----0
  6
Continuous
 62
     7
100
AcDbCircle
 10
16.49807700000002
 20
-17.74939000000001
 30
0.0
 40
5.038654999999522
100
AcDbArc
 50
165.1288151012534
 51
185.3282890000056
  0
ARC
  5
440
330
53
100
AcDbEntity
  8
LC-002-002-----0
  6
Continuous
 62
     7
100
AcDbCircle
 10
17.74939000000001
 20
-16.49807700000002
 30
0.0
 40
5.038655000000545
100
AcDbArc
 50
84.67171099999545
 51
104.8711848987357
  0
ARC
  5
441
330
53
100
AcDbEntity
  8
LC-002-002-----0
  6
Continuous
 62
     7
100
AcDbCircle
 10
17.91695500000003
 20
-14.67509000000001
 30
0.0
 40
3.207985999999966
100
AcDbArc
 50
45.82260900000748
 51
84.62802699999783
  0
ARC
  5
442
330
53
100
AcDbEntity
  8
LC-002-002-----0
  6
Continuous
 62
     7
100
AcDbCircle
 10
17.85182100000003
 20
-14.60995700000001
 30
0.0
 40
3.207985999999996
100
AcDbArc
 50
5.37197300000218
 51
44.17739099999255
  0
ARC
  5
443
330
53
100
AcDbEntity
  8
LC-002-002-----0
  6
Continuous
 62
     7
100
AcDbCircle
 10
16.02883500000002
 20
-14.77752200000003
 30
0.0
 40
5.038655000000312
100
AcDbArc
 50
336.7264579999957
 51
5.3282890000046
  0
ARC
  5
444
330
53
100
AcDbEntity
  8
LC-002-002-----0
  6
Continuous
 62
     7
100
AcDbCircle
 10
14.058359
 20
-14.010989
 30
0.0
 40
7.152052000000062
100
AcDbArc
 50
314.7316639999971
 51
337.3226390000017
  0
ARC
  5
445
330
53
100
AcDbEntity
  8
LC-002-002-----0
  6
Continuous
 62
     7
100
AcDbCircle
 10
19.848026
 20
-0.03349500000002
 30
0.0
 40
7.152051999999782
100
AcDbArc
 50
337.6773609999964
 51
0.26833599999864
  0
ARC
  5
446
330
53
100
AcDbEntity
  8
LC-002-002-----0
  6
Continuous
 62
     7
100
AcDbCircle
 10
21.78338300000001
 20
-0.88481200000001
 30
0.0
 40
5.038654999999787
100
AcDbArc
 50
309.6717110000046
 51
338.2735419999989
  0
ARC
  5
447
330
53
100
AcDbEntity
  8
LC-002-002-----0
  6
Continuous
 62
     7
100
AcDbCircle
 10
22.95394400000004
 20
-2.29234400000001
 30
0.0
 40
3.207985999999793
100
AcDbArc
 50
270.8226089999943
 51
309.6280270000066
  0
ARC
  5
448
330
53
100
AcDbEntity
  8
LC-002-002-----0
  6
Continuous
 62
     7
100
AcDbCircle
 10
23.04605600000002
 20
-2.29234400000001
 30
0.0
 40
3.207985999999984
100
AcDbArc
 50
230.3719729999934
 51
269.1773910000046
  0
ARC
  5
449
330
53
100
AcDbEntity
  8
LC-002-002-----0
  6
Continuous
 62
     7
100
AcDbCircle
 10
24.21661599999999
 20
-0.88481200000001
 30
0.0
 40
5.038654999999785
100
AcDbArc
 50
210.1288175182314
 51
230.3282889999954
  0
ARC
  5
44A
330
53
100
AcDbEntity
  8
LC-002-002-----0
  6
Continuous
 62
     7
100
AcDbCircle
 10
24.21661599999999
 20
0.88481200000001
 30
0.0
 40
5.038654999999743
100
AcDbArc
 50
129.671711000005
 51
149.8711824817628
  0
ARC
  5
44B
330
53
100
AcDbEntity
  8
LC-002-002-----0
  6
Continuous
 62
     7
100
AcDbCircle
 10
23.04605600000002
 20
2.29234500000001
 30
0.0
 40
3.207985999999735
100
AcDbArc
 50
90.82260899999542
 51
129.6280270000073
  0
ARC
  5
44C
330
53
100
AcDbEntity
  8
LC-002-002-----0
  6
Continuous
 62
     7
100
AcDbCircle
 10
22.95394400000004
 20
2.29234500000001
 30
0.0
 40
3.207985999999939
100
AcDbArc
 50
50.37197299999273
 51
89.17739100000564
  0
ARC
  5
44D
330
53
100
AcDbEntity
  8
LC-002-002-----0
  6
Continuous
 62
     7
100
AcDbCircle
 10
21.78338300000001
 20
0.88481200000001
 30
0.0
 40
5.038654999999889
100
AcDbArc
 50
21.72645800000112
 51
50.32828899999497
  0
ARC
  5
44E
330
53
100
AcDbEntity
  8
LC-002-002-----0
  6
Continuous
 62
     7
100
AcDbCircle
 10
19.848026
 20
0.03349599999996
 30
0.0
 40
7.152052000000018
100
AcDbArc
 50
359.7316640000018
 51
22.32263900000363
  0
ARC
  5
44F
330
53
100
AcDbEntity
  8
LC-002-002-----0
  6
Continuous
 62
     7
100
AcDbCircle
 10
17.91695500000003
 20
14.67509100000001
 30
0.0
 40
3.207986000000056
100
AcDbArc
 50
275.3719730000021
 51
314.1773909999918
  0
ARC
  5
450
330
53
100
AcDbEntity
  8
LC-002-002-----0
  6
Continuous
 62
     7
100
AcDbCircle
 10
17.74939000000001
 20
16.49807699999997
 30
0.0
 40
5.038655000000492
100
AcDbArc
 50
255.1288151012721
 51
275.3282890000046
  0
ARC
  5
451
330
53
100
AcDbEntity
  8
LC-002-002-----0
  6
Continuous
 62
     7
100
AcDbCircle
 10
16.49807700000002
 20
17.74939000000001
 30
0.0
 40
5.038654999999522
100
AcDbArc
 50
174.6717109999951
 51
194.8711848987361
  0
ARC
  5
452
330
53
100
AcDbEntity
  8
LC-002-002-----0
  6
Continuous
 62
     7
100
AcDbCircle
 10
14.67509000000001
 20
17.91695499999997
 30
0.0
 40
3.207986000000008
100
AcDbArc
 50
135.8226090000067
 51
174.6280269999968
  0
ARC
  5
453
330
53
100
AcDbEntity
  8
LC-002-002-----0
  6
Continuous
 62
     7
100
AcDbCircle
 10
14.60995700000001
 20
17.85182199999997
 30
0.0
 40
3.207986000000062
100
AcDbArc
 50
95.37197300000312
 51
134.1773909999918
  0
ARC
  5
454
330
53
100
AcDbEntity
  8
LC-002-002-----0
  6
Continuous
 62
     7
100
AcDbCircle
 10
14.77752200000003
 20
16.02883499999996
 30
0.0
 40
5.038655000000309
100
AcDbArc
 50
66.72645799999576
 51
95.32828900000563
  0
ARC
  5
455
330
53
100
AcDbEntity
  8
LC-002-002-----0
  6
Continuous
 62
     7
100
AcDbCircle
 10
14.010989
 20
14.058359
 30
0.0
 40
7.152052000000027
100
AcDbArc
 50
44.73166399999681
 51
67.32263900000157
  0
ARC
  5
456
330
53
100
AcDbEntity
  8
LC-002-002-----0
  6
Continuous
 62
     7
100
AcDbCircle
 10
14.058359
 20
14.010989
 30
0.0
 40
7.152051999999792
100
AcDbArc
 50
22.67736099999824
 51
45.26833600000257
  0
ARC
  5
457
330
53
100
AcDbEntity
  8
LC-002-002-----0
  6
Continuous
 62
     7
100
AcDbCircle
 10
16.02883500000002
 20
14.77752199999998
 30
0.0
 40
5.03865500000048
100
AcDbArc
 50
354.671710999996
 51
23.27354200000476
  0
ARC
  5
458
330
53
100
AcDbEntity
  8
LC-002-002-----0
  6
Continuous
 62
     7
100
AcDbCircle
 10
17.85182100000003
 20
14.60995700000001
 30
0.0
 40
3.207986000000008
100
AcDbArc
 50
315.8226090000067
 51
354.6280269999968
  0
ARC
  5
459
330
53
100
AcDbEntity
  8
LC-002-002-----0
  6
Continuous
 62
     7
100
AcDbCircle
 10
2.29234400000001
 20
23.04605599999996
 30
0.0
 40
3.207985999999984
100
AcDbArc
 50
320.3719729999934
 51
359.1773910000057
  0
ARC
  5
45A
330
53
100
AcDbEntity
  8
LC-002-002-----0
  6
Continuous
 62
     7
100
AcDbCircle
 10
0.88481200000001
 20
24.21661699999999
 30
0.0
 40
5.038654999999791
100
AcDbArc
 50
300.1288000410087
 51
320.3282889999954
  0
ARC
  5
45B
330
53
100
AcDbEntity
  8
LC-002-002-----0
  6
Continuous
 62
     7
100
AcDbCircle
 10
-0.88481200000001
 20
24.21661699999999
 30
0.0
 40
5.038654999999787
100
AcDbArc
 50
219.6717110000046
 51
239.8711999589899
  0
ARC
  5
45C
330
53
100
AcDbEntity
  8
LC-002-002-----0
  6
Continuous
 62
     7
100
AcDbCircle
 10
-2.29234500000001
 20
23.04605599999996
 30
0.0
 40
3.207985999999734
100
AcDbArc
 50
180.8226089999943
 51
219.6280270000066
  0
ARC
  5
45D
330
53
100
AcDbEntity
  8
LC-002-002-----0
  6
Continuous
 62
     7
100
AcDbCircle
 10
-2.29234500000001
 20
22.95394399999998
 30
0.0
 40
3.207985999999983
100
AcDbArc
 50
140.3719729999934
 51
179.1773910000046
  0
ARC
  5
45E
330
53
100
AcDbEntity
  8
LC-002-002-----0
  6
Continuous
 62
     7
100
AcDbCircle
 10
-0.88481200000001
 20
21.78338400000001
 30
0.0
 40
5.038654999999836
100
AcDbArc
 50
111.7264580000014
 51
140.3282889999954
  0
ARC
  5
45F
330
53
100
AcDbEntity
  8
LC-002-002-----0
  6
Continuous
 62
     7
100
AcDbCircle
 10
-0.03349600000001
 20
19.848027
 30
0.0
 40
7.152052000000022
100
AcDbArc
 50
89.73166400000137
 51
112.3226390000032
  0
ARC
  5
460
330
53
100
AcDbEntity
  8
LC-002-002-----0
  6
Continuous
 62
     7
100
AcDbCircle
 10
0.03349500000002
 20
19.848027
 30
0.0
 40
7.152051999999776
100
AcDbArc
 50
67.67736099999635
 51
90.26833599999864
  0
ARC
  5
461
330
53
100
AcDbEntity
  8
LC-002-002-----0
  6
Continuous
 62
     7
100
AcDbCircle
 10
0.88481200000001
 20
21.78338400000001
 30
0.0
 40
5.038654999999787
100
AcDbArc
 50
39.67171100000462
 51
68.27354199999866
  0
ARC
  5
462
330
53
100
AcDbEntity
  8
LC-002-002-----0
  6
Continuous
 62
     7
100
AcDbCircle
 10
2.29234400000001
 20
22.95394399999998
 30
0.0
 40
3.207985999999736
100
AcDbArc
 50
0.82260899999543
 51
39.6280270000066
  0
ARC
  5
463
330
53
100
AcDbEntity
  8
LC-002-002-----0
  6
DASHED
 62
     7
100
AcDbCircle
 10
0.0
 20
0.0
 30
0.0
 40
41.9999999999997
100
AcDbArc
 50
26.76550099999982
 51
90.0
  0
CIRCLE
  5
464
330
53
100
AcDbEntity
  8
LC-002-002-----0
  6
Continuous
 62
     7
100
AcDbCircle
 10
-174.1399999999999
 20
-12.5
 30
0.0
 40
4.25
  0
CIRCLE
  5
465
330
53
100
AcDbEntity
  8
LC-002-002-----0
  6
Continuous
 62
     7
100
AcDbCircle
 10
-174.1399999999999
 20
12.5
 30
0.0
 40
4.25
  0
CIRCLE
  5
466
330
53
100
AcDbEntity
  8
LC-002-002-----0
  6
Continuous
 62
     7
100
AcDbCircle
 10
145.8600000000001
 20
0.0
 30
0.0
 40
4.25
  0
CIRCLE
  5
467
330
53
100
AcDbEntity
  8
LC-002-002-----0
  6
Continuous
 62
     7
100
AcDbCircle
 10
215.8600000000001
 20
-12.5
 30
0.0
 40
4.25
  0
CIRCLE
  5
468
330
53
100
AcDbEntity
  8
LC-002-002-----0
  6
Continuous
 62
     7
100
AcDbCircle
 10
215.8600000000001
 20
12.5
 30
0.0
 40
4.25
  0
CIRCLE
  5
469
330
53
100
AcDbEntity
  8
LC-002-002-----0
  6
Continuous
 62
     7
100
AcDbCircle
 10
175.8600000000001
 20
-12.5
 30
0.0
 40
4.25
  0
CIRCLE
  5
46A
330
53
100
AcDbEntity
  8
LC-002-002-----0
  6
Continuous
 62
     7
100
AcDbCircle
 10
185.8600000000001
 20
0.0
 30
0.0
 40
4.25
  0
CIRCLE
  5
46B
330
53
100
AcDbEntity
  8
LC-002-002-----0
  6
Continuous
 62
     7
100
AcDbCircle
 10
175.8600000000001
 20
12.5
 30
0.0
 40
4.25
  0
CIRCLE
  5
46C
330
53
100
AcDbEntity
  8
LC-002-002-----0
  6
Continuous
 62
     7
100
AcDbCircle
 10
225.8600000000001
 20
0.0
 30
0.0
 40
4.25
  0
CIRCLE
  5
46D
330
53
100
AcDbEntity
  8
LC-002-002-----0
  6
Continuous
 62
     7
100
AcDbCircle
 10
-184.1399999999999
 20
0.0
 30
0.0
 40
4.25
  0
CIRCLE
  5
46E
330
53
100
AcDbEntity
  8
LC-002-002-----0
  6
Continuous
 62
     7
100
AcDbCircle
 10
-214.1399999999999
 20
12.5
 30
0.0
 40
4.25
  0
CIRCLE
  5
46F
330
53
100
AcDbEntity
  8
LC-002-002-----0
  6
Continuous
 62
     7
100
AcDbCircle
 10
-214.1399999999999
 20
-12.5
 30
0.0
 40
4.25
  0
CIRCLE
  5
470
330
53
100
AcDbEntity
  8
LC-002-002-----0
  6
Continuous
 62
     7
100
AcDbCircle
 10
255.8600000000001
 20
12.5
 30
0.0
 40
4.250000000000028
  0
CIRCLE
  5
471
330
53
100
AcDbEntity
  8
LC-002-002-----0
  6
Continuous
 62
     7
100
AcDbCircle
 10
255.8600000000001
 20
-12.5
 30
0.0
 40
4.250000000000028
  0
CIRCLE
  5
472
330
53
100
AcDbEntity
  8
LC-002-002-----0
  6
DASHED
 62
     7
100
AcDbCircle
 10
-26.99572899999998
 20
27.0
 30
0.0
 40
1.5
  0
CIRCLE
  5
473
330
53
100
AcDbEntity
  8
LC-002-002-----0
  6
DASHED
 62
     7
100
AcDbCircle
 10
47.0
 20
0.0
 30
0.0
 40
1.5
  0
CIRCLE
  5
474
330
53
100
AcDbEntity
  8
LC-002-002-----0
  6
DASHED
 62
     7
100
AcDbCircle
 10
-47.0
 20
0.0
 30
0.0
 40
1.5
  0
CIRCLE
  5
475
330
53
100
AcDbEntity
  8
LC-002-002-----0
  6
DASHED
 62
     7
100
AcDbCircle
 10
-100.004271
 20
0.0
 30
0.0
 40
1.499999999999986
  0
CIRCLE
  5
476
330
53
100
AcDbEntity
  8
LC-002-002-----0
  6
DASHED
 62
     7
100
AcDbCircle
 10
-60.0
 20
0.0
 30
0.0
 40
1.5
  0
CIRCLE
  5
477
330
53
100
AcDbEntity
  8
LC-002-002-----0
  6
DASHED
 62
     7
100
AcDbCircle
 10
-99.99572899999998
 20
0.0
 30
0.0
 40
3.0
  0
CIRCLE
  5
478
330
53
100
AcDbEntity
  8
LC-002-002-----0
  6
DASHED
 62
     7
100
AcDbCircle
 10
-59.99572899999998
 20
0.0
 30
0.0
 40
3.0
  0
CIRCLE
  5
479
330
53
100
AcDbEntity
  8
LC-002-002-----0
  6
DASHED
 62
     7
100
AcDbCircle
 10
41.22607800000003
 20
-39.00279900000004
 30
0.0
 40
2.599999999999973
  0
CIRCLE
  5
47A
330
53
100
AcDbEntity
  8
LC-002-002-----0
  6
DASHED
 62
     7
100
AcDbCircle
 10
-44.77392199999997
 20
-39.50279900000004
 30
0.0
 40
2.599999999999973
  0
CIRCLE
  5
47B
330
53
100
AcDbEntity
  8
LC-002-002-----0
  6
DASHED
 62
     7
100
AcDbCircle
 10
47.0
 20
0.0
 30
0.0
 40
5.0
  0
CIRCLE
  5
47C
330
53
100
AcDbEntity
  8
LC-002-002-----0
  6
DASHED
 62
     7
100
AcDbCircle
 10
47.0
 20
0.0
 30
0.0
 40
2.600000000000023
  0
CIRCLE
  5
47D
330
53
100
AcDbEntity
  8
LC-002-002-----0
  6
DASHED
 62
     7
100
AcDbCircle
 10
-47.0
 20
0.0
 30
0.0
 40
5.0
  0
CIRCLE
  5
47E
330
53
100
AcDbEntity
  8
LC-002-002-----0
  6
DASHED
 62
     7
100
AcDbCircle
 10
-47.0
 20
0.0
 30
0.0
 40
2.600000000000023
  0
CIRCLE
  5
47F
330
53
100
AcDbEntity
  8
LC-002-002-----0
  6
DASHED
 62
     7
100
AcDbCircle
 10
59.99145700000003
 20
0.0
 30
0.0
 40
1.5
  0
CIRCLE
  5
480
330
53
100
AcDbEntity
  8
LC-002-002-----0
  6
DASHED
 62
     7
100
AcDbCircle
 10
99.99572899999998
 20
0.0
 30
0.0
 40
1.500000000000014
  0
CIRCLE
  5
481
330
53
100
AcDbEntity
  8
LC-002-002-----0
  6
DASHED
 62
     7
100
AcDbCircle
 10
60.0
 20
0.0
 30
0.0
 40
3.0
  0
CIRCLE
  5
482
330
53
100
AcDbEntity
  8
LC-002-002-----0
  6
DASHED
 62
     7
100
AcDbCircle
 10
80.00427100000002
 20
0.0
 30
0.0
 40
13.5
  0
CIRCLE
  5
483
330
53
100
AcDbEntity
  8
LC-002-002-----0
  6
DASHED
 62
     7
100
AcDbCircle
 10
100.0
 20
0.0
 30
0.0
 40
3.0
  0
CIRCLE
  5
484
330
53
100
AcDbEntity
  8
LC-002-002-----0
  6
DASHED
 62
     7
100
AcDbCircle
 10
-80.0
 20
0.0
 30
0.0
 40
13.5
  0
ENDBLK
  5
55
330
53
100
AcDbEntity
  8
0
100
AcDbBlockEnd
  0
BLOCK
  5
59
330
56
100
AcDbEntity
  8
0
100
AcDbBlockBegin
  2
HL_406_2_Waschgeräte_Sifon__4
 70
     0
 10
27.874398522468
 20
-59.79024080553941
 30
0.0
  3
HL_406_2_Waschgeräte_Sifon__4
  1

  0
INSERT
  5
57
330
56
100
AcDbEntity
  8
0
100
AcDbBlockReference
  2
Katalog-HL19ABSC__2
 10
-419.8168251208929
 20
-19.7330385968782
 30
0.0
  0
INSERT
  5
58
330
56
100
AcDbEntity
  8
1
100
AcDbBlockReference
  2
HL_406_2_Waschgeräte_Sifon__3
 10
37.86635579023579
 20
-67.0107857172505
 30
0.0
  0
DIMENSION
  5
491
330
56
100
AcDbEntity
  8
1
100
AcDbDimension
  2
*D11
 10
-301.5406060000001
 20
-126.658008
 30
0.0
 11
-368.8161571267256
 21
-119.658008
 31
0.0
 70
    32
  1
<>
 71
     5
 42
-1.0
 53
0.00013888888889
  3
ME10_DIM_10
100
AcDbAlignedDimension
 13
-341.540606
 23
-136.833452
 33
0.0
 14
-301.540606
 24
-136.658008
 34
0.0
100
AcDbRotatedDimension
  0
DIMENSION
  5
49C
330
56
100
AcDbEntity
  8
1
100
AcDbDimension
  2
*D12
 10
-346.540606
 20
-216.383956935721
 30
0.0
 11
-323.8605555033295
 21
-209.383956935721
 31
0.0
 70
    32
  1
<>
 71
     5
 42
-1.0
 53
0.00013888888889
  3
ME10_DIM_11
100
AcDbAlignedDimension
 13
-296.540606
 23
-189.6580080000001
 33
0.0
 14
-346.540606
 24
-189.6580080000001
 34
0.0
100
AcDbRotatedDimension
  0
DIMENSION
  5
4A7
330
56
100
AcDbEntity
  8
1
100
AcDbDimension
  2
*D13
 10
-380.881615
 20
60.017583
 30
0.0
 11
-333.7138380509232
 21
67.017583
 31
0.0
 70
    32
  1
75-120
 71
     5
 42
-1.0
 53
0.00013888888889
  3
ME10_DIM_12
100
AcDbAlignedDimension
 13
-278.040606
 23
40.35681099999999
 33
0.0
 14
-380.881615
 24
50.017583
 34
0.0
 50
0.00000000000004
100
AcDbRotatedDimension
  0
DIMENSION
  5
4B2
330
56
100
AcDbEntity
  8
1
100
AcDbDimension
  2
*D14
 10
79.99572900000021
 20
75.651084974953
 30
0.0
 11
-18.209510792868
 21
82.651084974953
 31
0.0
 70
    32
  1
<>
 71
     5
 42
-1.0
 53
0.00013888888889
  3
ME10_DIM_13
100
AcDbAlignedDimension
 13
-80.0
 23
63.75235042863102
 33
0.0
 14
79.99572900000021
 24
65.651084974953
 34
0.0
100
AcDbRotatedDimension
  0
DIMENSION
  5
4BD
330
56
100
AcDbEntity
  8
1
100
AcDbDimension
  2
*D15
 10
-140.0
 20
93.318441208878
 30
0.0
 11
24.19763559063603
 21
100.318441208878
 31
0.0
 70
    32
  1
<>
 71
     5
 42
-1.0
 53
0.00013888888889
  3
ME10_DIM_14
100
AcDbAlignedDimension
 13
140.0
 23
47.5
 33
0.0
 14
-140.0
 24
48.68071499999996
 34
0.0
100
AcDbRotatedDimension
  0
DIMENSION
  5
4C8
330
56
100
AcDbEntity
  8
1
100
AcDbDimension
  2
*D16
 10
260.8600000000001
 20
111.7119022908792
 30
0.0
 11
-27.91717080836901
 21
118.7119022908792
 31
0.0
 70
    32
  1
<>
 71
     5
 42
-1.0
 53
0.00013888888889
  3
ME10_DIM_15
100
AcDbAlignedDimension
 13
-219.1399999999999
 23
25.0
 33
0.0
 14
260.8600000000001
 24
25.0
 34
0.0
100
AcDbRotatedDimension
  0
DIMENSION
  5
4D3
330
56
100
AcDbEntity
  8
1
100
AcDbDimension
  2
*D17
 10
-239.931690618059
 20
-193.0000000000001
 30
0.0
 11
-246.931690618059
 21
-72.350969328774
 31
0.0
 70
    32
  1
<>
 71
     5
 42
-1.0
 53
90.0
  3
ME10_DIM_16
100
AcDbAlignedDimension
 13
0.0
 23
42.0
 33
0.0
 14
-24.06217800000013
 24
-193.0000000000001
 34
0.0
 50
90.0
100
AcDbRotatedDimension
  0
DIMENSION
  5
4DE
330
56
100
AcDbEntity
  8
1
100
AcDbDimension
  2
*D18
 10
285.250373798671
 20
50.00000000000001
 30
0.0
 11
278.250373798671
 21
15.01668415255498
 31
0.0
 70
    32
  1
<>
 71
     5
 42
-1.0
 53
90.0
  3
ME10_DIM_17
100
AcDbAlignedDimension
 13
137.5
 23
-50.0
 33
0.0
 14
137.5
 24
50.0
 34
0.0
 50
90.0
100
AcDbRotatedDimension
  0
DIMENSION
  5
4EA
330
56
100
AcDbEntity
  8
1
100
AcDbDimension
  2
*D19
 10
128.151042090625
 20
27.0
 30
0.0
 11
121.151042090625
 21
-61.93473471544303
 31
0.0
 70
    32
  1
<>
 71
     5
 42
-1.0
 53
90.0
  3
ME10_DIM_18
100
AcDbAlignedDimension
 13
101.999271
 23
-26.99854200000004
 33
0.0
 14
102.004271
 24
27.0
 34
0.0
 50
90.0
100
AcDbRotatedDimension
  0
DIMENSION
  5
4F5
330
56
100
AcDbEntity
  8
1
100
AcDbDimension
  2
*D20
 10
-152.489523416536
 20
26.99999999999999
 30
0.0
 11
-159.489523416536
 21
-45.60454899752401
 31
0.0
 70
    32
  1
<>
 71
     5
 42
-1.0
 53
90.0
  3
ME10_DIM_19
100
AcDbAlignedDimension
 13
-37.99072899999999
 23
-73.0
 33
0.0
 14
-101.995729
 24
27.0
 34
0.0
 50
90.0
100
AcDbRotatedDimension
  0
DIMENSION
  5
500
330
56
100
AcDbEntity
  8
1
100
AcDbDimension
  2
*D21
 10
42.99927100000003
 20
-217.873363198523
 30
0.0
 11
0.64138778185004
 21
-210.873363198523
 31
0.0
 70
    32
  1
<>
 71
     5
 42
-1.0
 53
0.00013888888889
  3
ME10_DIM_20
100
AcDbAlignedDimension
 13
-42.9907290000001
 23
-68.0
 33
0.0
 14
42.99927100000002
 24
-68.0
 34
0.0
100
AcDbRotatedDimension
  0
DIMENSION
  5
50B
330
56
100
AcDbEntity
  8
1
100
AcDbDimension
  2
*D22
 10
-107.000729
 20
-241.292383901958
 30
0.0
 11
1.34488839077404
 21
-234.292383901958
 31
0.0
 70
    32
  1
<>
 71
     5
 42
-1.0
 53
0.00013888888889
  3
ME10_DIM_21
100
AcDbAlignedDimension
 13
106.999271
 23
-21.99854200000004
 33
0.0
 14
-107.000729
 24
-21.99854200000004
 34
0.0
100
AcDbRotatedDimension
  0
DIMENSION
  5
517
330
56
100
AcDbEntity
  8
1
100
AcDbDimension
  2
*D23
 10
305.008631166966
 20
-193.0000000000001
 30
0.0
 11
298.008631166966
 21
-101.010529329343
 31
0.0
 70
    32
  1
<>
 71
     5
 42
-1.0
 53
90.0
  3
ME10_DIM_22
100
AcDbAlignedDimension
 13
260.8600000000001
 23
0.0
 33
0.0
 14
24.06217800000013
 24
-193.0000000000001
 34
0.0
 50
90.0
100
AcDbRotatedDimension
  0
DIMENSION
  5
524
330
56
100
AcDbEntity
  8
1
100
AcDbDimension
  2
*D24
 10
-442.5164349550634
 20
-84.2460423833523
 30
0.0
 11
-397.100031185078
 21
-77.2460423833523
 31
0.0
 70
    33
  1
3/4"
 71
     5
 42
-1.0
 53
0.00013888888889
  3
ME10_DIM_23
100
AcDbAlignedDimension
 13
-425.487863526492
 23
-58.15803859687901
 33
0.0
 14
-442.5164349550634
 24
-58.15803859687901
 34
0.0
  0
ENDBLK
  5
5A
330
56
100
AcDbEntity
  8
0
100
AcDbBlockEnd
  0
BLOCK
  5
5C
330
5B
100
AcDbEntity
  8
0
100
AcDbBlockBegin
  2
Dichtstopfen__5
 70
     0
 10
-0.00000000000028
 20
-58.65000000000008
 30
0.0
  3
Dichtstopfen__5
  1

  0
LINE
  5
525
330
5B
100
AcDbEntity
  8
0
  6
Continuous
 62
     7
100
AcDbLine
 10
-0.00000000000028
 20
-58.00000000000009
 30
0.0
 11
7.3314391493073
 21
-58.00000000000009
 31
0.0
  0
LINE
  5
526
330
5B
100
AcDbEntity
  8
0
  6
Continuous
 62
     7
100
AcDbLine
 10
7.49999999999972
 20
-58.00000000000009
 30
0.0
 11
8.51428571428551
 21
-58.00000000000009
 31
0.0
  0
LINE
  5
527
330
5B
100
AcDbEntity
  8
0
  6
Continuous
 62
     7
100
AcDbLine
 10
7.3314391493073
 20
-58.00000000000009
 30
0.0
 11
7.49999999999972
 21
-58.00000000000009
 31
0.0
  0
LINE
  5
528
330
5B
100
AcDbEntity
  8
0
  6
Continuous
 62
     7
100
AcDbLine
 10
-7.33143914930793
 20
-59.30000000000007
 30
0.0
 11
-7.33143914930793
 21
-58.00000000000009
 31
0.0
  0
LINE
  5
529
330
5B
100
AcDbEntity
  8
0
  6
Continuous
 62
     7
100
AcDbLine
 10
-12.00000000000028
 20
-59.30000000000007
 30
0.0
 11
-12.00000000000028
 21
-58.00000000000009
 31
0.0
  0
LINE
  5
52A
330
5B
100
AcDbEntity
  8
0
  6
Continuous
 62
     7
100
AcDbLine
 10
-12.00000000000028
 20
-58.00000000000009
 30
0.0
 11
-8.5142857142859
 21
-58.00000000000009
 31
0.0
  0
LINE
  5
52B
330
5B
100
AcDbEntity
  8
0
  6
Continuous
 62
     7
100
AcDbLine
 10
-12.00000000000028
 20
-59.30000000000007
 30
0.0
 11
-7.33143914930793
 21
-59.30000000000007
 31
0.0
  0
LINE
  5
52C
330
5B
100
AcDbEntity
  8
0
  6
Continuous
 62
     7
100
AcDbLine
 10
7.3314391493073
 20
-59.30000000000007
 30
0.0
 11
11.99999999999972
 21
-59.30000000000007
 31
0.0
  0
LINE
  5
52D
330
5B
100
AcDbEntity
  8
0
  6
Continuous
 62
     7
100
AcDbLine
 10
8.51428571428551
 20
-58.00000000000009
 30
0.0
 11
11.99999999999972
 21
-58.00000000000009
 31
0.0
  0
LINE
  5
52E
330
5B
100
AcDbEntity
  8
0
  6
Continuous
 62
     7
100
AcDbLine
 10
11.99999999999972
 20
-59.30000000000007
 30
0.0
 11
11.99999999999972
 21
-58.00000000000009
 31
0.0
  0
LINE
  5
52F
330
5B
100
AcDbEntity
  8
0
  6
Continuous
 62
     7
100
AcDbLine
 10
-7.33143914930793
 20
-58.00000000000009
 30
0.0
 11
-0.00000000000028
 21
-58.00000000000009
 31
0.0
  0
LINE
  5
530
330
5B
100
AcDbEntity
  8
0
  6
Continuous
 62
     7
100
AcDbLine
 10
-8.5142857142859
 20
-58.00000000000009
 30
0.0
 11
-7.50000000000028
 21
-58.00000000000009
 31
0.0
  0
LINE
  5
531
330
5B
100
AcDbEntity
  8
0
  6
Continuous
 62
     7
100
AcDbLine
 10
-7.50000000000028
 20
-58.00000000000009
 30
0.0
 11
-7.33143914930793
 21
-58.00000000000009
 31
0.0
  0
LINE
  5
532
330
5B
100
AcDbEntity
  8
0
  6
Continuous
 62
     7
100
AcDbLine
 10
7.3314391493073
 20
-59.30000000000007
 30
0.0
 11
7.3314391493073
 21
-58.00000000000009
 31
0.0
  0
LINE
  5
533
330
5B
100
AcDbEntity
  8
0
  6
Continuous
 62
     7
100
AcDbLine
 10
7.3314391493073
 20
-59.30000000000007
 30
0.0
 11
-7.33143914930793
 21
-59.30000000000007
 31
0.0
  0
ENDBLK
  5
5D
330
5B
100
AcDbEntity
  8
0
100
AcDbBlockEnd
  0
BLOCK
  5
5F
330
5E
100
AcDbEntity
  8
0
100
AcDbBlockBegin
  2
HL19_ABS_10003_ABS__6
 70
     0
 10
-0.00000000000028
 20
-24.42500000000003
 30
0.0
  3
HL19_ABS_10003_ABS__6
  1

  0
LINE
  5
534
330
5E
100
AcDbEntity
  8
1
  6
DOT_CENTER
 62
     2
100
AcDbLine
 10
-0.00000000000028
 20
-59.30000000000007
 30
0.0
 11
-0.00000000000028
 21
-24.20000000000007
 31
0.0
  0
LINE
  5
535
330
5E
100
AcDbEntity
  8
1
  6
DOT_CENTER
 62
     2
100
AcDbLine
 10
0.0
 20
-9.50000000000009
 30
0.0
 11
-0.00000000000028
 21
-23.70000000000007
 31
0.0
  0
LINE
  5
536
330
5E
100
AcDbEntity
  8
0
  6
Continuous
 62
     7
100
AcDbLine
 10
-9.50000000000028
 20
-9.50000000000009
 30
0.0
 11
-9.50000000000028
 21
-23.70000000000007
 31
0.0
  0
LINE
  5
537
330
5E
100
AcDbEntity
  8
0
  6
Continuous
 62
     7
100
AcDbLine
 10
-9.50000000000028
 20
-31.20000000000007
 30
0.0
 11
-11.75000000000028
 21
-24.20000000000007
 31
0.0
  0
LINE
  5
538
330
5E
100
AcDbEntity
  8
0
  6
Continuous
 62
     7
100
AcDbLine
 10
-9.25000000000028
 20
-37.70000000000007
 30
0.0
 11
-11.00000000000028
 21
-31.20000000000007
 31
0.0
  0
LINE
  5
539
330
5E
100
AcDbEntity
  8
0
  6
Continuous
 62
     7
100
AcDbLine
 10
-10.25000000000028
 20
-37.70000000000007
 30
0.0
 11
-9.25000000000028
 21
-37.70000000000007
 31
0.0
  0
LINE
  5
53A
330
5E
100
AcDbEntity
  8
0
  6
Continuous
 62
     7
100
AcDbLine
 10
-0.00000000000028
 20
-51.20000000000007
 30
0.0
 11
8.74999999999972
 21
-51.20000000000007
 31
0.0
  0
LINE
  5
53B
330
5E
100
AcDbEntity
  8
0
  6
Continuous
 62
     7
100
AcDbLine
 10
-0.00000000000028
 20
-44.70000000000007
 30
0.0
 11
8.99999999999972
 21
-44.70000000000007
 31
0.0
  0
LINE
  5
53C
330
5E
100
AcDbEntity
  8
0
  6
Continuous
 62
     7
100
AcDbLine
 10
-0.00000000000028
 20
-37.70000000000007
 30
0.0
 11
9.24999999999972
 21
-37.70000000000007
 31
0.0
  0
LINE
  5
53D
330
5E
100
AcDbEntity
  8
0
  6
Continuous
 62
     7
100
AcDbLine
 10
8.74999999999972
 20
-51.20000000000007
 30
0.0
 11
8.99999999999972
 21
-51.20000000000007
 31
0.0
  0
LINE
  5
53E
330
5E
100
AcDbEntity
  8
0
  6
Continuous
 62
     7
100
AcDbLine
 10
-0.00000000000028
 20
-58.00000000000009
 30
0.0
 11
7.3314391493073
 21
-58.00000000000009
 31
0.0
  0
LINE
  5
53F
330
5E
100
AcDbEntity
  8
0
  6
Continuous
 62
     7
100
AcDbLine
 10
7.49999999999972
 20
-58.00000000000009
 30
0.0
 11
8.51428571428551
 21
-58.00000000000009
 31
0.0
  0
LINE
  5
540
330
5E
100
AcDbEntity
  8
0
  6
Continuous
 62
     7
100
AcDbLine
 10
7.3314391493073
 20
-58.00000000000009
 30
0.0
 11
7.49999999999972
 21
-58.00000000000009
 31
0.0
  0
LINE
  5
541
330
5E
100
AcDbEntity
  8
0
  6
Continuous
 62
     7
100
AcDbLine
 10
-8.5142857142859
 20
-58.00000000000009
 30
0.0
 11
-9.00000000000028
 21
-51.20000000000007
 31
0.0
  0
LINE
  5
542
330
5E
100
AcDbEntity
  8
0
  6
Continuous
 62
     7
100
AcDbLine
 10
-8.75000000000028
 20
-51.20000000000007
 30
0.0
 11
-9.75000000000028
 21
-44.70000000000007
 31
0.0
  0
LINE
  5
543
330
5E
100
AcDbEntity
  8
0
  6
Continuous
 62
     7
100
AcDbLine
 10
-9.00000000000028
 20
-44.70000000000007
 30
0.0
 11
-10.25000000000028
 21
-37.70000000000007
 31
0.0
  0
LINE
  5
544
330
5E
100
AcDbEntity
  8
0
  6
Continuous
 62
     7
100
AcDbLine
 10
-9.75000000000028
 20
-44.70000000000007
 30
0.0
 11
-9.00000000000028
 21
-44.70000000000007
 31
0.0
  0
LINE
  5
545
330
5E
100
AcDbEntity
  8
0
  6
Continuous
 62
     7
100
AcDbLine
 10
8.51428571428551
 20
-58.00000000000009
 30
0.0
 11
8.99999999999972
 21
-51.20000000000007
 31
0.0
  0
LINE
  5
546
330
5E
100
AcDbEntity
  8
0
  6
Continuous
 62
     7
100
AcDbLine
 10
8.74999999999972
 20
-51.20000000000007
 30
0.0
 11
9.74999999999972
 21
-44.70000000000007
 31
0.0
  0
LINE
  5
547
330
5E
100
AcDbEntity
  8
0
  6
Continuous
 62
     7
100
AcDbLine
 10
8.99999999999972
 20
-44.70000000000007
 30
0.0
 11
10.24999999999972
 21
-37.70000000000007
 31
0.0
  0
LINE
  5
548
330
5E
100
AcDbEntity
  8
0
  6
Continuous
 62
     7
100
AcDbLine
 10
8.99999999999972
 20
-44.70000000000007
 30
0.0
 11
9.74999999999972
 21
-44.70000000000007
 31
0.0
  0
LINE
  5
549
330
5E
100
AcDbEntity
  8
0
  6
Continuous
 62
     7
100
AcDbLine
 10
9.49999999999972
 20
-9.50000000000009
 30
0.0
 11
9.49999999999972
 21
-23.70000000000007
 31
0.0
  0
LINE
  5
54A
330
5E
100
AcDbEntity
  8
0
  6
Continuous
 62
     7
100
AcDbLine
 10
9.49999999999972
 20
-31.20000000000007
 30
0.0
 11
11.74999999999972
 21
-24.20000000000007
 31
0.0
  0
LINE
  5
54B
330
5E
100
AcDbEntity
  8
0
  6
Continuous
 62
     7
100
AcDbLine
 10
9.24999999999972
 20
-37.70000000000007
 30
0.0
 11
10.99999999999972
 21
-31.20000000000007
 31
0.0
  0
LINE
  5
54C
330
5E
100
AcDbEntity
  8
0
  6
Continuous
 62
     7
100
AcDbLine
 10
9.24999999999972
 20
-37.70000000000007
 30
0.0
 11
10.24999999999972
 21
-37.70000000000007
 31
0.0
  0
LINE
  5
54D
330
5E
100
AcDbEntity
  8
0
  6
Continuous
 62
     7
100
AcDbLine
 10
-8.75000000000028
 20
-51.20000000000007
 30
0.0
 11
-0.00000000000028
 21
-51.20000000000007
 31
0.0
  0
LINE
  5
54E
330
5E
100
AcDbEntity
  8
0
  6
Continuous
 62
     7
100
AcDbLine
 10
-9.00000000000028
 20
-44.70000000000007
 30
0.0
 11
-0.00000000000028
 21
-44.70000000000007
 31
0.0
  0
LINE
  5
54F
330
5E
100
AcDbEntity
  8
0
  6
Continuous
 62
     7
100
AcDbLine
 10
-9.25000000000028
 20
-37.70000000000007
 30
0.0
 11
-0.00000000000028
 21
-37.70000000000007
 31
0.0
  0
LINE
  5
550
330
5E
100
AcDbEntity
  8
0
  6
Continuous
 62
     7
100
AcDbLine
 10
-7.33143914930793
 20
-58.00000000000009
 30
0.0
 11
-0.00000000000028
 21
-58.00000000000009
 31
0.0
  0
LINE
  5
551
330
5E
100
AcDbEntity
  8
0
  6
Continuous
 62
     7
100
AcDbLine
 10
-8.5142857142859
 20
-58.00000000000009
 30
0.0
 11
-7.50000000000028
 21
-58.00000000000009
 31
0.0
  0
LINE
  5
552
330
5E
100
AcDbEntity
  8
0
  6
Continuous
 62
     7
100
AcDbLine
 10
-7.50000000000028
 20
-58.00000000000009
 30
0.0
 11
-7.33143914930793
 21
-58.00000000000009
 31
0.0
  0
LINE
  5
553
330
5E
100
AcDbEntity
  8
0
  6
Continuous
 62
     7
100
AcDbLine
 10
-9.00000000000028
 20
-51.20000000000007
 30
0.0
 11
-8.75000000000028
 21
-51.20000000000007
 31
0.0
  0
LINE
  5
554
330
5E
100
AcDbEntity
  8
0
  6
Continuous
 62
     7
100
AcDbLine
 10
-10.00000000000028
 20
-24.20000000000007
 30
0.0
 11
-0.00000000000028
 21
-24.20000000000007
 31
0.0
  0
LINE
  5
555
330
5E
100
AcDbEntity
  8
0
  6
Continuous
 62
     7
100
AcDbLine
 10
-9.50000000000028
 20
-31.20000000000007
 30
0.0
 11
-0.00000000000028
 21
-31.20000000000007
 31
0.0
  0
LINE
  5
556
330
5E
100
AcDbEntity
  8
0
  6
Continuous
 62
     7
100
AcDbLine
 10
-11.00000000000028
 20
-31.20000000000007
 30
0.0
 11
-9.50000000000028
 21
-31.20000000000007
 31
0.0
  0
LINE
  5
557
330
5E
100
AcDbEntity
  8
0
  6
Continuous
 62
     7
100
AcDbLine
 10
-11.75000000000028
 20
-24.20000000000007
 30
0.0
 11
-10.00000000000028
 21
-24.20000000000007
 31
0.0
  0
LINE
  5
558
330
5E
100
AcDbEntity
  8
0
  6
Continuous
 62
     7
100
AcDbLine
 10
-0.00000000000028
 20
-24.20000000000007
 30
0.0
 11
9.99999999999972
 21
-24.20000000000007
 31
0.0
  0
LINE
  5
559
330
5E
100
AcDbEntity
  8
0
  6
Continuous
 62
     7
100
AcDbLine
 10
-0.00000000000028
 20
-31.20000000000007
 30
0.0
 11
9.49999999999972
 21
-31.20000000000007
 31
0.0
  0
LINE
  5
55A
330
5E
100
AcDbEntity
  8
0
  6
Continuous
 62
     7
100
AcDbLine
 10
9.49999999999972
 20
-31.20000000000007
 30
0.0
 11
10.99999999999972
 21
-31.20000000000007
 31
0.0
  0
LINE
  5
55B
330
5E
100
AcDbEntity
  8
0
  6
Continuous
 62
     7
100
AcDbLine
 10
9.99999999999972
 20
-24.20000000000007
 30
0.0
 11
11.74999999999972
 21
-24.20000000000007
 31
0.0
  0
LINE
  5
55C
330
5E
100
AcDbEntity
  8
0
  6
Continuous
 62
     3
100
AcDbLine
 10
-9.50000000000028
 20
-23.70000000000007
 30
0.0
 11
9.49999999999972
 21
-23.70000000000007
 31
0.0
  0
LINE
  5
55D
330
5E
100
AcDbEntity
  8
0
  6
Continuous
 62
     7
100
AcDbLine
 10
9.49999999999972
 20
-0.00000000000009
 30
0.0
 11
9.49999999999972
 21
-9.50000000000009
 31
0.0
  0
LINE
  5
55E
330
5E
100
AcDbEntity
  8
0
  6
Continuous
 62
     3
100
AcDbLine
 10
9.49999999999972
 20
-9.50000000000009
 30
0.0
 11
0.79999999999967
 21
-9.50000000000009
 31
0.0
  0
LINE
  5
55F
330
5E
100
AcDbEntity
  8
0
  6
Continuous
 62
     3
100
AcDbLine
 10
0.79999999999967
 20
9.46625585963102
 30
0.0
 11
0.79999999999967
 21
-9.50000000000009
 31
0.0
  0
LINE
  5
560
330
5E
100
AcDbEntity
  8
0
  6
Continuous
 62
     3
100
AcDbLine
 10
0.79999999999967
 20
-9.50000000000009
 30
0.0
 11
0.0
 21
-9.50000000000009
 31
0.0
  0
LINE
  5
561
330
5E
100
AcDbEntity
  8
0
  6
Continuous
 62
     7
100
AcDbLine
 10
0.0
 20
-5.00000000000009
 30
0.0
 11
0.0
 21
9.49999999999991
 31
0.0
  0
LINE
  5
562
330
5E
100
AcDbEntity
  8
0
  6
Continuous
 62
     7
100
AcDbLine
 10
0.0
 20
-9.50000000000009
 30
0.0
 11
0.0
 21
-5.00000000000009
 31
0.0
  0
LINE
  5
563
330
5E
100
AcDbEntity
  8
0
  6
Continuous
 62
     7
100
AcDbLine
 10
-1.50000000000023
 20
-5.00000000000009
 30
0.0
 11
-1.50000000000028
 21
8.99999999999991
 31
0.0
  0
LINE
  5
564
330
5E
100
AcDbEntity
  8
0
  6
Continuous
 62
     3
100
AcDbLine
 10
-1.00000000000023
 20
-5.00000000000009
 30
0.0
 11
-1.00000000000028
 21
9.49999999999991
 31
0.0
  0
LINE
  5
565
330
5E
100
AcDbEntity
  8
0
  6
Continuous
 62
     3
100
AcDbLine
 10
-1.00000000000023
 20
-5.00000000000009
 30
0.0
 11
-1.00000000000023
 21
-9.50000000000009
 31
0.0
  0
LINE
  5
566
330
5E
100
AcDbEntity
  8
0
  6
Continuous
 62
     7
100
AcDbLine
 10
-1.00000000000023
 20
-9.50000000000009
 30
0.0
 11
-1.28160833039089
 21
-9.50000000000009
 31
0.0
  0
LINE
  5
567
330
5E
100
AcDbEntity
  8
0
  6
Continuous
 62
     7
100
AcDbLine
 10
-9.50000000000028
 20
-0.00000000000009
 30
0.0
 11
-9.50000000000028
 21
-9.50000000000009
 31
0.0
  0
LINE
  5
568
330
5E
100
AcDbEntity
  8
0
  6
Continuous
 62
     7
100
AcDbLine
 10
-1.50000000000023
 20
-5.00000000000009
 30
0.0
 11
-1.50000000000023
 21
-5.72696423641517
 31
0.0
  0
LINE
  5
569
330
5E
100
AcDbEntity
  8
0
  6
Continuous
 62
     3
100
AcDbLine
 10
-1.50000000000023
 20
-5.00000000000009
 30
0.0
 11
-1.00000000000023
 21
-5.00000000000009
 31
0.0
  0
LINE
  5
56A
330
5E
100
AcDbEntity
  8
0
  6
Continuous
 62
     3
100
AcDbLine
 10
0.0
 20
-5.00000000000009
 30
0.0
 11
-1.00000000000023
 21
-5.00000000000009
 31
0.0
  0
LINE
  5
56B
330
5E
100
AcDbEntity
  8
0
  6
Continuous
 62
     7
100
AcDbLine
 10
0.0
 20
-9.50000000000009
 30
0.0
 11
-1.00000000000023
 21
-9.50000000000009
 31
0.0
  0
LINE
  5
56C
330
5E
100
AcDbEntity
  8
0
  6
Continuous
 62
     3
100
AcDbLine
 10
-1.28160833039089
 20
-9.50000000000009
 30
0.0
 11
-9.50000000000028
 21
-9.50000000000009
 31
0.0
  0
LINE
  5
56D
330
5E
100
AcDbEntity
  8
0
  6
Continuous
 62
     7
100
AcDbLine
 10
0.0
 20
9.49999999999991
 30
0.0
 11
-1.00000000000028
 21
9.49999999999991
 31
0.0
  0
LINE
  5
56E
330
5E
100
AcDbEntity
  8
1
  6
PHANTOM
 62
     2
100
AcDbLine
 10
10.4499999999997
 20
0.00000000000003
 30
0.0
 11
-10.45000000000027
 21
0.00000000000003
 31
0.0
  0
LINE
  5
56F
330
5E
100
AcDbEntity
  8
1
  6
PHANTOM
 62
     2
100
AcDbLine
 10
-0.00000000000028
 20
10.45000000000002
 30
0.0
 11
-0.00000000000028
 21
-10.44999999999996
 31
0.0
  0
ARC
  5
570
330
5E
100
AcDbEntity
  8
0
  6
Continuous
 62
     7
100
AcDbCircle
 10
-10.00000000000028
 20
-23.70000000000007
 30
0.0
 40
0.5
100
AcDbArc
 50
270.0
 51
0.0
  0
ARC
  5
571
330
5E
100
AcDbEntity
  8
0
  6
Continuous
 62
     7
100
AcDbCircle
 10
9.99999999999972
 20
-23.70000000000007
 30
0.0
 40
0.5
100
AcDbArc
 50
180.0
 51
270.0
  0
ARC
  5
572
330
5E
100
AcDbEntity
  8
0
  6
Continuous
 62
     3
100
AcDbCircle
 10
-0.00000000000028
 20
0.00000000000003
 30
0.0
 40
9.956422128626198
100
AcDbArc
 50
342.5842362558362
 51
197.415763744166
  0
ARC
  5
573
330
5E
100
AcDbEntity
  8
0
  6
Continuous
 62
     7
100
AcDbCircle
 10
-0.00000000000028
 20
0.00000000000003
 30
0.0
 40
9.5
100
AcDbArc
 50
359.9999999999993
 51
85.16937140795814
  0
ARC
  5
574
330
5E
100
AcDbEntity
  8
0
  6
Continuous
 62
     7
100
AcDbCircle
 10
-1.00000000000028
 20
8.99999999999991
 30
0.0
 40
0.4999999999999379
100
AcDbArc
 50
124.2785444754981
 51
180.0
  0
ARC
  5
575
330
5E
100
AcDbEntity
  8
0
  6
Continuous
 62
     7
100
AcDbCircle
 10
-0.00000000000028
 20
0.00000000000003
 30
0.0
 40
9.499999999999895
100
AcDbArc
 50
85.16937140795814
 51
89.9999999999983
  0
ARC
  5
576
330
5E
100
AcDbEntity
  8
0
  6
Continuous
 62
     7
100
AcDbCircle
 10
-1.00000000000028
 20
8.99999999999991
 30
0.0
 40
0.5
100
AcDbArc
 50
90.0
 51
124.2785444754981
  0
ARC
  5
577
330
5E
100
AcDbEntity
  8
0
  6
Continuous
 62
     7
100
AcDbCircle
 10
-0.00000000000028
 20
0.00000000000003
 30
0.0
 40
9.499999999999886
100
AcDbArc
 50
97.75319245890182
 51
180.0000000000007
  0
SPLINE
  5
578
330
5E
100
AcDbEntity
  8
0
  6
Continuous
 62
     7
100
AcDbSpline
210
0.0
220
0.0
230
1.0
 70
     8
 71
     3
 72
    17
 73
    13
 74
    11
 42
0.000000001
 43
0.0000000001
 44
0.00000001
 40
0.0
 40
0.0
 40
0.0
 40
0.0
 40
0.2363417272752589
 40
0.4762632439731532
 40
0.710359614792597
 40
0.9515601560099725
 40
1.413347266247567
 40
1.900027392241414
 40
2.363992510576933
 40
2.843245554574406
 40
3.308761215581175
 40
3.780564606078866
 40
3.780564606078866
 40
3.780564606078866
 40
3.780564606078866
 10
-1.281608330390895
 20
-9.500000000000085
 30
0.0
 10
-1.282134390804809
 20
-9.421217811923079
 30
0.0
 10
-1.283194492470574
 20
-9.262460148273371
 30
0.0
 10
-1.291474941278038
 20
-9.025790389454563
 30
0.0
 10
-1.303890886859747
 20
-8.78770136930289
 30
0.0
 10
-1.324888277115339
 20
-8.476036084000725
 30
0.0
 10
-1.357492897982365
 20
-8.080810567317663
 30
0.0
 10
-1.398955075615623
 20
-7.611833478090082
 30
0.0
 10
-1.438523158974429
 20
-7.136833800451765
 30
0.0
 10
-1.470865763942757
 20
-6.668365584443555
 30
0.0
 10
-1.494719237688786
 20
-6.196684095574259
 30
0.0
 10
-1.498231896239283
 20
-5.884236177910317
 30
0.0
 10
-1.500000000000227
 20
-5.726964236415171
 30
0.0
 11
-1.281608330390895
 21
-9.500000000000085
 31
0.0
 11
-1.284292586590155
 21
-9.263673515925554
 31
0.0
 11
-1.29223537161954
 21
-9.023883509582078
 31
0.0
 11
-1.304349540714512
 21
-8.790100792516476
 31
0.0
 11
-1.320359302660108
 21
-8.54943216713778
 31
0.0
 11
-1.357248803738969
 21
-8.089120860414702
 31
0.0
 11
-1.399202510594819
 21
-7.604252392498978
 31
0.0
 11
-1.437024435869077
 21
-7.141831444827496
 31
0.0
 11
-1.469693384665902
 21
-6.663693159452976
 31
0.0
 11
-1.491586704840088
 21
-6.198692607477196
 31
0.0
 11
-1.500000000000227
 21
-5.726964236415171
 31
0.0
  0
ENDBLK
  5
60
330
5E
100
AcDbEntity
  8
0
100
AcDbBlockEnd
  0
BLOCK
  5
62
330
61
100
AcDbEntity
  8
0
100
AcDbBlockBegin
  2
Holländermutter_1__7
 70
     0
 10
-0.00000000000028
 20
1.1900056274636
 30
0.0
  3
Holländermutter_1__7
  1

  0
LINE
  5
579
330
61
100
AcDbEntity
  8
0
  6
Continuous
 62
     7
100
AcDbLine
 10
6.00093743746947
 20
17.39392853473973
 30
0.0
 11
6.40805829399801
 21
18.09908254306802
 31
0.0
  0
LINE
  5
57A
330
61
100
AcDbEntity
  8
0
  6
Continuous
 62
     7
100
AcDbLine
 10
12.47023612048906
 20
14.59908254306802
 30
0.0
 11
12.06311526396058
 21
13.89392853473981
 31
0.0
  0
LINE
  5
57B
330
61
100
AcDbEntity
  8
0
  6
Continuous
 62
     7
100
AcDbLine
 10
12.06311526396058
 20
-13.89392853473987
 30
0.0
 11
12.47023612048906
 21
-14.59908254306819
 31
0.0
  0
LINE
  5
57C
330
61
100
AcDbEntity
  8
0
  6
Continuous
 62
     7
100
AcDbLine
 10
18.8782944144873
 20
-3.50000000000008
 30
0.0
 11
18.0640527014304
 21
-3.50000000000008
 31
0.0
  0
LINE
  5
57D
330
61
100
AcDbEntity
  8
0
  6
Continuous
 62
     7
100
AcDbLine
 10
18.0640527014304
 20
3.49999999999992
 30
0.0
 11
18.8782944144873
 21
3.49999999999992
 31
0.0
  0
LINE
  5
57E
330
61
100
AcDbEntity
  8
0
  6
Continuous
 62
     7
100
AcDbLine
 10
17.39392853473947
 20
-6.00093743746987
 30
0.0
 11
18.09908254306777
 21
-6.40805829399838
 31
0.0
  0
LINE
  5
57F
330
61
100
AcDbEntity
  8
0
  6
Continuous
 62
     7
100
AcDbLine
 10
14.59908254306777
 20
-12.47023612048938
 30
0.0
 11
13.89392853473947
 21
-12.0631152639609
 31
0.0
  0
LINE
  5
580
330
61
100
AcDbEntity
  8
0
  6
Continuous
 62
     7
100
AcDbLine
 10
-12.0631152639611
 20
13.89392853473973
 30
0.0
 11
-12.47023612048963
 21
14.59908254306802
 31
0.0
  0
LINE
  5
581
330
61
100
AcDbEntity
  8
0
  6
Continuous
 62
     7
100
AcDbLine
 10
-13.8939285347401
 20
-12.0631152639609
 30
0.0
 11
-14.59908254306839
 21
-12.47023612048938
 31
0.0
  0
LINE
  5
582
330
61
100
AcDbEntity
  8
0
  6
Continuous
 62
     7
100
AcDbLine
 10
13.89392853473947
 20
12.06311526396081
 30
0.0
 11
14.59908254306777
 21
12.4702361204892
 31
0.0
  0
LINE
  5
583
330
61
100
AcDbEntity
  8
0
  6
Continuous
 62
     7
100
AcDbLine
 10
-14.59908254306839
 20
12.4702361204892
 30
0.0
 11
-13.8939285347401
 21
12.06311526396081
 31
0.0
  0
LINE
  5
584
330
61
100
AcDbEntity
  8
0
  6
Continuous
 62
     7
100
AcDbLine
 10
-12.47023612048963
 20
-14.59908254306819
 30
0.0
 11
-12.0631152639611
 21
-13.89392853473987
 31
0.0
  0
LINE
  5
585
330
61
100
AcDbEntity
  8
0
  6
Continuous
 62
     7
100
AcDbLine
 10
-6.40805829399864
 20
18.09908254306802
 30
0.0
 11
-6.0009374374701
 21
17.39392853473981
 31
0.0
  0
LINE
  5
586
330
61
100
AcDbEntity
  8
0
  6
Continuous
 62
     7
100
AcDbLine
 10
-18.09908254306839
 20
-6.40805829399838
 30
0.0
 11
-17.3939285347401
 21
-6.00093743746987
 31
0.0
  0
LINE
  5
587
330
61
100
AcDbEntity
  8
0
  6
Continuous
 62
     7
100
AcDbLine
 10
-17.3939285347401
 20
6.00093743746973
 30
0.0
 11
-18.09908254306839
 21
6.40805829399821
 31
0.0
  0
LINE
  5
588
330
61
100
AcDbEntity
  8
0
  6
Continuous
 62
     7
100
AcDbLine
 10
-18.06405270143091
 20
-3.50000000000008
 30
0.0
 11
-18.87829441448793
 21
-3.50000000000008
 31
0.0
  0
LINE
  5
589
330
61
100
AcDbEntity
  8
0
  6
Continuous
 62
     7
100
AcDbLine
 10
-18.87829441448793
 20
3.49999999999992
 30
0.0
 11
-18.06405270143091
 21
3.49999999999992
 31
0.0
  0
LINE
  5
58A
330
61
100
AcDbEntity
  8
0
  6
Continuous
 62
     7
100
AcDbLine
 10
3.49999999999972
 20
18.87829441448753
 30
0.0
 11
3.49999999999972
 21
18.06405270143063
 31
0.0
  0
LINE
  5
58B
330
61
100
AcDbEntity
  8
0
  6
Continuous
 62
     7
100
AcDbLine
 10
18.09908254306777
 20
6.40805829399821
 30
0.0
 11
17.39392853473947
 21
6.00093743746973
 31
0.0
  0
LINE
  5
58C
330
61
100
AcDbEntity
  8
0
  6
Continuous
 62
     7
100
AcDbLine
 10
-3.50000000000028
 20
18.06405270143063
 30
0.0
 11
-3.50000000000028
 21
18.87829441448753
 31
0.0
  0
ARC
  5
58D
330
61
100
AcDbEntity
  8
0
  6
Continuous
 62
     7
100
AcDbCircle
 10
-0.00000000000028
 20
-0.00000000000009
 30
0.0
 40
20.15000000000175
100
AcDbArc
 50
298.1293712654792
 51
241.8706287345208
  0
ARC
  5
58E
330
61
100
AcDbEntity
  8
0
  6
Continuous
 62
     7
100
AcDbCircle
 10
-0.00000000000028
 20
-0.00000000000009
 30
0.0
 40
19.2000000000019
100
AcDbArc
 50
49.49672854988778
 51
70.50327145011204
  0
ARC
  5
58F
330
61
100
AcDbEntity
  8
0
  6
Continuous
 62
     7
100
AcDbCircle
 10
-0.00000000000028
 20
-0.00000000000009
 30
0.0
 40
19.20000000000188
100
AcDbArc
 50
299.6560135411752
 51
310.5032714501122
  0
ARC
  5
590
330
61
100
AcDbEntity
  8
0
  6
Continuous
 62
     3
100
AcDbCircle
 10
-0.00000000000028
 20
-0.00000000000009
 30
0.0
 40
19.65000000000146
100
AcDbArc
 50
298.9116616232063
 51
241.0883383767938
  0
ARC
  5
591
330
61
100
AcDbEntity
  8
0
  6
Continuous
 62
     7
100
AcDbCircle
 10
-0.00000000000028
 20
-0.00000000000009
 30
0.0
 40
19.20000000000183
100
AcDbArc
 50
319.4967285498878
 51
340.503271450112
  0
ARC
  5
592
330
61
100
AcDbEntity
  8
0
  6
Continuous
 62
     7
100
AcDbCircle
 10
-0.00000000000028
 20
-0.00000000000009
 30
0.0
 40
18.40000000000163
100
AcDbArc
 50
319.0345288250757
 51
340.9654711749241
  0
ARC
  5
593
330
61
100
AcDbEntity
  8
0
  6
Continuous
 62
     7
100
AcDbCircle
 10
-0.00000000000028
 20
-0.00000000000009
 30
0.0
 40
18.40000000000177
100
AcDbArc
 50
349.0345288250759
 51
10.96547117492413
  0
ARC
  5
594
330
61
100
AcDbEntity
  8
0
  6
Continuous
 62
     7
100
AcDbCircle
 10
0.00000000000097
 20
0.00000000000082
 30
0.0
 40
18.4000000000016
100
AcDbArc
 50
301.0846793254435
 51
310.9654711749195
  0
ARC
  5
595
330
61
100
AcDbEntity
  8
0
  6
Continuous
 62
     7
100
AcDbCircle
 10
-0.00000000000028
 20
-0.00000000000009
 30
0.0
 40
18.40000000000164
100
AcDbArc
 50
340.9654711749241
 51
349.0345288250759
  0
ARC
  5
596
330
61
100
AcDbEntity
  8
0
  6
Continuous
 62
     7
100
AcDbCircle
 10
-0.00000000000028
 20
-0.00000000000009
 30
0.0
 40
18.40000000000169
100
AcDbArc
 50
310.9654711749243
 51
319.0345288250757
  0
ARC
  5
597
330
61
100
AcDbEntity
  8
0
  6
Continuous
 62
     7
100
AcDbCircle
 10
-0.00000000000028
 20
-0.00000000000009
 30
0.0
 40
19.2000000000019
100
AcDbArc
 50
349.4967285498878
 51
10.50327145011216
  0
ARC
  5
598
330
61
100
AcDbEntity
  8
0
  6
Continuous
 62
     7
100
AcDbCircle
 10
-0.00000000000028
 20
-0.00000000000009
 30
0.0
 40
12.99518651528346
100
AcDbArc
 50
316.9736444862301
 51
223.0263555137699
  0
ARC
  5
599
330
61
100
AcDbEntity
  8
0
  6
Continuous
 62
     3
100
AcDbCircle
 10
-0.00000000000028
 20
-0.00000000000009
 30
0.0
 40
17.40000000000154
100
AcDbArc
 50
303.0914544917866
 51
236.9085455082134
  0
ARC
  5
59A
330
61
100
AcDbEntity
  8
0
  6
Continuous
 62
     7
100
AcDbCircle
 10
-0.00000000000028
 20
-0.00000000000009
 30
0.0
 40
14.99999999999288
100
AcDbArc
 50
309.2964802392098
 51
230.7035197607905
  0
ARC
  5
59B
330
61
100
AcDbEntity
  8
0
  6
Continuous
 62
     7
100
AcDbCircle
 10
-0.00000000000028
 20
-0.00000000000009
 30
0.0
 40
18.40000000000168
100
AcDbArc
 50
130.9654711749241
 51
139.0345288250757
  0
ARC
  5
59C
330
61
100
AcDbEntity
  8
0
  6
Continuous
 62
     7
100
AcDbCircle
 10
-0.00000000000028
 20
-0.00000000000009
 30
0.0
 40
18.40000000000168
100
AcDbArc
 50
40.96547117492445
 51
49.03452882507592
  0
ARC
  5
59D
330
61
100
AcDbEntity
  8
0
  6
Continuous
 62
     7
100
AcDbCircle
 10
-0.00000000000028
 20
-0.00000000000009
 30
0.0
 40
18.40000000000177
100
AcDbArc
 50
49.03452882507592
 51
70.9654711749242
  0
ARC
  5
59E
330
61
100
AcDbEntity
  8
0
  6
Continuous
 62
     7
100
AcDbCircle
 10
-0.00000000000028
 20
-0.00000000000009
 30
0.0
 40
18.40000000000178
100
AcDbArc
 50
109.0345288250759
 51
130.9654711749241
  0
ARC
  5
59F
330
61
100
AcDbEntity
  8
0
  6
Continuous
 62
     7
100
AcDbCircle
 10
-0.00000000000028
 20
-0.00000000000009
 30
0.0
 40
18.4000000000017
100
AcDbArc
 50
199.0345288250759
 51
220.9654711749241
  0
ARC
  5
5A0
330
61
100
AcDbEntity
  8
0
  6
Continuous
 62
     7
100
AcDbCircle
 10
-0.00000000000028
 20
-0.00000000000009
 30
0.0
 40
19.2000000000019
100
AcDbArc
 50
229.4967285498877
 51
240.3439864588249
  0
ARC
  5
5A1
330
61
100
AcDbEntity
  8
0
  6
Continuous
 62
     7
100
AcDbCircle
 10
-0.00000000000153
 20
0.00000000000082
 30
0.0
 40
18.40000000000152
100
AcDbArc
 50
229.0345288250806
 51
238.9153206745565
  0
ARC
  5
5A2
330
61
100
AcDbEntity
  8
0
  6
Continuous
 62
     7
100
AcDbCircle
 10
-0.00000000000028
 20
-0.00000000000009
 30
0.0
 40
18.40000000000168
100
AcDbArc
 50
220.9654711749241
 51
229.0345288250758
  0
ARC
  5
5A3
330
61
100
AcDbEntity
  8
0
  6
Continuous
 62
     7
100
AcDbCircle
 10
-0.00000000000028
 20
-0.00000000000009
 30
0.0
 40
18.40000000000165
100
AcDbArc
 50
19.03452882507603
 51
40.96547117492445
  0
ARC
  5
5A4
330
61
100
AcDbEntity
  8
0
  6
Continuous
 62
     7
100
AcDbCircle
 10
-0.00000000000028
 20
-0.00000000000009
 30
0.0
 40
18.40000000000173
100
AcDbArc
 50
139.0345288250757
 51
160.965471174924
  0
ARC
  5
5A5
330
61
100
AcDbEntity
  8
0
  6
Continuous
 62
     7
100
AcDbCircle
 10
-0.00000000000028
 20
-0.00000000000009
 30
0.0
 40
19.20000000000192
100
AcDbArc
 50
109.4967285498881
 51
130.5032714501122
  0
ARC
  5
5A6
330
61
100
AcDbEntity
  8
0
  6
Continuous
 62
     7
100
AcDbCircle
 10
-0.00000000000028
 20
-0.00000000000009
 30
0.0
 40
18.4000000000018
100
AcDbArc
 50
79.0345288250759
 51
100.9654711749241
  0
ARC
  5
5A7
330
61
100
AcDbEntity
  8
0
  6
Continuous
 62
     7
100
AcDbCircle
 10
-0.00000000000028
 20
-0.00000000000009
 30
0.0
 40
18.40000000000169
100
AcDbArc
 50
70.9654711749242
 51
79.0345288250759
  0
ARC
  5
5A8
330
61
100
AcDbEntity
  8
0
  6
Continuous
 62
     7
100
AcDbCircle
 10
-0.00000000000028
 20
-0.00000000000009
 30
0.0
 40
18.4000000000018
100
AcDbArc
 50
100.9654711749241
 51
109.0345288250759
  0
ARC
  5
5A9
330
61
100
AcDbEntity
  8
0
  6
Continuous
 62
     7
100
AcDbCircle
 10
-0.00000000000028
 20
-0.00000000000009
 30
0.0
 40
19.2000000000019
100
AcDbArc
 50
199.496728549888
 51
220.5032714501121
  0
ARC
  5
5AA
330
61
100
AcDbEntity
  8
0
  6
Continuous
 62
     7
100
AcDbCircle
 10
-0.00000000000028
 20
-0.00000000000009
 30
0.0
 40
18.40000000000171
100
AcDbArc
 50
169.0345288250759
 51
190.9654711749242
  0
ARC
  5
5AB
330
61
100
AcDbEntity
  8
0
  6
Continuous
 62
     7
100
AcDbCircle
 10
-0.00000000000028
 20
-0.00000000000009
 30
0.0
 40
18.40000000000171
100
AcDbArc
 50
190.9654711749242
 51
199.0345288250759
  0
ARC
  5
5AC
330
61
100
AcDbEntity
  8
0
  6
Continuous
 62
     7
100
AcDbCircle
 10
-0.00000000000028
 20
-0.00000000000009
 30
0.0
 40
18.4000000000017
100
AcDbArc
 50
160.965471174924
 51
169.0345288250759
  0
ARC
  5
5AD
330
61
100
AcDbEntity
  8
0
  6
Continuous
 62
     7
100
AcDbCircle
 10
-0.00000000000028
 20
-0.00000000000009
 30
0.0
 40
19.20000000000186
100
AcDbArc
 50
139.4967285498879
 51
160.503271450112
  0
ARC
  5
5AE
330
61
100
AcDbEntity
  8
0
  6
Continuous
 62
     7
100
AcDbCircle
 10
-0.00000000000028
 20
-0.00000000000009
 30
0.0
 40
19.20000000000185
100
AcDbArc
 50
19.49672854988802
 51
40.50327145011219
  0
ARC
  5
5AF
330
61
100
AcDbEntity
  8
0
  6
Continuous
 62
     7
100
AcDbCircle
 10
-0.00000000000028
 20
-0.00000000000009
 30
0.0
 40
18.40000000000177
100
AcDbArc
 50
10.96547117492413
 51
19.03452882507603
  0
ARC
  5
5B0
330
61
100
AcDbEntity
  8
0
  6
Continuous
 62
     7
100
AcDbCircle
 10
-0.00000000000028
 20
-0.00000000000009
 30
0.0
 40
19.20000000000196
100
AcDbArc
 50
169.4967285498879
 51
190.5032714501121
  0
ARC
  5
5B1
330
61
100
AcDbEntity
  8
0
  6
Continuous
 62
     7
100
AcDbCircle
 10
-0.00000000000028
 20
-0.00000000000009
 30
0.0
 40
19.20000000000194
100
AcDbArc
 50
79.49672854988786
 51
100.5032714501121
  0
ENDBLK
  5
63
330
61
100
AcDbEntity
  8
0
100
AcDbBlockEnd
  0
BLOCK
  5
68
330
64
100
AcDbEntity
  8
0
100
AcDbBlockBegin
  2
Katalog-HL19ABSC__8
 70
     0
 10
-0.00000000000028
 20
-19.5749999999992
 30
0.0
  3
Katalog-HL19ABSC__8
  1

  0
INSERT
  5
65
330
64
100
AcDbEntity
  8
0
100
AcDbBlockReference
  2
Dichtstopfen__5
 10
-0.00000000000028
 20
-58.65000000000008
 30
0.0
  0
INSERT
  5
66
330
64
100
AcDbEntity
  8
0
100
AcDbBlockReference
  2
HL19_ABS_10003_ABS__6
 10
-0.00000000000028
 20
-24.42500000000003
 30
0.0
  0
INSERT
  5
67
330
64
100
AcDbEntity
  8
0
100
AcDbBlockReference
  2
Holländermutter_1__7
 10
-0.00000000000028
 20
1.1900056274636
 30
0.0
  0
ENDBLK
  5
69
330
64
100
AcDbEntity
  8
0
100
AcDbBlockEnd
  0
BLOCK
  5
6B
330
6A
100
AcDbEntity
  8
0
100
AcDbBlockBegin
  2
Holländermutter_1__9
 70
     0
 10
-402.6315010010081
 20
-0.15803859687901
 30
0.0
  3
Holländermutter_1__9
  1

  0
LINE
  5
5B2
330
6A
100
AcDbEntity
  8
1
  6
DOT_CENTER
 62
     2
100
AcDbLine
 10
-406.881501001008
 20
-0.15803859687901
 30
0.0
 11
-410.3815010010081
 21
-0.15803859687901
 31
0.0
  0
LINE
  5
5B3
330
6A
100
AcDbEntity
  8
0
  6
Continuous
 62
     7
100
AcDbLine
 10
-406.0815010010079
 20
3.34196140312099
 30
0.0
 11
-406.0815010010079
 21
-3.65803859687901
 31
0.0
  0
LINE
  5
5B4
330
6A
100
AcDbEntity
  8
0
  6
Continuous
 62
     7
100
AcDbLine
 10
-406.0815010010079
 20
-3.65803859687901
 30
0.0
 11
-406.881501001008
 21
-3.65803859687901
 31
0.0
  0
LINE
  5
5B5
330
6A
100
AcDbEntity
  8
0
  6
Continuous
 62
     7
100
AcDbLine
 10
-406.881501001008
 20
-3.65803859687901
 30
0.0
 11
-406.881501001008
 21
3.34196140312099
 31
0.0
  0
LINE
  5
5B6
330
6A
100
AcDbEntity
  8
0
  6
Continuous
 62
     7
100
AcDbLine
 10
-406.881501001008
 20
3.34196140312099
 30
0.0
 11
-406.0815010010079
 21
3.34196140312099
 31
0.0
  0
LINE
  5
5B7
330
6A
100
AcDbEntity
  8
0
  6
Continuous
 62
     7
100
AcDbLine
 10
-406.881501001008
 20
-12.22115386083982
 30
0.0
 11
-406.881501001008
 21
-6.1589760343488
 31
0.0
  0
LINE
  5
5B8
330
6A
100
AcDbEntity
  8
0
  6
Continuous
 62
     7
100
AcDbLine
 10
-406.0815010010079
 20
-6.5660968908773
 30
0.0
 11
-406.0815010010079
 21
-12.6282747173683
 31
0.0
  0
LINE
  5
5B9
330
6A
100
AcDbEntity
  8
0
  6
Continuous
 62
     7
100
AcDbLine
 10
-406.881501001008
 20
-18.55803859688069
 30
0.0
 11
-410.3815010010081
 21
-18.55803859688069
 31
0.0
  0
LINE
  5
5BA
330
6A
100
AcDbEntity
  8
0
  6
Continuous
 62
     7
100
AcDbLine
 10
-406.881501001008
 20
-18.55803859688069
 30
0.0
 11
-406.881501001008
 21
-18.22209129830961
 31
0.0
  0
LINE
  5
5BB
330
6A
100
AcDbEntity
  8
0
  6
Continuous
 62
     7
100
AcDbLine
 10
-406.0815010010079
 20
-19.3580385968809
 30
0.0
 11
-406.881501001008
 21
-18.55803859688069
 31
0.0
  0
LINE
  5
5BC
330
6A
100
AcDbEntity
  8
0
  6
Continuous
 62
     7
100
AcDbLine
 10
-406.0815010010079
 20
-19.03633301136659
 30
0.0
 11
-406.0815010010079
 21
-19.3580385968809
 31
0.0
  0
LINE
  5
5BD
330
6A
100
AcDbEntity
  8
0
  6
Continuous
 62
     7
100
AcDbLine
 10
-406.881501001008
 20
-17.5519671316188
 30
0.0
 11
-406.881501001008
 21
-14.0519671316188
 31
0.0
  0
LINE
  5
5BE
330
6A
100
AcDbEntity
  8
0
  6
Continuous
 62
     7
100
AcDbLine
 10
-406.0815010010079
 20
-14.75712113994712
 30
0.0
 11
-406.0815010010079
 21
-18.25712113994712
 31
0.0
  0
LINE
  5
5BF
330
6A
100
AcDbEntity
  8
0
  6
Continuous
 62
     7
100
AcDbLine
 10
-406.1212708164129
 20
-18.22209129830961
 30
0.0
 11
-406.881501001008
 21
-18.22209129830961
 31
0.0
  0
LINE
  5
5C0
330
6A
100
AcDbEntity
  8
0
  6
Continuous
 62
     7
100
AcDbLine
 10
-406.0815010010079
 20
14.4410439461891
 30
0.0
 11
-396.3815010010081
 21
14.4410439461891
 31
0.0
  0
LINE
  5
5C1
330
6A
100
AcDbEntity
  8
0
  6
Continuous
 62
     7
100
AcDbLine
 10
-396.3815010010081
 20
14.4410439461891
 30
0.0
 11
-396.3815010010081
 21
13.735889937861
 31
0.0
  0
LINE
  5
5C2
330
6A
100
AcDbEntity
  8
0
  6
Continuous
 62
     7
100
AcDbLine
 10
-396.3815010010081
 20
13.735889937861
 30
0.0
 11
-406.881501001008
 21
13.7358899378608
 31
0.0
  0
LINE
  5
5C3
330
6A
100
AcDbEntity
  8
0
  6
Continuous
 62
     7
100
AcDbLine
 10
-406.0815010010079
 20
17.9410439461891
 30
0.0
 11
-396.3815010010081
 21
17.9410439461891
 31
0.0
  0
LINE
  5
5C4
330
6A
100
AcDbEntity
  8
0
  6
Continuous
 62
     7
100
AcDbLine
 10
-396.3815010010081
 20
17.9410439461891
 30
0.0
 11
-396.3815010010081
 21
14.4410439461891
 31
0.0
  0
LINE
  5
5C5
330
6A
100
AcDbEntity
  8
0
  6
Continuous
 62
     7
100
AcDbLine
 10
-406.0815010010079
 20
6.25001969711928
 30
0.0
 11
-396.3815010010081
 21
6.25001969711928
 31
0.0
  0
LINE
  5
5C6
330
6A
100
AcDbEntity
  8
0
  6
Continuous
 62
     7
100
AcDbLine
 10
-396.3815010010081
 20
5.84289884059089
 30
0.0
 11
-406.8815010010081
 21
5.84289884059081
 31
0.0
  0
LINE
  5
5C7
330
6A
100
AcDbEntity
  8
0
  6
Continuous
 62
     7
100
AcDbLine
 10
-406.0815010010079
 20
18.7202558176086
 30
0.0
 11
-396.3815010010081
 21
18.7202558176086
 31
0.0
  0
LINE
  5
5C8
330
6A
100
AcDbEntity
  8
0
  6
Continuous
 62
     7
100
AcDbLine
 10
-396.3815010010081
 20
18.7202558176086
 30
0.0
 11
-396.3815010010081
 21
17.9410439461891
 31
0.0
  0
LINE
  5
5C9
330
6A
100
AcDbEntity
  8
0
  6
Continuous
 62
     7
100
AcDbLine
 10
-396.3815010010081
 20
19.04196140312288
 30
0.0
 11
-396.3815010010081
 21
18.7202558176086
 31
0.0
  0
LINE
  5
5CA
330
6A
100
AcDbEntity
  8
0
  6
Continuous
 62
     7
100
AcDbLine
 10
-396.3815010010081
 20
19.04196140312288
 30
0.0
 11
-406.0815010010079
 21
19.04196140312288
 31
0.0
  0
LINE
  5
5CB
330
6A
100
AcDbEntity
  8
0
  6
Continuous
 62
     7
100
AcDbLine
 10
-406.0815010010079
 20
-3.65803859687901
 30
0.0
 11
-396.3815010010081
 21
-3.65803859687901
 31
0.0
  0
LINE
  5
5CC
330
6A
100
AcDbEntity
  8
0
  6
Continuous
 62
     7
100
AcDbLine
 10
-406.0815010010079
 20
-6.5660968908773
 30
0.0
 11
-396.3815010010081
 21
-6.5660968908773
 31
0.0
  0
LINE
  5
5CD
330
6A
100
AcDbEntity
  8
0
  6
Continuous
 62
     7
100
AcDbLine
 10
-396.3815010010081
 20
6.25001969711928
 30
0.0
 11
-396.3815010010081
 21
5.84289884059089
 31
0.0
  0
LINE
  5
5CE
330
6A
100
AcDbEntity
  8
0
  6
Continuous
 62
     7
100
AcDbLine
 10
-396.3815010010081
 20
3.34196140312099
 30
0.0
 11
-396.3815010010081
 21
-3.65803859687901
 31
0.0
  0
LINE
  5
5CF
330
6A
100
AcDbEntity
  8
0
  6
Continuous
 62
     7
100
AcDbLine
 10
-396.3815010010081
 20
-3.65803859687901
 30
0.0
 11
-396.3815010010081
 21
-6.15897603434891
 31
0.0
  0
LINE
  5
5D0
330
6A
100
AcDbEntity
  8
0
  6
Continuous
 62
     7
100
AcDbLine
 10
-396.3815010010081
 20
-6.15897603434891
 30
0.0
 11
-396.3815010010081
 21
-6.5660968908773
 31
0.0
  0
LINE
  5
5D1
330
6A
100
AcDbEntity
  8
0
  6
Continuous
 62
     7
100
AcDbLine
 10
-396.3815010010081
 20
5.84289884059089
 30
0.0
 11
-396.3815010010081
 21
3.34196140312099
 31
0.0
  0
LINE
  5
5D2
330
6A
100
AcDbEntity
  8
0
  6
Continuous
 62
     7
100
AcDbLine
 10
-406.0815010010079
 20
3.34196140312099
 30
0.0
 11
-396.3815010010081
 21
3.34196140312099
 31
0.0
  0
LINE
  5
5D3
330
6A
100
AcDbEntity
  8
0
  6
Continuous
 62
     7
100
AcDbLine
 10
-396.3815010010081
 20
-6.5660968908773
 30
0.0
 11
-396.3815010010081
 21
-12.6282747173683
 31
0.0
  0
LINE
  5
5D4
330
6A
100
AcDbEntity
  8
0
  6
Continuous
 62
     7
100
AcDbLine
 10
-396.3815010010081
 20
-6.15897603434891
 30
0.0
 11
-406.881501001008
 21
-6.1589760343488
 31
0.0
  0
LINE
  5
5D5
330
6A
100
AcDbEntity
  8
0
  6
Continuous
 62
     7
100
AcDbLine
 10
-396.3815010010081
 20
-12.6282747173683
 30
0.0
 11
-396.3815010010081
 21
-14.05196713161899
 31
0.0
  0
LINE
  5
5D6
330
6A
100
AcDbEntity
  8
0
  6
Continuous
 62
     7
100
AcDbLine
 10
-396.3815010010081
 20
-14.05196713161899
 30
0.0
 11
-406.881501001008
 21
-14.0519671316188
 31
0.0
  0
LINE
  5
5D7
330
6A
100
AcDbEntity
  8
0
  6
Continuous
 62
     7
100
AcDbLine
 10
-396.3815010010081
 20
-14.05196713161899
 30
0.0
 11
-396.3815010010081
 21
-14.75712113994712
 31
0.0
  0
LINE
  5
5D8
330
6A
100
AcDbEntity
  8
0
  6
Continuous
 62
     7
100
AcDbLine
 10
-406.0815010010079
 20
-14.75712113994712
 30
0.0
 11
-396.3815010010081
 21
-14.75712113994712
 31
0.0
  0
LINE
  5
5D9
330
6A
100
AcDbEntity
  8
0
  6
Continuous
 62
     7
100
AcDbLine
 10
-406.0815010010079
 20
-18.25712113994712
 30
0.0
 11
-396.3815010010081
 21
-18.25712113994712
 31
0.0
  0
LINE
  5
5DA
330
6A
100
AcDbEntity
  8
0
  6
Continuous
 62
     7
100
AcDbLine
 10
-396.3815010010081
 20
-14.75712113994712
 30
0.0
 11
-396.3815010010081
 21
-18.25712113994712
 31
0.0
  0
LINE
  5
5DB
330
6A
100
AcDbEntity
  8
0
  6
Continuous
 62
     7
100
AcDbLine
 10
-396.3815010010081
 20
12.31219752361028
 30
0.0
 11
-396.3815010010081
 21
6.25001969711928
 31
0.0
  0
LINE
  5
5DC
330
6A
100
AcDbEntity
  8
0
  6
Continuous
 62
     7
100
AcDbLine
 10
-396.3815010010081
 20
13.735889937861
 30
0.0
 11
-396.3815010010081
 21
12.31219752361028
 31
0.0
  0
LINE
  5
5DD
330
6A
100
AcDbEntity
  8
0
  6
Continuous
 62
     7
100
AcDbLine
 10
-406.0815010010079
 20
-19.03633301136659
 30
0.0
 11
-396.3815010010081
 21
-19.03633301136659
 31
0.0
  0
LINE
  5
5DE
330
6A
100
AcDbEntity
  8
0
  6
Continuous
 62
     7
100
AcDbLine
 10
-396.3815010010081
 20
-18.25712113994712
 30
0.0
 11
-396.3815010010081
 21
-19.03633301136659
 31
0.0
  0
LINE
  5
5DF
330
6A
100
AcDbEntity
  8
0
  6
Continuous
 62
     7
100
AcDbLine
 10
-396.3815010010081
 20
-19.03633301136659
 30
0.0
 11
-396.3815010010081
 21
-19.3580385968809
 31
0.0
  0
LINE
  5
5E0
330
6A
100
AcDbEntity
  8
0
  6
Continuous
 62
     7
100
AcDbLine
 10
-396.3815010010081
 20
-19.3580385968809
 30
0.0
 11
-406.0815010010079
 21
-19.3580385968809
 31
0.0
  0
LINE
  5
5E1
330
6A
100
AcDbEntity
  8
0
  6
Continuous
 62
     7
100
AcDbLine
 10
-395.8815010010081
 20
19.99196140312259
 30
0.0
 11
-393.8815010010082
 21
19.99196140312259
 31
0.0
  0
LINE
  5
5E2
330
6A
100
AcDbEntity
  8
0
  6
Continuous
 62
     7
100
AcDbLine
 10
-406.0815010010079
 20
-12.6282747173683
 30
0.0
 11
-396.3815010010081
 21
-12.6282747173683
 31
0.0
  0
LINE
  5
5E3
330
6A
100
AcDbEntity
  8
0
  6
Continuous
 62
     7
100
AcDbLine
 10
-406.0815010010079
 20
12.31219752361028
 30
0.0
 11
-396.3815010010081
 21
12.31219752361028
 31
0.0
  0
LINE
  5
5E4
330
6A
100
AcDbEntity
  8
0
  6
Continuous
 62
     7
100
AcDbLine
 10
-396.3815010010082
 20
19.49196140312259
 30
0.0
 11
-396.3815010010081
 21
19.04196140312288
 31
0.0
  0
LINE
  5
5E5
330
6A
100
AcDbEntity
  8
0
  6
Continuous
 62
     7
100
AcDbLine
 10
-393.8815010010082
 20
19.99196140312259
 30
0.0
 11
-393.8815010010082
 21
-20.30803859688061
 31
0.0
  0
LINE
  5
5E6
330
6A
100
AcDbEntity
  8
0
  6
Continuous
 62
     7
100
AcDbLine
 10
-395.8815010010081
 20
-20.30803859688061
 30
0.0
 11
-393.8815010010082
 21
-20.30803859688061
 31
0.0
  0
LINE
  5
5E7
330
6A
100
AcDbEntity
  8
0
  6
Continuous
 62
     3
100
AcDbLine
 10
-395.8815010010081
 20
19.99196140312259
 30
0.0
 11
-395.8815010010081
 21
-20.30803859688061
 31
0.0
  0
LINE
  5
5E8
330
6A
100
AcDbEntity
  8
0
  6
Continuous
 62
     7
100
AcDbLine
 10
-396.3815010010081
 20
-19.3580385968809
 30
0.0
 11
-396.3815010010082
 21
-19.80803859688061
 31
0.0
  0
LINE
  5
5E9
330
6A
100
AcDbEntity
  8
0
  6
Continuous
 62
     3
100
AcDbLine
 10
-410.3815010010081
 20
18.2419614031227
 30
0.0
 11
-410.3815010010081
 21
-18.55803859688069
 31
0.0
  0
LINE
  5
5EA
330
6A
100
AcDbEntity
  8
0
  6
Continuous
 62
     7
100
AcDbLine
 10
-406.0815010010079
 20
19.04196140312288
 30
0.0
 11
-406.881501001008
 21
18.2419614031227
 31
0.0
  0
LINE
  5
5EB
330
6A
100
AcDbEntity
  8
0
  6
Continuous
 62
     7
100
AcDbLine
 10
-406.0815010010079
 20
12.31219752361028
 30
0.0
 11
-406.0815010010079
 21
6.25001969711928
 31
0.0
  0
LINE
  5
5EC
330
6A
100
AcDbEntity
  8
0
  6
Continuous
 62
     7
100
AcDbLine
 10
-406.8815010010081
 20
5.84289884059081
 30
0.0
 11
-406.881501001008
 21
11.90507666708189
 31
0.0
  0
LINE
  5
5ED
330
6A
100
AcDbEntity
  8
0
  6
Continuous
 62
     7
100
AcDbLine
 10
-406.881501001008
 20
13.7358899378608
 30
0.0
 11
-406.881501001008
 21
17.2358899378608
 31
0.0
  0
LINE
  5
5EE
330
6A
100
AcDbEntity
  8
0
  6
Continuous
 62
     7
100
AcDbLine
 10
-406.0815010010079
 20
17.9410439461891
 30
0.0
 11
-406.0815010010079
 21
14.4410439461891
 31
0.0
  0
LINE
  5
5EF
330
6A
100
AcDbEntity
  8
0
  6
Continuous
 62
     7
100
AcDbLine
 10
-406.121270816413
 20
17.90601410455159
 30
0.0
 11
-406.8815010010081
 21
17.90601410455159
 31
0.0
  0
LINE
  5
5F0
330
6A
100
AcDbEntity
  8
0
  6
Continuous
 62
     7
100
AcDbLine
 10
-406.8815010010081
 20
17.90601410455159
 30
0.0
 11
-406.881501001008
 21
18.2419614031227
 31
0.0
  0
LINE
  5
5F1
330
6A
100
AcDbEntity
  8
0
  6
Continuous
 62
     7
100
AcDbLine
 10
-406.0815010010079
 20
19.04196140312288
 30
0.0
 11
-406.0815010010079
 21
18.7202558176086
 31
0.0
  0
LINE
  5
5F2
330
6A
100
AcDbEntity
  8
0
  6
Continuous
 62
     7
100
AcDbLine
 10
-406.881501001008
 20
18.2419614031227
 30
0.0
 11
-410.3815010010081
 21
18.2419614031227
 31
0.0
  0
LINE
  5
5F3
330
6A
100
AcDbEntity
  8
0
  6
Continuous
 62
     7
100
AcDbLine
 10
-411.3815010010081
 20
17.2419614031225
 30
0.0
 11
-411.3815010010081
 21
-17.55803859688049
 31
0.0
  0
ARC
  5
5F4
330
6A
100
AcDbEntity
  8
0
  6
Continuous
 62
     7
100
AcDbCircle
 10
-410.3815010010082
 20
-17.55803859688049
 30
0.0
 40
0.9999999999998863
100
AcDbArc
 50
180.0
 51
270.0000000000065
  0
ARC
  5
5F5
330
6A
100
AcDbEntity
  8
0
  6
Continuous
 62
     7
100
AcDbCircle
 10
-395.881501001008
 20
19.49196140312259
 30
0.0
 40
0.5
100
AcDbArc
 50
90.00000000000651
 51
180.0
  0
ARC
  5
5F6
330
6A
100
AcDbEntity
  8
0
  6
Continuous
 62
     7
100
AcDbCircle
 10
-395.881501001008
 20
-19.80803859688061
 30
0.0
 40
0.5000000000001705
100
AcDbArc
 50
180.0
 51
269.9999999999935
  0
ARC
  5
5F7
330
6A
100
AcDbEntity
  8
0
  6
Continuous
 62
     7
100
AcDbCircle
 10
-410.3815010010082
 20
17.2419614031225
 30
0.0
 40
1.000000000000203
100
AcDbArc
 50
89.99999999999349
 51
180.0
  0
SPLINE
  5
5F8
330
6A
100
AcDbEntity
  8
0
  6
Continuous
 62
     7
100
AcDbSpline
210
0.0
220
0.0
230
1.0
 70
     8
 71
     3
 72
    11
 73
     7
 74
     5
 42
0.000000001
 43
0.0000000001
 44
0.00000001
 40
0.0
 40
0.0
 40
0.0
 40
0.0
 40
0.2230022301571188
 40
0.4487652474511905
 40
0.671948580833235
 40
0.8976343441809252
 40
0.8976343441809252
 40
0.8976343441809252
 40
0.8976343441809252
 10
-406.8815010010081
 20
5.842898840590806
 30
0.0
 10
-406.8152611979102
 20
5.876630776107402
 30
0.0
 10
-406.6819615303194
 20
5.944512238037833
 30
0.0
 10
-406.4823473295296
 20
6.04611190884853
 30
0.0
 10
-406.2819224373283
 20
6.148090804721059
 30
0.0
 10
-406.1485559865306
 20
6.215917360537939
 30
0.0
 10
-406.0815010010079
 20
6.250019697119285
 30
0.0
 11
-406.8815010010081
 21
5.842898840590806
 31
0.0
 11
-406.6827781373648
 21
5.944087862331543
 31
0.0
 11
-406.4815787214529
 21
6.046497505506181
 31
0.0
 11
-406.2826626764137
 21
6.147706236978164
 31
0.0
 11
-406.0815010010079
 21
6.250019697119285
 31
0.0
  0
SPLINE
  5
5F9
330
6A
100
AcDbEntity
  8
0
  6
Continuous
 62
     7
100
AcDbSpline
210
0.0
220
0.0
230
1.0
 70
     8
 71
     3
 72
    11
 73
     7
 74
     5
 42
0.000000001
 43
0.0000000001
 44
0.00000001
 40
0.0
 40
0.0
 40
0.0
 40
0.0
 40
0.2255148068539835
 40
0.4488690967297226
 40
0.6744035432072577
 40
0.8976343441808612
 40
0.8976343441808612
 40
0.8976343441808612
 40
0.8976343441808612
 10
-406.0815010010079
 20
-6.566096890877304
 30
0.0
 10
-406.1485051934599
 20
-6.532020388594524
 30
0.0
 10
-406.2818716461265
 20
-6.464193836453637
 30
0.0
 10
-406.4822286382632
 20
-6.362249502681458
 30
0.0
 10
-406.6818936321823
 20
-6.26062399768722
 30
0.0
 10
-406.8151933026168
 20
-6.192742541339435
 30
0.0
 10
-406.881501001008
 20
-6.158976034348797
 30
0.0
 11
-406.0815010010079
 21
-6.566096890877304
 31
0.0
 11
-406.2825103026229
 21
-6.463860944288527
 31
0.0
 11
-406.4815787214529
 21
-6.362574699264201
 31
0.0
 11
-406.6825744438697
 21
-6.26026875555209
 31
0.0
 11
-406.881501001008
 21
-6.158976034348797
 31
0.0
  0
SPLINE
  5
5FA
330
6A
100
AcDbEntity
  8
0
  6
Continuous
 62
     7
100
AcDbSpline
210
0.0
220
0.0
230
1.0
 70
     8
 71
     3
 72
    11
 73
     7
 74
     5
 42
0.000000001
 43
0.0000000001
 44
0.00000001
 40
0.0
 40
0.0
 40
0.0
 40
0.0
 40
0.2230956807260102
 40
0.4487652474511861
 40
0.672073125370223
 40
0.8976343441808607
 40
0.8976343441808607
 40
0.8976343441808607
 40
0.8976343441808607
 10
-406.881501001008
 20
-12.22115386083982
 30
0.0
 10
-406.8152334390977
 20
-12.25489993080573
 30
0.0
 10
-406.6819337703375
 20
-12.32278139044082
 30
0.0
 10
-406.4822825683819
 20
-12.42439988666322
 30
0.0
 10
-406.2818854351132
 20
-12.52636464832148
 30
0.0
 10
-406.1485189829626
 20
-12.59419120147778
 30
0.0
 10
-406.0815010010079
 20
-12.6282747173683
 30
0.0
 11
-406.881501001008
 21
-12.22115386083982
 31
0.0
 11
-406.6826948578245
 21
-12.32238527983337
 31
0.0
 11
-406.4815787214529
 21
-12.42475252575531
 31
0.0
 11
-406.2825516696735
 21
-12.52601772709025
 31
0.0
 11
-406.0815010010079
 21
-12.6282747173683
 31
0.0
  0
SPLINE
  5
5FB
330
6A
100
AcDbEntity
  8
0
  6
Continuous
 62
     7
100
AcDbSpline
210
0.0
220
0.0
230
1.0
 70
     8
 71
     3
 72
    11
 73
     7
 74
     5
 42
0.000000001
 43
0.0000000001
 44
0.00000001
 40
0.0
 40
0.0
 40
0.0
 40
0.0
 40
0.268095485545389
 40
0.5332223103201161
 40
0.8013480840978415
 40
1.06641559747995
 40
1.06641559747995
 40
1.06641559747995
 40
1.06641559747995
 10
-406.0815010010079
 20
-14.75712113994712
 30
0.0
 10
-406.1485595677183
 20
-14.69805100507372
 30
0.0
 10
-406.2819341418782
 20
-14.5805648164077
 30
0.0
 10
-406.4823334027695
 20
-14.40395476664256
 30
0.0
 10
-406.6819468636211
 20
-14.22797963955263
 30
0.0
 10
-406.815237799424
 20
-14.11041319431304
 30
0.0
 10
-406.881501001008
 20
-14.0519671316188
 30
0.0
 11
-406.0815010010079
 21
-14.75712113994712
 31
0.0
 11
-406.2826697253798
 21
-14.57990281779956
 31
0.0
 11
-406.4815787214529
 21
-14.4046103636056
 31
0.0
 11
-406.6827040490453
 21
-14.22729698800795
 31
0.0
 11
-406.881501001008
 21
-14.0519671316188
 31
0.0
  0
SPLINE
  5
5FC
330
6A
100
AcDbEntity
  8
0
  6
Continuous
 62
     7
100
AcDbSpline
210
0.0
220
0.0
230
1.0
 70
     8
 71
     3
 72
    11
 73
     7
 74
     5
 42
0.000000001
 43
0.0000000001
 44
0.00000001
 40
0.0
 40
0.0
 40
0.0
 40
0.0
 40
0.2653193058670033
 40
0.5331932871598097
 40
0.7984327801838376
 40
1.066415597479914
 40
1.066415597479914
 40
1.066415597479914
 40
1.066415597479914
 10
-406.881501001008
 20
-17.5519671316188
 30
0.0
 10
-406.8151748520121
 20
-17.61046871014384
 30
0.0
 10
-406.6818839106224
 20
-17.72803514905101
 30
0.0
 10
-406.4822422631288
 20
-17.90403509494148
 30
0.0
 10
-406.2819059635843
 20
-18.08058964468221
 30
0.0
 10
-406.1485313871962
 20
-18.19807583081801
 30
0.0
 10
-406.0815010010079
 20
-18.25712113994712
 30
0.0
 11
-406.881501001008
 21
-17.5519671316188
 31
0.0
 11
-406.6825151917738
 21
-17.72746351844681
 31
0.0
 11
-406.4815787214529
 21
-17.9046103636056
 31
0.0
 11
-406.2825851901758
 21
-18.07997730225287
 31
0.0
 11
-406.0815010010079
 21
-18.25712113994712
 31
0.0
  0
SPLINE
  5
5FD
330
6A
100
AcDbEntity
  8
0
  6
Continuous
 62
     7
100
AcDbSpline
210
0.0
220
0.0
230
1.0
 70
     8
 71
     3
 72
    11
 73
     7
 74
     5
 42
0.000000001
 43
0.0000000001
 44
0.00000001
 40
0.0
 40
0.0
 40
0.0
 40
0.0
 40
0.2868366591028042
 40
0.5707427748940648
 40
0.8574816590779499
 40
1.141485710262772
 40
1.141485710262772
 40
1.141485710262772
 40
1.141485710262772
 10
-406.0815010010079
 20
-19.03633301136659
 30
0.0
 10
-406.1485319708904
 20
-18.96815276721918
 30
0.0
 10
-406.2819090601919
 20
-18.83248885011028
 30
0.0
 10
-406.4822460400363
 20
-18.62862052201088
 30
0.0
 10
-406.681887981478
 20
-18.42539298936955
 30
0.0
 10
-406.8151762241337
 20
-18.28964170536073
 30
0.0
 10
-406.881501001008
 20
-18.22209129830961
 30
0.0
 11
-406.0815010010079
 21
-19.03633301136659
 31
0.0
 11
-406.2825857997816
 21
-18.83178430638939
 31
0.0
 11
-406.4815787214529
 21
-18.6292886281405
 31
0.0
 11
-406.6825181033857
 21
-18.42473410608675
 31
0.0
 11
-406.881501001008
 21
-18.22209129830961
 31
0.0
  0
SPLINE
  5
5FE
330
6A
100
AcDbEntity
  8
0
  6
Continuous
 62
     7
100
AcDbSpline
210
0.0
220
0.0
230
1.0
 70
     8
 71
     3
 72
    11
 73
     7
 74
     5
 42
0.000000001
 43
0.0000000001
 44
0.00000001
 40
0.0
 40
0.0
 40
0.0
 40
0.0
 40
0.2837144120552237
 40
0.5707429353687757
 40
0.854670560608676
 40
1.141485710262861
 40
1.141485710262861
 40
1.141485710262861
 40
1.141485710262861
 10
-406.8815010010081
 20
17.90601410455159
 30
0.0
 10
-406.8152438683558
 20
17.97349562428676
 30
0.0
 10
-406.6819556326518
 20
18.10924691511903
 30
0.0
 10
-406.4823086855527
 20
18.3124795810263
 30
0.0
 10
-406.281904034217
 20
18.51641676965276
 30
0.0
 10
-406.148526944532
 20
18.65208068638472
 30
0.0
 10
-406.0815010010079
 20
18.7202558176086
 30
0.0
 11
-406.8815010010081
 21
17.90601410455159
 31
0.0
 11
-406.6827210549055
 21
18.10845026889951
 31
0.0
 11
-406.4815787214529
 21
18.31321143438248
 31
0.0
 11
-406.2825707221459
 21
18.51572245281668
 31
0.0
 11
-406.0815010010079
 21
18.7202558176086
 31
0.0
  0
SPLINE
  5
5FF
330
6A
100
AcDbEntity
  8
0
  6
Continuous
 62
     7
100
AcDbSpline
210
0.0
220
0.0
230
1.0
 70
     8
 71
     3
 72
    11
 73
     7
 74
     5
 42
0.000000001
 43
0.0000000001
 44
0.00000001
 40
0.0
 40
0.0
 40
0.0
 40
0.0
 40
0.2678763810306368
 40
0.5332223103200959
 40
0.8014552245829909
 40
1.066415597479926
 40
1.066415597479926
 40
1.066415597479926
 40
1.066415597479926
 10
-406.0815010010079
 20
17.9410439461891
 30
0.0
 10
-406.1485047653491
 20
17.88202208955145
 30
0.0
 10
-406.2818793437134
 20
17.76453590565967
 30
0.0
 10
-406.4823054113272
 20
17.58790225814186
 30
0.0
 10
-406.6819736507325
 20
17.41187882579268
 30
0.0
 10
-406.815264584214
 20
17.29431237792217
 30
0.0
 10
-406.881501001008
 20
17.2358899378608
 30
0.0
 11
-406.0815010010079
 21
17.9410439461891
 31
0.0
 11
-406.2825053308359
 21
17.76397047300668
 31
0.0
 11
-406.4815787214529
 21
17.58853316984758
 31
0.0
 11
-406.6827844098922
 21
17.41114893369708
 31
0.0
 11
-406.881501001008
 21
17.2358899378608
 31
0.0
  0
SPLINE
  5
600
330
6A
100
AcDbEntity
  8
0
  6
Continuous
 62
     7
100
AcDbSpline
210
0.0
220
0.0
230
1.0
 70
     8
 71
     3
 72
    11
 73
     7
 74
     5
 42
0.000000001
 43
0.0000000001
 44
0.00000001
 40
0.0
 40
0.0
 40
0.0
 40
0.0
 40
0.2650771053919488
 40
0.533193287159819
 40
0.7982746906057405
 40
1.066415597479939
 40
1.066415597479939
 40
1.066415597479939
 40
1.066415597479939
 10
-406.881501001008
 20
13.7358899378608
 30
0.0
 10
-406.8152354014539
 20
13.79433811543113
 30
0.0
 10
-406.6819444654486
 20
13.91190456044137
 30
0.0
 10
-406.4823423611862
 20
14.08786967449464
 30
0.0
 10
-406.2819455017744
 20
14.26447761336461
 30
0.0
 10
-406.1485709284885
 20
14.38196380302329
 30
0.0
 10
-406.0815010010079
 20
14.4410439461891
 30
0.0
 11
-406.881501001008
 21
13.7358899378608
 31
0.0
 11
-406.6826968545467
 21
13.9112261382112
 31
0.0
 11
-406.4815787214529
 21
14.08853316984758
 31
0.0
 11
-406.2827038050885
 21
14.26379559621142
 31
0.0
 11
-406.0815010010079
 21
14.4410439461891
 31
0.0
  0
SPLINE
  5
601
330
6A
100
AcDbEntity
  8
0
  6
Continuous
 62
     7
100
AcDbSpline
210
0.0
220
0.0
230
1.0
 70
     8
 71
     3
 72
    11
 73
     7
 74
     5
 42
0.000000001
 43
0.0000000001
 44
0.00000001
 40
0.0
 40
0.0
 40
0.0
 40
0.0
 40
0.2257255359652447
 40
0.4488690967296852
 40
0.674551638960725
 40
0.8976343441808318
 40
0.8976343441808318
 40
0.8976343441808318
 40
0.8976343441808318
 10
-406.0815010010079
 20
12.31219752361028
 30
0.0
 10
-406.1485678034244
 20
12.27808917675702
 30
0.0
 10
-406.2819342538037
 20
12.21026262011692
 30
0.0
 10
-406.4823352364522
 20
12.10829588627863
 30
0.0
 10
-406.6819376248058
 20
12.00670223450038
 30
0.0
 10
-406.815237293386
 20
11.93882077451242
 30
0.0
 10
-406.881501001008
 20
11.90507666708189
 30
0.0
 11
-406.0815010010079
 21
12.31219752361028
 31
0.0
 11
-406.2826981258088
 21
12.20986603012499
 31
0.0
 11
-406.4815787214529
 21
12.10867533199729
 31
0.0
 11
-406.6827064210947
 21
12.00630219926507
 31
0.0
 11
-406.881501001008
 21
11.90507666708189
 31
0.0
  0
ENDBLK
  5
6C
330
6A
100
AcDbEntity
  8
0
100
AcDbBlockEnd
  0
BLOCK
  5
6E
330
6D
100
AcDbEntity
  8
0
100
AcDbBlockBegin
  2
Dichtstopfen__10
 70
     0
 10
-432.7521492407776
 20
-58.808038596879
 30
0.0
  3
Dichtstopfen__10
  1

  0
LINE
  5
602
330
6D
100
AcDbEntity
  8
0
  6
Continuous
 62
     7
100
AcDbLine
 10
-441.5021492407776
 20
-58.15803859687901
 30
0.0
 11
-426.5021492407776
 21
-58.15803859687901
 31
0.0
  0
LINE
  5
603
330
6D
100
AcDbEntity
  8
0
  6
Continuous
 62
     7
100
AcDbLine
 10
-442.5164349550634
 20
-58.15803859687901
 30
0.0
 11
-441.5021492407776
 21
-58.15803859687901
 31
0.0
  0
LINE
  5
604
330
6D
100
AcDbEntity
  8
0
  6
Continuous
 62
     7
100
AcDbLine
 10
-426.5021492407776
 20
-58.15803859687901
 30
0.0
 11
-425.487863526492
 21
-58.15803859687901
 31
0.0
  0
LINE
  5
605
330
6D
100
AcDbEntity
  8
0
  6
Continuous
 62
     7
100
AcDbLine
 10
-443.5021492407776
 20
-58.15803859687901
 30
0.0
 11
-442.5164349550634
 21
-58.15803859687901
 31
0.0
  0
LINE
  5
606
330
6D
100
AcDbEntity
  8
0
  6
Continuous
 62
     7
100
AcDbLine
 10
-425.487863526492
 20
-58.15803859687901
 30
0.0
 11
-422.0021492407776
 21
-58.15803859687901
 31
0.0
  0
LINE
  5
607
330
6D
100
AcDbEntity
  8
0
  6
Continuous
 62
     7
100
AcDbLine
 10
-443.5021492407776
 20
-58.15803859687901
 30
0.0
 11
-443.5021492407776
 21
-59.45803859687899
 31
0.0
  0
LINE
  5
608
330
6D
100
AcDbEntity
  8
0
  6
Continuous
 62
     7
100
AcDbLine
 10
-422.0021492407776
 20
-58.15803859687901
 30
0.0
 11
-422.0021492407776
 21
-59.45803859687899
 31
0.0
  0
LINE
  5
609
330
6D
100
AcDbEntity
  8
0
  6
Continuous
 62
     7
100
AcDbLine
 10
-443.5021492407776
 20
-59.45803859687899
 30
0.0
 11
-422.0021492407776
 21
-59.45803859687899
 31
0.0
  0
ENDBLK
  5
6F
330
6D
100
AcDbEntity
  8
0
100
AcDbBlockEnd
  0
BLOCK
  5
48E
330
485
100
AcDbEntity
  8
0
100
AcDbBlockBegin
  2
*D11
 70
     1
 10
0.0
 20
0.0
 30
0.0
  3
*D11
  1

  0
LINE
  5
486
330
485
100
AcDbEntity
  8
1
  6
Continuous
 62
     4
100
AcDbLine
 10
-387.3161571267256
 20
-126.658008
 30
0.0
 11
-341.5406060000001
 21
-126.658008
 31
0.0
  0
LINE
  5
487
330
485
100
AcDbEntity
  8
1
  6
Continuous
 62
     4
100
AcDbLine
 10
-341.5406060000001
 20
-126.658008
 30
0.0
 11
-301.5406060000001
 21
-126.658008
 31
0.0
  0
LINE
  5
488
330
485
100
AcDbEntity
  8
1
  6
Continuous
 62
     4
100
AcDbLine
 10
-341.5406060000001
 20
-136.833452
 30
0.0
 11
-341.5406060000001
 21
-124.658008
 31
0.0
  0
LINE
  5
489
330
485
100
AcDbEntity
  8
1
  6
Continuous
 62
     4
100
AcDbLine
 10
-301.5406060000001
 20
-136.658008
 30
0.0
 11
-301.5406060000001
 21
-124.658008
 31
0.0
  0
SOLID
  5
48A
330
485
100
AcDbEntity
  8
1
 62
     4
100
AcDbTrace
 10
-311.5406060000001
 20
-127.974532975874
 30
0.0
 11
-311.5406060000001
 21
-125.341483024126
 31
0.0
 12
-301.5406060000001
 22
-126.658008
 32
0.0
 13
-301.5406060000001
 23
-126.658008
 33
0.0
  0
SOLID
  5
48B
330
485
100
AcDbEntity
  8
1
 62
     4
100
AcDbTrace
 10
-331.5406060000001
 20
-125.341483024126
 30
0.0
 11
-331.5406060000001
 21
-127.974532975874
 31
0.0
 12
-341.5406060000001
 22
-126.658008
 32
0.0
 13
-341.5406060000001
 23
-126.658008
 33
0.0
  0
MTEXT
  5
48D
330
485
100
AcDbEntity
  8
1
 62
     1
100
AcDbMText
 10
-381.7161571266774
 20
-124.6580477547218
 30
0.0
 40
10.0
 41
0.0
 71
     7
 72
     1
  1
\C1;DN\C1;40
  7
CONVERTER_11
 11
0.9999999999970619
 21
2.424068405545306E-6
 31
0.0
 73
     1
 44
0.60024009603842
  0
ENDBLK
  5
48F
330
485
100
AcDbEntity
  8
0
100
AcDbBlockEnd
  0
BLOCK
  5
499
330
492
100
AcDbEntity
  8
0
100
AcDbBlockBegin
  2
*D12
 70
     1
 10
0.0
 20
0.0
 30
0.0
  3
*D12
  1

  0
LINE
  5
493
330
492
100
AcDbEntity
  8
1
  6
Continuous
 62
     4
100
AcDbLine
 10
-346.540606
 20
-216.383956935721
 30
0.0
 11
-296.540606
 21
-216.383956935721
 31
0.0
  0
LINE
  5
494
330
492
100
AcDbEntity
  8
1
  6
Continuous
 62
     4
100
AcDbLine
 10
-346.540606
 20
-189.658008
 30
0.0
 11
-346.540606
 21
-218.383956935721
 31
0.0
  0
LINE
  5
495
330
492
100
AcDbEntity
  8
1
  6
Continuous
 62
     4
100
AcDbLine
 10
-296.540606
 20
-189.658008
 30
0.0
 11
-296.540606
 21
-218.383956935721
 31
0.0
  0
SOLID
  5
496
330
492
100
AcDbEntity
  8
1
 62
     4
100
AcDbTrace
 10
-336.540606
 20
-215.067431959847
 30
0.0
 11
-336.540606
 21
-217.7004819115949
 31
0.0
 12
-346.540606
 22
-216.383956935721
 32
0.0
 13
-346.540606
 23
-216.383956935721
 33
0.0
  0
SOLID
  5
497
330
492
100
AcDbEntity
  8
1
 62
     4
100
AcDbTrace
 10
-306.540606
 20
-217.7004819115949
 30
0.0
 11
-306.540606
 21
-215.067431959847
 31
0.0
 12
-296.540606
 22
-216.383956935721
 32
0.0
 13
-296.540606
 23
-216.383956935721
 33
0.0
  0
MTEXT
  5
498
330
492
100
AcDbEntity
  8
1
 62
     1
100
AcDbMText
 10
-336.7605555032814
 20
-214.3839966904428
 30
0.0
 40
10.0
 41
0.0
 71
     7
 72
     1
  1
\C1;DN\C1;50
  7
CONVERTER_11
 11
0.9999999999970619
 21
2.424068405545306E-6
 31
0.0
 73
     1
 44
0.60024009603842
  0
ENDBLK
  5
49A
330
492
100
AcDbEntity
  8
0
100
AcDbBlockEnd
  0
BLOCK
  5
4A4
330
49D
100
AcDbEntity
  8
0
100
AcDbBlockBegin
  2
*D13
 70
     1
 10
0.0
 20
0.0
 30
0.0
  3
*D13
  1

  0
LINE
  5
49E
330
49D
100
AcDbEntity
  8
1
  6
Continuous
 62
     4
100
AcDbLine
 10
-380.881615
 20
60.017583
 30
0.0
 11
-278.040606
 21
60.017583
 31
0.0
  0
LINE
  5
49F
330
49D
100
AcDbEntity
  8
1
  6
Continuous
 62
     4
100
AcDbLine
 10
-278.040606
 20
40.35681099999999
 30
0.0
 11
-278.040606
 21
62.017583
 31
0.0
  0
LINE
  5
4A0
330
49D
100
AcDbEntity
  8
1
  6
Continuous
 62
     4
100
AcDbLine
 10
-380.881615
 20
50.017583
 30
0.0
 11
-380.881615
 21
62.017583
 31
0.0
  0
SOLID
  5
4A1
330
49D
100
AcDbEntity
  8
1
 62
     4
100
AcDbTrace
 10
-370.881615
 20
61.33410797587396
 30
0.0
 11
-370.881615
 21
58.70105802412604
 31
0.0
 12
-380.881615
 22
60.017583
 32
0.0
 13
-380.881615
 23
60.017583
 33
0.0
  0
SOLID
  5
4A2
330
49D
100
AcDbEntity
  8
1
 62
     4
100
AcDbTrace
 10
-288.040606
 20
58.70105802412605
 30
0.0
 11
-288.040606
 21
61.33410797587396
 31
0.0
 12
-278.040606
 22
60.017583
 32
0.0
 13
-278.040606
 23
60.017583
 33
0.0
  0
MTEXT
  5
4A3
330
49D
100
AcDbEntity
  8
1
 62
     1
100
AcDbMText
 10
-354.8138380508509
 20
62.01752336791723
 30
0.0
 40
10.0
 41
0.0
 71
     7
 72
     1
  1
\C1;75-\C1;120
  7
CONVERTER_11
 11
0.9999999999970619
 21
2.424068405545306E-6
 31
0.0
 73
     1
 44
0.60024009603842
  0
ENDBLK
  5
4A5
330
49D
100
AcDbEntity
  8
0
100
AcDbBlockEnd
  0
BLOCK
  5
4AF
330
4A8
100
AcDbEntity
  8
0
100
AcDbBlockBegin
  2
*D14
 70
     1
 10
0.0
 20
0.0
 30
0.0
  3
*D14
  1

  0
LINE
  5
4A9
330
4A8
100
AcDbEntity
  8
1
  6
Continuous
 62
     4
100
AcDbLine
 10
-80.0
 20
75.651084974953
 30
0.0
 11
79.99572900000021
 21
75.651084974953
 31
0.0
  0
LINE
  5
4AA
330
4A8
100
AcDbEntity
  8
1
  6
Continuous
 62
     4
100
AcDbLine
 10
-80.0
 20
63.75235042863102
 30
0.0
 11
-80.0
 21
77.651084974953
 31
0.0
  0
LINE
  5
4AB
330
4A8
100
AcDbEntity
  8
1
  6
Continuous
 62
     4
100
AcDbLine
 10
79.99572900000021
 20
65.651084974953
 30
0.0
 11
79.99572900000021
 21
77.651084974953
 31
0.0
  0
SOLID
  5
4AC
330
4A8
100
AcDbEntity
  8
1
 62
     4
100
AcDbTrace
 10
69.99572900000021
 20
74.33455999907903
 30
0.0
 11
69.99572900000021
 21
76.96760995082695
 31
0.0
 12
79.99572900000021
 22
75.651084974953
 32
0.0
 13
79.99572900000021
 23
75.651084974953
 33
0.0
  0
SOLID
  5
4AD
330
4A8
100
AcDbEntity
  8
1
 62
     4
100
AcDbTrace
 10
-70.0
 20
76.96760995082695
 30
0.0
 11
-70.0
 21
74.33455999907903
 31
0.0
 12
-80.0
 22
75.651084974953
 32
0.0
 13
-80.0
 23
75.651084974953
 33
0.0
  0
MTEXT
  5
4AE
330
4A8
100
AcDbEntity
  8
1
 62
     1
100
AcDbMText
 10
-28.709510792868
 20
77.651084974953
 30
0.0
 40
10.0
 41
0.0
 71
     7
 72
     1
  1
160
  7
CONVERTER_11
 11
0.9999999999970619
 21
2.424068405545306E-6
 31
0.0
 73
     1
 44
0.60024009603842
  0
ENDBLK
  5
4B0
330
4A8
100
AcDbEntity
  8
0
100
AcDbBlockEnd
  0
BLOCK
  5
4BA
330
4B3
100
AcDbEntity
  8
0
100
AcDbBlockBegin
  2
*D15
 70
     1
 10
0.0
 20
0.0
 30
0.0
  3
*D15
  1

  0
LINE
  5
4B4
330
4B3
100
AcDbEntity
  8
1
  6
Continuous
 62
     4
100
AcDbLine
 10
-140.0
 20
93.318441208878
 30
0.0
 11
140.0
 21
93.318441208878
 31
0.0
  0
LINE
  5
4B5
330
4B3
100
AcDbEntity
  8
1
  6
Continuous
 62
     4
100
AcDbLine
 10
-140.0
 20
48.68071499999996
 30
0.0
 11
-140.0
 21
95.318441208878
 31
0.0
  0
LINE
  5
4B6
330
4B3
100
AcDbEntity
  8
1
  6
Continuous
 62
     4
100
AcDbLine
 10
140.0
 20
47.5
 30
0.0
 11
140.0
 21
95.318441208878
 31
0.0
  0
SOLID
  5
4B7
330
4B3
100
AcDbEntity
  8
1
 62
     4
100
AcDbTrace
 10
-130.0
 20
94.63496618475196
 30
0.0
 11
-130.0
 21
92.00191623300404
 31
0.0
 12
-140.0
 22
93.318441208878
 32
0.0
 13
-140.0
 23
93.318441208878
 33
0.0
  0
SOLID
  5
4B8
330
4B3
100
AcDbEntity
  8
1
 62
     4
100
AcDbTrace
 10
130.0
 20
92.00191623300404
 30
0.0
 11
130.0
 21
94.63496618475196
 31
0.0
 12
140.0
 22
93.318441208878
 32
0.0
 13
140.0
 23
93.318441208878
 33
0.0
  0
MTEXT
  5
4B9
330
4B3
100
AcDbEntity
  8
1
 62
     1
100
AcDbMText
 10
12.19763559063603
 20
95.318441208878
 30
0.0
 40
10.0
 41
0.0
 71
     7
 72
     1
  1
280
  7
CONVERTER_11
 11
0.9999999999970619
 21
2.424068405545306E-6
 31
0.0
 73
     1
 44
0.60024009603842
  0
ENDBLK
  5
4BB
330
4B3
100
AcDbEntity
  8
0
100
AcDbBlockEnd
  0
BLOCK
  5
4C5
330
4BE
100
AcDbEntity
  8
0
100
AcDbBlockBegin
  2
*D16
 70
     1
 10
0.0
 20
0.0
 30
0.0
  3
*D16
  1

  0
LINE
  5
4BF
330
4BE
100
AcDbEntity
  8
1
  6
Continuous
 62
     4
100
AcDbLine
 10
-219.1399999999999
 20
111.7119022908792
 30
0.0
 11
260.8600000000001
 21
111.7119022908792
 31
0.0
  0
LINE
  5
4C0
330
4BE
100
AcDbEntity
  8
1
  6
Continuous
 62
     4
100
AcDbLine
 10
-219.1399999999999
 20
25.00000000000003
 30
0.0
 11
-219.1399999999999
 21
113.7119022908792
 31
0.0
  0
LINE
  5
4C1
330
4BE
100
AcDbEntity
  8
1
  6
Continuous
 62
     4
100
AcDbLine
 10
260.8600000000001
 20
25.00000000000003
 30
0.0
 11
260.8600000000001
 21
113.7119022908792
 31
0.0
  0
SOLID
  5
4C2
330
4BE
100
AcDbEntity
  8
1
 62
     4
100
AcDbTrace
 10
250.8600000000001
 20
110.3953773150052
 30
0.0
 11
250.8600000000001
 21
113.0284272667532
 31
0.0
 12
260.8600000000001
 22
111.7119022908792
 32
0.0
 13
260.8600000000001
 23
111.7119022908792
 33
0.0
  0
SOLID
  5
4C3
330
4BE
100
AcDbEntity
  8
1
 62
     4
100
AcDbTrace
 10
-209.1399999999999
 20
113.0284272667532
 30
0.0
 11
-209.1399999999999
 21
110.3953773150052
 31
0.0
 12
-219.1399999999999
 22
111.7119022908792
 32
0.0
 13
-219.1399999999999
 23
111.7119022908792
 33
0.0
  0
MTEXT
  5
4C4
330
4BE
100
AcDbEntity
  8
1
 62
     1
100
AcDbMText
 10
-39.91717080836901
 20
113.7119022908792
 30
0.0
 40
10.0
 41
0.0
 71
     7
 72
     1
  1
480
  7
CONVERTER_11
 11
0.9999999999970619
 21
2.424068405545306E-6
 31
0.0
 73
     1
 44
0.60024009603842
  0
ENDBLK
  5
4C6
330
4BE
100
AcDbEntity
  8
0
100
AcDbBlockEnd
  0
BLOCK
  5
4D0
330
4C9
100
AcDbEntity
  8
0
100
AcDbBlockBegin
  2
*D17
 70
     1
 10
0.0
 20
0.0
 30
0.0
  3
*D17
  1

  0
LINE
  5
4CA
330
4C9
100
AcDbEntity
  8
1
  6
Continuous
 62
     4
100
AcDbLine
 10
-239.931690618059
 20
-193.0000000000001
 30
0.0
 11
-239.931690618059
 21
42.0
 31
0.0
  0
LINE
  5
4CB
330
4C9
100
AcDbEntity
  8
1
  6
Continuous
 62
     4
100
AcDbLine
 10
-24.0621780000001
 20
-193.0000000000001
 30
0.0
 11
-241.931690618059
 21
-193.0000000000001
 31
0.0
  0
LINE
  5
4CC
330
4C9
100
AcDbEntity
  8
1
  6
Continuous
 62
     4
100
AcDbLine
 10
0.0
 20
42.0
 30
0.0
 11
-241.931690618059
 21
42.0
 31
0.0
  0
SOLID
  5
4CD
330
4C9
100
AcDbEntity
  8
1
 62
     4
100
AcDbTrace
 10
-241.248215593933
 20
-183.0000000000001
 30
0.0
 11
-238.615165642185
 21
-183.0000000000001
 31
0.0
 12
-239.931690618059
 22
-193.0000000000001
 32
0.0
 13
-239.931690618059
 23
-193.0000000000001
 33
0.0
  0
SOLID
  5
4CE
330
4C9
100
AcDbEntity
  8
1
 62
     4
100
AcDbTrace
 10
-238.615165642185
 20
32.0
 30
0.0
 11
-241.248215593933
 21
32.0
 31
0.0
 12
-239.931690618059
 22
42.0
 32
0.0
 13
-239.931690618059
 23
42.0
 33
0.0
  0
MTEXT
  5
4CF
330
4C9
100
AcDbEntity
  8
1
 62
     1
100
AcDbMText
 10
-241.931690618059
 20
-84.350969328774
 30
0.0
 40
10.0
 41
0.0
 71
     7
 72
     1
  1
235
  7
CONVERTER_11
 11
0.0
 21
1.0
 31
0.0
 73
     1
 44
0.60024009603842
  0
ENDBLK
  5
4D1
330
4C9
100
AcDbEntity
  8
0
100
AcDbBlockEnd
  0
BLOCK
  5
4DB
330
4D4
100
AcDbEntity
  8
0
100
AcDbBlockBegin
  2
*D18
 70
     1
 10
0.0
 20
0.0
 30
0.0
  3
*D18
  1

  0
LINE
  5
4D5
330
4D4
100
AcDbEntity
  8
1
  6
Continuous
 62
     4
100
AcDbLine
 10
285.250373798671
 20
50.00000000000001
 30
0.0
 11
285.250373798671
 21
-49.99999999999999
 31
0.0
  0
LINE
  5
4D6
330
4D4
100
AcDbEntity
  8
1
  6
Continuous
 62
     4
100
AcDbLine
 10
137.5
 20
50.0
 30
0.0
 11
287.250373798671
 21
50.0
 31
0.0
  0
LINE
  5
4D7
330
4D4
100
AcDbEntity
  8
1
  6
Continuous
 62
     4
100
AcDbLine
 10
137.5
 20
-49.99999999999999
 30
0.0
 11
287.250373798671
 21
-49.99999999999999
 31
0.0
  0
SOLID
  5
4D8
330
4D4
100
AcDbEntity
  8
1
 62
     4
100
AcDbTrace
 10
286.5668987745449
 20
40.00000000000001
 30
0.0
 11
283.933848822797
 21
40.00000000000001
 31
0.0
 12
285.250373798671
 22
50.00000000000001
 32
0.0
 13
285.250373798671
 23
50.00000000000001
 33
0.0
  0
SOLID
  5
4D9
330
4D4
100
AcDbEntity
  8
1
 62
     4
100
AcDbTrace
 10
283.933848822797
 20
-39.99999999999999
 30
0.0
 11
286.5668987745449
 21
-39.99999999999999
 31
0.0
 12
285.250373798671
 22
-49.99999999999999
 32
0.0
 13
285.250373798671
 23
-49.99999999999999
 33
0.0
  0
MTEXT
  5
4DA
330
4D4
100
AcDbEntity
  8
1
 62
     1
100
AcDbMText
 10
283.250373798671
 20
4.51668415255498
 30
0.0
 40
10.0
 41
0.0
 71
     7
 72
     1
  1
100
  7
CONVERTER_11
 11
0.0
 21
1.0
 31
0.0
 73
     1
 44
0.60024009603842
  0
ENDBLK
  5
4DC
330
4D4
100
AcDbEntity
  8
0
100
AcDbBlockEnd
  0
BLOCK
  5
4E7
330
4DF
100
AcDbEntity
  8
0
100
AcDbBlockBegin
  2
*D19
 70
     1
 10
0.0
 20
0.0
 30
0.0
  3
*D19
  1

  0
LINE
  5
4E0
330
4DF
100
AcDbEntity
  8
1
  6
Continuous
 62
     4
100
AcDbLine
 10
128.151042090625
 20
-69.43473471544303
 30
0.0
 11
128.151042090625
 21
-26.99854200000005
 31
0.0
  0
LINE
  5
4E1
330
4DF
100
AcDbEntity
  8
1
  6
Continuous
 62
     4
100
AcDbLine
 10
128.151042090625
 20
-26.99854200000005
 30
0.0
 11
128.151042090625
 21
27.0
 31
0.0
  0
LINE
  5
4E2
330
4DF
100
AcDbEntity
  8
1
  6
Continuous
 62
     4
100
AcDbLine
 10
101.999271
 20
-26.99854200000005
 30
0.0
 11
130.151042090625
 21
-26.99854200000005
 31
0.0
  0
LINE
  5
4E3
330
4DF
100
AcDbEntity
  8
1
  6
Continuous
 62
     4
100
AcDbLine
 10
102.004271
 20
27.0
 30
0.0
 11
130.151042090625
 21
27.0
 31
0.0
  0
SOLID
  5
4E4
330
4DF
100
AcDbEntity
  8
1
 62
     4
100
AcDbTrace
 10
129.467567066499
 20
17.0
 30
0.0
 11
126.834517114751
 21
17.0
 31
0.0
 12
128.151042090625
 22
27.0
 32
0.0
 13
128.151042090625
 23
27.0
 33
0.0
  0
SOLID
  5
4E5
330
4DF
100
AcDbEntity
  8
1
 62
     4
100
AcDbTrace
 10
126.834517114751
 20
-16.99854200000005
 30
0.0
 11
129.467567066499
 21
-16.99854200000005
 31
0.0
 12
128.151042090625
 22
-26.99854200000005
 32
0.0
 13
128.151042090625
 23
-26.99854200000005
 33
0.0
  0
MTEXT
  5
4E6
330
4DF
100
AcDbEntity
  8
1
 62
     1
100
AcDbMText
 10
126.151042090625
 20
-69.43473471544303
 30
0.0
 40
10.0
 41
0.0
 71
     7
 72
     1
  1
54
  7
CONVERTER_11
 11
0.0
 21
1.0
 31
0.0
 73
     1
 44
0.60024009603842
  0
ENDBLK
  5
4E8
330
4DF
100
AcDbEntity
  8
0
100
AcDbBlockEnd
  0
BLOCK
  5
4F2
330
4EB
100
AcDbEntity
  8
0
100
AcDbBlockBegin
  2
*D20
 70
     1
 10
0.0
 20
0.0
 30
0.0
  3
*D20
  1

  0
LINE
  5
4EC
330
4EB
100
AcDbEntity
  8
1
  6
Continuous
 62
     4
100
AcDbLine
 10
-152.489523416536
 20
-73.0
 30
0.0
 11
-152.489523416536
 21
26.99999999999999
 31
0.0
  0
LINE
  5
4ED
330
4EB
100
AcDbEntity
  8
1
  6
Continuous
 62
     4
100
AcDbLine
 10
-37.990729
 20
-73.0
 30
0.0
 11
-154.489523416536
 21
-73.0
 31
0.0
  0
LINE
  5
4EE
330
4EB
100
AcDbEntity
  8
1
  6
Continuous
 62
     4
100
AcDbLine
 10
-101.995729
 20
26.99999999999999
 30
0.0
 11
-154.489523416536
 21
26.99999999999999
 31
0.0
  0
SOLID
  5
4EF
330
4EB
100
AcDbEntity
  8
1
 62
     4
100
AcDbTrace
 10
-151.172998440662
 20
16.99999999999999
 30
0.0
 11
-153.80604839241
 21
16.99999999999999
 31
0.0
 12
-152.489523416536
 22
26.99999999999999
 32
0.0
 13
-152.489523416536
 23
26.99999999999999
 33
0.0
  0
SOLID
  5
4F0
330
4EB
100
AcDbEntity
  8
1
 62
     4
100
AcDbTrace
 10
-153.80604839241
 20
-63.0
 30
0.0
 11
-151.172998440662
 21
-63.0
 31
0.0
 12
-152.489523416536
 22
-73.0
 32
0.0
 13
-152.489523416536
 23
-73.0
 33
0.0
  0
MTEXT
  5
4F1
330
4EB
100
AcDbEntity
  8
1
 62
     1
100
AcDbMText
 10
-154.489523416536
 20
-56.10454899752401
 30
0.0
 40
10.0
 41
0.0
 71
     7
 72
     1
  1
100
  7
CONVERTER_11
 11
0.0
 21
1.0
 31
0.0
 73
     1
 44
0.60024009603842
  0
ENDBLK
  5
4F3
330
4EB
100
AcDbEntity
  8
0
100
AcDbBlockEnd
  0
BLOCK
  5
4FD
330
4F6
100
AcDbEntity
  8
0
100
AcDbBlockBegin
  2
*D21
 70
     1
 10
0.0
 20
0.0
 30
0.0
  3
*D21
  1

  0
LINE
  5
4F7
330
4F6
100
AcDbEntity
  8
1
  6
Continuous
 62
     4
100
AcDbLine
 10
-42.9907290000001
 20
-217.873363198523
 30
0.0
 11
42.99927100000003
 21
-217.873363198523
 31
0.0
  0
LINE
  5
4F8
330
4F6
100
AcDbEntity
  8
1
  6
Continuous
 62
     4
100
AcDbLine
 10
-42.9907290000001
 20
-68.0
 30
0.0
 11
-42.9907290000001
 21
-219.873363198523
 31
0.0
  0
LINE
  5
4F9
330
4F6
100
AcDbEntity
  8
1
  6
Continuous
 62
     4
100
AcDbLine
 10
42.99927100000003
 20
-68.0
 30
0.0
 11
42.99927100000003
 21
-219.873363198523
 31
0.0
  0
SOLID
  5
4FA
330
4F6
100
AcDbEntity
  8
1
 62
     4
100
AcDbTrace
 10
32.99927100000003
 20
-219.189888174397
 30
0.0
 11
32.99927100000003
 21
-216.556838222649
 31
0.0
 12
42.99927100000003
 22
-217.873363198523
 32
0.0
 13
42.99927100000003
 23
-217.873363198523
 33
0.0
  0
SOLID
  5
4FB
330
4F6
100
AcDbEntity
  8
1
 62
     4
100
AcDbTrace
 10
-32.9907290000001
 20
-216.556838222649
 30
0.0
 11
-32.9907290000001
 21
-219.189888174397
 31
0.0
 12
-42.9907290000001
 22
-217.873363198523
 32
0.0
 13
-42.9907290000001
 23
-217.873363198523
 33
0.0
  0
MTEXT
  5
4FC
330
4F6
100
AcDbEntity
  8
1
 62
     1
100
AcDbMText
 10
-6.85861221814996
 20
-215.873363198523
 30
0.0
 40
10.0
 41
0.0
 71
     7
 72
     1
  1
86
  7
CONVERTER_11
 11
0.9999999999970619
 21
2.424068405545306E-6
 31
0.0
 73
     1
 44
0.60024009603842
  0
ENDBLK
  5
4FE
330
4F6
100
AcDbEntity
  8
0
100
AcDbBlockEnd
  0
BLOCK
  5
508
330
501
100
AcDbEntity
  8
0
100
AcDbBlockBegin
  2
*D22
 70
     1
 10
0.0
 20
0.0
 30
0.0
  3
*D22
  1

  0
LINE
  5
502
330
501
100
AcDbEntity
  8
1
  6
Continuous
 62
     4
100
AcDbLine
 10
-107.000729
 20
-241.292383901958
 30
0.0
 11
106.999271
 21
-241.292383901958
 31
0.0
  0
LINE
  5
503
330
501
100
AcDbEntity
  8
1
  6
Continuous
 62
     4
100
AcDbLine
 10
-107.000729
 20
-21.99854200000001
 30
0.0
 11
-107.000729
 21
-243.292383901958
 31
0.0
  0
LINE
  5
504
330
501
100
AcDbEntity
  8
1
  6
Continuous
 62
     4
100
AcDbLine
 10
106.999271
 20
-21.99854200000001
 30
0.0
 11
106.999271
 21
-243.292383901958
 31
0.0
  0
SOLID
  5
505
330
501
100
AcDbEntity
  8
1
 62
     4
100
AcDbTrace
 10
-97.00072899999995
 20
-239.975858926084
 30
0.0
 11
-97.00072899999995
 21
-242.608908877832
 31
0.0
 12
-107.000729
 22
-241.292383901958
 32
0.0
 13
-107.000729
 23
-241.292383901958
 33
0.0
  0
SOLID
  5
506
330
501
100
AcDbEntity
  8
1
 62
     4
100
AcDbTrace
 10
96.99927100000005
 20
-242.608908877832
 30
0.0
 11
96.99927100000005
 21
-239.975858926084
 31
0.0
 12
106.999271
 22
-241.292383901958
 32
0.0
 13
106.999271
 23
-241.292383901958
 33
0.0
  0
MTEXT
  5
507
330
501
100
AcDbEntity
  8
1
 62
     1
100
AcDbMText
 10
-9.15511160922595
 20
-239.292383901958
 30
0.0
 40
10.0
 41
0.0
 71
     7
 72
     1
  1
214
  7
CONVERTER_11
 11
0.9999999999970619
 21
2.424068405545306E-6
 31
0.0
 73
     1
 44
0.60024009603842
  0
ENDBLK
  5
509
330
501
100
AcDbEntity
  8
0
100
AcDbBlockEnd
  0
BLOCK
  5
514
330
50C
100
AcDbEntity
  8
0
100
AcDbBlockBegin
  2
*D23
 70
     1
 10
0.0
 20
0.0
 30
0.0
  3
*D23
  1

  0
LINE
  5
50D
330
50C
100
AcDbEntity
  8
1
  6
Continuous
 62
     4
100
AcDbLine
 10
305.008631166966
 20
-193.0000000000001
 30
0.0
 11
305.008631166966
 21
0.0
 31
0.0
  0
LINE
  5
50E
330
50C
100
AcDbEntity
  8
1
  6
Continuous
 62
     4
100
AcDbLine
 10
24.06217800000007
 20
-193.0000000000001
 30
0.0
 11
307.008631166966
 21
-193.0000000000001
 31
0.0
  0
LINE
  5
50F
330
50C
100
AcDbEntity
  8
1
  6
Continuous
 62
     4
100
AcDbLine
 10
260.8600000000001
 20
0.0
 30
0.0
 11
268.581439341847
 21
0.0
 31
0.0
  0
LINE
  5
510
330
50C
100
AcDbEntity
  8
1
  6
Continuous
 62
     4
100
AcDbLine
 10
291.702804347297
 20
0.0
 30
0.0
 11
307.008631166966
 21
0.0
 31
0.0
  0
SOLID
  5
511
330
50C
100
AcDbEntity
  8
1
 62
     4
100
AcDbTrace
 10
303.692106191092
 20
-183.0000000000001
 30
0.0
 11
306.3251561428399
 21
-183.0000000000001
 31
0.0
 12
305.008631166966
 22
-193.0000000000001
 32
0.0
 13
305.008631166966
 23
-193.0000000000001
 33
0.0
  0
SOLID
  5
512
330
50C
100
AcDbEntity
  8
1
 62
     4
100
AcDbTrace
 10
306.3251561428399
 20
-10.0
 30
0.0
 11
303.692106191092
 21
-10.0
 31
0.0
 12
305.008631166966
 22
0.0
 32
0.0
 13
305.008631166966
 23
0.0
 33
0.0
  0
MTEXT
  5
513
330
50C
100
AcDbEntity
  8
1
 62
     1
100
AcDbMText
 10
303.008631166966
 20
-111.510529329343
 30
0.0
 40
10.0
 41
0.0
 71
     7
 72
     1
  1
193
  7
CONVERTER_11
 11
0.0
 21
1.0
 31
0.0
 73
     1
 44
0.60024009603842
  0
ENDBLK
  5
515
330
50C
100
AcDbEntity
  8
0
100
AcDbBlockEnd
  0
BLOCK
  5
521
330
518
100
AcDbEntity
  8
0
100
AcDbBlockBegin
  2
*D24
 70
     1
 10
0.0
 20
0.0
 30
0.0
  3
*D24
  1

  0
LINE
  5
519
330
518
100
AcDbEntity
  8
1
  6
Continuous
 62
     4
100
AcDbLine
 10
-462.5164349550634
 20
-84.2460423833523
 30
0.0
 11
-442.5164349550634
 21
-84.2460423833523
 31
0.0
  0
LINE
  5
51A
330
518
100
AcDbEntity
  8
1
  6
Continuous
 62
     4
100
AcDbLine
 10
-442.5164349550634
 20
-84.2460423833523
 30
0.0
 11
-425.487863526492
 21
-84.2460423833523
 31
0.0
  0
LINE
  5
51B
330
518
100
AcDbEntity
  8
1
  6
Continuous
 62
     4
100
AcDbLine
 10
-425.487863526492
 20
-84.2460423833523
 30
0.0
 11
-383.600031185078
 21
-84.2460423833523
 31
0.0
  0
LINE
  5
51C
330
518
100
AcDbEntity
  8
1
  6
Continuous
 62
     4
100
AcDbLine
 10
-442.5164349550634
 20
-58.15803859687901
 30
0.0
 11
-442.5164349550634
 21
-86.2460423833523
 31
0.0
  0
LINE
  5
51D
330
518
100
AcDbEntity
  8
1
  6
Continuous
 62
     4
100
AcDbLine
 10
-425.487863526492
 20
-58.15803859687901
 30
0.0
 11
-425.487863526492
 21
-86.2460423833523
 31
0.0
  0
SOLID
  5
51E
330
518
100
AcDbEntity
  8
1
 62
     4
100
AcDbTrace
 10
-452.5164349550634
 20
-85.56256735922626
 30
0.0
 11
-452.5164349550634
 21
-82.92951740747834
 31
0.0
 12
-442.5164349550634
 22
-84.2460423833523
 32
0.0
 13
-442.5164349550634
 23
-84.2460423833523
 33
0.0
  0
SOLID
  5
51F
330
518
100
AcDbEntity
  8
1
 62
     4
100
AcDbTrace
 10
-415.487863526492
 20
-82.92951740747834
 30
0.0
 11
-415.487863526492
 21
-85.56256735922626
 31
0.0
 12
-425.487863526492
 22
-84.2460423833523
 32
0.0
 13
-425.487863526492
 23
-84.2460423833523
 33
0.0
  0
MTEXT
  5
520
330
518
100
AcDbEntity
  8
1
 62
     1
100
AcDbMText
 10
-410.600031185078
 20
-82.2460423833523
 30
0.0
 40
10.0
 41
0.0
 71
     7
 72
     1
  1
3/4"
  7
CONVERTER_11
 11
0.9999999999970619
 21
2.424068405545306E-6
 31
0.0
 73
     1
 44
0.60024009603842
  0
ENDBLK
  5
522
330
518
100
AcDbEntity
  8
0
100
AcDbBlockEnd
  0
ENDSEC
  0
SECTION
  2
ENTITIES
  0
INSERT
  5
70
330
1F
100
AcDbEntity
  8
0
100
AcDbBlockReference
  2
HL_406_2_Waschgeräte_Sifon__4
 10
27.874398522468
 20
-59.79024080553941
 30
0.0
  0
INSERT
  5
71
330
1F
100
AcDbEntity
  8
0
100
AcDbBlockReference
  2
Katalog-HL19ABSC__8
 10
-0.00000000000028
 20
-19.5749999999992
 30
0.0
  0
INSERT
  5
72
330
1F
100
AcDbEntity
  8
0
100
AcDbBlockReference
  2
Holländermutter_1__9
 10
-402.6315010010081
 20
-0.15803859687901
 30
0.0
  0
INSERT
  5
73
330
1F
100
AcDbEntity
  8
0
100
AcDbBlockReference
  2
Dichtstopfen__10
 10
-432.7521492407776
 20
-58.808038596879
 30
0.0
  0
ENDSEC
  0
SECTION
  2
OBJECTS
  0
DICTIONARY
  5
C
330
0
100
AcDbDictionary
281
     1
  3
ACAD_GROUP
350
D
  3
ACAD_LAYOUT
350
1A
  3
ACAD_MATERIAL
350
3B
  3
ACAD_MLEADERSTYLE
350
60C
  3
ACAD_MLINESTYLE
350
17
  3
ACAD_PLOTSETTINGS
350
19
  3
ACAD_PLOTSTYLENAME
350
E
  3
ACAD_VISUALSTYLE
350
2A
  3
AcDbVariableDictionary
350
60A
  0
DICTIONARY
  5
D
102
{ACAD_REACTORS
330
C
102
}
330
C
100
AcDbDictionary
281
     1
  0
DICTIONARY
  5
1A
102
{ACAD_REACTORS
330
C
102
}
330
C
100
AcDbDictionary
281
     1
  3
Layout1
350
1E
  3
Layout2
350
26
  3
Model
350
22
  0
DICTIONARY
  5
3B
102
{ACAD_REACTORS
330
C
102
}
330
C
100
AcDbDictionary
281
     1
  3
ByBlock
350
3D
  3
ByLayer
350
3C
  3
Global
350
3E
  0
DICTIONARY
  5
60C
102
{ACAD_REACTORS
330
C
102
}
330
C
100
AcDbDictionary
281
     1
  0
DICTIONARY
  5
17
102
{ACAD_REACTORS
330
C
102
}
330
C
100
AcDbDictionary
281
     1
  3
Standard
350
18
  0
DICTIONARY
  5
19
102
{ACAD_REACTORS
330
C
102
}
330
C
100
AcDbDictionary
281
     1
  0
ACDBDICTIONARYWDFLT
  5
E
102
{ACAD_REACTORS
330
C
102
}
330
C
100
AcDbDictionary
281
     1
  3
Normal
350
F
100
AcDbDictionaryWithDefault
340
F
  0
DICTIONARY
  5
2A
102
{ACAD_REACTORS
330
C
102
}
330
C
100
AcDbDictionary
281
     1
  3
2dWireframe
350
2F
  3
3D Hidden
350
31
  3
3dWireframe
350
30
  3
Basic
350
32
  3
Brighten
350
36
  3
ColorChange
350
3A
  3
Conceptual
350
34
  3
Dim
350
35
  3
Facepattern
350
39
  3
Flat
350
2B
  3
FlatWithEdges
350
2C
  3
Gouraud
350
2D
  3
GouraudWithEdges
350
2E
  3
Linepattern
350
38
  3
Realistic
350
33
  3
Thicken
350
37
  0
DICTIONARY
  5
60A
102
{ACAD_REACTORS
330
C
102
}
330
C
100
AcDbDictionary
281
     1
  3
DIMASSOC
350
60D
  3
HIDETEXT
350
60E
  0
LAYOUT
  5
1E
102
{ACAD_REACTORS
330
1A
102
}
330
1A
100
AcDbPlotSettings
  1

  2
none_device
  4

  6

 40
0.0
 41
0.0
 42
0.0
 43
0.0
 44
0.0
 45
0.0
 46
0.0
 47
0.0
 48
0.0
 49
0.0
140
0.0
141
0.0
142
1.0
143
1.0
 70
   688
 72
     0
 73
     0
 74
     5
  7

 75
    16
147
1.0
148
0.0
149
0.0
100
AcDbLayout
  1
Layout1
 70
     1
 71
     1
 10
0.0
 20
0.0
 11
12.0
 21
9.0
 12
0.0
 22
0.0
 32
0.0
 14
1.00000000000000E+20
 24
1.00000000000000E+20
 34
1.00000000000000E+20
 15
-1.00000000000000E+20
 25
-1.00000000000000E+20
 35
-1.00000000000000E+20
146
0.0
 13
0.0
 23
0.0
 33
0.0
 16
1.0
 26
0.0
 36
0.0
 17
0.0
 27
1.0
 37
0.0
 76
     0
330
1B
  0
LAYOUT
  5
26
102
{ACAD_REACTORS
330
1A
102
}
330
1A
100
AcDbPlotSettings
  1

  2
none_device
  4

  6

 40
0.0
 41
0.0
 42
0.0
 43
0.0
 44
0.0
 45
0.0
 46
0.0
 47
0.0
 48
0.0
 49
0.0
140
0.0
141
0.0
142
1.0
143
1.0
 70
   688
 72
     0
 73
     0
 74
     5
  7

 75
    16
147
1.0
148
0.0
149
0.0
100
AcDbLayout
  1
Layout2
 70
     1
 71
     2
 10
0.0
 20
0.0
 11
0.0
 21
0.0
 12
0.0
 22
0.0
 32
0.0
 14
0.0
 24
0.0
 34
0.0
 15
0.0
 25
0.0
 35
0.0
146
0.0
 13
0.0
 23
0.0
 33
0.0
 16
1.0
 26
0.0
 36
0.0
 17
0.0
 27
1.0
 37
0.0
 76
     0
330
23
  0
LAYOUT
  5
22
102
{ACAD_REACTORS
330
1A
102
}
330
1A
100
AcDbPlotSettings
  1

  2
none_device
  4

  6

 40
0.0
 41
0.0
 42
0.0
 43
0.0
 44
0.0
 45
0.0
 46
0.0
 47
0.0
 48
0.0
 49
0.0
140
0.0
141
0.0
142
1.0
143
1.0
 70
  1712
 72
     0
 73
     0
 74
     0
  7

 75
     0
147
1.0
148
0.0
149
0.0
100
AcDbLayout
  1
Model
 70
     1
 71
     0
 10
0.0
 20
0.0
 11
12.0
 21
9.0
 12
0.0
 22
0.0
 32
0.0
 14
-462.5164349550634
 24
-243.292383901958
 34
0.0
 15
518.2652319999994
 25
123.7119022908792
 35
0.0
146
0.0
 13
0.0
 23
0.0
 33
0.0
 16
1.0
 26
0.0
 36
0.0
 17
0.0
 27
1.0
 37
0.0
 76
     0
330
1F
331
29
  0
MATERIAL
  5
3D
102
{ACAD_REACTORS
330
3B
102
}
102
{ACAD_XDICTIONARY
360
631
102
}
330
3B
100
AcDbMaterial
  1
ByBlock
  0
MATERIAL
  5
3C
102
{ACAD_REACTORS
330
3B
102
}
102
{ACAD_XDICTIONARY
360
62F
102
}
330
3B
100
AcDbMaterial
  1
ByLayer
  0
MATERIAL
  5
3E
102
{ACAD_REACTORS
330
3B
102
}
102
{ACAD_XDICTIONARY
360
633
102
}
330
3B
100
AcDbMaterial
  1
Global
  0
MLINESTYLE
  5
18
102
{ACAD_REACTORS
330
17
102
}
330
17
100
AcDbMlineStyle
  2
Standard
 70
     0
  3

 62
   256
 51
90.0
 52
90.0
 71
     2
 49
0.5
 62
   256
  6
BYLAYER
 49
-0.5
 62
   256
  6
BYLAYER
  0
ACDBPLACEHOLDER
  5
F
102
{ACAD_REACTORS
330
E
102
}
330
E
  0
VISUALSTYLE
  5
2F
102
{ACAD_REACTORS
330
2A
102
}
102
{ACAD_XDICTIONARY
360
617
102
}
330
2A
100
AcDbVisualStyle
  2
2dWireframe
 70
     4
 71
     0
 72
     2
 73
     0
 90
        0
 40
-0.6
 41
-30.0
 62
     5
 63
     7
 74
     1
 91
        4
 64
     7
 65
   257
 75
     1
175
     1
 42
1.0
 92
        0
 66
   257
 43
1.0
 76
     1
 77
     6
 78
     2
 67
     7
 79
     5
170
     0
171
     0
290
     0
174
     0
 93
        1
 44
0.0
173
     0
291
     0
 45
0.0
1001
ACAD
1000
AcDbSavedByObjectVersion
1070
     0
  0
VISUALSTYLE
  5
31
102
{ACAD_REACTORS
330
2A
102
}
102
{ACAD_XDICTIONARY
360
61B
102
}
330
2A
100
AcDbVisualStyle
  2
3D Hidden
 70
     6
 71
     1
 72
     2
 73
     2
 90
        0
 40
-0.6
 41
-30.0
 62
     5
 63
     7
 74
     2
 91
        2
 64
     7
 65
   257
 75
     2
175
     1
 42
40.0
 92
        0
 66
   257
 43
1.0
 76
     1
 77
     6
 78
     2
 67
     7
 79
     3
170
     0
171
     0
290
     0
174
     0
 93
        1
 44
0.0
173
     0
291
     0
 45
0.0
1001
ACAD
1000
AcDbSavedByObjectVersion
1070
     0
  0
VISUALSTYLE
  5
30
102
{ACAD_REACTORS
330
2A
102
}
102
{ACAD_XDICTIONARY
360
619
102
}
330
2A
100
AcDbVisualStyle
  2
3dWireframe
 70
     5
 71
     0
 72
     2
 73
     0
 90
        0
 40
-0.6
 41
-30.0
 62
     5
 63
     7
 74
     1
 91
        4
 64
     7
 65
   257
 75
     1
175
     1
 42
1.0
 92
        0
 66
   257
 43
1.0
 76
     1
 77
     6
 78
     2
 67
     7
 79
     5
170
     0
171
     0
290
     0
174
     0
 93
        1
 44
0.0
173
     0
291
     0
 45
0.0
1001
ACAD
1000
AcDbSavedByObjectVersion
1070
     0
  0
VISUALSTYLE
  5
32
102
{ACAD_REACTORS
330
2A
102
}
102
{ACAD_XDICTIONARY
360
61D
102
}
330
2A
100
AcDbVisualStyle
  2
Basic
 70
     7
 71
     1
 72
     0
 73
     1
 90
        0
 40
-0.6
 41
-30.0
 62
     5
 63
     7
 74
     0
 91
        4
 64
     7
 65
   257
 75
     1
175
     1
 42
1.0
 92
        8
 66
     7
 43
1.0
 76
     1
 77
     6
 78
     2
 67
     7
 79
     5
170
     0
171
     0
290
     0
174
     0
 93
        1
 44
0.0
173
     0
291
     1
 45
0.0
1001
ACAD
1000
AcDbSavedByObjectVersion
1070
     0
  0
VISUALSTYLE
  5
36
102
{ACAD_REACTORS
330
2A
102
}
102
{ACAD_XDICTIONARY
360
625
102
}
330
2A
100
AcDbVisualStyle
  2
Brighten
 70
    12
 71
     2
 72
     2
 73
     0
 90
        0
 40
-0.6
 41
-30.0
 62
     5
 63
     7
 74
     1
 91
        4
 64
     7
 65
   257
 75
     1
175
     1
 42
1.0
 92
        8
 66
     7
 43
1.0
 76
     1
 77
     6
 78
     2
 67
     7
 79
     5
170
     0
171
     0
290
     0
174
     0
 93
        1
 44
50.0
173
     0
291
     1
 45
0.0
1001
ACAD
1000
AcDbSavedByObjectVersion
1070
     0
  0
VISUALSTYLE
  5
3A
102
{ACAD_REACTORS
330
2A
102
}
102
{ACAD_XDICTIONARY
360
62D
102
}
330
2A
100
AcDbVisualStyle
  2
ColorChange
 70
    16
 71
     2
 72
     2
 73
     3
 90
        0
 40
-0.6
 41
-30.0
 62
     5
 63
     8
 74
     1
 91
        4
 64
     7
 65
   257
 75
     1
175
     1
 42
1.0
 92
        8
 66
     8
 43
1.0
 76
     1
 77
     6
 78
     2
 67
     7
 79
     5
170
     0
171
     0
290
     0
174
     0
 93
        1
 44
0.0
173
     0
291
     1
 45
0.0
1001
ACAD
1000
AcDbSavedByObjectVersion
1070
     0
  0
VISUALSTYLE
  5
34
102
{ACAD_REACTORS
330
2A
102
}
102
{ACAD_XDICTIONARY
360
621
102
}
330
2A
100
AcDbVisualStyle
  2
Conceptual
 70
     9
 71
     3
 72
     2
 73
     0
 90
        0
 40
-0.6
 41
-30.0
 62
     5
 63
     7
 74
     2
 91
        2
 64
     7
 65
   257
 75
     1
175
     1
 42
40.0
 92
        8
 66
     7
 43
1.0
 76
     1
 77
     6
 78
     2
 67
     7
 79
     3
170
     0
171
     0
290
     0
174
     0
 93
        1
 44
0.0
173
     0
291
     0
 45
0.0
1001
ACAD
1000
AcDbSavedByObjectVersion
1070
     0
  0
VISUALSTYLE
  5
35
102
{ACAD_REACTORS
330
2A
102
}
102
{ACAD_XDICTIONARY
360
623
102
}
330
2A
100
AcDbVisualStyle
  2
Dim
 70
    11
 71
     2
 72
     2
 73
     0
 90
        0
 40
-0.6
 41
-30.0
 62
     5
 63
     7
 74
     1
 91
        4
 64
     7
 65
   257
 75
     1
175
     1
 42
1.0
 92
        8
 66
     7
 43
1.0
 76
     1
 77
     6
 78
     2
 67
     7
 79
     5
170
     0
171
     0
290
     0
174
     0
 93
        1
 44
-50.0
173
     0
291
     1
 45
0.0
1001
ACAD
1000
AcDbSavedByObjectVersion
1070
     0
  0
VISUALSTYLE
  5
39
102
{ACAD_REACTORS
330
2A
102
}
102
{ACAD_XDICTIONARY
360
62B
102
}
330
2A
100
AcDbVisualStyle
  2
Facepattern
 70
    15
 71
     2
 72
     2
 73
     0
 90
        0
 40
-0.6
 41
-30.0
 62
     5
 63
     7
 74
     1
 91
        4
 64
     7
 65
   257
 75
     1
175
     1
 42
1.0
 92
        8
 66
     7
 43
1.0
 76
     1
 77
     6
 78
     2
 67
     7
 79
     5
170
     0
171
     0
290
     0
174
     0
 93
        1
 44
0.0
173
     0
291
     1
 45
0.0
1001
ACAD
1000
AcDbSavedByObjectVersion
1070
     0
  0
VISUALSTYLE
  5
2B
102
{ACAD_REACTORS
330
2A
102
}
102
{ACAD_XDICTIONARY
360
60F
102
}
330
2A
100
AcDbVisualStyle
  2
Flat
 70
     0
 71
     2
 72
     1
 73
     1
 90
        2
 40
-0.6
 41
30.0
 62
     5
 63
     7
 74
     0
 91
        4
 64
     7
 65
   257
 75
     1
175
     1
 42
1.0
 92
        8
 66
     7
 43
1.0
 76
     1
 77
     6
 78
     2
 67
     7
 79
     5
170
     0
171
     0
290
     0
174
     0
 93
       13
 44
0.0
173
     0
291
     1
 45
0.0
1001
ACAD
1000
AcDbSavedByObjectVersion
1070
     0
  0
VISUALSTYLE
  5
2C
102
{ACAD_REACTORS
330
2A
102
}
102
{ACAD_XDICTIONARY
360
611
102
}
330
2A
100
AcDbVisualStyle
  2
FlatWithEdges
 70
     1
 71
     2
 72
     1
 73
     1
 90
        2
 40
-0.6
 41
30.0
 62
     5
 63
     7
 74
     1
 91
        4
 64
     7
 65
   257
 75
     1
175
     1
 42
1.0
 92
        0
 66
   257
 43
1.0
 76
     1
 77
     6
 78
     2
 67
     7
 79
     5
170
     0
171
     0
290
     0
174
     0
 93
       13
 44
0.0
173
     0
291
     1
 45
0.0
1001
ACAD
1000
AcDbSavedByObjectVersion
1070
     0
  0
VISUALSTYLE
  5
2D
102
{ACAD_REACTORS
330
2A
102
}
102
{ACAD_XDICTIONARY
360
613
102
}
330
2A
100
AcDbVisualStyle
  2
Gouraud
 70
     2
 71
     2
 72
     2
 73
     1
 90
        2
 40
-0.6
 41
30.0
 62
     5
 63
     7
 74
     0
 91
        4
 64
     7
 65
   257
 75
     1
175
     1
 42
1.0
 92
        0
 66
     7
 43
1.0
 76
     1
 77
     6
 78
     2
 67
     7
 79
     5
170
     0
171
     0
290
     0
174
     0
 93
       13
 44
0.0
173
     0
291
     1
 45
0.0
1001
ACAD
1000
AcDbSavedByObjectVersion
1070
     0
  0
VISUALSTYLE
  5
2E
102
{ACAD_REACTORS
330
2A
102
}
102
{ACAD_XDICTIONARY
360
615
102
}
330
2A
100
AcDbVisualStyle
  2
GouraudWithEdges
 70
     3
 71
     2
 72
     2
 73
     1
 90
        2
 40
-0.6
 41
30.0
 62
     5
 63
     7
 74
     1
 91
        4
 64
     7
 65
   257
 75
     1
175
     1
 42
1.0
 92
        0
 66
   257
 43
1.0
 76
     1
 77
     6
 78
     2
 67
     7
 79
     5
170
     0
171
     0
290
     0
174
     0
 93
       13
 44
0.0
173
     0
291
     1
 45
0.0
1001
ACAD
1000
AcDbSavedByObjectVersion
1070
     0
  0
VISUALSTYLE
  5
38
102
{ACAD_REACTORS
330
2A
102
}
102
{ACAD_XDICTIONARY
360
629
102
}
330
2A
100
AcDbVisualStyle
  2
Linepattern
 70
    14
 71
     2
 72
     2
 73
     0
 90
        0
 40
-0.6
 41
-30.0
 62
     5
 63
     7
 74
     1
 91
        4
 64
     7
 65
   257
 75
     7
175
     7
 42
1.0
 92
        8
 66
     7
 43
1.0
 76
     1
 77
     6
 78
     2
 67
     7
 79
     5
170
     0
171
     0
290
     0
174
     0
 93
        1
 44
0.0
173
     0
291
     1
 45
0.0
1001
ACAD
1000
AcDbSavedByObjectVersion
1070
     0
  0
VISUALSTYLE
  5
33
102
{ACAD_REACTORS
330
2A
102
}
102
{ACAD_XDICTIONARY
360
61F
102
}
330
2A
100
AcDbVisualStyle
  2
Realistic
 70
     8
 71
     2
 72
     2
 73
     0
 90
        0
 40
-0.6
 41
-30.0
 62
     5
 63
     7
 74
     1
 91
        0
 64
     7
 65
   257
 75
     1
175
     1
 42
1.0
 92
        8
 66
     8
 43
1.0
 76
     1
 77
     6
 78
     2
 67
     7
 79
     5
170
     0
171
     0
290
     0
174
     0
 93
       13
 44
0.0
173
     0
291
     0
 45
0.0
1001
ACAD
1000
AcDbSavedByObjectVersion
1070
     0
  0
VISUALSTYLE
  5
37
102
{ACAD_REACTORS
330
2A
102
}
102
{ACAD_XDICTIONARY
360
627
102
}
330
2A
100
AcDbVisualStyle
  2
Thicken
 70
    13
 71
     2
 72
     2
 73
     0
 90
        0
 40
-0.6
 41
-30.0
 62
     5
 63
     7
 74
     1
 91
        4
 64
     7
 65
   257
 75
     1
175
     1
 42
1.0
 92
       12
 66
     7
 43
1.0
 76
     1
 77
     6
 78
     2
 67
     7
 79
     5
170
     0
171
     0
290
     0
174
     0
 93
        1
 44
0.0
173
     0
291
     1
 45
0.0
1001
ACAD
1000
AcDbSavedByObjectVersion
1070
     0
  0
DICTIONARYVAR
  5
60D
102
{ACAD_REACTORS
330
60A
102
}
330
60A
100
DictionaryVariables
280
     0
  1
2
  0
DICTIONARYVAR
  5
60E
102
{ACAD_REACTORS
330
60A
102
}
330
60A
100
DictionaryVariables
280
     0
  1
1
  0
DICTIONARY
  5
631
330
3D
100
AcDbDictionary
280
     1
281
     1
  3
ACAD_XREC_ROUNDTRIP
360
632
  0
DICTIONARY
  5
62F
330
3C
100
AcDbDictionary
280
     1
281
     1
  3
ACAD_XREC_ROUNDTRIP
360
630
  0
DICTIONARY
  5
633
330
3E
100
AcDbDictionary
280
     1
281
     1
  3
ACAD_XREC_ROUNDTRIP
360
634
  0
DICTIONARY
  5
617
330
2F
100
AcDbDictionary
280
     1
281
     1
  3
ACAD_XREC_ROUNDTRIP
360
618
  0
DICTIONARY
  5
61B
330
31
100
AcDbDictionary
280
     1
281
     1
  3
ACAD_XREC_ROUNDTRIP
360
61C
  0
DICTIONARY
  5
619
330
30
100
AcDbDictionary
280
     1
281
     1
  3
ACAD_XREC_ROUNDTRIP
360
61A
  0
DICTIONARY
  5
61D
330
32
100
AcDbDictionary
280
     1
281
     1
  3
ACAD_XREC_ROUNDTRIP
360
61E
  0
DICTIONARY
  5
625
330
36
100
AcDbDictionary
280
     1
281
     1
  3
ACAD_XREC_ROUNDTRIP
360
626
  0
DICTIONARY
  5
62D
330
3A
100
AcDbDictionary
280
     1
281
     1
  3
ACAD_XREC_ROUNDTRIP
360
62E
  0
DICTIONARY
  5
621
330
34
100
AcDbDictionary
280
     1
281
     1
  3
ACAD_XREC_ROUNDTRIP
360
622
  0
DICTIONARY
  5
623
330
35
100
AcDbDictionary
280
     1
281
     1
  3
ACAD_XREC_ROUNDTRIP
360
624
  0
DICTIONARY
  5
62B
330
39
100
AcDbDictionary
280
     1
281
     1
  3
ACAD_XREC_ROUNDTRIP
360
62C
  0
DICTIONARY
  5
60F
330
2B
100
AcDbDictionary
280
     1
281
     1
  3
ACAD_XREC_ROUNDTRIP
360
610
  0
DICTIONARY
  5
611
330
2C
100
AcDbDictionary
280
     1
281
     1
  3
ACAD_XREC_ROUNDTRIP
360
612
  0
DICTIONARY
  5
613
330
2D
100
AcDbDictionary
280
     1
281
     1
  3
ACAD_XREC_ROUNDTRIP
360
614
  0
DICTIONARY
  5
615
330
2E
100
AcDbDictionary
280
     1
281
     1
  3
ACAD_XREC_ROUNDTRIP
360
616
  0
DICTIONARY
  5
629
330
38
100
AcDbDictionary
280
     1
281
     1
  3
ACAD_XREC_ROUNDTRIP
360
62A
  0
DICTIONARY
  5
61F
330
33
100
AcDbDictionary
280
     1
281
     1
  3
ACAD_XREC_ROUNDTRIP
360
620
  0
DICTIONARY
  5
627
330
37
100
AcDbDictionary
280
     1
281
     1
  3
ACAD_XREC_ROUNDTRIP
360
628
  0
XRECORD
  5
632
102
{ACAD_REACTORS
330
631
102
}
330
631
100
AcDbXrecord
280
     1
102
MATERIAL
148
0.0
149
0.0
149
0.0
 93
        0
 94
      127
282
     0
 72
     1
 77
     1
171
     1
175
     1
179
     1
273
     0
  0
XRECORD
  5
630
102
{ACAD_REACTORS
330
62F
102
}
330
62F
100
AcDbXrecord
280
     1
102
MATERIAL
148
0.0
149
0.0
149
0.0
 93
        0
 94
      127
282
     0
 72
     1
 77
     1
171
     1
175
     1
179
     1
273
     0
  0
XRECORD
  5
634
102
{ACAD_REACTORS
330
633
102
}
330
633
100
AcDbXrecord
280
     1
102
MATERIAL
148
0.0
149
0.0
149
0.0
 93
        0
 94
      127
282
     0
 72
     1
 77
     1
171
     1
175
     1
179
     1
273
     0
  0
XRECORD
  5
618
102
{ACAD_REACTORS
330
617
102
}
330
617
100
AcDbXrecord
280
     1
102
RTVSPropertyOp0
 70
     1
102
RTVSPropertyOp1
 70
     1
102
RTVSPropertyOp2
 70
     1
102
RTVSPropertyOp3
 70
     1
102
RTVSPropertyOp4
 70
     1
102
RTVSPropertyOp5
 70
     1
102
RTVSPropertyOp6
 70
     1
102
RTVSPropertyOp7
 70
     1
102
RTVSPropertyOp8
 70
     1
102
RTVSPropertyOp9
 70
     1
102
RTVSPropertyOp10
 70
     1
102
RTVSPropertyOp11
 70
     1
102
RTVSPropertyOp12
 70
     1
102
RTVSPropertyOp13
 70
     1
102
RTVSPropertyOp14
 70
     1
102
RTVSPropertyOp15
 70
     1
102
RTVSPropertyOp16
 70
     1
102
RTVSPropertyOp17
 70
     1
102
RTVSPropertyOp18
 70
     1
102
RTVSPropertyOp19
 70
     1
102
RTVSPropertyOp20
 70
     1
102
RTVSPropertyOp21
 70
     1
102
RTVSPropertyOp22
 70
     1
102
RTVSPropertyOp23
 70
     1
102
RTVSPropertyOp24
 70
     1
102
RTVSPropertyOp25
 70
     1
102
RTVSPropertyOp26
 70
     1
102
RTVSPropertyOp27
 70
     1
102
RTVSPropertyOp28
 70
     1
102
RTVSPropertyOp29
 70
     1
102
RTVSPropertyOp30
 70
     1
102
RTVSPropertyOp31
 70
     1
102
RTVSPropertyOp32
 70
     1
  0
XRECORD
  5
61C
102
{ACAD_REACTORS
330
61B
102
}
330
61B
100
AcDbXrecord
280
     1
102
RTVSPropertyOp0
 70
     1
102
RTVSPropertyOp1
 70
     1
102
RTVSPropertyOp2
 70
     1
102
RTVSPropertyOp3
 70
     1
102
RTVSPropertyOp4
 70
     1
102
RTVSPropertyOp5
 70
     1
102
RTVSPropertyOp6
 70
     1
102
RTVSPropertyOp7
 70
     1
102
RTVSPropertyOp8
 70
     1
102
RTVSPropertyOp9
 70
     1
102
RTVSPropertyOp10
 70
     1
102
RTVSPropertyOp11
 70
     1
102
RTVSPropertyOp12
 70
     1
102
RTVSPropertyOp13
 70
     1
102
RTVSPropertyOp14
 70
     1
102
RTVSPropertyOp15
 70
     1
102
RTVSPropertyOp16
 70
     1
102
RTVSPropertyOp17
 70
     1
102
RTVSPropertyOp18
 70
     1
102
RTVSPropertyOp19
 70
     1
102
RTVSPropertyOp20
 70
     1
102
RTVSPropertyOp21
 70
     1
102
RTVSPropertyOp22
 70
     1
102
RTVSPropertyOp23
 70
     1
102
RTVSPropertyOp24
 70
     1
102
RTVSPropertyOp25
 70
     1
102
RTVSPropertyOp26
 70
     1
102
RTVSPropertyOp27
 70
     1
102
RTVSPropertyOp28
 70
     1
102
RTVSPropertyOp29
 70
     1
102
RTVSPropertyOp30
 70
     1
102
RTVSPropertyOp31
 70
     1
102
RTVSPropertyOp32
 70
     1
  0
XRECORD
  5
61A
102
{ACAD_REACTORS
330
619
102
}
330
619
100
AcDbXrecord
280
     1
102
RTVSPropertyOp0
 70
     1
102
RTVSPropertyOp1
 70
     1
102
RTVSPropertyOp2
 70
     1
102
RTVSPropertyOp3
 70
     1
102
RTVSPropertyOp4
 70
     1
102
RTVSPropertyOp5
 70
     1
102
RTVSPropertyOp6
 70
     1
102
RTVSPropertyOp7
 70
     1
102
RTVSPropertyOp8
 70
     1
102
RTVSPropertyOp9
 70
     1
102
RTVSPropertyOp10
 70
     1
102
RTVSPropertyOp11
 70
     1
102
RTVSPropertyOp12
 70
     1
102
RTVSPropertyOp13
 70
     1
102
RTVSPropertyOp14
 70
     1
102
RTVSPropertyOp15
 70
     1
102
RTVSPropertyOp16
 70
     1
102
RTVSPropertyOp17
 70
     1
102
RTVSPropertyOp18
 70
     1
102
RTVSPropertyOp19
 70
     1
102
RTVSPropertyOp20
 70
     1
102
RTVSPropertyOp21
 70
     1
102
RTVSPropertyOp22
 70
     1
102
RTVSPropertyOp23
 70
     1
102
RTVSPropertyOp24
 70
     1
102
RTVSPropertyOp25
 70
     1
102
RTVSPropertyOp26
 70
     1
102
RTVSPropertyOp27
 70
     1
102
RTVSPropertyOp28
 70
     1
102
RTVSPropertyOp29
 70
     1
102
RTVSPropertyOp30
 70
     1
102
RTVSPropertyOp31
 70
     1
102
RTVSPropertyOp32
 70
     1
  0
XRECORD
  5
61E
102
{ACAD_REACTORS
330
61D
102
}
330
61D
100
AcDbXrecord
280
     1
102
RTVSPropertyOp0
 70
     1
102
RTVSPropertyOp1
 70
     1
102
RTVSPropertyOp2
 70
     1
102
RTVSPropertyOp3
 70
     1
102
RTVSPropertyOp4
 70
     1
102
RTVSPropertyOp5
 70
     1
102
RTVSPropertyOp6
 70
     1
102
RTVSPropertyOp7
 70
     1
102
RTVSPropertyOp8
 70
     1
102
RTVSPropertyOp9
 70
     1
102
RTVSPropertyOp10
 70
     1
102
RTVSPropertyOp11
 70
     1
102
RTVSPropertyOp12
 70
     1
102
RTVSPropertyOp13
 70
     1
102
RTVSPropertyOp14
 70
     1
102
RTVSPropertyOp15
 70
     1
102
RTVSPropertyOp16
 70
     1
102
RTVSPropertyOp17
 70
     1
102
RTVSPropertyOp18
 70
     1
102
RTVSPropertyOp19
 70
     1
102
RTVSPropertyOp20
 70
     1
102
RTVSPropertyOp21
 70
     1
102
RTVSPropertyOp22
 70
     1
102
RTVSPropertyOp23
 70
     1
102
RTVSPropertyOp24
 70
     1
102
RTVSPropertyOp25
 70
     1
102
RTVSPropertyOp26
 70
     1
102
RTVSPropertyOp27
 70
     1
102
RTVSPropertyOp28
 70
     1
102
RTVSPropertyOp29
 70
     1
102
RTVSPropertyOp30
 70
     1
102
RTVSPropertyOp31
 70
     1
102
RTVSPropertyOp32
 70
     1
  0
XRECORD
  5
626
102
{ACAD_REACTORS
330
625
102
}
330
625
100
AcDbXrecord
280
     1
102
RTVSPropertyOp0
 70
     1
102
RTVSPropertyOp1
 70
     1
102
RTVSPropertyOp2
 70
     1
102
RTVSPropertyOp3
 70
     1
102
RTVSPropertyOp4
 70
     1
102
RTVSPropertyOp5
 70
     1
102
RTVSPropertyOp6
 70
     1
102
RTVSPropertyOp7
 70
     1
102
RTVSPropertyOp8
 70
     1
102
RTVSPropertyOp9
 70
     1
102
RTVSPropertyOp10
 70
     1
102
RTVSPropertyOp11
 70
     1
102
RTVSPropertyOp12
 70
     1
102
RTVSPropertyOp13
 70
     1
102
RTVSPropertyOp14
 70
     1
102
RTVSPropertyOp15
 70
     1
102
RTVSPropertyOp16
 70
     1
102
RTVSPropertyOp17
 70
     1
102
RTVSPropertyOp18
 70
     1
102
RTVSPropertyOp19
 70
     1
102
RTVSPropertyOp20
 70
     1
102
RTVSPropertyOp21
 70
     1
102
RTVSPropertyOp22
 70
     1
102
RTVSPropertyOp23
 70
     1
102
RTVSPropertyOp24
 70
     1
102
RTVSPropertyOp25
 70
     1
102
RTVSPropertyOp26
 70
     1
102
RTVSPropertyOp27
 70
     1
102
RTVSPropertyOp28
 70
     1
102
RTVSPropertyOp29
 70
     1
102
RTVSPropertyOp30
 70
     1
102
RTVSPropertyOp31
 70
     1
102
RTVSPropertyOp32
 70
     1
  0
XRECORD
  5
62E
102
{ACAD_REACTORS
330
62D
102
}
330
62D
100
AcDbXrecord
280
     1
102
RTVSPropertyOp0
 70
     1
102
RTVSPropertyOp1
 70
     1
102
RTVSPropertyOp2
 70
     1
102
RTVSPropertyOp3
 70
     1
102
RTVSPropertyOp4
 70
     1
102
RTVSPropertyOp5
 70
     1
102
RTVSPropertyOp6
 70
     1
102
RTVSPropertyOp7
 70
     1
102
RTVSPropertyOp8
 70
     1
102
RTVSPropertyOp9
 70
     1
102
RTVSPropertyOp10
 70
     1
102
RTVSPropertyOp11
 70
     1
102
RTVSPropertyOp12
 70
     1
102
RTVSPropertyOp13
 70
     1
102
RTVSPropertyOp14
 70
     1
102
RTVSPropertyOp15
 70
     1
102
RTVSPropertyOp16
 70
     1
102
RTVSPropertyOp17
 70
     1
102
RTVSPropertyOp18
 70
     1
102
RTVSPropertyOp19
 70
     1
102
RTVSPropertyOp20
 70
     1
102
RTVSPropertyOp21
 70
     1
102
RTVSPropertyOp22
 70
     1
102
RTVSPropertyOp23
 70
     1
102
RTVSPropertyOp24
 70
     1
102
RTVSPropertyOp25
 70
     1
102
RTVSPropertyOp26
 70
     1
102
RTVSPropertyOp27
 70
     1
102
RTVSPropertyOp28
 70
     1
102
RTVSPropertyOp29
 70
     1
102
RTVSPropertyOp30
 70
     1
102
RTVSPropertyOp31
 70
     1
102
RTVSPropertyOp32
 70
     1
  0
XRECORD
  5
622
102
{ACAD_REACTORS
330
621
102
}
330
621
100
AcDbXrecord
280
     1
102
RTVSPropertyOp0
 70
     1
102
RTVSPropertyOp1
 70
     1
102
RTVSPropertyOp2
 70
     1
102
RTVSPropertyOp3
 70
     1
102
RTVSPropertyOp4
 70
     1
102
RTVSPropertyOp5
 70
     1
102
RTVSPropertyOp6
 70
     1
102
RTVSPropertyOp7
 70
     1
102
RTVSPropertyOp8
 70
     1
102
RTVSPropertyOp9
 70
     1
102
RTVSPropertyOp10
 70
     1
102
RTVSPropertyOp11
 70
     1
102
RTVSPropertyOp12
 70
     1
102
RTVSPropertyOp13
 70
     1
102
RTVSPropertyOp14
 70
     1
102
RTVSPropertyOp15
 70
     1
102
RTVSPropertyOp16
 70
     1
102
RTVSPropertyOp17
 70
     1
102
RTVSPropertyOp18
 70
     1
102
RTVSPropertyOp19
 70
     1
102
RTVSPropertyOp20
 70
     1
102
RTVSPropertyOp21
 70
     1
102
RTVSPropertyOp22
 70
     1
102
RTVSPropertyOp23
 70
     1
102
RTVSPropertyOp24
 70
     1
102
RTVSPropertyOp25
 70
     1
102
RTVSPropertyOp26
 70
     1
102
RTVSPropertyOp27
 70
     1
102
RTVSPropertyOp28
 70
     1
102
RTVSPropertyOp29
 70
     1
102
RTVSPropertyOp30
 70
     1
102
RTVSPropertyOp31
 70
     1
102
RTVSPropertyOp32
 70
     1
  0
XRECORD
  5
624
102
{ACAD_REACTORS
330
623
102
}
330
623
100
AcDbXrecord
280
     1
102
RTVSPropertyOp0
 70
     1
102
RTVSPropertyOp1
 70
     1
102
RTVSPropertyOp2
 70
     1
102
RTVSPropertyOp3
 70
     1
102
RTVSPropertyOp4
 70
     1
102
RTVSPropertyOp5
 70
     1
102
RTVSPropertyOp6
 70
     1
102
RTVSPropertyOp7
 70
     1
102
RTVSPropertyOp8
 70
     1
102
RTVSPropertyOp9
 70
     1
102
RTVSPropertyOp10
 70
     1
102
RTVSPropertyOp11
 70
     1
102
RTVSPropertyOp12
 70
     1
102
RTVSPropertyOp13
 70
     1
102
RTVSPropertyOp14
 70
     1
102
RTVSPropertyOp15
 70
     1
102
RTVSPropertyOp16
 70
     1
102
RTVSPropertyOp17
 70
     1
102
RTVSPropertyOp18
 70
     1
102
RTVSPropertyOp19
 70
     1
102
RTVSPropertyOp20
 70
     1
102
RTVSPropertyOp21
 70
     1
102
RTVSPropertyOp22
 70
     1
102
RTVSPropertyOp23
 70
     1
102
RTVSPropertyOp24
 70
     1
102
RTVSPropertyOp25
 70
     1
102
RTVSPropertyOp26
 70
     1
102
RTVSPropertyOp27
 70
     1
102
RTVSPropertyOp28
 70
     1
102
RTVSPropertyOp29
 70
     1
102
RTVSPropertyOp30
 70
     1
102
RTVSPropertyOp31
 70
     1
102
RTVSPropertyOp32
 70
     1
  0
XRECORD
  5
62C
102
{ACAD_REACTORS
330
62B
102
}
330
62B
100
AcDbXrecord
280
     1
102
RTVSPropertyOp0
 70
     1
102
RTVSPropertyOp1
 70
     1
102
RTVSPropertyOp2
 70
     1
102
RTVSPropertyOp3
 70
     1
102
RTVSPropertyOp4
 70
     1
102
RTVSPropertyOp5
 70
     1
102
RTVSPropertyOp6
 70
     1
102
RTVSPropertyOp7
 70
     1
102
RTVSPropertyOp8
 70
     1
102
RTVSPropertyOp9
 70
     1
102
RTVSPropertyOp10
 70
     1
102
RTVSPropertyOp11
 70
     1
102
RTVSPropertyOp12
 70
     1
102
RTVSPropertyOp13
 70
     1
102
RTVSPropertyOp14
 70
     1
102
RTVSPropertyOp15
 70
     1
102
RTVSPropertyOp16
 70
     1
102
RTVSPropertyOp17
 70
     1
102
RTVSPropertyOp18
 70
     1
102
RTVSPropertyOp19
 70
     1
102
RTVSPropertyOp20
 70
     1
102
RTVSPropertyOp21
 70
     1
102
RTVSPropertyOp22
 70
     1
102
RTVSPropertyOp23
 70
     1
102
RTVSPropertyOp24
 70
     1
102
RTVSPropertyOp25
 70
     1
102
RTVSPropertyOp26
 70
     1
102
RTVSPropertyOp27
 70
     1
102
RTVSPropertyOp28
 70
     1
102
RTVSPropertyOp29
 70
     1
102
RTVSPropertyOp30
 70
     1
102
RTVSPropertyOp31
 70
     1
102
RTVSPropertyOp32
 70
     1
  0
XRECORD
  5
610
102
{ACAD_REACTORS
330
60F
102
}
330
60F
100
AcDbXrecord
280
     1
102
RTVSPropertyOp0
 70
     1
102
RTVSPropertyOp1
 70
     1
102
RTVSPropertyOp2
 70
     1
102
RTVSPropertyOp3
 70
     1
102
RTVSPropertyOp4
 70
     1
102
RTVSPropertyOp5
 70
     1
102
RTVSPropertyOp6
 70
     1
102
RTVSPropertyOp7
 70
     1
102
RTVSPropertyOp8
 70
     1
102
RTVSPropertyOp9
 70
     1
102
RTVSPropertyOp10
 70
     1
102
RTVSPropertyOp11
 70
     1
102
RTVSPropertyOp12
 70
     1
102
RTVSPropertyOp13
 70
     1
102
RTVSPropertyOp14
 70
     1
102
RTVSPropertyOp15
 70
     1
102
RTVSPropertyOp16
 70
     1
102
RTVSPropertyOp17
 70
     1
102
RTVSPropertyOp18
 70
     1
102
RTVSPropertyOp19
 70
     1
102
RTVSPropertyOp20
 70
     1
102
RTVSPropertyOp21
 70
     1
102
RTVSPropertyOp22
 70
     1
102
RTVSPropertyOp23
 70
     1
102
RTVSPropertyOp24
 70
     1
102
RTVSPropertyOp25
 70
     1
102
RTVSPropertyOp26
 70
     1
102
RTVSPropertyOp27
 70
     1
102
RTVSPropertyOp28
 70
     1
102
RTVSPropertyOp29
 70
     1
102
RTVSPropertyOp30
 70
     1
102
RTVSPropertyOp31
 70
     1
102
RTVSPropertyOp32
 70
     1
  0
XRECORD
  5
612
102
{ACAD_REACTORS
330
611
102
}
330
611
100
AcDbXrecord
280
     1
102
RTVSPropertyOp0
 70
     1
102
RTVSPropertyOp1
 70
     1
102
RTVSPropertyOp2
 70
     1
102
RTVSPropertyOp3
 70
     1
102
RTVSPropertyOp4
 70
     1
102
RTVSPropertyOp5
 70
     1
102
RTVSPropertyOp6
 70
     1
102
RTVSPropertyOp7
 70
     1
102
RTVSPropertyOp8
 70
     1
102
RTVSPropertyOp9
 70
     1
102
RTVSPropertyOp10
 70
     1
102
RTVSPropertyOp11
 70
     1
102
RTVSPropertyOp12
 70
     1
102
RTVSPropertyOp13
 70
     1
102
RTVSPropertyOp14
 70
     1
102
RTVSPropertyOp15
 70
     1
102
RTVSPropertyOp16
 70
     1
102
RTVSPropertyOp17
 70
     1
102
RTVSPropertyOp18
 70
     1
102
RTVSPropertyOp19
 70
     1
102
RTVSPropertyOp20
 70
     1
102
RTVSPropertyOp21
 70
     1
102
RTVSPropertyOp22
 70
     1
102
RTVSPropertyOp23
 70
     1
102
RTVSPropertyOp24
 70
     1
102
RTVSPropertyOp25
 70
     1
102
RTVSPropertyOp26
 70
     1
102
RTVSPropertyOp27
 70
     1
102
RTVSPropertyOp28
 70
     1
102
RTVSPropertyOp29
 70
     1
102
RTVSPropertyOp30
 70
     1
102
RTVSPropertyOp31
 70
     1
102
RTVSPropertyOp32
 70
     1
  0
XRECORD
  5
614
102
{ACAD_REACTORS
330
613
102
}
330
613
100
AcDbXrecord
280
     1
102
RTVSPropertyOp0
 70
     1
102
RTVSPropertyOp1
 70
     1
102
RTVSPropertyOp2
 70
     1
102
RTVSPropertyOp3
 70
     1
102
RTVSPropertyOp4
 70
     1
102
RTVSPropertyOp5
 70
     1
102
RTVSPropertyOp6
 70
     1
102
RTVSPropertyOp7
 70
     1
102
RTVSPropertyOp8
 70
     1
102
RTVSPropertyOp9
 70
     1
102
RTVSPropertyOp10
 70
     1
102
RTVSPropertyOp11
 70
     1
102
RTVSPropertyOp12
 70
     1
102
RTVSPropertyOp13
 70
     1
102
RTVSPropertyOp14
 70
     1
102
RTVSPropertyOp15
 70
     1
102
RTVSPropertyOp16
 70
     1
102
RTVSPropertyOp17
 70
     1
102
RTVSPropertyOp18
 70
     1
102
RTVSPropertyOp19
 70
     1
102
RTVSPropertyOp20
 70
     1
102
RTVSPropertyOp21
 70
     1
102
RTVSPropertyOp22
 70
     1
102
RTVSPropertyOp23
 70
     1
102
RTVSPropertyOp24
 70
     1
102
RTVSPropertyOp25
 70
     1
102
RTVSPropertyOp26
 70
     1
102
RTVSPropertyOp27
 70
     1
102
RTVSPropertyOp28
 70
     1
102
RTVSPropertyOp29
 70
     1
102
RTVSPropertyOp30
 70
     1
102
RTVSPropertyOp31
 70
     1
102
RTVSPropertyOp32
 70
     1
  0
XRECORD
  5
616
102
{ACAD_REACTORS
330
615
102
}
330
615
100
AcDbXrecord
280
     1
102
RTVSPropertyOp0
 70
     1
102
RTVSPropertyOp1
 70
     1
102
RTVSPropertyOp2
 70
     1
102
RTVSPropertyOp3
 70
     1
102
RTVSPropertyOp4
 70
     1
102
RTVSPropertyOp5
 70
     1
102
RTVSPropertyOp6
 70
     1
102
RTVSPropertyOp7
 70
     1
102
RTVSPropertyOp8
 70
     1
102
RTVSPropertyOp9
 70
     1
102
RTVSPropertyOp10
 70
     1
102
RTVSPropertyOp11
 70
     1
102
RTVSPropertyOp12
 70
     1
102
RTVSPropertyOp13
 70
     1
102
RTVSPropertyOp14
 70
     1
102
RTVSPropertyOp15
 70
     1
102
RTVSPropertyOp16
 70
     1
102
RTVSPropertyOp17
 70
     1
102
RTVSPropertyOp18
 70
     1
102
RTVSPropertyOp19
 70
     1
102
RTVSPropertyOp20
 70
     1
102
RTVSPropertyOp21
 70
     1
102
RTVSPropertyOp22
 70
     1
102
RTVSPropertyOp23
 70
     1
102
RTVSPropertyOp24
 70
     1
102
RTVSPropertyOp25
 70
     1
102
RTVSPropertyOp26
 70
     1
102
RTVSPropertyOp27
 70
     1
102
RTVSPropertyOp28
 70
     1
102
RTVSPropertyOp29
 70
     1
102
RTVSPropertyOp30
 70
     1
102
RTVSPropertyOp31
 70
     1
102
RTVSPropertyOp32
 70
     1
  0
XRECORD
  5
62A
102
{ACAD_REACTORS
330
629
102
}
330
629
100
AcDbXrecord
280
     1
102
RTVSPropertyOp0
 70
     1
102
RTVSPropertyOp1
 70
     1
102
RTVSPropertyOp2
 70
     1
102
RTVSPropertyOp3
 70
     1
102
RTVSPropertyOp4
 70
     1
102
RTVSPropertyOp5
 70
     1
102
RTVSPropertyOp6
 70
     1
102
RTVSPropertyOp7
 70
     1
102
RTVSPropertyOp8
 70
     1
102
RTVSPropertyOp9
 70
     1
102
RTVSPropertyOp10
 70
     1
102
RTVSPropertyOp11
 70
     1
102
RTVSPropertyOp12
 70
     1
102
RTVSPropertyOp13
 70
     1
102
RTVSPropertyOp14
 70
     1
102
RTVSPropertyOp15
 70
     1
102
RTVSPropertyOp16
 70
     1
102
RTVSPropertyOp17
 70
     1
102
RTVSPropertyOp18
 70
     1
102
RTVSPropertyOp19
 70
     1
102
RTVSPropertyOp20
 70
     1
102
RTVSPropertyOp21
 70
     1
102
RTVSPropertyOp22
 70
     1
102
RTVSPropertyOp23
 70
     1
102
RTVSPropertyOp24
 70
     1
102
RTVSPropertyOp25
 70
     1
102
RTVSPropertyOp26
 70
     1
102
RTVSPropertyOp27
 70
     1
102
RTVSPropertyOp28
 70
     1
102
RTVSPropertyOp29
 70
     1
102
RTVSPropertyOp30
 70
     1
102
RTVSPropertyOp31
 70
     1
102
RTVSPropertyOp32
 70
     1
  0
XRECORD
  5
620
102
{ACAD_REACTORS
330
61F
102
}
330
61F
100
AcDbXrecord
280
     1
102
RTVSPropertyOp0
 70
     1
102
RTVSPropertyOp1
 70
     1
102
RTVSPropertyOp2
 70
     1
102
RTVSPropertyOp3
 70
     1
102
RTVSPropertyOp4
 70
     1
102
RTVSPropertyOp5
 70
     1
102
RTVSPropertyOp6
 70
     1
102
RTVSPropertyOp7
 70
     1
102
RTVSPropertyOp8
 70
     1
102
RTVSPropertyOp9
 70
     1
102
RTVSPropertyOp10
 70
     1
102
RTVSPropertyOp11
 70
     1
102
RTVSPropertyOp12
 70
     1
102
RTVSPropertyOp13
 70
     1
102
RTVSPropertyOp14
 70
     1
102
RTVSPropertyOp15
 70
     1
102
RTVSPropertyOp16
 70
     1
102
RTVSPropertyOp17
 70
     1
102
RTVSPropertyOp18
 70
     1
102
RTVSPropertyOp19
 70
     1
102
RTVSPropertyOp20
 70
     1
102
RTVSPropertyOp21
 70
     1
102
RTVSPropertyOp22
 70
     1
102
RTVSPropertyOp23
 70
     1
102
RTVSPropertyOp24
 70
     1
102
RTVSPropertyOp25
 70
     1
102
RTVSPropertyOp26
 70
     1
102
RTVSPropertyOp27
 70
     1
102
RTVSPropertyOp28
 70
     1
102
RTVSPropertyOp29
 70
     1
102
RTVSPropertyOp30
 70
     1
102
RTVSPropertyOp31
 70
     1
102
RTVSPropertyOp32
 70
     1
  0
XRECORD
  5
628
102
{ACAD_REACTORS
330
627
102
}
330
627
100
AcDbXrecord
280
     1
102
RTVSPropertyOp0
 70
     1
102
RTVSPropertyOp1
 70
     1
102
RTVSPropertyOp2
 70
     1
102
RTVSPropertyOp3
 70
     1
102
RTVSPropertyOp4
 70
     1
102
RTVSPropertyOp5
 70
     1
102
RTVSPropertyOp6
 70
     1
102
RTVSPropertyOp7
 70
     1
102
RTVSPropertyOp8
 70
     1
102
RTVSPropertyOp9
 70
     1
102
RTVSPropertyOp10
 70
     1
102
RTVSPropertyOp11
 70
     1
102
RTVSPropertyOp12
 70
     1
102
RTVSPropertyOp13
 70
     1
102
RTVSPropertyOp14
 70
     1
102
RTVSPropertyOp15
 70
     1
102
RTVSPropertyOp16
 70
     1
102
RTVSPropertyOp17
 70
     1
102
RTVSPropertyOp18
 70
     1
102
RTVSPropertyOp19
 70
     1
102
RTVSPropertyOp20
 70
     1
102
RTVSPropertyOp21
 70
     1
102
RTVSPropertyOp22
 70
     1
102
RTVSPropertyOp23
 70
     1
102
RTVSPropertyOp24
 70
     1
102
RTVSPropertyOp25
 70
     1
102
RTVSPropertyOp26
 70
     1
102
RTVSPropertyOp27
 70
     1
102
RTVSPropertyOp28
 70
     1
102
RTVSPropertyOp29
 70
     1
102
RTVSPropertyOp30
 70
     1
102
RTVSPropertyOp31
 70
     1
102
RTVSPropertyOp32
 70
     1
  0
ENDSEC
  0
EOF
