  0
SECTION
  2
HEADER
  9
$ACADVER
  1
AC1015
  9
$ACADMAINTVER
 70
     6
  9
$DWGCODEPAGE
  3
ANSI_1252
  9
$INSBASE
 10
0.0
 20
0.0
 30
0.0
  9
$EXTMIN
 10
-61.643602793132
 20
-74.9944750053683
 30
0.0
  9
$EXTMAX
 10
99.6064110733469
 20
195.5
 30
0.0
  9
$LIMMIN
 10
0.0
 20
0.0
  9
$LIMMAX
 10
12.0
 20
9.0
  9
$ORTHOMODE
 70
     0
  9
$REGENMODE
 70
     1
  9
$FILLMODE
 70
     1
  9
$QTEXTMODE
 70
     0
  9
$MIRRTEXT
 70
     1
  9
$LTSCALE
 40
1.0
  9
$ATTMODE
 70
     1
  9
$TEXTSIZE
 40
0.2
  9
$TRACEWID
 40
0.05
  9
$TEXTSTYLE
  7
Standard
  9
$CLAYER
  8
0
  9
$CELTYPE
  6
ByLayer
  9
$CECOLOR
 62
   256
  9
$CELTSCALE
 40
1.0
  9
$DISPSILH
 70
     0
  9
$DIMSCALE
 40
1.0
  9
$DIMASZ
 40
0.18
  9
$DIMEXO
 40
0.0625
  9
$DIMDLI
 40
0.38
  9
$DIMRND
 40
0.0
  9
$DIMDLE
 40
0.0
  9
$DIMEXE
 40
0.18
  9
$DIMTP
 40
0.0
  9
$DIMTM
 40
0.0
  9
$DIMTXT
 40
0.18
  9
$DIMCEN
 40
0.09
  9
$DIMTSZ
 40
0.0
  9
$DIMTOL
 70
     0
  9
$DIMLIM
 70
     0
  9
$DIMTIH
 70
     1
  9
$DIMTOH
 70
     1
  9
$DIMSE1
 70
     0
  9
$DIMSE2
 70
     0
  9
$DIMTAD
 70
     0
  9
$DIMZIN
 70
     0
  9
$DIMBLK
  1

  9
$DIMASO
 70
     1
  9
$DIMSHO
 70
     1
  9
$DIMPOST
  1

  9
$DIMAPOST
  1

  9
$DIMALT
 70
     0
  9
$DIMALTD
 70
     2
  9
$DIMALTF
 40
25.4
  9
$DIMLFAC
 40
1.0
  9
$DIMTOFL
 70
     0
  9
$DIMTVP
 40
0.0
  9
$DIMTIX
 70
     0
  9
$DIMSOXD
 70
     0
  9
$DIMSAH
 70
     0
  9
$DIMBLK1
  1

  9
$DIMBLK2
  1

  9
$DIMSTYLE
  2
Standard
  9
$DIMCLRD
 70
     0
  9
$DIMCLRE
 70
     0
  9
$DIMCLRT
 70
     0
  9
$DIMTFAC
 40
1.0
  9
$DIMGAP
 40
0.09
  9
$DIMJUST
 70
     0
  9
$DIMSD1
 70
     0
  9
$DIMSD2
 70
     0
  9
$DIMTOLJ
 70
     1
  9
$DIMTZIN
 70
     0
  9
$DIMALTZ
 70
     0
  9
$DIMALTTZ
 70
     0
  9
$DIMUPT
 70
     0
  9
$DIMDEC
 70
     4
  9
$DIMTDEC
 70
     4
  9
$DIMALTU
 70
     2
  9
$DIMALTTD
 70
     2
  9
$DIMTXSTY
  7
Standard
  9
$DIMAUNIT
 70
     0
  9
$DIMADEC
 70
     0
  9
$DIMALTRND
 40
0.0
  9
$DIMAZIN
 70
     0
  9
$DIMDSEP
 70
    46
  9
$DIMATFIT
 70
     3
  9
$DIMFRAC
 70
     0
  9
$DIMLDRBLK
  1

  9
$DIMLUNIT
 70
     2
  9
$DIMLWD
 70
    -2
  9
$DIMLWE
 70
    -2
  9
$DIMTMOVE
 70
     0
  9
$LUNITS
 70
     2
  9
$LUPREC
 70
     4
  9
$SKETCHINC
 40
0.1
  9
$FILLETRAD
 40
0.5
  9
$AUNITS
 70
     0
  9
$AUPREC
 70
     0
  9
$MENU
  1
.
  9
$ELEVATION
 40
0.0
  9
$PELEVATION
 40
0.0
  9
$THICKNESS
 40
0.0
  9
$LIMCHECK
 70
     0
  9
$CHAMFERA
 40
0.5
  9
$CHAMFERB
 40
0.5
  9
$CHAMFERC
 40
1.0
  9
$CHAMFERD
 40
0.0
  9
$SKPOLY
 70
     0
  9
$TDCREATE
 40
2456966.621729224
  9
$TDUCREATE
 40
2456966.580062558
  9
$TDUPDATE
 40
2456966.621729224
  9
$TDUUPDATE
 40
2456966.580062558
  9
$TDINDWG
 40
0.0000000116
  9
$TDUSRTIMER
 40
0.0000000116
  9
$USRTIMER
 70
     1
  9
$ANGBASE
 50
0.0
  9
$ANGDIR
 70
     0
  9
$PDMODE
 70
     0
  9
$PDSIZE
 40
0.0
  9
$PLINEWID
 40
0.0
  9
$SPLFRAME
 70
     0
  9
$SPLINETYPE
 70
     6
  9
$SPLINESEGS
 70
     8
  9
$HANDSEED
  5
193
  9
$SURFTAB1
 70
     6
  9
$SURFTAB2
 70
     6
  9
$SURFTYPE
 70
     6
  9
$SURFU
 70
     6
  9
$SURFV
 70
     6
  9
$UCSBASE
  2

  9
$UCSNAME
  2

  9
$UCSORG
 10
0.0
 20
0.0
 30
0.0
  9
$UCSXDIR
 10
1.0
 20
0.0
 30
0.0
  9
$UCSYDIR
 10
0.0
 20
1.0
 30
0.0
  9
$UCSORTHOREF
  2

  9
$UCSORTHOVIEW
 70
     0
  9
$UCSORGTOP
 10
0.0
 20
0.0
 30
0.0
  9
$UCSORGBOTTOM
 10
0.0
 20
0.0
 30
0.0
  9
$UCSORGLEFT
 10
0.0
 20
0.0
 30
0.0
  9
$UCSORGRIGHT
 10
0.0
 20
0.0
 30
0.0
  9
$UCSORGFRONT
 10
0.0
 20
0.0
 30
0.0
  9
$UCSORGBACK
 10
0.0
 20
0.0
 30
0.0
  9
$PUCSBASE
  2

  9
$PUCSNAME
  2

  9
$PUCSORG
 10
0.0
 20
0.0
 30
0.0
  9
$PUCSXDIR
 10
1.0
 20
0.0
 30
0.0
  9
$PUCSYDIR
 10
0.0
 20
1.0
 30
0.0
  9
$PUCSORTHOREF
  2

  9
$PUCSORTHOVIEW
 70
     0
  9
$PUCSORGTOP
 10
0.0
 20
0.0
 30
0.0
  9
$PUCSORGBOTTOM
 10
0.0
 20
0.0
 30
0.0
  9
$PUCSORGLEFT
 10
0.0
 20
0.0
 30
0.0
  9
$PUCSORGRIGHT
 10
0.0
 20
0.0
 30
0.0
  9
$PUCSORGFRONT
 10
0.0
 20
0.0
 30
0.0
  9
$PUCSORGBACK
 10
0.0
 20
0.0
 30
0.0
  9
$USERI1
 70
     0
  9
$USERI2
 70
     0
  9
$USERI3
 70
     0
  9
$USERI4
 70
     0
  9
$USERI5
 70
     0
  9
$USERR1
 40
18.1
  9
$USERR2
 40
0.0
  9
$USERR3
 40
0.0
  9
$USERR4
 40
0.0
  9
$USERR5
 40
0.0
  9
$WORLDVIEW
 70
     1
  9
$SHADEDGE
 70
     3
  9
$SHADEDIF
 70
    70
  9
$TILEMODE
 70
     1
  9
$MAXACTVP
 70
    64
  9
$PINSBASE
 10
0.0
 20
0.0
 30
0.0
  9
$PLIMCHECK
 70
     0
  9
$PEXTMIN
 10
1.00000000000000E+20
 20
1.00000000000000E+20
 30
1.00000000000000E+20
  9
$PEXTMAX
 10
-1.00000000000000E+20
 20
-1.00000000000000E+20
 30
-1.00000000000000E+20
  9
$PLIMMIN
 10
0.0
 20
0.0
  9
$PLIMMAX
 10
12.0
 20
9.0
  9
$UNITMODE
 70
     0
  9
$VISRETAIN
 70
     1
  9
$PLINEGEN
 70
     0
  9
$PSLTSCALE
 70
     1
  9
$TREEDEPTH
 70
  3020
  9
$CMLSTYLE
  2
Standard
  9
$CMLJUST
 70
     0
  9
$CMLSCALE
 40
1.0
  9
$PROXYGRAPHICS
 70
     1
  9
$MEASUREMENT
 70
     1
  9
$CELWEIGHT
370
    -1
  9
$ENDCAPS
280
     0
  9
$JOINSTYLE
280
     0
  9
$LWDISPLAY
290
     0
  9
$INSUNITS
 70
     1
  9
$HYPERLINKBASE
  1

  9
$STYLESHEET
  1

  9
$XEDIT
290
     1
  9
$CEPSNTYPE
380
     0
  9
$PSTYLEMODE
290
     1
  9
$FINGERPRINTGUID
  2
{7F90B3C0-D96C-4AE2-B206-CD1AA46B2605}
  9
$VERSIONGUID
  2
{FAEB1C32-E019-11D5-929B-00C0DF256EC4}
  9
$EXTNAMES
290
     1
  9
$PSVPSCALE
 40
0.0
  9
$OLESTARTUP
290
     0
  0
ENDSEC
  0
SECTION
  2
CLASSES
  0
CLASS
  1
ACDBDICTIONARYWDFLT
  2
AcDbDictionaryWithDefault
  3
ObjectDBX Classes
 90
        0
280
     0
281
     0
  0
CLASS
  1
VISUALSTYLE
  2
AcDbVisualStyle
  3
ObjectDBX Classes
 90
     4095
280
     0
281
     0
  0
CLASS
  1
MATERIAL
  2
AcDbMaterial
  3
ObjectDBX Classes
 90
     1153
280
     0
281
     0
  0
CLASS
  1
DICTIONARYVAR
  2
AcDbDictionaryVar
  3
ObjectDBX Classes
 90
        0
280
     0
281
     0
  0
CLASS
  1
ACDBPLACEHOLDER
  2
AcDbPlaceHolder
  3
ObjectDBX Classes
 90
        0
280
     0
281
     0
  0
CLASS
  1
LAYOUT
  2
AcDbLayout
  3
ObjectDBX Classes
 90
        0
280
     0
281
     0
  0
ENDSEC
  0
SECTION
  2
TABLES
  0
TABLE
  2
VPORT
  5
8
330
0
100
AcDbSymbolTable
 70
     1
  0
VPORT
  5
29
330
8
100
AcDbSymbolTableRecord
100
AcDbViewportTableRecord
  2
*Active
 70
     0
 10
0.0
 20
0.0
 11
1.0
 21
1.0
 12
18.98140414010745
 22
60.25276249731585
 13
0.0
 23
0.0
 14
0.5
 24
0.5
 15
0.5
 25
0.5
 16
0.0
 26
0.0
 36
1.0
 17
0.0
 27
0.0
 37
0.0
 40
297.5439225059052
 41
1.60267857142857
 42
50.0
 43
0.0
 44
0.0
 50
0.0
 51
0.0
 71
     0
 72
   100
 73
     1
 74
     3
 75
     0
 76
     0
 77
     0
 78
     0
281
     0
 65
     1
110
0.0
120
0.0
130
0.0
111
1.0
121
0.0
131
0.0
112
0.0
122
1.0
132
0.0
 79
     0
146
0.0
  0
ENDTAB
  0
TABLE
  2
LTYPE
  5
5
330
0
100
AcDbSymbolTable
 70
     8
  0
LTYPE
  5
14
330
5
100
AcDbSymbolTableRecord
100
AcDbLinetypeTableRecord
  2
ByBlock
 70
     0
  3

 72
    65
 73
     0
 40
0.0
  0
LTYPE
  5
15
330
5
100
AcDbSymbolTableRecord
100
AcDbLinetypeTableRecord
  2
ByLayer
 70
     0
  3

 72
    65
 73
     0
 40
0.0
  0
LTYPE
  5
16
330
5
100
AcDbSymbolTableRecord
100
AcDbLinetypeTableRecord
  2
Continuous
 70
     0
  3
Solid line
 72
    65
 73
     0
 40
0.0
  0
LTYPE
  5
3F
330
5
100
AcDbSymbolTableRecord
100
AcDbLinetypeTableRecord
  2
DASHED
 70
     0
  3
Dashed
 72
    65
 73
     2
 40
15.0
 49
7.0
 74
     0
 49
-8.0
 74
     0
  0
LTYPE
  5
40
330
5
100
AcDbSymbolTableRecord
100
AcDbLinetypeTableRecord
  2
DOTTED
 70
     0
  3
Dotted
 72
    65
 73
     2
 40
1.0
 49
0.0
 74
     0
 49
-1.0
 74
     0
  0
LTYPE
  5
41
330
5
100
AcDbSymbolTableRecord
100
AcDbLinetypeTableRecord
  2
DOT_CENTER
 70
     0
  3
Dot_Center
 72
    65
 73
     4
 40
14.0
 49
12.0
 74
     0
 49
-1.0
 74
     0
 49
0.0
 74
     0
 49
-1.0
 74
     0
  0
LTYPE
  5
42
330
5
100
AcDbSymbolTableRecord
100
AcDbLinetypeTableRecord
  2
LONG_DASHED
 70
     0
  3
Long_Dashed
 72
    65
 73
     2
 40
15.0
 49
10.0
 74
     0
 49
-5.0
 74
     0
  0
LTYPE
  5
43
330
5
100
AcDbSymbolTableRecord
100
AcDbLinetypeTableRecord
  2
DASH_CENTER
 70
     0
  3
Dash_Center
 72
    65
 73
     4
 40
14.0
 49
11.0
 74
     0
 49
-1.0
 74
     0
 49
1.0
 74
     0
 49
-1.0
 74
     0
  0
LTYPE
  5
44
330
5
100
AcDbSymbolTableRecord
100
AcDbLinetypeTableRecord
  2
PHANTOM
 70
     0
  3
Phantom
 72
    65
 73
     6
 40
13.0
 49
10.0
 74
     0
 49
-1.0
 74
     0
 49
0.0
 74
     0
 49
-1.0
 74
     0
 49
0.0
 74
     0
 49
-1.0
 74
     0
  0
LTYPE
  5
45
330
5
100
AcDbSymbolTableRecord
100
AcDbLinetypeTableRecord
  2
CENTER_DASH_DASH
 70
     0
  3
Center_Dash_Dash
 72
    65
 73
     6
 40
14.0
 49
9.0
 74
     0
 49
-1.0
 74
     0
 49
1.0
 74
     0
 49
-1.0
 74
     0
 49
1.0
 74
     0
 49
-1.0
 74
     0
  0
ENDTAB
  0
TABLE
  2
LAYER
  5
2
330
0
100
AcDbSymbolTable
 70
     3
  0
LAYER
  5
10
330
2
100
AcDbSymbolTableRecord
100
AcDbLayerTableRecord
  2
0
 70
     0
 62
     7
  6
Continuous
370
    -3
390
F
  0
LAYER
  5
46
330
2
100
AcDbSymbolTableRecord
100
AcDbLayerTableRecord
  2
1
 70
     0
 62
     7
  6
Continuous
370
    -3
390
F
  0
LAYER
  5
47
330
2
100
AcDbSymbolTableRecord
100
AcDbLayerTableRecord
  2
LC-001-002-----0
 70
     0
 62
     7
  6
Continuous
370
    -3
390
F
  0
ENDTAB
  0
TABLE
  2
STYLE
  5
3
330
0
100
AcDbSymbolTable
 70
     2
  0
STYLE
  5
11
330
3
100
AcDbSymbolTableRecord
100
AcDbTextStyleTableRecord
  2
Standard
 70
     0
 40
0.0
 41
1.0
 50
0.0
 71
     0
 42
0.2
  3
txt
  4

  0
STYLE
  5
B9
330
3
100
AcDbSymbolTableRecord
100
AcDbTextStyleTableRecord
  2
CONVERTER_11
 70
     0
 40
0.0
 41
0.9
 50
0.0
 71
     0
 42
0.2
  3
txt.shx
  4

  0
ENDTAB
  0
TABLE
  2
VIEW
  5
6
330
0
100
AcDbSymbolTable
 70
     0
  0
ENDTAB
  0
TABLE
  2
UCS
  5
7
330
0
100
AcDbSymbolTable
 70
     0
  0
ENDTAB
  0
TABLE
  2
APPID
  5
9
330
0
100
AcDbSymbolTable
 70
     1
  0
APPID
  5
12
330
9
100
AcDbSymbolTableRecord
100
AcDbRegAppTableRecord
  2
ACAD
 70
     0
  0
ENDTAB
  0
TABLE
  2
DIMSTYLE
  5
A
330
0
100
AcDbSymbolTable
 70
     9
100
AcDbDimStyleTable
  0
DIMSTYLE
105
27
330
A
100
AcDbSymbolTableRecord
100
AcDbDimStyleTableRecord
  2
Standard
 70
     0
178
     0
340
11
  0
DIMSTYLE
105
BD
102
{ACAD_REACTORS
330
BE
102
}
330
A
100
AcDbSymbolTableRecord
100
AcDbDimStyleTableRecord
  2
ME10_DIM_10
 70
     0
 41
7.0
 42
0.0
 44
2.0
 73
     0
 74
     0
 77
     1
 78
     8
140
7.0
147
2.0
172
     1
173
     1
174
     1
175
     1
176
     4
177
     4
271
     2
178
     1
271
     2
340
B9
  0
DIMSTYLE
105
C9
102
{ACAD_REACTORS
330
CA
102
}
330
A
100
AcDbSymbolTableRecord
100
AcDbDimStyleTableRecord
  2
ME10_DIM_11
 70
     0
  3
DN<>
 41
7.0
 42
0.0
 44
2.0
 73
     0
 74
     0
 77
     1
 78
     8
140
7.0
147
2.0
172
     1
173
     1
174
     1
175
     1
176
     4
177
     4
271
     2
178
     1
271
     2
340
B9
  0
DIMSTYLE
105
D6
102
{ACAD_REACTORS
330
D7
102
}
330
A
100
AcDbSymbolTableRecord
100
AcDbDimStyleTableRecord
  2
ME10_DIM_12
 70
     0
 41
7.0
 42
0.0
 44
2.0
 73
     0
 74
     0
 77
     1
 78
     8
140
7.0
147
2.0
172
     1
173
     1
174
     1
175
     1
176
     4
177
     4
271
     2
178
     1
271
     2
340
B9
  0
DIMSTYLE
105
E1
102
{ACAD_REACTORS
330
E2
102
}
330
A
100
AcDbSymbolTableRecord
100
AcDbDimStyleTableRecord
  2
ME10_DIM_13
 70
     0
 41
7.0
 42
0.0
 44
2.0
 73
     0
 74
     0
 77
     1
 78
     8
140
7.0
147
2.0
172
     1
173
     1
174
     1
175
     1
176
     4
177
     4
271
     2
178
     1
271
     2
340
B9
  0
DIMSTYLE
105
ED
102
{ACAD_REACTORS
330
EE
102
}
330
A
100
AcDbSymbolTableRecord
100
AcDbDimStyleTableRecord
  2
ME10_DIM_14
 70
     0
 41
7.0
 42
0.0
 44
2.0
 73
     0
 74
     0
 77
     1
 78
     8
140
7.0
147
2.0
172
     1
173
     1
174
     1
175
     1
176
     4
177
     4
271
     0
178
     1
271
     0
340
B9
  0
DIMSTYLE
105
F8
102
{ACAD_REACTORS
330
F9
102
}
330
A
100
AcDbSymbolTableRecord
100
AcDbDimStyleTableRecord
  2
ME10_DIM_15
 70
     0
 41
7.0
 42
0.0
 44
2.0
 73
     0
 74
     0
 77
     1
 78
     8
140
7.0
147
2.0
172
     1
173
     1
174
     1
175
     1
176
     4
177
     4
271
     0
178
     1
271
     0
340
B9
  0
DIMSTYLE
105
103
102
{ACAD_REACTORS
330
104
102
}
330
A
100
AcDbSymbolTableRecord
100
AcDbDimStyleTableRecord
  2
ME10_DIM_16
 70
     0
 41
7.0
 42
0.0
 44
2.0
 73
     0
 74
     0
 77
     1
 78
     8
140
7.0
147
2.0
172
     1
173
     1
174
     1
175
     1
176
     4
177
     4
271
     2
178
     1
271
     2
340
B9
  0
DIMSTYLE
105
10E
102
{ACAD_REACTORS
330
10F
102
}
330
A
100
AcDbSymbolTableRecord
100
AcDbDimStyleTableRecord
  2
ME10_DIM_17
 70
     0
 41
7.0
 42
0.0
 44
2.0
 73
     0
 74
     0
 77
     1
 78
     8
140
7.0
147
2.0
172
     1
173
     1
174
     1
175
     1
176
     4
177
     4
271
     2
178
     1
271
     2
340
B9
  0
ENDTAB
  0
TABLE
  2
BLOCK_RECORD
  5
1
330
0
100
AcDbSymbolTable
 70
    16
  0
BLOCK_RECORD
  5
1F
330
1
100
AcDbSymbolTableRecord
100
AcDbBlockTableRecord
  2
*Model_Space
340
22
  0
BLOCK_RECORD
  5
1B
330
1
100
AcDbSymbolTableRecord
100
AcDbBlockTableRecord
  2
*Paper_Space
340
1E
  0
BLOCK_RECORD
  5
23
330
1
100
AcDbSymbolTableRecord
100
AcDbBlockTableRecord
  2
*Paper_Space0
340
26
  0
BLOCK_RECORD
  5
48
330
1
100
AcDbSymbolTableRecord
100
AcDbBlockTableRecord
  2
HL19_ABS_10003_ABS
340
0
102
{BLKREFS
331
4C
102
}
  0
BLOCK_RECORD
  5
4B
330
1
100
AcDbSymbolTableRecord
100
AcDbBlockTableRecord
  2
HL19
340
0
102
{BLKREFS
331
56
102
}
  0
BLOCK_RECORD
  5
4F
330
1
100
AcDbSymbolTableRecord
100
AcDbBlockTableRecord
  2
HL_410_Körper_Deckel
340
0
102
{BLKREFS
331
57
102
}
  0
BLOCK_RECORD
  5
52
330
1
100
AcDbSymbolTableRecord
100
AcDbBlockTableRecord
  2
HL_410_Abdeckkappe
340
0
102
{BLKREFS
331
58
102
}
  0
BLOCK_RECORD
  5
55
330
1
100
AcDbSymbolTableRecord
100
AcDbBlockTableRecord
  2
HL_410_Aufputz_Sifon
340
0
102
{BLKREFS
331
61
102
}
  0
BLOCK_RECORD
  5
5B
330
1
100
AcDbSymbolTableRecord
100
AcDbBlockTableRecord
  2
Holländermutter_1
340
0
102
{BLKREFS
331
62
102
}
  0
BLOCK_RECORD
  5
5E
330
1
100
AcDbSymbolTableRecord
100
AcDbBlockTableRecord
  2
Dichtstopfen
340
0
102
{BLKREFS
331
63
102
}
  0
BLOCK_RECORD
  5
B3
330
1
100
AcDbSymbolTableRecord
100
AcDbBlockTableRecord
  2
*D8
340
0
  0
BLOCK_RECORD
  5
BF
330
1
100
AcDbSymbolTableRecord
100
AcDbBlockTableRecord
  2
*D9
340
0
  0
BLOCK_RECORD
  5
CB
330
1
100
AcDbSymbolTableRecord
100
AcDbBlockTableRecord
  2
*D10
340
0
  0
BLOCK_RECORD
  5
D8
330
1
100
AcDbSymbolTableRecord
100
AcDbBlockTableRecord
  2
*D11
340
0
  0
BLOCK_RECORD
  5
E3
330
1
100
AcDbSymbolTableRecord
100
AcDbBlockTableRecord
  2
*D12
340
0
  0
BLOCK_RECORD
  5
EF
330
1
100
AcDbSymbolTableRecord
100
AcDbBlockTableRecord
  2
*D13
340
0
  0
BLOCK_RECORD
  5
FA
330
1
100
AcDbSymbolTableRecord
100
AcDbBlockTableRecord
  2
*D14
340
0
  0
BLOCK_RECORD
  5
105
330
1
100
AcDbSymbolTableRecord
100
AcDbBlockTableRecord
  2
*D15
340
0
  0
ENDTAB
  0
ENDSEC
  0
SECTION
  2
BLOCKS
  0
BLOCK
  5
20
330
1F
100
AcDbEntity
  8
0
100
AcDbBlockBegin
  2
*Model_Space
 70
     0
 10
0.0
 20
0.0
 30
0.0
  3
*Model_Space
  1

  0
ENDBLK
  5
21
330
1F
100
AcDbEntity
  8
0
100
AcDbBlockEnd
  0
BLOCK
  5
1C
330
1B
100
AcDbEntity
 67
     1
  8
0
100
AcDbBlockBegin
  2
*Paper_Space
 70
     0
 10
0.0
 20
0.0
 30
0.0
  3
*Paper_Space
  1

  0
ENDBLK
  5
1D
330
1B
100
AcDbEntity
 67
     1
  8
0
100
AcDbBlockEnd
  0
BLOCK
  5
24
330
23
100
AcDbEntity
  8
0
100
AcDbBlockBegin
  2
*Paper_Space0
 70
     0
 10
0.0
 20
0.0
 30
0.0
  3
*Paper_Space0
  1

  0
ENDBLK
  5
25
330
23
100
AcDbEntity
  8
0
100
AcDbBlockEnd
  0
BLOCK
  5
49
330
48
100
AcDbEntity
  8
0
100
AcDbBlockBegin
  2
HL19_ABS_10003_ABS
 70
     0
 10
51.25079106778881
 20
114.25
 30
0.0
  3
HL19_ABS_10003_ABS
  1

  0
LINE
  5
64
330
48
100
AcDbEntity
  8
1
  6
DOT_CENTER
 62
     2
100
AcDbLine
 10
56.68611518767364
 20
80.5
 30
0.0
 11
56.68611518767358
 21
114.3
 31
0.0
  0
LINE
  5
65
330
48
100
AcDbEntity
  8
1
  6
DOT_CENTER
 62
     2
100
AcDbLine
 10
56.68611518767347
 20
129.0
 30
0.0
 11
56.68611518767347
 21
114.8
 31
0.0
  0
LINE
  5
66
330
48
100
AcDbEntity
  8
1
  6
DOT_CENTER
 62
     2
100
AcDbLine
 10
47.18611518767347
 20
138.5
 30
0.0
 11
34.06546694790404
 21
138.5
 31
0.0
  0
LINE
  5
67
330
48
100
AcDbEntity
  8
0
  6
Continuous
 62
     7
100
AcDbLine
 10
47.93611518767358
 20
87.30000000000001
 30
0.0
 11
46.93611518767358
 21
93.80000000000001
 31
0.0
  0
LINE
  5
68
330
48
100
AcDbEntity
  8
0
  6
Continuous
 62
     7
100
AcDbLine
 10
47.68611518767358
 20
93.80000000000001
 30
0.0
 11
46.43611518767358
 21
100.8
 31
0.0
  0
LINE
  5
69
330
48
100
AcDbEntity
  8
0
  6
Continuous
 62
     7
100
AcDbLine
 10
47.18611518767347
 20
129.0
 30
0.0
 11
34.06546694790404
 21
129.0
 31
0.0
  0
LINE
  5
6A
330
48
100
AcDbEntity
  8
0
  6
Continuous
 62
     7
100
AcDbLine
 10
47.18611518767347
 20
148.0
 30
0.0
 11
34.06546694790404
 21
148.0
 31
0.0
  0
LINE
  5
6B
330
48
100
AcDbEntity
  8
0
  6
Continuous
 62
     3
100
AcDbLine
 10
47.18611518767347
 20
147.9131546299566
 30
0.0
 11
47.18611518767347
 21
129.0
 31
0.0
  0
LINE
  5
6C
330
48
100
AcDbEntity
  8
0
  6
Continuous
 62
     7
100
AcDbLine
 10
44.93611518767358
 20
114.3
 30
0.0
 11
46.68611518767347
 21
114.3
 31
0.0
  0
LINE
  5
6D
330
48
100
AcDbEntity
  8
0
  6
Continuous
 62
     7
100
AcDbLine
 10
66.18611518767358
 20
107.3
 30
0.0
 11
68.43611518767358
 21
114.3
 31
0.0
  0
LINE
  5
6E
330
48
100
AcDbEntity
  8
0
  6
Continuous
 62
     3
100
AcDbLine
 10
66.09926981763005
 20
129.0
 30
0.0
 11
47.18611518767347
 21
129.0
 31
0.0
  0
LINE
  5
6F
330
48
100
AcDbEntity
  8
0
  6
Continuous
 62
     7
100
AcDbLine
 10
46.68611518767347
 20
114.3
 30
0.0
 11
66.68611518767347
 21
114.3
 31
0.0
  0
LINE
  5
70
330
48
100
AcDbEntity
  8
0
  6
Continuous
 62
     7
100
AcDbLine
 10
66.68611518767347
 20
114.3
 30
0.0
 11
68.43611518767358
 21
114.3
 31
0.0
  0
LINE
  5
71
330
48
100
AcDbEntity
  8
0
  6
Continuous
 62
     7
100
AcDbLine
 10
66.18611518767347
 20
129.0
 30
0.0
 11
66.09926981763005
 21
129.0
 31
0.0
  0
LINE
  5
72
330
48
100
AcDbEntity
  8
0
  6
Continuous
 62
     3
100
AcDbLine
 10
65.68611518767347
 20
133.5
 30
0.0
 11
65.68611518767347
 21
132.7730357635849
 31
0.0
  0
LINE
  5
73
330
48
100
AcDbEntity
  8
0
  6
Continuous
 62
     3
100
AcDbLine
 10
51.68611518767347
 20
147.5
 30
0.0
 11
50.95915095125827
 21
147.5
 31
0.0
  0
LINE
  5
74
330
48
100
AcDbEntity
  8
0
  6
Continuous
 62
     3
100
AcDbLine
 10
51.68611518767347
 20
147.5
 30
0.0
 11
51.68611518767347
 21
148.0
 31
0.0
  0
LINE
  5
75
330
48
100
AcDbEntity
  8
0
  6
Continuous
 62
     3
100
AcDbLine
 10
65.68611518767347
 20
133.5
 30
0.0
 11
66.18611518767347
 21
133.5
 31
0.0
  0
LINE
  5
76
330
48
100
AcDbEntity
  8
0
  6
Continuous
 62
     7
100
AcDbLine
 10
51.68611518767347
 20
148.0
 30
0.0
 11
47.18611518767347
 21
148.0
 31
0.0
  0
LINE
  5
77
330
48
100
AcDbEntity
  8
0
  6
Continuous
 62
     7
100
AcDbLine
 10
47.18611518767347
 20
147.9131546299566
 30
0.0
 11
47.18611518767347
 21
148.0
 31
0.0
  0
LINE
  5
78
330
48
100
AcDbEntity
  8
0
  6
Continuous
 62
     7
100
AcDbLine
 10
48.17182947338796
 20
80.5
 30
0.0
 11
47.68611518767358
 21
87.30000000000001
 31
0.0
  0
LINE
  5
79
330
48
100
AcDbEntity
  8
0
  6
Continuous
 62
     7
100
AcDbLine
 10
65.43611518767358
 20
87.30000000000001
 30
0.0
 11
66.43611518767358
 21
93.80000000000001
 31
0.0
  0
LINE
  5
7A
330
48
100
AcDbEntity
  8
0
  6
Continuous
 62
     7
100
AcDbLine
 10
47.18611518767358
 20
107.3
 30
0.0
 11
44.93611518767358
 21
114.3
 31
0.0
  0
LINE
  5
7B
330
48
100
AcDbEntity
  8
0
  6
Continuous
 62
     7
100
AcDbLine
 10
65.93611518767358
 20
100.8
 30
0.0
 11
67.68611518767358
 21
107.3
 31
0.0
  0
LINE
  5
7C
330
48
100
AcDbEntity
  8
0
  6
Continuous
 62
     7
100
AcDbLine
 10
66.18611518767347
 20
129.0
 30
0.0
 11
66.18611518767347
 21
114.8
 31
0.0
  0
LINE
  5
7D
330
48
100
AcDbEntity
  8
0
  6
Continuous
 62
     3
100
AcDbLine
 10
47.18611518767347
 20
114.8
 30
0.0
 11
66.18611518767347
 21
114.8
 31
0.0
  0
LINE
  5
7E
330
48
100
AcDbEntity
  8
0
  6
Continuous
 62
     7
100
AcDbLine
 10
47.18611518767347
 20
129.0
 30
0.0
 11
47.18611518767347
 21
114.8
 31
0.0
  0
LINE
  5
7F
330
48
100
AcDbEntity
  8
0
  6
Continuous
 62
     7
100
AcDbLine
 10
45.68611518767358
 20
107.3
 30
0.0
 11
47.18611518767358
 21
107.3
 31
0.0
  0
LINE
  5
80
330
48
100
AcDbEntity
  8
0
  6
Continuous
 62
     7
100
AcDbLine
 10
47.18611518767358
 20
107.3
 30
0.0
 11
66.18611518767358
 21
107.3
 31
0.0
  0
LINE
  5
81
330
48
100
AcDbEntity
  8
0
  6
Continuous
 62
     7
100
AcDbLine
 10
66.18611518767358
 20
107.3
 30
0.0
 11
67.68611518767358
 21
107.3
 31
0.0
  0
LINE
  5
82
330
48
100
AcDbEntity
  8
0
  6
Continuous
 62
     7
100
AcDbLine
 10
65.68611518767358
 20
93.80000000000001
 30
0.0
 11
66.93611518767358
 21
100.8
 31
0.0
  0
LINE
  5
83
330
48
100
AcDbEntity
  8
0
  6
Continuous
 62
     7
100
AcDbLine
 10
47.43611518767358
 20
100.8
 30
0.0
 11
65.93611518767358
 21
100.8
 31
0.0
  0
LINE
  5
84
330
48
100
AcDbEntity
  8
0
  6
Continuous
 62
     7
100
AcDbLine
 10
65.93611518767358
 20
100.8
 30
0.0
 11
66.93611518767358
 21
100.8
 31
0.0
  0
LINE
  5
85
330
48
100
AcDbEntity
  8
0
  6
Continuous
 62
     7
100
AcDbLine
 10
47.43611518767358
 20
100.8
 30
0.0
 11
45.68611518767358
 21
107.3
 31
0.0
  0
LINE
  5
86
330
48
100
AcDbEntity
  8
0
  6
Continuous
 62
     7
100
AcDbLine
 10
46.43611518767358
 20
100.8
 30
0.0
 11
47.43611518767358
 21
100.8
 31
0.0
  0
LINE
  5
87
330
48
100
AcDbEntity
  8
0
  6
Continuous
 62
     7
100
AcDbLine
 10
46.93611518767358
 20
93.80000000000001
 30
0.0
 11
47.68611518767358
 21
93.80000000000001
 31
0.0
  0
LINE
  5
88
330
48
100
AcDbEntity
  8
0
  6
Continuous
 62
     7
100
AcDbLine
 10
47.68611518767358
 20
93.80000000000001
 30
0.0
 11
65.68611518767358
 21
93.80000000000001
 31
0.0
  0
LINE
  5
89
330
48
100
AcDbEntity
  8
0
  6
Continuous
 62
     7
100
AcDbLine
 10
65.68611518767358
 20
93.80000000000001
 30
0.0
 11
66.43611518767358
 21
93.80000000000001
 31
0.0
  0
LINE
  5
8A
330
48
100
AcDbEntity
  8
0
  6
Continuous
 62
     7
100
AcDbLine
 10
49.18611518767358
 20
80.5
 30
0.0
 11
64.18611518767358
 21
80.5
 31
0.0
  0
LINE
  5
8B
330
48
100
AcDbEntity
  8
0
  6
Continuous
 62
     7
100
AcDbLine
 10
64.18611518767358
 20
80.5
 30
0.0
 11
65.20040090195937
 21
80.5
 31
0.0
  0
LINE
  5
8C
330
48
100
AcDbEntity
  8
0
  6
Continuous
 62
     7
100
AcDbLine
 10
48.17182947338796
 20
80.5
 30
0.0
 11
49.18611518767358
 21
80.5
 31
0.0
  0
LINE
  5
8D
330
48
100
AcDbEntity
  8
0
  6
Continuous
 62
     7
100
AcDbLine
 10
47.93611518767358
 20
87.30000000000001
 30
0.0
 11
65.43611518767358
 21
87.30000000000001
 31
0.0
  0
LINE
  5
8E
330
48
100
AcDbEntity
  8
0
  6
Continuous
 62
     7
100
AcDbLine
 10
65.43611518767358
 20
87.30000000000001
 30
0.0
 11
65.68611518767358
 21
87.30000000000001
 31
0.0
  0
LINE
  5
8F
330
48
100
AcDbEntity
  8
0
  6
Continuous
 62
     7
100
AcDbLine
 10
47.68611518767358
 20
87.30000000000001
 30
0.0
 11
47.93611518767358
 21
87.30000000000001
 31
0.0
  0
LINE
  5
90
330
48
100
AcDbEntity
  8
0
  6
Continuous
 62
     7
100
AcDbLine
 10
65.20040090195937
 20
80.5
 30
0.0
 11
65.68611518767358
 21
87.30000000000001
 31
0.0
  0
LINE
  5
91
330
48
100
AcDbEntity
  8
0
  6
Continuous
 62
     7
100
AcDbLine
 10
66.18611518767347
 20
133.5
 30
0.0
 11
66.18611518767347
 21
129.0
 31
0.0
  0
ARC
  5
92
330
48
100
AcDbEntity
  8
0
  6
Continuous
 62
     7
100
AcDbCircle
 10
47.18611518767347
 20
129.0
 30
0.0
 40
18.88083151964686
100
AcDbArc
 50
11.52726336549516
 51
78.4727366345051
  0
ARC
  5
93
330
48
100
AcDbEntity
  8
0
  6
Continuous
 62
     7
100
AcDbCircle
 10
46.68611518767347
 20
114.8
 30
0.0
 40
0.5
100
AcDbArc
 50
270.0
 51
0.0
  0
ARC
  5
94
330
48
100
AcDbEntity
  8
0
  6
Continuous
 62
     7
100
AcDbCircle
 10
66.68611518767347
 20
114.8
 30
0.0
 40
0.5
100
AcDbArc
 50
180.0
 51
270.0
  0
ARC
  5
95
330
48
100
AcDbEntity
  8
0
  6
Continuous
 62
     7
100
AcDbCircle
 10
51.68611518767347
 20
133.5
 30
0.0
 40
14.49999999999999
100
AcDbArc
 50
0.0
 51
90.0
  0
ARC
  5
96
330
48
100
AcDbEntity
  8
0
  6
Continuous
 62
     3
100
AcDbCircle
 10
51.68611518767347
 20
133.5
 30
0.0
 40
13.99999999999999
100
AcDbArc
 50
0.0
 51
90.0
  0
SPLINE
  5
97
330
48
100
AcDbEntity
  8
0
  6
Continuous
 62
     7
100
AcDbSpline
210
0.0
220
0.0
230
1.0
 70
     8
 71
     3
 72
    15
 73
    11
 74
     9
 42
0.000000001
 43
0.0000000001
 44
0.00000001
 40
0.0
 40
0.0
 40
0.0
 40
0.0
 40
0.4439488647976277
 40
0.951127329879152
 40
1.397962045314617
 40
1.90001147174334
 40
2.391246916737677
 40
2.849526182425793
 40
3.338143426017274
 40
3.801863316338658
 40
3.801863316338658
 40
3.801863316338658
 40
3.801863316338658
 10
66.09926981763005
 20
129.0
 30
0.0
 10
66.09799869517278
 20
129.1479876402484
 30
0.0
 10
66.09527539476986
 20
129.4650401212568
 30
0.0
 10
66.07329576915731
 20
129.9306285233294
 30
0.0
 10
66.0377448572561
 20
130.4147136698661
 30
0.0
 10
65.98968531606918
 20
130.8924072923513
 30
0.0
 10
65.92895171657204
 20
131.3724857613778
 30
0.0
 10
65.8575405319593
 20
131.8465455926164
 30
0.0
 10
65.7779420842792
 20
132.3100199387688
 30
0.0
 10
65.716185986011
 20
132.6214107636663
 30
0.0
 10
65.68611518767347
 20
132.7730357635849
 30
0.0
 11
66.09926981763005
 21
129.0
 31
0.0
 11
66.09279175126063
 21
129.4439015989127
 31
0.0
 11
66.07000308432987
 21
129.9505678328623
 31
0.0
 11
66.037208457652
 21
130.3961974725044
 31
0.0
 11
65.98717557287137
 21
130.8957476075011
 31
0.0
 11
65.9255866069555
 21
131.3831068814773
 31
0.0
 11
65.85754483622134
 21
131.8363068405471
 31
0.0
 11
65.77442663731003
 21
132.3178026097467
 31
0.0
 11
65.68611518767347
 21
132.7730357635849
 31
0.0
  0
SPLINE
  5
98
330
48
100
AcDbEntity
  8
0
  6
Continuous
 62
     7
100
AcDbSpline
210
0.0
220
0.0
230
1.0
 70
     8
 71
     3
 72
    15
 73
    11
 74
     9
 42
0.000000001
 43
0.0000000001
 44
0.00000001
 40
0.0
 40
0.0
 40
0.0
 40
0.0
 40
0.4630613827634275
 40
0.9509492982054455
 40
1.409363257319787
 40
1.900728412138595
 40
2.378973089860144
 40
2.849384513720553
 40
3.357347376122293
 40
3.801863350846771
 40
3.801863350846771
 40
3.801863350846771
 40
3.801863350846771
 10
50.95915095125827
 20
147.5
 30
0.0
 10
50.80774151456002
 20
147.5300292551066
 30
0.0
 10
50.49680498596123
 20
147.5916977365531
 30
0.0
 10
50.03374626024692
 20
147.6712473463497
 30
0.0
 10
49.55984438377934
 20
147.742665256363
 30
0.0
 10
49.08755411080395
 20
147.8024423757715
 30
0.0
 10
48.60993299938683
 20
147.850819390428
 30
0.0
 10
48.12568387338775
 20
147.8867518226492
 30
0.0
 10
47.65179504622301
 20
147.9091486260284
 30
0.0
 10
47.33429192718355
 20
147.9118799466819
 30
0.0
 10
47.18611518767347
 20
147.9131546299566
 30
0.0
 11
50.95915095125827
 21
147.5
 31
0.0
 11
50.50456548358153
 21
147.5881923839997
 31
0.0
 11
50.02379224059087
 21
147.6712086888525
 31
0.0
 11
49.57046336653401
 21
147.7392989962647
 31
0.0
 11
49.08297910315537
 21
147.8009334717061
 31
0.0
 11
48.6071490271818
 21
147.8489304600258
 31
0.0
 11
48.13803220532446
 21
147.883806175569
 31
0.0
 11
47.63058371632128
 21
147.9066600835791
 31
0.0
 11
47.18611518767347
 21
147.9131546299566
 31
0.0
  0
ENDBLK
  5
4A
330
48
100
AcDbEntity
  8
0
100
AcDbBlockEnd
  0
BLOCK
  5
4D
330
4B
100
AcDbEntity
  8
0
100
AcDbBlockBegin
  2
HL19
 70
     0
 10
42.50079106778887
 20
118.9250000000008
 30
0.0
  3
HL19
  1

  0
INSERT
  5
4C
330
4B
100
AcDbEntity
  8
0
100
AcDbBlockReference
  2
HL19_ABS_10003_ABS
 10
51.25079106778881
 20
114.25
 30
0.0
  0
ENDBLK
  5
4E
330
4B
100
AcDbEntity
  8
0
100
AcDbBlockEnd
  0
BLOCK
  5
50
330
4F
100
AcDbEntity
  8
0
100
AcDbBlockBegin
  2
HL_410_Körper_Deckel
 70
     0
 10
0.00000000000003
 20
24.5
 30
0.0
  3
HL_410_Körper_Deckel
  1

  0
LINE
  5
99
330
4F
100
AcDbEntity
  8
1
  6
PHANTOM
 62
     2
100
AcDbLine
 10
0.00000000000003
 20
5.0
 30
0.0
 11
0.00000000000003
 21
47.5
 31
0.0
  0
LINE
  5
9A
330
4F
100
AcDbEntity
  8
LC-001-002-----0
  6
Continuous
 62
     7
100
AcDbLine
 10
20.0
 20
47.5
 30
0.0
 11
20.0
 21
5.0
 31
0.0
  0
LINE
  5
9B
330
4F
100
AcDbEntity
  8
1
  6
Continuous
 62
     7
100
AcDbLine
 10
20.0
 20
5.0
 30
0.0
 11
-19.99999999999994
 21
5.0
 31
0.0
  0
LINE
  5
9C
330
4F
100
AcDbEntity
  8
1
  6
Continuous
 62
     7
100
AcDbLine
 10
-19.06217782649099
 20
1.5
 30
0.0
 11
-19.99999999999994
 21
5.0
 31
0.0
  0
LINE
  5
9D
330
4F
100
AcDbEntity
  8
1
  6
Continuous
 62
     7
100
AcDbLine
 10
19.06217782649105
 20
1.5
 30
0.0
 11
20.0
 21
5.0
 31
0.0
  0
LINE
  5
9E
330
4F
100
AcDbEntity
  8
LC-001-002-----0
  6
Continuous
 62
     7
100
AcDbLine
 10
-19.99999999999994
 20
5.0
 30
0.0
 11
-19.99999999999994
 21
47.5
 31
0.0
  0
LINE
  5
9F
330
4F
100
AcDbEntity
  8
1
  6
Continuous
 62
     7
100
AcDbLine
 10
-19.06217782649099
 20
1.5
 30
0.0
 11
19.06217782649105
 21
1.5
 31
0.0
  0
ENDBLK
  5
51
330
4F
100
AcDbEntity
  8
0
100
AcDbBlockEnd
  0
BLOCK
  5
53
330
52
100
AcDbEntity
  8
0
100
AcDbBlockBegin
  2
HL_410_Abdeckkappe
 70
     0
 10
-1.82946199777166
 20
121.5
 30
0.0
  3
HL_410_Abdeckkappe
  1

  0
LINE
  5
A0
330
52
100
AcDbEntity
  8
1
  6
Continuous
 62
     7
100
AcDbLine
 10
16.4156542201266
 20
69.5
 30
0.0
 11
25.2914594216723
 21
69.5
 31
0.0
  0
LINE
  5
A1
330
52
100
AcDbEntity
  8
1
  6
Continuous
 62
     7
100
AcDbLine
 10
15.5046686481875
 20
70.94981676563043
 30
0.0
 11
-8.07669458170699
 21
194.0423108629992
 31
0.0
  0
LINE
  5
A2
330
52
100
AcDbEntity
  8
1
  6
Continuous
 62
     7
100
AcDbLine
 10
15.78241633717394
 20
67.9158550861456
 30
0.0
 11
15.78241633717394
 21
48.66239115852801
 31
0.0
  0
LINE
  5
A3
330
52
100
AcDbEntity
  8
1
  6
Continuous
 62
     7
100
AcDbLine
 10
16.56546694790416
 20
118.3499999999985
 30
0.0
 11
16.56546694790416
 21
159.5
 31
0.0
  0
LINE
  5
A4
330
52
100
AcDbEntity
  8
1
  6
Continuous
 62
     7
100
AcDbLine
 10
13.09561425165839
 20
159.5
 30
0.0
 11
16.56546694790416
 21
118.3499999999985
 31
0.0
  0
LINE
  5
A5
330
52
100
AcDbEntity
  8
1
  6
Continuous
 62
     7
100
AcDbLine
 10
7.50887835690742
 20
164.4581109339984
 30
0.0
 11
16.56546694790416
 21
117.5
 31
0.0
  0
LINE
  5
A6
330
52
100
AcDbEntity
  8
1
  6
Continuous
 62
     7
100
AcDbLine
 10
16.56546694790416
 20
117.5
 30
0.0
 11
16.56546694790416
 21
118.3499999999985
 31
0.0
  0
LINE
  5
A7
330
52
100
AcDbEntity
  8
1
  6
Continuous
 62
     7
100
AcDbLine
 10
-28.06955527164348
 20
47.5
 30
0.0
 11
21.81153643044718
 21
47.5
 31
0.0
  0
LINE
  5
A8
330
52
100
AcDbEntity
  8
1
  6
Continuous
 62
     7
100
AcDbLine
 10
16.56546694790416
 20
117.5
 30
0.0
 11
25.81153643044718
 21
69.5
 31
0.0
  0
LINE
  5
A9
330
52
100
AcDbEntity
  8
1
  6
Continuous
 62
     7
100
AcDbLine
 10
7.50887835690742
 20
164.4581109339984
 30
0.0
 11
3.46174262110901
 21
185.5837781320031
 31
0.0
  0
LINE
  5
AA
330
52
100
AcDbEntity
  8
1
  6
Continuous
 62
     7
100
AcDbLine
 10
-28.06955527164348
 20
195.5
 30
0.0
 11
-28.06955527164348
 21
49.5
 31
0.0
  0
LINE
  5
AB
330
52
100
AcDbEntity
  8
1
  6
Continuous
 62
     7
100
AcDbLine
 10
25.81153643044718
 20
51.5
 30
0.0
 11
25.81153643044718
 21
69.5
 31
0.0
  0
LINE
  5
AC
330
52
100
AcDbEntity
  8
1
  6
Continuous
 62
     7
100
AcDbLine
 10
-28.06955527164348
 20
49.5
 30
0.0
 11
-28.06955527164348
 21
47.5
 31
0.0
  0
LINE
  5
AD
330
52
100
AcDbEntity
  8
1
  6
Continuous
 62
     7
100
AcDbLine
 10
-28.06955527164348
 20
195.5
 30
0.0
 11
-8.35595041503746
 21
195.5
 31
0.0
  0
LINE
  5
AE
330
52
100
AcDbEntity
  8
1
  6
Continuous
 62
     7
100
AcDbLine
 10
13.09561425165839
 20
159.5
 30
0.0
 11
16.56546694790416
 21
159.5
 31
0.0
  0
LINE
  5
AF
330
52
100
AcDbEntity
  8
1
  6
DOT_CENTER
 62
     2
100
AcDbLine
 10
17.85165019733176
 20
138.5
 30
0.0
 11
-29.4704604259905
 21
138.5
 31
0.0
  0
ARC
  5
B0
330
52
100
AcDbEntity
  8
1
  6
Continuous
 62
     7
100
AcDbCircle
 10
21.81153643044718
 20
51.5
 30
0.0
 40
4.0
100
AcDbArc
 50
270.0
 51
0.0
  0
ARC
  5
B1
330
52
100
AcDbEntity
  8
1
  6
Continuous
 62
     7
100
AcDbCircle
 10
-8.35595041503746
 20
183.5
 30
0.0
 40
11.99999999999996
100
AcDbArc
 50
9.99999999999968
 51
90.0
  0
ARC
  5
B2
330
52
100
AcDbEntity
  8
1
  6
Continuous
 62
     7
100
AcDbCircle
 10
13.25666956331952
 20
165.3080617537214
 30
0.0
 40
5.810294325458574
100
AcDbArc
 50
188.4116171747568
 51
268.4116171747572
  0
ENDBLK
  5
54
330
52
100
AcDbEntity
  8
0
100
AcDbBlockEnd
  0
BLOCK
  5
59
330
55
100
AcDbEntity
  8
0
100
AcDbBlockBegin
  2
HL_410_Aufputz_Sifon
 70
     0
 10
18.98140414010745
 20
60.25276249731585
 30
0.0
  3
HL_410_Aufputz_Sifon
  1

  0
INSERT
  5
56
330
55
100
AcDbEntity
  8
0
100
AcDbBlockReference
  2
HL19
 10
42.50079106778887
 20
118.9250000000008
 30
0.0
  0
INSERT
  5
57
330
55
100
AcDbEntity
  8
1
100
AcDbBlockReference
  2
HL_410_Körper_Deckel
 10
0.00000000000003
 20
24.5
 30
0.0
  0
INSERT
  5
58
330
55
100
AcDbEntity
  8
1
100
AcDbBlockReference
  2
HL_410_Abdeckkappe
 10
-1.82946199777166
 20
121.5
 30
0.0
  0
DIMENSION
  5
BE
330
55
100
AcDbEntity
  8
1
100
AcDbDimension
  2
*D8
 10
-39.3233190868361
 20
47.5
 30
0.0
 11
-44.8233190868361
 21
22.4658809241798
 31
0.0
 70
    32
  1
<>
 71
     5
 42
-1.0
 53
90.0
  3
ME10_DIM_10
100
AcDbAlignedDimension
 13
-19.06217782649099
 23
1.5
 33
0.0
 14
-28.06955527164348
 24
47.5
 34
0.0
 50
90.0
100
AcDbRotatedDimension
  0
DIMENSION
  5
CA
330
55
100
AcDbEntity
  8
1
100
AcDbDimension
  2
*D9
 10
20.0
 20
-15.2196526605078
 30
0.0
 11
-46.56462988806959
 21
-9.7196526605078
 31
0.0
 70
    32
  1
<>
 71
     5
 42
-1.0
 53
0.00013888888889
  3
ME10_DIM_11
100
AcDbAlignedDimension
 13
-19.99999999999994
 23
5.0
 33
0.0
 14
20.0
 24
5.0
 34
0.0
100
AcDbRotatedDimension
  0
DIMENSION
  5
D7
330
55
100
AcDbEntity
  8
1
100
AcDbDimension
  2
*D10
 10
48.17182947338796
 20
48.2232178872725
 30
0.0
 11
90.1564110733469
 21
53.7232178872725
 31
0.0
 70
    32
  1
3/4"
 71
     5
 42
-1.0
 53
0.00013888888889
  3
ME10_DIM_12
100
AcDbAlignedDimension
 13
65.20040090195937
 23
80.5
 33
0.0
 14
48.17182947338796
 24
80.5
 34
0.0
100
AcDbRotatedDimension
  0
DIMENSION
  5
E2
330
55
100
AcDbEntity
  8
1
100
AcDbDimension
  2
*D11
 10
-28.06955527164348
 20
-72.9944750053683
 30
0.0
 11
16.56546694790416
 21
-67.4944750053683
 31
0.0
 70
    32
  1
85
 71
     5
 42
-1.0
 53
0.00013888888889
  3
ME10_DIM_13
100
AcDbAlignedDimension
 13
56.68611518767364
 23
80.5
 33
0.0
 14
-28.06955527164348
 24
49.5
 34
0.0
100
AcDbRotatedDimension
  0
DIMENSION
  5
EE
330
55
100
AcDbEntity
  8
1
100
AcDbDimension
  2
*D12
 10
-28.06955527164348
 20
-34.7434957440318
 30
0.0
 11
-14.0897194256729
 21
-29.2434957440318
 31
0.0
 70
    32
  1
<>
 71
     5
 42
-1.0
 53
0.00013888888889
  3
ME10_DIM_14
100
AcDbAlignedDimension
 13
0.00000000000003
 23
5.0
 33
0.0
 14
-28.06955527164348
 24
49.5
 34
0.0
100
AcDbRotatedDimension
  0
DIMENSION
  5
F9
330
55
100
AcDbEntity
  8
1
100
AcDbDimension
  2
*D13
 10
-28.06955527164348
 20
-51.5408091840241
 30
0.0
 11
-0.6622730144299
 21
-46.0408091840241
 31
0.0
 70
    32
  1
<>
 71
     5
 42
-1.0
 53
0.00013888888889
  3
ME10_DIM_15
100
AcDbAlignedDimension
 13
25.81153643044718
 23
51.5
 33
0.0
 14
-28.06955527164348
 24
49.5
 34
0.0
100
AcDbRotatedDimension
  0
DIMENSION
  5
104
330
55
100
AcDbEntity
  8
1
100
AcDbDimension
  2
*D14
 10
-39.4704604259905
 20
47.5
 30
0.0
 11
-44.9704604259905
 21
99.8144268041073
 31
0.0
 70
    32
  1
<>
 71
     5
 42
-1.0
 53
90.0
  3
ME10_DIM_16
100
AcDbAlignedDimension
 13
-29.4704604259905
 23
138.5
 33
0.0
 14
-28.06955527164348
 24
47.5
 34
0.0
 50
90.0
100
AcDbRotatedDimension
  0
DIMENSION
  5
10F
330
55
100
AcDbEntity
  8
1
100
AcDbDimension
  2
*D15
 10
-52.643602793132
 20
47.5
 30
0.0
 11
-58.143602793132
 21
127.107720080326
 31
0.0
 70
    32
  1
<>
 71
     5
 42
-1.0
 53
90.0
  3
ME10_DIM_17
100
AcDbAlignedDimension
 13
-28.06955527164348
 23
195.5
 33
0.0
 14
-28.06955527164348
 24
47.5
 34
0.0
 50
90.0
100
AcDbRotatedDimension
  0
ENDBLK
  5
5A
330
55
100
AcDbEntity
  8
0
100
AcDbBlockEnd
  0
BLOCK
  5
5C
330
5B
100
AcDbEntity
  8
0
100
AcDbBlockBegin
  2
Holländermutter_1
 70
     0
 10
25.3154669479041
 20
138.5
 30
0.0
  3
Holländermutter_1
  1

  0
LINE
  5
110
330
5B
100
AcDbEntity
  8
1
  6
DOT_CENTER
 62
     2
100
AcDbLine
 10
33.06546694790404
 20
138.5
 30
0.0
 11
29.56546694790393
 21
138.5
 31
0.0
  0
LINE
  5
111
330
5B
100
AcDbEntity
  8
0
  6
Continuous
 62
     7
100
AcDbLine
 10
28.76546694790386
 20
135.0
 30
0.0
 11
28.76546694790386
 21
142.0
 31
0.0
  0
LINE
  5
112
330
5B
100
AcDbEntity
  8
0
  6
Continuous
 62
     7
100
AcDbLine
 10
29.56546694790393
 20
135.0
 30
0.0
 11
28.76546694790386
 21
135.0
 31
0.0
  0
LINE
  5
113
330
5B
100
AcDbEntity
  8
0
  6
Continuous
 62
     7
100
AcDbLine
 10
29.56546694790393
 20
142.0
 30
0.0
 11
29.56546694790393
 21
135.0
 31
0.0
  0
LINE
  5
114
330
5B
100
AcDbEntity
  8
0
  6
Continuous
 62
     7
100
AcDbLine
 10
28.76546694790386
 20
142.0
 30
0.0
 11
29.56546694790393
 21
142.0
 31
0.0
  0
LINE
  5
115
330
5B
100
AcDbEntity
  8
0
  6
Continuous
 62
     7
100
AcDbLine
 10
29.56546694790393
 20
132.4990625625302
 30
0.0
 11
29.56546694790393
 21
126.4368847360392
 31
0.0
  0
LINE
  5
116
330
5B
100
AcDbEntity
  8
0
  6
Continuous
 62
     7
100
AcDbLine
 10
28.76546694790386
 20
126.0297638795107
 30
0.0
 11
28.76546694790386
 21
132.0919417060017
 31
0.0
  0
LINE
  5
117
330
5B
100
AcDbEntity
  8
0
  6
Continuous
 62
     7
100
AcDbLine
 10
33.06546694790404
 20
120.0999999999983
 30
0.0
 11
29.56546694790393
 21
120.0999999999983
 31
0.0
  0
LINE
  5
118
330
5B
100
AcDbEntity
  8
0
  6
Continuous
 62
     7
100
AcDbLine
 10
29.56546694790393
 20
120.4359472985694
 30
0.0
 11
29.56546694790393
 21
120.0999999999983
 31
0.0
  0
LINE
  5
119
330
5B
100
AcDbEntity
  8
0
  6
Continuous
 62
     7
100
AcDbLine
 10
29.56546694790393
 20
120.0999999999983
 30
0.0
 11
28.76546694790386
 21
119.2999999999981
 31
0.0
  0
LINE
  5
11A
330
5B
100
AcDbEntity
  8
0
  6
Continuous
 62
     7
100
AcDbLine
 10
28.76546694790386
 20
119.2999999999981
 30
0.0
 11
28.76546694790386
 21
119.6217055855124
 31
0.0
  0
LINE
  5
11B
330
5B
100
AcDbEntity
  8
0
  6
Continuous
 62
     7
100
AcDbLine
 10
29.56546694790393
 20
124.6060714652602
 30
0.0
 11
29.56546694790393
 21
121.1060714652602
 31
0.0
  0
LINE
  5
11C
330
5B
100
AcDbEntity
  8
0
  6
Continuous
 62
     7
100
AcDbLine
 10
28.76546694790386
 20
120.4009174569319
 30
0.0
 11
28.76546694790386
 21
123.9009174569319
 31
0.0
  0
LINE
  5
11D
330
5B
100
AcDbEntity
  8
0
  6
Continuous
 62
     7
100
AcDbLine
 10
29.56546694790393
 20
120.4359472985694
 30
0.0
 11
28.80523676330887
 21
120.4359472985694
 31
0.0
  0
LINE
  5
11E
330
5B
100
AcDbEntity
  8
0
  6
Continuous
 62
     7
100
AcDbLine
 10
19.06546694790404
 20
153.0990825430681
 30
0.0
 11
28.76546694790386
 21
153.0990825430681
 31
0.0
  0
LINE
  5
11F
330
5B
100
AcDbEntity
  8
0
  6
Continuous
 62
     7
100
AcDbLine
 10
19.06546694790404
 20
152.39392853474
 30
0.0
 11
19.06546694790404
 21
153.0990825430681
 31
0.0
  0
LINE
  5
120
330
5B
100
AcDbEntity
  8
0
  6
Continuous
 62
     7
100
AcDbLine
 10
29.56546694790393
 20
152.3939285347398
 30
0.0
 11
19.06546694790404
 21
152.39392853474
 31
0.0
  0
LINE
  5
121
330
5B
100
AcDbEntity
  8
0
  6
Continuous
 62
     7
100
AcDbLine
 10
19.06546694790404
 20
156.5990825430681
 30
0.0
 11
28.76546694790386
 21
156.5990825430681
 31
0.0
  0
LINE
  5
122
330
5B
100
AcDbEntity
  8
0
  6
Continuous
 62
     7
100
AcDbLine
 10
19.06546694790404
 20
153.0990825430681
 30
0.0
 11
19.06546694790404
 21
156.5990825430681
 31
0.0
  0
LINE
  5
123
330
5B
100
AcDbEntity
  8
0
  6
Continuous
 62
     7
100
AcDbLine
 10
19.06546694790404
 20
144.9080582939983
 30
0.0
 11
28.76546694790386
 21
144.9080582939983
 31
0.0
  0
LINE
  5
124
330
5B
100
AcDbEntity
  8
0
  6
Continuous
 62
     7
100
AcDbLine
 10
29.56546694790404
 20
144.5009374374698
 30
0.0
 11
19.06546694790404
 21
144.5009374374699
 31
0.0
  0
LINE
  5
125
330
5B
100
AcDbEntity
  8
0
  6
Continuous
 62
     7
100
AcDbLine
 10
19.06546694790404
 20
157.3782944144876
 30
0.0
 11
28.76546694790386
 21
157.3782944144876
 31
0.0
  0
LINE
  5
126
330
5B
100
AcDbEntity
  8
0
  6
Continuous
 62
     7
100
AcDbLine
 10
19.06546694790404
 20
156.5990825430681
 30
0.0
 11
19.06546694790404
 21
157.3782944144876
 31
0.0
  0
LINE
  5
127
330
5B
100
AcDbEntity
  8
0
  6
Continuous
 62
     7
100
AcDbLine
 10
19.06546694790404
 20
157.3782944144876
 30
0.0
 11
19.06546694790404
 21
157.7000000000019
 31
0.0
  0
LINE
  5
128
330
5B
100
AcDbEntity
  8
0
  6
Continuous
 62
     7
100
AcDbLine
 10
28.76546694790386
 20
157.7000000000019
 30
0.0
 11
19.06546694790404
 21
157.7000000000019
 31
0.0
  0
LINE
  5
129
330
5B
100
AcDbEntity
  8
0
  6
Continuous
 62
     7
100
AcDbLine
 10
19.06546694790404
 20
135.0
 30
0.0
 11
28.76546694790386
 21
135.0
 31
0.0
  0
LINE
  5
12A
330
5B
100
AcDbEntity
  8
0
  6
Continuous
 62
     7
100
AcDbLine
 10
19.06546694790404
 20
132.0919417060017
 30
0.0
 11
28.76546694790386
 21
132.0919417060017
 31
0.0
  0
LINE
  5
12B
330
5B
100
AcDbEntity
  8
0
  6
Continuous
 62
     7
100
AcDbLine
 10
19.06546694790404
 20
144.5009374374699
 30
0.0
 11
19.06546694790404
 21
144.9080582939983
 31
0.0
  0
LINE
  5
12C
330
5B
100
AcDbEntity
  8
0
  6
Continuous
 62
     7
100
AcDbLine
 10
19.06546694790404
 20
135.0
 30
0.0
 11
19.06546694790404
 21
142.0
 31
0.0
  0
LINE
  5
12D
330
5B
100
AcDbEntity
  8
0
  6
Continuous
 62
     7
100
AcDbLine
 10
19.06546694790404
 20
132.4990625625301
 30
0.0
 11
19.06546694790404
 21
135.0
 31
0.0
  0
LINE
  5
12E
330
5B
100
AcDbEntity
  8
0
  6
Continuous
 62
     7
100
AcDbLine
 10
19.06546694790404
 20
132.0919417060017
 30
0.0
 11
19.06546694790404
 21
132.4990625625301
 31
0.0
  0
LINE
  5
12F
330
5B
100
AcDbEntity
  8
0
  6
Continuous
 62
     7
100
AcDbLine
 10
19.06546694790404
 20
142.0
 30
0.0
 11
19.06546694790404
 21
144.5009374374699
 31
0.0
  0
LINE
  5
130
330
5B
100
AcDbEntity
  8
0
  6
Continuous
 62
     7
100
AcDbLine
 10
19.06546694790404
 20
142.0
 30
0.0
 11
28.76546694790386
 21
142.0
 31
0.0
  0
LINE
  5
131
330
5B
100
AcDbEntity
  8
0
  6
Continuous
 62
     7
100
AcDbLine
 10
19.06546694790404
 20
126.0297638795107
 30
0.0
 11
19.06546694790404
 21
132.0919417060017
 31
0.0
  0
LINE
  5
132
330
5B
100
AcDbEntity
  8
0
  6
Continuous
 62
     7
100
AcDbLine
 10
29.56546694790393
 20
132.4990625625302
 30
0.0
 11
19.06546694790404
 21
132.4990625625301
 31
0.0
  0
LINE
  5
133
330
5B
100
AcDbEntity
  8
0
  6
Continuous
 62
     7
100
AcDbLine
 10
19.06546694790404
 20
124.60607146526
 30
0.0
 11
19.06546694790404
 21
126.0297638795107
 31
0.0
  0
LINE
  5
134
330
5B
100
AcDbEntity
  8
0
  6
Continuous
 62
     7
100
AcDbLine
 10
29.56546694790393
 20
124.6060714652602
 30
0.0
 11
19.06546694790404
 21
124.60607146526
 31
0.0
  0
LINE
  5
135
330
5B
100
AcDbEntity
  8
0
  6
Continuous
 62
     7
100
AcDbLine
 10
19.06546694790404
 20
123.9009174569319
 30
0.0
 11
19.06546694790404
 21
124.60607146526
 31
0.0
  0
LINE
  5
136
330
5B
100
AcDbEntity
  8
0
  6
Continuous
 62
     7
100
AcDbLine
 10
19.06546694790404
 20
123.9009174569319
 30
0.0
 11
28.76546694790386
 21
123.9009174569319
 31
0.0
  0
LINE
  5
137
330
5B
100
AcDbEntity
  8
0
  6
Continuous
 62
     7
100
AcDbLine
 10
19.06546694790404
 20
120.4009174569319
 30
0.0
 11
28.76546694790386
 21
120.4009174569319
 31
0.0
  0
LINE
  5
138
330
5B
100
AcDbEntity
  8
0
  6
Continuous
 62
     7
100
AcDbLine
 10
19.06546694790404
 20
120.4009174569319
 30
0.0
 11
19.06546694790404
 21
123.9009174569319
 31
0.0
  0
LINE
  5
139
330
5B
100
AcDbEntity
  8
0
  6
Continuous
 62
     7
100
AcDbLine
 10
19.06546694790404
 20
144.9080582939983
 30
0.0
 11
19.06546694790404
 21
150.9702361204893
 31
0.0
  0
LINE
  5
13A
330
5B
100
AcDbEntity
  8
0
  6
Continuous
 62
     7
100
AcDbLine
 10
19.06546694790404
 20
150.9702361204893
 30
0.0
 11
19.06546694790404
 21
152.39392853474
 31
0.0
  0
LINE
  5
13B
330
5B
100
AcDbEntity
  8
0
  6
Continuous
 62
     7
100
AcDbLine
 10
19.06546694790404
 20
119.6217055855124
 30
0.0
 11
28.76546694790386
 21
119.6217055855124
 31
0.0
  0
LINE
  5
13C
330
5B
100
AcDbEntity
  8
0
  6
Continuous
 62
     7
100
AcDbLine
 10
19.06546694790404
 20
119.6217055855124
 30
0.0
 11
19.06546694790404
 21
120.4009174569319
 31
0.0
  0
LINE
  5
13D
330
5B
100
AcDbEntity
  8
0
  6
Continuous
 62
     7
100
AcDbLine
 10
19.06546694790404
 20
119.2999999999981
 30
0.0
 11
19.06546694790404
 21
119.6217055855124
 31
0.0
  0
LINE
  5
13E
330
5B
100
AcDbEntity
  8
0
  6
Continuous
 62
     7
100
AcDbLine
 10
28.76546694790386
 20
119.2999999999981
 30
0.0
 11
19.06546694790404
 21
119.2999999999981
 31
0.0
  0
LINE
  5
13F
330
5B
100
AcDbEntity
  8
0
  6
Continuous
 62
     7
100
AcDbLine
 10
16.56546694790416
 20
158.6500000000016
 30
0.0
 11
18.56546694790404
 21
158.6500000000016
 31
0.0
  0
LINE
  5
140
330
5B
100
AcDbEntity
  8
0
  6
Continuous
 62
     7
100
AcDbLine
 10
19.06546694790404
 20
126.0297638795107
 30
0.0
 11
28.76546694790386
 21
126.0297638795107
 31
0.0
  0
LINE
  5
141
330
5B
100
AcDbEntity
  8
0
  6
Continuous
 62
     7
100
AcDbLine
 10
19.06546694790404
 20
150.9702361204893
 30
0.0
 11
28.76546694790386
 21
150.9702361204893
 31
0.0
  0
LINE
  5
142
330
5B
100
AcDbEntity
  8
0
  6
Continuous
 62
     7
100
AcDbLine
 10
19.06546694790404
 20
157.7000000000019
 30
0.0
 11
19.06546694790416
 21
158.1500000000016
 31
0.0
  0
LINE
  5
143
330
5B
100
AcDbEntity
  8
0
  6
Continuous
 62
     7
100
AcDbLine
 10
16.56546694790416
 20
118.3499999999984
 30
0.0
 11
16.56546694790416
 21
158.6500000000016
 31
0.0
  0
LINE
  5
144
330
5B
100
AcDbEntity
  8
0
  6
Continuous
 62
     7
100
AcDbLine
 10
16.56546694790416
 20
118.3499999999984
 30
0.0
 11
18.56546694790404
 21
118.3499999999984
 31
0.0
  0
LINE
  5
145
330
5B
100
AcDbEntity
  8
0
  6
Continuous
 62
     3
100
AcDbLine
 10
18.56546694790404
 20
118.3499999999984
 30
0.0
 11
18.56546694790404
 21
158.6500000000016
 31
0.0
  0
LINE
  5
146
330
5B
100
AcDbEntity
  8
0
  6
Continuous
 62
     7
100
AcDbLine
 10
19.06546694790416
 20
118.8499999999984
 30
0.0
 11
19.06546694790404
 21
119.2999999999981
 31
0.0
  0
LINE
  5
147
330
5B
100
AcDbEntity
  8
0
  6
Continuous
 62
     3
100
AcDbLine
 10
33.06546694790404
 20
120.0999999999983
 30
0.0
 11
33.06546694790404
 21
156.9000000000017
 31
0.0
  0
LINE
  5
148
330
5B
100
AcDbEntity
  8
0
  6
Continuous
 62
     7
100
AcDbLine
 10
29.56546694790393
 20
156.9000000000017
 30
0.0
 11
28.76546694790386
 21
157.7000000000019
 31
0.0
  0
LINE
  5
149
330
5B
100
AcDbEntity
  8
0
  6
Continuous
 62
     7
100
AcDbLine
 10
28.76546694790386
 20
144.9080582939983
 30
0.0
 11
28.76546694790386
 21
150.9702361204893
 31
0.0
  0
LINE
  5
14A
330
5B
100
AcDbEntity
  8
0
  6
Continuous
 62
     7
100
AcDbLine
 10
29.56546694790393
 20
150.5631152639609
 30
0.0
 11
29.56546694790404
 21
144.5009374374698
 31
0.0
  0
LINE
  5
14B
330
5B
100
AcDbEntity
  8
0
  6
Continuous
 62
     7
100
AcDbLine
 10
29.56546694790393
 20
155.8939285347398
 30
0.0
 11
29.56546694790393
 21
152.3939285347398
 31
0.0
  0
LINE
  5
14C
330
5B
100
AcDbEntity
  8
0
  6
Continuous
 62
     7
100
AcDbLine
 10
28.76546694790386
 20
153.0990825430681
 30
0.0
 11
28.76546694790386
 21
156.5990825430681
 31
0.0
  0
LINE
  5
14D
330
5B
100
AcDbEntity
  8
0
  6
Continuous
 62
     7
100
AcDbLine
 10
29.56546694790404
 20
156.5640527014306
 30
0.0
 11
28.80523676330893
 21
156.5640527014306
 31
0.0
  0
LINE
  5
14E
330
5B
100
AcDbEntity
  8
0
  6
Continuous
 62
     7
100
AcDbLine
 10
29.56546694790393
 20
156.9000000000017
 30
0.0
 11
29.56546694790404
 21
156.5640527014306
 31
0.0
  0
LINE
  5
14F
330
5B
100
AcDbEntity
  8
0
  6
Continuous
 62
     7
100
AcDbLine
 10
28.76546694790386
 20
157.3782944144876
 30
0.0
 11
28.76546694790386
 21
157.7000000000019
 31
0.0
  0
LINE
  5
150
330
5B
100
AcDbEntity
  8
0
  6
Continuous
 62
     7
100
AcDbLine
 10
33.06546694790404
 20
156.9000000000017
 30
0.0
 11
29.56546694790393
 21
156.9000000000017
 31
0.0
  0
LINE
  5
151
330
5B
100
AcDbEntity
  8
0
  6
Continuous
 62
     7
100
AcDbLine
 10
34.06546694790404
 20
121.0999999999985
 30
0.0
 11
34.06546694790404
 21
155.9000000000015
 31
0.0
  0
ARC
  5
152
330
5B
100
AcDbEntity
  8
0
  6
Continuous
 62
     7
100
AcDbCircle
 10
33.06546694790416
 20
121.0999999999985
 30
0.0
 40
1.000000000000199
100
AcDbArc
 50
269.9999999999931
 51
0.0
  0
ARC
  5
153
330
5B
100
AcDbEntity
  8
0
  6
Continuous
 62
     7
100
AcDbCircle
 10
18.56546694790393
 20
158.1500000000016
 30
0.0
 40
0.5000000000002309
100
AcDbArc
 50
0.0
 51
89.99999999998738
  0
ARC
  5
154
330
5B
100
AcDbEntity
  8
0
  6
Continuous
 62
     7
100
AcDbCircle
 10
18.56546694790393
 20
118.8499999999984
 30
0.0
 40
0.5
100
AcDbArc
 50
270.0000000000126
 51
0.0
  0
ARC
  5
155
330
5B
100
AcDbEntity
  8
0
  6
Continuous
 62
     7
100
AcDbCircle
 10
33.06546694790416
 20
155.9000000000015
 30
0.0
 40
0.9999999999998792
100
AcDbArc
 50
0.0
 51
90.00000000000692
  0
SPLINE
  5
156
330
5B
100
AcDbEntity
  8
0
  6
Continuous
 62
     7
100
AcDbSpline
210
0.0
220
0.0
230
1.0
 70
     8
 71
     3
 72
    11
 73
     7
 74
     5
 42
0.000000001
 43
0.0000000001
 44
0.00000001
 40
0.0
 40
0.0
 40
0.0
 40
0.0
 40
0.2230022301571515
 40
0.4487652474512149
 40
0.6719485808333069
 40
0.897634344180935
 40
0.897634344180935
 40
0.897634344180935
 40
0.897634344180935
 10
29.56546694790404
 20
144.5009374374698
 30
0.0
 10
29.49922714480617
 20
144.5346693729864
 30
0.0
 10
29.36592747721535
 20
144.6025508349169
 30
0.0
 10
29.1663132764255
 20
144.7041505057275
 30
0.0
 10
28.96588838422432
 20
144.8061294016
 30
0.0
 10
28.83252193342652
 20
144.873955957417
 30
0.0
 10
28.76546694790386
 20
144.9080582939983
 30
0.0
 11
29.56546694790404
 21
144.5009374374698
 31
0.0
 11
29.36674408426077
 21
144.6021264592106
 31
0.0
 11
29.16554466834884
 21
144.7045361023852
 31
0.0
 11
28.96662862330959
 21
144.8057448338572
 31
0.0
 11
28.76546694790386
 21
144.9080582939983
 31
0.0
  0
SPLINE
  5
157
330
5B
100
AcDbEntity
  8
0
  6
Continuous
 62
     7
100
AcDbSpline
210
0.0
220
0.0
230
1.0
 70
     8
 71
     3
 72
    11
 73
     7
 74
     5
 42
0.000000001
 43
0.0000000001
 44
0.00000001
 40
0.0
 40
0.0
 40
0.0
 40
0.0
 40
0.2255148068539959
 40
0.4488690967297055
 40
0.6744035432072505
 40
0.8976343441808105
 40
0.8976343441808105
 40
0.8976343441808105
 40
0.8976343441808105
 10
28.76546694790386
 20
132.0919417060017
 30
0.0
 10
28.83247114035576
 20
132.1260182082845
 30
0.0
 10
28.96583759302244
 20
132.1938447604254
 30
0.0
 10
29.1661945851592
 20
132.2957890941976
 30
0.0
 10
29.36585957907818
 20
132.3974145991918
 30
0.0
 10
29.49915924951278
 20
132.4652960555396
 30
0.0
 10
29.56546694790393
 20
132.4990625625302
 30
0.0
 11
28.76546694790386
 21
132.0919417060017
 31
0.0
 11
28.96647624951892
 21
132.1941776525905
 31
0.0
 11
29.16554466834884
 21
132.2954638976148
 31
0.0
 11
29.36654039076562
 21
132.3977698413269
 31
0.0
 11
29.56546694790393
 21
132.4990625625302
 31
0.0
  0
SPLINE
  5
158
330
5B
100
AcDbEntity
  8
0
  6
Continuous
 62
     7
100
AcDbSpline
210
0.0
220
0.0
230
1.0
 70
     8
 71
     3
 72
    11
 73
     7
 74
     5
 42
0.000000001
 43
0.0000000001
 44
0.00000001
 40
0.0
 40
0.0
 40
0.0
 40
0.0
 40
0.2230956807259906
 40
0.4487652474511593
 40
0.6720731253701229
 40
0.897634344180823
 40
0.897634344180823
 40
0.897634344180823
 40
0.897634344180823
 10
29.56546694790393
 20
126.4368847360392
 30
0.0
 10
29.49919938599355
 20
126.4031386660733
 30
0.0
 10
29.3658997172335
 20
126.3352572064382
 30
0.0
 10
29.16624851527796
 20
126.2336387102158
 30
0.0
 10
28.96585138200918
 20
126.1316739485575
 30
0.0
 10
28.8324849298587
 20
126.0638473954012
 30
0.0
 10
28.76546694790386
 20
126.0297638795107
 30
0.0
 11
29.56546694790393
 21
126.4368847360392
 31
0.0
 11
29.36666080472039
 21
126.3356533170456
 31
0.0
 11
29.16554466834884
 21
126.2332860711237
 31
0.0
 11
28.96651761656958
 21
126.1320208697887
 31
0.0
 11
28.76546694790386
 21
126.0297638795107
 31
0.0
  0
SPLINE
  5
159
330
5B
100
AcDbEntity
  8
0
  6
Continuous
 62
     7
100
AcDbSpline
210
0.0
220
0.0
230
1.0
 70
     8
 71
     3
 72
    11
 73
     7
 74
     5
 42
0.000000001
 43
0.0000000001
 44
0.00000001
 40
0.0
 40
0.0
 40
0.0
 40
0.0
 40
0.2680954855453533
 40
0.5332223103200973
 40
0.8013480840978102
 40
1.066415597479899
 40
1.066415597479899
 40
1.066415597479899
 40
1.066415597479899
 10
28.76546694790386
 20
123.9009174569319
 30
0.0
 10
28.83252551461425
 20
123.9599875918053
 30
0.0
 10
28.96590008877429
 20
124.0774737804713
 30
0.0
 10
29.16629934966536
 20
124.2540838302365
 30
0.0
 10
29.36591281051707
 20
124.4300589573263
 30
0.0
 10
29.49920374631991
 20
124.547625402566
 30
0.0
 10
29.56546694790393
 20
124.6060714652602
 30
0.0
 11
28.76546694790386
 21
123.9009174569319
 31
0.0
 11
28.96663567227579
 21
124.0781357790794
 31
0.0
 11
29.16554466834884
 21
124.2534282332734
 31
0.0
 11
29.36666999594121
 21
124.4307416088711
 31
0.0
 11
29.56546694790393
 21
124.6060714652602
 31
0.0
  0
SPLINE
  5
15A
330
5B
100
AcDbEntity
  8
0
  6
Continuous
 62
     7
100
AcDbSpline
210
0.0
220
0.0
230
1.0
 70
     8
 71
     3
 72
    11
 73
     7
 74
     5
 42
0.000000001
 43
0.0000000001
 44
0.00000001
 40
0.0
 40
0.0
 40
0.0
 40
0.0
 40
0.2653193058669689
 40
0.533193287159778
 40
0.7984327801838278
 40
1.066415597479862
 40
1.066415597479862
 40
1.066415597479862
 40
1.066415597479862
 10
29.56546694790393
 20
121.1060714652602
 30
0.0
 10
29.49914079890814
 20
121.0475698867352
 30
0.0
 10
29.36584985751818
 20
120.9300034478279
 30
0.0
 10
29.16620821002492
 20
120.7540035019375
 30
0.0
 10
28.96587191048009
 20
120.5774489521968
 30
0.0
 10
28.83249733409204
 20
120.459962766061
 30
0.0
 10
28.76546694790386
 20
120.4009174569319
 30
0.0
 11
29.56546694790393
 21
121.1060714652602
 31
0.0
 11
29.36648113866973
 21
120.9305750784322
 31
0.0
 11
29.16554466834884
 21
120.7534282332734
 31
0.0
 11
28.96655113707172
 21
120.5780612946261
 31
0.0
 11
28.76546694790386
 21
120.4009174569319
 31
0.0
  0
SPLINE
  5
15B
330
5B
100
AcDbEntity
  8
0
  6
Continuous
 62
     7
100
AcDbSpline
210
0.0
220
0.0
230
1.0
 70
     8
 71
     3
 72
    11
 73
     7
 74
     5
 42
0.000000001
 43
0.0000000001
 44
0.00000001
 40
0.0
 40
0.0
 40
0.0
 40
0.0
 40
0.2868366591028391
 40
0.5707427748940472
 40
0.85748165907797
 40
1.141485710262748
 40
1.141485710262748
 40
1.141485710262748
 40
1.141485710262748
 10
28.76546694790386
 20
119.6217055855124
 30
0.0
 10
28.83249791778644
 20
119.6898858296598
 30
0.0
 10
28.96587500708786
 20
119.8255497467686
 30
0.0
 10
29.16621198693227
 20
120.0294180748681
 30
0.0
 10
29.36585392837398
 20
120.2326456075094
 30
0.0
 10
29.49914217102969
 20
120.3683968915183
 30
0.0
 10
29.56546694790393
 20
120.4359472985694
 30
0.0
 11
28.76546694790386
 21
119.6217055855124
 31
0.0
 11
28.96655174667761
 21
119.8262542904896
 31
0.0
 11
29.16554466834884
 21
120.0287499687385
 31
0.0
 11
29.36648405028167
 21
120.2333044907923
 31
0.0
 11
29.56546694790393
 21
120.4359472985694
 31
0.0
  0
SPLINE
  5
15C
330
5B
100
AcDbEntity
  8
0
  6
Continuous
 62
     7
100
AcDbSpline
210
0.0
220
0.0
230
1.0
 70
     8
 71
     3
 72
    11
 73
     7
 74
     5
 42
0.000000001
 43
0.0000000001
 44
0.00000001
 40
0.0
 40
0.0
 40
0.0
 40
0.0
 40
0.2837144120552434
 40
0.5707429353687958
 40
0.8546705606086535
 40
1.141485710262864
 40
1.141485710262864
 40
1.141485710262864
 40
1.141485710262864
 10
29.56546694790404
 20
156.5640527014306
 30
0.0
 10
29.4992098152517
 20
156.6315342211658
 30
0.0
 10
29.36592157954763
 20
156.767285511998
 30
0.0
 10
29.16627463244865
 20
156.9705181779053
 30
0.0
 10
28.9658699811128
 20
157.1744553665318
 30
0.0
 10
28.83249289142809
 20
157.3101192832637
 30
0.0
 10
28.76546694790386
 20
157.3782944144876
 30
0.0
 11
29.56546694790404
 21
156.5640527014306
 31
0.0
 11
29.36668700180145
 21
156.7664888657785
 31
0.0
 11
29.16554466834884
 21
156.9712500312615
 31
0.0
 11
28.96653666904185
 21
157.1737610496957
 31
0.0
 11
28.76546694790386
 21
157.3782944144876
 31
0.0
  0
SPLINE
  5
15D
330
5B
100
AcDbEntity
  8
0
  6
Continuous
 62
     7
100
AcDbSpline
210
0.0
220
0.0
230
1.0
 70
     8
 71
     3
 72
    11
 73
     7
 74
     5
 42
0.000000001
 43
0.0000000001
 44
0.00000001
 40
0.0
 40
0.0
 40
0.0
 40
0.0
 40
0.2678763810305731
 40
0.5332223103200758
 40
0.8014552245829438
 40
1.066415597479878
 40
1.066415597479878
 40
1.066415597479878
 40
1.066415597479878
 10
28.76546694790386
 20
156.5990825430681
 30
0.0
 10
28.83247071224502
 20
156.5400606864305
 30
0.0
 10
28.96584529060912
 20
156.4225745025386
 30
0.0
 10
29.16627135822335
 20
156.2459408550209
 30
0.0
 10
29.36593959762834
 20
156.0699174226717
 30
0.0
 10
29.49923053110994
 20
155.9523509748012
 30
0.0
 10
29.56546694790393
 20
155.8939285347398
 30
0.0
 11
28.76546694790386
 21
156.5990825430681
 31
0.0
 11
28.96647127773178
 21
156.4220090698857
 31
0.0
 11
29.16554466834884
 21
156.2465717667266
 31
0.0
 11
29.36675035678813
 21
156.0691875305761
 31
0.0
 11
29.56546694790393
 21
155.8939285347398
 31
0.0
  0
SPLINE
  5
15E
330
5B
100
AcDbEntity
  8
0
  6
Continuous
 62
     7
100
AcDbSpline
210
0.0
220
0.0
230
1.0
 70
     8
 71
     3
 72
    11
 73
     7
 74
     5
 42
0.000000001
 43
0.0000000001
 44
0.00000001
 40
0.0
 40
0.0
 40
0.0
 40
0.0
 40
0.2650771053919694
 40
0.5331932871597918
 40
0.798274690605751
 40
1.066415597479893
 40
1.066415597479893
 40
1.066415597479893
 40
1.066415597479893
 10
29.56546694790393
 20
152.3939285347398
 30
0.0
 10
29.49920134834977
 20
152.4523767123102
 30
0.0
 10
29.36591041234459
 20
152.5699431573204
 30
0.0
 10
29.16630830808198
 20
152.7459082713737
 30
0.0
 10
28.96591144867038
 20
152.9225162102435
 30
0.0
 10
28.8325368753845
 20
153.0400023999023
 30
0.0
 10
28.76546694790386
 20
153.0990825430681
 30
0.0
 11
29.56546694790393
 21
152.3939285347398
 31
0.0
 11
29.36666280144264
 21
152.5692647350903
 31
0.0
 11
29.16554466834884
 21
152.7465717667266
 31
0.0
 11
28.96666975198447
 21
152.9218341930904
 31
0.0
 11
28.76546694790386
 21
153.0990825430681
 31
0.0
  0
SPLINE
  5
15F
330
5B
100
AcDbEntity
  8
0
  6
Continuous
 62
     7
100
AcDbSpline
210
0.0
220
0.0
230
1.0
 70
     8
 71
     3
 72
    11
 73
     7
 74
     5
 42
0.000000001
 43
0.0000000001
 44
0.00000001
 40
0.0
 40
0.0
 40
0.0
 40
0.0
 40
0.2257255359652141
 40
0.4488690967296709
 40
0.674551638960705
 40
0.8976343441807827
 40
0.8976343441807827
 40
0.8976343441807827
 40
0.8976343441807827
 10
28.76546694790386
 20
150.9702361204893
 30
0.0
 10
28.83253375032033
 20
150.936127773636
 30
0.0
 10
28.96590020069958
 20
150.8683012169959
 30
0.0
 10
29.16630118334816
 20
150.7663344831576
 30
0.0
 10
29.36590357170166
 20
150.6647408313794
 30
0.0
 10
29.49920324028194
 20
150.5968593713914
 30
0.0
 10
29.56546694790393
 20
150.5631152639609
 30
0.0
 11
28.76546694790386
 21
150.9702361204893
 31
0.0
 11
28.96666407270472
 21
150.867904627004
 31
0.0
 11
29.16554466834884
 21
150.7667139288763
 31
0.0
 11
29.36667236799062
 21
150.6643407961441
 31
0.0
 11
29.56546694790393
 21
150.5631152639609
 31
0.0
  0
ENDBLK
  5
5D
330
5B
100
AcDbEntity
  8
0
100
AcDbBlockEnd
  0
BLOCK
  5
5F
330
5E
100
AcDbEntity
  8
0
100
AcDbBlockBegin
  2
Dichtstopfen
 70
     0
 10
55.43611518767358
 20
79.85000000000002
 30
0.0
  3
Dichtstopfen
  1

  0
LINE
  5
160
330
5E
100
AcDbEntity
  8
0
  6
Continuous
 62
     7
100
AcDbLine
 10
49.18611518767358
 20
80.5
 30
0.0
 11
64.18611518767358
 21
80.5
 31
0.0
  0
LINE
  5
161
330
5E
100
AcDbEntity
  8
0
  6
Continuous
 62
     7
100
AcDbLine
 10
64.18611518767358
 20
80.5
 30
0.0
 11
65.20040090195937
 21
80.5
 31
0.0
  0
LINE
  5
162
330
5E
100
AcDbEntity
  8
0
  6
Continuous
 62
     7
100
AcDbLine
 10
48.17182947338796
 20
80.5
 30
0.0
 11
49.18611518767358
 21
80.5
 31
0.0
  0
LINE
  5
163
330
5E
100
AcDbEntity
  8
0
  6
Continuous
 62
     7
100
AcDbLine
 10
65.20040090195937
 20
80.5
 30
0.0
 11
66.18611518767358
 21
80.5
 31
0.0
  0
LINE
  5
164
330
5E
100
AcDbEntity
  8
0
  6
Continuous
 62
     7
100
AcDbLine
 10
44.68611518767358
 20
80.5
 30
0.0
 11
48.17182947338796
 21
80.5
 31
0.0
  0
LINE
  5
165
330
5E
100
AcDbEntity
  8
0
  6
Continuous
 62
     7
100
AcDbLine
 10
66.18611518767358
 20
79.20000000000005
 30
0.0
 11
66.18611518767358
 21
80.5
 31
0.0
  0
LINE
  5
166
330
5E
100
AcDbEntity
  8
0
  6
Continuous
 62
     7
100
AcDbLine
 10
44.68611518767358
 20
79.20000000000005
 30
0.0
 11
44.68611518767358
 21
80.5
 31
0.0
  0
LINE
  5
167
330
5E
100
AcDbEntity
  8
0
  6
Continuous
 62
     7
100
AcDbLine
 10
44.68611518767358
 20
79.20000000000005
 30
0.0
 11
66.18611518767358
 21
79.20000000000005
 31
0.0
  0
ENDBLK
  5
60
330
5E
100
AcDbEntity
  8
0
100
AcDbBlockEnd
  0
BLOCK
  5
BB
330
B3
100
AcDbEntity
  8
0
100
AcDbBlockBegin
  2
*D8
 70
     1
 10
0.0
 20
0.0
 30
0.0
  3
*D8
  1

  0
LINE
  5
B4
330
B3
100
AcDbEntity
  8
1
  6
Continuous
 62
     4
100
AcDbLine
 10
-39.3233190868361
 20
47.5
 30
0.0
 11
-39.3233190868361
 21
1.5
 31
0.0
  0
LINE
  5
B5
330
B3
100
AcDbEntity
  8
1
  6
Continuous
 62
     4
100
AcDbLine
 10
-19.06217782649099
 20
1.5
 30
0.0
 11
-41.3233190868361
 21
1.5
 31
0.0
  0
LINE
  5
B6
330
B3
100
AcDbEntity
  8
1
  6
Continuous
 62
     4
100
AcDbLine
 10
-28.06955527164348
 20
47.5
 30
0.0
 11
-41.3233190868361
 21
47.5
 31
0.0
  0
SOLID
  5
B7
330
B3
100
AcDbEntity
  8
1
 62
     4
100
AcDbTrace
 10
-38.40175160372434
 20
40.5
 30
0.0
 11
-40.24488656994787
 21
40.5
 31
0.0
 12
-39.3233190868361
 22
47.5
 32
0.0
 13
-39.3233190868361
 23
47.5
 33
0.0
  0
SOLID
  5
B8
330
B3
100
AcDbEntity
  8
1
 62
     4
100
AcDbTrace
 10
-40.24488656994787
 20
8.5
 30
0.0
 11
-38.40175160372433
 21
8.5
 31
0.0
 12
-39.3233190868361
 22
1.5
 32
0.0
 13
-39.3233190868361
 23
1.5
 33
0.0
  0
MTEXT
  5
BA
330
B3
100
AcDbEntity
  8
1
 62
     1
100
AcDbMText
 10
-41.3233190868361
 20
17.2158809241798
 30
0.0
 40
7.0
 41
0.0
 71
     7
 72
     1
  1
46
  7
CONVERTER_11
 11
0.0
 21
1.0
 31
0.0
 73
     1
 44
0.60024009603842
  0
ENDBLK
  5
BC
330
B3
100
AcDbEntity
  8
0
100
AcDbBlockEnd
  0
BLOCK
  5
C7
330
BF
100
AcDbEntity
  8
0
100
AcDbBlockBegin
  2
*D9
 70
     1
 10
0.0
 20
0.0
 30
0.0
  3
*D9
  1

  0
LINE
  5
C0
330
BF
100
AcDbEntity
  8
1
  6
Continuous
 62
     4
100
AcDbLine
 10
-19.99999999999994
 20
-15.2196526605078
 30
0.0
 11
-59.51462988806959
 21
-15.2196526605078
 31
0.0
  0
LINE
  5
C1
330
BF
100
AcDbEntity
  8
1
  6
Continuous
 62
     4
100
AcDbLine
 10
20.0
 20
-15.2196526605078
 30
0.0
 11
-19.99999999999994
 21
-15.2196526605078
 31
0.0
  0
LINE
  5
C2
330
BF
100
AcDbEntity
  8
1
  6
Continuous
 62
     4
100
AcDbLine
 10
-19.99999999999994
 20
5.0
 30
0.0
 11
-19.99999999999994
 21
-17.2196526605078
 31
0.0
  0
LINE
  5
C3
330
BF
100
AcDbEntity
  8
1
  6
Continuous
 62
     4
100
AcDbLine
 10
20.0
 20
5.0
 30
0.0
 11
20.0
 21
-17.2196526605078
 31
0.0
  0
SOLID
  5
C4
330
BF
100
AcDbEntity
  8
1
 62
     4
100
AcDbTrace
 10
13.0
 20
-16.14122014361957
 30
0.0
 11
13.0
 21
-14.29808517739603
 31
0.0
 12
20.0
 22
-15.2196526605078
 32
0.0
 13
20.0
 23
-15.2196526605078
 33
0.0
  0
SOLID
  5
C5
330
BF
100
AcDbEntity
  8
1
 62
     4
100
AcDbTrace
 10
-12.99999999999994
 20
-14.29808517739603
 30
0.0
 11
-12.99999999999994
 21
-16.14122014361957
 31
0.0
 12
-19.99999999999994
 22
-15.2196526605078
 32
0.0
 13
-19.99999999999994
 23
-15.2196526605078
 33
0.0
  0
MTEXT
  5
C6
330
BF
100
AcDbEntity
  8
1
 62
     1
100
AcDbMText
 10
-55.59462988803585
 20
-13.21968048881309
 30
0.0
 40
7.0
 41
0.0
 71
     7
 72
     1
  1
\C1;DN\C1;40
  7
CONVERTER_11
 11
0.9999999999970619
 21
2.424068405545306E-6
 31
0.0
 73
     1
 44
0.60024009603842
  0
ENDBLK
  5
C8
330
BF
100
AcDbEntity
  8
0
100
AcDbBlockEnd
  0
BLOCK
  5
D4
330
CB
100
AcDbEntity
  8
0
100
AcDbBlockBegin
  2
*D10
 70
     1
 10
0.0
 20
0.0
 30
0.0
  3
*D10
  1

  0
LINE
  5
CC
330
CB
100
AcDbEntity
  8
1
  6
Continuous
 62
     4
100
AcDbLine
 10
34.17182947338796
 20
48.2232178872725
 30
0.0
 11
48.17182947338796
 21
48.2232178872725
 31
0.0
  0
LINE
  5
CD
330
CB
100
AcDbEntity
  8
1
  6
Continuous
 62
     4
100
AcDbLine
 10
48.17182947338796
 20
48.2232178872725
 30
0.0
 11
65.20040090195937
 21
48.2232178872725
 31
0.0
  0
LINE
  5
CE
330
CB
100
AcDbEntity
  8
1
  6
Continuous
 62
     4
100
AcDbLine
 10
65.20040090195937
 20
48.2232178872725
 30
0.0
 11
99.6064110733469
 21
48.2232178872725
 31
0.0
  0
LINE
  5
CF
330
CB
100
AcDbEntity
  8
1
  6
Continuous
 62
     4
100
AcDbLine
 10
48.17182947338796
 20
80.5
 30
0.0
 11
48.17182947338796
 21
46.2232178872725
 31
0.0
  0
LINE
  5
D0
330
CB
100
AcDbEntity
  8
1
  6
Continuous
 62
     4
100
AcDbLine
 10
65.20040090195937
 20
80.5
 30
0.0
 11
65.20040090195937
 21
46.2232178872725
 31
0.0
  0
SOLID
  5
D1
330
CB
100
AcDbEntity
  8
1
 62
     4
100
AcDbTrace
 10
41.17182947338796
 20
47.30165040416072
 30
0.0
 11
41.17182947338796
 21
49.14478537038427
 31
0.0
 12
48.17182947338796
 22
48.2232178872725
 32
0.0
 13
48.17182947338796
 23
48.2232178872725
 33
0.0
  0
SOLID
  5
D2
330
CB
100
AcDbEntity
  8
1
 62
     4
100
AcDbTrace
 10
72.20040090195937
 20
49.14478537038427
 30
0.0
 11
72.20040090195937
 21
47.30165040416072
 31
0.0
 12
65.20040090195937
 22
48.2232178872725
 32
0.0
 13
65.20040090195937
 23
48.2232178872725
 33
0.0
  0
MTEXT
  5
D3
330
CB
100
AcDbEntity
  8
1
 62
     1
100
AcDbMText
 10
80.7064110733469
 20
50.2232178872725
 30
0.0
 40
7.0
 41
0.0
 71
     7
 72
     1
  1
3/4"
  7
CONVERTER_11
 11
0.9999999999970619
 21
2.424068405545306E-6
 31
0.0
 73
     1
 44
0.60024009603842
  0
ENDBLK
  5
D5
330
CB
100
AcDbEntity
  8
0
100
AcDbBlockEnd
  0
BLOCK
  5
DF
330
D8
100
AcDbEntity
  8
0
100
AcDbBlockBegin
  2
*D11
 70
     1
 10
0.0
 20
0.0
 30
0.0
  3
*D11
  1

  0
LINE
  5
D9
330
D8
100
AcDbEntity
  8
1
  6
Continuous
 62
     4
100
AcDbLine
 10
-28.06955527164348
 20
-72.9944750053683
 30
0.0
 11
56.68611518767364
 21
-72.9944750053683
 31
0.0
  0
LINE
  5
DA
330
D8
100
AcDbEntity
  8
1
  6
Continuous
 62
     4
100
AcDbLine
 10
-28.06955527164348
 20
49.5
 30
0.0
 11
-28.06955527164348
 21
-74.9944750053683
 31
0.0
  0
LINE
  5
DB
330
D8
100
AcDbEntity
  8
1
  6
Continuous
 62
     4
100
AcDbLine
 10
56.68611518767364
 20
80.49999999999999
 30
0.0
 11
56.68611518767364
 21
-74.9944750053683
 31
0.0
  0
SOLID
  5
DC
330
D8
100
AcDbEntity
  8
1
 62
     4
100
AcDbTrace
 10
-21.06955527164348
 20
-72.07290752225653
 30
0.0
 11
-21.06955527164348
 21
-73.91604248848007
 31
0.0
 12
-28.06955527164348
 22
-72.9944750053683
 32
0.0
 13
-28.06955527164348
 23
-72.9944750053683
 33
0.0
  0
SOLID
  5
DD
330
D8
100
AcDbEntity
  8
1
 62
     4
100
AcDbTrace
 10
49.68611518767364
 20
-73.91604248848007
 30
0.0
 11
49.68611518767364
 21
-72.07290752225653
 31
0.0
 12
56.68611518767364
 22
-72.9944750053683
 32
0.0
 13
56.68611518767364
 23
-72.9944750053683
 33
0.0
  0
MTEXT
  5
DE
330
D8
100
AcDbEntity
  8
1
 62
     1
100
AcDbMText
 10
11.31546694790416
 20
-70.9944750053683
 30
0.0
 40
7.0
 41
0.0
 71
     7
 72
     1
  1
85
  7
CONVERTER_11
 11
0.9999999999970619
 21
2.424068405545306E-6
 31
0.0
 73
     1
 44
0.60024009603842
  0
ENDBLK
  5
E0
330
D8
100
AcDbEntity
  8
0
100
AcDbBlockEnd
  0
BLOCK
  5
EB
330
E3
100
AcDbEntity
  8
0
100
AcDbBlockBegin
  2
*D12
 70
     1
 10
0.0
 20
0.0
 30
0.0
  3
*D12
  1

  0
LINE
  5
E4
330
E3
100
AcDbEntity
  8
1
  6
Continuous
 62
     4
100
AcDbLine
 10
-28.06955527164348
 20
-34.7434957440318
 30
0.0
 11
0.00000000000003
 21
-34.7434957440318
 31
0.0
  0
LINE
  5
E5
330
E3
100
AcDbEntity
  8
1
  6
Continuous
 62
     4
100
AcDbLine
 10
0.00000000000003
 20
5.0
 30
0.0
 11
0.00000000000003
 21
-12.49953825116979
 31
0.0
  0
LINE
  5
E6
330
E3
100
AcDbEntity
  8
1
  6
Continuous
 62
     4
100
AcDbLine
 10
0.00000000000003
 20
-20.2283266265944
 30
0.0
 11
0.00000000000003
 21
-36.7434957440318
 31
0.0
  0
LINE
  5
E7
330
E3
100
AcDbEntity
  8
1
  6
Continuous
 62
     4
100
AcDbLine
 10
-28.06955527164348
 20
49.5
 30
0.0
 11
-28.06955527164348
 21
-36.7434957440318
 31
0.0
  0
SOLID
  5
E8
330
E3
100
AcDbEntity
  8
1
 62
     4
100
AcDbTrace
 10
-21.06955527164348
 20
-33.82192826092003
 30
0.0
 11
-21.06955527164348
 21
-35.66506322714358
 31
0.0
 12
-28.06955527164348
 22
-34.7434957440318
 32
0.0
 13
-28.06955527164348
 23
-34.7434957440318
 33
0.0
  0
SOLID
  5
E9
330
E3
100
AcDbEntity
  8
1
 62
     4
100
AcDbTrace
 10
-6.99999999999997
 20
-35.66506322714358
 30
0.0
 11
-6.99999999999997
 21
-33.82192826092003
 31
0.0
 12
0.00000000000003
 22
-34.7434957440318
 32
0.0
 13
0.00000000000003
 23
-34.7434957440318
 33
0.0
  0
MTEXT
  5
EA
330
E3
100
AcDbEntity
  8
1
 62
     1
100
AcDbMText
 10
-19.3397194256729
 20
-32.7434957440318
 30
0.0
 40
7.0
 41
0.0
 71
     7
 72
     1
  1
28
  7
CONVERTER_11
 11
0.9999999999970619
 21
2.424068405545306E-6
 31
0.0
 73
     1
 44
0.60024009603842
  0
ENDBLK
  5
EC
330
E3
100
AcDbEntity
  8
0
100
AcDbBlockEnd
  0
BLOCK
  5
F6
330
EF
100
AcDbEntity
  8
0
100
AcDbBlockBegin
  2
*D13
 70
     1
 10
0.0
 20
0.0
 30
0.0
  3
*D13
  1

  0
LINE
  5
F0
330
EF
100
AcDbEntity
  8
1
  6
Continuous
 62
     4
100
AcDbLine
 10
-28.06955527164348
 20
-51.5408091840241
 30
0.0
 11
25.81153643044718
 21
-51.5408091840241
 31
0.0
  0
LINE
  5
F1
330
EF
100
AcDbEntity
  8
1
  6
Continuous
 62
     4
100
AcDbLine
 10
25.81153643044718
 20
51.5
 30
0.0
 11
25.81153643044718
 21
-53.5408091840241
 31
0.0
  0
LINE
  5
F2
330
EF
100
AcDbEntity
  8
1
  6
Continuous
 62
     4
100
AcDbLine
 10
-28.06955527164348
 20
49.5
 30
0.0
 11
-28.06955527164348
 21
-53.5408091840241
 31
0.0
  0
SOLID
  5
F3
330
EF
100
AcDbEntity
  8
1
 62
     4
100
AcDbTrace
 10
-21.06955527164348
 20
-50.61924170091233
 30
0.0
 11
-21.06955527164348
 21
-52.46237666713587
 31
0.0
 12
-28.06955527164348
 22
-51.5408091840241
 32
0.0
 13
-28.06955527164348
 23
-51.5408091840241
 33
0.0
  0
SOLID
  5
F4
330
EF
100
AcDbEntity
  8
1
 62
     4
100
AcDbTrace
 10
18.81153643044718
 20
-52.46237666713587
 30
0.0
 11
18.81153643044718
 21
-50.61924170091233
 31
0.0
 12
25.81153643044718
 22
-51.5408091840241
 32
0.0
 13
25.81153643044718
 23
-51.5408091840241
 33
0.0
  0
MTEXT
  5
F5
330
EF
100
AcDbEntity
  8
1
 62
     1
100
AcDbMText
 10
-5.9122730144299
 20
-49.5408091840241
 30
0.0
 40
7.0
 41
0.0
 71
     7
 72
     1
  1
54
  7
CONVERTER_11
 11
0.9999999999970619
 21
2.424068405545306E-6
 31
0.0
 73
     1
 44
0.60024009603842
  0
ENDBLK
  5
F7
330
EF
100
AcDbEntity
  8
0
100
AcDbBlockEnd
  0
BLOCK
  5
101
330
FA
100
AcDbEntity
  8
0
100
AcDbBlockBegin
  2
*D14
 70
     1
 10
0.0
 20
0.0
 30
0.0
  3
*D14
  1

  0
LINE
  5
FB
330
FA
100
AcDbEntity
  8
1
  6
Continuous
 62
     4
100
AcDbLine
 10
-39.4704604259905
 20
47.5
 30
0.0
 11
-39.4704604259905
 21
138.5
 31
0.0
  0
LINE
  5
FC
330
FA
100
AcDbEntity
  8
1
  6
Continuous
 62
     4
100
AcDbLine
 10
-29.4704604259905
 20
138.5
 30
0.0
 11
-41.4704604259905
 21
138.5
 31
0.0
  0
LINE
  5
FD
330
FA
100
AcDbEntity
  8
1
  6
Continuous
 62
     4
100
AcDbLine
 10
-28.06955527164348
 20
47.5
 30
0.0
 11
-41.4704604259905
 21
47.5
 31
0.0
  0
SOLID
  5
FE
330
FA
100
AcDbEntity
  8
1
 62
     4
100
AcDbTrace
 10
-40.39202790910227
 20
54.5
 30
0.0
 11
-38.54889294287873
 21
54.5
 31
0.0
 12
-39.4704604259905
 22
47.5
 32
0.0
 13
-39.4704604259905
 23
47.5
 33
0.0
  0
SOLID
  5
FF
330
FA
100
AcDbEntity
  8
1
 62
     4
100
AcDbTrace
 10
-38.54889294287874
 20
131.5
 30
0.0
 11
-40.39202790910227
 21
131.5
 31
0.0
 12
-39.4704604259905
 22
138.5
 32
0.0
 13
-39.4704604259905
 23
138.5
 33
0.0
  0
MTEXT
  5
100
330
FA
100
AcDbEntity
  8
1
 62
     1
100
AcDbMText
 10
-41.4704604259905
 20
95.6144268041073
 30
0.0
 40
7.0
 41
0.0
 71
     7
 72
     1
  1
91
  7
CONVERTER_11
 11
0.0
 21
1.0
 31
0.0
 73
     1
 44
0.60024009603842
  0
ENDBLK
  5
102
330
FA
100
AcDbEntity
  8
0
100
AcDbBlockEnd
  0
BLOCK
  5
10C
330
105
100
AcDbEntity
  8
0
100
AcDbBlockBegin
  2
*D15
 70
     1
 10
0.0
 20
0.0
 30
0.0
  3
*D15
  1

  0
LINE
  5
106
330
105
100
AcDbEntity
  8
1
  6
Continuous
 62
     4
100
AcDbLine
 10
-52.643602793132
 20
47.5
 30
0.0
 11
-52.643602793132
 21
195.5
 31
0.0
  0
LINE
  5
107
330
105
100
AcDbEntity
  8
1
  6
Continuous
 62
     4
100
AcDbLine
 10
-28.06955527164348
 20
195.5
 30
0.0
 11
-54.643602793132
 21
195.5
 31
0.0
  0
LINE
  5
108
330
105
100
AcDbEntity
  8
1
  6
Continuous
 62
     4
100
AcDbLine
 10
-28.06955527164348
 20
47.5
 30
0.0
 11
-54.643602793132
 21
47.5
 31
0.0
  0
SOLID
  5
109
330
105
100
AcDbEntity
  8
1
 62
     4
100
AcDbTrace
 10
-53.56517027624377
 20
54.5
 30
0.0
 11
-51.72203531002022
 21
54.5
 31
0.0
 12
-52.643602793132
 22
47.5
 32
0.0
 13
-52.643602793132
 23
47.5
 33
0.0
  0
SOLID
  5
10A
330
105
100
AcDbEntity
  8
1
 62
     4
100
AcDbTrace
 10
-51.72203531002023
 20
188.5
 30
0.0
 11
-53.56517027624377
 21
188.5
 31
0.0
 12
-52.643602793132
 22
195.5
 32
0.0
 13
-52.643602793132
 23
195.5
 33
0.0
  0
MTEXT
  5
10B
330
105
100
AcDbEntity
  8
1
 62
     1
100
AcDbMText
 10
-54.643602793132
 20
119.757720080326
 30
0.0
 40
7.0
 41
0.0
 71
     7
 72
     1
  1
148
  7
CONVERTER_11
 11
0.0
 21
1.0
 31
0.0
 73
     1
 44
0.60024009603842
  0
ENDBLK
  5
10D
330
105
100
AcDbEntity
  8
0
100
AcDbBlockEnd
  0
ENDSEC
  0
SECTION
  2
ENTITIES
  0
INSERT
  5
61
330
1F
100
AcDbEntity
  8
0
100
AcDbBlockReference
  2
HL_410_Aufputz_Sifon
 10
18.98140414010745
 20
60.25276249731585
 30
0.0
  0
INSERT
  5
62
330
1F
100
AcDbEntity
  8
0
100
AcDbBlockReference
  2
Holländermutter_1
 10
25.3154669479041
 20
138.5
 30
0.0
  0
INSERT
  5
63
330
1F
100
AcDbEntity
  8
0
100
AcDbBlockReference
  2
Dichtstopfen
 10
55.43611518767358
 20
79.85000000000002
 30
0.0
  0
ENDSEC
  0
SECTION
  2
OBJECTS
  0
DICTIONARY
  5
C
330
0
100
AcDbDictionary
281
     1
  3
ACAD_GROUP
350
D
  3
ACAD_LAYOUT
350
1A
  3
ACAD_MATERIAL
350
3B
  3
ACAD_MLEADERSTYLE
350
16A
  3
ACAD_MLINESTYLE
350
17
  3
ACAD_PLOTSETTINGS
350
19
  3
ACAD_PLOTSTYLENAME
350
E
  3
ACAD_VISUALSTYLE
350
2A
  3
AcDbVariableDictionary
350
168
  0
DICTIONARY
  5
D
102
{ACAD_REACTORS
330
C
102
}
330
C
100
AcDbDictionary
281
     1
  0
DICTIONARY
  5
1A
102
{ACAD_REACTORS
330
C
102
}
330
C
100
AcDbDictionary
281
     1
  3
Layout1
350
1E
  3
Layout2
350
26
  3
Model
350
22
  0
DICTIONARY
  5
3B
102
{ACAD_REACTORS
330
C
102
}
330
C
100
AcDbDictionary
281
     1
  3
ByBlock
350
3D
  3
ByLayer
350
3C
  3
Global
350
3E
  0
DICTIONARY
  5
16A
102
{ACAD_REACTORS
330
C
102
}
330
C
100
AcDbDictionary
281
     1
  0
DICTIONARY
  5
17
102
{ACAD_REACTORS
330
C
102
}
330
C
100
AcDbDictionary
281
     1
  3
Standard
350
18
  0
DICTIONARY
  5
19
102
{ACAD_REACTORS
330
C
102
}
330
C
100
AcDbDictionary
281
     1
  0
ACDBDICTIONARYWDFLT
  5
E
102
{ACAD_REACTORS
330
C
102
}
330
C
100
AcDbDictionary
281
     1
  3
Normal
350
F
100
AcDbDictionaryWithDefault
340
F
  0
DICTIONARY
  5
2A
102
{ACAD_REACTORS
330
C
102
}
330
C
100
AcDbDictionary
281
     1
  3
2dWireframe
350
2F
  3
3D Hidden
350
31
  3
3dWireframe
350
30
  3
Basic
350
32
  3
Brighten
350
36
  3
ColorChange
350
3A
  3
Conceptual
350
34
  3
Dim
350
35
  3
Facepattern
350
39
  3
Flat
350
2B
  3
FlatWithEdges
350
2C
  3
Gouraud
350
2D
  3
GouraudWithEdges
350
2E
  3
Linepattern
350
38
  3
Realistic
350
33
  3
Thicken
350
37
  0
DICTIONARY
  5
168
102
{ACAD_REACTORS
330
C
102
}
330
C
100
AcDbDictionary
281
     1
  3
DIMASSOC
350
16B
  3
HIDETEXT
350
16C
  0
LAYOUT
  5
1E
102
{ACAD_REACTORS
330
1A
102
}
330
1A
100
AcDbPlotSettings
  1

  2
none_device
  4

  6

 40
0.0
 41
0.0
 42
0.0
 43
0.0
 44
0.0
 45
0.0
 46
0.0
 47
0.0
 48
0.0
 49
0.0
140
0.0
141
0.0
142
1.0
143
1.0
 70
   688
 72
     0
 73
     0
 74
     5
  7

 75
    16
147
1.0
148
0.0
149
0.0
100
AcDbLayout
  1
Layout1
 70
     1
 71
     1
 10
0.0
 20
0.0
 11
12.0
 21
9.0
 12
0.0
 22
0.0
 32
0.0
 14
1.00000000000000E+20
 24
1.00000000000000E+20
 34
1.00000000000000E+20
 15
-1.00000000000000E+20
 25
-1.00000000000000E+20
 35
-1.00000000000000E+20
146
0.0
 13
0.0
 23
0.0
 33
0.0
 16
1.0
 26
0.0
 36
0.0
 17
0.0
 27
1.0
 37
0.0
 76
     0
330
1B
  0
LAYOUT
  5
26
102
{ACAD_REACTORS
330
1A
102
}
330
1A
100
AcDbPlotSettings
  1

  2
none_device
  4

  6

 40
0.0
 41
0.0
 42
0.0
 43
0.0
 44
0.0
 45
0.0
 46
0.0
 47
0.0
 48
0.0
 49
0.0
140
0.0
141
0.0
142
1.0
143
1.0
 70
   688
 72
     0
 73
     0
 74
     5
  7

 75
    16
147
1.0
148
0.0
149
0.0
100
AcDbLayout
  1
Layout2
 70
     1
 71
     2
 10
0.0
 20
0.0
 11
0.0
 21
0.0
 12
0.0
 22
0.0
 32
0.0
 14
0.0
 24
0.0
 34
0.0
 15
0.0
 25
0.0
 35
0.0
146
0.0
 13
0.0
 23
0.0
 33
0.0
 16
1.0
 26
0.0
 36
0.0
 17
0.0
 27
1.0
 37
0.0
 76
     0
330
23
  0
LAYOUT
  5
22
102
{ACAD_REACTORS
330
1A
102
}
330
1A
100
AcDbPlotSettings
  1

  2
none_device
  4

  6

 40
0.0
 41
0.0
 42
0.0
 43
0.0
 44
0.0
 45
0.0
 46
0.0
 47
0.0
 48
0.0
 49
0.0
140
0.0
141
0.0
142
1.0
143
1.0
 70
  1712
 72
     0
 73
     0
 74
     0
  7

 75
     0
147
1.0
148
0.0
149
0.0
100
AcDbLayout
  1
Model
 70
     1
 71
     0
 10
0.0
 20
0.0
 11
12.0
 21
9.0
 12
0.0
 22
0.0
 32
0.0
 14
-61.643602793132
 24
-74.9944750053683
 34
0.0
 15
99.6064110733469
 25
195.5
 35
0.0
146
0.0
 13
0.0
 23
0.0
 33
0.0
 16
1.0
 26
0.0
 36
0.0
 17
0.0
 27
1.0
 37
0.0
 76
     0
330
1F
331
29
  0
MATERIAL
  5
3D
102
{ACAD_REACTORS
330
3B
102
}
102
{ACAD_XDICTIONARY
360
18F
102
}
330
3B
100
AcDbMaterial
  1
ByBlock
  0
MATERIAL
  5
3C
102
{ACAD_REACTORS
330
3B
102
}
102
{ACAD_XDICTIONARY
360
18D
102
}
330
3B
100
AcDbMaterial
  1
ByLayer
  0
MATERIAL
  5
3E
102
{ACAD_REACTORS
330
3B
102
}
102
{ACAD_XDICTIONARY
360
191
102
}
330
3B
100
AcDbMaterial
  1
Global
  0
MLINESTYLE
  5
18
102
{ACAD_REACTORS
330
17
102
}
330
17
100
AcDbMlineStyle
  2
Standard
 70
     0
  3

 62
   256
 51
90.0
 52
90.0
 71
     2
 49
0.5
 62
   256
  6
BYLAYER
 49
-0.5
 62
   256
  6
BYLAYER
  0
ACDBPLACEHOLDER
  5
F
102
{ACAD_REACTORS
330
E
102
}
330
E
  0
VISUALSTYLE
  5
2F
102
{ACAD_REACTORS
330
2A
102
}
102
{ACAD_XDICTIONARY
360
175
102
}
330
2A
100
AcDbVisualStyle
  2
2dWireframe
 70
     4
 71
     0
 72
     2
 73
     0
 90
        0
 40
-0.6
 41
-30.0
 62
     5
 63
     7
 74
     1
 91
        4
 64
     7
 65
   257
 75
     1
175
     1
 42
1.0
 92
        0
 66
   257
 43
1.0
 76
     1
 77
     6
 78
     2
 67
     7
 79
     5
170
     0
171
     0
290
     0
174
     0
 93
        1
 44
0.0
173
     0
291
     0
 45
0.0
1001
ACAD
1000
AcDbSavedByObjectVersion
1070
     0
  0
VISUALSTYLE
  5
31
102
{ACAD_REACTORS
330
2A
102
}
102
{ACAD_XDICTIONARY
360
179
102
}
330
2A
100
AcDbVisualStyle
  2
3D Hidden
 70
     6
 71
     1
 72
     2
 73
     2
 90
        0
 40
-0.6
 41
-30.0
 62
     5
 63
     7
 74
     2
 91
        2
 64
     7
 65
   257
 75
     2
175
     1
 42
40.0
 92
        0
 66
   257
 43
1.0
 76
     1
 77
     6
 78
     2
 67
     7
 79
     3
170
     0
171
     0
290
     0
174
     0
 93
        1
 44
0.0
173
     0
291
     0
 45
0.0
1001
ACAD
1000
AcDbSavedByObjectVersion
1070
     0
  0
VISUALSTYLE
  5
30
102
{ACAD_REACTORS
330
2A
102
}
102
{ACAD_XDICTIONARY
360
177
102
}
330
2A
100
AcDbVisualStyle
  2
3dWireframe
 70
     5
 71
     0
 72
     2
 73
     0
 90
        0
 40
-0.6
 41
-30.0
 62
     5
 63
     7
 74
     1
 91
        4
 64
     7
 65
   257
 75
     1
175
     1
 42
1.0
 92
        0
 66
   257
 43
1.0
 76
     1
 77
     6
 78
     2
 67
     7
 79
     5
170
     0
171
     0
290
     0
174
     0
 93
        1
 44
0.0
173
     0
291
     0
 45
0.0
1001
ACAD
1000
AcDbSavedByObjectVersion
1070
     0
  0
VISUALSTYLE
  5
32
102
{ACAD_REACTORS
330
2A
102
}
102
{ACAD_XDICTIONARY
360
17B
102
}
330
2A
100
AcDbVisualStyle
  2
Basic
 70
     7
 71
     1
 72
     0
 73
     1
 90
        0
 40
-0.6
 41
-30.0
 62
     5
 63
     7
 74
     0
 91
        4
 64
     7
 65
   257
 75
     1
175
     1
 42
1.0
 92
        8
 66
     7
 43
1.0
 76
     1
 77
     6
 78
     2
 67
     7
 79
     5
170
     0
171
     0
290
     0
174
     0
 93
        1
 44
0.0
173
     0
291
     1
 45
0.0
1001
ACAD
1000
AcDbSavedByObjectVersion
1070
     0
  0
VISUALSTYLE
  5
36
102
{ACAD_REACTORS
330
2A
102
}
102
{ACAD_XDICTIONARY
360
183
102
}
330
2A
100
AcDbVisualStyle
  2
Brighten
 70
    12
 71
     2
 72
     2
 73
     0
 90
        0
 40
-0.6
 41
-30.0
 62
     5
 63
     7
 74
     1
 91
        4
 64
     7
 65
   257
 75
     1
175
     1
 42
1.0
 92
        8
 66
     7
 43
1.0
 76
     1
 77
     6
 78
     2
 67
     7
 79
     5
170
     0
171
     0
290
     0
174
     0
 93
        1
 44
50.0
173
     0
291
     1
 45
0.0
1001
ACAD
1000
AcDbSavedByObjectVersion
1070
     0
  0
VISUALSTYLE
  5
3A
102
{ACAD_REACTORS
330
2A
102
}
102
{ACAD_XDICTIONARY
360
18B
102
}
330
2A
100
AcDbVisualStyle
  2
ColorChange
 70
    16
 71
     2
 72
     2
 73
     3
 90
        0
 40
-0.6
 41
-30.0
 62
     5
 63
     8
 74
     1
 91
        4
 64
     7
 65
   257
 75
     1
175
     1
 42
1.0
 92
        8
 66
     8
 43
1.0
 76
     1
 77
     6
 78
     2
 67
     7
 79
     5
170
     0
171
     0
290
     0
174
     0
 93
        1
 44
0.0
173
     0
291
     1
 45
0.0
1001
ACAD
1000
AcDbSavedByObjectVersion
1070
     0
  0
VISUALSTYLE
  5
34
102
{ACAD_REACTORS
330
2A
102
}
102
{ACAD_XDICTIONARY
360
17F
102
}
330
2A
100
AcDbVisualStyle
  2
Conceptual
 70
     9
 71
     3
 72
     2
 73
     0
 90
        0
 40
-0.6
 41
-30.0
 62
     5
 63
     7
 74
     2
 91
        2
 64
     7
 65
   257
 75
     1
175
     1
 42
40.0
 92
        8
 66
     7
 43
1.0
 76
     1
 77
     6
 78
     2
 67
     7
 79
     3
170
     0
171
     0
290
     0
174
     0
 93
        1
 44
0.0
173
     0
291
     0
 45
0.0
1001
ACAD
1000
AcDbSavedByObjectVersion
1070
     0
  0
VISUALSTYLE
  5
35
102
{ACAD_REACTORS
330
2A
102
}
102
{ACAD_XDICTIONARY
360
181
102
}
330
2A
100
AcDbVisualStyle
  2
Dim
 70
    11
 71
     2
 72
     2
 73
     0
 90
        0
 40
-0.6
 41
-30.0
 62
     5
 63
     7
 74
     1
 91
        4
 64
     7
 65
   257
 75
     1
175
     1
 42
1.0
 92
        8
 66
     7
 43
1.0
 76
     1
 77
     6
 78
     2
 67
     7
 79
     5
170
     0
171
     0
290
     0
174
     0
 93
        1
 44
-50.0
173
     0
291
     1
 45
0.0
1001
ACAD
1000
AcDbSavedByObjectVersion
1070
     0
  0
VISUALSTYLE
  5
39
102
{ACAD_REACTORS
330
2A
102
}
102
{ACAD_XDICTIONARY
360
189
102
}
330
2A
100
AcDbVisualStyle
  2
Facepattern
 70
    15
 71
     2
 72
     2
 73
     0
 90
        0
 40
-0.6
 41
-30.0
 62
     5
 63
     7
 74
     1
 91
        4
 64
     7
 65
   257
 75
     1
175
     1
 42
1.0
 92
        8
 66
     7
 43
1.0
 76
     1
 77
     6
 78
     2
 67
     7
 79
     5
170
     0
171
     0
290
     0
174
     0
 93
        1
 44
0.0
173
     0
291
     1
 45
0.0
1001
ACAD
1000
AcDbSavedByObjectVersion
1070
     0
  0
VISUALSTYLE
  5
2B
102
{ACAD_REACTORS
330
2A
102
}
102
{ACAD_XDICTIONARY
360
16D
102
}
330
2A
100
AcDbVisualStyle
  2
Flat
 70
     0
 71
     2
 72
     1
 73
     1
 90
        2
 40
-0.6
 41
30.0
 62
     5
 63
     7
 74
     0
 91
        4
 64
     7
 65
   257
 75
     1
175
     1
 42
1.0
 92
        8
 66
     7
 43
1.0
 76
     1
 77
     6
 78
     2
 67
     7
 79
     5
170
     0
171
     0
290
     0
174
     0
 93
       13
 44
0.0
173
     0
291
     1
 45
0.0
1001
ACAD
1000
AcDbSavedByObjectVersion
1070
     0
  0
VISUALSTYLE
  5
2C
102
{ACAD_REACTORS
330
2A
102
}
102
{ACAD_XDICTIONARY
360
16F
102
}
330
2A
100
AcDbVisualStyle
  2
FlatWithEdges
 70
     1
 71
     2
 72
     1
 73
     1
 90
        2
 40
-0.6
 41
30.0
 62
     5
 63
     7
 74
     1
 91
        4
 64
     7
 65
   257
 75
     1
175
     1
 42
1.0
 92
        0
 66
   257
 43
1.0
 76
     1
 77
     6
 78
     2
 67
     7
 79
     5
170
     0
171
     0
290
     0
174
     0
 93
       13
 44
0.0
173
     0
291
     1
 45
0.0
1001
ACAD
1000
AcDbSavedByObjectVersion
1070
     0
  0
VISUALSTYLE
  5
2D
102
{ACAD_REACTORS
330
2A
102
}
102
{ACAD_XDICTIONARY
360
171
102
}
330
2A
100
AcDbVisualStyle
  2
Gouraud
 70
     2
 71
     2
 72
     2
 73
     1
 90
        2
 40
-0.6
 41
30.0
 62
     5
 63
     7
 74
     0
 91
        4
 64
     7
 65
   257
 75
     1
175
     1
 42
1.0
 92
        0
 66
     7
 43
1.0
 76
     1
 77
     6
 78
     2
 67
     7
 79
     5
170
     0
171
     0
290
     0
174
     0
 93
       13
 44
0.0
173
     0
291
     1
 45
0.0
1001
ACAD
1000
AcDbSavedByObjectVersion
1070
     0
  0
VISUALSTYLE
  5
2E
102
{ACAD_REACTORS
330
2A
102
}
102
{ACAD_XDICTIONARY
360
173
102
}
330
2A
100
AcDbVisualStyle
  2
GouraudWithEdges
 70
     3
 71
     2
 72
     2
 73
     1
 90
        2
 40
-0.6
 41
30.0
 62
     5
 63
     7
 74
     1
 91
        4
 64
     7
 65
   257
 75
     1
175
     1
 42
1.0
 92
        0
 66
   257
 43
1.0
 76
     1
 77
     6
 78
     2
 67
     7
 79
     5
170
     0
171
     0
290
     0
174
     0
 93
       13
 44
0.0
173
     0
291
     1
 45
0.0
1001
ACAD
1000
AcDbSavedByObjectVersion
1070
     0
  0
VISUALSTYLE
  5
38
102
{ACAD_REACTORS
330
2A
102
}
102
{ACAD_XDICTIONARY
360
187
102
}
330
2A
100
AcDbVisualStyle
  2
Linepattern
 70
    14
 71
     2
 72
     2
 73
     0
 90
        0
 40
-0.6
 41
-30.0
 62
     5
 63
     7
 74
     1
 91
        4
 64
     7
 65
   257
 75
     7
175
     7
 42
1.0
 92
        8
 66
     7
 43
1.0
 76
     1
 77
     6
 78
     2
 67
     7
 79
     5
170
     0
171
     0
290
     0
174
     0
 93
        1
 44
0.0
173
     0
291
     1
 45
0.0
1001
ACAD
1000
AcDbSavedByObjectVersion
1070
     0
  0
VISUALSTYLE
  5
33
102
{ACAD_REACTORS
330
2A
102
}
102
{ACAD_XDICTIONARY
360
17D
102
}
330
2A
100
AcDbVisualStyle
  2
Realistic
 70
     8
 71
     2
 72
     2
 73
     0
 90
        0
 40
-0.6
 41
-30.0
 62
     5
 63
     7
 74
     1
 91
        0
 64
     7
 65
   257
 75
     1
175
     1
 42
1.0
 92
        8
 66
     8
 43
1.0
 76
     1
 77
     6
 78
     2
 67
     7
 79
     5
170
     0
171
     0
290
     0
174
     0
 93
       13
 44
0.0
173
     0
291
     0
 45
0.0
1001
ACAD
1000
AcDbSavedByObjectVersion
1070
     0
  0
VISUALSTYLE
  5
37
102
{ACAD_REACTORS
330
2A
102
}
102
{ACAD_XDICTIONARY
360
185
102
}
330
2A
100
AcDbVisualStyle
  2
Thicken
 70
    13
 71
     2
 72
     2
 73
     0
 90
        0
 40
-0.6
 41
-30.0
 62
     5
 63
     7
 74
     1
 91
        4
 64
     7
 65
   257
 75
     1
175
     1
 42
1.0
 92
       12
 66
     7
 43
1.0
 76
     1
 77
     6
 78
     2
 67
     7
 79
     5
170
     0
171
     0
290
     0
174
     0
 93
        1
 44
0.0
173
     0
291
     1
 45
0.0
1001
ACAD
1000
AcDbSavedByObjectVersion
1070
     0
  0
DICTIONARYVAR
  5
16B
102
{ACAD_REACTORS
330
168
102
}
330
168
100
DictionaryVariables
280
     0
  1
2
  0
DICTIONARYVAR
  5
16C
102
{ACAD_REACTORS
330
168
102
}
330
168
100
DictionaryVariables
280
     0
  1
1
  0
DICTIONARY
  5
18F
330
3D
100
AcDbDictionary
280
     1
281
     1
  3
ACAD_XREC_ROUNDTRIP
360
190
  0
DICTIONARY
  5
18D
330
3C
100
AcDbDictionary
280
     1
281
     1
  3
ACAD_XREC_ROUNDTRIP
360
18E
  0
DICTIONARY
  5
191
330
3E
100
AcDbDictionary
280
     1
281
     1
  3
ACAD_XREC_ROUNDTRIP
360
192
  0
DICTIONARY
  5
175
330
2F
100
AcDbDictionary
280
     1
281
     1
  3
ACAD_XREC_ROUNDTRIP
360
176
  0
DICTIONARY
  5
179
330
31
100
AcDbDictionary
280
     1
281
     1
  3
ACAD_XREC_ROUNDTRIP
360
17A
  0
DICTIONARY
  5
177
330
30
100
AcDbDictionary
280
     1
281
     1
  3
ACAD_XREC_ROUNDTRIP
360
178
  0
DICTIONARY
  5
17B
330
32
100
AcDbDictionary
280
     1
281
     1
  3
ACAD_XREC_ROUNDTRIP
360
17C
  0
DICTIONARY
  5
183
330
36
100
AcDbDictionary
280
     1
281
     1
  3
ACAD_XREC_ROUNDTRIP
360
184
  0
DICTIONARY
  5
18B
330
3A
100
AcDbDictionary
280
     1
281
     1
  3
ACAD_XREC_ROUNDTRIP
360
18C
  0
DICTIONARY
  5
17F
330
34
100
AcDbDictionary
280
     1
281
     1
  3
ACAD_XREC_ROUNDTRIP
360
180
  0
DICTIONARY
  5
181
330
35
100
AcDbDictionary
280
     1
281
     1
  3
ACAD_XREC_ROUNDTRIP
360
182
  0
DICTIONARY
  5
189
330
39
100
AcDbDictionary
280
     1
281
     1
  3
ACAD_XREC_ROUNDTRIP
360
18A
  0
DICTIONARY
  5
16D
330
2B
100
AcDbDictionary
280
     1
281
     1
  3
ACAD_XREC_ROUNDTRIP
360
16E
  0
DICTIONARY
  5
16F
330
2C
100
AcDbDictionary
280
     1
281
     1
  3
ACAD_XREC_ROUNDTRIP
360
170
  0
DICTIONARY
  5
171
330
2D
100
AcDbDictionary
280
     1
281
     1
  3
ACAD_XREC_ROUNDTRIP
360
172
  0
DICTIONARY
  5
173
330
2E
100
AcDbDictionary
280
     1
281
     1
  3
ACAD_XREC_ROUNDTRIP
360
174
  0
DICTIONARY
  5
187
330
38
100
AcDbDictionary
280
     1
281
     1
  3
ACAD_XREC_ROUNDTRIP
360
188
  0
DICTIONARY
  5
17D
330
33
100
AcDbDictionary
280
     1
281
     1
  3
ACAD_XREC_ROUNDTRIP
360
17E
  0
DICTIONARY
  5
185
330
37
100
AcDbDictionary
280
     1
281
     1
  3
ACAD_XREC_ROUNDTRIP
360
186
  0
XRECORD
  5
190
102
{ACAD_REACTORS
330
18F
102
}
330
18F
100
AcDbXrecord
280
     1
102
MATERIAL
148
0.0
149
0.0
149
0.0
 93
        0
 94
      127
282
     0
 72
     1
 77
     1
171
     1
175
     1
179
     1
273
     0
  0
XRECORD
  5
18E
102
{ACAD_REACTORS
330
18D
102
}
330
18D
100
AcDbXrecord
280
     1
102
MATERIAL
148
0.0
149
0.0
149
0.0
 93
        0
 94
      127
282
     0
 72
     1
 77
     1
171
     1
175
     1
179
     1
273
     0
  0
XRECORD
  5
192
102
{ACAD_REACTORS
330
191
102
}
330
191
100
AcDbXrecord
280
     1
102
MATERIAL
148
0.0
149
0.0
149
0.0
 93
        0
 94
      127
282
     0
 72
     1
 77
     1
171
     1
175
     1
179
     1
273
     0
  0
XRECORD
  5
176
102
{ACAD_REACTORS
330
175
102
}
330
175
100
AcDbXrecord
280
     1
102
RTVSPropertyOp0
 70
     1
102
RTVSPropertyOp1
 70
     1
102
RTVSPropertyOp2
 70
     1
102
RTVSPropertyOp3
 70
     1
102
RTVSPropertyOp4
 70
     1
102
RTVSPropertyOp5
 70
     1
102
RTVSPropertyOp6
 70
     1
102
RTVSPropertyOp7
 70
     1
102
RTVSPropertyOp8
 70
     1
102
RTVSPropertyOp9
 70
     1
102
RTVSPropertyOp10
 70
     1
102
RTVSPropertyOp11
 70
     1
102
RTVSPropertyOp12
 70
     1
102
RTVSPropertyOp13
 70
     1
102
RTVSPropertyOp14
 70
     1
102
RTVSPropertyOp15
 70
     1
102
RTVSPropertyOp16
 70
     1
102
RTVSPropertyOp17
 70
     1
102
RTVSPropertyOp18
 70
     1
102
RTVSPropertyOp19
 70
     1
102
RTVSPropertyOp20
 70
     1
102
RTVSPropertyOp21
 70
     1
102
RTVSPropertyOp22
 70
     1
102
RTVSPropertyOp23
 70
     1
102
RTVSPropertyOp24
 70
     1
102
RTVSPropertyOp25
 70
     1
102
RTVSPropertyOp26
 70
     1
102
RTVSPropertyOp27
 70
     1
102
RTVSPropertyOp28
 70
     1
102
RTVSPropertyOp29
 70
     1
102
RTVSPropertyOp30
 70
     1
102
RTVSPropertyOp31
 70
     1
102
RTVSPropertyOp32
 70
     1
  0
XRECORD
  5
17A
102
{ACAD_REACTORS
330
179
102
}
330
179
100
AcDbXrecord
280
     1
102
RTVSPropertyOp0
 70
     1
102
RTVSPropertyOp1
 70
     1
102
RTVSPropertyOp2
 70
     1
102
RTVSPropertyOp3
 70
     1
102
RTVSPropertyOp4
 70
     1
102
RTVSPropertyOp5
 70
     1
102
RTVSPropertyOp6
 70
     1
102
RTVSPropertyOp7
 70
     1
102
RTVSPropertyOp8
 70
     1
102
RTVSPropertyOp9
 70
     1
102
RTVSPropertyOp10
 70
     1
102
RTVSPropertyOp11
 70
     1
102
RTVSPropertyOp12
 70
     1
102
RTVSPropertyOp13
 70
     1
102
RTVSPropertyOp14
 70
     1
102
RTVSPropertyOp15
 70
     1
102
RTVSPropertyOp16
 70
     1
102
RTVSPropertyOp17
 70
     1
102
RTVSPropertyOp18
 70
     1
102
RTVSPropertyOp19
 70
     1
102
RTVSPropertyOp20
 70
     1
102
RTVSPropertyOp21
 70
     1
102
RTVSPropertyOp22
 70
     1
102
RTVSPropertyOp23
 70
     1
102
RTVSPropertyOp24
 70
     1
102
RTVSPropertyOp25
 70
     1
102
RTVSPropertyOp26
 70
     1
102
RTVSPropertyOp27
 70
     1
102
RTVSPropertyOp28
 70
     1
102
RTVSPropertyOp29
 70
     1
102
RTVSPropertyOp30
 70
     1
102
RTVSPropertyOp31
 70
     1
102
RTVSPropertyOp32
 70
     1
  0
XRECORD
  5
178
102
{ACAD_REACTORS
330
177
102
}
330
177
100
AcDbXrecord
280
     1
102
RTVSPropertyOp0
 70
     1
102
RTVSPropertyOp1
 70
     1
102
RTVSPropertyOp2
 70
     1
102
RTVSPropertyOp3
 70
     1
102
RTVSPropertyOp4
 70
     1
102
RTVSPropertyOp5
 70
     1
102
RTVSPropertyOp6
 70
     1
102
RTVSPropertyOp7
 70
     1
102
RTVSPropertyOp8
 70
     1
102
RTVSPropertyOp9
 70
     1
102
RTVSPropertyOp10
 70
     1
102
RTVSPropertyOp11
 70
     1
102
RTVSPropertyOp12
 70
     1
102
RTVSPropertyOp13
 70
     1
102
RTVSPropertyOp14
 70
     1
102
RTVSPropertyOp15
 70
     1
102
RTVSPropertyOp16
 70
     1
102
RTVSPropertyOp17
 70
     1
102
RTVSPropertyOp18
 70
     1
102
RTVSPropertyOp19
 70
     1
102
RTVSPropertyOp20
 70
     1
102
RTVSPropertyOp21
 70
     1
102
RTVSPropertyOp22
 70
     1
102
RTVSPropertyOp23
 70
     1
102
RTVSPropertyOp24
 70
     1
102
RTVSPropertyOp25
 70
     1
102
RTVSPropertyOp26
 70
     1
102
RTVSPropertyOp27
 70
     1
102
RTVSPropertyOp28
 70
     1
102
RTVSPropertyOp29
 70
     1
102
RTVSPropertyOp30
 70
     1
102
RTVSPropertyOp31
 70
     1
102
RTVSPropertyOp32
 70
     1
  0
XRECORD
  5
17C
102
{ACAD_REACTORS
330
17B
102
}
330
17B
100
AcDbXrecord
280
     1
102
RTVSPropertyOp0
 70
     1
102
RTVSPropertyOp1
 70
     1
102
RTVSPropertyOp2
 70
     1
102
RTVSPropertyOp3
 70
     1
102
RTVSPropertyOp4
 70
     1
102
RTVSPropertyOp5
 70
     1
102
RTVSPropertyOp6
 70
     1
102
RTVSPropertyOp7
 70
     1
102
RTVSPropertyOp8
 70
     1
102
RTVSPropertyOp9
 70
     1
102
RTVSPropertyOp10
 70
     1
102
RTVSPropertyOp11
 70
     1
102
RTVSPropertyOp12
 70
     1
102
RTVSPropertyOp13
 70
     1
102
RTVSPropertyOp14
 70
     1
102
RTVSPropertyOp15
 70
     1
102
RTVSPropertyOp16
 70
     1
102
RTVSPropertyOp17
 70
     1
102
RTVSPropertyOp18
 70
     1
102
RTVSPropertyOp19
 70
     1
102
RTVSPropertyOp20
 70
     1
102
RTVSPropertyOp21
 70
     1
102
RTVSPropertyOp22
 70
     1
102
RTVSPropertyOp23
 70
     1
102
RTVSPropertyOp24
 70
     1
102
RTVSPropertyOp25
 70
     1
102
RTVSPropertyOp26
 70
     1
102
RTVSPropertyOp27
 70
     1
102
RTVSPropertyOp28
 70
     1
102
RTVSPropertyOp29
 70
     1
102
RTVSPropertyOp30
 70
     1
102
RTVSPropertyOp31
 70
     1
102
RTVSPropertyOp32
 70
     1
  0
XRECORD
  5
184
102
{ACAD_REACTORS
330
183
102
}
330
183
100
AcDbXrecord
280
     1
102
RTVSPropertyOp0
 70
     1
102
RTVSPropertyOp1
 70
     1
102
RTVSPropertyOp2
 70
     1
102
RTVSPropertyOp3
 70
     1
102
RTVSPropertyOp4
 70
     1
102
RTVSPropertyOp5
 70
     1
102
RTVSPropertyOp6
 70
     1
102
RTVSPropertyOp7
 70
     1
102
RTVSPropertyOp8
 70
     1
102
RTVSPropertyOp9
 70
     1
102
RTVSPropertyOp10
 70
     1
102
RTVSPropertyOp11
 70
     1
102
RTVSPropertyOp12
 70
     1
102
RTVSPropertyOp13
 70
     1
102
RTVSPropertyOp14
 70
     1
102
RTVSPropertyOp15
 70
     1
102
RTVSPropertyOp16
 70
     1
102
RTVSPropertyOp17
 70
     1
102
RTVSPropertyOp18
 70
     1
102
RTVSPropertyOp19
 70
     1
102
RTVSPropertyOp20
 70
     1
102
RTVSPropertyOp21
 70
     1
102
RTVSPropertyOp22
 70
     1
102
RTVSPropertyOp23
 70
     1
102
RTVSPropertyOp24
 70
     1
102
RTVSPropertyOp25
 70
     1
102
RTVSPropertyOp26
 70
     1
102
RTVSPropertyOp27
 70
     1
102
RTVSPropertyOp28
 70
     1
102
RTVSPropertyOp29
 70
     1
102
RTVSPropertyOp30
 70
     1
102
RTVSPropertyOp31
 70
     1
102
RTVSPropertyOp32
 70
     1
  0
XRECORD
  5
18C
102
{ACAD_REACTORS
330
18B
102
}
330
18B
100
AcDbXrecord
280
     1
102
RTVSPropertyOp0
 70
     1
102
RTVSPropertyOp1
 70
     1
102
RTVSPropertyOp2
 70
     1
102
RTVSPropertyOp3
 70
     1
102
RTVSPropertyOp4
 70
     1
102
RTVSPropertyOp5
 70
     1
102
RTVSPropertyOp6
 70
     1
102
RTVSPropertyOp7
 70
     1
102
RTVSPropertyOp8
 70
     1
102
RTVSPropertyOp9
 70
     1
102
RTVSPropertyOp10
 70
     1
102
RTVSPropertyOp11
 70
     1
102
RTVSPropertyOp12
 70
     1
102
RTVSPropertyOp13
 70
     1
102
RTVSPropertyOp14
 70
     1
102
RTVSPropertyOp15
 70
     1
102
RTVSPropertyOp16
 70
     1
102
RTVSPropertyOp17
 70
     1
102
RTVSPropertyOp18
 70
     1
102
RTVSPropertyOp19
 70
     1
102
RTVSPropertyOp20
 70
     1
102
RTVSPropertyOp21
 70
     1
102
RTVSPropertyOp22
 70
     1
102
RTVSPropertyOp23
 70
     1
102
RTVSPropertyOp24
 70
     1
102
RTVSPropertyOp25
 70
     1
102
RTVSPropertyOp26
 70
     1
102
RTVSPropertyOp27
 70
     1
102
RTVSPropertyOp28
 70
     1
102
RTVSPropertyOp29
 70
     1
102
RTVSPropertyOp30
 70
     1
102
RTVSPropertyOp31
 70
     1
102
RTVSPropertyOp32
 70
     1
  0
XRECORD
  5
180
102
{ACAD_REACTORS
330
17F
102
}
330
17F
100
AcDbXrecord
280
     1
102
RTVSPropertyOp0
 70
     1
102
RTVSPropertyOp1
 70
     1
102
RTVSPropertyOp2
 70
     1
102
RTVSPropertyOp3
 70
     1
102
RTVSPropertyOp4
 70
     1
102
RTVSPropertyOp5
 70
     1
102
RTVSPropertyOp6
 70
     1
102
RTVSPropertyOp7
 70
     1
102
RTVSPropertyOp8
 70
     1
102
RTVSPropertyOp9
 70
     1
102
RTVSPropertyOp10
 70
     1
102
RTVSPropertyOp11
 70
     1
102
RTVSPropertyOp12
 70
     1
102
RTVSPropertyOp13
 70
     1
102
RTVSPropertyOp14
 70
     1
102
RTVSPropertyOp15
 70
     1
102
RTVSPropertyOp16
 70
     1
102
RTVSPropertyOp17
 70
     1
102
RTVSPropertyOp18
 70
     1
102
RTVSPropertyOp19
 70
     1
102
RTVSPropertyOp20
 70
     1
102
RTVSPropertyOp21
 70
     1
102
RTVSPropertyOp22
 70
     1
102
RTVSPropertyOp23
 70
     1
102
RTVSPropertyOp24
 70
     1
102
RTVSPropertyOp25
 70
     1
102
RTVSPropertyOp26
 70
     1
102
RTVSPropertyOp27
 70
     1
102
RTVSPropertyOp28
 70
     1
102
RTVSPropertyOp29
 70
     1
102
RTVSPropertyOp30
 70
     1
102
RTVSPropertyOp31
 70
     1
102
RTVSPropertyOp32
 70
     1
  0
XRECORD
  5
182
102
{ACAD_REACTORS
330
181
102
}
330
181
100
AcDbXrecord
280
     1
102
RTVSPropertyOp0
 70
     1
102
RTVSPropertyOp1
 70
     1
102
RTVSPropertyOp2
 70
     1
102
RTVSPropertyOp3
 70
     1
102
RTVSPropertyOp4
 70
     1
102
RTVSPropertyOp5
 70
     1
102
RTVSPropertyOp6
 70
     1
102
RTVSPropertyOp7
 70
     1
102
RTVSPropertyOp8
 70
     1
102
RTVSPropertyOp9
 70
     1
102
RTVSPropertyOp10
 70
     1
102
RTVSPropertyOp11
 70
     1
102
RTVSPropertyOp12
 70
     1
102
RTVSPropertyOp13
 70
     1
102
RTVSPropertyOp14
 70
     1
102
RTVSPropertyOp15
 70
     1
102
RTVSPropertyOp16
 70
     1
102
RTVSPropertyOp17
 70
     1
102
RTVSPropertyOp18
 70
     1
102
RTVSPropertyOp19
 70
     1
102
RTVSPropertyOp20
 70
     1
102
RTVSPropertyOp21
 70
     1
102
RTVSPropertyOp22
 70
     1
102
RTVSPropertyOp23
 70
     1
102
RTVSPropertyOp24
 70
     1
102
RTVSPropertyOp25
 70
     1
102
RTVSPropertyOp26
 70
     1
102
RTVSPropertyOp27
 70
     1
102
RTVSPropertyOp28
 70
     1
102
RTVSPropertyOp29
 70
     1
102
RTVSPropertyOp30
 70
     1
102
RTVSPropertyOp31
 70
     1
102
RTVSPropertyOp32
 70
     1
  0
XRECORD
  5
18A
102
{ACAD_REACTORS
330
189
102
}
330
189
100
AcDbXrecord
280
     1
102
RTVSPropertyOp0
 70
     1
102
RTVSPropertyOp1
 70
     1
102
RTVSPropertyOp2
 70
     1
102
RTVSPropertyOp3
 70
     1
102
RTVSPropertyOp4
 70
     1
102
RTVSPropertyOp5
 70
     1
102
RTVSPropertyOp6
 70
     1
102
RTVSPropertyOp7
 70
     1
102
RTVSPropertyOp8
 70
     1
102
RTVSPropertyOp9
 70
     1
102
RTVSPropertyOp10
 70
     1
102
RTVSPropertyOp11
 70
     1
102
RTVSPropertyOp12
 70
     1
102
RTVSPropertyOp13
 70
     1
102
RTVSPropertyOp14
 70
     1
102
RTVSPropertyOp15
 70
     1
102
RTVSPropertyOp16
 70
     1
102
RTVSPropertyOp17
 70
     1
102
RTVSPropertyOp18
 70
     1
102
RTVSPropertyOp19
 70
     1
102
RTVSPropertyOp20
 70
     1
102
RTVSPropertyOp21
 70
     1
102
RTVSPropertyOp22
 70
     1
102
RTVSPropertyOp23
 70
     1
102
RTVSPropertyOp24
 70
     1
102
RTVSPropertyOp25
 70
     1
102
RTVSPropertyOp26
 70
     1
102
RTVSPropertyOp27
 70
     1
102
RTVSPropertyOp28
 70
     1
102
RTVSPropertyOp29
 70
     1
102
RTVSPropertyOp30
 70
     1
102
RTVSPropertyOp31
 70
     1
102
RTVSPropertyOp32
 70
     1
  0
XRECORD
  5
16E
102
{ACAD_REACTORS
330
16D
102
}
330
16D
100
AcDbXrecord
280
     1
102
RTVSPropertyOp0
 70
     1
102
RTVSPropertyOp1
 70
     1
102
RTVSPropertyOp2
 70
     1
102
RTVSPropertyOp3
 70
     1
102
RTVSPropertyOp4
 70
     1
102
RTVSPropertyOp5
 70
     1
102
RTVSPropertyOp6
 70
     1
102
RTVSPropertyOp7
 70
     1
102
RTVSPropertyOp8
 70
     1
102
RTVSPropertyOp9
 70
     1
102
RTVSPropertyOp10
 70
     1
102
RTVSPropertyOp11
 70
     1
102
RTVSPropertyOp12
 70
     1
102
RTVSPropertyOp13
 70
     1
102
RTVSPropertyOp14
 70
     1
102
RTVSPropertyOp15
 70
     1
102
RTVSPropertyOp16
 70
     1
102
RTVSPropertyOp17
 70
     1
102
RTVSPropertyOp18
 70
     1
102
RTVSPropertyOp19
 70
     1
102
RTVSPropertyOp20
 70
     1
102
RTVSPropertyOp21
 70
     1
102
RTVSPropertyOp22
 70
     1
102
RTVSPropertyOp23
 70
     1
102
RTVSPropertyOp24
 70
     1
102
RTVSPropertyOp25
 70
     1
102
RTVSPropertyOp26
 70
     1
102
RTVSPropertyOp27
 70
     1
102
RTVSPropertyOp28
 70
     1
102
RTVSPropertyOp29
 70
     1
102
RTVSPropertyOp30
 70
     1
102
RTVSPropertyOp31
 70
     1
102
RTVSPropertyOp32
 70
     1
  0
XRECORD
  5
170
102
{ACAD_REACTORS
330
16F
102
}
330
16F
100
AcDbXrecord
280
     1
102
RTVSPropertyOp0
 70
     1
102
RTVSPropertyOp1
 70
     1
102
RTVSPropertyOp2
 70
     1
102
RTVSPropertyOp3
 70
     1
102
RTVSPropertyOp4
 70
     1
102
RTVSPropertyOp5
 70
     1
102
RTVSPropertyOp6
 70
     1
102
RTVSPropertyOp7
 70
     1
102
RTVSPropertyOp8
 70
     1
102
RTVSPropertyOp9
 70
     1
102
RTVSPropertyOp10
 70
     1
102
RTVSPropertyOp11
 70
     1
102
RTVSPropertyOp12
 70
     1
102
RTVSPropertyOp13
 70
     1
102
RTVSPropertyOp14
 70
     1
102
RTVSPropertyOp15
 70
     1
102
RTVSPropertyOp16
 70
     1
102
RTVSPropertyOp17
 70
     1
102
RTVSPropertyOp18
 70
     1
102
RTVSPropertyOp19
 70
     1
102
RTVSPropertyOp20
 70
     1
102
RTVSPropertyOp21
 70
     1
102
RTVSPropertyOp22
 70
     1
102
RTVSPropertyOp23
 70
     1
102
RTVSPropertyOp24
 70
     1
102
RTVSPropertyOp25
 70
     1
102
RTVSPropertyOp26
 70
     1
102
RTVSPropertyOp27
 70
     1
102
RTVSPropertyOp28
 70
     1
102
RTVSPropertyOp29
 70
     1
102
RTVSPropertyOp30
 70
     1
102
RTVSPropertyOp31
 70
     1
102
RTVSPropertyOp32
 70
     1
  0
XRECORD
  5
172
102
{ACAD_REACTORS
330
171
102
}
330
171
100
AcDbXrecord
280
     1
102
RTVSPropertyOp0
 70
     1
102
RTVSPropertyOp1
 70
     1
102
RTVSPropertyOp2
 70
     1
102
RTVSPropertyOp3
 70
     1
102
RTVSPropertyOp4
 70
     1
102
RTVSPropertyOp5
 70
     1
102
RTVSPropertyOp6
 70
     1
102
RTVSPropertyOp7
 70
     1
102
RTVSPropertyOp8
 70
     1
102
RTVSPropertyOp9
 70
     1
102
RTVSPropertyOp10
 70
     1
102
RTVSPropertyOp11
 70
     1
102
RTVSPropertyOp12
 70
     1
102
RTVSPropertyOp13
 70
     1
102
RTVSPropertyOp14
 70
     1
102
RTVSPropertyOp15
 70
     1
102
RTVSPropertyOp16
 70
     1
102
RTVSPropertyOp17
 70
     1
102
RTVSPropertyOp18
 70
     1
102
RTVSPropertyOp19
 70
     1
102
RTVSPropertyOp20
 70
     1
102
RTVSPropertyOp21
 70
     1
102
RTVSPropertyOp22
 70
     1
102
RTVSPropertyOp23
 70
     1
102
RTVSPropertyOp24
 70
     1
102
RTVSPropertyOp25
 70
     1
102
RTVSPropertyOp26
 70
     1
102
RTVSPropertyOp27
 70
     1
102
RTVSPropertyOp28
 70
     1
102
RTVSPropertyOp29
 70
     1
102
RTVSPropertyOp30
 70
     1
102
RTVSPropertyOp31
 70
     1
102
RTVSPropertyOp32
 70
     1
  0
XRECORD
  5
174
102
{ACAD_REACTORS
330
173
102
}
330
173
100
AcDbXrecord
280
     1
102
RTVSPropertyOp0
 70
     1
102
RTVSPropertyOp1
 70
     1
102
RTVSPropertyOp2
 70
     1
102
RTVSPropertyOp3
 70
     1
102
RTVSPropertyOp4
 70
     1
102
RTVSPropertyOp5
 70
     1
102
RTVSPropertyOp6
 70
     1
102
RTVSPropertyOp7
 70
     1
102
RTVSPropertyOp8
 70
     1
102
RTVSPropertyOp9
 70
     1
102
RTVSPropertyOp10
 70
     1
102
RTVSPropertyOp11
 70
     1
102
RTVSPropertyOp12
 70
     1
102
RTVSPropertyOp13
 70
     1
102
RTVSPropertyOp14
 70
     1
102
RTVSPropertyOp15
 70
     1
102
RTVSPropertyOp16
 70
     1
102
RTVSPropertyOp17
 70
     1
102
RTVSPropertyOp18
 70
     1
102
RTVSPropertyOp19
 70
     1
102
RTVSPropertyOp20
 70
     1
102
RTVSPropertyOp21
 70
     1
102
RTVSPropertyOp22
 70
     1
102
RTVSPropertyOp23
 70
     1
102
RTVSPropertyOp24
 70
     1
102
RTVSPropertyOp25
 70
     1
102
RTVSPropertyOp26
 70
     1
102
RTVSPropertyOp27
 70
     1
102
RTVSPropertyOp28
 70
     1
102
RTVSPropertyOp29
 70
     1
102
RTVSPropertyOp30
 70
     1
102
RTVSPropertyOp31
 70
     1
102
RTVSPropertyOp32
 70
     1
  0
XRECORD
  5
188
102
{ACAD_REACTORS
330
187
102
}
330
187
100
AcDbXrecord
280
     1
102
RTVSPropertyOp0
 70
     1
102
RTVSPropertyOp1
 70
     1
102
RTVSPropertyOp2
 70
     1
102
RTVSPropertyOp3
 70
     1
102
RTVSPropertyOp4
 70
     1
102
RTVSPropertyOp5
 70
     1
102
RTVSPropertyOp6
 70
     1
102
RTVSPropertyOp7
 70
     1
102
RTVSPropertyOp8
 70
     1
102
RTVSPropertyOp9
 70
     1
102
RTVSPropertyOp10
 70
     1
102
RTVSPropertyOp11
 70
     1
102
RTVSPropertyOp12
 70
     1
102
RTVSPropertyOp13
 70
     1
102
RTVSPropertyOp14
 70
     1
102
RTVSPropertyOp15
 70
     1
102
RTVSPropertyOp16
 70
     1
102
RTVSPropertyOp17
 70
     1
102
RTVSPropertyOp18
 70
     1
102
RTVSPropertyOp19
 70
     1
102
RTVSPropertyOp20
 70
     1
102
RTVSPropertyOp21
 70
     1
102
RTVSPropertyOp22
 70
     1
102
RTVSPropertyOp23
 70
     1
102
RTVSPropertyOp24
 70
     1
102
RTVSPropertyOp25
 70
     1
102
RTVSPropertyOp26
 70
     1
102
RTVSPropertyOp27
 70
     1
102
RTVSPropertyOp28
 70
     1
102
RTVSPropertyOp29
 70
     1
102
RTVSPropertyOp30
 70
     1
102
RTVSPropertyOp31
 70
     1
102
RTVSPropertyOp32
 70
     1
  0
XRECORD
  5
17E
102
{ACAD_REACTORS
330
17D
102
}
330
17D
100
AcDbXrecord
280
     1
102
RTVSPropertyOp0
 70
     1
102
RTVSPropertyOp1
 70
     1
102
RTVSPropertyOp2
 70
     1
102
RTVSPropertyOp3
 70
     1
102
RTVSPropertyOp4
 70
     1
102
RTVSPropertyOp5
 70
     1
102
RTVSPropertyOp6
 70
     1
102
RTVSPropertyOp7
 70
     1
102
RTVSPropertyOp8
 70
     1
102
RTVSPropertyOp9
 70
     1
102
RTVSPropertyOp10
 70
     1
102
RTVSPropertyOp11
 70
     1
102
RTVSPropertyOp12
 70
     1
102
RTVSPropertyOp13
 70
     1
102
RTVSPropertyOp14
 70
     1
102
RTVSPropertyOp15
 70
     1
102
RTVSPropertyOp16
 70
     1
102
RTVSPropertyOp17
 70
     1
102
RTVSPropertyOp18
 70
     1
102
RTVSPropertyOp19
 70
     1
102
RTVSPropertyOp20
 70
     1
102
RTVSPropertyOp21
 70
     1
102
RTVSPropertyOp22
 70
     1
102
RTVSPropertyOp23
 70
     1
102
RTVSPropertyOp24
 70
     1
102
RTVSPropertyOp25
 70
     1
102
RTVSPropertyOp26
 70
     1
102
RTVSPropertyOp27
 70
     1
102
RTVSPropertyOp28
 70
     1
102
RTVSPropertyOp29
 70
     1
102
RTVSPropertyOp30
 70
     1
102
RTVSPropertyOp31
 70
     1
102
RTVSPropertyOp32
 70
     1
  0
XRECORD
  5
186
102
{ACAD_REACTORS
330
185
102
}
330
185
100
AcDbXrecord
280
     1
102
RTVSPropertyOp0
 70
     1
102
RTVSPropertyOp1
 70
     1
102
RTVSPropertyOp2
 70
     1
102
RTVSPropertyOp3
 70
     1
102
RTVSPropertyOp4
 70
     1
102
RTVSPropertyOp5
 70
     1
102
RTVSPropertyOp6
 70
     1
102
RTVSPropertyOp7
 70
     1
102
RTVSPropertyOp8
 70
     1
102
RTVSPropertyOp9
 70
     1
102
RTVSPropertyOp10
 70
     1
102
RTVSPropertyOp11
 70
     1
102
RTVSPropertyOp12
 70
     1
102
RTVSPropertyOp13
 70
     1
102
RTVSPropertyOp14
 70
     1
102
RTVSPropertyOp15
 70
     1
102
RTVSPropertyOp16
 70
     1
102
RTVSPropertyOp17
 70
     1
102
RTVSPropertyOp18
 70
     1
102
RTVSPropertyOp19
 70
     1
102
RTVSPropertyOp20
 70
     1
102
RTVSPropertyOp21
 70
     1
102
RTVSPropertyOp22
 70
     1
102
RTVSPropertyOp23
 70
     1
102
RTVSPropertyOp24
 70
     1
102
RTVSPropertyOp25
 70
     1
102
RTVSPropertyOp26
 70
     1
102
RTVSPropertyOp27
 70
     1
102
RTVSPropertyOp28
 70
     1
102
RTVSPropertyOp29
 70
     1
102
RTVSPropertyOp30
 70
     1
102
RTVSPropertyOp31
 70
     1
102
RTVSPropertyOp32
 70
     1
  0
ENDSEC
  0
EOF
