  0
SECTION
  2
HEADER
  9
$ACADVER
  1
AC1014
  9
$ACADMAINTVER
 70
             0
  9
$DWGCODEPAGE
  3
ANSI_1252
  9
$INSBASE
 10
0.0
 20
0.0
 30
0.0
  9
$EXTMIN
 10
-46.78171546640078
 20
-171.14089102548201
 30
0.0
  9
$EXTMAX
 10
149.53603054932691
 20
18.53118914307761
 30
0.0
  9
$LIMMIN
 10
0.0
 20
0.0
  9
$LIMMAX
 10
0.0
 20
0.0
  9
$ORTHOMODE
 70
             0
  9
$REGENMODE
 70
             1
  9
$FILLMODE
 70
             1
  9
$QTEXTMODE
 70
             0
  9
$MIRRTEXT
 70
             1
  9
$DRAGMODE
 70
             2
  9
$LTSCALE
 40
1.0
  9
$OSMODE
 70
             0
  9
$ATTMODE
 70
             1
  9
$TEXTSIZE
 40
0.2
  9
$TRACEWID
 40
0.05
  9
$TEXTSTYLE
  7
STANDARD
  9
$CLAYER
  8
0
  9
$CELTYPE
  6
CONTINUOUS
  9
$CECOLOR
 62
           256
  9
$CELTSCALE
 40
1.0
  9
$DELOBJ
 70
             1
  9
$DISPSILH
 70
             0
  9
$DIMSCALE
 40
1.0
  9
$DIMASZ
 40
0.18
  9
$DIMEXO
 40
0.0625
  9
$DIMDLI
 40
0.38
  9
$DIMRND
 40
0.0
  9
$DIMDLE
 40
0.0
  9
$DIMEXE
 40
0.18
  9
$DIMTP
 40
0.0
  9
$DIMTM
 40
0.0
  9
$DIMTXT
 40
0.18
  9
$DIMCEN
 40
0.09
  9
$DIMTSZ
 40
0.0
  9
$DIMTOL
 70
             0
  9
$DIMLIM
 70
             0
  9
$DIMTIH
 70
             1
  9
$DIMTOH
 70
             1
  9
$DIMSE1
 70
             0
  9
$DIMSE2
 70
             0
  9
$DIMTAD
 70
             0
  9
$DIMZIN
 70
             0
  9
$DIMBLK
  1

  9
$DIMASO
 70
             1
  9
$DIMSHO
 70
             1
  9
$DIMPOST
  1

  9
$DIMAPOST
  1

  9
$DIMALT
 70
             0
  9
$DIMALTD
 70
             2
  9
$DIMALTF
 40
25.4
  9
$DIMLFAC
 40
1.0
  9
$DIMTOFL
 70
             0
  9
$DIMTVP
 40
0.0
  9
$DIMTIX
 70
             0
  9
$DIMSOXD
 70
             0
  9
$DIMSAH
 70
             0
  9
$DIMBLK1
  1

  9
$DIMBLK2
  1

  9
$DIMSTYLE
  2
STANDARD
  9
$DIMCLRD
 70
             0
  9
$DIMCLRE
 70
             0
  9
$DIMCLRT
 70
             0
  9
$DIMTFAC
 40
1.0
  9
$DIMGAP
 40
0.09
  9
$DIMJUST
 70
             0
  9
$DIMSD1
 70
             0
  9
$DIMSD2
 70
             0
  9
$DIMTOLJ
 70
             1
  9
$DIMTZIN
 70
             0
  9
$DIMALTZ
 70
             0
  9
$DIMALTTZ
 70
             0
  9
$DIMFIT
 70
             3
  9
$DIMUPT
 70
             0
  9
$DIMUNIT
 70
             2
  9
$DIMDEC
 70
             4
  9
$DIMTDEC
 70
             4
  9
$DIMALTU
 70
             2
  9
$DIMALTTD
 70
             2
  9
$DIMTXSTY
  7
STANDARD
  9
$DIMAUNIT
 70
             0
  9
$LUNITS
 70
             2
  9
$LUPREC
 70
             4
  9
$SKETCHINC
 40
0.1
  9
$FILLETRAD
 40
0.0
  9
$AUNITS
 70
             0
  9
$AUPREC
 70
             0
  9
$MENU
  1
acad
  9
$ELEVATION
 40
0.0
  9
$PELEVATION
 40
0.0
  9
$THICKNESS
 40
0.0
  9
$LIMCHECK
 70
             0
  9
$BLIPMODE
 70
             1
  9
$CHAMFERA
 40
0.0
  9
$CHAMFERB
 40
0.0
  9
$CHAMFERC
 40
0.0
  9
$CHAMFERD
 40
0.0
  9
$SKPOLY
 70
             0
  9
$TDCREATE
 40
0.000000000
  9
$TDUPDATE
 40
0.000000000
  9
$TDINDWG
 40
0.0000000000
  9
$TDUSRTIMER
 40
0.0000000000
  9
$USRTIMER
 70
             1
  9
$ANGBASE
 50
0.0
  9
$ANGDIR
 70
             0
  9
$PDMODE
 70
             0
  9
$PDSIZE
 40
0.0
  9
$PLINEWID
 40
0.0
  9
$COORDS
 70
             0
  9
$SPLFRAME
 70
             0
  9
$SPLINETYPE
 70
             6
  9
$SPLINESEGS
 70
             8
  9
$ATTDIA
 70
             0
  9
$ATTREQ
 70
             1
  9
$HANDLING
 70
             1
  9
$HANDSEED
  5
F2
  9
$SURFTAB1
 70
             6
  9
$SURFTAB2
 70
             6
  9
$SURFTYPE
 70
             6
  9
$SURFU
 70
             6
  9
$SURFV
 70
             6
  9
$UCSNAME
  2

  9
$UCSORG
 10
0.0
 20
0.0
 30
0.0
  9
$UCSXDIR
 10
1.0
 20
0.0
 30
0.0
  9
$UCSYDIR
 10
0.0
 20
1.0
 30
0.0
  9
$PUCSNAME
  2

  9
$PUCSORG
 10
0.0
 20
0.0
 30
0.0
  9
$PUCSXDIR
 10
1.0
 20
0.0
 30
0.0
  9
$PUCSYDIR
 10
0.0
 20
1.0
 30
0.0
  9
$USERI1
 70
             0
  9
$USERI2
 70
             0
  9
$USERI3
 70
             0
  9
$USERI4
 70
             0
  9
$USERI5
 70
             0
  9
$USERR1
 40
12.01
  9
$USERR2
 40
0.0
  9
$USERR3
 40
0.0
  9
$USERR4
 40
0.0
  9
$USERR5
 40
0.0
  9
$WORLDVIEW
 70
             1
  9
$SHADEDGE
 70
             3
  9
$SHADEDIF
 70
            70
  9
$TILEMODE
 70
             1
  9
$MAXACTVP
 70
            16
  9
$PINSBASE
 10
0.0
 20
0.0
 30
0.0
  9
$PLIMCHECK
 70
             0
  9
$PEXTMIN
 10
1.00000000000000E+20
 20
1.00000000000000E+20
 30
1.00000000000000E+20
  9
$PEXTMAX
 10
-1.00000000000000E+20
 20
-1.00000000000000E+20
 30
-1.00000000000000E+20
  9
$PLIMMIN
 10
0.0
 20
0.0
  9
$PLIMMAX
 10
12.0
 20
9.0
  9
$UNITMODE
 70
             0
  9
$VISRETAIN
 70
             0
  9
$PLINEGEN
 70
             1
  9
$PSLTSCALE
 70
             0
  9
$TREEDEPTH
 70
          3020
  9
$PICKSTYLE
 70
             1
  9
$CMLSTYLE
  2
STANDARD
  9
$CMLJUST
 70
             0
  9
$CMLSCALE
 40
1.0
  9
$PROXYGRAPHICS
 70
             0
  9
$MEASUREMENT
 70
             1
  0
ENDSEC
  0
SECTION
  2
CLASSES
  0
CLASS
  1
LWPOLYLINE
  2
AcDbPolyline
  3
"AutoCAD"
 90
        0
280
             0
281
             1
  0
CLASS
  1
IMAGE
  2
AcDbRasterImage
  3
ISM
 90
      127
280
             0
281
             1
  0
CLASS
  1
OLE2FRAME
  2
AcDbOle2Frame
  3
""
 90
        0
280
             0
281
             1
  0
CLASS
  1
HATCH
  2
AcDbHatch
  3
"ACAD_SEDONA"
 90
        0
280
             0
281
             1
  0
CLASS
  1
DICTIONARYVAR
  2
AcDbDictionaryVar
  3
"AutoCAD"
 90
        0
280
             0
281
             0
  0
CLASS
  1
RASTERVARIABLES
  2
AcDbRasterVariables
  3
ISM
 90
        0
280
             0
281
             0
  0
CLASS
  1
IMAGEDEF
  2
AcDbRasterImageDef
  3
ISM
 90
        0
280
             0
281
             0
  0
CLASS
  1
IMAGEDEF_REACTOR
  2
AcDbRasterImageDefReactor
  3
ISM
 90
        1
280
             0
281
             0
  0
CLASS
  1
IDBUFFER
  2
AcDbIdBuffer
  3
"Acad"
 90
        0
280
             0
281
             0
  0
CLASS
  1
SPATIAL_FILTER
  2
AcDbSpatialFilter
  3
"Acad"
 90
        0
280
             0
281
             0
  0
CLASS
  1
XRECORD
  2
AcDbXrecord
  3
"<Built In>"
 90
        0
280
             0
281
             0
  0
CLASS
  1
SORTENTSTABLE
  2
AcDbSortentsTable
  3
"AutoCAD"
 90
        0
280
             0
281
             0
  0
CLASS
  1
LAYER_INDEX
  2
AcDbLayerIndex
  3
"Acad"
 90
        0
280
             0
281
             0
  0
CLASS
  1
SPATIAL_INDEX
  2
AcDbSpatialIndex
  3
"Acad"
 90
        0
280
             0
281
             0
  0
CLASS
  1
OBJECT_PTR
  2
CAseDLPNTableRecord
  3
"ASE-LPNTableRecord"
 90
        1
280
             0
281
             0
  0
CLASS
  1
LAYOUT
  2
AcDbLayout
  3
"AutoCAD 2000"
 90
        0
280
             0
281
             0
  0
CLASS
  1
PLOTSETTINGS
  2
AcDbPlotSettings
  3
"AutoCAD 2000"
 90
        0
280
             0
281
             0
  0
CLASS
  1
ACDBDICTIONARYWDFLT
  2
AcDbDictionaryWithDefault
  3
"AutoCAD 2000"
 90
        0
280
             0
281
             0
  0
CLASS
  1
ACDBPLACEHOLDER
  2
AcDbPlaceHolder
  3
"AutoCAD 2000"
 90
        0
280
             0
281
             0
  0
ENDSEC
  0
SECTION
  2
TABLES
  0
TABLE
  2
VPORT
  5
7
100
AcDbSymbolTable
 70
             1
  0
VPORT
  5
15
100
AcDbSymbolTableRecord
100
AcDbViewportTableRecord
  2
*ACTIVE
 70
             0
 10
0.0
 20
0.0
 11
1.0
 21
1.0
 12
51.37715754146306
 22
-76.3048509412022
 13
0.0
 23
0.0
 14
1.0
 24
1.0
 15
0.0
 25
0.0
 16
0.0
 26
0.0
 36
1.0
 17
0.0
 27
0.0
 37
0.0
 40
208.63928818541558
 41
1.60267857142857
 42
50.0
 43
0.0
 44
0.0
 50
0.0
 51
0.0
 71
             0
 72
           100
 73
             1
 74
             1
 75
             0
 76
             0
 77
             0
 78
             0
  0
ENDTAB
  0
TABLE
  2
LTYPE
  5
4
100
AcDbSymbolTable
 70
            10
  0
LTYPE
  5
11
100
AcDbSymbolTableRecord
100
AcDbLinetypeTableRecord
  2
BYBLOCK
 70
            64
  3

 72
            65
 73
             0
 40
0.0
  0
LTYPE
  5
12
100
AcDbSymbolTableRecord
100
AcDbLinetypeTableRecord
  2
BYLAYER
 70
            64
  3

 72
            65
 73
             0
 40
0.0
  0
LTYPE
  5
13
100
AcDbSymbolTableRecord
100
AcDbLinetypeTableRecord
  2
CONTINUOUS
 70
            64
  3
Solid line
 72
            65
 73
             0
 40
0.0
  0
LTYPE
  5
1D
100
AcDbSymbolTableRecord
100
AcDbLinetypeTableRecord
  2
DASHED
 70
            64
  3
Dashed
 72
            65
 73
             2
 40
15.0
 49
7.0
 74
             0
 49
-8.0
 74
             0
  0
LTYPE
  5
1E
100
AcDbSymbolTableRecord
100
AcDbLinetypeTableRecord
  2
DOTTED
 70
            64
  3
Dotted
 72
            65
 73
             2
 40
1.0
 49
0.0
 74
             0
 49
-1.0
 74
             0
  0
LTYPE
  5
1F
100
AcDbSymbolTableRecord
100
AcDbLinetypeTableRecord
  2
DOT_CENTER
 70
            64
  3
Dot_Center
 72
            65
 73
             4
 40
14.0
 49
12.0
 74
             0
 49
-1.0
 74
             0
 49
0.0
 74
             0
 49
-1.0
 74
             0
  0
LTYPE
  5
20
100
AcDbSymbolTableRecord
100
AcDbLinetypeTableRecord
  2
LONG_DASHED
 70
            64
  3
Long_Dashed
 72
            65
 73
             2
 40
15.0
 49
10.0
 74
             0
 49
-5.0
 74
             0
  0
LTYPE
  5
21
100
AcDbSymbolTableRecord
100
AcDbLinetypeTableRecord
  2
DASH_CENTER
 70
            64
  3
Dash_Center
 72
            65
 73
             4
 40
14.0
 49
11.0
 74
             0
 49
-1.0
 74
             0
 49
1.0
 74
             0
 49
-1.0
 74
             0
  0
LTYPE
  5
22
100
AcDbSymbolTableRecord
100
AcDbLinetypeTableRecord
  2
PHANTOM
 70
            64
  3
Phantom
 72
            65
 73
             6
 40
13.0
 49
10.0
 74
             0
 49
-1.0
 74
             0
 49
0.0
 74
             0
 49
-1.0
 74
             0
 49
0.0
 74
             0
 49
-1.0
 74
             0
  0
LTYPE
  5
23
100
AcDbSymbolTableRecord
100
AcDbLinetypeTableRecord
  2
CENTER_DASH_DASH
 70
            64
  3
Center_Dash_Dash
 72
            65
 73
             6
 40
14.0
 49
9.0
 74
             0
 49
-1.0
 74
             0
 49
1.0
 74
             0
 49
-1.0
 74
             0
 49
1.0
 74
             0
 49
-1.0
 74
             0
  0
ENDTAB
  0
TABLE
  2
LAYER
  5
2
100
AcDbSymbolTable
 70
             2
  0
LAYER
  5
14
100
AcDbSymbolTableRecord
100
AcDbLayerTableRecord
  2
0
 70
             0
 62
             7
  6
CONTINUOUS
  0
LAYER
  5
24
100
AcDbSymbolTableRecord
100
AcDbLayerTableRecord
  2
1
 70
             0
 62
             7
  6
CONTINUOUS
  0
ENDTAB
  0
TABLE
  2
STYLE
  5
3
100
AcDbSymbolTable
 70
             2
  0
STYLE
  5
17
100
AcDbSymbolTableRecord
100
AcDbTextStyleTableRecord
  2
STANDARD
 70
             0
 40
0.0
 41
1.0
 50
0.0
 71
             0
 42
0.0
  3
txt
  4

  0
STYLE
  5
CB
100
AcDbSymbolTableRecord
100
AcDbTextStyleTableRecord
  2
CONVERTER_1
 70
             0
 40
0.0
 41
0.9
 50
0.0
 71
             0
 42
0.0
  3
txt.shx
  4

  0
ENDTAB
  0
TABLE
  2
VIEW
  5
5
100
AcDbSymbolTable
 70
             0
  0
ENDTAB
  0
TABLE
  2
UCS
  5
6
100
AcDbSymbolTable
 70
             0
  0
ENDTAB
  0
TABLE
  2
APPID
  5
8
100
AcDbSymbolTable
 70
             1
  0
APPID
  5
16
100
AcDbSymbolTableRecord
100
AcDbRegAppTableRecord
  2
ACAD
 70
             0
  0
ENDTAB
  0
TABLE
  2
DIMSTYLE
  5
9
100
AcDbSymbolTable
 70
             5
  0
DIMSTYLE
105
18
100
AcDbSymbolTableRecord
100
AcDbDimStyleTableRecord
  2
STANDARD
 70
             0
  3

  4

  5

  6

  7

 40
1.0
 41
0.18
 42
0.0625
 43
0.38
 44
0.18
 45
0.0
 46
0.0
 47
0.0
 48
0.0
 71
             0
 72
             0
 73
             1
 74
             1
 75
             0
 76
             0
 77
             0
 78
             0
140
0.18
141
0.09
142
0.0
143
25.4
144
1.0
145
0.0
146
1.0
147
0.09
170
             0
171
             2
172
             0
173
             0
174
             0
175
             0
176
             0
177
             0
178
             0
270
             2
271
             4
272
             4
273
             2
274
             2
275
             0
280
             0
281
             0
282
             0
283
             1
284
             0
285
             0
286
             0
287
             3
288
             0
340
17
  0
DIMSTYLE
105
CE
100
AcDbSymbolTableRecord
100
AcDbDimStyleTableRecord
  2
ME10_DIM_0
 70
             0
  3
R<>
  4

  5

  6

  7

 40
1.0
 41
7.0
 42
0.0
 43
0.38
 44
2.0
 45
0.0
 46
0.0
 47
0.0
 48
0.0
 71
             0
 72
             0
 73
             0
 74
             0
 75
             0
 76
             0
 77
             1
 78
             8
140
7.0
141
0.09
142
0.0
143
25.4
144
1.0
145
0.0
146
1.0
147
0.625
170
             0
171
             2
172
             1
173
             1
174
             0
175
             0
176
             4
177
             4
178
             1
270
             2
271
             2
272
             4
273
             2
274
             2
275
             0
280
             0
281
             0
282
             0
283
             1
284
             0
285
             0
286
             0
287
             3
288
             0
340
CB
  0
DIMSTYLE
105
D9
100
AcDbSymbolTableRecord
100
AcDbDimStyleTableRecord
  2
ME10_DIM_1
 70
             0
  3
-125
  4

  5

  6

  7

 40
1.0
 41
7.0
 42
0.0
 43
0.38
 44
2.0
 45
0.0
 46
0.0
 47
0.0
 48
0.0
 71
             0
 72
             0
 73
             0
 74
             0
 75
             0
 76
             0
 77
             1
 78
             8
140
7.0
141
0.09
142
0.0
143
25.4
144
1.0
145
0.0
146
1.0
147
0.625
170
             0
171
             2
172
             1
173
             1
174
             0
175
             0
176
             4
177
             4
178
             1
270
             2
271
             2
272
             4
273
             2
274
             2
275
             0
280
             0
281
             0
282
             0
283
             1
284
             0
285
             0
286
             0
287
             3
288
             0
340
CB
  0
DIMSTYLE
105
E4
100
AcDbSymbolTableRecord
100
AcDbDimStyleTableRecord
  2
ME10_DIM_2
 70
             0
  3
DN<>
  4

  5

  6

  7

 40
1.0
 41
7.0
 42
0.0
 43
0.38
 44
2.0
 45
0.0
 46
0.0
 47
0.0
 48
0.0
 71
             0
 72
             0
 73
             0
 74
             0
 75
             0
 76
             0
 77
             1
 78
             8
140
7.0
141
0.09
142
0.0
143
25.4
144
1.0
145
0.0
146
1.0
147
0.625
170
             0
171
             2
172
             1
173
             1
174
             0
175
             0
176
             4
177
             4
178
             1
270
             2
271
             2
272
             4
273
             2
274
             2
275
             0
280
             0
281
             0
282
             0
283
             1
284
             0
285
             0
286
             0
287
             3
288
             0
340
CB
  0
DIMSTYLE
105
EF
100
AcDbSymbolTableRecord
100
AcDbDimStyleTableRecord
  2
ME10_DIM_3
 70
             0
  3

  4

  5

  6

  7

 40
1.0
 41
7.0
 42
0.0
 43
0.38
 44
2.0
 45
0.0
 46
0.0
 47
0.0
 48
0.0
 71
             0
 72
             0
 73
             0
 74
             0
 75
             0
 76
             0
 77
             1
 78
             8
140
7.0
141
0.09
142
0.0
143
25.4
144
1.0
145
0.0
146
1.0
147
0.625
170
             0
171
             2
172
             1
173
             1
174
             0
175
             0
176
             4
177
             4
178
             1
270
             2
271
             2
272
             4
273
             2
274
             2
275
             0
280
             0
281
             0
282
             0
283
             1
284
             0
285
             0
286
             0
287
             3
288
             0
340
CB
  0
ENDTAB
  0
TABLE
  2
BLOCK_RECORD
  5
1
100
AcDbSymbolTable
 70
             8
  0
BLOCK_RECORD
  5
A
100
AcDbSymbolTableRecord
100
AcDbBlockTableRecord
  2
*MODEL_SPACE
  0
BLOCK_RECORD
  5
B
100
AcDbSymbolTableRecord
100
AcDbBlockTableRecord
  2
*PAPER_SPACE
  0
BLOCK_RECORD
  5
25
100
AcDbSymbolTableRecord
100
AcDbBlockTableRecord
  2
ECKVERL_DN40_-ARTIKEL
  0
BLOCK_RECORD
  5
27
100
AcDbSymbolTableRecord
100
AcDbBlockTableRecord
  2
HL_8E_SIFONROSETTE_DN40
  0
BLOCK_RECORD
  5
29
100
AcDbSymbolTableRecord
100
AcDbBlockTableRecord
  2
HOLL_NDERMUTTER_6_4
  0
BLOCK_RECORD
  5
2B
100
AcDbSymbolTableRecord
100
AcDbBlockTableRecord
  2
HL_17_UNIVERSAL-_BERGAT_CK
  0
BLOCK_RECORD
  5
C2
100
AcDbSymbolTableRecord
100
AcDbBlockTableRecord
  2
*D4
  0
BLOCK_RECORD
  5
D0
100
AcDbSymbolTableRecord
100
AcDbBlockTableRecord
  2
*D5
  0
BLOCK_RECORD
  5
DB
100
AcDbSymbolTableRecord
100
AcDbBlockTableRecord
  2
*D6
  0
BLOCK_RECORD
  5
E6
100
AcDbSymbolTableRecord
100
AcDbBlockTableRecord
  2
*D7
  0
ENDTAB
  0
ENDSEC
  0
SECTION
  2
BLOCKS
  0
BLOCK
  5
D
100
AcDbEntity
  8
0
100
AcDbBlockBegin
  2
*MODEL_SPACE
 70
             0
 10
0.0
 20
0.0
 30
0.0
  3
*MODEL_SPACE
  1

  0
ENDBLK
  5
E
100
AcDbEntity
  8
0
100
AcDbBlockEnd
  0
BLOCK
  5
F
100
AcDbEntity
 67
             1
  8
0
100
AcDbBlockBegin
  2
*PAPER_SPACE
 70
             0
 10
0.0
 20
0.0
 30
0.0
  3
*PAPER_SPACE
  1

  0
ENDBLK
  5
10
100
AcDbEntity
 67
             1
  8
0
100
AcDbBlockEnd
  0
BLOCK
  5
26
100
AcDbEntity
  8
0
100
AcDbBlockBegin
  2
ECKVERL_DN40_-ARTIKEL
 70
             0
 10
23296.27212688882
 20
32193.7047156191
 30
0.0
  3
ECKVERL_DN40_-ARTIKEL
  1

  0
ARC
  5
4F
100
AcDbEntity
  8
1
  6
CONTINUOUS
 62
             7
100
AcDbCircle
 10
23299.299999999999
 20
32211.25
 40
20.0
100
AcDbArc
 50
180.0
 51
-90.0
  0
LINE
  5
4E
100
AcDbEntity
  8
1
  6
CONTINUOUS
 62
             2
100
AcDbLine
 10
23276.900000000001
 20
32251.583448144302
 11
23276.900000000001
 21
32255.25
  0
LINE
  5
4D
100
AcDbEntity
  8
1
  6
CONTINUOUS
 62
             7
100
AcDbLine
 10
23275.400000000001
 20
32252.34696551146
 11
23275.400000000001
 21
32255.25
  0
LINE
  5
4C
100
AcDbEntity
  8
1
  6
CONTINUOUS
 62
             7
100
AcDbLine
 10
23276.900000000001
 20
32255.25
 11
23275.400000000001
 21
32255.25
  0
LINE
  5
4B
100
AcDbEntity
  8
1
  6
CONTINUOUS
 62
             2
100
AcDbLine
 10
23321.700000000001
 20
32251.769381617702
 11
23321.700000000001
 21
32255.25
  0
LINE
  5
4A
100
AcDbEntity
  8
1
  6
CONTINUOUS
 62
             7
100
AcDbLine
 10
23323.200000000001
 20
32252.34696551146
 11
23323.200000000001
 21
32255.25
  0
LINE
  5
49
100
AcDbEntity
  8
1
  6
CONTINUOUS
 62
             7
100
AcDbLine
 10
23321.700000000001
 20
32255.25
 11
23323.200000000001
 21
32255.25
  0
LINE
  5
48
100
AcDbEntity
  8
1
  6
CONTINUOUS
 62
             7
100
AcDbLine
 10
23275.400000000001
 20
32252.34696551146
 11
23276.900000000001
 21
32251.480940107682
  0
LINE
  5
47
100
AcDbEntity
  8
1
  6
CONTINUOUS
 62
             7
100
AcDbLine
 10
23321.299999999999
 20
32251.25
 11
23321.700000000001
 21
32251.480940107682
  0
LINE
  5
46
100
AcDbEntity
  8
1
  6
CONTINUOUS
 62
             7
100
AcDbLine
 10
23434.299999999999
 20
32191.25
 11
23434.299999999999
 21
32231.25
  0
LINE
  5
45
100
AcDbEntity
  8
1
  6
CONTINUOUS
 62
             7
100
AcDbLine
 10
23321.299999999999
 20
32251.25
 11
23321.299999999999
 21
32233.25
  0
LINE
  5
44
100
AcDbEntity
  8
1
  6
CONTINUOUS
 62
             7
100
AcDbLine
 10
23321.700000000001
 20
32251.480940107682
 11
23323.200000000001
 21
32252.34696551146
  0
LINE
  5
43
100
AcDbEntity
  8
1
  6
CONTINUOUS
 62
             7
100
AcDbLine
 10
23277.299999999999
 20
32251.25
 11
23277.299999999999
 21
32233.25
  0
LINE
  5
42
100
AcDbEntity
  8
1
  6
CONTINUOUS
 62
             7
100
AcDbLine
 10
23276.900000000001
 20
32251.480940107682
 11
23277.299999999999
 21
32251.25
  0
LINE
  5
41
100
AcDbEntity
  8
1
  6
CONTINUOUS
 62
             7
100
AcDbLine
 10
23319.299999999999
 20
32231.25
 11
23321.299999999999
 21
32233.25
  0
LINE
  5
40
100
AcDbEntity
  8
1
  6
CONTINUOUS
 62
             7
100
AcDbLine
 10
23277.299999999999
 20
32233.25
 11
23279.299999999999
 21
32231.25
  0
LINE
  5
3F
100
AcDbEntity
  8
1
  6
CONTINUOUS
 62
             7
100
AcDbLine
 10
23279.299999999999
 20
32211.25
 11
23279.299999999999
 21
32231.25
  0
LINE
  5
3E
100
AcDbEntity
  8
1
  6
CONTINUOUS
 62
             7
100
AcDbLine
 10
23434.299999999999
 20
32191.25
 11
23403.587598442438
 21
32191.25
  0
LINE
  5
3D
100
AcDbEntity
  8
1
  6
CONTINUOUS
 62
             7
100
AcDbLine
 10
23434.299999999999
 20
32231.25
 11
23403.587598442438
 21
32231.25
  0
LINE
  5
3C
100
AcDbEntity
  8
1
  6
DASH_CENTER
 62
             2
100
AcDbLine
 10
23435.18044508998
 20
32211.25
 11
23271.518284533598
 21
32211.25
  0
LINE
  5
3B
100
AcDbEntity
  8
1
  6
DASH_CENTER
 62
             2
100
AcDbLine
 10
23299.299999999999
 20
32330.500941697999
 11
23299.299999999999
 21
32186.919238599599
  0
LINE
  5
3A
100
AcDbEntity
  8
1
  6
CONTINUOUS
 62
             7
100
AcDbLine
 10
23277.299999999999
 20
32233.25
 11
23321.299999999999
 21
32233.25
  0
LINE
  5
39
100
AcDbEntity
  8
1
  6
CONTINUOUS
 62
             7
100
AcDbLine
 10
23299.299999999999
 20
32231.25
 11
23279.299999999999
 21
32231.25
  0
LINE
  5
38
100
AcDbEntity
  8
1
  6
CONTINUOUS
 62
             7
100
AcDbLine
 10
23277.299999999999
 20
32251.25
 11
23321.299999999999
 21
32251.25
  0
LINE
  5
37
100
AcDbEntity
  8
1
  6
CONTINUOUS
 62
             7
100
AcDbLine
 10
23323.200000000001
 20
32252.34696551146
 11
23275.400000000001
 21
32252.34696551146
  0
LINE
  5
36
100
AcDbEntity
  8
1
  6
CONTINUOUS
 62
             7
100
AcDbLine
 10
23319.299999999999
 20
32231.25
 11
23299.299999999999
 21
32231.25
  0
LINE
  5
35
100
AcDbEntity
  8
1
  6
CONTINUOUS
 62
             7
100
AcDbLine
 10
23299.299999999999
 20
32211.25
 11
23319.299999999999
 21
32231.25
  0
LINE
  5
34
100
AcDbEntity
  8
1
  6
CONTINUOUS
 62
             7
100
AcDbLine
 10
23365.08343808369
 20
32231.25
 11
23319.299999999999
 21
32231.25
  0
LINE
  5
33
100
AcDbEntity
  8
1
  6
CONTINUOUS
 62
             7
100
AcDbLine
 10
23365.08343808369
 20
32191.25
 11
23299.299999999999
 21
32191.25
  0
ENDBLK
  5
50
100
AcDbEntity
  8
0
100
AcDbBlockEnd
  0
BLOCK
  5
28
100
AcDbEntity
  8
0
100
AcDbBlockBegin
  2
HL_8E_SIFONROSETTE_DN40
 70
             0
 10
104.28759844243901
 20
-53.49999999999993
 30
0.0
  3
HL_8E_SIFONROSETTE_DN40
  1

  0
ARC
  5
5D
100
AcDbEntity
  8
1
  6
CONTINUOUS
 62
             7
100
AcDbCircle
 10
89.96805683908565
 20
-128.66721106809271
 40
25.0
100
AcDbArc
 50
-165.32644000233907
 51
-96.14900488825113
  0
ARC
  5
5C
100
AcDbEntity
  8
1
  6
CONTINUOUS
 62
             7
100
AcDbCircle
 10
89.96805683908565
 20
-101.3327889319072
 40
24.99999999999999
100
AcDbArc
 50
96.14900488825113
 51
165.3264400023393
  0
ARC
  5
5B
100
AcDbEntity
  8
1
  6
CONTINUOUS
 62
             7
100
AcDbCircle
 10
89.96805683908565
 20
-128.66721106809271
 40
25.0
100
AcDbArc
 50
-170.82945803497631
 51
-165.32644000233907
  0
ARC
  5
5A
100
AcDbEntity
  8
1
  6
CONTINUOUS
 62
             7
100
AcDbCircle
 10
89.96805683908565
 20
-101.3327889319072
 40
25.00000000000004
100
AcDbArc
 50
165.3264400023393
 51
170.82945803497603
  0
LINE
  5
59
100
AcDbEntity
  8
1
  6
CONTINUOUS
 62
             7
100
AcDbLine
 10
87.29019468216353
 20
-76.47662160328383
 11
104.28759844243901
 21
-74.99999999999994
  0
LINE
  5
58
100
AcDbEntity
  8
1
  6
CONTINUOUS
 62
             7
100
AcDbLine
 10
104.28759844243901
 20
-154.99999999999989
 11
87.29019468216353
 21
-153.52337839671611
  0
LINE
  5
57
100
AcDbEntity
  8
1
  6
CONTINUOUS
 62
             7
100
AcDbLine
 10
104.28759844243901
 20
-154.99999999999989
 11
104.28759844243901
 21
-135.0
  0
LINE
  5
56
100
AcDbEntity
  8
1
  6
CONTINUOUS
 62
             7
100
AcDbLine
 10
87.29019468216353
 20
-153.52337839671611
 11
87.29019468216353
 21
-135.0
  0
LINE
  5
55
100
AcDbEntity
  8
1
  6
CONTINUOUS
 62
             7
100
AcDbLine
 10
87.29019468216353
 20
-95.0
 11
87.29019468216353
 21
-76.47662160328383
  0
LINE
  5
54
100
AcDbEntity
  8
1
  6
CONTINUOUS
 62
             7
100
AcDbLine
 10
104.2875984424391
 20
-95.0
 11
104.28759844243901
 21
-74.99999999999994
  0
LINE
  5
53
100
AcDbEntity
  8
1
  6
CONTINUOUS
 62
             7
100
AcDbLine
 10
65.28759844243899
 20
-97.34844791595559
 11
65.28759844243899
 21
-132.6515520840442
  0
LINE
  5
52
100
AcDbEntity
  8
1
  6
CONTINUOUS
 62
             7
100
AcDbLine
 10
87.29019468216353
 20
-135.0
 11
87.29019468216353
 21
-95.0
  0
LINE
  5
51
100
AcDbEntity
  8
1
  6
CONTINUOUS
 62
             7
100
AcDbLine
 10
104.28759844243901
 20
-135.0
 11
104.2875984424391
 21
-95.0
  0
ENDBLK
  5
5E
100
AcDbEntity
  8
0
100
AcDbBlockEnd
  0
BLOCK
  5
2A
100
AcDbEntity
  8
0
100
AcDbBlockBegin
  2
HOLL_NDERMUTTER_6_4
 70
             0
 10
-154.6881550934813
 20
-42.57252406494807
 30
0.0
  3
HOLL_NDERMUTTER_6_4
  1

  0
SPLINE
  5
9F
100
AcDbEntity
  8
0
  6
CONTINUOUS
 62
             7
100
AcDbSpline
210
0.0
220
0.0
230
1.0
 70
             0
 71
             3
 72
            11
 73
             7
 74
             5
 42
0.00000000001
 43
0.00000000001
 44
0.00000000001
 40
10.19555243465282
 40
10.19555243465282
 40
10.19555243465282
 40
10.19555243465282
 40
10.819635921994889
 40
10.819635921994889
 40
10.819635921994889
 40
11.431124435565939
 40
11.431124435565939
 40
11.431124435565939
 40
11.431124435565939
 10
28.49999999998181
 20
-55.999999999963627
 30
0.0
 10
28.337288486141919
 20
-55.863468828712953
 30
0.0
 10
28.17555515099593
 20
-55.73267239502821
 30
0.0
 10
28.014728067166288
 20
-55.607625671324072
 30
0.0
 10
27.84978906629112
 20
-55.479381838387788
 30
0.0
 10
27.686389345359199
 20
-55.357641182199593
 30
0.0
 10
27.524420523448502
 20
-55.24228263667829
 30
0.0
 11
28.49999999998181
 21
-55.999999999963627
 31
0.0
 11
28.256657372320205
 21
-55.799506167813902
 31
0.0
 11
28.014728067166288
 21
-55.607625671324072
 31
0.0
 11
27.768460478195713
 21
-55.420122171220555
 31
0.0
 11
27.524420523448502
 21
-55.24228263667829
 31
0.0
  0
SPLINE
  5
9E
100
AcDbEntity
  8
0
  6
CONTINUOUS
 62
             7
100
AcDbSpline
210
0.0
220
0.0
230
1.0
 70
             0
 71
             3
 72
            11
 73
             7
 74
             5
 42
0.00000000001
 43
0.00000000001
 44
0.00000000001
 40
9.6520212354362247
 40
9.6520212354362247
 40
9.6520212354362247
 40
9.6520212354362247
 40
10.76957509520426
 40
10.76957509520426
 40
10.76957509520426
 40
11.88858825881975
 40
11.88858825881975
 40
11.88858825881975
 40
11.88858825881975
 10
18.048490837998539
 20
-55.242282636627358
 30
0.0
 10
18.396649719950801
 20
-55.357257241576022
 30
0.0
 10
18.748651742880611
 20
-55.478828329774849
 30
0.0
 10
19.10476089536678
 20
-55.607197994981107
 30
0.0
 10
19.45184294222781
 20
-55.732313583401272
 30
0.0
 10
19.801048657194769
 20
-55.863246549084593
 30
0.0
 10
20.15254326381546
 20
-56.000000000000007
 30
0.0
 11
18.048490837998539
 21
-55.242282636627358
 31
0.0
 11
18.573644515232441
 21
-55.41971716820764
 31
0.0
 11
19.10476089536678
 21
-55.607197994981107
 31
0.0
 11
19.626997369681245
 21
-55.799234799054837
 31
0.0
 11
20.15254326381546
 21
-56.000000000000007
 31
0.0
  0
SPLINE
  5
9D
100
AcDbEntity
  8
0
  6
CONTINUOUS
 62
             7
100
AcDbSpline
210
0.0
220
0.0
230
1.0
 70
             0
 71
             3
 72
            11
 73
             7
 74
             5
 42
0.00000000001
 43
0.00000000001
 44
0.00000000001
 40
12.6022249851908
 40
12.6022249851908
 40
12.6022249851908
 40
12.6022249851908
 40
13.319387266273759
 40
13.319387266273759
 40
13.319387266273759
 40
14.0365495399508
 40
14.0365495399508
 40
14.0365495399508
 40
14.0365495399508
 10
26.424420523446319
 20
-54.321800737645397
 30
0.0
 10
26.605663994829229
 20
-54.473448323205972
 30
0.0
 10
26.788987430474659
 20
-54.626845115264587
 30
0.0
 10
26.974433157127351
 20
-54.782026595345087
 30
0.0
 10
27.15623036144461
 20
-54.934154982180203
 30
0.0
 10
27.339556615643229
 20
-55.087571290398053
 30
0.0
 10
27.524420523448502
 20
-55.24228263667829
 30
0.0
 11
26.424420523446319
 21
-54.321800737645397
 31
0.0
 11
26.697850994560667
 21
-54.550588456050271
 31
0.0
 11
26.974433157127351
 21
-54.782026595345087
 31
0.0
 11
27.24827682647992
 21
-55.011186006219774
 31
0.0
 11
27.524420523448502
 21
-55.24228263667829
 31
0.0
  0
SPLINE
  5
9C
100
AcDbEntity
  8
0
  6
CONTINUOUS
 62
             7
100
AcDbSpline
210
0.0
220
0.0
230
1.0
 70
             0
 71
             3
 72
            11
 73
             7
 74
             5
 42
0.00000000001
 43
0.00000000001
 44
0.00000000001
 40
12.602224985190871
 40
12.602224985190871
 40
12.602224985190871
 40
12.602224985190871
 40
13.31938726627383
 40
13.31938726627383
 40
13.31938726627383
 40
14.03654953995088
 40
14.03654953995088
 40
14.03654953995088
 40
14.03654953995088
 10
-26.424420523446319
 20
-54.321800737645397
 30
0.0
 10
-26.606421741737002
 20
-54.474082334949351
 30
0.0
 10
-26.78976153558321
 20
-54.627492888488639
 30
0.0
 10
-26.974433157127351
 20
-54.782026595345087
 30
0.0
 10
-27.15616129461705
 20
-54.934097186873252
 30
0.0
 10
-27.339486043732901
 20
-55.087512229245483
 30
0.0
 10
-27.52442052344847
 20
-55.24228263667829
 30
0.0
 11
-26.424420523446319
 21
-54.321800737645397
 31
0.0
 11
-26.698425439066789
 21
-54.551069125413058
 31
0.0
 11
-26.974433157127351
 21
-54.782026595345087
 31
0.0
 11
-27.248224461953207
 21
-55.011142185047454
 31
0.0
 11
-27.52442052344847
 21
-55.24228263667829
 31
0.0
  0
SPLINE
  5
9B
100
AcDbEntity
  8
0
  6
CONTINUOUS
 62
             7
100
AcDbSpline
210
0.0
220
0.0
230
1.0
 70
             0
 71
             3
 72
            11
 73
             7
 74
             5
 42
0.00000000001
 43
0.00000000001
 44
0.00000000001
 40
110.6006816517057
 40
110.6006816517057
 40
110.6006816517057
 40
110.6006816517057
 40
111.20324172357979
 40
111.20324172357979
 40
111.20324172357979
 40
111.8057903305485
 40
111.8057903305485
 40
111.8057903305485
 40
111.8057903305485
 10
20.8769179627343
 20
-55.24228263667829
 30
0.0
 10
20.746359006494458
 20
-55.087760144720967
 30
0.0
 10
20.61672424666904
 20
-54.934339647712477
 30
0.0
 10
20.488018185180412
 20
-54.782026617522213
 30
0.0
 10
20.356525981966119
 20
-54.62641641792289
 30
0.0
 10
20.226903152004532
 20
-54.473027265354183
 30
0.0
 10
20.099100503426602
 20
-54.321800737645397
 30
0.0
 11
20.8769179627343
 21
-55.24228263667829
 31
0.0
 11
20.681773238425656
 21
-55.011326078937614
 31
0.0
 11
20.488018185180412
 21
-54.782026617522213
 31
0.0
 11
20.292175761314873
 21
-54.550269800624854
 31
0.0
 11
20.099100503426602
 21
-54.321800737645397
 31
0.0
  0
SPLINE
  5
9A
100
AcDbEntity
  8
0
  6
CONTINUOUS
 62
             7
100
AcDbSpline
210
0.0
220
0.0
230
1.0
 70
             0
 71
             3
 72
            11
 73
             7
 74
             5
 42
0.00000000001
 43
0.00000000001
 44
0.00000000001
 40
12.60222498519019
 40
12.60222498519019
 40
12.60222498519019
 40
12.60222498519019
 40
13.20477356312731
 40
13.20477356312731
 40
13.20477356312731
 40
13.807333664033029
 40
13.807333664033029
 40
13.807333664033029
 40
13.807333664033029
 10
-17.27067337868354
 20
-54.321800737645397
 30
0.0
 10
-17.398734616501319
 20
-54.473333249257863
 30
0.0
 10
-17.52836200704769
 20
-54.626727834085621
 30
0.0
 10
-17.659591041694512
 20
-54.782026595345087
 30
0.0
 10
-17.78832831423642
 20
-54.934376561246623
 30
0.0
 10
-17.91796380839514
 20
-55.087797931366367
 30
0.0
 10
-18.0484908379876
 20
-55.24228263667829
 30
0.0
 11
-17.27067337868354
 21
-54.321800737645397
 31
0.0
 11
-17.463944286378137
 21
-54.550501322877622
 31
0.0
 11
-17.659591041694512
 21
-54.782026595345087
 31
0.0
 11
-17.853369780947098
 21
-55.011354088732794
 31
0.0
 11
-18.0484908379876
 21
-55.24228263667829
 31
0.0
  0
SPLINE
  5
99
100
AcDbEntity
  8
0
  6
CONTINUOUS
 62
             7
100
AcDbSpline
210
0.0
220
0.0
230
1.0
 70
             0
 71
             3
 72
            11
 73
             7
 74
             5
 42
0.00000000001
 43
0.00000000001
 44
0.00000000001
 40
110.6006816516911
 40
110.6006816516911
 40
110.6006816516911
 40
110.6006816516911
 40
111.2032417235651
 40
111.2032417235651
 40
111.2032417235651
 40
111.8057903305339
 40
111.8057903305339
 40
111.8057903305339
 40
111.8057903305339
 10
18.048490837998539
 20
-55.242282636627358
 30
0.0
 10
17.917873292117289
 20
-55.087690801217839
 30
0.0
 10
17.788239850502581
 20
-54.934271871701647
 30
0.0
 10
17.65959106043374
 20
-54.782026617522213
 30
0.0
 10
17.52846193662845
 20
-54.626846092516651
 30
0.0
 10
17.398832670147389
 20
-54.473449274337327
 30
0.0
 10
17.27067337867993
 20
-54.321800737645397
 30
0.0
 11
18.048490837998539
 21
-55.242282636627358
 31
0.0
 11
17.853302665786487
 21
-55.011274659113504
 31
0.0
 11
17.65959106043374
 21
-54.782026617522213
 31
0.0
 11
17.464018532430142
 21
-54.550589181966181
 31
0.0
 11
17.27067337867993
 21
-54.321800737645397
 31
0.0
  0
SPLINE
  5
98
100
AcDbEntity
  8
0
  6
CONTINUOUS
 62
             7
100
AcDbSpline
210
0.0
220
0.0
230
1.0
 70
             0
 71
             3
 72
            11
 73
             7
 74
             5
 42
0.00000000001
 43
0.00000000001
 44
0.00000000001
 40
12.60222498519215
 40
12.60222498519215
 40
12.60222498519215
 40
12.60222498519215
 40
13.20477356312929
 40
13.20477356312929
 40
13.20477356312929
 40
13.80733366403499
 40
13.80733366403499
 40
13.80733366403499
 40
13.80733366403499
 10
-20.09910050342657
 20
-54.321800737645397
 30
0.0
 10
-20.22755168574804
 20
-54.473794663426823
 30
0.0
 10
-20.35718696530239
 20
-54.62719863729945
 30
0.0
 10
-20.488018166441179
 20
-54.782026595345087
 30
0.0
 10
-20.61585200970876
 20
-54.933307427061663
 30
0.0
 10
-20.745469537574539
 20
-55.086707417598532
 30
0.0
 10
-20.876917962734272
 20
-55.24228263667829
 30
0.0
 11
-20.09910050342657
 21
-54.321800737645397
 31
0.0
 11
-20.29266682787738
 21
-54.550850904396171
 31
0.0
 11
-20.488018166441179
 21
-54.782026595345087
 31
0.0
 11
-20.681112596378171
 21
-55.010544220750496
 31
0.0
 11
-20.876917962734272
 21
-55.24228263667829
 31
0.0
  0
SPLINE
  5
97
100
AcDbEntity
  8
0
  6
CONTINUOUS
 62
             7
100
AcDbSpline
210
0.0
220
0.0
230
1.0
 70
             0
 71
             3
 72
            11
 73
             7
 74
             5
 42
0.00000000001
 43
0.00000000001
 44
0.00000000001
 40
10.195552434652781
 40
10.195552434652781
 40
10.195552434652781
 40
10.195552434652781
 40
11.264995853159769
 40
11.264995853159769
 40
11.264995853159769
 40
12.33452008509969
 40
12.33452008509969
 40
12.33452008509969
 40
12.33452008509969
 10
0.0
 20
-56.000000000000007
 30
0.0
 10
-0.3366485074002412
 20
-55.862208355491013
 30
0.0
 10
-0.6681681591726374
 20
-55.731521099543912
 30
0.0
 10
-0.9948383386399655
 20
-55.607625671324072
 30
0.0
 10
-1.3318473291255939
 20
-55.479809066648151
 30
0.0
 10
-1.6668451055884359
 20
-55.35802629525643
 30
0.0
 10
-2.0
 20
-55.24228263667829
 30
0.0
 11
0.0
 21
-56.000000000000007
 31
0.0
 11
-0.5011610422948252
 21
-55.798601754553601
 31
0.0
 11
-0.9948383386399655
 21
-55.607625671324072
 31
0.0
 11
-1.4988644553477561
 21
-55.420426799214518
 31
0.0
 11
-2.0
 21
-55.24228263667829
 31
0.0
  0
SPLINE
  5
96
100
AcDbEntity
  8
0
  6
CONTINUOUS
 62
             7
100
AcDbSpline
210
0.0
220
0.0
230
1.0
 70
             0
 71
             3
 72
            11
 73
             7
 74
             5
 42
0.00000000001
 43
0.00000000001
 44
0.00000000001
 40
10.195552434652781
 40
10.195552434652781
 40
10.195552434652781
 40
10.195552434652781
 40
10.72829261095816
 40
10.72829261095816
 40
10.72829261095816
 40
11.244087937724711
 40
11.244087937724711
 40
11.244087937724711
 40
11.244087937724711
 10
-20.15254326381546
 20
-56.000000000000007
 30
0.0
 10
-20.274607587209179
 20
-55.862056366535413
 30
0.0
 10
-20.394678575958071
 20
-55.731381557707223
 30
0.0
 10
-20.512861124829222
 20
-55.607625671324072
 30
0.0
 10
-20.63534201365837
 20
-55.479368740780053
 30
0.0
 10
-20.756667290093901
 20
-55.357629355577963
 30
0.0
 10
-20.876917962734272
 20
-55.24228263667829
 30
0.0
 11
-20.15254326381546
 21
-56.000000000000007
 31
0.0
 11
-20.334157859768304
 21
-55.798492430506499
 31
0.0
 11
-20.512861124829222
 21
-55.607625671324072
 31
0.0
 11
-20.695725874852538
 21
-55.420112824634558
 31
0.0
 11
-20.876917962734272
 21
-55.24228263667829
 31
0.0
  0
SPLINE
  5
95
100
AcDbEntity
  8
0
  6
CONTINUOUS
 62
             7
100
AcDbSpline
210
0.0
220
0.0
230
1.0
 70
             0
 71
             3
 72
            11
 73
             7
 74
             5
 42
0.00000000001
 43
0.00000000001
 44
0.00000000001
 40
10.19555243465293
 40
10.19555243465293
 40
10.19555243465293
 40
10.19555243465293
 40
11.313304530967139
 40
11.313304530967139
 40
11.313304530967139
 40
12.43211945463684
 40
12.43211945463684
 40
12.43211945463684
 40
12.43211945463684
 10
-20.15254326381546
 20
-56.000000000000007
 30
0.0
 10
-19.79854873157819
 20
-55.862273921160529
 30
0.0
 10
-19.449779689337419
 20
-55.731581248597656
 30
0.0
 10
-19.10594725395276
 20
-55.607625671324072
 30
0.0
 10
-18.750301521875372
 20
-55.479411263702787
 30
0.0
 10
-18.397892789027509
 20
-55.357667747819512
 30
0.0
 10
-18.0484908379876
 20
-55.24228263667829
 30
0.0
 11
-20.15254326381546
 21
-56.000000000000007
 31
0.0
 11
-19.625434472564379
 21
-55.798648897574829
 31
0.0
 11
-19.10594725395276
 21
-55.607625671324072
 31
0.0
 11
-18.574877628081126
 21
-55.420143167821159
 31
0.0
 11
-18.0484908379876
 21
-55.24228263667829
 31
0.0
  0
SPLINE
  5
94
100
AcDbEntity
  8
0
  6
CONTINUOUS
 62
             7
100
AcDbSpline
210
0.0
220
0.0
230
1.0
 70
             0
 71
             3
 72
            11
 73
             7
 74
             5
 42
0.00000000001
 43
0.00000000001
 44
0.00000000001
 40
10.19555243465283
 40
10.19555243465283
 40
10.19555243465283
 40
10.19555243465283
 40
11.26499585315983
 40
11.26499585315983
 40
11.26499585315983
 40
12.33452008509976
 40
12.33452008509976
 40
12.33452008509976
 40
12.33452008509976
 10
0.0
 20
-56.000000000000007
 30
0.0
 10
0.3332558010370121
 20
-55.863597004419717
 30
0.0
 10
0.6648254651481693
 20
-55.732788875218837
 30
0.0
 10
0.9948383386399655
 20
-55.607625671324072
 30
0.0
 10
1.332898932971148
 20
-55.479410227337219
 30
0.0
 10
1.667879836270004
 20
-55.357666812273237
 30
0.0
 10
2.0
 20
-55.24228263667829
 30
0.0
 11
0.0
 21
-56.000000000000007
 31
0.0
 11
0.4986352671494387
 21
-55.799597913779962
 31
0.0
 11
0.9948383386399655
 21
-55.607625671324072
 31
0.0
 11
1.4996468307954278
 21
-55.420142428354218
 31
0.0
 11
2.0
 21
-55.24228263667829
 31
0.0
  0
SPLINE
  5
93
100
AcDbEntity
  8
0
  6
CONTINUOUS
 62
             7
100
AcDbSpline
210
0.0
220
0.0
230
1.0
 70
             0
 71
             3
 72
            11
 73
             7
 74
             5
 42
0.00000000001
 43
0.00000000001
 44
0.00000000001
 40
9.6520212354362265
 40
9.6520212354362265
 40
9.6520212354362265
 40
9.6520212354362265
 40
10.16722522019518
 40
10.16722522019518
 40
10.16722522019518
 40
10.7005567454881
 40
10.7005567454881
 40
10.7005567454881
 40
10.7005567454881
 10
20.8769179627343
 20
-55.24228263667829
 30
0.0
 10
20.757140629208148
 20
-55.357175319652022
 30
0.0
 10
20.635955804777041
 20
-55.478737842899143
 30
0.0
 10
20.513269559585751
 20
-55.607197994981107
 30
0.0
 10
20.39416552487819
 20
-55.731907349221743
 30
0.0
 10
20.273949000376891
 20
-55.862800628801793
 30
0.0
 10
20.15254326381546
 20
-56.000000000000007
 30
0.0
 11
20.8769179627343
 21
-55.24228263667829
 31
0.0
 11
20.696184603034457
 21
-55.419652514914119
 31
0.0
 11
20.513269559585751
 21
-55.607197994981107
 31
0.0
 11
20.333769549895809
 21
-55.798915241131461
 31
0.0
 11
20.15254326381546
 21
-56.000000000000007
 31
0.0
  0
SPLINE
  5
92
100
AcDbEntity
  8
0
  6
CONTINUOUS
 62
             7
100
AcDbSpline
210
0.0
220
0.0
230
1.0
 70
             0
 71
             3
 72
            11
 73
             7
 74
             5
 42
0.00000000001
 43
0.00000000001
 44
0.00000000001
 40
10.19448601636854
 40
10.19448601636854
 40
10.19448601636854
 40
10.19448601636854
 40
10.818569247931419
 40
10.818569247931419
 40
10.818569247931419
 40
11.430058017314931
 40
11.430058017314931
 40
11.430058017314931
 40
11.430058017314931
 10
-28.5
 20
-56.000000000000007
 30
0.0
 10
-28.336681865861468
 20
-55.862959813879577
 30
0.0
 10
-28.174958906056389
 20
-55.732208805202397
 30
0.0
 10
-28.014728269128678
 20
-55.607625828357421
 30
0.0
 10
-27.849789339583339
 20
-55.479382046549297
 30
0.0
 10
-27.686389549373391
 20
-55.357641327504112
 30
0.0
 10
-27.52442052344847
 20
-55.24228263667829
 30
0.0
 11
-28.5
 21
-56.000000000000007
 31
0.0
 11
-28.25620632311028
 21
-55.799141460700419
 31
0.0
 11
-28.014728269128678
 21
-55.607625828357421
 31
0.0
 11
-27.768460682430916
 21
-55.420122323399497
 31
0.0
 11
-27.52442052344847
 21
-55.24228263667829
 31
0.0
  0
LINE
  5
91
100
AcDbEntity
  8
1
  6
PHANTOM
 62
             2
100
AcDbLine
 10
0.0
 20
-68.5
 11
0.0
 21
-71.0
  0
LINE
  5
90
100
AcDbEntity
  8
0
  6
CONTINUOUS
 62
             7
100
AcDbLine
 10
20.0991005034266
 20
-68.5
 11
18.04849083798763
 21
-68.5
  0
LINE
  5
8F
100
AcDbEntity
  8
0
  6
CONTINUOUS
 62
             7
100
AcDbLine
 10
26.42442052344632
 20
-68.5
 11
20.8769179627343
 21
-68.5
  0
LINE
  5
8E
100
AcDbEntity
  8
0
  6
CONTINUOUS
 62
             7
100
AcDbLine
 10
-17.27067337868354
 20
-68.5
 11
-2.0
 21
-68.5
  0
LINE
  5
8D
100
AcDbEntity
  8
0
  6
CONTINUOUS
 62
             7
100
AcDbLine
 10
27.5244205234485
 20
-68.5
 11
26.42442052344632
 21
-68.5
  0
LINE
  5
8C
100
AcDbEntity
  8
0
  6
CONTINUOUS
 62
             7
100
AcDbLine
 10
27.5244205234485
 20
-55.24228263667829
 11
27.5244205234485
 21
-68.5
  0
LINE
  5
8B
100
AcDbEntity
  8
0
  6
CONTINUOUS
 62
             7
100
AcDbLine
 10
26.42442052344632
 20
-54.3218007376454
 11
20.0991005034266
 21
-54.3218007376454
  0
LINE
  5
8A
100
AcDbEntity
  8
0
  6
CONTINUOUS
 62
             7
100
AcDbLine
 10
-2.0
 20
-54.3218007376454
 11
-2.0
 21
-55.24228263667829
  0
LINE
  5
89
100
AcDbEntity
  8
0
  6
CONTINUOUS
 62
             7
100
AcDbLine
 10
26.42442052344632
 20
-54.3218007376454
 11
26.42442052344632
 21
-68.5
  0
LINE
  5
88
100
AcDbEntity
  8
0
  6
CONTINUOUS
 62
             7
100
AcDbLine
 10
28.5
 20
-68.5
 11
28.5
 21
-71.0
  0
LINE
  5
87
100
AcDbEntity
  8
0
  6
CONTINUOUS
 62
             7
100
AcDbLine
 10
-28.5
 20
-68.5
 11
-28.5
 21
-71.0
  0
LINE
  5
86
100
AcDbEntity
  8
0
  6
CONTINUOUS
 62
             7
100
AcDbLine
 10
28.5
 20
-71.0
 11
-28.5
 21
-71.0
  0
LINE
  5
85
100
AcDbEntity
  8
0
  6
CONTINUOUS
 62
             7
100
AcDbLine
 10
-27.52442052344847
 20
-55.24228263667829
 11
-27.52442052344847
 21
-68.5
  0
LINE
  5
84
100
AcDbEntity
  8
0
  6
CONTINUOUS
 62
             7
100
AcDbLine
 10
-26.42442052344632
 20
-68.5
 11
-20.87691796273427
 21
-68.5
  0
LINE
  5
83
100
AcDbEntity
  8
0
  6
CONTINUOUS
 62
             7
100
AcDbLine
 10
-26.42442052344632
 20
-54.3218007376454
 11
-26.42442052344632
 21
-68.5
  0
LINE
  5
82
100
AcDbEntity
  8
0
  6
CONTINUOUS
 62
             7
100
AcDbLine
 10
-26.42442052344632
 20
-54.3218007376454
 11
-20.09910050342657
 21
-54.3218007376454
  0
LINE
  5
81
100
AcDbEntity
  8
0
  6
CONTINUOUS
 62
             7
100
AcDbLine
 10
20.15254326381546
 20
-68.5
 11
20.0991005034266
 21
-68.5
  0
LINE
  5
80
100
AcDbEntity
  8
0
  6
CONTINUOUS
 62
             7
100
AcDbLine
 10
2.0
 20
-68.5
 11
0.0
 21
-68.5
  0
LINE
  5
7F
100
AcDbEntity
  8
0
  6
CONTINUOUS
 62
             7
100
AcDbLine
 10
-18.0484908379876
 20
-68.5
 11
-20.09910050342657
 21
-68.5
  0
LINE
  5
7E
100
AcDbEntity
  8
0
  6
CONTINUOUS
 62
             7
100
AcDbLine
 10
-18.0484908379876
 20
-68.5
 11
-17.27067337868354
 21
-68.5
  0
LINE
  5
7D
100
AcDbEntity
  8
0
  6
CONTINUOUS
 62
             7
100
AcDbLine
 10
-2.0
 20
-68.5
 11
0.0
 21
-68.5
  0
LINE
  5
7C
100
AcDbEntity
  8
0
  6
CONTINUOUS
 62
             7
100
AcDbLine
 10
-20.15254326381546
 20
-68.5
 11
-20.09910050342657
 21
-68.5
  0
LINE
  5
7B
100
AcDbEntity
  8
0
  6
CONTINUOUS
 62
             7
100
AcDbLine
 10
-20.87691796273427
 20
-68.5
 11
-20.15254326381546
 21
-68.5
  0
LINE
  5
7A
100
AcDbEntity
  8
0
  6
CONTINUOUS
 62
             7
100
AcDbLine
 10
2.0
 20
-68.5
 11
17.27067337867993
 21
-68.5
  0
LINE
  5
79
100
AcDbEntity
  8
0
  6
CONTINUOUS
 62
             7
100
AcDbLine
 10
17.27067337867993
 20
-68.5
 11
18.04849083798763
 21
-68.5
  0
LINE
  5
78
100
AcDbEntity
  8
0
  6
CONTINUOUS
 62
             7
100
AcDbLine
 10
20.15254326381546
 20
-68.5
 11
20.8769179627343
 21
-68.5
  0
LINE
  5
77
100
AcDbEntity
  8
0
  6
CONTINUOUS
 62
             7
100
AcDbLine
 10
20.8769179627343
 20
-58.00000000000001
 11
20.8769179627343
 21
-68.5
  0
LINE
  5
76
100
AcDbEntity
  8
0
  6
CONTINUOUS
 62
             7
100
AcDbLine
 10
-20.87691796273427
 20
-57.00000000000001
 11
-20.87691796273427
 21
-68.5
  0
LINE
  5
75
100
AcDbEntity
  8
0
  6
CONTINUOUS
 62
             7
100
AcDbLine
 10
0.0
 20
-56.00000000000001
 11
0.0
 21
-68.5
  0
LINE
  5
74
100
AcDbEntity
  8
0
  6
CONTINUOUS
 62
             7
100
AcDbLine
 10
-20.15254326381546
 20
-56.00000000000001
 11
-20.15254326381546
 21
-68.5
  0
LINE
  5
73
100
AcDbEntity
  8
0
  6
CONTINUOUS
 62
             7
100
AcDbLine
 10
20.15254326381546
 20
-56.00000000000001
 11
20.15254326381546
 21
-68.5
  0
LINE
  5
72
100
AcDbEntity
  8
0
  6
CONTINUOUS
 62
             7
100
AcDbLine
 10
-2.0
 20
-55.24228263667829
 11
-2.0
 21
-68.5
  0
LINE
  5
71
100
AcDbEntity
  8
0
  6
CONTINUOUS
 62
             7
100
AcDbLine
 10
18.04849083799854
 20
-55.24228263662736
 11
18.04849083798763
 21
-68.5
  0
LINE
  5
70
100
AcDbEntity
  8
0
  6
CONTINUOUS
 62
             7
100
AcDbLine
 10
-18.0484908379876
 20
-55.24228263667829
 11
-18.0484908379876
 21
-68.5
  0
LINE
  5
6F
100
AcDbEntity
  8
0
  6
CONTINUOUS
 62
             7
100
AcDbLine
 10
-20.87691796273427
 20
-55.24228263667829
 11
-20.87691796273427
 21
-57.00000000000001
  0
LINE
  5
6E
100
AcDbEntity
  8
0
  6
CONTINUOUS
 62
             7
100
AcDbLine
 10
2.0
 20
-55.24228263667829
 11
2.0
 21
-68.5
  0
LINE
  5
6D
100
AcDbEntity
  8
0
  6
CONTINUOUS
 62
             7
100
AcDbLine
 10
17.27067337867993
 20
-54.3218007376454
 11
17.27067337867993
 21
-68.5
  0
LINE
  5
6C
100
AcDbEntity
  8
0
  6
CONTINUOUS
 62
             7
100
AcDbLine
 10
2.0
 20
-54.3218007376454
 11
2.0
 21
-55.24228263667829
  0
LINE
  5
6B
100
AcDbEntity
  8
0
  6
CONTINUOUS
 62
             7
100
AcDbLine
 10
-17.27067337868354
 20
-54.3218007376454
 11
-17.27067337868354
 21
-68.5
  0
LINE
  5
6A
100
AcDbEntity
  8
0
  6
CONTINUOUS
 62
             7
100
AcDbLine
 10
-17.27067337868354
 20
-54.3218007376454
 11
-2.0
 21
-54.3218007376454
  0
LINE
  5
69
100
AcDbEntity
  8
0
  6
CONTINUOUS
 62
             7
100
AcDbLine
 10
2.0
 20
-54.3218007376454
 11
17.27067337867993
 21
-54.3218007376454
  0
LINE
  5
68
100
AcDbEntity
  8
0
  6
CONTINUOUS
 62
             7
100
AcDbLine
 10
20.8769179627343
 20
-55.24228263667829
 11
20.8769179627343
 21
-57.00000000000001
  0
LINE
  5
67
100
AcDbEntity
  8
0
  6
CONTINUOUS
 62
             7
100
AcDbLine
 10
20.8769179627343
 20
-57.00000000000001
 11
20.8769179627343
 21
-58.00000000000001
  0
LINE
  5
66
100
AcDbEntity
  8
0
  6
CONTINUOUS
 62
             7
100
AcDbLine
 10
-27.52442052344847
 20
-68.5
 11
-26.42442052344632
 21
-68.5
  0
LINE
  5
65
100
AcDbEntity
  8
0
  6
CONTINUOUS
 62
             7
100
AcDbLine
 10
28.49999999998181
 20
-55.99999999996363
 11
26.11649281481004
 21
-54.0
  0
LINE
  5
64
100
AcDbEntity
  8
0
  6
CONTINUOUS
 62
             7
100
AcDbLine
 10
27.5244205234485
 20
-68.5
 11
28.5
 21
-68.5
  0
LINE
  5
63
100
AcDbEntity
  8
0
  6
CONTINUOUS
 62
             7
100
AcDbLine
 10
-27.52442052344847
 20
-68.5
 11
-28.5
 21
-68.5
  0
LINE
  5
62
100
AcDbEntity
  8
0
  6
CONTINUOUS
 62
             7
100
AcDbLine
 10
-28.5
 20
-56.00000000000001
 11
-28.5
 21
-68.5
  0
LINE
  5
61
100
AcDbEntity
  8
0
  6
CONTINUOUS
 62
             7
100
AcDbLine
 10
28.49999999998181
 20
-55.99999999996363
 11
28.5
 21
-68.5
  0
LINE
  5
60
100
AcDbEntity
  8
0
  6
CONTINUOUS
 62
             7
100
AcDbLine
 10
-28.5
 20
-56.00000000000001
 11
-26.11649281481004
 21
-54.0
  0
LINE
  5
5F
100
AcDbEntity
  8
0
  6
CONTINUOUS
 62
             7
100
AcDbLine
 10
-26.11649281481004
 20
-54.0
 11
26.11649281481004
 21
-54.0
  0
ENDBLK
  5
A0
100
AcDbEntity
  8
0
100
AcDbBlockEnd
  0
BLOCK
  5
2C
100
AcDbEntity
  8
0
100
AcDbBlockBegin
  2
HL_17_UNIVERSAL-_BERGAT_CK
 70
             0
 10
0.0
 20
-35.50000000000043
 30
0.0
  3
HL_17_UNIVERSAL-_BERGAT_CK
  1

  0
ARC
  5
BF
100
AcDbEntity
  8
1
  6
CONTINUOUS
 62
             7
100
AcDbCircle
 10
9.03027438931622
 20
-0.5
 40
0.5
100
AcDbArc
 50
3.57633437499978
 51
90.0
  0
ARC
  5
BE
100
AcDbEntity
  8
1
  6
CONTINUOUS
 62
             7
100
AcDbCircle
 10
-9.03027438931619
 20
-0.5
 40
0.5
100
AcDbArc
 50
90.0
 51
176.42366562500044
  0
LINE
  5
BD
100
AcDbEntity
  8
1
  6
CONTINUOUS
 62
             7
100
AcDbLine
 10
-21.99999999999997
 20
-53.69999999999998
 11
-22.0
 21
-50.69999999999999
  0
LINE
  5
BC
100
AcDbEntity
  8
1
  6
CONTINUOUS
 62
             7
100
AcDbLine
 10
-22.0
 20
-50.69999999999999
 11
-11.30000000000001
 21
-39.99999999999999
  0
LINE
  5
BB
100
AcDbEntity
  8
1
  6
CONTINUOUS
 62
             7
100
AcDbLine
 10
22.0
 20
-50.69999999999999
 11
22.0
 21
-53.69999999999998
  0
LINE
  5
BA
100
AcDbEntity
  8
1
  6
CONTINUOUS
 62
             7
100
AcDbLine
 10
11.30000000000001
 20
-39.99999999999999
 11
22.0
 21
-50.69999999999999
  0
LINE
  5
B9
100
AcDbEntity
  8
1
  6
CONTINUOUS
 62
             7
100
AcDbLine
 10
9.5
 20
-23.99999999999999
 11
10.0
 21
-23.99999999999999
  0
LINE
  5
B8
100
AcDbEntity
  8
1
  6
CONTINUOUS
 62
             7
100
AcDbLine
 10
9.5
 20
-16.0
 11
10.0
 21
-16.0
  0
LINE
  5
B7
100
AcDbEntity
  8
1
  6
CONTINUOUS
 62
             7
100
AcDbLine
 10
9.5
 20
-8.0
 11
10.0
 21
-8.0
  0
LINE
  5
B6
100
AcDbEntity
  8
1
  6
CONTINUOUS
 62
             7
100
AcDbLine
 10
11.30000000000001
 20
-31.99999999999999
 11
11.30000000000001
 21
-39.99999999999999
  0
LINE
  5
B5
100
AcDbEntity
  8
1
  6
CONTINUOUS
 62
             7
100
AcDbLine
 10
11.30000000000001
 20
-31.99999999999999
 11
9.5
 21
-23.99999999999999
  0
LINE
  5
B4
100
AcDbEntity
  8
1
  6
CONTINUOUS
 62
             7
100
AcDbLine
 10
10.0
 20
-23.99999999999999
 11
9.5
 21
-16.0
  0
LINE
  5
B3
100
AcDbEntity
  8
1
  6
CONTINUOUS
 62
             7
100
AcDbLine
 10
10.0
 20
-16.0
 11
9.5
 21
-8.0
  0
LINE
  5
B2
100
AcDbEntity
  8
1
  6
CONTINUOUS
 62
             7
100
AcDbLine
 10
10.0
 20
-8.0
 11
9.52930067855766
 21
-0.46881085692239
  0
LINE
  5
B1
100
AcDbEntity
  8
1
  6
CONTINUOUS
 62
             7
100
AcDbLine
 10
-9.5
 20
-23.99999999999999
 11
-11.30000000000001
 21
-31.99999999999999
  0
LINE
  5
B0
100
AcDbEntity
  8
1
  6
CONTINUOUS
 62
             7
100
AcDbLine
 10
-10.0
 20
-23.99999999999999
 11
-9.5
 21
-23.99999999999999
  0
LINE
  5
AF
100
AcDbEntity
  8
1
  6
CONTINUOUS
 62
             7
100
AcDbLine
 10
-9.5
 20
-16.0
 11
-10.0
 21
-23.99999999999999
  0
LINE
  5
AE
100
AcDbEntity
  8
1
  6
CONTINUOUS
 62
             7
100
AcDbLine
 10
-10.0
 20
-16.0
 11
-9.5
 21
-16.0
  0
LINE
  5
AD
100
AcDbEntity
  8
1
  6
CONTINUOUS
 62
             7
100
AcDbLine
 10
-9.5
 20
-8.0
 11
-10.0
 21
-16.0
  0
LINE
  5
AC
100
AcDbEntity
  8
1
  6
CONTINUOUS
 62
             7
100
AcDbLine
 10
-10.0
 20
-8.0
 11
-9.5
 21
-8.0
  0
LINE
  5
AB
100
AcDbEntity
  8
1
  6
CONTINUOUS
 62
             7
100
AcDbLine
 10
-9.52930067855766
 20
-0.46881085692239
 11
-10.0
 21
-8.0
  0
LINE
  5
AA
100
AcDbEntity
  8
1
  6
CONTINUOUS
 62
             7
100
AcDbLine
 10
-9.03027438931619
 20
0.0
 11
9.03027438931622
 21
0.0
  0
LINE
  5
A9
100
AcDbEntity
  8
1
  6
CONTINUOUS
 62
             7
100
AcDbLine
 10
-11.30000000000001
 20
-39.99999999999999
 11
-11.30000000000001
 21
-31.99999999999999
  0
LINE
  5
A8
100
AcDbEntity
  8
1
  6
CONTINUOUS
 62
             7
100
AcDbLine
 10
22.0
 20
-53.69999999999998
 11
-21.99999999999997
 21
-53.69999999999998
  0
LINE
  5
A7
100
AcDbEntity
  8
1
  6
CONTINUOUS
 62
             7
100
AcDbLine
 10
-22.0
 20
-50.69999999999999
 11
22.0
 21
-50.69999999999999
  0
LINE
  5
A6
100
AcDbEntity
  8
1
  6
CONTINUOUS
 62
             7
100
AcDbLine
 10
11.30000000000001
 20
-39.99999999999999
 11
-11.30000000000001
 21
-39.99999999999999
  0
LINE
  5
A5
100
AcDbEntity
  8
1
  6
CONTINUOUS
 62
             7
100
AcDbLine
 10
-11.30000000000001
 20
-31.99999999999999
 11
11.30000000000001
 21
-31.99999999999999
  0
LINE
  5
A4
100
AcDbEntity
  8
1
  6
CONTINUOUS
 62
             7
100
AcDbLine
 10
9.5
 20
-23.99999999999999
 11
-9.5
 21
-23.99999999999999
  0
LINE
  5
A3
100
AcDbEntity
  8
1
  6
CONTINUOUS
 62
             7
100
AcDbLine
 10
-9.5
 20
-16.0
 11
9.5
 21
-16.0
  0
LINE
  5
A2
100
AcDbEntity
  8
1
  6
CONTINUOUS
 62
             7
100
AcDbLine
 10
9.5
 20
-8.0
 11
-9.5
 21
-8.0
  0
LINE
  5
A1
100
AcDbEntity
  8
1
  6
CONTINUOUS
 62
             7
100
AcDbLine
 10
-9.52930067855766
 20
-0.46881085692239
 11
9.52930067855766
 21
-0.46881085692239
  0
ENDBLK
  5
C0
100
AcDbEntity
  8
0
100
AcDbBlockEnd
  0
BLOCK
  5
C3
100
AcDbEntity
  8
0
100
AcDbBlockBegin
  2
*D4
 70
             1
 10
0.0
 20
0.0
 30
0.0
  3
*D4
  1

  0
LINE
  5
C4
100
AcDbEntity
  8
0
  6
CONTINUOUS
 62
             4
100
AcDbLine
 10
-9.52930067855766
 20
9.53118914307761
 11
-23.52930067855766
 21
9.53118914307761
  0
LINE
  5
C5
100
AcDbEntity
  8
0
  6
CONTINUOUS
 62
             4
100
AcDbLine
 10
9.52930067855766
 20
9.53118914307761
 11
-9.52930067855766
 21
9.53118914307761
  0
LINE
  5
C6
100
AcDbEntity
  8
0
  6
CONTINUOUS
 62
             4
100
AcDbLine
 10
44.445314828746
 20
9.53118914307761
 11
9.52930067855766
 21
9.53118914307761
  0
LINE
  5
C7
100
AcDbEntity
  8
0
  6
CONTINUOUS
 62
             4
100
AcDbLine
 10
-9.52930067855766
 20
-0.46881085692239
 11
-9.52930067855766
 21
11.53118914307761
  0
LINE
  5
C8
100
AcDbEntity
  8
0
  6
CONTINUOUS
 62
             4
100
AcDbLine
 10
9.52930067855766
 20
-0.46881085692239
 11
9.52930067855766
 21
11.53118914307761
  0
SOLID
  5
C9
100
AcDbEntity
  8
0
 62
             4
100
AcDbTrace
 10
16.52930067855766
 20
10.45275662618938
 11
16.52930067855766
 21
8.60962165996584
 12
9.52930067855766
 22
9.53118914307761
 13
9.52930067855766
 23
9.53118914307761
  0
SOLID
  5
CA
100
AcDbEntity
  8
0
 62
             4
100
AcDbTrace
 10
-16.52930067855766
 20
8.60962165996584
 11
-16.52930067855766
 21
10.45275662618938
 12
-9.52930067855766
 22
9.53118914307761
 13
-9.52930067855766
 23
9.53118914307761
  0
MTEXT
  5
CC
100
AcDbEntity
  8
0
 62
             1
100
AcDbMText
 10
23.30531482876286
 20
11.53117522892496
 30
0.0
 40
7.0
 41
0.0
 71
             7
 72
             1
  1
\C1;R\C1;3/4
  7
CONVERTER_1
 11
0.99999999999706
 21
0.00000242406841
 31
0.0
  0
ENDBLK
  5
CD
100
AcDbEntity
  8
0
100
AcDbBlockEnd
  0
BLOCK
  5
D1
100
AcDbEntity
  8
0
100
AcDbBlockBegin
  2
*D5
 70
             1
 10
0.0
 20
0.0
 30
0.0
  3
*D5
  1

  0
LINE
  5
D2
100
AcDbEntity
  8
0
  6
CONTINUOUS
 62
             4
100
AcDbLine
 10
-37.78171546640078
 20
0.0
 11
-37.78171546640078
 21
-115.0
  0
LINE
  5
D3
100
AcDbEntity
  8
0
  6
CONTINUOUS
 62
             4
100
AcDbLine
 10
-27.78171546640078
 20
-115.0
 11
-39.78171546640078
 21
-115.0
  0
LINE
  5
D4
100
AcDbEntity
  8
0
  6
CONTINUOUS
 62
             4
100
AcDbLine
 10
-9.03027438931619
 20
0.0
 11
-39.78171546640078
 21
0.0
  0
SOLID
  5
D5
100
AcDbEntity
  8
0
 62
             4
100
AcDbTrace
 10
-36.86014798328902
 20
-7.0
 11
-38.70328294951256
 21
-7.0
 12
-37.78171546640078
 22
0.0
 13
-37.78171546640078
 23
0.0
  0
SOLID
  5
D6
100
AcDbEntity
  8
0
 62
             4
100
AcDbTrace
 10
-38.70328294951256
 20
-108.0
 11
-36.86014798328901
 21
-108.0
 12
-37.78171546640078
 22
-115.0
 13
-37.78171546640078
 23
-115.0
  0
MTEXT
  5
D7
100
AcDbEntity
  8
0
 62
             1
100
AcDbMText
 10
-39.78171546640078
 20
-76.41258581093445
 30
0.0
 40
7.0
 41
0.0
 71
             7
 72
             1
  1
\C1;115\C1;-125
  7
CONVERTER_1
 11
0.0
 21
1.0
 31
0.0
  0
ENDBLK
  5
D8
100
AcDbEntity
  8
0
100
AcDbBlockEnd
  0
BLOCK
  5
DC
100
AcDbEntity
  8
0
100
AcDbBlockBegin
  2
*D6
 70
             1
 10
0.0
 20
0.0
 30
0.0
  3
*D6
  1

  0
LINE
  5
DD
100
AcDbEntity
  8
0
  6
CONTINUOUS
 62
             4
100
AcDbLine
 10
147.53603054932691
 20
-94.99999999999997
 11
147.53603054932691
 21
-134.99999999999997
  0
LINE
  5
DE
100
AcDbEntity
  8
0
  6
CONTINUOUS
 62
             4
100
AcDbLine
 10
135.00000000000003
 20
-134.99999999999997
 11
149.53603054932691
 21
-134.99999999999997
  0
LINE
  5
DF
100
AcDbEntity
  8
0
  6
CONTINUOUS
 62
             4
100
AcDbLine
 10
135.00000000000003
 20
-94.99999999999997
 11
149.53603054932691
 21
-94.99999999999997
  0
SOLID
  5
E0
100
AcDbEntity
  8
0
 62
             4
100
AcDbTrace
 10
148.45759803243868
 20
-101.99999999999997
 11
146.61446306621514
 21
-101.99999999999997
 12
147.53603054932691
 22
-94.99999999999997
 13
147.53603054932691
 23
-94.99999999999997
  0
SOLID
  5
E1
100
AcDbEntity
  8
0
 62
             4
100
AcDbTrace
 10
146.61446306621514
 20
-127.99999999999997
 11
148.45759803243868
 21
-127.99999999999997
 12
147.53603054932691
 22
-134.99999999999997
 13
147.53603054932691
 23
-134.99999999999997
  0
MTEXT
  5
E2
100
AcDbEntity
  8
0
 62
             1
100
AcDbMText
 10
145.53603054932691
 20
-122.9963017668928
 30
0.0
 40
7.0
 41
0.0
 71
             7
 72
             1
  1
\C1;DN\C1;40
  7
CONVERTER_1
 11
0.0
 21
1.0
 31
0.0
  0
ENDBLK
  5
E3
100
AcDbEntity
  8
0
100
AcDbBlockEnd
  0
BLOCK
  5
E7
100
AcDbEntity
  8
0
100
AcDbBlockBegin
  2
*D7
 70
             1
 10
0.0
 20
0.0
 30
0.0
  3
*D7
  1

  0
LINE
  5
E8
100
AcDbEntity
  8
0
  6
CONTINUOUS
 62
             4
100
AcDbLine
 10
135.0
 20
-169.14089102548201
 11
0.0
 21
-169.14089102548201
  0
LINE
  5
E9
100
AcDbEntity
  8
0
  6
CONTINUOUS
 62
             4
100
AcDbLine
 10
0.0
 20
-139.33076140040066
 11
0.0
 21
-171.14089102548201
  0
LINE
  5
EA
100
AcDbEntity
  8
0
  6
CONTINUOUS
 62
             4
100
AcDbLine
 10
135.0
 20
-135.0
 11
135.0
 21
-171.14089102548201
  0
SOLID
  5
EB
100
AcDbEntity
  8
0
 62
             4
100
AcDbTrace
 10
128.0
 20
-170.06245850859378
 11
128.0
 21
-168.21932354237023
 12
135.0
 22
-169.14089102548201
 13
135.0
 23
-169.14089102548201
  0
SOLID
  5
EC
100
AcDbEntity
  8
0
 62
             4
100
AcDbTrace
 10
7.0
 20
-168.21932354237023
 11
7.0
 21
-170.06245850859378
 12
0.0
 22
-169.14089102548201
 13
0.0
 23
-169.14089102548201
  0
MTEXT
  5
ED
100
AcDbEntity
  8
0
 62
             1
100
AcDbMText
 10
56.28450114477899
 20
-167.14089102548201
 30
0.0
 40
7.0
 41
0.0
 71
             7
 72
             1
  1
135
  7
CONVERTER_1
 11
0.99999999999706
 21
0.00000242406841
 31
0.0
  0
ENDBLK
  5
EE
100
AcDbEntity
  8
0
100
AcDbBlockEnd
  0
ENDSEC
  0
SECTION
  2
ENTITIES
  0
DIMENSION
  5
F0
100
AcDbEntity
  8
1
100
AcDbDimension
  2
*D7
 10
135.0
 20
-169.14089102548201
 11
63.63450114477899
 21
-163.64089102548201
 31
0.0
 53
0.00013888888889
  1
<>
  3
ME10_DIM_3
100
AcDbAlignedDimension
 13
0.0
 23
-139.33076140040066
 14
135.0
 24
-135.0
100
AcDbRotatedDimension
  0
DIMENSION
  5
E5
100
AcDbEntity
  8
1
100
AcDbDimension
  2
*D6
 10
147.53603054932691
 20
-94.99999999999997
 11
142.03603054932691
 21
-113.9663017668928
 31
0.0
 53
90.0
  1
<>
  3
ME10_DIM_2
100
AcDbAlignedDimension
 13
135.0
 23
-135.0
 14
135.0
 24
-95.0
 50
90.0
100
AcDbRotatedDimension
  0
DIMENSION
  5
DA
100
AcDbEntity
  8
1
100
AcDbDimension
  2
*D5
 10
-37.78171546640078
 20
0.0
 11
-43.28171546640078
 21
-58.21258581093445
 31
0.0
 53
90.0
  1
<>
  3
ME10_DIM_1
100
AcDbAlignedDimension
 13
-27.78171546640078
 23
-115.0
 14
-9.03027438931619
 24
0.0
 50
90.0
100
AcDbRotatedDimension
  0
DIMENSION
  5
CF
100
AcDbEntity
  8
1
100
AcDbDimension
  2
*D4
 10
9.52930067855766
 20
9.53118914307761
 11
32.545314828746
 21
15.03118914307761
 31
0.0
 53
180.0
  1
R3/4
  3
ME10_DIM_0
100
AcDbAlignedDimension
 13
-9.52930067855766
 23
-0.46881085692239
 14
9.52930067855766
 24
-0.46881085692239
 50
180.0
100
AcDbRotatedDimension
  0
INSERT
  5
2F
100
AcDbEntity
  8
1
100
AcDbBlockReference
  2
ECKVERL_DN40_-ARTIKEL
 10
-3.02787311117936
 20
-132.54528438089983
  0
INSERT
  5
30
100
AcDbEntity
  8
1
100
AcDbBlockReference
  2
HL_8E_SIFONROSETTE_DN40
 10
104.28759844243901
 20
-53.49999999999993
  0
INSERT
  5
31
100
AcDbEntity
  8
0
100
AcDbBlockReference
  2
HOLL_NDERMUTTER_6_4
 10
-154.6881550934813
 20
-42.57252406494807
  0
INSERT
  5
32
100
AcDbEntity
  8
1
100
AcDbBlockReference
  2
HL_17_UNIVERSAL-_BERGAT_CK
 10
0.0
 20
-35.50000000000043
  0
ENDSEC
  0
SECTION
  2
OBJECTS
  0
DICTIONARY
  5
19
100
AcDbDictionary
  3
ACAD_GROUP
350
1A
  3
ACAD_MLINESTYLE
350
1B
  0
DICTIONARY
  5
1A
102
{ACAD_REACTORS
330
19
102
}
100
AcDbDictionary
  0
DICTIONARY
  5
1B
102
{ACAD_REACTORS
330
19
102
}
100
AcDbDictionary
  3
STANDARD
350
1C
  0
MLINESTYLE
  5
1C
102
{ACAD_REACTORS
330
1B
102
}
100
AcDbMlineStyle
  2
STANDARD
 70
             0
  3

 62
             0
 51
90.0
 52
90.0
 71
             2
 49
0.5
 62
           256
  6
BYLAYER
 49
-0.5
 62
           256
  6
BYLAYER
  0
ENDSEC
  0
EOF
