  0
SECTION
  2
HEADER
  9
$ACADVER
  1
AC1014
  9
$ACADMAINTVER
 70
             0
  9
$DWGCODEPAGE
  3
ANSI_1252
  9
$INSBASE
 10
0.0
 20
0.0
 30
0.0
  9
$EXTMIN
 10
-250.0
 20
-173.39940852895069
 30
0.0
  9
$EXTMAX
 10
250.0
 20
65.5069334435245
 30
0.0
  9
$LIMMIN
 10
0.0
 20
0.0
  9
$LIMMAX
 10
0.0
 20
0.0
  9
$ORTHOMODE
 70
             0
  9
$REGENMODE
 70
             1
  9
$FILLMODE
 70
             1
  9
$QTEXTMODE
 70
             0
  9
$MIRRTEXT
 70
             1
  9
$DRAGMODE
 70
             2
  9
$LTSCALE
 40
1.0
  9
$OSMODE
 70
             0
  9
$ATTMODE
 70
             1
  9
$TEXTSIZE
 40
0.2
  9
$TRACEWID
 40
0.05
  9
$TEXTSTYLE
  7
STANDARD
  9
$CLAYER
  8
0
  9
$CELTYPE
  6
CONTINUOUS
  9
$CECOLOR
 62
           256
  9
$CELTSCALE
 40
1.0
  9
$DELOBJ
 70
             1
  9
$DISPSILH
 70
             0
  9
$DIMSCALE
 40
1.0
  9
$DIMASZ
 40
0.18
  9
$DIMEXO
 40
0.0625
  9
$DIMDLI
 40
0.38
  9
$DIMRND
 40
0.0
  9
$DIMDLE
 40
0.0
  9
$DIMEXE
 40
0.18
  9
$DIMTP
 40
0.0
  9
$DIMTM
 40
0.0
  9
$DIMTXT
 40
0.18
  9
$DIMCEN
 40
0.09
  9
$DIMTSZ
 40
0.0
  9
$DIMTOL
 70
             0
  9
$DIMLIM
 70
             0
  9
$DIMTIH
 70
             1
  9
$DIMTOH
 70
             1
  9
$DIMSE1
 70
             0
  9
$DIMSE2
 70
             0
  9
$DIMTAD
 70
             0
  9
$DIMZIN
 70
             0
  9
$DIMBLK
  1

  9
$DIMASO
 70
             1
  9
$DIMSHO
 70
             1
  9
$DIMPOST
  1

  9
$DIMAPOST
  1

  9
$DIMALT
 70
             0
  9
$DIMALTD
 70
             2
  9
$DIMALTF
 40
25.4
  9
$DIMLFAC
 40
1.0
  9
$DIMTOFL
 70
             0
  9
$DIMTVP
 40
0.0
  9
$DIMTIX
 70
             0
  9
$DIMSOXD
 70
             0
  9
$DIMSAH
 70
             0
  9
$DIMBLK1
  1

  9
$DIMBLK2
  1

  9
$DIMSTYLE
  2
STANDARD
  9
$DIMCLRD
 70
             0
  9
$DIMCLRE
 70
             0
  9
$DIMCLRT
 70
             0
  9
$DIMTFAC
 40
1.0
  9
$DIMGAP
 40
0.09
  9
$DIMJUST
 70
             0
  9
$DIMSD1
 70
             0
  9
$DIMSD2
 70
             0
  9
$DIMTOLJ
 70
             1
  9
$DIMTZIN
 70
             0
  9
$DIMALTZ
 70
             0
  9
$DIMALTTZ
 70
             0
  9
$DIMFIT
 70
             3
  9
$DIMUPT
 70
             0
  9
$DIMUNIT
 70
             2
  9
$DIMDEC
 70
             4
  9
$DIMTDEC
 70
             4
  9
$DIMALTU
 70
             2
  9
$DIMALTTD
 70
             2
  9
$DIMTXSTY
  7
STANDARD
  9
$DIMAUNIT
 70
             0
  9
$LUNITS
 70
             2
  9
$LUPREC
 70
             4
  9
$SKETCHINC
 40
0.1
  9
$FILLETRAD
 40
0.0
  9
$AUNITS
 70
             0
  9
$AUPREC
 70
             0
  9
$MENU
  1
acad
  9
$ELEVATION
 40
0.0
  9
$PELEVATION
 40
0.0
  9
$THICKNESS
 40
0.0
  9
$LIMCHECK
 70
             0
  9
$BLIPMODE
 70
             1
  9
$CHAMFERA
 40
0.0
  9
$CHAMFERB
 40
0.0
  9
$CHAMFERC
 40
0.0
  9
$CHAMFERD
 40
0.0
  9
$SKPOLY
 70
             0
  9
$TDCREATE
 40
0.000000000
  9
$TDUPDATE
 40
0.000000000
  9
$TDINDWG
 40
0.0000000000
  9
$TDUSRTIMER
 40
0.0000000000
  9
$USRTIMER
 70
             1
  9
$ANGBASE
 50
0.0
  9
$ANGDIR
 70
             0
  9
$PDMODE
 70
             0
  9
$PDSIZE
 40
0.0
  9
$PLINEWID
 40
0.0
  9
$COORDS
 70
             0
  9
$SPLFRAME
 70
             0
  9
$SPLINETYPE
 70
             6
  9
$SPLINESEGS
 70
             8
  9
$ATTDIA
 70
             0
  9
$ATTREQ
 70
             1
  9
$HANDLING
 70
             1
  9
$HANDSEED
  5
1E6
  9
$SURFTAB1
 70
             6
  9
$SURFTAB2
 70
             6
  9
$SURFTYPE
 70
             6
  9
$SURFU
 70
             6
  9
$SURFV
 70
             6
  9
$UCSNAME
  2

  9
$UCSORG
 10
0.0
 20
0.0
 30
0.0
  9
$UCSXDIR
 10
1.0
 20
0.0
 30
0.0
  9
$UCSYDIR
 10
0.0
 20
1.0
 30
0.0
  9
$PUCSNAME
  2

  9
$PUCSORG
 10
0.0
 20
0.0
 30
0.0
  9
$PUCSXDIR
 10
1.0
 20
0.0
 30
0.0
  9
$PUCSYDIR
 10
0.0
 20
1.0
 30
0.0
  9
$USERI1
 70
             0
  9
$USERI2
 70
             0
  9
$USERI3
 70
             0
  9
$USERI4
 70
             0
  9
$USERI5
 70
             0
  9
$USERR1
 40
12.01
  9
$USERR2
 40
0.0
  9
$USERR3
 40
0.0
  9
$USERR4
 40
0.0
  9
$USERR5
 40
0.0
  9
$WORLDVIEW
 70
             1
  9
$SHADEDGE
 70
             3
  9
$SHADEDIF
 70
            70
  9
$TILEMODE
 70
             1
  9
$MAXACTVP
 70
            16
  9
$PINSBASE
 10
0.0
 20
0.0
 30
0.0
  9
$PLIMCHECK
 70
             0
  9
$PEXTMIN
 10
1.00000000000000E+20
 20
1.00000000000000E+20
 30
1.00000000000000E+20
  9
$PEXTMAX
 10
-1.00000000000000E+20
 20
-1.00000000000000E+20
 30
-1.00000000000000E+20
  9
$PLIMMIN
 10
0.0
 20
0.0
  9
$PLIMMAX
 10
12.0
 20
9.0
  9
$UNITMODE
 70
             0
  9
$VISRETAIN
 70
             0
  9
$PLINEGEN
 70
             1
  9
$PSLTSCALE
 70
             0
  9
$TREEDEPTH
 70
          3020
  9
$PICKSTYLE
 70
             1
  9
$CMLSTYLE
  2
STANDARD
  9
$CMLJUST
 70
             0
  9
$CMLSCALE
 40
1.0
  9
$PROXYGRAPHICS
 70
             0
  9
$MEASUREMENT
 70
             1
  0
ENDSEC
  0
SECTION
  2
CLASSES
  0
CLASS
  1
LWPOLYLINE
  2
AcDbPolyline
  3
"AutoCAD"
 90
        0
280
             0
281
             1
  0
CLASS
  1
IMAGE
  2
AcDbRasterImage
  3
ISM
 90
      127
280
             0
281
             1
  0
CLASS
  1
OLE2FRAME
  2
AcDbOle2Frame
  3
""
 90
        0
280
             0
281
             1
  0
CLASS
  1
HATCH
  2
AcDbHatch
  3
"ACAD_SEDONA"
 90
        0
280
             0
281
             1
  0
CLASS
  1
DICTIONARYVAR
  2
AcDbDictionaryVar
  3
"AutoCAD"
 90
        0
280
             0
281
             0
  0
CLASS
  1
RASTERVARIABLES
  2
AcDbRasterVariables
  3
ISM
 90
        0
280
             0
281
             0
  0
CLASS
  1
IMAGEDEF
  2
AcDbRasterImageDef
  3
ISM
 90
        0
280
             0
281
             0
  0
CLASS
  1
IMAGEDEF_REACTOR
  2
AcDbRasterImageDefReactor
  3
ISM
 90
        1
280
             0
281
             0
  0
CLASS
  1
IDBUFFER
  2
AcDbIdBuffer
  3
"Acad"
 90
        0
280
             0
281
             0
  0
CLASS
  1
SPATIAL_FILTER
  2
AcDbSpatialFilter
  3
"Acad"
 90
        0
280
             0
281
             0
  0
CLASS
  1
XRECORD
  2
AcDbXrecord
  3
"<Built In>"
 90
        0
280
             0
281
             0
  0
CLASS
  1
SORTENTSTABLE
  2
AcDbSortentsTable
  3
"AutoCAD"
 90
        0
280
             0
281
             0
  0
CLASS
  1
LAYER_INDEX
  2
AcDbLayerIndex
  3
"Acad"
 90
        0
280
             0
281
             0
  0
CLASS
  1
SPATIAL_INDEX
  2
AcDbSpatialIndex
  3
"Acad"
 90
        0
280
             0
281
             0
  0
CLASS
  1
OBJECT_PTR
  2
CAseDLPNTableRecord
  3
"ASE-LPNTableRecord"
 90
        1
280
             0
281
             0
  0
CLASS
  1
LAYOUT
  2
AcDbLayout
  3
"AutoCAD 2000"
 90
        0
280
             0
281
             0
  0
CLASS
  1
PLOTSETTINGS
  2
AcDbPlotSettings
  3
"AutoCAD 2000"
 90
        0
280
             0
281
             0
  0
CLASS
  1
ACDBDICTIONARYWDFLT
  2
AcDbDictionaryWithDefault
  3
"AutoCAD 2000"
 90
        0
280
             0
281
             0
  0
CLASS
  1
ACDBPLACEHOLDER
  2
AcDbPlaceHolder
  3
"AutoCAD 2000"
 90
        0
280
             0
281
             0
  0
ENDSEC
  0
SECTION
  2
TABLES
  0
TABLE
  2
VPORT
  5
7
100
AcDbSymbolTable
 70
             1
  0
VPORT
  5
15
100
AcDbSymbolTableRecord
100
AcDbViewportTableRecord
  2
*ACTIVE
 70
             0
 10
0.0
 20
0.0
 11
1.0
 21
1.0
 12
0.0
 22
-53.94623754271309
 13
0.0
 23
0.0
 14
1.0
 24
1.0
 15
0.0
 25
0.0
 16
0.0
 26
0.0
 36
1.0
 17
0.0
 27
0.0
 37
0.0
 40
343.17548746518122
 41
1.60267857142857
 42
50.0
 43
0.0
 44
0.0
 50
0.0
 51
0.0
 71
             0
 72
           100
 73
             1
 74
             1
 75
             0
 76
             0
 77
             0
 78
             0
  0
ENDTAB
  0
TABLE
  2
LTYPE
  5
4
100
AcDbSymbolTable
 70
            10
  0
LTYPE
  5
11
100
AcDbSymbolTableRecord
100
AcDbLinetypeTableRecord
  2
BYBLOCK
 70
            64
  3

 72
            65
 73
             0
 40
0.0
  0
LTYPE
  5
12
100
AcDbSymbolTableRecord
100
AcDbLinetypeTableRecord
  2
BYLAYER
 70
            64
  3

 72
            65
 73
             0
 40
0.0
  0
LTYPE
  5
13
100
AcDbSymbolTableRecord
100
AcDbLinetypeTableRecord
  2
CONTINUOUS
 70
            64
  3
Solid line
 72
            65
 73
             0
 40
0.0
  0
LTYPE
  5
1D
100
AcDbSymbolTableRecord
100
AcDbLinetypeTableRecord
  2
DASHED
 70
            64
  3
Dashed
 72
            65
 73
             2
 40
15.0
 49
7.0
 74
             0
 49
-8.0
 74
             0
  0
LTYPE
  5
1E
100
AcDbSymbolTableRecord
100
AcDbLinetypeTableRecord
  2
DOTTED
 70
            64
  3
Dotted
 72
            65
 73
             2
 40
1.0
 49
0.0
 74
             0
 49
-1.0
 74
             0
  0
LTYPE
  5
1F
100
AcDbSymbolTableRecord
100
AcDbLinetypeTableRecord
  2
DOT_CENTER
 70
            64
  3
Dot_Center
 72
            65
 73
             4
 40
14.0
 49
12.0
 74
             0
 49
-1.0
 74
             0
 49
0.0
 74
             0
 49
-1.0
 74
             0
  0
LTYPE
  5
20
100
AcDbSymbolTableRecord
100
AcDbLinetypeTableRecord
  2
LONG_DASHED
 70
            64
  3
Long_Dashed
 72
            65
 73
             2
 40
15.0
 49
10.0
 74
             0
 49
-5.0
 74
             0
  0
LTYPE
  5
21
100
AcDbSymbolTableRecord
100
AcDbLinetypeTableRecord
  2
DASH_CENTER
 70
            64
  3
Dash_Center
 72
            65
 73
             4
 40
14.0
 49
11.0
 74
             0
 49
-1.0
 74
             0
 49
1.0
 74
             0
 49
-1.0
 74
             0
  0
LTYPE
  5
22
100
AcDbSymbolTableRecord
100
AcDbLinetypeTableRecord
  2
PHANTOM
 70
            64
  3
Phantom
 72
            65
 73
             6
 40
13.0
 49
10.0
 74
             0
 49
-1.0
 74
             0
 49
0.0
 74
             0
 49
-1.0
 74
             0
 49
0.0
 74
             0
 49
-1.0
 74
             0
  0
LTYPE
  5
23
100
AcDbSymbolTableRecord
100
AcDbLinetypeTableRecord
  2
CENTER_DASH_DASH
 70
            64
  3
Center_Dash_Dash
 72
            65
 73
             6
 40
14.0
 49
9.0
 74
             0
 49
-1.0
 74
             0
 49
1.0
 74
             0
 49
-1.0
 74
             0
 49
1.0
 74
             0
 49
-1.0
 74
             0
  0
ENDTAB
  0
TABLE
  2
LAYER
  5
2
100
AcDbSymbolTable
 70
             2
  0
LAYER
  5
14
100
AcDbSymbolTableRecord
100
AcDbLayerTableRecord
  2
0
 70
             0
 62
             7
  6
CONTINUOUS
  0
LAYER
  5
24
100
AcDbSymbolTableRecord
100
AcDbLayerTableRecord
  2
1
 70
             0
 62
             7
  6
CONTINUOUS
  0
ENDTAB
  0
TABLE
  2
STYLE
  5
3
100
AcDbSymbolTable
 70
             2
  0
STYLE
  5
17
100
AcDbSymbolTableRecord
100
AcDbTextStyleTableRecord
  2
STANDARD
 70
             0
 40
0.0
 41
1.0
 50
0.0
 71
             0
 42
0.0
  3
txt
  4

  0
STYLE
  5
185
100
AcDbSymbolTableRecord
100
AcDbTextStyleTableRecord
  2
CONVERTER_1
 70
             0
 40
0.0
 41
0.9
 50
0.0
 71
             0
 42
0.0
  3
txt.shx
  4

  0
ENDTAB
  0
TABLE
  2
VIEW
  5
5
100
AcDbSymbolTable
 70
             0
  0
ENDTAB
  0
TABLE
  2
UCS
  5
6
100
AcDbSymbolTable
 70
             0
  0
ENDTAB
  0
TABLE
  2
APPID
  5
8
100
AcDbSymbolTable
 70
             1
  0
APPID
  5
16
100
AcDbSymbolTableRecord
100
AcDbRegAppTableRecord
  2
ACAD
 70
             0
  0
ENDTAB
  0
TABLE
  2
DIMSTYLE
  5
9
100
AcDbSymbolTable
 70
            10
  0
DIMSTYLE
105
18
100
AcDbSymbolTableRecord
100
AcDbDimStyleTableRecord
  2
STANDARD
 70
             0
  3

  4

  5

  6

  7

 40
1.0
 41
0.18
 42
0.0625
 43
0.38
 44
0.18
 45
0.0
 46
0.0
 47
0.0
 48
0.0
 71
             0
 72
             0
 73
             1
 74
             1
 75
             0
 76
             0
 77
             0
 78
             0
140
0.18
141
0.09
142
0.0
143
25.4
144
1.0
145
0.0
146
1.0
147
0.09
170
             0
171
             2
172
             0
173
             0
174
             0
175
             0
176
             0
177
             0
178
             0
270
             2
271
             4
272
             4
273
             2
274
             2
275
             0
280
             0
281
             0
282
             0
283
             1
284
             0
285
             0
286
             0
287
             3
288
             0
340
17
  0
DIMSTYLE
105
188
100
AcDbSymbolTableRecord
100
AcDbDimStyleTableRecord
  2
ME10_DIM_0
 70
             0
  3
x450
  4

  5

  6

  7

 40
1.0
 41
10.0
 42
0.0
 43
0.38
 44
4.0
 45
0.0
 46
0.0
 47
0.0
 48
0.0
 71
             0
 72
             0
 73
             0
 74
             0
 75
             0
 76
             0
 77
             1
 78
             8
140
10.0
141
0.09
142
0.0
143
25.4
144
1.0
145
0.0
146
1.0
147
0.625
170
             0
171
             2
172
             1
173
             1
174
             0
175
             0
176
             4
177
             4
178
             1
270
             2
271
             2
272
             4
273
             2
274
             2
275
             0
280
             0
281
             0
282
             0
283
             1
284
             0
285
             0
286
             0
287
             3
288
             0
340
185
  0
DIMSTYLE
105
193
100
AcDbSymbolTableRecord
100
AcDbDimStyleTableRecord
  2
ME10_DIM_1
 70
             0
  3
x255
  4

  5

  6

  7

 40
1.0
 41
10.0
 42
0.0
 43
0.38
 44
4.0
 45
0.0
 46
0.0
 47
0.0
 48
0.0
 71
             0
 72
             0
 73
             0
 74
             0
 75
             0
 76
             0
 77
             1
 78
             8
140
10.0
141
0.09
142
0.0
143
25.4
144
1.0
145
0.0
146
1.0
147
0.625
170
             0
171
             2
172
             1
173
             1
174
             0
175
             0
176
             4
177
             4
178
             1
270
             2
271
             2
272
             4
273
             2
274
             2
275
             0
280
             0
281
             0
282
             0
283
             1
284
             0
285
             0
286
             0
287
             3
288
             0
340
185
  0
DIMSTYLE
105
19F
100
AcDbSymbolTableRecord
100
AcDbDimStyleTableRecord
  2
ME10_DIM_2
 70
             0
  3
DN<>
  4

  5

  6

  7

 40
1.0
 41
10.0
 42
0.0
 43
0.38
 44
4.0
 45
0.0
 46
0.0
 47
0.0
 48
0.0
 71
             0
 72
             0
 73
             0
 74
             0
 75
             0
 76
             0
 77
             1
 78
             8
140
10.0
141
0.09
142
0.0
143
25.4
144
1.0
145
0.0
146
1.0
147
0.625
170
             0
171
             2
172
             1
173
             1
174
             0
175
             0
176
             4
177
             4
178
             1
270
             2
271
             2
272
             4
273
             2
274
             2
275
             0
280
             0
281
             0
282
             0
283
             1
284
             0
285
             0
286
             0
287
             3
288
             0
340
185
  0
DIMSTYLE
105
1AB
100
AcDbSymbolTableRecord
100
AcDbDimStyleTableRecord
  2
ME10_DIM_3
 70
             0
  3
DN<>
  4

  5

  6

  7

 40
1.0
 41
10.0
 42
0.0
 43
0.38
 44
4.0
 45
0.0
 46
0.0
 47
0.0
 48
0.0
 71
             0
 72
             0
 73
             0
 74
             0
 75
             0
 76
             0
 77
             1
 78
             8
140
10.0
141
0.09
142
0.0
143
25.4
144
1.0
145
0.0
146
1.0
147
0.625
170
             0
171
             2
172
             1
173
             1
174
             0
175
             0
176
             4
177
             4
178
             1
270
             2
271
             2
272
             4
273
             2
274
             2
275
             0
280
             0
281
             0
282
             0
283
             1
284
             0
285
             0
286
             0
287
             3
288
             0
340
185
  0
DIMSTYLE
105
1B6
100
AcDbSymbolTableRecord
100
AcDbDimStyleTableRecord
  2
ME10_DIM_4
 70
             0
  3
Ø<>
  4

  5

  6

  7

 40
1.0
 41
10.0
 42
0.0
 43
0.38
 44
4.0
 45
0.0
 46
0.0
 47
0.0
 48
0.0
 71
             0
 72
             0
 73
             0
 74
             0
 75
             0
 76
             0
 77
             1
 78
             8
140
10.0
141
0.09
142
0.0
143
25.4
144
1.0
145
0.0
146
1.0
147
0.625
170
             0
171
             2
172
             1
173
             1
174
             0
175
             0
176
             4
177
             4
178
             1
270
             2
271
             2
272
             4
273
             2
274
             2
275
             0
280
             0
281
             0
282
             0
283
             1
284
             0
285
             0
286
             0
287
             3
288
             0
340
185
  0
DIMSTYLE
105
1C2
100
AcDbSymbolTableRecord
100
AcDbDimStyleTableRecord
  2
ME10_DIM_5
 70
             0
  3

  4

  5

  6

  7

 40
1.0
 41
10.0
 42
0.0
 43
0.38
 44
4.0
 45
0.0
 46
0.0
 47
0.0
 48
0.0
 71
             0
 72
             0
 73
             0
 74
             0
 75
             0
 76
             0
 77
             1
 78
             8
140
10.0
141
0.09
142
0.0
143
25.4
144
1.0
145
0.0
146
1.0
147
0.625
170
             0
171
             2
172
             1
173
             1
174
             0
175
             0
176
             4
177
             4
178
             1
270
             2
271
             2
272
             4
273
             2
274
             2
275
             0
280
             0
281
             0
282
             0
283
             1
284
             0
285
             0
286
             0
287
             3
288
             0
340
185
  0
DIMSTYLE
105
1CD
100
AcDbSymbolTableRecord
100
AcDbDimStyleTableRecord
  2
ME10_DIM_6
 70
             0
  3
max.<>
  4

  5

  6

  7

 40
1.0
 41
10.0
 42
0.0
 43
0.38
 44
4.0
 45
0.0
 46
0.0
 47
0.0
 48
0.0
 71
             0
 72
             0
 73
             0
 74
             0
 75
             0
 76
             0
 77
             1
 78
             8
140
10.0
141
0.09
142
0.0
143
25.4
144
1.0
145
0.0
146
1.0
147
0.625
170
             0
171
             2
172
             1
173
             1
174
             0
175
             0
176
             4
177
             4
178
             1
270
             2
271
             2
272
             4
273
             2
274
             2
275
             0
280
             0
281
             0
282
             0
283
             1
284
             0
285
             0
286
             0
287
             3
288
             0
340
185
  0
DIMSTYLE
105
1D8
100
AcDbSymbolTableRecord
100
AcDbDimStyleTableRecord
  2
ME10_DIM_7
 70
             0
  3

  4

  5

  6

  7

 40
1.0
 41
10.0
 42
0.0
 43
0.38
 44
4.0
 45
0.0
 46
0.0
 47
0.0
 48
0.0
 71
             0
 72
             0
 73
             0
 74
             0
 75
             0
 76
             0
 77
             1
 78
             8
140
10.0
141
0.09
142
0.0
143
25.4
144
1.0
145
0.0
146
1.0
147
0.625
170
             0
171
             2
172
             1
173
             1
174
             0
175
             0
176
             4
177
             4
178
             1
270
             2
271
             2
272
             4
273
             2
274
             2
275
             0
280
             0
281
             0
282
             0
283
             1
284
             0
285
             0
286
             0
287
             3
288
             0
340
185
  0
DIMSTYLE
105
1E3
100
AcDbSymbolTableRecord
100
AcDbDimStyleTableRecord
  2
ME10_DIM_8
 70
             0
  3

  4

  5

  6

  7

 40
1.0
 41
10.0
 42
0.0
 43
0.38
 44
4.0
 45
0.0
 46
0.0
 47
0.0
 48
0.0
 71
             0
 72
             0
 73
             0
 74
             0
 75
             0
 76
             0
 77
             1
 78
             8
140
10.0
141
0.09
142
0.0
143
25.4
144
1.0
145
0.0
146
1.0
147
0.625
170
             0
171
             2
172
             1
173
             1
174
             0
175
             0
176
             4
177
             4
178
             1
270
             2
271
             2
272
             4
273
             2
274
             2
275
             0
280
             0
281
             0
282
             0
283
             1
284
             0
285
             0
286
             0
287
             3
288
             0
340
185
  0
ENDTAB
  0
TABLE
  2
BLOCK_RECORD
  5
1
100
AcDbSymbolTable
 70
            26
  0
BLOCK_RECORD
  5
A
100
AcDbSymbolTableRecord
100
AcDbBlockTableRecord
  2
*MODEL_SPACE
  0
BLOCK_RECORD
  5
B
100
AcDbSymbolTableRecord
100
AcDbBlockTableRecord
  2
*PAPER_SPACE
  0
BLOCK_RECORD
  5
25
100
AcDbSymbolTableRecord
100
AcDbBlockTableRecord
  2
EINLAUFROST_115X115
  0
BLOCK_RECORD
  5
27
100
AcDbSymbolTableRecord
100
AcDbBlockTableRecord
  2
HL510NC_BODENABLAUF_DRICHT
  0
BLOCK_RECORD
  5
2A
100
AcDbSymbolTableRecord
100
AcDbBlockTableRecord
  2
MASCHENGITTER
  0
BLOCK_RECORD
  5
2C
100
AcDbSymbolTableRecord
100
AcDbBlockTableRecord
  2
HL_3200_NIRORAHMEN
  0
BLOCK_RECORD
  5
2E
100
AcDbSymbolTableRecord
100
AcDbBlockTableRecord
  2
HL_3000_AUFSTOCKELEMENT
  0
BLOCK_RECORD
  5
31
100
AcDbSymbolTableRecord
100
AcDbBlockTableRecord
  2
SCHEIBE
  0
BLOCK_RECORD
  5
33
100
AcDbSymbolTableRecord
100
AcDbBlockTableRecord
  2
GITTER
  0
BLOCK_RECORD
  5
35
100
AcDbSymbolTableRecord
100
AcDbBlockTableRecord
  2
GIE_ELEMENT
  0
BLOCK_RECORD
  5
37
100
AcDbSymbolTableRecord
100
AcDbBlockTableRecord
  2
NIVELLIERUNGSSCHRAUBE__1
  0
BLOCK_RECORD
  5
39
100
AcDbSymbolTableRecord
100
AcDbBlockTableRecord
  2
BEFESTIGUNGSLASCHE
  0
BLOCK_RECORD
  5
3B
100
AcDbSymbolTableRecord
100
AcDbBlockTableRecord
  2
SCHALLSCHUTZ
  0
BLOCK_RECORD
  5
3D
100
AcDbSymbolTableRecord
100
AcDbBlockTableRecord
  2
LINSENKOPFSCHRAUBE_5X45
  0
BLOCK_RECORD
  5
3F
100
AcDbSymbolTableRecord
100
AcDbBlockTableRecord
  2
D_BEL_D8
  0
BLOCK_RECORD
  5
41
100
AcDbSymbolTableRecord
100
AcDbBlockTableRecord
  2
GUMMINOPPEL
  0
BLOCK_RECORD
  5
43
100
AcDbSymbolTableRecord
100
AcDbBlockTableRecord
  2
NIVELLIERUNGSSCHRAUBE__2
  0
BLOCK_RECORD
  5
45
100
AcDbSymbolTableRecord
100
AcDbBlockTableRecord
  2
HL_510NC_K_RPER
  0
BLOCK_RECORD
  5
47
100
AcDbSymbolTableRecord
100
AcDbBlockTableRecord
  2
HL_510NCK_BODENABLAUFKNITT
  0
BLOCK_RECORD
  5
17E
100
AcDbSymbolTableRecord
100
AcDbBlockTableRecord
  2
*D17
  0
BLOCK_RECORD
  5
18A
100
AcDbSymbolTableRecord
100
AcDbBlockTableRecord
  2
*D18
  0
BLOCK_RECORD
  5
195
100
AcDbSymbolTableRecord
100
AcDbBlockTableRecord
  2
*D19
  0
BLOCK_RECORD
  5
1A1
100
AcDbSymbolTableRecord
100
AcDbBlockTableRecord
  2
*D20
  0
BLOCK_RECORD
  5
1AD
100
AcDbSymbolTableRecord
100
AcDbBlockTableRecord
  2
*D21
  0
BLOCK_RECORD
  5
1B8
100
AcDbSymbolTableRecord
100
AcDbBlockTableRecord
  2
*D22
  0
BLOCK_RECORD
  5
1C4
100
AcDbSymbolTableRecord
100
AcDbBlockTableRecord
  2
*D23
  0
BLOCK_RECORD
  5
1CF
100
AcDbSymbolTableRecord
100
AcDbBlockTableRecord
  2
*D24
  0
BLOCK_RECORD
  5
1DA
100
AcDbSymbolTableRecord
100
AcDbBlockTableRecord
  2
*D25
  0
ENDTAB
  0
ENDSEC
  0
SECTION
  2
BLOCKS
  0
BLOCK
  5
D
100
AcDbEntity
  8
0
100
AcDbBlockBegin
  2
*MODEL_SPACE
 70
             0
 10
0.0
 20
0.0
 30
0.0
  3
*MODEL_SPACE
  1

  0
ENDBLK
  5
E
100
AcDbEntity
  8
0
100
AcDbBlockEnd
  0
BLOCK
  5
F
100
AcDbEntity
 67
             1
  8
0
100
AcDbBlockBegin
  2
*PAPER_SPACE
 70
             0
 10
0.0
 20
0.0
 30
0.0
  3
*PAPER_SPACE
  1

  0
ENDBLK
  5
10
100
AcDbEntity
 67
             1
  8
0
100
AcDbBlockEnd
  0
BLOCK
  5
26
100
AcDbEntity
  8
0
100
AcDbBlockBegin
  2
EINLAUFROST_115X115
 70
             0
 10
-325.96682271718601
 20
-474.55523777213239
 30
0.0
  3
EINLAUFROST_115X115
  1

  0
XLINE
  5
74
100
AcDbEntity
  8
1
  6
DOT_CENTER
 62
             3
 60
             1
100
AcDbXline
 10
-762.42632098985268
 20
-676.46682512222469
 30
0.0
 11
0.0
 21
1.0
 31
0.0
  0
XLINE
  5
73
100
AcDbEntity
  8
1
  6
DOT_CENTER
 62
             3
 60
             1
100
AcDbXline
 10
-762.24339643451458
 20
-611.55029682174427
 30
0.0
 11
-0.0000000000000276
 21
-1.0
 31
0.0
  0
XLINE
  5
72
100
AcDbEntity
  8
1
  6
DOT_CENTER
 62
             3
 60
             1
100
AcDbXline
 10
-762.24339643451458
 20
-611.55029682174427
 30
0.0
 11
1.0
 21
0.0
 31
0.0
  0
XLINE
  5
71
100
AcDbEntity
  8
1
  6
DOT_CENTER
 62
             3
 60
             1
100
AcDbXline
 10
-762.42632098985268
 20
-612.69408502615624
 30
0.0
 11
-1.0
 21
0.0
 31
0.0
  0
XLINE
  5
70
100
AcDbEntity
  8
1
  6
DOT_CENTER
 62
             3
 60
             1
100
AcDbXline
 10
-762.42632098985268
 20
-612.69408502615624
 30
0.0
 11
0.0
 21
1.0
 31
0.0
  0
POINT
  5
6F
100
AcDbEntity
  8
1
 62
             3
 60
             1
100
AcDbPoint
 10
-776.42632098984905
 20
-612.2951828899204
  0
POINT
  5
6E
100
AcDbEntity
  8
1
 62
             3
 60
             1
100
AcDbPoint
 10
-776.42632098984905
 20
-611.2951828899204
  0
POINT
  5
6D
100
AcDbEntity
  8
1
 62
             3
 60
             1
100
AcDbPoint
 10
-776.3263209898505
 20
-611.55029682174427
  0
POINT
  5
6C
100
AcDbEntity
  8
1
 62
             3
 60
             1
100
AcDbPoint
 10
-764.42632098985268
 20
-616.05018949642545
  0
POINT
  5
6B
100
AcDbEntity
  8
1
 62
             3
 60
             1
100
AcDbPoint
 10
-762.42632098985268
 20
-616.05018949642545
  0
POINT
  5
6A
100
AcDbEntity
  8
1
 62
             3
 60
             1
100
AcDbPoint
 10
-827.08666214370533
 20
-611.55029682174063
  0
POINT
  5
69
100
AcDbEntity
  8
1
 62
             3
 60
             1
100
AcDbPoint
 10
-697.40013072532383
 20
-611.55029682174427
  0
POINT
  5
68
100
AcDbEntity
  8
1
 62
             3
 60
             1
100
AcDbPoint
 10
-762.24339643451458
 20
-611.55029682174427
  0
POINT
  5
67
100
AcDbEntity
  8
1
 62
             3
 60
             1
100
AcDbPoint
 10
-762.42632098985268
 20
-548.92134493009144
  0
POINT
  5
66
100
AcDbEntity
  8
1
 62
             3
 60
             1
100
AcDbPoint
 10
-762.42632098985268
 20
-676.46682512222469
  0
POINT
  5
65
100
AcDbEntity
  8
1
 62
             3
 60
             1
100
AcDbPoint
 10
-762.42632098985268
 20
-612.69408502615624
  0
POINT
  5
64
100
AcDbEntity
  8
1
 62
             3
 60
             1
100
AcDbPoint
 10
-738.57936317171698
 20
-607.50232887683524
  0
POINT
  5
63
100
AcDbEntity
  8
1
 62
             3
 60
             1
100
AcDbPoint
 10
-811.74704031203873
 20
-654.05029682174063
  0
POINT
  5
62
100
AcDbEntity
  8
1
 62
             3
 60
             1
100
AcDbPoint
 10
-804.92632098985268
 20
-654.05029682174063
  0
POINT
  5
61
100
AcDbEntity
  8
1
 62
             3
 60
             1
100
AcDbPoint
 10
-802.11384074334273
 20
-651.23781657523432
  0
POINT
  5
60
100
AcDbEntity
  8
1
 62
             3
 60
             1
100
AcDbPoint
 10
-749.85171248894403
 20
-609.60949370106391
  0
POINT
  5
5F
100
AcDbEntity
  8
1
 62
             3
 60
             1
100
AcDbPoint
 10
-758.69188768591266
 20
-607.81586351780425
  0
POINT
  5
5E
100
AcDbEntity
  8
1
 62
             3
 60
             1
100
AcDbPoint
 10
-755.16861517906
 20
-604.29259101095158
  0
POINT
  5
5D
100
AcDbEntity
  8
1
 62
             3
 60
             1
100
AcDbPoint
 10
-745.26912024244666
 20
-614.19208594756492
  0
POINT
  5
5C
100
AcDbEntity
  8
1
 62
             3
 60
             1
100
AcDbPoint
 10
-740.41271759786468
 20
-609.33568330298294
  0
POINT
  5
5B
100
AcDbEntity
  8
1
 62
             3
 60
             1
100
AcDbPoint
 10
-712.79787903063698
 20
-581.72084473575524
  0
POINT
  5
5A
100
AcDbEntity
  8
1
 62
             3
 60
             1
100
AcDbPoint
 10
-702.43036901832966
 20
-581.72084473575524
  0
ENDBLK
  5
75
100
AcDbEntity
  8
0
100
AcDbBlockEnd
  0
BLOCK
  5
28
100
AcDbEntity
  8
0
100
AcDbBlockBegin
  2
HL510NC_BODENABLAUF_DRICHT
 70
             0
 10
-1379.54282718729
 20
-861.54776343299204
 30
0.0
  3
HL510NC_BODENABLAUF_DRICHT
  1

  0
INSERT
  5
29
100
AcDbEntity
  8
0
100
AcDbBlockReference
  2
EINLAUFROST_115X115
 10
-325.96682271718601
 20
-474.55523777213239
  0
ENDBLK
  5
76
100
AcDbEntity
  8
0
100
AcDbBlockEnd
  0
BLOCK
  5
2B
100
AcDbEntity
  8
0
100
AcDbBlockBegin
  2
MASCHENGITTER
 70
             0
 10
-313.95956719997781
 20
-321.12190221208539
 30
0.0
  3
MASCHENGITTER
  1

  0
HATCH
  5
89
100
AcDbEntity
  8
1
  6
CONTINUOUS
 62
             3
100
AcDbHatch
 10
0.0
 20
0.0
 30
0.0
210
0.0
220
0.0
230
1.0
  2
USER
 70
             0
 71
             1
 91
        1
 92
        1
 93
        5
 72
             1
 10
-53.5
 20
1.000000000000199
 11
-53.5
 21
0.5000000000131006
 72
             1
 10
-53.5
 20
0.5000000000131006
 11
-53.5
 21
0.500000000000199
 72
             1
 10
-53.5
 20
0.500000000000199
 11
-250.0
 21
0.500000000000199
 72
             1
 10
-250.0
 20
0.500000000000199
 11
-250.0
 21
1.000000000000199
 72
             1
 10
-250.0
 20
1.000000000000199
 11
-53.5
 21
1.000000000000199
 97
        5
330
7F
330
87
330
84
330
86
330
85
 75
             1
 76
             0
 52
135.0
 41
1.0
 77
             0
 78
             1
 53
135.0
 43
-23703.10455517067
 44
-32804.472917055478
 45
-0.7071067811865476
 46
-0.7071067811865475
 79
             0
 98
        1
 10
0.0
 20
0.0
  0
HATCH
  5
88
100
AcDbEntity
  8
1
  6
CONTINUOUS
 62
             3
100
AcDbHatch
 10
0.0
 20
0.0
 30
0.0
210
0.0
220
0.0
230
1.0
  2
USER
 70
             0
 71
             1
 91
        1
 92
        1
 93
        5
 72
             1
 10
250.0
 20
1.000000000000199
 11
250.0
 21
0.500000000000199
 72
             1
 10
250.0
 20
0.500000000000199
 11
53.5
 21
0.500000000000199
 72
             1
 10
53.5
 20
0.500000000000199
 11
53.5
 21
1.000000000000199
 72
             1
 10
53.5
 20
1.000000000000199
 11
124.4591146414009
 21
1.000000000000199
 72
             1
 10
124.4591146414009
 20
1.000000000000199
 11
250.0
 21
1.000000000000199
 97
        5
330
83
330
81
330
80
330
7B
330
82
 75
             1
 76
             0
 52
135.0
 41
1.0
 77
             0
 78
             1
 53
135.0
 43
-23703.10455517067
 44
-32804.472917055478
 45
-0.7071067811865476
 46
-0.7071067811865475
 79
             0
 98
        1
 10
0.0
 20
0.0
  0
LINE
  5
87
102
{ACAD_REACTORS
330
89
102
}
100
AcDbEntity
  8
1
  6
CONTINUOUS
 62
             7
100
AcDbLine
 10
-53.5
 20
0.5000000000131
 11
-53.5
 21
0.5000000000002
  0
LINE
  5
86
102
{ACAD_REACTORS
330
89
102
}
100
AcDbEntity
  8
1
  6
CONTINUOUS
 62
             7
100
AcDbLine
 10
-250.0
 20
1.0000000000002
 11
-250.0
 21
0.5000000000002
  0
LINE
  5
85
102
{ACAD_REACTORS
330
89
102
}
100
AcDbEntity
  8
1
  6
CONTINUOUS
 62
             7
100
AcDbLine
 10
-250.0
 20
1.0000000000002
 11
-53.5
 21
1.0000000000002
  0
LINE
  5
84
102
{ACAD_REACTORS
330
89
102
}
100
AcDbEntity
  8
1
  6
CONTINUOUS
 62
             7
100
AcDbLine
 10
-53.5
 20
0.5000000000002
 11
-250.0
 21
0.5000000000002
  0
LINE
  5
83
102
{ACAD_REACTORS
330
88
102
}
100
AcDbEntity
  8
1
  6
CONTINUOUS
 62
             7
100
AcDbLine
 10
250.0
 20
1.0000000000002
 11
250.0
 21
0.5000000000002
  0
LINE
  5
82
102
{ACAD_REACTORS
330
88
102
}
100
AcDbEntity
  8
1
  6
CONTINUOUS
 62
             7
100
AcDbLine
 10
250.0
 20
1.0000000000002
 11
124.4591146414009
 21
1.0000000000002
  0
LINE
  5
81
102
{ACAD_REACTORS
330
88
102
}
100
AcDbEntity
  8
1
  6
CONTINUOUS
 62
             7
100
AcDbLine
 10
53.5
 20
0.5000000000002
 11
250.0
 21
0.5000000000002
  0
LINE
  5
80
102
{ACAD_REACTORS
330
88
102
}
100
AcDbEntity
  8
1
  6
CONTINUOUS
 62
             7
100
AcDbLine
 10
53.5
 20
1.0000000000002
 11
53.5
 21
0.5000000000002
  0
LINE
  5
7F
102
{ACAD_REACTORS
330
89
102
}
100
AcDbEntity
  8
1
  6
CONTINUOUS
 62
             7
100
AcDbLine
 10
-53.5
 20
1.0000000000002
 11
-53.5
 21
0.5000000000131
  0
LINE
  5
7E
100
AcDbEntity
  8
1
  6
CONTINUOUS
 62
             7
100
AcDbLine
 10
53.5
 20
0.5000000000002
 11
-53.5
 21
0.5000000000131
  0
LINE
  5
7D
100
AcDbEntity
  8
1
  6
CONTINUOUS
 62
             7
100
AcDbLine
 10
53.5
 20
1.0000000000002
 11
-53.5
 21
1.0000000000002
  0
LINE
  5
7C
100
AcDbEntity
  8
1
  6
PHANTOM
 62
             2
100
AcDbLine
 10
0.0
 20
5.0649326756525
 11
0.0
 21
-3.2650184869488
  0
LINE
  5
7B
102
{ACAD_REACTORS
330
88
102
}
100
AcDbEntity
  8
1
  6
CONTINUOUS
 62
             7
100
AcDbLine
 10
124.4591146414009
 20
1.0000000000002
 11
53.5
 21
1.0000000000002
  0
POINT
  5
7A
100
AcDbEntity
  8
1
 62
             3
 60
             1
100
AcDbPoint
 10
-633.60455517066657
 20
-483.97291705547792
  0
POINT
  5
79
100
AcDbEntity
  8
1
 62
             3
 60
             1
100
AcDbPoint
 10
-632.08192462604347
 20
-483.97291705547792
  0
POINT
  5
78
100
AcDbEntity
  8
1
 62
             3
 60
             1
100
AcDbPoint
 10
-526.60455517066657
 20
-483.97291705547792
  0
POINT
  5
77
100
AcDbEntity
  8
1
 62
             3
 60
             1
100
AcDbPoint
 10
-528.14092479763349
 20
-483.97291705547792
  0
ENDBLK
  5
8A
100
AcDbEntity
  8
0
100
AcDbBlockEnd
  0
BLOCK
  5
2D
100
AcDbEntity
  8
0
100
AcDbBlockBegin
  2
HL_3200_NIRORAHMEN
 70
             0
 10
-89.50006405674623
 20
-22.44558840467113
 30
0.0
  3
HL_3200_NIRORAHMEN
  1

  0
XLINE
  5
91
100
AcDbEntity
  8
1
  6
DOT_CENTER
 62
             3
 60
             1
100
AcDbXline
 10
-118.4598108030962
 20
3.07043699911622
 30
0.0
 11
0.0
 21
-1.0
 31
0.0
  0
POINT
  5
90
100
AcDbEntity
  8
1
 62
             3
 60
             1
100
AcDbPoint
 10
-201.45981080309619
 20
3.07043699911622
  0
POINT
  5
8F
100
AcDbEntity
  8
1
 62
             3
 60
             1
100
AcDbPoint
 10
-118.4598108030962
 20
3.07043699911622
  0
POINT
  5
8E
100
AcDbEntity
  8
1
 62
             3
 60
             1
100
AcDbPoint
 10
-118.4598108030962
 20
2.92043699911477
  0
POINT
  5
8D
100
AcDbEntity
  8
1
 62
             3
 60
             1
100
AcDbPoint
 10
-118.4598108030962
 20
2.50378776770771
  0
POINT
  5
8C
100
AcDbEntity
  8
1
 62
             3
 60
             1
100
AcDbPoint
 10
-118.4598108030962
 20
2.27804513674158
  0
POINT
  5
8B
100
AcDbEntity
  8
1
 62
             3
 60
             1
100
AcDbPoint
 10
-118.6012679403587
 20
3.86684716063422
  0
ENDBLK
  5
92
100
AcDbEntity
  8
0
100
AcDbBlockEnd
  0
BLOCK
  5
2F
100
AcDbEntity
  8
0
100
AcDbBlockBegin
  2
HL_3000_AUFSTOCKELEMENT
 70
             0
 10
419.51149823606198
 20
110.467609289937
 30
0.0
  3
HL_3000_AUFSTOCKELEMENT
  1

  0
INSERT
  5
30
100
AcDbEntity
  8
0
100
AcDbBlockReference
  2
HL_3200_NIRORAHMEN
 10
-89.50006405674623
 20
-22.44558840467113
  0
ENDBLK
  5
93
100
AcDbEntity
  8
0
100
AcDbBlockEnd
  0
BLOCK
  5
32
100
AcDbEntity
  8
0
100
AcDbBlockBegin
  2
SCHEIBE
 70
             0
 10
-1321.84863376775
 20
-319.82091440487591
 30
0.0
  3
SCHEIBE
  1

  0
LINE
  5
99
100
AcDbEntity
  8
1
  6
CONTINUOUS
 62
             7
100
AcDbLine
 10
-164.99999999999909
 20
-123.0000000000004
 11
-152.25
 21
-123.0000000000004
  0
LINE
  5
98
100
AcDbEntity
  8
1
  6
CONTINUOUS
 62
             7
100
AcDbLine
 10
-145.0
 20
-123.0000000000004
 11
-145.0
 21
-121.8000000000004
  0
LINE
  5
97
100
AcDbEntity
  8
1
  6
CONTINUOUS
 62
             7
100
AcDbLine
 10
-145.0
 20
-121.8000000000004
 11
-157.75
 21
-121.8000000000004
  0
LINE
  5
96
100
AcDbEntity
  8
1
  6
CONTINUOUS
 62
             7
100
AcDbLine
 10
-164.99999999999909
 20
-121.8000000000004
 11
-164.99999999999909
 21
-123.0000000000004
  0
LINE
  5
95
100
AcDbEntity
  8
1
  6
CONTINUOUS
 62
             7
100
AcDbLine
 10
-157.75
 20
-121.8000000000004
 11
-164.99999999999909
 21
-121.8000000000004
  0
LINE
  5
94
100
AcDbEntity
  8
1
  6
CONTINUOUS
 62
             7
100
AcDbLine
 10
-152.25
 20
-123.0000000000004
 11
-145.0
 21
-123.0000000000004
  0
ENDBLK
  5
9A
100
AcDbEntity
  8
0
100
AcDbBlockEnd
  0
BLOCK
  5
34
100
AcDbEntity
  8
0
100
AcDbBlockBegin
  2
GITTER
 70
             0
 10
-860.85364579706106
 20
-50.70853995314863
 30
0.0
  3
GITTER
  1

  0
CIRCLE
  5
B4
100
AcDbEntity
  8
1
  6
CONTINUOUS
 62
             7
100
AcDbCircle
 10
-223.5
 20
-16.0000000000002
 40
1.5
  0
CIRCLE
  5
B3
100
AcDbEntity
  8
1
  6
CONTINUOUS
 62
             7
100
AcDbCircle
 10
-173.5
 20
-16.0000000000002
 40
1.5
  0
CIRCLE
  5
B2
100
AcDbEntity
  8
1
  6
CONTINUOUS
 62
             7
100
AcDbCircle
 10
-124.765898202844
 20
-16.0000000000002
 40
1.5000000000009
  0
CIRCLE
  5
B1
100
AcDbEntity
  8
1
  6
CONTINUOUS
 62
             7
100
AcDbCircle
 10
-74.76589820284403
 20
-16.0000000000002
 40
1.50000000000091
  0
CIRCLE
  5
B0
100
AcDbEntity
  8
1
  6
CONTINUOUS
 62
             7
100
AcDbCircle
 10
-24.76589820284403
 20
-16.0000000000002
 40
1.50000000000091
  0
CIRCLE
  5
AF
100
AcDbEntity
  8
1
  6
CONTINUOUS
 62
             7
100
AcDbCircle
 10
24.76589820284403
 20
-16.0000000000002
 40
1.50000000000114
  0
CIRCLE
  5
AE
100
AcDbEntity
  8
1
  6
CONTINUOUS
 62
             7
100
AcDbCircle
 10
74.76589820284403
 20
-16.0000000000002
 40
1.50000000000114
  0
CIRCLE
  5
AD
100
AcDbEntity
  8
1
  6
CONTINUOUS
 62
             7
100
AcDbCircle
 10
124.765898202844
 20
-16.0000000000002
 40
1.50000000000109
  0
CIRCLE
  5
AC
100
AcDbEntity
  8
1
  6
CONTINUOUS
 62
             7
100
AcDbCircle
 10
173.5
 20
-16.0000000000002
 40
1.5
  0
CIRCLE
  5
AB
100
AcDbEntity
  8
1
  6
CONTINUOUS
 62
             7
100
AcDbCircle
 10
223.5
 20
-16.0000000000002
 40
1.5000000000002
  0
LINE
  5
AA
100
AcDbEntity
  8
1
  6
CONTINUOUS
 62
             7
100
AcDbLine
 10
-225.0
 20
-17.0000000000002
 11
-224.61803398875011
 21
-17.0000000000002
  0
LINE
  5
A9
100
AcDbEntity
  8
1
  6
CONTINUOUS
 62
             7
100
AcDbLine
 10
-225.0
 20
-20.0000000000002
 11
-117.0
 21
-20.0000000000002
  0
LINE
  5
A8
100
AcDbEntity
  8
1
  6
CONTINUOUS
 62
             7
100
AcDbLine
 10
-225.0
 20
-17.0000000000002
 11
-225.0
 21
-20.0000000000002
  0
LINE
  5
A7
100
AcDbEntity
  8
1
  6
CONTINUOUS
 62
             7
100
AcDbLine
 10
-172.38196601125011
 20
-17.0000000000002
 11
-125.88393219159499
 21
-17.0000000000002
  0
LINE
  5
A6
100
AcDbEntity
  8
1
  6
CONTINUOUS
 62
             7
100
AcDbLine
 10
-222.38196601125011
 20
-17.0000000000002
 11
-174.61803398875011
 21
-17.0000000000002
  0
LINE
  5
A5
100
AcDbEntity
  8
1
  6
CONTINUOUS
 62
             7
100
AcDbLine
 10
-117.0
 20
-20.0000000000002
 11
224.9999999999998
 21
-20.0000000000002
  0
LINE
  5
A4
100
AcDbEntity
  8
1
  6
CONTINUOUS
 62
             7
100
AcDbLine
 10
-123.647864214093
 20
-17.0000000000002
 11
-75.88393219159502
 21
-17.0000000000002
  0
LINE
  5
A3
100
AcDbEntity
  8
1
  6
CONTINUOUS
 62
             7
100
AcDbLine
 10
-73.64786421409303
 20
-17.0000000000002
 11
-25.88393219159502
 21
-17.0000000000002
  0
LINE
  5
A2
100
AcDbEntity
  8
1
  6
CONTINUOUS
 62
             7
100
AcDbLine
 10
-23.64786421409303
 20
-17.0000000000002
 11
24.11606780840498
 21
-17.0000000000002
  0
LINE
  5
A1
100
AcDbEntity
  8
1
  6
CONTINUOUS
 62
             7
100
AcDbLine
 10
25.88393219159502
 20
-17.0000000000002
 11
73.64786421409303
 21
-17.0000000000002
  0
LINE
  5
A0
100
AcDbEntity
  8
1
  6
CONTINUOUS
 62
             7
100
AcDbLine
 10
75.88393219159502
 20
-17.0000000000002
 11
123.647864214093
 21
-17.0000000000002
  0
LINE
  5
9F
100
AcDbEntity
  8
1
  6
CONTINUOUS
 62
             7
100
AcDbLine
 10
174.61803398875011
 20
-17.0000000000002
 11
222.38196601125011
 21
-17.0000000000002
  0
LINE
  5
9E
100
AcDbEntity
  8
1
  6
CONTINUOUS
 62
             7
100
AcDbLine
 10
125.88393219159499
 20
-17.0000000000002
 11
172.38196601125011
 21
-17.0000000000002
  0
LINE
  5
9D
100
AcDbEntity
  8
1
  6
CONTINUOUS
 62
             7
100
AcDbLine
 10
224.9999999999998
 20
-20.0000000000002
 11
225.0
 21
-17.0000000000002
  0
LINE
  5
9C
100
AcDbEntity
  8
1
  6
CONTINUOUS
 62
             7
100
AcDbLine
 10
117.0
 20
-20.0000000000002
 11
224.9999999999998
 21
-20.0000000000002
  0
LINE
  5
9B
100
AcDbEntity
  8
1
  6
CONTINUOUS
 62
             7
100
AcDbLine
 10
224.61803398875011
 20
-17.0000000000002
 11
225.0
 21
-17.0000000000002
  0
ENDBLK
  5
B5
100
AcDbEntity
  8
0
100
AcDbBlockEnd
  0
BLOCK
  5
36
100
AcDbEntity
  8
0
100
AcDbBlockBegin
  2
GIE_ELEMENT
 70
             0
 10
-1151.8486337677509
 20
-213.82091440487551
 30
0.0
  3
GIE_ELEMENT
  1

  0
LINE
  5
C1
100
AcDbEntity
  8
1
  6
CONTINUOUS
 62
             7
100
AcDbLine
 10
95.0
 20
-35.0000000000002
 11
95.0
 21
-31.0000000000002
  0
LINE
  5
C0
100
AcDbEntity
  8
1
  6
CONTINUOUS
 62
             7
100
AcDbLine
 10
-95.0
 20
-31.0000000000002
 11
125.1815875649709
 21
-31.0000000000002
  0
LINE
  5
BF
100
AcDbEntity
  8
1
  6
CONTINUOUS
 62
             7
100
AcDbLine
 10
-126.121337511164
 20
-0.0000000000002
 11
126.0522722210919
 21
0.0000000000002
  0
LINE
  5
BE
100
AcDbEntity
  8
1
  6
CONTINUOUS
 62
             7
100
AcDbLine
 10
-95.0
 20
-35.0000000000002
 11
95.0
 21
-35.0000000000002
  0
LINE
  5
BD
100
AcDbEntity
  8
1
  6
CONTINUOUS
 62
             7
100
AcDbLine
 10
-95.0
 20
-31.0000000000002
 11
-95.0
 21
-35.0000000000002
  0
LINE
  5
BC
100
AcDbEntity
  8
1
  6
CONTINUOUS
 62
             7
100
AcDbLine
 10
-125.25065285504211
 20
-31.0000000000002
 11
-95.0
 21
-31.0000000000002
  0
LINE
  5
BB
100
AcDbEntity
  8
1
  6
CONTINUOUS
 62
             7
100
AcDbLine
 10
-126.121337511164
 20
-0.0000000000002
 11
-127.56906529007099
 21
-17.85162970684439
  0
LINE
  5
BA
100
AcDbEntity
  8
1
  6
CONTINUOUS
 62
             7
100
AcDbLine
 10
-125.25065285504211
 20
-31.0000000000002
 11
-127.56906529007099
 21
-17.85162970684439
  0
LINE
  5
B9
100
AcDbEntity
  8
1
  6
CONTINUOUS
 62
             7
100
AcDbLine
 10
127.5
 20
-17.85162970684539
 11
126.0522722210919
 21
0.0000000000002
  0
LINE
  5
B8
100
AcDbEntity
  8
1
  6
CONTINUOUS
 62
             7
100
AcDbLine
 10
125.1815875649709
 20
-31.0000000000002
 11
127.5
 21
-17.85162970684539
  0
LINE
  5
B7
100
AcDbEntity
  8
1
  6
DOT_CENTER
 62
             2
100
AcDbLine
 10
127.5
 20
-18.6455532478555
 11
127.5
 21
-14.6455532478555
  0
LINE
  5
B6
100
AcDbEntity
  8
1
  6
DOT_CENTER
 62
             2
100
AcDbLine
 10
-127.5
 20
-14.6455532478555
 11
-127.5
 21
-17.6455532478555
  0
ENDBLK
  5
C2
100
AcDbEntity
  8
0
100
AcDbBlockEnd
  0
BLOCK
  5
38
100
AcDbEntity
  8
0
100
AcDbBlockBegin
  2
NIVELLIERUNGSSCHRAUBE__1
 70
             0
 10
-1261.3486337677509
 20
-331.72091440487588
 30
0.0
  3
NIVELLIERUNGSSCHRAUBE__1
  1

  0
LINE
  5
CF
100
AcDbEntity
  8
1
  6
PHANTOM
 62
             2
100
AcDbLine
 10
-99.99999999999909
 20
-28.8082665746885
 11
-99.99999999999909
 21
-124.0804336141195
  0
LINE
  5
CE
100
AcDbEntity
  8
1
  6
CONTINUOUS
 62
             7
100
AcDbLine
 10
-92.0
 20
-107.5000000000004
 11
-99.99999999999909
 21
-107.5000000000004
  0
LINE
  5
CD
100
AcDbEntity
  8
1
  6
CONTINUOUS
 62
             2
100
AcDbLine
 10
-108.0
 20
-31.0000000000002
 11
-108.0
 21
-107.5000000000004
  0
LINE
  5
CC
100
AcDbEntity
  8
1
  6
CONTINUOUS
 62
             7
100
AcDbLine
 10
-109.5
 20
-31.0000000000002
 11
-109.5
 21
-107.5000000000004
  0
LINE
  5
CB
100
AcDbEntity
  8
1
  6
CONTINUOUS
 62
             7
100
AcDbLine
 10
-109.5
 20
-107.5000000000004
 11
-108.52950000000099
 21
-107.5000000000004
  0
LINE
  5
CA
100
AcDbEntity
  8
1
  6
CONTINUOUS
 62
             7
100
AcDbLine
 10
-90.5
 20
-107.5000000000004
 11
-91.47049999999899
 21
-107.5000000000004
  0
LINE
  5
C9
100
AcDbEntity
  8
1
  6
CONTINUOUS
 62
             7
100
AcDbLine
 10
-90.5
 20
-107.5000000000004
 11
-90.5
 21
-35.0000000000002
  0
LINE
  5
C8
100
AcDbEntity
  8
1
  6
CONTINUOUS
 62
             7
100
AcDbLine
 10
-108.52950000000099
 20
-107.5000000000004
 11
-108.0
 21
-107.5000000000004
  0
LINE
  5
C7
100
AcDbEntity
  8
1
  6
CONTINUOUS
 62
             2
100
AcDbLine
 10
-92.0
 20
-107.5000000000004
 11
-92.0
 21
-35.0000000000002
  0
LINE
  5
C6
100
AcDbEntity
  8
1
  6
CONTINUOUS
 62
             7
100
AcDbLine
 10
-91.47049999999899
 20
-107.5000000000004
 11
-92.0
 21
-107.5000000000004
  0
LINE
  5
C5
100
AcDbEntity
  8
1
  6
CONTINUOUS
 62
             7
100
AcDbLine
 10
-99.99999999999909
 20
-107.5000000000004
 11
-107.9999999999982
 21
-107.5000000000004
  0
LINE
  5
C4
100
AcDbEntity
  8
1
  6
CONTINUOUS
 62
             7
100
AcDbLine
 10
-92.0
 20
-107.5000000000004
 11
-92.0
 21
-108.0000000000004
  0
LINE
  5
C3
100
AcDbEntity
  8
1
  6
CONTINUOUS
 62
             7
100
AcDbLine
 10
-108.0
 20
-107.5000000000004
 11
-108.0
 21
-108.0000000000004
  0
ENDBLK
  5
D0
100
AcDbEntity
  8
0
100
AcDbBlockEnd
  0
BLOCK
  5
3A
100
AcDbEntity
  8
0
100
AcDbBlockBegin
  2
BEFESTIGUNGSLASCHE
 70
             0
 10
-1262.8486337677509
 20
-324.32091440487591
 30
0.0
  3
BEFESTIGUNGSLASCHE
  1

  0
LINE
  5
E3
100
AcDbEntity
  8
1
  6
CONTINUOUS
 62
             7
100
AcDbLine
 10
-88.0
 20
-125.0000000000004
 11
-80.5
 21
-125.0000000000004
  0
LINE
  5
E2
100
AcDbEntity
  8
1
  6
CONTINUOUS
 62
             7
100
AcDbLine
 10
-109.0
 20
-108.0000000000004
 11
-111.5
 21
-108.0000000000004
  0
LINE
  5
E1
100
AcDbEntity
  8
1
  6
CONTINUOUS
 62
             7
100
AcDbLine
 10
-169.49999999999909
 20
-125.0000000000004
 11
-150.2000000000001
 21
-125.0000000000004
  0
LINE
  5
E0
100
AcDbEntity
  8
1
  6
CONTINUOUS
 62
             7
100
AcDbLine
 10
-169.99999999999909
 20
-127.5000000000004
 11
-169.99999999999909
 21
-125.5000000000004
  0
LINE
  5
DF
100
AcDbEntity
  8
1
  6
CONTINUOUS
 62
             7
100
AcDbLine
 10
-88.5
 20
-108.0000000000004
 11
-98.49999999999909
 21
-108.0000000000004
  0
LINE
  5
DE
100
AcDbEntity
  8
1
  6
CONTINUOUS
 62
             7
100
AcDbLine
 10
-112.0
 20
-108.5000000000004
 11
-111.5
 21
-108.0000000000004
  0
LINE
  5
DD
100
AcDbEntity
  8
1
  6
CONTINUOUS
 62
             7
100
AcDbLine
 10
-88.5
 20
-108.0000000000004
 11
-88.0
 21
-108.5000000000004
  0
LINE
  5
DC
100
AcDbEntity
  8
1
  6
CONTINUOUS
 62
             7
100
AcDbLine
 10
-169.99999999999909
 20
-125.5000000000004
 11
-169.49999999999909
 21
-125.0000000000004
  0
LINE
  5
DB
100
AcDbEntity
  8
1
  6
CONTINUOUS
 62
             7
100
AcDbLine
 10
-169.99999999999909
 20
-127.5000000000004
 11
-169.49999999999909
 21
-128.0000000000004
  0
LINE
  5
DA
100
AcDbEntity
  8
1
  6
CONTINUOUS
 62
             7
100
AcDbLine
 10
-117.0
 20
-128.00000000000031
 11
-169.49999999999909
 21
-128.0000000000004
  0
LINE
  5
D9
100
AcDbEntity
  8
1
  6
CONTINUOUS
 62
             7
100
AcDbLine
 10
-112.0
 20
-108.5000000000004
 11
-112.0
 21
-125.0000000000004
  0
LINE
  5
D8
100
AcDbEntity
  8
1
  6
CONTINUOUS
 62
             7
100
AcDbLine
 10
-88.0
 20
-125.0000000000004
 11
-88.0
 21
-108.5000000000004
  0
LINE
  5
D7
100
AcDbEntity
  8
1
  6
CONTINUOUS
 62
             7
100
AcDbLine
 10
-150.2000000000001
 20
-125.0000000000004
 11
-112.0
 21
-125.0000000000004
  0
LINE
  5
D6
100
AcDbEntity
  8
1
  6
CONTINUOUS
 62
             7
100
AcDbLine
 10
-112.0
 20
-125.0000000000004
 11
-101.4999999999991
 21
-125.0000000000004
  0
LINE
  5
D5
100
AcDbEntity
  8
1
  6
CONTINUOUS
 62
             7
100
AcDbLine
 10
-101.4999999999991
 20
-125.0000000000004
 11
-101.4999999999991
 21
-108.0000000000004
  0
LINE
  5
D4
100
AcDbEntity
  8
1
  6
CONTINUOUS
 62
             7
100
AcDbLine
 10
-101.4999999999991
 20
-108.0000000000004
 11
-109.0
 21
-108.0000000000004
  0
LINE
  5
D3
100
AcDbEntity
  8
1
  6
CONTINUOUS
 62
             7
100
AcDbLine
 10
-101.4999999999991
 20
-125.0000000000004
 11
-98.49999999999909
 21
-125.0000000000004
  0
LINE
  5
D2
100
AcDbEntity
  8
1
  6
CONTINUOUS
 62
             7
100
AcDbLine
 10
-98.49999999999909
 20
-125.0000000000004
 11
-98.49999999999909
 21
-108.0000000000004
  0
LINE
  5
D1
100
AcDbEntity
  8
1
  6
CONTINUOUS
 62
             7
100
AcDbLine
 10
-98.49999999999909
 20
-125.0000000000004
 11
-88.0
 21
-125.0000000000004
  0
ENDBLK
  5
E4
100
AcDbEntity
  8
0
100
AcDbBlockEnd
  0
BLOCK
  5
3C
100
AcDbEntity
  8
0
100
AcDbBlockBegin
  2
SCHALLSCHUTZ
 70
             0
 10
-1298.84863376775
 20
-326.8209144048684
 30
0.0
  3
SCHALLSCHUTZ
  1

  0
ARC
  5
FA
100
AcDbEntity
  8
1
  6
CONTINUOUS
 62
             7
100
AcDbCircle
 10
-145.0
 20
-124.0000000000006
 40
1.0
100
AcDbArc
 50
0.0
 51
90.0
  0
ARC
  5
F9
100
AcDbEntity
  8
1
  6
CONTINUOUS
 62
             7
100
AcDbCircle
 10
-169.99999999999909
 20
-126.0000000000004
 40
1.0
100
AcDbArc
 50
90.0
 51
180.0
  0
ARC
  5
F8
100
AcDbEntity
  8
1
  6
CONTINUOUS
 62
             7
100
AcDbCircle
 10
-169.99999999999909
 20
-126.99999999999289
 40
1.0
100
AcDbArc
 50
180.0
 51
-90.0
  0
ARC
  5
F7
100
AcDbEntity
  8
1
  6
CONTINUOUS
 62
             7
100
AcDbCircle
 10
-170.99999999999909
 20
-124.0000000000004
 40
1.0
100
AcDbArc
 50
90.0
 51
180.0
  0
ARC
  5
F6
100
AcDbEntity
  8
1
  6
CONTINUOUS
 62
             7
100
AcDbCircle
 10
-79.0
 20
-128.99999999999289
 40
1.0
100
AcDbArc
 50
-90.0
 51
0.0
  0
LINE
  5
F5
100
AcDbEntity
  8
1
  6
CONTINUOUS
 62
             7
100
AcDbLine
 10
-119.0
 20
-127.9999999999928
 11
-117.0
 21
-127.99999999999289
  0
LINE
  5
F4
100
AcDbEntity
  8
1
  6
CONTINUOUS
 62
             7
100
AcDbLine
 10
-160.99999999999909
 20
-129.99999999999289
 11
-110.9999999999991
 21
-129.99999999999289
  0
LINE
  5
F3
100
AcDbEntity
  8
1
  6
CONTINUOUS
 62
             7
100
AcDbLine
 10
-117.0
 20
-127.99999999999289
 11
-148.99999999999909
 21
-127.99999999999289
  0
LINE
  5
F2
100
AcDbEntity
  8
1
  6
CONTINUOUS
 62
             7
100
AcDbLine
 10
-110.9999999999991
 20
-129.99999999999289
 11
-79.0
 21
-129.99999999999289
  0
LINE
  5
F1
100
AcDbEntity
  8
1
  6
CONTINUOUS
 62
             7
100
AcDbLine
 10
-160.99999999999909
 20
-129.99999999999289
 11
-171.99999999999909
 21
-129.99999999999289
  0
LINE
  5
F0
100
AcDbEntity
  8
1
  6
CONTINUOUS
 62
             7
100
AcDbLine
 10
-144.0
 20
-124.0000000000006
 11
-144.0
 21
-124.4999999999999
  0
LINE
  5
EF
100
AcDbEntity
  8
1
  6
CONTINUOUS
 62
             7
100
AcDbLine
 10
-159.5
 20
-125.0000000000004
 11
-144.5
 21
-125.0000000000004
  0
LINE
  5
EE
100
AcDbEntity
  8
1
  6
CONTINUOUS
 62
             7
100
AcDbLine
 10
-144.5
 20
-125.0000000000004
 11
-144.0
 21
-124.4999999999999
  0
LINE
  5
ED
100
AcDbEntity
  8
1
  6
CONTINUOUS
 62
             7
100
AcDbLine
 10
-159.5
 20
-125.0000000000004
 11
-169.99999999999909
 21
-125.0000000000004
  0
LINE
  5
EC
100
AcDbEntity
  8
1
  6
CONTINUOUS
 62
             7
100
AcDbLine
 10
-170.99999999999909
 20
-126.0000000000004
 11
-170.99999999999909
 21
-126.99999999999289
  0
LINE
  5
EB
100
AcDbEntity
  8
1
  6
CONTINUOUS
 62
             7
100
AcDbLine
 10
-171.99999999999909
 20
-124.0000000000004
 11
-171.99999999999909
 21
-129.99999999999289
  0
LINE
  5
EA
100
AcDbEntity
  8
1
  6
CONTINUOUS
 62
             7
100
AcDbLine
 10
-117.0
 20
-127.99999999999289
 11
-116.9999999999991
 21
-125.0000000000005
  0
LINE
  5
E9
100
AcDbEntity
  8
1
  6
CONTINUOUS
 62
             7
100
AcDbLine
 10
-78.0
 20
-125.0000000000004
 11
-78.0
 21
-128.99999999999289
  0
LINE
  5
E8
100
AcDbEntity
  8
1
  6
CONTINUOUS
 62
             7
100
AcDbLine
 10
-116.9999999999991
 20
-125.0000000000005
 11
-78.0
 21
-125.0000000000004
  0
LINE
  5
E7
100
AcDbEntity
  8
1
  6
CONTINUOUS
 62
             7
100
AcDbLine
 10
-170.99999999999909
 20
-123.0000000000004
 11
-157.40000000000009
 21
-123.0000000000004
  0
LINE
  5
E6
100
AcDbEntity
  8
1
  6
CONTINUOUS
 62
             7
100
AcDbLine
 10
-169.99999999999909
 20
-127.99999999999289
 11
-148.99999999999909
 21
-127.99999999999289
  0
LINE
  5
E5
100
AcDbEntity
  8
1
  6
CONTINUOUS
 62
             7
100
AcDbLine
 10
-145.0
 20
-123.0000000000004
 11
-152.60000000000011
 21
-123.0000000000004
  0
ENDBLK
  5
FB
100
AcDbEntity
  8
0
100
AcDbBlockEnd
  0
BLOCK
  5
3E
100
AcDbEntity
  8
0
100
AcDbBlockBegin
  2
LINSENKOPFSCHRAUBE_5X45
 70
             0
 10
-1316.4486337677511
 20
-365.08492836193102
 30
0.0
  3
LINSENKOPFSCHRAUBE_5X45
  1

  0
ARC
  5
108
100
AcDbEntity
  8
1
  6
CONTINUOUS
 62
             7
100
AcDbCircle
 10
-159.30000000000021
 20
-120.41985611759181
 40
0.30000000000011
100
AcDbArc
 50
135.8783350968076
 51
180.0
  0
ARC
  5
107
100
AcDbEntity
  8
1
  6
CONTINUOUS
 62
             7
100
AcDbCircle
 10
-159.30000000000021
 20
-121.5000000000003
 40
0.2999999999999
100
AcDbArc
 50
180.0
 51
-90.0
  0
ARC
  5
106
100
AcDbEntity
  8
1
  6
CONTINUOUS
 62
             7
100
AcDbCircle
 10
-150.7000000000001
 20
-121.5000000000003
 40
0.3
100
AcDbArc
 50
-90.0
 51
0.0
  0
ARC
  5
105
100
AcDbEntity
  8
1
  6
CONTINUOUS
 62
             7
100
AcDbCircle
 10
-150.7000000000001
 20
-120.41985611759181
 40
0.30000000000001
100
AcDbArc
 50
0.0
 51
44.12166490315084
  0
ARC
  5
104
100
AcDbEntity
  8
1
  6
CONTINUOUS
 62
             7
100
AcDbCircle
 10
-155.0
 20
-124.5900000000004
 40
6.28999999999942
100
AcDbArc
 50
44.121664903217
 51
135.87833509678302
  0
LINE
  5
103
100
AcDbEntity
  8
1
  6
CONTINUOUS
 62
             7
100
AcDbLine
 10
-159.60000000000011
 20
-120.41985611759181
 11
-159.60000000000011
 21
-121.5000000000003
  0
LINE
  5
102
100
AcDbEntity
  8
1
  6
CONTINUOUS
 62
             7
100
AcDbLine
 10
-150.40000000000009
 20
-120.41985611759181
 11
-150.40000000000009
 21
-121.5000000000003
  0
LINE
  5
101
100
AcDbEntity
  8
1
  6
CONTINUOUS
 62
             7
100
AcDbLine
 10
-159.30000000000021
 20
-121.8000000000003
 11
-150.7000000000001
 21
-121.8000000000003
  0
LINE
  5
100
100
AcDbEntity
  8
1
  6
CONTINUOUS
 62
             7
100
AcDbLine
 10
-157.40000000000009
 20
-129.99999999999289
 11
-157.40000000000009
 21
-132.99999999999289
  0
LINE
  5
FF
100
AcDbEntity
  8
1
  6
CONTINUOUS
 62
             7
100
AcDbLine
 10
-152.60000000000011
 20
-129.99999999999289
 11
-152.60000000000011
 21
-132.99999999999289
  0
LINE
  5
FE
100
AcDbEntity
  8
1
  6
CONTINUOUS
 62
             2
100
AcDbLine
 10
-153.30000000000021
 20
-129.99999999999289
 11
-153.30000000000021
 21
-132.99999999999289
  0
LINE
  5
FD
100
AcDbEntity
  8
1
  6
CONTINUOUS
 62
             2
100
AcDbLine
 10
-156.7000000000001
 20
-129.99999999999289
 11
-156.7000000000001
 21
-132.99999999999289
  0
LINE
  5
FC
100
AcDbEntity
  8
1
  6
PHANTOM
 62
             2
100
AcDbLine
 10
-155.0
 20
-117.2019277341675
 11
-155.0
 21
-134.04712594680251
  0
ENDBLK
  5
109
100
AcDbEntity
  8
0
100
AcDbBlockEnd
  0
BLOCK
  5
40
100
AcDbEntity
  8
0
100
AcDbBlockBegin
  2
D_BEL_D8
 70
             0
 10
-1312.75281727931
 20
-362.9208480272743
 30
0.0
  3
D_BEL_D8
  1

  0
ARC
  5
120
100
AcDbEntity
  8
1
  6
CONTINUOUS
 62
             7
100
AcDbCircle
 10
-155.0
 20
-173.50384615383899
 40
6.80384615384611
100
AcDbArc
 50
53.99167678817296
 51
126.00832321182703
  0
ARC
  5
11F
100
AcDbEntity
  8
1
  6
CONTINUOUS
 62
             7
100
AcDbCircle
 10
-155.0
 20
-168.20384615383909
 40
6.80384615384611
100
AcDbArc
 50
53.99167678817296
 51
126.00832321182703
  0
ARC
  5
11E
100
AcDbEntity
  8
1
  6
CONTINUOUS
 62
             7
100
AcDbCircle
 10
-155.0
 20
-162.90384615383911
 40
6.80384615384611
100
AcDbArc
 50
53.99167678817296
 51
126.00832321182703
  0
LINE
  5
11D
100
AcDbEntity
  8
1
  6
CONTINUOUS
 62
             7
100
AcDbLine
 10
-158.2000000000001
 20
-172.99999999999289
 11
-151.803847577293
 21
-172.99999999999289
  0
LINE
  5
11C
100
AcDbEntity
  8
1
  6
CONTINUOUS
 62
             7
100
AcDbLine
 10
-151.803847577293
 20
-172.99999999999289
 11
-151.0
 21
-169.99999999999289
  0
LINE
  5
11B
100
AcDbEntity
  8
1
  6
CONTINUOUS
 62
             7
100
AcDbLine
 10
-151.0
 20
-132.99999999999289
 11
-159.0
 21
-132.99999999999289
  0
LINE
  5
11A
100
AcDbEntity
  8
1
  6
CONTINUOUS
 62
             7
100
AcDbLine
 10
-159.0
 20
-132.99999999999289
 11
-159.0
 21
-167.99999999999289
  0
LINE
  5
119
100
AcDbEntity
  8
1
  6
CONTINUOUS
 62
             7
100
AcDbLine
 10
-159.0
 20
-169.99999999999289
 11
-151.0
 21
-169.99999999999289
  0
LINE
  5
118
100
AcDbEntity
  8
1
  6
CONTINUOUS
 62
             7
100
AcDbLine
 10
-151.0
 20
-169.99999999999289
 11
-151.0
 21
-167.99999999999289
  0
LINE
  5
117
100
AcDbEntity
  8
1
  6
CONTINUOUS
 62
             7
100
AcDbLine
 10
-159.0
 20
-169.99999999999289
 11
-158.2000000000001
 21
-172.99999999999289
  0
LINE
  5
116
100
AcDbEntity
  8
1
  6
CONTINUOUS
 62
             7
100
AcDbLine
 10
-159.0
 20
-167.99999999999289
 11
-151.0
 21
-167.99999999999289
  0
LINE
  5
115
100
AcDbEntity
  8
1
  6
CONTINUOUS
 62
             7
100
AcDbLine
 10
-159.0
 20
-167.99999999999289
 11
-159.0
 21
-169.99999999999289
  0
LINE
  5
114
100
AcDbEntity
  8
1
  6
CONTINUOUS
 62
             7
100
AcDbLine
 10
-151.0
 20
-167.99999999999289
 11
-151.0
 21
-132.99999999999289
  0
LINE
  5
113
100
AcDbEntity
  8
1
  6
PHANTOM
 62
             2
100
AcDbLine
 10
-155.0
 20
-131.90006637759461
 11
-155.0
 21
-173.39940852895069
  0
LINE
  5
112
100
AcDbEntity
  8
1
  6
CONTINUOUS
 62
             7
100
AcDbLine
 10
-159.0
 20
-164.699999999993
 11
-151.0
 21
-164.699999999993
  0
LINE
  5
111
100
AcDbEntity
  8
1
  6
CONTINUOUS
 62
             7
100
AcDbLine
 10
-159.0
 20
-162.699999999993
 11
-151.0
 21
-162.699999999993
  0
LINE
  5
110
100
AcDbEntity
  8
1
  6
CONTINUOUS
 62
             7
100
AcDbLine
 10
-159.0
 20
-159.39999999999301
 11
-151.0
 21
-159.39999999999301
  0
LINE
  5
10F
100
AcDbEntity
  8
1
  6
CONTINUOUS
 62
             7
100
AcDbLine
 10
-159.0
 20
-157.39999999999301
 11
-151.0
 21
-157.39999999999301
  0
LINE
  5
10E
100
AcDbEntity
  8
1
  6
CONTINUOUS
 62
             7
100
AcDbLine
 10
-159.0
 20
-154.099999999993
 11
-156.5
 21
-154.099999999993
  0
LINE
  5
10D
100
AcDbEntity
  8
1
  6
CONTINUOUS
 62
             7
100
AcDbLine
 10
-156.5
 20
-154.099999999993
 11
-156.5
 21
-147.099999999993
  0
LINE
  5
10C
100
AcDbEntity
  8
1
  6
CONTINUOUS
 62
             7
100
AcDbLine
 10
-156.5
 20
-154.099999999993
 11
-151.0
 21
-154.099999999993
  0
LINE
  5
10B
100
AcDbEntity
  8
1
  6
CONTINUOUS
 62
             7
100
AcDbLine
 10
-156.5
 20
-147.099999999993
 11
-153.5
 21
-147.099999999993
  0
LINE
  5
10A
100
AcDbEntity
  8
1
  6
CONTINUOUS
 62
             7
100
AcDbLine
 10
-153.5
 20
-147.099999999993
 11
-153.5
 21
-154.099999999993
  0
ENDBLK
  5
121
100
AcDbEntity
  8
0
100
AcDbBlockEnd
  0
BLOCK
  5
42
100
AcDbEntity
  8
0
100
AcDbBlockBegin
  2
GUMMINOPPEL
 70
             0
 10
-1042.3486337677509
 20
-325.22091440487571
 30
0.0
  3
GUMMINOPPEL
  1

  0
LINE
  5
126
100
AcDbEntity
  8
1
  6
PHANTOM
 62
             2
100
AcDbLine
 10
100.0
 20
-121.9999999999915
 11
100.0
 21
-129.99999999999139
  0
LINE
  5
125
100
AcDbEntity
  8
1
  6
CONTINUOUS
 62
             7
100
AcDbLine
 10
109.5
 20
-121.9999999999915
 11
109.5
 21
-129.99999999999139
  0
LINE
  5
124
100
AcDbEntity
  8
1
  6
CONTINUOUS
 62
             7
100
AcDbLine
 10
109.5
 20
-129.99999999999139
 11
90.5
 21
-129.99999999999139
  0
LINE
  5
123
100
AcDbEntity
  8
1
  6
CONTINUOUS
 62
             7
100
AcDbLine
 10
90.5
 20
-129.99999999999139
 11
90.5
 21
-121.9999999999915
  0
LINE
  5
122
100
AcDbEntity
  8
1
  6
CONTINUOUS
 62
             7
100
AcDbLine
 10
90.5
 20
-121.9999999999915
 11
109.5
 21
-121.9999999999915
  0
ENDBLK
  5
127
100
AcDbEntity
  8
0
100
AcDbBlockEnd
  0
BLOCK
  5
44
100
AcDbEntity
  8
0
100
AcDbBlockBegin
  2
NIVELLIERUNGSSCHRAUBE__2
 70
             0
 10
-1042.3486337677509
 20
-319.22091440487571
 30
0.0
  3
NIVELLIERUNGSSCHRAUBE__2
  1

  0
LINE
  5
12F
100
AcDbEntity
  8
1
  6
CONTINUOUS
 62
             7
100
AcDbLine
 10
90.5
 20
-121.5000000000004
 11
90.5
 21
-83.99999996010705
  0
LINE
  5
12E
100
AcDbEntity
  8
1
  6
CONTINUOUS
 62
             7
100
AcDbLine
 10
109.5
 20
-121.5000000000004
 11
109.5
 21
-83.99999996010705
  0
LINE
  5
12D
100
AcDbEntity
  8
1
  6
CONTINUOUS
 62
             2
100
AcDbLine
 10
108.5294999999999
 20
-122.0000000000004
 11
108.5294999999999
 21
-83.99999996010705
  0
LINE
  5
12C
100
AcDbEntity
  8
1
  6
DOT_CENTER
 62
             2
100
AcDbLine
 10
100.0
 20
-124.0000000000002
 11
100.0
 21
-83.99999996010706
  0
LINE
  5
12B
100
AcDbEntity
  8
1
  6
CONTINUOUS
 62
             7
100
AcDbLine
 10
109.5
 20
-121.5000000000004
 11
109.0
 21
-122.0000000000004
  0
LINE
  5
12A
100
AcDbEntity
  8
1
  6
CONTINUOUS
 62
             7
100
AcDbLine
 10
90.5
 20
-121.5000000000004
 11
91.0
 21
-122.0000000000004
  0
LINE
  5
129
100
AcDbEntity
  8
1
  6
CONTINUOUS
 62
             2
100
AcDbLine
 10
91.4704999999999
 20
-122.0000000000004
 11
91.4704999999999
 21
-83.99999996010705
  0
LINE
  5
128
100
AcDbEntity
  8
1
  6
CONTINUOUS
 62
             7
100
AcDbLine
 10
90.5
 20
-121.5000000000004
 11
109.5
 21
-121.5000000000004
  0
ENDBLK
  5
130
100
AcDbEntity
  8
0
100
AcDbBlockEnd
  0
BLOCK
  5
46
100
AcDbEntity
  8
0
100
AcDbBlockBegin
  2
HL_510NC_K_RPER
 70
             0
 10
-1349.94863476775
 20
-1027.805381270239
 30
0.0
  3
HL_510NC_K_RPER
  1

  0
ARC
  5
17A
100
AcDbEntity
  8
1
  6
CONTINUOUS
 62
             7
100
AcDbCircle
 10
60.5
 20
-85.99588632517418
 40
2.00000000000027
100
AcDbArc
 50
86.32456294529538
 51
-179.99999703232203
  0
ARC
  5
179
100
AcDbEntity
  8
1
  6
CONTINUOUS
 62
             7
100
AcDbCircle
 10
60.5
 20
-42.00410272414248
 40
2.0
100
AcDbArc
 50
180.0
 51
-86.32947009987582
  0
SPLINE
  5
178
100
AcDbEntity
  8
0
  6
CONTINUOUS
 62
             7
100
AcDbSpline
210
0.0
220
0.0
230
1.0
 70
             0
 71
             3
 72
            29
 73
            25
 74
            17
 42
0.00000000001
 43
0.00000000001
 44
0.00000000001
 40
0.0
 40
0.0
 40
0.0
 40
0.0
 40
0.1059997813154067
 40
0.1059997813154067
 40
0.1059997813154067
 40
0.2118178245516451
 40
0.2118178245516451
 40
0.2118178245516451
 40
0.3007582066513398
 40
0.3007582066513398
 40
0.3007582066513398
 40
0.389390312515698
 40
0.389390312515698
 40
0.389390312515698
 40
0.4781991845016017
 40
0.4781991845016017
 40
0.4781991845016017
 40
0.5669526591635052
 40
0.5669526591635052
 40
0.5669526591635052
 40
0.6730336771468639
 40
0.6730336771468639
 40
0.6730336771468639
 40
0.7790329823274094
 40
0.7790329823274094
 40
0.7790329823274094
 40
0.7790329823274094
 10
-54.0
 20
-40.500000000000199
 30
0.0
 10
-54.0
 20
-40.459459440255301
 30
0.0
 10
-54.005711108752173
 20
-40.423808089654102
 30
0.0
 10
-54.012697567879059
 20
-40.394952011040203
 30
0.0
 10
-54.022330879379069
 20
-40.355163673488477
 30
0.0
 10
-54.036016477105022
 20
-40.321577042828892
 30
0.0
 10
-54.048704015404162
 20
-40.295613707716399
 30
0.0
 10
-54.063668300095969
 20
-40.264991318326992
 30
0.0
 10
-54.079941779917142
 20
-40.23945816584839
 30
0.0
 10
-54.094374756649131
 20
-40.219387056829987
 30
0.0
 10
-54.111606158440047
 20
-40.195424339352201
 30
0.0
 10
-54.130830586720997
 20
-40.172829466435502
 30
0.0
 10
-54.151735895150068
 20
-40.15191458445068
 30
0.0
 10
-54.168926742685017
 20
-40.134715864398601
 30
0.0
 10
-54.191392901346042
 20
-40.114511081228699
 30
0.0
 10
-54.219325522426061
 20
-40.094419012101099
 30
0.0
 10
-54.239360258703982
 20
-40.080007929620677
 30
0.0
 10
-54.264834144549013
 20
-40.063764657236078
 30
0.0
 10
-54.295377552519987
 20
-40.048819492971489
 30
0.0
 10
-54.327217403072147
 20
-40.033239967684693
 30
0.0
 10
-54.360591689438017
 20
-40.021016643542879
 30
0.0
 10
-54.394952477131028
 20
-40.012697455033191
 30
0.0
 10
-54.423807956886087
 20
-40.005711172361892
 30
0.0
 10
-54.459459218575148
 20
-40.000000000000199
 30
0.0
 10
-54.5
 20
-40.000000000000199
 30
0.0
 11
-54.0
 21
-40.500000000000199
 31
0.0
 11
-54.003728861766945
 21
-40.443094325096084
 31
0.0
 11
-54.012697567879059
 21
-40.394952011040203
 31
0.0
 11
-54.029555456591922
 21
-40.340098483463578
 31
0.0
 11
-54.048704015404162
 21
-40.295613707716399
 31
0.0
 11
-54.071738626511575
 21
-40.25354365213407
 31
0.0
 11
-54.094374756649131
 21
-40.219387056829987
 31
0.0
 11
-54.12167761091029
 21
-40.184507882330465
 31
0.0
 11
-54.151735895150068
 21
-40.15191458445068
 31
0.0
 11
-54.18150254370866
 21
-40.12425180417921
 31
0.0
 11
-54.219325522426061
 21
-40.094419012101099
 31
0.0
 11
-54.25341078558813
 21
-40.071819533205357
 31
0.0
 11
-54.295377552519987
 21
-40.048819492971489
 31
0.0
 11
-54.344219663397688
 21
-40.028035847710925
 31
0.0
 11
-54.394952477131028
 21
-40.012697455033191
 31
0.0
 11
-54.44309425043933
 21
-40.003728871514951
 31
0.0
 11
-54.5
 21
-40.000000000000199
 31
0.0
  0
SPLINE
  5
177
100
AcDbEntity
  8
0
  6
CONTINUOUS
 62
             7
100
AcDbSpline
210
0.0
220
0.0
230
1.0
 70
             0
 71
             3
 72
            17
 73
            13
 74
             9
 42
0.00000000001
 43
0.00000000001
 44
0.00000000001
 40
98.044436042742234
 40
98.044436042742234
 40
98.044436042742234
 40
98.044436042742234
 40
100.0815738926877
 40
100.0815738926877
 40
100.0815738926877
 40
104.20275238406749
 40
104.20275238406749
 40
104.20275238406749
 40
109.9281716606957
 40
109.9281716606957
 40
109.9281716606957
 40
117.48793999995731
 40
117.48793999995731
 40
117.48793999995731
 40
117.48793999995731
 10
59.490734565660887
 20
-44.025015680868989
 30
0.0
 10
59.280404347872043
 20
-44.593202185729893
 30
0.0
 10
59.049554406919917
 20
-45.238002204270877
 30
0.0
 10
58.810230225138874
 20
-45.945078005912478
 30
0.0
 10
58.361804827153037
 20
-47.269936803724903
 30
0.0
 10
57.961566012593039
 20
-48.583093816527402
 30
0.0
 10
57.609420268388931
 20
-49.886906346772093
 30
0.0
 10
57.099089472565993
 20
-51.776395846827803
 30
0.0
 10
56.692108497318031
 20
-53.6375830246036
 30
0.0
 10
56.385416927801998
 20
-55.478173120355002
 30
0.0
 10
55.966512166927942
 20
-57.992203601021401
 30
0.0
 10
55.730440610426967
 20
-60.493419131795413
 30
0.0
 10
55.680809191635937
 20
-63.000000000000171
 30
0.0
 11
59.490734565660887
 21
-44.025015680868989
 31
0.0
 11
59.161355131896961
 21
-44.932963357097968
 31
0.0
 11
58.810230225138874
 21
-45.945078005912478
 31
0.0
 11
58.173720376595753
 21
-47.923884526680183
 31
0.0
 11
57.609420268388931
 21
-49.886906346772093
 31
0.0
 11
56.921053888230375
 21
-52.700877010177663
 31
0.0
 11
56.385416927801998
 21
-55.478173120355002
 31
0.0
 11
55.894635556437834
 21
-59.241880164850706
 31
0.0
 11
55.680809191635937
 21
-63.000000000000171
 31
0.0
  0
SPLINE
  5
176
100
AcDbEntity
  8
0
  6
CONTINUOUS
 62
             7
100
AcDbSpline
210
0.0
220
0.0
230
1.0
 70
             0
 71
             3
 72
            17
 73
            13
 74
             9
 42
0.00000000001
 43
0.00000000001
 44
0.00000000001
 40
98.012540931515019
 40
98.012540931515019
 40
98.012540931515019
 40
98.012540931515019
 40
100.14786257590769
 40
100.14786257590769
 40
100.14786257590769
 40
104.4492545582463
 40
104.4492545582463
 40
104.4492545582463
 40
110.5306375445998
 40
110.5306375445998
 40
110.5306375445998
 40
118.4203717007189
 40
118.4203717007189
 40
118.4203717007189
 40
118.4203717007189
 10
58.491452351619962
 20
-43.024644981346
 30
0.0
 10
58.285862989766883
 20
-43.617724588588487
 30
0.0
 10
58.057290381096891
 20
-44.2990645801803
 30
0.0
 10
57.818992230873853
 20
-45.051265474623712
 30
0.0
 10
57.375849383184907
 20
-46.450069645310812
 30
0.0
 10
56.983365721931932
 20
-47.827767306535087
 30
0.0
 10
56.63965598492382
 20
-49.187337069066587
 30
0.0
 10
56.131888571529998
 20
-51.195849331936387
 30
0.0
 10
55.72704560715988
 20
-53.178742532305677
 30
0.0
 10
55.423471505196858
 20
-55.144140154752897
 30
0.0
 10
55.017472162915972
 20
-57.772658651152803
 30
0.0
 10
54.790269509966038
 20
-60.384945631474856
 30
0.0
 10
54.744092315009993
 20
-63.000000000000171
 30
0.0
 11
58.491452351619962
 21
-43.024644981346
 31
0.0
 11
58.167488086885641
 21
-43.978284745284505
 31
0.0
 11
57.818992230873853
 21
-45.051265474623712
 31
0.0
 11
57.192036691393525
 21
-47.134014174903498
 31
0.0
 11
56.63965598492382
 21
-49.187337069066587
 31
0.0
 11
55.954991253273775
 21
-52.181906602068196
 31
0.0
 11
55.423471505196858
 21
-55.144140154752897
 31
0.0
 11
54.948848604856614
 21
-59.077119125329496
 31
0.0
 11
54.744092315009993
 21
-63.000000000000171
 31
0.0
  0
SPLINE
  5
175
100
AcDbEntity
  8
0
  6
CONTINUOUS
 62
             7
100
AcDbSpline
210
0.0
220
0.0
230
1.0
 70
             0
 71
             3
 72
            20
 73
            16
 74
            11
 42
0.00000000001
 43
0.00000000001
 44
0.00000000001
 40
1.027087060355484
 40
1.027087060355484
 40
1.027087060355484
 40
1.027087060355484
 40
8.5867119133921452
 40
8.5867119133921452
 40
8.5867119133921452
 40
14.31229990983411
 40
14.31229990983411
 40
14.31229990983411
 40
18.433551859513759
 40
18.433551859513759
 40
18.433551859513759
 40
19.8461021194266
 40
19.8461021194266
 40
19.8461021194266
 40
20.470601826104531
 40
20.470601826104531
 40
20.470601826104531
 40
20.470601826104531
 10
55.680809191050002
 20
-65.000000000000171
 30
0.0
 10
55.730054033170973
 20
-67.487060848299905
 30
0.0
 10
55.963213497881952
 20
-69.987954849490166
 30
0.0
 10
56.385393368385849
 20
-72.521685244512071
 30
0.0
 10
56.692554587712948
 20
-74.365126327215194
 30
0.0
 10
57.099853631748829
 20
-76.226437576901105
 30
0.0
 10
57.609426825466933
 20
-78.113117977023819
 30
0.0
 10
57.945903485232982
 20
-79.358913334614215
 30
0.0
 10
58.342176719706913
 20
-80.672083847686906
 30
0.0
 10
58.810261821006861
 20
-82.055015454985664
 30
0.0
 10
58.945472265178978
 20
-82.454487252664194
 30
0.0
 10
59.10049179589987
 20
-82.900612599027397
 30
0.0
 10
59.276400374171999
 20
-83.388418826678617
 30
0.0
 10
59.336390888197911
 20
-83.55477652582357
 30
0.0
 10
59.408167704451898
 20
-83.751937788656676
 30
0.0
 10
59.490734488295857
 20
-83.974984283661115
 30
0.0
 11
55.680809191050002
 21
-65.000000000000171
 31
0.0
 11
55.893250644074328
 21
-68.743341542235299
 31
0.0
 11
56.385393368385849
 21
-72.521685244512071
 31
0.0
 11
56.921505606529763
 21
-75.301186866735591
 31
0.0
 11
57.609426825466933
 21
-78.113117977023819
 31
0.0
 11
58.160491157661689
 21
-80.032640622364099
 31
0.0
 11
58.810261821006861
 21
-82.055015454985664
 31
0.0
 11
59.028069297301926
 21
-82.688591729592389
 31
0.0
 11
59.276400374171999
 21
-83.388418826678617
 31
0.0
 11
59.375101330052161
 21
-83.660443256722559
 31
0.0
 11
59.490734488295857
 21
-83.974984283661115
 31
0.0
  0
SPLINE
  5
174
100
AcDbEntity
  8
0
  6
CONTINUOUS
 62
             7
100
AcDbSpline
210
0.0
220
0.0
230
1.0
 70
             0
 71
             3
 72
            20
 73
            16
 74
            11
 42
0.00000000001
 43
0.00000000001
 44
0.00000000001
 40
0.9782115531537556
 40
0.9782115531537556
 40
0.9782115531537556
 40
0.9782115531537556
 40
8.8677033396165736
 40
8.8677033396165736
 40
8.8677033396165736
 40
14.949355551695749
 40
14.949355551695749
 40
14.949355551695749
 40
19.250871189541289
 40
19.250871189541289
 40
19.250871189541289
 40
20.734943180949241
 40
20.734943180949241
 40
20.734943180949241
 40
21.386052659164012
 40
21.386052659164012
 40
21.386052659164012
 40
21.386052659164012
 10
54.744092314173031
 20
-65.000000000000171
 30
0.0
 10
54.790100934493012
 20
-67.605512506877972
 30
0.0
 10
55.015976166886958
 20
-70.217589374806494
 30
0.0
 10
55.423434531235898
 20
-72.855620169910367
 30
0.0
 10
55.726811676085852
 20
-74.819792023212472
 30
0.0
 10
56.131531294332952
 20
-76.802741849897018
 30
0.0
 10
56.639662538512987
 20
-78.812688910406166
 30
0.0
 10
56.970269570133951
 20
-80.120427096164462
 30
0.0
 10
57.359491811814003
 20
-81.498311387498916
 30
0.0
 10
57.819037628043823
 20
-82.948877973202116
 30
0.0
 10
57.952641544932931
 20
-83.370601707185585
 30
0.0
 10
58.106155147831032
 20
-83.842563312926472
 30
0.0
 10
58.280656083501981
 20
-84.359313753866616
 30
0.0
 10
58.338359358374873
 20
-84.530190732959568
 30
0.0
 10
58.409120094690017
 20
-84.737846441992815
 30
0.0
 10
58.49145228173802
 20
-84.975354995531404
 30
0.0
 11
54.744092314173031
 21
-65.000000000000171
 31
0.0
 11
54.948219768693605
 21
-68.915615726870499
 31
0.0
 11
55.423434531235898
 21
-72.855620169910367
 31
0.0
 11
55.954765747625657
 21
-75.816988837455625
 31
0.0
 11
56.639662538512987
 21
-78.812688910406166
 31
0.0
 11
57.180998039050067
 21
-80.827222791824781
 31
0.0
 11
57.819037628043823
 21
-82.948877973202116
 31
0.0
 11
58.034510473729711
 21
-83.618460848425627
 31
0.0
 11
58.280656083501981
 21
-84.359313753866616
 31
0.0
 11
58.376818340554337
 21
-84.642347534281896
 31
0.0
 11
58.49145228173802
 21
-84.975354995531404
 31
0.0
  0
SPLINE
  5
173
100
AcDbEntity
  8
0
  6
CONTINUOUS
 62
             7
100
AcDbSpline
210
0.0
220
0.0
230
1.0
 70
             0
 71
             3
 72
            26
 73
            22
 74
            15
 42
0.00000000001
 43
0.00000000001
 44
0.00000000001
 40
0.2223499751543672
 40
0.2223499751543672
 40
0.2223499751543672
 40
0.2223499751543672
 40
0.3105650312210111
 40
0.3105650312210111
 40
0.3105650312210111
 40
0.4080493540529165
 40
0.4080493540529165
 40
0.4080493540529165
 40
0.505306385341435
 40
0.505306385341435
 40
0.505306385341435
 40
0.6079224486107282
 40
0.6079224486107282
 40
0.6079224486107282
 40
0.6802512843652961
 40
0.6802512843652961
 40
0.6802512843652961
 40
0.7338130885293944
 40
0.7338130885293944
 40
0.7338130885293944
 40
0.7873208183174535
 40
0.7873208183174535
 40
0.7873208183174535
 40
0.7873208183174535
 10
58.100751575889937
 20
-65.000000000000171
 30
0.0
 10
58.124716227760928
 20
-65.000000000000171
 30
0.0
 10
58.154826082597992
 20
-64.998565486566974
 30
0.0
 10
58.188660113904923
 20
-64.993440312657413
 30
0.0
 10
58.221494370958908
 20
-64.98846658439669
 30
0.0
 10
58.253251598536963
 20
-64.980710699681595
 30
0.0
 10
58.283260622723901
 20
-64.970327714232667
 30
0.0
 10
58.321733400308858
 20
-64.957016308719403
 30
0.0
 10
58.350850944935019
 20
-64.941632409714771
 30
0.0
 10
58.37119932179894
 20
-64.929123592188375
 30
0.0
 10
58.393436433521863
 20
-64.915453707126517
 30
0.0
 10
58.42317834633991
 20
-64.894172279702786
 30
0.0
 10
58.449905753040873
 20
-64.863725745192085
 30
0.0
 10
58.462986246700893
 20
-64.848825096349401
 30
0.0
 10
58.477951087260863
 20
-64.828760950011372
 30
0.0
 10
58.489991365058813
 20
-64.803722356417211
 30
0.0
 10
58.499047013250902
 20
-64.784890507304397
 30
0.0
 10
58.504324593377987
 20
-64.767659655732302
 30
0.0
 10
58.507465984442888
 20
-64.753188842674888
 30
0.0
 10
58.511276707361958
 20
-64.735634753473505
 30
0.0
 10
58.512878322253982
 20
-64.717833878123372
 30
0.0
 10
58.512253753851837
 20
-64.700000000004593
 30
0.0
 11
58.100751575889937
 21
-65.000000000000171
 31
0.0
 11
58.14100482760896
 21
-64.99864209654487
 31
0.0
 11
58.188660113904923
 21
-64.993440312657413
 31
0.0
 11
58.237019830639561
 21
-64.98391248489061
 31
0.0
 11
58.283260622723901
 21
-64.970327714232667
 31
0.0
 11
58.334026622531809
 21
-64.949424682715446
 31
0.0
 11
58.37119932179894
 21
-64.929123592188375
 31
0.0
 11
58.408868676803138
 21
-64.902715912233546
 31
0.0
 11
58.449905753040873
 21
-64.863725745192085
 31
0.0
 11
58.470338639998118
 21
-64.837525780086452
 31
0.0
 11
58.489991365058813
 21
-64.803722356417211
 31
0.0
 11
58.500946521173546
 21
-64.776820211025282
 31
0.0
 11
58.507465984442888
 21
-64.753188842674888
 31
0.0
 11
58.511523103392818
 21
-64.726699342183764
 31
0.0
 11
58.512253753851837
 21
-64.700000000004593
 31
0.0
  0
SPLINE
  5
172
100
AcDbEntity
  8
0
  6
CONTINUOUS
 62
             7
100
AcDbSpline
210
0.0
220
0.0
230
1.0
 70
             0
 71
             3
 72
            26
 73
            22
 74
            15
 42
0.00000000001
 43
0.00000000001
 44
0.00000000001
 40
0.0004230197265581
 40
0.0004230197265581
 40
0.0004230197265581
 40
0.0004230197265581
 40
0.053930749514619
 40
0.053930749514619
 40
0.053930749514619
 40
0.1074925536787177
 40
0.1074925536787177
 40
0.1074925536787177
 40
0.1798213894332995
 40
0.1798213894332995
 40
0.1798213894332995
 40
0.2824374527025771
 40
0.2824374527025771
 40
0.2824374527025771
 40
0.3796944839911246
 40
0.3796944839911246
 40
0.3796944839911246
 40
0.4771788068230151
 40
0.4771788068230151
 40
0.4771788068230151
 40
0.5653938628896444
 40
0.5653938628896444
 40
0.5653938628896444
 40
0.5653938628896444
 10
58.512253753851837
 20
-63.2999999999995
 30
0.0
 10
58.512776474118937
 20
-63.285074285668323
 30
0.0
 10
58.511851201670879
 20
-63.267011653668483
 30
0.0
 10
58.507465984442888
 20
-63.246811157329091
 30
0.0
 10
58.503730153682909
 20
-63.22960205873477
 30
0.0
 10
58.497884707237972
 20
-63.21269239664997
 30
0.0
 10
58.489991365058813
 20
-63.196277643583187
 30
0.0
 10
58.481962696757819
 20
-63.179581470456696
 30
0.0
 10
58.469520010912902
 20
-63.158617843397387
 30
0.0
 10
58.449905753040873
 20
-63.136274254811887
 30
0.0
 10
58.434356307555852
 20
-63.118561098654197
 30
0.0
 10
58.409360326993919
 20
-63.094335234720518
 30
0.0
 10
58.37119932179894
 20
-63.070876407815597
 30
0.0
 10
58.350850944930933
 20
-63.058367590289208
 30
0.0
 10
58.321733400305902
 20
-63.042983691281002
 30
0.0
 10
58.283260622723901
 20
-63.029672285771312
 30
0.0
 10
58.25991648039394
 20
-63.021595319034702
 30
0.0
 10
58.228072268241021
 20
-63.012529834486713
 30
0.0
 10
58.188660113904923
 20
-63.006559687346567
 30
0.0
 10
58.159849056562962
 20
-63.002195392768222
 30
0.0
 10
58.130385402844922
 20
-63.000000000000171
 30
0.0
 10
58.100751575889937
 20
-63.000000000000171
 30
0.0
 11
58.512253753851837
 21
-63.2999999999995
 31
0.0
 11
58.511700345708022
 21
-63.275383621917378
 31
0.0
 11
58.507465984442888
 21
-63.246811157329091
 31
0.0
 11
58.500287741533036
 21
-63.221246520883312
 31
0.0
 11
58.489991365058813
 21
-63.196277643583187
 31
0.0
 11
58.47429315513898
 21
-63.168393729994662
 31
0.0
 11
58.449905753040873
 21
-63.136274254811887
 31
0.0
 11
58.419031872311137
 21
-63.105729957843955
 31
0.0
 11
58.37119932179894
 21
-63.070876407815597
 31
0.0
 11
58.334026622529166
 21
-63.050575317287191
 31
0.0
 11
58.283260622723901
 21
-63.029672285771312
 31
0.0
 11
58.24198587281672
 21
-63.017325929210259
 31
0.0
 11
58.188660113904923
 21
-63.006559687346567
 31
0.0
 11
58.145014383502307
 21
-63.00164323320648
 31
0.0
 11
58.100751575889937
 21
-63.000000000000171
 31
0.0
  0
SPLINE
  5
171
100
AcDbEntity
  8
0
  6
CONTINUOUS
 62
             7
100
AcDbSpline
210
0.0
220
0.0
230
1.0
 70
             0
 71
             3
 72
            29
 73
            25
 74
            19
 42
0.00000000001
 43
0.00000000001
 44
0.00000000001
 40
0.0142921063107929
 40
0.0142921063107929
 40
0.0142921063107929
 40
0.0142921063107929
 40
0.1266216590763427
 40
0.1266216590763427
 40
0.1266216590763427
 40
0.244884799208385
 40
0.244884799208385
 40
0.244884799208385
 40
0.3085617246511928
 40
0.3085617246511928
 40
0.3085617246511928
 40
0.3781940042513735
 40
0.3781940042513735
 40
0.3781940042513735
 40
0.4602794398774283
 40
0.4602794398774283
 40
0.4602794398774283
 40
0.5157023538794544
 40
0.5157023538794544
 40
0.5157023538794544
 40
0.5651243090961624
 40
0.5651243090961624
 40
0.5651243090961624
 40
0.5725216647585543
 40
0.5725216647585543
 40
0.5725216647585543
 40
0.5725216647585543
 10
52.718871786062891
 20
-63.000000000000171
 30
0.0
 10
52.692009783025917
 20
-63.000000000003809
 30
0.0
 10
52.652989757650857
 20
-63.002089866553597
 30
0.0
 10
52.607352859918819
 20
-63.012051641923108
 30
0.0
 10
52.567981264096026
 20
-63.020645806140408
 30
0.0
 10
52.530303057206993
 20
-63.033659033801307
 30
0.0
 10
52.495745137522817
 20
-63.050526315270083
 30
0.0
 10
52.476281599017973
 20
-63.060026221090311
 30
0.0
 10
52.457861442638887
 20
-63.070722550263099
 30
0.0
 10
52.44072429469793
 20
-63.082494079608473
 30
0.0
 10
52.417500197985873
 20
-63.098446742024073
 30
0.0
 10
52.400016520824011
 20
-63.114048454939791
 30
0.0
 10
52.387259128164942
 20
-63.126982194077023
 30
0.0
 10
52.362842462730903
 20
-63.151736373071117
 30
0.0
 10
52.347647135309899
 20
-63.174923415375993
 30
0.0
 10
52.338135880719847
 20
-63.192491703703297
 30
0.0
 10
52.32914215623191
 20
-63.209104059457097
 30
0.0
 10
52.322214232411852
 20
-63.226275585097198
 30
0.0
 10
52.317478316693951
 20
-63.243819839081198
 30
0.0
 10
52.313137273143873
 20
-63.259901284618707
 30
0.0
 10
52.310660386479867
 20
-63.276212769189613
 30
0.0
 10
52.310087212993949
 20
-63.2926040568384
 30
0.0
 10
52.310001037395978
 20
-63.295068457304467
 30
0.0
 10
52.309957919718947
 20
-63.297533943736369
 30
0.0
 10
52.309957919718947
 20
-63.300000000003081
 30
0.0
 11
52.718871786062891
 21
-63.000000000000171
 31
0.0
 11
52.688162336690297
 21
-63.000910771899697
 31
0.0
 11
52.650578905754791
 21
-63.004499686446337
 31
0.0
 11
52.607352859918819
 21
-63.012051641923108
 31
0.0
 11
52.549743870168847
 21
-63.028186559627294
 31
0.0
 11
52.495745137522817
 21
-63.050526315270083
 31
0.0
 11
52.467362319648913
 21
-63.065658338617347
 31
0.0
 11
52.44072429469793
 21
-63.082494079608473
 31
0.0
 11
52.410066697411565
 21
-63.105870233072132
 31
0.0
 11
52.387259128164942
 21
-63.126982194077023
 31
0.0
 11
52.365785232247021
 21
-63.151063934275136
 31
0.0
 11
52.349672836075115
 21
-63.173200557283053
 31
0.0
 11
52.338135880719847
 21
-63.192491703703297
 31
0.0
 11
52.326210420418136
 21
-63.217806309555918
 31
0.0
 11
52.317478316693951
 21
-63.243819839081198
 31
0.0
 11
52.312369813569887
 21
-63.268095757168076
 31
0.0
 11
52.310087212993949
 21
-63.2926040568384
 31
0.0
 11
52.309990250507212
 21
-63.296301407495498
 31
0.0
 11
52.309957919718947
 21
-63.300000000003081
 31
0.0
  0
SPLINE
  5
170
100
AcDbEntity
  8
0
  6
CONTINUOUS
 62
             7
100
AcDbSpline
210
0.0
220
0.0
230
1.0
 70
             0
 71
             3
 72
            23
 73
            19
 74
            16
 42
0.00000000001
 43
0.00000000001
 44
0.00000000001
 40
0.0378428295704609
 40
0.0378428295704609
 40
0.0378428295704609
 40
0.0378428295704609
 40
0.0452401852328601
 40
0.0452401852328601
 40
0.0452401852328601
 40
0.0946621404495634
 40
0.0946621404495634
 40
0.0946621404495634
 40
0.1500850544515878
 40
0.1500850544515878
 40
0.1500850544515878
 40
0.2321704900776444
 40
0.2321704900776444
 40
0.2321704900776444
 40
0.3653610309209131
 40
0.3653610309209131
 40
0.3653610309209131
 40
0.59558487259686
 40
0.59558487259686
 40
0.59558487259686
 40
0.59558487259686
 10
52.309957919718947
 20
-64.700000000000898
 30
0.0
 10
52.309957919718947
 20
-64.70246605716261
 30
0.0
 10
52.310001037425991
 20
-64.704931543590817
 30
0.0
 10
52.310087212993949
 20
-64.707395943165693
 30
0.0
 10
52.310660386479867
 20
-64.723787230781568
 30
0.0
 10
52.313137273132952
 20
-64.740098715352474
 30
0.0
 10
52.317478316693951
 20
-64.756180160922895
 30
0.0
 10
52.322880597791936
 20
-64.776192973087916
 30
0.0
 10
52.33051861506101
 20
-64.79343840488599
 30
0.0
 10
52.338135880719847
 20
-64.807508296300682
 30
0.0
 10
52.353239896328887
 20
-64.835407002887393
 30
0.0
 10
52.371785741193889
 20
-64.857330529063063
 30
0.0
 10
52.387259128164942
 20
-64.873017805926963
 30
0.0
 10
52.416960367859929
 20
-64.903129608279585
 30
0.0
 10
52.45388248477002
 20
-64.929041055875302
 30
0.0
 10
52.495745137522817
 20
-64.949473684733903
 30
0.0
 10
52.562426869127883
 20
-64.982020190600565
 30
0.0
 10
52.640268694397953
 20
-65.000000000000171
 30
0.0
 10
52.718871786062891
 20
-65.000000000000171
 30
0.0
 11
52.309957919718947
 21
-64.700000000000898
 31
0.0
 11
52.309990250518467
 21
-64.703698593178359
 31
0.0
 11
52.310087212993949
 21
-64.707395943165693
 31
0.0
 11
52.31236981356578
 21
-64.731904242811325
 31
0.0
 11
52.317478316693951
 21
-64.756180160922895
 31
0.0
 11
52.326976479496565
 21
-64.784072823893155
 31
0.0
 11
52.338135880719847
 21
-64.807508296300682
 31
0.0
 11
52.362558990181633
 21
-64.844842337259877
 31
0.0
 11
52.387259128164942
 21
-64.873017805926963
 31
0.0
 11
52.419282869843755
 21
-64.901682139509504
 31
0.0
 11
52.455613787138788
 21
-64.92726213348071
 31
0.0
 11
52.495745137522817
 21
-64.949473684733903
 31
0.0
 11
52.547686472112716
 21
-64.971098978656755
 31
0.0
 11
52.60283795177039
 21
-64.986941782067021
 31
0.0
 11
52.660224686439321
 21
-64.996682115627308
 31
0.0
 11
52.718871786062891
 21
-65.000000000000171
 31
0.0
  0
SPLINE
  5
16F
100
AcDbEntity
  8
0
  6
CONTINUOUS
 62
             7
100
AcDbSpline
210
0.0
220
0.0
230
1.0
 70
             0
 71
             3
 72
            32
 73
            28
 74
            19
 42
0.00000000001
 43
0.00000000001
 44
0.00000000001
 40
0.0
 40
0.0
 40
0.0
 40
0.0
 40
0.6769913440505038
 40
0.6769913440505038
 40
0.6769913440505038
 40
1.371206438456215
 40
1.371206438456215
 40
1.371206438456215
 40
2.071047548944231
 40
2.071047548944231
 40
2.071047548944231
 40
2.826428249779473
 40
2.826428249779473
 40
2.826428249779473
 40
4.5506639666031639
 40
4.5506639666031639
 40
4.5506639666031639
 40
5.8993341855405053
 40
5.8993341855405053
 40
5.8993341855405053
 40
7.3940811930137897
 40
7.3940811930137897
 40
7.3940811930137897
 40
9.3990960083098685
 40
9.3990960083098685
 40
9.3990960083098685
 40
11.511102872421191
 40
11.511102872421191
 40
11.511102872421191
 40
11.511102872421191
 10
36.54791375714899
 20
-95.000000000000171
 30
0.0
 10
36.772629267128877
 20
-95.000000000000171
 30
0.0
 10
36.997063828031969
 20
-94.976517614330305
 30
0.0
 10
37.220207330366982
 20
-94.928832109839504
 30
0.0
 10
37.442123634398968
 20
-94.881408856188671
 30
0.0
 10
37.66224618412889
 20
-94.810158421569383
 30
0.0
 10
37.879627457929018
 20
-94.71469972551148
 30
0.0
 10
38.08686027515796
 20
-94.623697523860869
 30
0.0
 10
38.291065437686939
 20
-94.510930157132066
 30
0.0
 10
38.491482663680927
 20
-94.376398839820695
 30
0.0
 10
38.676479793233973
 20
-94.252218358753566
 30
0.0
 10
38.874986162446021
 20
-94.098260008922978
 30
0.0
 10
39.081975723587902
 20
-93.906245963990102
 30
0.0
 10
39.471528897276812
 20
-93.544876626405483
 30
0.0
 10
39.836916077597827
 20
-93.099007939603496
 30
0.0
 10
40.173530786625861
 20
-92.575852711856214
 30
0.0
 10
40.42995914397784
 20
-92.177320407434479
 30
0.0
 10
40.645053468374947
 20
-91.772230133974688
 30
0.0
 10
40.823072001946002
 20
-91.394723136887706
 30
0.0
 10
41.026863567421969
 20
-90.96256171880691
 30
0.0
 10
41.213746767432902
 20
-90.499361331309217
 30
0.0
 10
41.382797248320003
 20
-90.00931912561299
 30
0.0
 10
41.591463132269837
 20
-89.404440100799718
 30
0.0
 10
41.772955983050913
 20
-88.758673729080499
 30
0.0
 10
41.925527982780977
 20
-88.079953853084817
 30
0.0
 10
42.053569761548943
 20
-87.510357201281465
 30
0.0
 10
42.184204334618933
 20
-86.81542873073721
 30
0.0
 10
42.288756716814987
 20
-85.999999999996476
 30
0.0
 11
36.54791375714899
 21
-95.000000000000171
 31
0.0
 11
36.884650046624813
 21
-94.982298119103888
 31
0.0
 11
37.220207330366982
 21
-94.928832109839504
 31
0.0
 11
37.551618030484946
 21
-94.839779208578136
 31
0.0
 11
37.879627457929018
 21
-94.71469972551148
 31
0.0
 11
38.18811090751808
 21
-94.56187270103888
 31
0.0
 11
38.491482663680927
 21
-94.376398839820695
 31
0.0
 11
38.778482031788599
 21
-94.166759988355068
 31
0.0
 11
39.081975723587902
 21
-93.906245963990102
 31
0.0
 11
39.64760517935472
 21
-93.301719046734163
 31
0.0
 11
40.173530786625861
 21
-92.575852711856214
 31
0.0
 11
40.527705078203766
 21
-91.977403434121413
 31
0.0
 11
40.823072001946002
 21
-91.394723136887706
 31
0.0
 11
41.115962531853825
 21
-90.723726426606135
 31
0.0
 11
41.382797248320003
 21
-90.00931912561299
 31
0.0
 11
41.675197822132901
 21
-89.0723268085423
 31
0.0
 11
41.925527982780977
 21
-88.079953853084817
 31
0.0
 11
42.115950873512446
 21
-87.132163956142165
 31
0.0
 11
42.288756716814987
 21
-85.999999999996476
 31
0.0
  0
SPLINE
  5
16E
100
AcDbEntity
  8
0
  6
CONTINUOUS
 62
             7
100
AcDbSpline
210
0.0
220
0.0
230
1.0
 70
             0
 71
             3
 72
            11
 73
             7
 74
             5
 42
0.00000000001
 43
0.00000000001
 44
0.00000000001
 40
3.1594372692242669
 40
3.1594372692242669
 40
3.1594372692242669
 40
3.1594372692242669
 40
3.6596994094789732
 40
3.6596994094789732
 40
3.6596994094789732
 40
4.1621158134790974
 40
4.1621158134790974
 40
4.1621158134790974
 40
4.1621158134790974
 10
42.288756716814987
 20
-85.999999999996476
 30
0.0
 10
42.309995192503038
 20
-85.834356110204908
 30
0.0
 10
42.3259461894379
 20
-85.668329829557706
 30
0.0
 10
42.336603144754918
 20
-85.502094536674292
 30
0.0
 10
42.347324203997907
 20
-85.334859302078371
 30
0.0
 10
42.352685865243977
 20
-85.167435544099305
 30
0.0
 10
42.352685865243977
 20
-85.000000000000171
 30
0.0
 11
42.288756716814987
 21
-85.999999999996476
 31
0.0
 11
42.31664800092409
 21
-85.751269044494819
 31
0.0
 11
42.336603144754918
 21
-85.502094536674292
 31
0.0
 11
42.348664902215567
 21
-85.251122384400929
 31
0.0
 11
42.352685865243977
 21
-85.000000000000171
 31
0.0
  0
SPLINE
  5
16D
100
AcDbEntity
  8
0
  6
CONTINUOUS
 62
             7
100
AcDbSpline
210
0.0
220
0.0
230
1.0
 70
             0
 71
             3
 72
            26
 73
            22
 74
            15
 42
0.00000000001
 43
0.00000000001
 44
0.00000000001
 40
0.0
 40
0.0
 40
0.0
 40
0.0
 40
0.0684067951100181
 40
0.0684067951100181
 40
0.0684067951100181
 40
0.1387550343845725
 40
0.1387550343845725
 40
0.1387550343845725
 40
0.2257549235012374
 40
0.2257549235012374
 40
0.2257549235012374
 40
0.2978480366421836
 40
0.2978480366421836
 40
0.2978480366421836
 40
0.3785346006348802
 40
0.3785346006348802
 40
0.3785346006348802
 40
0.4861133834256428
 40
0.4861133834256428
 40
0.4861133834256428
 40
0.5995999578334114
 40
0.5995999578334114
 40
0.5995999578334114
 40
0.5995999578334114
 10
42.594013663892838
 20
-40.000000000000199
 30
0.0
 10
42.577758580220923
 20
-40.000000000000199
 30
0.0
 10
42.554982004116027
 20
-40.003409437798979
 30
0.0
 10
42.528831688712899
 20
-40.018662121889179
 30
0.0
 10
42.510311889552902
 20
-40.029464157804092
 30
0.0
 10
42.492475613489887
 20
-40.044824176242599
 30
0.0
 10
42.475705595762982
 20
-40.064405562912903
 30
0.0
 10
42.454948965340009
 20
-40.088641888291193
 30
0.0
 10
42.439232748547973
 20
-40.115362361983188
 30
0.0
 10
42.428158010810883
 20
-40.137084728594488
 30
0.0
 10
42.417801140346
 20
-40.157399045965803
 30
0.0
 10
42.408329708992817
 20
-40.179573914796691
 30
0.0
 10
42.399857046755869
 20
-40.203350099480502
 30
0.0
 10
42.392622940554929
 20
-40.223650618987591
 30
0.0
 10
42.384578729273933
 20
-40.249433540357302
 30
0.0
 10
42.377186352051922
 20
-40.2807543745987
 30
0.0
 10
42.370876020023843
 20
-40.3074906811527
 30
0.0
 10
42.36388021920402
 20
-40.34317213867709
 30
0.0
 10
42.358977084131993
 20
-40.386732328264998
 30
0.0
 10
42.355681910491967
 20
-40.416007146606887
 30
0.0
 10
42.352685865243977
 20
-40.454567906370499
 30
0.0
 10
42.352685865243977
 20
-40.500000000000199
 30
0.0
 11
42.594013663892838
 21
-40.000000000000199
 31
0.0
 11
42.565133388202071
 21
-40.003611304410867
 31
0.0
 11
42.528831688712899
 21
-40.018662121889179
 31
0.0
 11
42.501612474200527
 21
-40.038241585867773
 31
0.0
 11
42.475705595762982
 21
-40.064405562912903
 31
0.0
 11
42.448301093529722
 21
-40.101687880291308
 31
0.0
 11
42.428158010810883
 21
-40.137084728594488
 31
0.0
 11
42.413300950697902
 21
-40.168919213795306
 31
0.0
 11
42.399857046755869
 21
-40.203350099480502
 31
0.0
 11
42.388581051036795
 21
-40.237919619014235
 31
0.0
 11
42.377186352051922
 21
-40.2807543745987
 31
0.0
 11
42.367554019233438
 21
-40.327434395294134
 31
0.0
 11
42.358977084131993
 21
-40.386732328264998
 31
0.0
 11
42.354595784572972
 21
-40.43730718589967
 31
0.0
 11
42.352685865243977
 21
-40.500000000000199
 31
0.0
  0
SPLINE
  5
16C
100
AcDbEntity
  8
0
  6
CONTINUOUS
 62
             7
100
AcDbSpline
210
0.0
220
0.0
230
1.0
 70
             0
 71
             6
 72
            15
 73
             8
 74
             5
 42
0.00000000001
 43
0.00000000001
 44
0.00000000001
 40
0.0
 40
0.0
 40
0.0
 40
0.0
 40
0.0
 40
0.0
 40
0.0
 40
0.5
 40
1.0
 40
1.0
 40
1.0
 40
1.0
 40
1.0
 40
1.0
 40
1.0
 10
46.989360497881989
 20
-40.000000000000199
 30
0.0
 10
47.04832712896291
 20
-40.000000000000199
 30
0.0
 10
47.166260391120893
 20
-40.020561383971803
 30
0.0
 10
47.284193653292959
 20
-40.082248629743987
 30
0.0
 10
47.402126915435929
 20
-40.180819027773602
 30
0.0
 10
47.520060177611867
 20
-40.30365165470738
 30
0.0
 10
47.637993439765978
 20
-40.434550153051703
 30
0.0
 10
47.696960070846899
 20
-40.500000000000199
 30
0.0
 11
46.989360497881989
 21
-40.000000000000199
 31
0.0
 11
47.166260391123856
 21
-40.038060240626024
 31
0.0
 11
47.343160284365048
 21
-40.146446622550748
 31
0.0
 11
47.520060177606567
 21
-40.308658264414113
 31
0.0
 11
47.696960070846899
 21
-40.500000000000199
 31
0.0
  0
SPLINE
  5
16B
100
AcDbEntity
  8
0
  6
CONTINUOUS
 62
             7
100
AcDbSpline
210
0.0
220
0.0
230
1.0
 70
             0
 71
             3
 72
            44
 73
            40
 74
            27
 42
0.00000000001
 43
0.00000000001
 44
0.00000000001
 40
0.0000000000000036
 40
0.0000000000000036
 40
0.0000000000000036
 40
0.0000000000000036
 40
0.6738884796141846
 40
0.6738884796141846
 40
0.6738884796141846
 40
1.3721495143670519
 40
1.3721495143670519
 40
1.3721495143670519
 40
2.0052253813844341
 40
2.0052253813844341
 40
2.0052253813844341
 40
2.6928136024802751
 40
2.6928136024802751
 40
2.6928136024802751
 40
3.4461968540158119
 40
3.4461968540158119
 40
3.4461968540158119
 40
4.2724945358634523
 40
4.2724945358634523
 40
4.2724945358634523
 40
5.5770805661508573
 40
5.5770805661508573
 40
5.5770805661508573
 40
7.0275799491917192
 40
7.0275799491917192
 40
7.0275799491917192
 40
7.9304675300571716
 40
7.9304675300571716
 40
7.9304675300571716
 40
8.86752200037545
 40
8.86752200037545
 40
8.86752200037545
 40
9.8294269010396107
 40
9.8294269010396107
 40
9.8294269010396107
 40
10.805596356044211
 40
10.805596356044211
 40
10.805596356044211
 40
11.05300392292947
 40
11.05300392292947
 40
11.05300392292947
 40
11.05300392292947
 10
43.011626335214032
 20
-95.000000000000171
 30
0.0
 10
43.23601218426802
 20
-95.000000000000171
 30
0.0
 10
43.458947480673942
 20
-94.972153292099563
 30
0.0
 10
43.67896571992992
 20
-94.916228168836994
 30
0.0
 10
43.901959245464013
 20
-94.859546775314982
 30
0.0
 10
44.118926236951893
 20
-94.774796273996117
 30
0.0
 10
44.328770521860861
 20
-94.6640191095359
 30
0.0
 10
44.512954610258021
 20
-94.566788007621767
 30
0.0
 10
44.689574788513937
 20
-94.450607787239505
 30
0.0
 10
44.858284465262841
 20
-94.318198722401803
 30
0.0
 10
45.034357453488838
 20
-94.180010681481008
 30
0.0
 10
45.20250571359793
 20
-94.023608104664277
 30
0.0
 10
45.362444802834943
 20
-93.851427620229686
 30
0.0
 10
45.509476267754962
 20
-93.693142682019413
 30
0.0
 10
45.669364558845928
 20
-93.500219031815675
 30
0.0
 10
45.834955654030857
 20
-93.265187205361315
 30
0.0
 10
45.989095223837921
 20
-93.046409108752584
 30
0.0
 10
46.13389737173884
 20
-92.811414361949801
 30
0.0
 10
46.269192107899023
 20
-92.562593958624518
 30
0.0
 10
46.493387193676881
 20
-92.150277018216173
 30
0.0
 10
46.669864381713978
 20
-91.739756179457117
 30
0.0
 10
46.806921142309882
 20
-91.374839470751112
 30
0.0
 10
46.942753325834929
 20
-91.013183226048795
 30
0.0
 10
47.093979155092029
 20
-90.552262884270192
 30
0.0
 10
47.233189639147902
 20
-89.989034194444912
 30
0.0
 10
47.301266101053898
 20
-89.713605107990816
 30
0.0
 10
47.365091217215877
 20
-89.419273817922772
 30
0.0
 10
47.422394932145842
 20
-89.10630164837147
 30
0.0
 10
47.483090717934829
 20
-88.774803214379176
 30
0.0
 10
47.52901505206296
 20
-88.463103323141866
 30
0.0
 10
47.564087470472941
 20
-88.180120571378382
 30
0.0
 10
47.606783457682013
 20
-87.835626849595599
 30
0.0
 10
47.635855810287012
 20
-87.513853421325791
 30
0.0
 10
47.655638053179928
 20
-87.222675107317798
 30
0.0
 10
47.675783518177923
 20
-86.926150463270574
 30
0.0
 10
47.690479963366897
 20
-86.599728908935674
 30
0.0
 10
47.695276405290997
 20
-86.247400405318501
 30
0.0
 10
47.696381926528829
 20
-86.166192991411776
 30
0.0
 10
47.696960090480843
 20
-86.08370949223189
 30
0.0
 10
47.696960070846899
 20
-86.000000000000171
 30
0.0
 11
43.011626335214032
 21
-95.000000000000171
 31
0.0
 11
43.34693388124623
 21
-94.979086005642046
 31
0.0
 11
43.67896571992992
 21
-94.916228168836994
 31
0.0
 11
44.008799086129812
 21
-94.810409553288281
 31
0.0
 11
44.328770521860861
 21
-94.6640191095359
 31
0.0
 11
44.599330397929947
 21
-94.504300652065183
 31
0.0
 11
44.858284465262841
 21
-94.318198722401803
 31
0.0
 11
45.116414846169761
 21
-94.097560337633411
 31
0.0
 11
45.362444802834943
 21
-93.851427620229686
 31
0.0
 11
45.59174036708356
 21
-93.587087495887033
 31
0.0
 11
45.834955654030857
 21
-93.265187205361315
 31
0.0
 11
46.059140693582513
 21
-92.925156447011616
 31
0.0
 11
46.269192107899023
 21
-92.562593958624518
 31
0.0
 11
46.570733497047684
 21
-91.950941627799438
 31
0.0
 11
46.806921142309882
 21
-91.374839470751112
 31
0.0
 11
47.01878852802983
 21
-90.757526499519116
 31
0.0
 11
47.233189639147902
 21
-89.989034194444912
 31
0.0
 11
47.331832065762882
 21
-89.561746577569636
 31
0.0
 11
47.422394932145842
 21
-89.10630164837147
 31
0.0
 11
47.502849964076518
 21
-88.625017729039115
 31
0.0
 11
47.564087470472941
 21
-88.180120571378382
 31
0.0
 11
47.618455415944993
 21
-87.681404561432544
 31
0.0
 11
47.655638053179928
 21
-87.222675107317798
 31
0.0
 11
47.681213112888173
 21
-86.755964203656873
 31
0.0
 11
47.695276405290997
 21
-86.247400405318501
 31
0.0
 11
47.69653281589585
 21
-86.124638482031187
 31
0.0
 11
47.696960070846899
 21
-86.000000000000171
 31
0.0
  0
ARC
  5
16A
100
AcDbEntity
  8
0
  6
CONTINUOUS
 62
             7
100
AcDbCircle
 10
49.5
 20
-86.00000000000017
 40
9.0
100
AcDbArc
 50
-90.0
 51
0.0
  0
ARC
  5
169
100
AcDbEntity
  8
0
  6
CONTINUOUS
 62
             7
100
AcDbCircle
 10
-58.0
 20
-39.5000000000002
 40
0.5
100
AcDbArc
 50
180.0
 51
-90.0
  0
ARC
  5
168
100
AcDbEntity
  8
0
  6
CONTINUOUS
 62
             7
100
AcDbCircle
 10
-45.0
 20
-86.00000000000017
 40
9.0
100
AcDbArc
 50
180.0
 51
-90.0
  0
ARC
  5
167
100
AcDbEntity
  8
0
  6
CONTINUOUS
 62
             7
100
AcDbCircle
 10
78.49999996698193
 20
-64.00000000000017
 40
19.99999996701244
100
AcDbArc
 50
177.99423806177865
 51
-177.9942380617679
  0
LINE
  5
166
100
AcDbEntity
  8
1
  6
DOT_CENTER
 62
             2
100
AcDbLine
 10
55.0
 20
5.00000000000009
 11
55.0
 21
2.00000000000008
  0
LINE
  5
165
100
AcDbEntity
  8
1
  6
DOT_CENTER
 62
             2
100
AcDbLine
 10
-55.0
 20
4.99999999999991
 11
-55.0
 21
1.99999999999992
  0
LINE
  5
164
100
AcDbEntity
  8
0
  6
CONTINUOUS
 62
             7
100
AcDbLine
 10
-54.0
 20
-86.00000000000017
 11
-54.0
 21
-40.5000000000002
  0
LINE
  5
163
100
AcDbEntity
  8
1
  6
CONTINUOUS
 62
             7
100
AcDbLine
 10
58.499999999789
 20
-85.99588642876569
 11
58.5
 21
-86.00000000000017
  0
LINE
  5
162
100
AcDbEntity
  8
1
  6
PHANTOM
 62
             2
100
AcDbLine
 10
50.45656055912082
 20
-64.00000000000017
 11
189.7373785886009
 21
-64.00000000000017
  0
LINE
  5
161
100
AcDbEntity
  8
0
  6
CONTINUOUS
 62
             7
100
AcDbLine
 10
60.62803804313603
 20
-44.00000008110149
 11
129.9999999669819
 21
-44.0000000330185
  0
LINE
  5
160
100
AcDbEntity
  8
0
  6
CONTINUOUS
 62
             7
100
AcDbLine
 10
60.62820898329983
 20
-83.9999999414834
 11
63.80000562588998
 21
-83.99999994265107
  0
LINE
  5
15F
100
AcDbEntity
  8
0
  6
CONTINUOUS
 62
             7
100
AcDbLine
 10
63.80000562588998
 20
-83.99999994265107
 11
129.9999999669819
 21
-83.99999996698188
  0
LINE
  5
15E
100
AcDbEntity
  8
0
  6
CONTINUOUS
 62
             7
100
AcDbLine
 10
187.99999999999989
 20
-88.06217782649048
 11
184.49999999999989
 21
-89.00000000000017
  0
LINE
  5
15D
100
AcDbEntity
  8
0
  6
CONTINUOUS
 62
             7
100
AcDbLine
 10
187.99999999999989
 20
-88.06217782649048
 11
187.99999999999989
 21
-85.69999995339839
  0
LINE
  5
15C
100
AcDbEntity
  8
0
  6
CONTINUOUS
 62
             7
100
AcDbLine
 10
187.99999999999989
 20
-85.69999995339839
 11
187.99999999999989
 21
-42.29999999999939
  0
LINE
  5
15B
100
AcDbEntity
  8
0
  6
CONTINUOUS
 62
             7
100
AcDbLine
 10
187.99999999999989
 20
-42.29999999999939
 11
187.99999999999989
 21
-39.9378221735098
  0
LINE
  5
15A
100
AcDbEntity
  8
0
  6
CONTINUOUS
 62
             7
100
AcDbLine
 10
187.99999999999989
 20
-39.9378221735098
 11
184.49999999999989
 21
-39.0000000000002
  0
LINE
  5
159
100
AcDbEntity
  8
0
  6
CONTINUOUS
 62
             7
100
AcDbLine
 10
134.99999999999989
 20
-39.0000000000002
 11
184.49999999999989
 21
-39.0000000000002
  0
LINE
  5
158
100
AcDbEntity
  8
0
  6
CONTINUOUS
 62
             7
100
AcDbLine
 10
134.99999999999989
 20
-89.00000000000017
 11
184.49999999999989
 21
-89.00000000000017
  0
LINE
  5
157
100
AcDbEntity
  8
0
  6
CONTINUOUS
 62
             7
100
AcDbLine
 10
129.9999999669819
 20
-83.99999996698188
 11
134.99999999999989
 21
-89.00000000000017
  0
LINE
  5
156
100
AcDbEntity
  8
0
  6
CONTINUOUS
 62
             7
100
AcDbLine
 10
129.9999999669819
 20
-44.0000000330185
 11
134.99999999999989
 21
-39.0000000000002
  0
LINE
  5
155
100
AcDbEntity
  8
0
  6
CONTINUOUS
 62
             7
100
AcDbLine
 10
-58.0
 20
-40.0000000000002
 11
-54.5
 21
-40.0000000000002
  0
LINE
  5
154
100
AcDbEntity
  8
0
  6
CONTINUOUS
 62
             7
100
AcDbLine
 10
43.01162633521403
 20
-95.00000000000017
 11
49.5
 21
-95.00000000000017
  0
LINE
  5
153
100
AcDbEntity
  8
0
  6
CONTINUOUS
 62
             7
100
AcDbLine
 10
36.54791375714899
 20
-95.00000000000017
 11
43.01162633521403
 21
-95.00000000000017
  0
LINE
  5
152
100
AcDbEntity
  8
0
  6
CONTINUOUS
 62
             7
100
AcDbLine
 10
36.54791375714899
 20
-95.00000000000017
 11
-45.0
 21
-95.00000000000017
  0
LINE
  5
151
100
AcDbEntity
  8
1
  6
CONTINUOUS
 62
             7
100
AcDbLine
 10
-58.5
 20
-35.0000000000002
 11
58.5
 21
-35.0000000000002
  0
LINE
  5
150
100
AcDbEntity
  8
0
  6
CONTINUOUS
 62
             7
100
AcDbLine
 10
58.5
 20
-35.0000000000002
 11
58.5
 21
-42.00410272414248
  0
LINE
  5
14F
100
AcDbEntity
  8
0
  6
CONTINUOUS
 62
             7
100
AcDbLine
 10
-58.5
 20
-35.0000000000002
 11
-58.5
 21
-39.5000000000002
  0
LINE
  5
14E
100
AcDbEntity
  8
1
  6
CONTINUOUS
 62
             7
100
AcDbLine
 10
129.9999999669819
 20
-44.0000000330185
 11
129.9999999669819
 21
-83.99999996698188
  0
LINE
  5
14D
100
AcDbEntity
  8
1
  6
CONTINUOUS
 62
             7
100
AcDbLine
 10
134.99999999999989
 20
-89.00000000000017
 11
134.99999999999989
 21
-39.0000000000002
  0
LINE
  5
14C
100
AcDbEntity
  8
1
  6
CONTINUOUS
 62
             7
100
AcDbLine
 10
184.49999999999989
 20
-39.0000000000002
 11
184.49999999999989
 21
-89.00000000000017
  0
LINE
  5
14B
100
AcDbEntity
  8
0
  6
CONTINUOUS
 62
             7
100
AcDbLine
 10
-54.0
 20
-85.00000000000017
 11
42.35268586524398
 21
-85.00000000000017
  0
LINE
  5
14A
100
AcDbEntity
  8
0
  6
CONTINUOUS
 62
             7
100
AcDbLine
 10
74.0
 20
-71.50000000000017
 11
72.0
 21
-71.50000000000017
  0
LINE
  5
149
100
AcDbEntity
  8
0
  6
CONTINUOUS
 62
             7
100
AcDbLine
 10
72.0
 20
-56.5000000000002
 11
72.0
 21
-71.50000000000017
  0
LINE
  5
148
100
AcDbEntity
  8
0
  6
CONTINUOUS
 62
             7
100
AcDbLine
 10
74.0
 20
-56.5000000000002
 11
72.0
 21
-56.5000000000002
  0
LINE
  5
147
100
AcDbEntity
  8
0
  6
CONTINUOUS
 62
             7
100
AcDbLine
 10
74.0
 20
-56.5000000000002
 11
74.0
 21
-71.50000000000017
  0
LINE
  5
146
100
AcDbEntity
  8
0
  6
CONTINUOUS
 62
             7
100
AcDbLine
 10
134.99999999999989
 20
-54.0000000000002
 11
132.99999999999989
 21
-54.0000000000002
  0
LINE
  5
145
100
AcDbEntity
  8
0
  6
CONTINUOUS
 62
             7
100
AcDbLine
 10
132.99999999999989
 20
-54.0000000000002
 11
132.99999999999989
 21
-74.00000000000017
  0
LINE
  5
144
100
AcDbEntity
  8
0
  6
CONTINUOUS
 62
             7
100
AcDbLine
 10
134.99999999999989
 20
-74.00000000000017
 11
132.99999999999989
 21
-74.00000000000017
  0
LINE
  5
143
100
AcDbEntity
  8
0
  6
CONTINUOUS
 62
             7
100
AcDbLine
 10
58.5
 20
-39.0000000330221
 11
63.5
 21
-44.0000000330221
  0
LINE
  5
142
100
AcDbEntity
  8
0
  6
CONTINUOUS
 62
             7
100
AcDbLine
 10
57.6213203737459
 20
-89.8786795932358
 11
63.5
 21
-83.99999996698188
  0
LINE
  5
141
100
AcDbEntity
  8
0
  6
CONTINUOUS
 62
             7
100
AcDbLine
 10
52.30995791971895
 20
-64.7000000000009
 11
58.51225375385184
 21
-64.70000000000459
  0
LINE
  5
140
100
AcDbEntity
  8
0
  6
CONTINUOUS
 62
             7
100
AcDbLine
 10
52.30995791971895
 20
-63.30000000000308
 11
58.51225375385184
 21
-63.2999999999995
  0
LINE
  5
13F
100
AcDbEntity
  8
0
  6
CONTINUOUS
 62
             7
100
AcDbLine
 10
52.71887178606289
 20
-63.00000000000017
 11
54.74409231500999
 21
-63.00000000000017
  0
LINE
  5
13E
100
AcDbEntity
  8
0
  6
CONTINUOUS
 62
             7
100
AcDbLine
 10
54.74409231500999
 20
-63.00000000000017
 11
55.68080919163594
 21
-63.00000000000017
  0
LINE
  5
13D
100
AcDbEntity
  8
0
  6
CONTINUOUS
 62
             7
100
AcDbLine
 10
54.74409231417303
 20
-65.00000000000017
 11
55.68080919105
 21
-65.00000000000017
  0
LINE
  5
13C
100
AcDbEntity
  8
0
  6
CONTINUOUS
 62
             7
100
AcDbLine
 10
52.30995791971895
 20
-63.30000000000308
 11
52.30995791971895
 21
-64.7000000000009
  0
LINE
  5
13B
100
AcDbEntity
  8
0
  6
CONTINUOUS
 62
             7
100
AcDbLine
 10
52.71887178606289
 20
-65.00000000000017
 11
54.74409231417303
 21
-65.00000000000017
  0
LINE
  5
13A
100
AcDbEntity
  8
0
  6
CONTINUOUS
 62
             7
100
AcDbLine
 10
55.68080919105
 20
-65.00000000000017
 11
58.10075157588994
 21
-65.00000000000017
  0
LINE
  5
139
100
AcDbEntity
  8
0
  6
CONTINUOUS
 62
             7
100
AcDbLine
 10
55.68080919163594
 20
-63.00000000000017
 11
58.10075157588994
 21
-63.00000000000017
  0
LINE
  5
138
100
AcDbEntity
  8
0
  6
CONTINUOUS
 62
             7
100
AcDbLine
 10
58.49145236698996
 20
-86.00000000000017
 11
48.10814076883594
 21
-86.00000000000017
  0
LINE
  5
137
100
AcDbEntity
  8
0
  6
CONTINUOUS
 62
             7
100
AcDbLine
 10
42.35268586524398
 20
-40.5000000000002
 11
42.35268586524398
 21
-85.00000000000017
  0
LINE
  5
136
100
AcDbEntity
  8
0
  6
CONTINUOUS
 62
             7
100
AcDbLine
 10
46.98936049788199
 20
-40.0000000000002
 11
42.59401366389284
 21
-40.0000000000002
  0
LINE
  5
135
100
AcDbEntity
  8
0
  6
CONTINUOUS
 62
             7
100
AcDbLine
 10
42.59401366389284
 20
-40.0000000000002
 11
-54.5
 21
-40.0000000000002
  0
LINE
  5
134
100
AcDbEntity
  8
0
  6
CONTINUOUS
 62
             7
100
AcDbLine
 10
47.6969600708469
 20
-40.5000000000002
 11
47.6969600708469
 21
-86.00000000000017
  0
LINE
  5
133
100
AcDbEntity
  8
0
  6
CONTINUOUS
 62
             7
100
AcDbLine
 10
42.28875671681499
 20
-85.99999999999648
 11
47.6969600708469
 21
-86.00000000000017
  0
LINE
  5
132
100
AcDbEntity
  8
0
  6
CONTINUOUS
 62
             7
100
AcDbLine
 10
47.6969600708469
 20
-86.00000000000017
 11
48.10814076883594
 21
-86.00000000000017
  0
LINE
  5
131
100
AcDbEntity
  8
1
  6
DOT_CENTER
 62
             2
100
AcDbLine
 10
0.0
 20
-98.98961053660651
 11
0.0
 21
5.01038946339352
  0
ENDBLK
  5
17B
100
AcDbEntity
  8
0
100
AcDbBlockEnd
  0
BLOCK
  5
48
100
AcDbEntity
  8
0
100
AcDbBlockBegin
  2
HL_510NCK_BODENABLAUFKNITT
 70
             0
 10
-1376.998633767751
 20
-363.484928361931
 30
0.0
  3
HL_510NCK_BODENABLAUFKNITT
  1

  0
INSERT
  5
49
100
AcDbEntity
  8
1
100
AcDbBlockReference
  2
MASCHENGITTER
 10
-313.95956719997781
 20
-321.12190221208539
  0
INSERT
  5
4A
100
AcDbEntity
  8
0
100
AcDbBlockReference
  2
HL_3000_AUFSTOCKELEMENT
 10
419.51149823606198
 20
110.467609289937
  0
INSERT
  5
4B
100
AcDbEntity
  8
1
100
AcDbBlockReference
  2
SCHEIBE
 10
-1321.84863376775
 20
-319.82091440487591
  0
INSERT
  5
4C
100
AcDbEntity
  8
1
100
AcDbBlockReference
  2
GITTER
 10
-860.85364579706106
 20
-50.70853995314863
  0
INSERT
  5
4D
100
AcDbEntity
  8
1
100
AcDbBlockReference
  2
GIE_ELEMENT
 10
-1151.8486337677509
 20
-213.82091440487551
  0
INSERT
  5
4E
100
AcDbEntity
  8
1
100
AcDbBlockReference
  2
NIVELLIERUNGSSCHRAUBE__1
 10
-1261.3486337677509
 20
-331.72091440487588
  0
INSERT
  5
4F
100
AcDbEntity
  8
1
100
AcDbBlockReference
  2
BEFESTIGUNGSLASCHE
 10
-1262.8486337677509
 20
-324.32091440487591
  0
INSERT
  5
50
100
AcDbEntity
  8
1
100
AcDbBlockReference
  2
SCHALLSCHUTZ
 10
-1298.84863376775
 20
-326.8209144048684
  0
INSERT
  5
51
100
AcDbEntity
  8
1
100
AcDbBlockReference
  2
LINSENKOPFSCHRAUBE_5X45
 10
-1316.4486337677511
 20
-365.08492836193102
  0
INSERT
  5
52
100
AcDbEntity
  8
1
100
AcDbBlockReference
  2
D_BEL_D8
 10
-1312.75281727931
 20
-362.9208480272743
  0
INSERT
  5
53
100
AcDbEntity
  8
1
100
AcDbBlockReference
  2
GUMMINOPPEL
 10
-1042.3486337677509
 20
-325.22091440487571
  0
INSERT
  5
54
100
AcDbEntity
  8
1
100
AcDbBlockReference
  2
NIVELLIERUNGSSCHRAUBE__2
 10
-1042.3486337677509
 20
-319.22091440487571
  0
INSERT
  5
55
100
AcDbEntity
  8
0
100
AcDbBlockReference
  2
HL_510NC_K_RPER
 10
-1349.94863476775
 20
-1027.805381270239
  0
ENDBLK
  5
17C
100
AcDbEntity
  8
0
100
AcDbBlockEnd
  0
BLOCK
  5
17F
100
AcDbEntity
  8
0
100
AcDbBlockBegin
  2
*D17
 70
             1
 10
0.0
 20
0.0
 30
0.0
  3
*D17
  1

  0
LINE
  5
180
100
AcDbEntity
  8
0
  6
CONTINUOUS
 62
             4
100
AcDbLine
 10
225.0
 20
51.5069334435245
 11
-225.0
 21
51.5069334435245
  0
LINE
  5
181
100
AcDbEntity
  8
0
  6
CONTINUOUS
 62
             4
100
AcDbLine
 10
-225.0
 20
-17.0000000000002
 11
-225.0
 21
55.5069334435245
  0
LINE
  5
182
100
AcDbEntity
  8
0
  6
CONTINUOUS
 62
             4
100
AcDbLine
 10
225.0
 20
-17.0000000000002
 11
225.0
 21
55.5069334435245
  0
SOLID
  5
183
100
AcDbEntity
  8
0
 62
             4
100
AcDbTrace
 10
215.0
 20
50.19040846765055
 11
215.0
 21
52.82345841939846
 12
225.0
 22
51.5069334435245
 13
225.0
 23
51.5069334435245
  0
SOLID
  5
184
100
AcDbEntity
  8
0
 62
             4
100
AcDbTrace
 10
-215.0
 20
52.82345841939846
 11
-215.0
 21
50.19040846765054
 12
-225.0
 22
51.5069334435245
 13
-225.0
 23
51.5069334435245
  0
MTEXT
  5
186
100
AcDbEntity
  8
0
 62
             1
100
AcDbMText
 10
-46.9609895337774
 20
55.5069334435245
 30
0.0
 40
10.0
 41
0.0
 71
             7
 72
             1
  1
\C1;450\C1;x450
  7
CONVERTER_1
 11
0.99999999999706
 21
0.00000242406841
 31
0.0
  0
ENDBLK
  5
187
100
AcDbEntity
  8
0
100
AcDbBlockEnd
  0
BLOCK
  5
18B
100
AcDbEntity
  8
0
100
AcDbBlockBegin
  2
*D18
 70
             1
 10
0.0
 20
0.0
 30
0.0
  3
*D18
  1

  0
LINE
  5
18C
100
AcDbEntity
  8
0
  6
CONTINUOUS
 62
             4
100
AcDbLine
 10
127.5
 20
30.65399853683699
 11
-127.50000000000001
 21
30.65399853683699
  0
LINE
  5
18D
100
AcDbEntity
  8
0
  6
CONTINUOUS
 62
             4
100
AcDbLine
 10
-127.50000000000001
 20
-14.6455532478555
 11
-127.50000000000001
 21
34.65399853683699
  0
LINE
  5
18E
100
AcDbEntity
  8
0
  6
CONTINUOUS
 62
             4
100
AcDbLine
 10
127.5
 20
-17.85162970684539
 11
127.5
 21
34.65399853683699
  0
SOLID
  5
18F
100
AcDbEntity
  8
0
 62
             4
100
AcDbTrace
 10
117.5
 20
29.33747356096303
 11
117.5
 21
31.97052351271094
 12
127.5
 22
30.65399853683699
 13
127.5
 23
30.65399853683699
  0
SOLID
  5
190
100
AcDbEntity
  8
0
 62
             4
100
AcDbTrace
 10
-117.50000000000001
 20
31.97052351271094
 11
-117.50000000000001
 21
29.33747356096303
 12
-127.50000000000001
 22
30.65399853683699
 13
-127.50000000000001
 23
30.65399853683699
  0
MTEXT
  5
191
100
AcDbEntity
  8
0
 62
             1
100
AcDbMText
 10
5.3513693952075
 20
34.65399853683699
 30
0.0
 40
10.0
 41
0.0
 71
             7
 72
             1
  1
\C1;255\C1;x255
  7
CONVERTER_1
 11
0.99999999999706
 21
0.00000242406841
 31
0.0
  0
ENDBLK
  5
192
100
AcDbEntity
  8
0
100
AcDbBlockEnd
  0
BLOCK
  5
196
100
AcDbEntity
  8
0
100
AcDbBlockBegin
  2
*D19
 70
             1
 10
0.0
 20
0.0
 30
0.0
  3
*D19
  1

  0
LINE
  5
197
100
AcDbEntity
  8
0
  6
CONTINUOUS
 62
             4
100
AcDbLine
 10
176.49999999999989
 20
-39.0000000000002
 11
176.49999999999989
 21
-89.00000000000017
  0
LINE
  5
198
100
AcDbEntity
  8
0
  6
CONTINUOUS
 62
             4
100
AcDbLine
 10
176.49999999999989
 20
-89.00000000000017
 11
176.49999999999989
 21
-132.80657021693952
  0
LINE
  5
199
100
AcDbEntity
  8
0
  6
CONTINUOUS
 62
             4
100
AcDbLine
 10
184.49999999999989
 20
-39.0000000000002
 11
172.49999999999989
 21
-39.0000000000002
  0
LINE
  5
19A
100
AcDbEntity
  8
0
  6
CONTINUOUS
 62
             4
100
AcDbLine
 10
184.49999999999989
 20
-89.00000000000017
 11
172.49999999999989
 21
-89.00000000000017
  0
SOLID
  5
19B
100
AcDbEntity
  8
0
 62
             4
100
AcDbTrace
 10
177.81652497587385
 20
-49.0000000000002
 11
175.18347502412593
 21
-49.0000000000002
 12
176.49999999999989
 22
-39.0000000000002
 13
176.49999999999989
 23
-39.0000000000002
  0
SOLID
  5
19C
100
AcDbEntity
  8
0
 62
             4
100
AcDbTrace
 10
175.18347502412593
 20
-79.00000000000017
 11
177.81652497587385
 21
-79.00000000000017
 12
176.49999999999989
 22
-89.00000000000017
 13
176.49999999999989
 23
-89.00000000000017
  0
MTEXT
  5
19D
100
AcDbEntity
  8
0
 62
             1
100
AcDbMText
 10
172.49999999999989
 20
-127.2065702169395
 30
0.0
 40
10.0
 41
0.0
 71
             7
 72
             1
  1
\C1;DN\C1;50
  7
CONVERTER_1
 11
0.0
 21
1.0
 31
0.0
  0
ENDBLK
  5
19E
100
AcDbEntity
  8
0
100
AcDbBlockEnd
  0
BLOCK
  5
1A2
100
AcDbEntity
  8
0
100
AcDbBlockBegin
  2
*D20
 70
             1
 10
0.0
 20
0.0
 30
0.0
  3
*D20
  1

  0
LINE
  5
1A3
100
AcDbEntity
  8
0
  6
CONTINUOUS
 62
             4
100
AcDbLine
 10
82.26479104216082
 20
-44.00000003301851
 11
82.26479104216082
 21
-83.99999996698188
  0
LINE
  5
1A4
100
AcDbEntity
  8
0
  6
CONTINUOUS
 62
             4
100
AcDbLine
 10
82.26479104216082
 20
-83.99999996698188
 11
82.26479104216082
 21
-144.27972003125052
  0
LINE
  5
1A5
100
AcDbEntity
  8
0
  6
CONTINUOUS
 62
             4
100
AcDbLine
 10
129.9999999669819
 20
-44.00000003301851
 11
78.26479104216082
 21
-44.00000003301851
  0
LINE
  5
1A6
100
AcDbEntity
  8
0
  6
CONTINUOUS
 62
             4
100
AcDbLine
 10
129.9999999669819
 20
-83.99999996698188
 11
78.26479104216082
 21
-83.99999996698188
  0
SOLID
  5
1A7
100
AcDbEntity
  8
0
 62
             4
100
AcDbTrace
 10
83.58131601803478
 20
-54.00000003301851
 11
80.94826606628686
 21
-54.00000003301851
 12
82.26479104216082
 22
-44.00000003301851
 13
82.26479104216082
 23
-44.00000003301851
  0
SOLID
  5
1A8
100
AcDbEntity
  8
0
 62
             4
100
AcDbTrace
 10
80.94826606628686
 20
-73.99999996698188
 11
83.58131601803478
 21
-73.99999996698188
 12
82.26479104216082
 22
-83.99999996698188
 13
82.26479104216082
 23
-83.99999996698188
  0
MTEXT
  5
1A9
100
AcDbEntity
  8
0
 62
             1
100
AcDbMText
 10
78.26479104216082
 20
-138.6797200312505
 30
0.0
 40
10.0
 41
0.0
 71
             7
 72
             1
  1
\C1;DN\C1;40
  7
CONVERTER_1
 11
0.0
 21
1.0
 31
0.0
  0
ENDBLK
  5
1AA
100
AcDbEntity
  8
0
100
AcDbBlockEnd
  0
BLOCK
  5
1AE
100
AcDbEntity
  8
0
100
AcDbBlockBegin
  2
*D21
 70
             1
 10
0.0
 20
0.0
 30
0.0
  3
*D21
  1

  0
LINE
  5
1AF
100
AcDbEntity
  8
0
  6
CONTINUOUS
 62
             4
100
AcDbLine
 10
55.00000000000001
 20
13.00000000000009
 11
-55.0
 21
13.00000000000009
  0
LINE
  5
1B0
100
AcDbEntity
  8
0
  6
CONTINUOUS
 62
             4
100
AcDbLine
 10
55.00000000000001
 20
5.00000000000009
 11
55.00000000000001
 21
17.00000000000009
  0
LINE
  5
1B1
100
AcDbEntity
  8
0
  6
CONTINUOUS
 62
             4
100
AcDbLine
 10
-55.0
 20
4.99999999999992
 11
-55.0
 21
17.00000000000009
  0
SOLID
  5
1B2
100
AcDbEntity
  8
0
 62
             4
100
AcDbTrace
 10
45.00000000000001
 20
11.68347502412613
 11
45.00000000000001
 21
14.31652497587405
 12
55.00000000000001
 22
13.00000000000009
 13
55.00000000000001
 23
13.00000000000009
  0
SOLID
  5
1B3
100
AcDbEntity
  8
0
 62
             4
100
AcDbTrace
 10
-45.0
 20
14.31652497587405
 11
-45.0
 21
11.68347502412613
 12
-55.0
 22
13.00000000000009
 13
-55.0
 23
13.00000000000009
  0
MTEXT
  5
1B4
100
AcDbEntity
  8
0
 62
             1
100
AcDbMText
 10
-23.82662620278201
 20
16.99998012263916
 30
0.0
 40
10.0
 41
0.0
 71
             7
 72
             1
  1
\C1;Ø\C1;110
  7
CONVERTER_1
 11
0.99999999999706
 21
0.00000242406841
 31
0.0
  0
ENDBLK
  5
1B5
100
AcDbEntity
  8
0
100
AcDbBlockEnd
  0
BLOCK
  5
1B9
100
AcDbEntity
  8
0
100
AcDbBlockBegin
  2
*D22
 70
             1
 10
0.0
 20
0.0
 30
0.0
  3
*D22
  1

  0
LINE
  5
1BA
100
AcDbEntity
  8
0
  6
CONTINUOUS
 62
             4
100
AcDbLine
 10
-148.24153376128899
 20
-0.0000000000002
 11
-148.24153376128899
 21
-35.0000000000002
  0
LINE
  5
1BB
100
AcDbEntity
  8
0
  6
CONTINUOUS
 62
             4
100
AcDbLine
 10
-148.24153376128899
 20
-35.0000000000002
 11
-148.24153376128899
 21
-59.2281712417375
  0
LINE
  5
1BC
100
AcDbEntity
  8
0
  6
CONTINUOUS
 62
             4
100
AcDbLine
 10
-126.121337511164
 20
-0.0000000000002
 11
-152.24153376128899
 21
-0.0000000000002
  0
LINE
  5
1BD
100
AcDbEntity
  8
0
  6
CONTINUOUS
 62
             4
100
AcDbLine
 10
-95.0
 20
-35.0000000000002
 11
-152.24153376128899
 21
-35.0000000000002
  0
SOLID
  5
1BE
100
AcDbEntity
  8
0
 62
             4
100
AcDbTrace
 10
-146.92500878541503
 20
-10.0000000000002
 11
-149.55805873716295
 21
-10.0000000000002
 12
-148.24153376128899
 22
-0.0000000000002
 13
-148.24153376128899
 23
-0.0000000000002
  0
SOLID
  5
1BF
100
AcDbEntity
  8
0
 62
             4
100
AcDbTrace
 10
-149.55805873716295
 20
-25.0000000000002
 11
-146.92500878541503
 21
-25.0000000000002
 12
-148.24153376128899
 22
-35.0000000000002
 13
-148.24153376128899
 23
-35.0000000000002
  0
MTEXT
  5
1C0
100
AcDbEntity
  8
0
 62
             1
100
AcDbMText
 10
-152.24153376128899
 20
-59.2281712417375
 30
0.0
 40
10.0
 41
0.0
 71
             7
 72
             1
  1
35
  7
CONVERTER_1
 11
0.0
 21
1.0
 31
0.0
  0
ENDBLK
  5
1C1
100
AcDbEntity
  8
0
100
AcDbBlockEnd
  0
BLOCK
  5
1C5
100
AcDbEntity
  8
0
100
AcDbBlockBegin
  2
*D23
 70
             1
 10
0.0
 20
0.0
 30
0.0
  3
*D23
  1

  0
LINE
  5
1C6
100
AcDbEntity
  8
0
  6
CONTINUOUS
 62
             4
100
AcDbLine
 10
-196.6812686837491
 20
-0.0000000000002
 11
-196.6812686837491
 21
-129.99999999999289
  0
LINE
  5
1C7
100
AcDbEntity
  8
0
  6
CONTINUOUS
 62
             4
100
AcDbLine
 10
-126.121337511164
 20
-0.0000000000002
 11
-200.6812686837491
 21
-0.0000000000002
  0
LINE
  5
1C8
100
AcDbEntity
  8
0
  6
CONTINUOUS
 62
             4
100
AcDbLine
 10
-171.99999999999909
 20
-129.99999999999289
 11
-200.6812686837491
 21
-129.99999999999289
  0
SOLID
  5
1C9
100
AcDbEntity
  8
0
 62
             4
100
AcDbTrace
 10
-195.36474370787514
 20
-10.0000000000002
 11
-197.99779365962306
 21
-10.0000000000002
 12
-196.6812686837491
 22
-0.0000000000002
 13
-196.6812686837491
 23
-0.0000000000002
  0
SOLID
  5
1CA
100
AcDbEntity
  8
0
 62
             4
100
AcDbTrace
 10
-197.99779365962306
 20
-119.99999999999289
 11
-195.36474370787514
 21
-119.99999999999289
 12
-196.6812686837491
 22
-129.99999999999289
 13
-196.6812686837491
 23
-129.99999999999289
  0
MTEXT
  5
1CB
100
AcDbEntity
  8
0
 62
             1
100
AcDbMText
 10
-200.6812686837491
 20
-98.50397804784249
 30
0.0
 40
10.0
 41
0.0
 71
             7
 72
             1
  1
\C1;max.\C1;145
  7
CONVERTER_1
 11
0.0
 21
1.0
 31
0.0
  0
ENDBLK
  5
1CC
100
AcDbEntity
  8
0
100
AcDbBlockEnd
  0
BLOCK
  5
1D0
100
AcDbEntity
  8
0
100
AcDbBlockBegin
  2
*D24
 70
             1
 10
0.0
 20
0.0
 30
0.0
  3
*D24
  1

  0
LINE
  5
1D1
100
AcDbEntity
  8
0
  6
CONTINUOUS
 62
             4
100
AcDbLine
 10
-171.62623337902909
 20
-0.0000000000002
 11
-171.62623337902909
 21
-95.00000000000017
  0
LINE
  5
1D2
100
AcDbEntity
  8
0
  6
CONTINUOUS
 62
             4
100
AcDbLine
 10
-126.121337511164
 20
-0.0000000000002
 11
-175.62623337902909
 21
-0.0000000000002
  0
LINE
  5
1D3
100
AcDbEntity
  8
0
  6
CONTINUOUS
 62
             4
100
AcDbLine
 10
-45.0
 20
-95.00000000000017
 11
-175.62623337902909
 21
-95.00000000000017
  0
SOLID
  5
1D4
100
AcDbEntity
  8
0
 62
             4
100
AcDbTrace
 10
-170.30970840315513
 20
-10.0000000000002
 11
-172.94275835490305
 21
-10.0000000000002
 12
-171.62623337902909
 22
-0.0000000000002
 13
-171.62623337902909
 23
-0.0000000000002
  0
SOLID
  5
1D5
100
AcDbEntity
  8
0
 62
             4
100
AcDbTrace
 10
-172.94275835490305
 20
-85.00000000000017
 11
-170.30970840315513
 21
-85.00000000000017
 12
-171.62623337902909
 22
-95.00000000000017
 13
-171.62623337902909
 23
-95.00000000000017
  0
MTEXT
  5
1D6
100
AcDbEntity
  8
0
 62
             1
100
AcDbMText
 10
-175.62623337902909
 20
-63.6823997403545
 30
0.0
 40
10.0
 41
0.0
 71
             7
 72
             1
  1
95
  7
CONVERTER_1
 11
0.0
 21
1.0
 31
0.0
  0
ENDBLK
  5
1D7
100
AcDbEntity
  8
0
100
AcDbBlockEnd
  0
BLOCK
  5
1DB
100
AcDbEntity
  8
0
100
AcDbBlockBegin
  2
*D25
 70
             1
 10
0.0
 20
0.0
 30
0.0
  3
*D25
  1

  0
LINE
  5
1DC
100
AcDbEntity
  8
0
  6
CONTINUOUS
 62
             4
100
AcDbLine
 10
218.373357180304
 20
1.0000000000002
 11
218.373357180304
 21
-64.00000000000017
  0
LINE
  5
1DD
100
AcDbEntity
  8
0
  6
CONTINUOUS
 62
             4
100
AcDbLine
 10
124.4591146414009
 20
1.0000000000002
 11
222.373357180304
 21
1.0000000000002
  0
LINE
  5
1DE
100
AcDbEntity
  8
0
  6
CONTINUOUS
 62
             4
100
AcDbLine
 10
189.7373785886009
 20
-64.00000000000017
 11
222.373357180304
 21
-64.00000000000017
  0
SOLID
  5
1DF
100
AcDbEntity
  8
0
 62
             4
100
AcDbTrace
 10
219.68988215617796
 20
-8.9999999999998
 11
217.05683220443004
 21
-8.9999999999998
 12
218.373357180304
 22
1.0000000000002
 13
218.373357180304
 23
1.0000000000002
  0
SOLID
  5
1E0
100
AcDbEntity
  8
0
 62
             4
100
AcDbTrace
 10
217.05683220443004
 20
-54.00000000000017
 11
219.68988215617796
 21
-54.00000000000017
 12
218.373357180304
 22
-64.00000000000017
 13
218.373357180304
 23
-64.00000000000017
  0
MTEXT
  5
1E1
100
AcDbEntity
  8
0
 62
             1
100
AcDbMText
 10
214.373357180304
 20
-48.51753839342348
 30
0.0
 40
10.0
 41
0.0
 71
             7
 72
             1
  1
65
  7
CONVERTER_1
 11
0.0
 21
1.0
 31
0.0
  0
ENDBLK
  5
1E2
100
AcDbEntity
  8
0
100
AcDbBlockEnd
  0
ENDSEC
  0
SECTION
  2
ENTITIES
  0
DIMENSION
  5
1E4
100
AcDbEntity
  8
1
100
AcDbDimension
  2
*D25
 10
218.373357180304
 20
1.0000000000002
 11
209.373357180304
 21
-41.01753839342348
 31
0.0
 53
-90.0
  1
<>
  3
ME10_DIM_8
100
AcDbAlignedDimension
 13
189.7373785886009
 23
-64.00000000000017
 14
124.4591146414009
 24
1.0000000000002
 50
-90.0
100
AcDbRotatedDimension
  0
DIMENSION
  5
1D9
100
AcDbEntity
  8
1
100
AcDbDimension
  2
*D24
 10
-171.62623337902909
 20
-0.0000000000002
 11
-180.62623337902909
 21
-56.1823997403545
 31
0.0
 53
-90.0
  1
<>
  3
ME10_DIM_7
100
AcDbAlignedDimension
 13
-45.0
 23
-95.00000000000017
 14
-126.121337511164
 24
-0.0000000000002
 50
-90.0
100
AcDbRotatedDimension
  0
DIMENSION
  5
1CE
100
AcDbEntity
  8
1
100
AcDbDimension
  2
*D23
 10
-196.6812686837491
 20
-0.0000000000002
 11
-205.6812686837491
 21
-72.3289780478425
 31
0.0
 53
-90.0
  1
max.145
  3
ME10_DIM_6
100
AcDbAlignedDimension
 13
-171.99999999999909
 23
-129.99999999999289
 14
-126.121337511164
 24
-0.0000000000002
 50
-90.0
100
AcDbRotatedDimension
  0
DIMENSION
  5
1C3
100
AcDbEntity
  8
1
100
AcDbDimension
  2
*D22
 10
-148.24153376128899
 20
-0.0000000000002
 11
-157.24153376128899
 21
-51.7281712417375
 31
0.0
 53
-90.0
  1
<>
  3
ME10_DIM_5
100
AcDbAlignedDimension
 13
-95.0
 23
-35.0000000000002
 14
-126.121337511164
 24
-0.0000000000002
 50
-90.0
100
AcDbRotatedDimension
  0
DIMENSION
  5
1B7
100
AcDbEntity
  8
1
100
AcDbDimension
  2
*D21
 10
55.00000000000001
 20
13.00000000000009
 11
-12.6266262028061
 21
22.00000000000009
 31
0.0
 53
0.00013888888889
  1
<>
  3
ME10_DIM_4
100
AcDbAlignedDimension
 13
-55.0
 23
4.99999999999991
 14
55.0
 24
5.00000000000009
100
AcDbRotatedDimension
  0
DIMENSION
  5
1AC
100
AcDbEntity
  8
1
100
AcDbDimension
  2
*D20
 10
82.26479104216082
 20
-44.00000003301851
 11
73.26479104216082
 21
-125.77972003125051
 31
0.0
 53
90.0
  1
<>
  3
ME10_DIM_3
100
AcDbAlignedDimension
 13
129.9999999669819
 23
-83.99999996698188
 14
129.9999999669819
 24
-44.0000000330185
 50
90.0
100
AcDbRotatedDimension
  0
DIMENSION
  5
1A0
100
AcDbEntity
  8
1
100
AcDbDimension
  2
*D19
 10
176.49999999999989
 20
-39.0000000000002
 11
167.49999999999989
 21
-114.30657021693951
 31
0.0
 53
90.0
  1
<>
  3
ME10_DIM_2
100
AcDbAlignedDimension
 13
184.49999999999989
 23
-89.00000000000017
 14
184.49999999999989
 24
-39.0000000000002
 50
90.0
100
AcDbRotatedDimension
  0
DIMENSION
  5
194
100
AcDbEntity
  8
1
100
AcDbDimension
  2
*D18
 10
127.5
 20
30.65399853683699
 11
36.3513693952075
 21
39.65399853683699
 31
0.0
 53
0.00013888888889
  1
<>
  3
ME10_DIM_1
100
AcDbAlignedDimension
 13
-127.5
 23
-14.6455532478555
 14
127.5
 24
-17.85162970684539
100
AcDbRotatedDimension
  0
DIMENSION
  5
189
100
AcDbEntity
  8
1
100
AcDbDimension
  2
*D17
 10
225.0
 20
51.5069334435245
 11
-15.9609895337774
 21
60.5069334435245
 31
0.0
 53
0.00013888888889
  1
<>
  3
ME10_DIM_0
100
AcDbAlignedDimension
 13
-225.0
 23
-17.0000000000002
 14
225.0
 24
-17.0000000000002
100
AcDbRotatedDimension
  0
INSERT
  5
58
100
AcDbEntity
  8
1
100
AcDbBlockReference
  2
HL510NC_BODENABLAUF_DRICHT
 10
-1379.54282718729
 20
-861.54776343299204
  0
INSERT
  5
59
100
AcDbEntity
  8
1
100
AcDbBlockReference
  2
HL_510NCK_BODENABLAUFKNITT
 10
-1376.998633767751
 20
-363.484928361931
  0
ENDSEC
  0
SECTION
  2
OBJECTS
  0
DICTIONARY
  5
19
100
AcDbDictionary
  3
ACAD_GROUP
350
1A
  3
ACAD_MLINESTYLE
350
1B
  0
DICTIONARY
  5
1A
102
{ACAD_REACTORS
330
19
102
}
100
AcDbDictionary
  0
DICTIONARY
  5
1B
102
{ACAD_REACTORS
330
19
102
}
100
AcDbDictionary
  3
STANDARD
350
1C
  0
MLINESTYLE
  5
1C
102
{ACAD_REACTORS
330
1B
102
}
100
AcDbMlineStyle
  2
STANDARD
 70
             0
  3

 62
             0
 51
90.0
 52
90.0
 71
             2
 49
0.5
 62
           256
  6
BYLAYER
 49
-0.5
 62
           256
  6
BYLAYER
  0
ENDSEC
  0
EOF
