  0
SECTION
  2
HEADER
  9
$ACADVER
  1
AC1014
  9
$ACADMAINTVER
 70
             0
  9
$DWGCODEPAGE
  3
ANSI_1252
  9
$INSBASE
 10
0.0
 20
0.0
 30
0.0
  9
$EXTMIN
 10
-128.52327718095751
 20
-210.61484784001129
 30
0.0
  9
$EXTMAX
 10
222.54699822265141
 20
39.6868643416194
 30
0.0
  9
$LIMMIN
 10
0.0
 20
0.0
  9
$LIMMAX
 10
0.0
 20
0.0
  9
$ORTHOMODE
 70
             0
  9
$REGENMODE
 70
             1
  9
$FILLMODE
 70
             1
  9
$QTEXTMODE
 70
             0
  9
$MIRRTEXT
 70
             1
  9
$DRAGMODE
 70
             2
  9
$LTSCALE
 40
1.0
  9
$OSMODE
 70
             0
  9
$ATTMODE
 70
             1
  9
$TEXTSIZE
 40
0.2
  9
$TRACEWID
 40
0.05
  9
$TEXTSTYLE
  7
STANDARD
  9
$CLAYER
  8
0
  9
$CELTYPE
  6
CONTINUOUS
  9
$CECOLOR
 62
           256
  9
$CELTSCALE
 40
1.0
  9
$DELOBJ
 70
             1
  9
$DISPSILH
 70
             0
  9
$DIMSCALE
 40
1.0
  9
$DIMASZ
 40
0.18
  9
$DIMEXO
 40
0.0625
  9
$DIMDLI
 40
0.38
  9
$DIMRND
 40
0.0
  9
$DIMDLE
 40
0.0
  9
$DIMEXE
 40
0.18
  9
$DIMTP
 40
0.0
  9
$DIMTM
 40
0.0
  9
$DIMTXT
 40
0.18
  9
$DIMCEN
 40
0.09
  9
$DIMTSZ
 40
0.0
  9
$DIMTOL
 70
             0
  9
$DIMLIM
 70
             0
  9
$DIMTIH
 70
             1
  9
$DIMTOH
 70
             1
  9
$DIMSE1
 70
             0
  9
$DIMSE2
 70
             0
  9
$DIMTAD
 70
             0
  9
$DIMZIN
 70
             0
  9
$DIMBLK
  1

  9
$DIMASO
 70
             1
  9
$DIMSHO
 70
             1
  9
$DIMPOST
  1

  9
$DIMAPOST
  1

  9
$DIMALT
 70
             0
  9
$DIMALTD
 70
             2
  9
$DIMALTF
 40
25.4
  9
$DIMLFAC
 40
1.0
  9
$DIMTOFL
 70
             0
  9
$DIMTVP
 40
0.0
  9
$DIMTIX
 70
             0
  9
$DIMSOXD
 70
             0
  9
$DIMSAH
 70
             0
  9
$DIMBLK1
  1

  9
$DIMBLK2
  1

  9
$DIMSTYLE
  2
STANDARD
  9
$DIMCLRD
 70
             0
  9
$DIMCLRE
 70
             0
  9
$DIMCLRT
 70
             0
  9
$DIMTFAC
 40
1.0
  9
$DIMGAP
 40
0.09
  9
$DIMJUST
 70
             0
  9
$DIMSD1
 70
             0
  9
$DIMSD2
 70
             0
  9
$DIMTOLJ
 70
             1
  9
$DIMTZIN
 70
             0
  9
$DIMALTZ
 70
             0
  9
$DIMALTTZ
 70
             0
  9
$DIMFIT
 70
             3
  9
$DIMUPT
 70
             0
  9
$DIMUNIT
 70
             2
  9
$DIMDEC
 70
             4
  9
$DIMTDEC
 70
             4
  9
$DIMALTU
 70
             2
  9
$DIMALTTD
 70
             2
  9
$DIMTXSTY
  7
STANDARD
  9
$DIMAUNIT
 70
             0
  9
$LUNITS
 70
             2
  9
$LUPREC
 70
             4
  9
$SKETCHINC
 40
0.1
  9
$FILLETRAD
 40
0.0
  9
$AUNITS
 70
             0
  9
$AUPREC
 70
             0
  9
$MENU
  1
acad
  9
$ELEVATION
 40
0.0
  9
$PELEVATION
 40
0.0
  9
$THICKNESS
 40
0.0
  9
$LIMCHECK
 70
             0
  9
$BLIPMODE
 70
             1
  9
$CHAMFERA
 40
0.0
  9
$CHAMFERB
 40
0.0
  9
$CHAMFERC
 40
0.0
  9
$CHAMFERD
 40
0.0
  9
$SKPOLY
 70
             0
  9
$TDCREATE
 40
0.000000000
  9
$TDUPDATE
 40
0.000000000
  9
$TDINDWG
 40
0.0000000000
  9
$TDUSRTIMER
 40
0.0000000000
  9
$USRTIMER
 70
             1
  9
$ANGBASE
 50
0.0
  9
$ANGDIR
 70
             0
  9
$PDMODE
 70
             0
  9
$PDSIZE
 40
0.0
  9
$PLINEWID
 40
0.0
  9
$COORDS
 70
             0
  9
$SPLFRAME
 70
             0
  9
$SPLINETYPE
 70
             6
  9
$SPLINESEGS
 70
             8
  9
$ATTDIA
 70
             0
  9
$ATTREQ
 70
             1
  9
$HANDLING
 70
             1
  9
$HANDSEED
  5
286
  9
$SURFTAB1
 70
             6
  9
$SURFTAB2
 70
             6
  9
$SURFTYPE
 70
             6
  9
$SURFU
 70
             6
  9
$SURFV
 70
             6
  9
$UCSNAME
  2

  9
$UCSORG
 10
0.0
 20
0.0
 30
0.0
  9
$UCSXDIR
 10
1.0
 20
0.0
 30
0.0
  9
$UCSYDIR
 10
0.0
 20
1.0
 30
0.0
  9
$PUCSNAME
  2

  9
$PUCSORG
 10
0.0
 20
0.0
 30
0.0
  9
$PUCSXDIR
 10
1.0
 20
0.0
 30
0.0
  9
$PUCSYDIR
 10
0.0
 20
1.0
 30
0.0
  9
$USERI1
 70
             0
  9
$USERI2
 70
             0
  9
$USERI3
 70
             0
  9
$USERI4
 70
             0
  9
$USERI5
 70
             0
  9
$USERR1
 40
12.01
  9
$USERR2
 40
0.0
  9
$USERR3
 40
0.0
  9
$USERR4
 40
0.0
  9
$USERR5
 40
0.0
  9
$WORLDVIEW
 70
             1
  9
$SHADEDGE
 70
             3
  9
$SHADEDIF
 70
            70
  9
$TILEMODE
 70
             1
  9
$MAXACTVP
 70
            16
  9
$PINSBASE
 10
0.0
 20
0.0
 30
0.0
  9
$PLIMCHECK
 70
             0
  9
$PEXTMIN
 10
1.00000000000000E+20
 20
1.00000000000000E+20
 30
1.00000000000000E+20
  9
$PEXTMAX
 10
-1.00000000000000E+20
 20
-1.00000000000000E+20
 30
-1.00000000000000E+20
  9
$PLIMMIN
 10
0.0
 20
0.0
  9
$PLIMMAX
 10
12.0
 20
9.0
  9
$UNITMODE
 70
             0
  9
$VISRETAIN
 70
             0
  9
$PLINEGEN
 70
             1
  9
$PSLTSCALE
 70
             0
  9
$TREEDEPTH
 70
          3020
  9
$PICKSTYLE
 70
             1
  9
$CMLSTYLE
  2
STANDARD
  9
$CMLJUST
 70
             0
  9
$CMLSCALE
 40
1.0
  9
$PROXYGRAPHICS
 70
             0
  9
$MEASUREMENT
 70
             1
  0
ENDSEC
  0
SECTION
  2
CLASSES
  0
CLASS
  1
LWPOLYLINE
  2
AcDbPolyline
  3
"AutoCAD"
 90
        0
280
             0
281
             1
  0
CLASS
  1
IMAGE
  2
AcDbRasterImage
  3
ISM
 90
      127
280
             0
281
             1
  0
CLASS
  1
OLE2FRAME
  2
AcDbOle2Frame
  3
""
 90
        0
280
             0
281
             1
  0
CLASS
  1
HATCH
  2
AcDbHatch
  3
"ACAD_SEDONA"
 90
        0
280
             0
281
             1
  0
CLASS
  1
DICTIONARYVAR
  2
AcDbDictionaryVar
  3
"AutoCAD"
 90
        0
280
             0
281
             0
  0
CLASS
  1
RASTERVARIABLES
  2
AcDbRasterVariables
  3
ISM
 90
        0
280
             0
281
             0
  0
CLASS
  1
IMAGEDEF
  2
AcDbRasterImageDef
  3
ISM
 90
        0
280
             0
281
             0
  0
CLASS
  1
IMAGEDEF_REACTOR
  2
AcDbRasterImageDefReactor
  3
ISM
 90
        1
280
             0
281
             0
  0
CLASS
  1
IDBUFFER
  2
AcDbIdBuffer
  3
"Acad"
 90
        0
280
             0
281
             0
  0
CLASS
  1
SPATIAL_FILTER
  2
AcDbSpatialFilter
  3
"Acad"
 90
        0
280
             0
281
             0
  0
CLASS
  1
XRECORD
  2
AcDbXrecord
  3
"<Built In>"
 90
        0
280
             0
281
             0
  0
CLASS
  1
SORTENTSTABLE
  2
AcDbSortentsTable
  3
"AutoCAD"
 90
        0
280
             0
281
             0
  0
CLASS
  1
LAYER_INDEX
  2
AcDbLayerIndex
  3
"Acad"
 90
        0
280
             0
281
             0
  0
CLASS
  1
SPATIAL_INDEX
  2
AcDbSpatialIndex
  3
"Acad"
 90
        0
280
             0
281
             0
  0
CLASS
  1
OBJECT_PTR
  2
CAseDLPNTableRecord
  3
"ASE-LPNTableRecord"
 90
        1
280
             0
281
             0
  0
CLASS
  1
LAYOUT
  2
AcDbLayout
  3
"AutoCAD 2000"
 90
        0
280
             0
281
             0
  0
CLASS
  1
PLOTSETTINGS
  2
AcDbPlotSettings
  3
"AutoCAD 2000"
 90
        0
280
             0
281
             0
  0
CLASS
  1
ACDBDICTIONARYWDFLT
  2
AcDbDictionaryWithDefault
  3
"AutoCAD 2000"
 90
        0
280
             0
281
             0
  0
CLASS
  1
ACDBPLACEHOLDER
  2
AcDbPlaceHolder
  3
"AutoCAD 2000"
 90
        0
280
             0
281
             0
  0
ENDSEC
  0
SECTION
  2
TABLES
  0
TABLE
  2
VPORT
  5
7
100
AcDbSymbolTable
 70
             1
  0
VPORT
  5
15
100
AcDbSymbolTableRecord
100
AcDbViewportTableRecord
  2
*ACTIVE
 70
             0
 10
0.0
 20
0.0
 11
1.0
 21
1.0
 12
47.01186052084695
 22
-85.46399174919594
 13
0.0
 23
0.0
 14
1.0
 24
1.0
 15
0.0
 25
0.0
 16
0.0
 26
0.0
 36
1.0
 17
0.0
 27
0.0
 37
0.0
 40
275.33188339979381
 41
1.60267857142857
 42
50.0
 43
0.0
 44
0.0
 50
0.0
 51
0.0
 71
             0
 72
           100
 73
             1
 74
             1
 75
             0
 76
             0
 77
             0
 78
             0
  0
ENDTAB
  0
TABLE
  2
LTYPE
  5
4
100
AcDbSymbolTable
 70
            10
  0
LTYPE
  5
11
100
AcDbSymbolTableRecord
100
AcDbLinetypeTableRecord
  2
BYBLOCK
 70
            64
  3

 72
            65
 73
             0
 40
0.0
  0
LTYPE
  5
12
100
AcDbSymbolTableRecord
100
AcDbLinetypeTableRecord
  2
BYLAYER
 70
            64
  3

 72
            65
 73
             0
 40
0.0
  0
LTYPE
  5
13
100
AcDbSymbolTableRecord
100
AcDbLinetypeTableRecord
  2
CONTINUOUS
 70
            64
  3
Solid line
 72
            65
 73
             0
 40
0.0
  0
LTYPE
  5
1D
100
AcDbSymbolTableRecord
100
AcDbLinetypeTableRecord
  2
DASHED
 70
            64
  3
Dashed
 72
            65
 73
             2
 40
15.0
 49
7.0
 74
             0
 49
-8.0
 74
             0
  0
LTYPE
  5
1E
100
AcDbSymbolTableRecord
100
AcDbLinetypeTableRecord
  2
DOTTED
 70
            64
  3
Dotted
 72
            65
 73
             2
 40
1.0
 49
0.0
 74
             0
 49
-1.0
 74
             0
  0
LTYPE
  5
1F
100
AcDbSymbolTableRecord
100
AcDbLinetypeTableRecord
  2
DOT_CENTER
 70
            64
  3
Dot_Center
 72
            65
 73
             4
 40
14.0
 49
12.0
 74
             0
 49
-1.0
 74
             0
 49
0.0
 74
             0
 49
-1.0
 74
             0
  0
LTYPE
  5
20
100
AcDbSymbolTableRecord
100
AcDbLinetypeTableRecord
  2
LONG_DASHED
 70
            64
  3
Long_Dashed
 72
            65
 73
             2
 40
15.0
 49
10.0
 74
             0
 49
-5.0
 74
             0
  0
LTYPE
  5
21
100
AcDbSymbolTableRecord
100
AcDbLinetypeTableRecord
  2
DASH_CENTER
 70
            64
  3
Dash_Center
 72
            65
 73
             4
 40
14.0
 49
11.0
 74
             0
 49
-1.0
 74
             0
 49
1.0
 74
             0
 49
-1.0
 74
             0
  0
LTYPE
  5
22
100
AcDbSymbolTableRecord
100
AcDbLinetypeTableRecord
  2
PHANTOM
 70
            64
  3
Phantom
 72
            65
 73
             6
 40
13.0
 49
10.0
 74
             0
 49
-1.0
 74
             0
 49
0.0
 74
             0
 49
-1.0
 74
             0
 49
0.0
 74
             0
 49
-1.0
 74
             0
  0
LTYPE
  5
23
100
AcDbSymbolTableRecord
100
AcDbLinetypeTableRecord
  2
CENTER_DASH_DASH
 70
            64
  3
Center_Dash_Dash
 72
            65
 73
             6
 40
14.0
 49
9.0
 74
             0
 49
-1.0
 74
             0
 49
1.0
 74
             0
 49
-1.0
 74
             0
 49
1.0
 74
             0
 49
-1.0
 74
             0
  0
ENDTAB
  0
TABLE
  2
LAYER
  5
2
100
AcDbSymbolTable
 70
             2
  0
LAYER
  5
14
100
AcDbSymbolTableRecord
100
AcDbLayerTableRecord
  2
0
 70
             0
 62
             7
  6
CONTINUOUS
  0
LAYER
  5
24
100
AcDbSymbolTableRecord
100
AcDbLayerTableRecord
  2
1
 70
             0
 62
             7
  6
CONTINUOUS
  0
ENDTAB
  0
TABLE
  2
STYLE
  5
3
100
AcDbSymbolTable
 70
             2
  0
STYLE
  5
17
100
AcDbSymbolTableRecord
100
AcDbTextStyleTableRecord
  2
STANDARD
 70
             0
 40
0.0
 41
1.0
 50
0.0
 71
             0
 42
0.0
  3
txt
  4

  0
STYLE
  5
21A
100
AcDbSymbolTableRecord
100
AcDbTextStyleTableRecord
  2
CONVERTER_1
 70
             0
 40
0.0
 41
0.9
 50
0.0
 71
             0
 42
0.0
  3
txt.shx
  4

  0
ENDTAB
  0
TABLE
  2
VIEW
  5
5
100
AcDbSymbolTable
 70
             0
  0
ENDTAB
  0
TABLE
  2
UCS
  5
6
100
AcDbSymbolTable
 70
             0
  0
ENDTAB
  0
TABLE
  2
APPID
  5
8
100
AcDbSymbolTable
 70
             1
  0
APPID
  5
16
100
AcDbSymbolTableRecord
100
AcDbRegAppTableRecord
  2
ACAD
 70
             0
  0
ENDTAB
  0
TABLE
  2
DIMSTYLE
  5
9
100
AcDbSymbolTable
 70
            11
  0
DIMSTYLE
105
18
100
AcDbSymbolTableRecord
100
AcDbDimStyleTableRecord
  2
STANDARD
 70
             0
  3

  4

  5

  6

  7

 40
1.0
 41
0.18
 42
0.0625
 43
0.38
 44
0.18
 45
0.0
 46
0.0
 47
0.0
 48
0.0
 71
             0
 72
             0
 73
             1
 74
             1
 75
             0
 76
             0
 77
             0
 78
             0
140
0.18
141
0.09
142
0.0
143
25.4
144
1.0
145
0.0
146
1.0
147
0.09
170
             0
171
             2
172
             0
173
             0
174
             0
175
             0
176
             0
177
             0
178
             0
270
             2
271
             4
272
             4
273
             2
274
             2
275
             0
280
             0
281
             0
282
             0
283
             1
284
             0
285
             0
286
             0
287
             3
288
             0
340
17
  0
DIMSTYLE
105
21D
100
AcDbSymbolTableRecord
100
AcDbDimStyleTableRecord
  2
ME10_DIM_0
 70
             0
  3

  4

  5

  6

  7

 40
1.0
 41
7.0
 42
0.0
 43
0.38
 44
2.0
 45
0.0
 46
0.0
 47
0.0
 48
0.0
 71
             0
 72
             0
 73
             0
 74
             0
 75
             0
 76
             0
 77
             1
 78
             8
140
7.0
141
0.09
142
0.0
143
25.4
144
1.0
145
0.0
146
1.0
147
0.625
170
             0
171
             2
172
             1
173
             1
174
             0
175
             0
176
             4
177
             4
178
             1
270
             2
271
             1
272
             4
273
             2
274
             2
275
             0
280
             0
281
             0
282
             0
283
             1
284
             0
285
             0
286
             0
287
             3
288
             0
340
21A
  0
DIMSTYLE
105
229
100
AcDbSymbolTableRecord
100
AcDbDimStyleTableRecord
  2
ME10_DIM_1
 70
             0
  3
DN<>
  4

  5

  6

  7

 40
1.0
 41
7.0
 42
0.0
 43
0.38
 44
2.0
 45
0.0
 46
0.0
 47
0.0
 48
0.0
 71
             0
 72
             0
 73
             0
 74
             0
 75
             0
 76
             0
 77
             1
 78
             8
140
7.0
141
0.09
142
0.0
143
25.4
144
1.0
145
0.0
146
1.0
147
0.625
170
             0
171
             2
172
             1
173
             1
174
             0
175
             0
176
             4
177
             4
178
             1
270
             2
271
             2
272
             4
273
             2
274
             2
275
             0
280
             0
281
             0
282
             0
283
             1
284
             0
285
             0
286
             0
287
             3
288
             0
340
21A
  0
DIMSTYLE
105
234
100
AcDbSymbolTableRecord
100
AcDbDimStyleTableRecord
  2
ME10_DIM_2
 70
             0
  3
DN<>
  4

  5

  6

  7

 40
1.0
 41
7.0
 42
0.0
 43
0.38
 44
2.0
 45
0.0
 46
0.0
 47
0.0
 48
0.0
 71
             0
 72
             0
 73
             0
 74
             0
 75
             0
 76
             0
 77
             1
 78
             8
140
7.0
141
0.09
142
0.0
143
25.4
144
1.0
145
0.0
146
1.0
147
0.625
170
             0
171
             2
172
             1
173
             1
174
             0
175
             0
176
             4
177
             4
178
             1
270
             2
271
             2
272
             4
273
             2
274
             2
275
             0
280
             0
281
             0
282
             0
283
             1
284
             0
285
             0
286
             0
287
             3
288
             0
340
21A
  0
DIMSTYLE
105
23F
100
AcDbSymbolTableRecord
100
AcDbDimStyleTableRecord
  2
ME10_DIM_3
 70
             0
  3

  4

  5

  6

  7

 40
1.0
 41
7.0
 42
0.0
 43
0.38
 44
2.0
 45
0.0
 46
0.0
 47
0.0
 48
0.0
 71
             0
 72
             0
 73
             0
 74
             0
 75
             0
 76
             0
 77
             1
 78
             8
140
7.0
141
0.09
142
0.0
143
25.4
144
1.0
145
0.0
146
1.0
147
0.625
170
             0
171
             2
172
             1
173
             1
174
             0
175
             0
176
             4
177
             4
178
             1
270
             2
271
             1
272
             4
273
             2
274
             2
275
             0
280
             0
281
             0
282
             0
283
             1
284
             0
285
             0
286
             0
287
             3
288
             0
340
21A
  0
DIMSTYLE
105
24C
100
AcDbSymbolTableRecord
100
AcDbDimStyleTableRecord
  2
ME10_DIM_4
 70
             0
  3
-24
  4

  5

  6

  7

 40
1.0
 41
7.0
 42
0.0
 43
0.38
 44
2.0
 45
0.0
 46
0.0
 47
0.0
 48
0.0
 71
             0
 72
             0
 73
             0
 74
             0
 75
             0
 76
             0
 77
             1
 78
             8
140
7.0
141
0.09
142
0.0
143
25.4
144
1.0
145
0.0
146
1.0
147
0.625
170
             0
171
             2
172
             1
173
             1
174
             0
175
             0
176
             4
177
             4
178
             1
270
             2
271
             2
272
             4
273
             2
274
             2
275
             0
280
             0
281
             0
282
             0
283
             1
284
             0
285
             0
286
             0
287
             3
288
             0
340
21A
  0
DIMSTYLE
105
257
100
AcDbSymbolTableRecord
100
AcDbDimStyleTableRecord
  2
ME10_DIM_5
 70
             0
  3

  4

  5

  6

  7

 40
1.0
 41
7.0
 42
0.0
 43
0.38
 44
2.0
 45
0.0
 46
0.0
 47
0.0
 48
0.0
 71
             0
 72
             0
 73
             0
 74
             0
 75
             0
 76
             0
 77
             1
 78
             8
140
7.0
141
0.09
142
0.0
143
25.4
144
1.0
145
0.0
146
1.0
147
0.625
170
             0
171
             2
172
             1
173
             1
174
             0
175
             0
176
             4
177
             4
178
             1
270
             2
271
             2
272
             4
273
             2
274
             2
275
             0
280
             0
281
             0
282
             0
283
             1
284
             0
285
             0
286
             0
287
             3
288
             0
340
21A
  0
DIMSTYLE
105
262
100
AcDbSymbolTableRecord
100
AcDbDimStyleTableRecord
  2
ME10_DIM_6
 70
             0
  3

  4

  5

  6

  7

 40
1.0
 41
7.0
 42
0.0
 43
0.38
 44
2.0
 45
0.0
 46
0.0
 47
0.0
 48
0.0
 71
             0
 72
             0
 73
             0
 74
             0
 75
             0
 76
             0
 77
             1
 78
             8
140
7.0
141
0.09
142
0.0
143
25.4
144
1.0
145
0.0
146
1.0
147
0.625
170
             0
171
             2
172
             1
173
             1
174
             0
175
             0
176
             4
177
             4
178
             1
270
             2
271
             2
272
             4
273
             2
274
             2
275
             0
280
             0
281
             0
282
             0
283
             1
284
             0
285
             0
286
             0
287
             3
288
             0
340
21A
  0
DIMSTYLE
105
26D
100
AcDbSymbolTableRecord
100
AcDbDimStyleTableRecord
  2
ME10_DIM_7
 70
             0
  3

  4

  5

  6

  7

 40
1.0
 41
7.0
 42
0.0
 43
0.38
 44
2.0
 45
0.0
 46
0.0
 47
0.0
 48
0.0
 71
             0
 72
             0
 73
             0
 74
             0
 75
             0
 76
             0
 77
             1
 78
             8
140
7.0
141
0.09
142
0.0
143
25.4
144
1.0
145
0.0
146
1.0
147
0.625
170
             0
171
             2
172
             1
173
             1
174
             0
175
             0
176
             4
177
             4
178
             1
270
             2
271
             0
272
             4
273
             2
274
             2
275
             0
280
             0
281
             0
282
             0
283
             1
284
             0
285
             0
286
             0
287
             3
288
             0
340
21A
  0
DIMSTYLE
105
278
100
AcDbSymbolTableRecord
100
AcDbDimStyleTableRecord
  2
ME10_DIM_8
 70
             0
  3

  4

  5

  6

  7

 40
1.0
 41
7.0
 42
0.0
 43
0.38
 44
2.0
 45
0.0
 46
0.0
 47
0.0
 48
0.0
 71
             0
 72
             0
 73
             0
 74
             0
 75
             0
 76
             0
 77
             1
 78
             8
140
7.0
141
0.09
142
0.0
143
25.4
144
1.0
145
0.0
146
1.0
147
0.625
170
             0
171
             2
172
             1
173
             1
174
             0
175
             0
176
             4
177
             4
178
             1
270
             2
271
             0
272
             4
273
             2
274
             2
275
             0
280
             0
281
             0
282
             0
283
             1
284
             0
285
             0
286
             0
287
             3
288
             0
340
21A
  0
DIMSTYLE
105
283
100
AcDbSymbolTableRecord
100
AcDbDimStyleTableRecord
  2
ME10_DIM_9
 70
             0
  3

  4

  5

  6

  7

 40
1.0
 41
7.0
 42
0.0
 43
0.38
 44
2.0
 45
0.0
 46
0.0
 47
0.0
 48
0.0
 71
             0
 72
             0
 73
             0
 74
             0
 75
             0
 76
             0
 77
             1
 78
             8
140
7.0
141
0.09
142
0.0
143
25.4
144
1.0
145
0.0
146
1.0
147
0.625
170
             0
171
             2
172
             1
173
             1
174
             0
175
             0
176
             4
177
             4
178
             1
270
             2
271
             2
272
             4
273
             2
274
             2
275
             0
280
             0
281
             0
282
             0
283
             1
284
             0
285
             0
286
             0
287
             3
288
             0
340
21A
  0
ENDTAB
  0
TABLE
  2
BLOCK_RECORD
  5
1
100
AcDbSymbolTable
 70
            19
  0
BLOCK_RECORD
  5
A
100
AcDbSymbolTableRecord
100
AcDbBlockTableRecord
  2
*MODEL_SPACE
  0
BLOCK_RECORD
  5
B
100
AcDbSymbolTableRecord
100
AcDbBlockTableRecord
  2
*PAPER_SPACE
  0
BLOCK_RECORD
  5
25
100
AcDbSymbolTableRecord
100
AcDbBlockTableRecord
  2
HL19_2K_RPER
  0
BLOCK_RECORD
  5
27
100
AcDbSymbolTableRecord
100
AcDbBlockTableRecord
  2
HOLL_NDERMUTTER_1_ZOLL
  0
BLOCK_RECORD
  5
29
100
AcDbSymbolTableRecord
100
AcDbBlockTableRecord
  2
HL522_ABGANGSBOGEN_DN40_50
  0
BLOCK_RECORD
  5
2B
100
AcDbSymbolTableRecord
100
AcDbBlockTableRecord
  2
0522_1E_SCHRAUBVENTIL_3-23
  0
BLOCK_RECORD
  5
2D
100
AcDbSymbolTableRecord
100
AcDbBlockTableRecord
  2
01076D_VENTILDICHTUNG
  0
BLOCK_RECORD
  5
2F
100
AcDbSymbolTableRecord
100
AcDbBlockTableRecord
  2
GV_EINSATZ-ROHR
  0
BLOCK_RECORD
  5
31
100
AcDbSymbolTableRecord
100
AcDbBlockTableRecord
  2
HL522V_0_K_RPER
  0
BLOCK_RECORD
  5
33
100
AcDbSymbolTableRecord
100
AcDbBlockTableRecord
  2
HL522_ABGANGSBOGEN_DN4GRAD
  0
BLOCK_RECORD
  5
35
100
AcDbSymbolTableRecord
100
AcDbBlockTableRecord
  2
HL522V_K_RPER
  0
BLOCK_RECORD
  5
213
100
AcDbSymbolTableRecord
100
AcDbBlockTableRecord
  2
*D9
  0
BLOCK_RECORD
  5
21F
100
AcDbSymbolTableRecord
100
AcDbBlockTableRecord
  2
*D10
  0
BLOCK_RECORD
  5
22B
100
AcDbSymbolTableRecord
100
AcDbBlockTableRecord
  2
*D11
  0
BLOCK_RECORD
  5
236
100
AcDbSymbolTableRecord
100
AcDbBlockTableRecord
  2
*D12
  0
BLOCK_RECORD
  5
241
100
AcDbSymbolTableRecord
100
AcDbBlockTableRecord
  2
*D13
  0
BLOCK_RECORD
  5
24E
100
AcDbSymbolTableRecord
100
AcDbBlockTableRecord
  2
*D14
  0
BLOCK_RECORD
  5
259
100
AcDbSymbolTableRecord
100
AcDbBlockTableRecord
  2
*D15
  0
BLOCK_RECORD
  5
264
100
AcDbSymbolTableRecord
100
AcDbBlockTableRecord
  2
*D16
  0
BLOCK_RECORD
  5
26F
100
AcDbSymbolTableRecord
100
AcDbBlockTableRecord
  2
*D17
  0
BLOCK_RECORD
  5
27A
100
AcDbSymbolTableRecord
100
AcDbBlockTableRecord
  2
*D18
  0
ENDTAB
  0
ENDSEC
  0
SECTION
  2
BLOCKS
  0
BLOCK
  5
D
100
AcDbEntity
  8
0
100
AcDbBlockBegin
  2
*MODEL_SPACE
 70
             0
 10
0.0
 20
0.0
 30
0.0
  3
*MODEL_SPACE
  1

  0
ENDBLK
  5
E
100
AcDbEntity
  8
0
100
AcDbBlockEnd
  0
BLOCK
  5
F
100
AcDbEntity
 67
             1
  8
0
100
AcDbBlockBegin
  2
*PAPER_SPACE
 70
             0
 10
0.0
 20
0.0
 30
0.0
  3
*PAPER_SPACE
  1

  0
ENDBLK
  5
10
100
AcDbEntity
 67
             1
  8
0
100
AcDbBlockEnd
  0
BLOCK
  5
26
100
AcDbEntity
  8
0
100
AcDbBlockBegin
  2
HL19_2K_RPER
 70
             0
 10
11.91125039204957
 20
-70.12349165679376
 30
0.0
  3
HL19_2K_RPER
  1

  0
SPLINE
  5
69
100
AcDbEntity
  8
0
  6
CONTINUOUS
 62
             7
100
AcDbSpline
210
0.0
220
0.0
230
1.0
 70
             0
 71
             3
 72
            17
 73
            13
 74
             9
 42
0.00000000001
 43
0.00000000001
 44
0.00000000001
 40
41.785880174359363
 40
41.785880174359363
 40
41.785880174359363
 40
41.785880174359363
 40
46.602153574143827
 40
46.602153574143827
 40
46.602153574143827
 40
50.541467047120221
 40
50.541467047120221
 40
50.541467047120221
 40
54.271753634565357
 40
54.271753634565357
 40
54.271753634565357
 40
56.16462674351358
 40
56.16462674351358
 40
56.16462674351358
 40
56.16462674351358
 10
-82.999999999999886
 20
-52.417124538304492
 30
0.0
 10
-84.691773901798882
 20
-52.974885876429177
 30
0.0
 10
-86.196842138447977
 20
-53.532631706261313
 30
0.0
 10
-87.515235847706066
 20
-54.090362027160609
 30
0.0
 10
-88.893407030001867
 20
-54.673380476321199
 30
0.0
 10
-90.069254030044078
 20
-55.257085146095498
 30
0.0
 10
-91.041333699442362
 20
-55.841474822781016
 30
0.0
 10
-92.36999111852117
 20
-56.640230011275428
 30
0.0
 10
-93.315085799658675
 20
-57.438530214426009
 30
0.0
 10
-93.877925414577362
 20
-58.236375042881697
 30
0.0
 10
-94.292566419382467
 20
-58.824143161157281
 30
0.0
 10
-94.499999999999886
 20
-59.412018150691893
 30
0.0
 10
-94.499999999999886
 20
-59.99999998235262
 30
0.0
 11
-82.999999999999886
 21
-52.417124538304492
 31
0.0
 11
-85.397635496055813
 21
-53.253754914192072
 31
0.0
 11
-87.515235847706066
 21
-54.090362027160609
 31
0.0
 11
-89.430569090910765
 21
-54.965404214648956
 31
0.0
 11
-91.041333699442362
 21
-55.841474822781016
 31
0.0
 11
-92.746811233569886
 21
-57.039266317845872
 31
0.0
 11
-93.877925414577362
 21
-58.236375042881697
 31
0.0
 11
-94.344453084090546
 21
-59.118107370097732
 31
0.0
 11
-94.499999999999886
 21
-59.99999998235262
 31
0.0
  0
SPLINE
  5
68
100
AcDbEntity
  8
0
  6
CONTINUOUS
 62
             7
100
AcDbSpline
210
0.0
220
0.0
230
1.0
 70
             0
 71
             3
 72
            23
 73
            19
 74
            16
 42
0.00000000001
 43
0.00000000001
 44
0.00000000001
 40
13.049374598483761
 40
13.049374598483761
 40
13.049374598483761
 40
13.049374598483761
 40
13.10839912916372
 40
13.10839912916372
 40
13.10839912916372
 40
13.283279542540971
 40
13.283279542540971
 40
13.283279542540971
 40
13.953404716224689
 40
13.953404716224689
 40
13.953404716224689
 40
15.41967898913901
 40
15.41967898913901
 40
15.41967898913901
 40
19.482560580756481
 40
19.482560580756481
 40
19.482560580756481
 40
20.672089821413739
 40
20.672089821413739
 40
20.672089821413739
 40
20.672089821413739
 10
-76.499999999996277
 20
-48.49999998235262
 30
0.0
 10
-76.515494016268178
 20
-48.512125782188818
 30
0.0
 10
-76.530993964733966
 20
-48.524243994379937
 30
0.0
 10
-76.546499845393384
 20
-48.53635461892236
 30
0.0
 10
-76.592441332850171
 20
-48.5722364961116
 30
0.0
 10
-76.638438082281766
 20
-48.608053832042508
 30
0.0
 10
-76.684482700376861
 20
-48.643797040353533
 30
0.0
 10
-76.864749291413176
 20
-48.783733184497123
 30
0.0
 10
-77.041984027371484
 20
-48.919610029523483
 30
0.0
 10
-77.21630794942746
 20
-49.051504469786323
 30
0.0
 10
-77.627344091513663
 20
-49.362496680431363
 30
0.0
 10
-78.02118976384358
 20
-49.650585988551477
 30
0.0
 10
-78.399722087320583
 20
-49.917145900436019
 30
0.0
 10
-79.709641175398986
 20
-50.839582096865783
 30
0.0
 10
-80.85180466162987
 20
-51.515212142029213
 30
0.0
 10
-81.892713566888972
 20
-51.983609559571498
 30
0.0
 10
-82.272549519347962
 20
-52.154531508957461
 30
0.0
 10
-82.640712565604076
 20
-52.298670979017061
 30
0.0
 10
-82.999999999999886
 20
-52.417124538304492
 30
0.0
 11
-76.499999999996277
 21
-48.49999998235262
 31
0.0
 11
-76.523245473549508
 21
-48.518182991372655
 31
0.0
 11
-76.546499845393384
 21
-48.53635461892236
 31
0.0
 11
-76.615452598895757
 21
-48.590127830467281
 31
0.0
 11
-76.684482700376861
 21
-48.643797040353533
 31
0.0
 11
-76.952623825769777
 21
-48.850666394025211
 31
0.0
 11
-77.21630794942746
 21
-49.051504469786323
 31
0.0
 11
-77.820203950352465
 21
-49.500987297146352
 31
0.0
 11
-78.399722087320583
 21
-49.917145900436019
 31
0.0
 11
-79.16607487611293
 21
-50.441307468331075
 31
0.0
 11
-79.895358369463906
 21
-50.90813508905719
 31
0.0
 11
-80.590764616375523
 21
-51.319528291749293
 31
0.0
 11
-81.255485665849889
 21
-51.677386605542424
 31
0.0
 11
-81.892713566888972
 21
-51.983609559571498
 31
0.0
 11
-82.454062477718125
 21
-52.220042695224947
 31
0.0
 11
-82.999999999999886
 21
-52.417124538304492
 31
0.0
  0
ARC
  5
67
100
AcDbEntity
  8
0
  6
CONTINUOUS
 62
             7
100
AcDbCircle
 10
-82.99999999999989
 20
-59.99999998235262
 40
11.5
100
AcDbArc
 50
180.0
 51
-90.0
  0
LINE
  5
66
100
AcDbEntity
  8
1
  6
CONTINUOUS
 62
             7
100
AcDbLine
 10
-67.49999999999989
 20
-71.49999998235262
 11
-67.49999999999989
 21
-48.49999998235262
  0
LINE
  5
65
100
AcDbEntity
  8
0
  6
CONTINUOUS
 62
             7
100
AcDbLine
 10
-82.99999999999989
 20
-71.49999998235262
 11
-82.99999999999989
 21
-59.99999998235262
  0
LINE
  5
64
100
AcDbEntity
  8
0
  6
CONTINUOUS
 62
             7
100
AcDbLine
 10
-82.99999999999989
 20
-71.49999998235262
 11
-67.49999999999989
 21
-71.49999998235262
  0
LINE
  5
63
100
AcDbEntity
  8
0
  6
CONTINUOUS
 62
             7
100
AcDbLine
 10
-82.99999999999989
 20
-59.99999998235262
 11
-82.99999999999989
 21
-52.41712453830449
  0
LINE
  5
62
100
AcDbEntity
  8
0
  6
CONTINUOUS
 62
             7
100
AcDbLine
 10
-76.49999999999628
 20
-48.49999998235262
 11
-67.49999999999989
 21
-48.49999998235262
  0
LINE
  5
61
100
AcDbEntity
  8
0
  6
CONTINUOUS
 62
             7
100
AcDbLine
 10
-94.49999999999989
 20
-42.49999998235261
 11
-93.24999999999989
 21
-42.49999998235261
  0
LINE
  5
60
100
AcDbEntity
  8
0
  6
CONTINUOUS
 62
             7
100
AcDbLine
 10
-94.49999999999989
 20
-42.49999998235261
 11
-94.49999999999989
 21
-59.99999998235262
  0
LINE
  5
5F
100
AcDbEntity
  8
0
  6
CONTINUOUS
 62
             7
100
AcDbLine
 10
-76.49999999999628
 20
-42.49999998235261
 11
-76.49999999999628
 21
-48.49999998235262
  0
LINE
  5
5E
100
AcDbEntity
  8
0
  6
CONTINUOUS
 62
             7
100
AcDbLine
 10
-93.24999999999989
 20
-42.49999998235261
 11
-77.74999999999628
 21
-42.49999998235261
  0
LINE
  5
5D
100
AcDbEntity
  8
0
  6
CONTINUOUS
 62
             7
100
AcDbLine
 10
-77.74999999999628
 20
-42.49999998235261
 11
-76.49999999999628
 21
-42.49999998235261
  0
LINE
  5
5C
100
AcDbEntity
  8
0
  6
CONTINUOUS
 62
             7
100
AcDbLine
 10
-80.49999999999628
 20
-15.49999998235261
 11
-80.99999999999628
 21
-8.49999998235261
  0
LINE
  5
5B
100
AcDbEntity
  8
0
  6
CONTINUOUS
 62
             7
100
AcDbLine
 10
-90.49999999999989
 20
-15.49999998235261
 11
-89.99999999999989
 21
-8.49999998235261
  0
LINE
  5
5A
100
AcDbEntity
  8
0
  6
CONTINUOUS
 62
             7
100
AcDbLine
 10
-80.74999999999628
 20
-15.49999998235261
 11
-90.24999999999989
 21
-15.49999998235261
  0
LINE
  5
59
100
AcDbEntity
  8
0
  6
CONTINUOUS
 62
             7
100
AcDbLine
 10
-91.24999999999989
 20
-21.99999998235261
 11
-90.24999999999989
 21
-15.49999998235261
  0
LINE
  5
58
100
AcDbEntity
  8
0
  6
CONTINUOUS
 62
             7
100
AcDbLine
 10
-90.24999999999989
 20
-15.49999998235261
 11
-90.49999999999989
 21
-15.49999998235261
  0
LINE
  5
57
100
AcDbEntity
  8
0
  6
CONTINUOUS
 62
             7
100
AcDbLine
 10
-90.49999999999989
 20
-21.99999998235261
 11
-91.24999999999989
 21
-21.99999998235261
  0
LINE
  5
56
100
AcDbEntity
  8
0
  6
CONTINUOUS
 62
             7
100
AcDbLine
 10
-79.74999999999628
 20
-21.99999998235261
 11
-80.74999999999628
 21
-15.49999998235261
  0
LINE
  5
55
100
AcDbEntity
  8
0
  6
CONTINUOUS
 62
             7
100
AcDbLine
 10
-80.49999999999628
 20
-15.49999998235261
 11
-80.74999999999628
 21
-15.49999998235261
  0
LINE
  5
54
100
AcDbEntity
  8
0
  6
CONTINUOUS
 62
             7
100
AcDbLine
 10
-79.74999999999628
 20
-21.99999998235261
 11
-80.49999999999628
 21
-21.99999998235261
  0
LINE
  5
53
100
AcDbEntity
  8
0
  6
CONTINUOUS
 62
             7
100
AcDbLine
 10
-80.49999999999628
 20
-21.99999998235261
 11
-90.49999999999989
 21
-21.99999998235261
  0
LINE
  5
52
100
AcDbEntity
  8
0
  6
CONTINUOUS
 62
             7
100
AcDbLine
 10
-79.24999999999628
 20
-28.99999998235261
 11
-80.49999999999628
 21
-21.99999998235261
  0
LINE
  5
51
100
AcDbEntity
  8
0
  6
CONTINUOUS
 62
             7
100
AcDbLine
 10
-91.74999999999989
 20
-28.99999998235261
 11
-90.49999999999989
 21
-21.99999998235261
  0
LINE
  5
50
100
AcDbEntity
  8
0
  6
CONTINUOUS
 62
             7
100
AcDbLine
 10
-90.74999999999989
 20
-28.99999998235261
 11
-91.74999999999989
 21
-28.99999998235261
  0
LINE
  5
4F
100
AcDbEntity
  8
0
  6
CONTINUOUS
 62
             7
100
AcDbLine
 10
-80.24999999999628
 20
-28.99999998235261
 11
-90.74999999999989
 21
-28.99999998235261
  0
LINE
  5
4E
100
AcDbEntity
  8
0
  6
CONTINUOUS
 62
             7
100
AcDbLine
 10
-93.24999999999989
 20
-42.49999998235261
 11
-90.99999999999989
 21
-35.49999998235261
  0
LINE
  5
4D
100
AcDbEntity
  8
0
  6
CONTINUOUS
 62
             7
100
AcDbLine
 10
-90.99999999999989
 20
-35.49999998235261
 11
-92.49999999999989
 21
-35.49999998235261
  0
LINE
  5
4C
100
AcDbEntity
  8
0
  6
CONTINUOUS
 62
             7
100
AcDbLine
 10
-92.49999999999989
 20
-35.49999998235261
 11
-90.74999999999989
 21
-28.99999998235261
  0
LINE
  5
4B
100
AcDbEntity
  8
0
  6
CONTINUOUS
 62
             7
100
AcDbLine
 10
-77.74999999999628
 20
-42.49999998235261
 11
-79.99999999999628
 21
-35.49999998235261
  0
LINE
  5
4A
100
AcDbEntity
  8
0
  6
CONTINUOUS
 62
             7
100
AcDbLine
 10
-78.49999999999628
 20
-35.49999998235261
 11
-79.99999999999628
 21
-35.49999998235261
  0
LINE
  5
49
100
AcDbEntity
  8
0
  6
CONTINUOUS
 62
             7
100
AcDbLine
 10
-78.49999999999628
 20
-35.49999998235261
 11
-80.24999999999628
 21
-28.99999998235261
  0
LINE
  5
48
100
AcDbEntity
  8
0
  6
CONTINUOUS
 62
             7
100
AcDbLine
 10
-79.24999999999628
 20
-28.99999998235261
 11
-80.24999999999628
 21
-28.99999998235261
  0
LINE
  5
47
100
AcDbEntity
  8
0
  6
CONTINUOUS
 62
             7
100
AcDbLine
 10
-79.99999999999628
 20
-35.49999998235261
 11
-90.99999999999989
 21
-35.49999998235261
  0
LINE
  5
46
100
AcDbEntity
  8
0
  6
CONTINUOUS
 62
             7
100
AcDbLine
 10
-80.99999999999628
 20
-8.49999998235261
 11
-89.99999999999989
 21
-8.49999998235261
  0
LINE
  5
45
100
AcDbEntity
  8
1
  6
PHANTOM
 62
             2
100
AcDbLine
 10
-86.40680463122396
 20
-59.99999998235262
 11
-46.06880540759067
 21
-59.99999998235262
  0
LINE
  5
44
100
AcDbEntity
  8
1
  6
PHANTOM
 62
             2
100
AcDbLine
 10
-85.49999999999989
 20
-61.89252422061736
 11
-85.49999999999989
 21
-5.91824954741287
  0
POINT
  5
43
100
AcDbEntity
  8
1
 62
             3
 60
             1
100
AcDbPoint
 10
-67.49999999999989
 20
-48.49999998235262
  0
POINT
  5
42
100
AcDbEntity
  8
1
 62
             3
 60
             1
100
AcDbPoint
 10
-67.49999999999989
 20
-71.49999998235262
  0
ENDBLK
  5
6A
100
AcDbEntity
  8
0
100
AcDbBlockEnd
  0
BLOCK
  5
28
100
AcDbEntity
  8
0
100
AcDbBlockBegin
  2
HOLL_NDERMUTTER_1_ZOLL
 70
             0
 10
-117.6878731667003
 20
-25.75070728470934
 30
0.0
  3
HOLL_NDERMUTTER_1_ZOLL
  1

  0
ARC
  5
C2
100
AcDbEntity
  8
1
  6
CONTINUOUS
 62
             7
100
AcDbCircle
 10
-66.50000000000347
 20
-42.5999999823548
 40
1.0
100
AcDbArc
 50
90.0
 51
180.0
  0
ARC
  5
C1
100
AcDbEntity
  8
1
  6
CONTINUOUS
 62
             7
100
AcDbCircle
 10
-51.99999999999987
 20
-40.3499999823548
 40
0.5
100
AcDbArc
 50
90.0
 51
180.0
  0
ARC
  5
C0
100
AcDbEntity
  8
1
  6
CONTINUOUS
 62
             7
100
AcDbCircle
 10
-66.50000000000347
 20
-77.39999998235771
 40
1.0
100
AcDbArc
 50
180.0
 51
-90.0
  0
ARC
  5
BF
100
AcDbEntity
  8
1
  6
CONTINUOUS
 62
             7
100
AcDbCircle
 10
-51.99999999999987
 20
-79.64999998235771
 40
0.5
100
AcDbArc
 50
180.0
 51
-90.0
  0
LINE
  5
BE
100
AcDbEntity
  8
1
  6
CONTINUOUS
 62
             7
100
AcDbLine
 10
-52.49999999999987
 20
-56.5999999823548
 11
-52.49999999999987
 21
-59.99999998235262
  0
LINE
  5
BD
100
AcDbEntity
  8
1
  6
CONTINUOUS
 62
             7
100
AcDbLine
 10
-67.50000000000347
 20
-42.5999999823548
 11
-67.50000000000347
 21
-59.99999998235262
  0
LINE
  5
BC
100
AcDbEntity
  8
1
  6
CONTINUOUS
 62
             7
100
AcDbLine
 10
-49.99999999999987
 20
-39.8499999823548
 11
-51.99999999999987
 21
-39.8499999823548
  0
LINE
  5
BB
100
AcDbEntity
  8
1
  6
CONTINUOUS
 62
             7
100
AcDbLine
 10
-62.09999999999837
 20
-40.99999998235261
 11
-52.49999999999987
 21
-40.99999998235261
  0
LINE
  5
BA
100
AcDbEntity
  8
1
  6
CONTINUOUS
 62
             7
100
AcDbLine
 10
-52.49999999999987
 20
-40.3499999823548
 11
-52.49999999999987
 21
-40.99999998235261
  0
LINE
  5
B9
100
AcDbEntity
  8
1
  6
CONTINUOUS
 62
             7
100
AcDbLine
 10
-66.50000000000347
 20
-41.5999999823548
 11
-62.70000000000059
 21
-41.5999999823548
  0
LINE
  5
B8
100
AcDbEntity
  8
1
  6
CONTINUOUS
 62
             7
100
AcDbLine
 10
-62.70000000000059
 20
-56.5999999823548
 11
-62.70000000000059
 21
-59.99999998235262
  0
LINE
  5
B7
100
AcDbEntity
  8
1
  6
CONTINUOUS
 62
             7
100
AcDbLine
 10
-52.49999999999987
 20
-53.90291569520968
 11
-52.49999999999987
 21
-56.5999999823548
  0
LINE
  5
B6
100
AcDbEntity
  8
1
  6
DOT_CENTER
 62
             2
100
AcDbLine
 10
-62.09999999999837
 20
-59.99999998235262
 11
-68.19642582332727
 21
-59.99999998235262
  0
LINE
  5
B5
100
AcDbEntity
  8
1
  6
CONTINUOUS
 62
             7
100
AcDbLine
 10
-62.70000000000059
 20
-41.5999999823548
 11
-62.09999999999837
 21
-40.99999998235261
  0
LINE
  5
B4
100
AcDbEntity
  8
1
  6
CONTINUOUS
 62
             7
100
AcDbLine
 10
-62.09999999999837
 20
-56.5999999823548
 11
-62.70000000000059
 21
-56.5999999823548
  0
LINE
  5
B3
100
AcDbEntity
  8
1
  6
CONTINUOUS
 62
             7
100
AcDbLine
 10
-62.09999999999837
 20
-59.99999998235262
 11
-62.09999999999837
 21
-56.5999999823548
  0
LINE
  5
B2
100
AcDbEntity
  8
1
  6
DOT_CENTER
 62
             2
100
AcDbLine
 10
-49.19642582332727
 20
-59.99999998235262
 11
-62.09999999999837
 21
-59.99999998235262
  0
LINE
  5
B1
100
AcDbEntity
  8
1
  6
CONTINUOUS
 62
             7
100
AcDbLine
 10
-52.49999999999987
 20
-56.5999999823548
 11
-62.09999999999837
 21
-56.5999999823548
  0
LINE
  5
B0
100
AcDbEntity
  8
1
  6
CONTINUOUS
 62
             7
100
AcDbLine
 10
-62.70000000000059
 20
-48.01394294947431
 11
-62.70000000000059
 21
-53.90291569520968
  0
LINE
  5
AF
100
AcDbEntity
  8
1
  6
CONTINUOUS
 62
             7
100
AcDbLine
 10
-62.09999999999837
 20
-53.59782919878171
 11
-62.09999999999837
 21
-47.70885645304997
  0
LINE
  5
AE
100
AcDbEntity
  8
1
  6
CONTINUOUS
 62
             7
100
AcDbLine
 10
-62.70000000000059
 20
-42.63954021898871
 11
-62.70000000000059
 21
-46.03954021898653
  0
LINE
  5
AD
100
AcDbEntity
  8
1
  6
CONTINUOUS
 62
             7
100
AcDbLine
 10
-62.09999999999837
 20
-45.51111490647281
 11
-62.09999999999837
 21
-42.11111490647499
  0
LINE
  5
AC
100
AcDbEntity
  8
1
  6
CONTINUOUS
 62
             7
100
AcDbLine
 10
-52.49999999999987
 20
-47.70885645304997
 11
-62.09999999999837
 21
-47.70885645304997
  0
LINE
  5
AB
100
AcDbEntity
  8
1
  6
CONTINUOUS
 62
             7
100
AcDbLine
 10
-52.49999999999987
 20
-46.03954021898653
 11
-52.49999999999987
 21
-47.70885645304997
  0
LINE
  5
AA
100
AcDbEntity
  8
1
  6
CONTINUOUS
 62
             7
100
AcDbLine
 10
-52.49999999999987
 20
-53.90291569520968
 11
-62.70000000000059
 21
-53.90291569520968
  0
LINE
  5
A9
100
AcDbEntity
  8
1
  6
CONTINUOUS
 62
             7
100
AcDbLine
 10
-52.49999999999987
 20
-53.59782919878171
 11
-52.49999999999987
 21
-53.90291569520968
  0
LINE
  5
A8
100
AcDbEntity
  8
1
  6
CONTINUOUS
 62
             7
100
AcDbLine
 10
-52.49999999999987
 20
-46.03954021898653
 11
-62.70000000000059
 21
-46.03954021898653
  0
LINE
  5
A7
100
AcDbEntity
  8
1
  6
CONTINUOUS
 62
             7
100
AcDbLine
 10
-52.49999999999987
 20
-45.51111490647281
 11
-52.49999999999987
 21
-46.03954021898653
  0
LINE
  5
A6
100
AcDbEntity
  8
1
  6
CONTINUOUS
 62
             7
100
AcDbLine
 10
-52.49999999999987
 20
-42.11111490647499
 11
-62.09999999999837
 21
-42.11111490647499
  0
LINE
  5
A5
100
AcDbEntity
  8
1
  6
CONTINUOUS
 62
             7
100
AcDbLine
 10
-52.49999999999987
 20
-41.91685866233137
 11
-52.49999999999987
 21
-42.11111490647499
  0
LINE
  5
A4
100
AcDbEntity
  8
1
  6
CONTINUOUS
 62
             7
100
AcDbLine
 10
-62.70000000000059
 20
-41.91685866233137
 11
-62.70000000000059
 21
-41.5999999823548
  0
LINE
  5
A3
100
AcDbEntity
  8
1
  6
CONTINUOUS
 62
             7
100
AcDbLine
 10
-52.49999999999987
 20
-41.91685866233137
 11
-62.70000000000059
 21
-41.91685866233137
  0
LINE
  5
A2
100
AcDbEntity
  8
1
  6
CONTINUOUS
 62
             7
100
AcDbLine
 10
-52.49999999999987
 20
-41.30668566947542
 11
-52.49999999999987
 21
-41.91685866233137
  0
LINE
  5
A1
100
AcDbEntity
  8
1
  6
CONTINUOUS
 62
             7
100
AcDbLine
 10
-52.49999999999987
 20
-45.51111490647281
 11
-62.09999999999837
 21
-45.51111490647281
  0
LINE
  5
A0
100
AcDbEntity
  8
1
  6
CONTINUOUS
 62
             7
100
AcDbLine
 10
-52.49999999999987
 20
-42.11111490647499
 11
-52.49999999999987
 21
-45.51111490647281
  0
LINE
  5
9F
100
AcDbEntity
  8
1
  6
CONTINUOUS
 62
             7
100
AcDbLine
 10
-62.70000000000059
 20
-46.03954021898653
 11
-62.09999999999837
 21
-45.51111490647281
  0
LINE
  5
9E
100
AcDbEntity
  8
1
  6
CONTINUOUS
 62
             7
100
AcDbLine
 10
-62.70000000000059
 20
-42.63954021898871
 11
-62.09999999999837
 21
-42.11111490647499
  0
LINE
  5
9D
100
AcDbEntity
  8
1
  6
CONTINUOUS
 62
             7
100
AcDbLine
 10
-62.09999999999837
 20
-45.51111490647281
 11
-62.09999999999837
 21
-42.11111490647499
  0
LINE
  5
9C
100
AcDbEntity
  8
1
  6
CONTINUOUS
 62
             7
100
AcDbLine
 10
-62.70000000000059
 20
-53.90291569520968
 11
-62.09999999999837
 21
-53.59782919878171
  0
LINE
  5
9B
100
AcDbEntity
  8
1
  6
CONTINUOUS
 62
             7
100
AcDbLine
 10
-52.49999999999987
 20
-53.59782919878171
 11
-62.09999999999837
 21
-53.59782919878171
  0
LINE
  5
9A
100
AcDbEntity
  8
1
  6
CONTINUOUS
 62
             7
100
AcDbLine
 10
-52.49999999999987
 20
-47.70885645304997
 11
-52.49999999999987
 21
-53.59782919878171
  0
LINE
  5
99
100
AcDbEntity
  8
1
  6
CONTINUOUS
 62
             7
100
AcDbLine
 10
-62.70000000000059
 20
-48.01394294947431
 11
-62.09999999999837
 21
-47.70885645304997
  0
LINE
  5
98
100
AcDbEntity
  8
1
  6
CONTINUOUS
 62
             7
100
AcDbLine
 10
-62.09999999999837
 20
-41.30668566947542
 11
-52.49999999999987
 21
-41.30668566947542
  0
LINE
  5
97
100
AcDbEntity
  8
1
  6
CONTINUOUS
 62
             7
100
AcDbLine
 10
-52.49999999999987
 20
-40.99999998235261
 11
-52.49999999999987
 21
-41.30668566947542
  0
LINE
  5
96
100
AcDbEntity
  8
1
  6
CONTINUOUS
 62
             7
100
AcDbLine
 10
-62.70000000000059
 20
-41.91685866233137
 11
-62.09999999999837
 21
-41.30668566947542
  0
LINE
  5
95
100
AcDbEntity
  8
1
  6
CONTINUOUS
 62
             7
100
AcDbLine
 10
-62.09999999999837
 20
-41.30668566947542
 11
-62.09999999999837
 21
-40.99999998235261
  0
LINE
  5
94
100
AcDbEntity
  8
1
  6
CONTINUOUS
 62
             7
100
AcDbLine
 10
-49.99999999999987
 20
-53.75580267598752
 11
-49.99999999999987
 21
-80.14999998235771
  0
LINE
  5
93
100
AcDbEntity
  8
1
  6
CONTINUOUS
 62
             7
100
AcDbLine
 10
-52.49999999999987
 20
-59.99999998235262
 11
-52.49999999999987
 21
-63.39999998235771
  0
LINE
  5
92
100
AcDbEntity
  8
1
  6
CONTINUOUS
 62
             7
100
AcDbLine
 10
-67.50000000000347
 20
-59.99999998235262
 11
-67.50000000000347
 21
-77.39999998235771
  0
LINE
  5
91
100
AcDbEntity
  8
1
  6
CONTINUOUS
 62
             7
100
AcDbLine
 10
-51.99999999999987
 20
-80.14999998235771
 11
-49.99999999999987
 21
-80.14999998235771
  0
LINE
  5
90
100
AcDbEntity
  8
1
  6
CONTINUOUS
 62
             7
100
AcDbLine
 10
-52.49999999999987
 20
-78.99999998235262
 11
-62.09999999999837
 21
-78.99999998235262
  0
LINE
  5
8F
100
AcDbEntity
  8
1
  6
CONTINUOUS
 62
             7
100
AcDbLine
 10
-52.49999999999987
 20
-78.99999998235262
 11
-52.49999999999987
 21
-79.64999998235771
  0
LINE
  5
8E
100
AcDbEntity
  8
1
  6
CONTINUOUS
 62
             7
100
AcDbLine
 10
-62.70000000000059
 20
-78.39999998235771
 11
-66.50000000000347
 21
-78.39999998235771
  0
LINE
  5
8D
100
AcDbEntity
  8
1
  6
CONTINUOUS
 62
             7
100
AcDbLine
 10
-62.70000000000059
 20
-59.99999998235262
 11
-62.70000000000059
 21
-63.39999998235771
  0
LINE
  5
8C
100
AcDbEntity
  8
1
  6
CONTINUOUS
 62
             7
100
AcDbLine
 10
-52.49999999999987
 20
-63.39999998235771
 11
-52.49999999999987
 21
-66.09708426950283
  0
LINE
  5
8B
100
AcDbEntity
  8
1
  6
CONTINUOUS
 62
             7
100
AcDbLine
 10
-62.09999999999837
 20
-78.99999998235262
 11
-62.70000000000059
 21
-78.39999998235771
  0
LINE
  5
8A
100
AcDbEntity
  8
1
  6
CONTINUOUS
 62
             7
100
AcDbLine
 10
-62.70000000000059
 20
-63.39999998235771
 11
-62.09999999999837
 21
-63.39999998235771
  0
LINE
  5
89
100
AcDbEntity
  8
1
  6
CONTINUOUS
 62
             7
100
AcDbLine
 10
-62.09999999999837
 20
-63.39999998235771
 11
-62.09999999999837
 21
-59.99999998235262
  0
LINE
  5
88
100
AcDbEntity
  8
1
  6
CONTINUOUS
 62
             7
100
AcDbLine
 10
-62.09999999999837
 20
-63.39999998235771
 11
-52.49999999999987
 21
-63.39999998235771
  0
LINE
  5
87
100
AcDbEntity
  8
1
  6
CONTINUOUS
 62
             7
100
AcDbLine
 10
-62.70000000000059
 20
-66.09708426950283
 11
-62.70000000000059
 21
-71.98605701523093
  0
LINE
  5
86
100
AcDbEntity
  8
1
  6
CONTINUOUS
 62
             7
100
AcDbLine
 10
-62.09999999999837
 20
-72.2911435116589
 11
-62.09999999999837
 21
-66.40217076592353
  0
LINE
  5
85
100
AcDbEntity
  8
1
  6
CONTINUOUS
 62
             7
100
AcDbLine
 10
-62.70000000000059
 20
-73.96045974571869
 11
-62.70000000000059
 21
-77.3604597457238
  0
LINE
  5
84
100
AcDbEntity
  8
1
  6
CONTINUOUS
 62
             7
100
AcDbLine
 10
-62.09999999999837
 20
-77.88888505823388
 11
-62.09999999999837
 21
-74.48888505823243
  0
LINE
  5
83
100
AcDbEntity
  8
1
  6
CONTINUOUS
 62
             7
100
AcDbLine
 10
-62.09999999999837
 20
-72.2911435116589
 11
-52.49999999999987
 21
-72.2911435116589
  0
LINE
  5
82
100
AcDbEntity
  8
1
  6
CONTINUOUS
 62
             7
100
AcDbLine
 10
-52.49999999999987
 20
-72.2911435116589
 11
-52.49999999999987
 21
-73.96045974571869
  0
LINE
  5
81
100
AcDbEntity
  8
1
  6
CONTINUOUS
 62
             7
100
AcDbLine
 10
-62.70000000000059
 20
-66.09708426950283
 11
-52.49999999999987
 21
-66.09708426950283
  0
LINE
  5
80
100
AcDbEntity
  8
1
  6
CONTINUOUS
 62
             7
100
AcDbLine
 10
-52.49999999999987
 20
-66.09708426950283
 11
-52.49999999999987
 21
-66.40217076592353
  0
LINE
  5
7F
100
AcDbEntity
  8
1
  6
CONTINUOUS
 62
             7
100
AcDbLine
 10
-62.70000000000059
 20
-73.96045974571869
 11
-52.49999999999987
 21
-73.96045974571869
  0
LINE
  5
7E
100
AcDbEntity
  8
1
  6
CONTINUOUS
 62
             7
100
AcDbLine
 10
-52.49999999999987
 20
-73.96045974571869
 11
-52.49999999999987
 21
-74.48888505823243
  0
LINE
  5
7D
100
AcDbEntity
  8
1
  6
CONTINUOUS
 62
             7
100
AcDbLine
 10
-62.09999999999837
 20
-77.88888505823388
 11
-52.49999999999987
 21
-77.88888505823388
  0
LINE
  5
7C
100
AcDbEntity
  8
1
  6
CONTINUOUS
 62
             7
100
AcDbLine
 10
-52.49999999999987
 20
-77.88888505823388
 11
-52.49999999999987
 21
-78.08314130237748
  0
LINE
  5
7B
100
AcDbEntity
  8
1
  6
CONTINUOUS
 62
             7
100
AcDbLine
 10
-62.70000000000059
 20
-78.39999998235771
 11
-62.70000000000059
 21
-78.08314130237748
  0
LINE
  5
7A
100
AcDbEntity
  8
1
  6
CONTINUOUS
 62
             7
100
AcDbLine
 10
-62.70000000000059
 20
-78.08314130237748
 11
-52.49999999999987
 21
-78.08314130237748
  0
LINE
  5
79
100
AcDbEntity
  8
1
  6
CONTINUOUS
 62
             7
100
AcDbLine
 10
-52.49999999999987
 20
-78.08314130237748
 11
-52.49999999999987
 21
-78.69331429522981
  0
LINE
  5
78
100
AcDbEntity
  8
1
  6
CONTINUOUS
 62
             7
100
AcDbLine
 10
-62.09999999999837
 20
-74.48888505823243
 11
-52.49999999999987
 21
-74.48888505823243
  0
LINE
  5
77
100
AcDbEntity
  8
1
  6
CONTINUOUS
 62
             7
100
AcDbLine
 10
-52.49999999999987
 20
-74.48888505823243
 11
-52.49999999999987
 21
-77.88888505823388
  0
LINE
  5
76
100
AcDbEntity
  8
1
  6
CONTINUOUS
 62
             7
100
AcDbLine
 10
-62.09999999999837
 20
-74.48888505823243
 11
-62.70000000000059
 21
-73.96045974571869
  0
LINE
  5
75
100
AcDbEntity
  8
1
  6
CONTINUOUS
 62
             7
100
AcDbLine
 10
-62.09999999999837
 20
-77.88888505823388
 11
-62.70000000000059
 21
-77.3604597457238
  0
LINE
  5
74
100
AcDbEntity
  8
1
  6
CONTINUOUS
 62
             7
100
AcDbLine
 10
-62.09999999999837
 20
-77.88888505823388
 11
-62.09999999999837
 21
-74.48888505823243
  0
LINE
  5
73
100
AcDbEntity
  8
1
  6
CONTINUOUS
 62
             7
100
AcDbLine
 10
-62.09999999999837
 20
-66.40217076592353
 11
-62.70000000000059
 21
-66.09708426950283
  0
LINE
  5
72
100
AcDbEntity
  8
1
  6
CONTINUOUS
 62
             7
100
AcDbLine
 10
-62.09999999999837
 20
-66.40217076592353
 11
-52.49999999999987
 21
-66.40217076592353
  0
LINE
  5
71
100
AcDbEntity
  8
1
  6
CONTINUOUS
 62
             7
100
AcDbLine
 10
-52.49999999999987
 20
-66.40217076592353
 11
-52.49999999999987
 21
-72.2911435116589
  0
LINE
  5
70
100
AcDbEntity
  8
1
  6
CONTINUOUS
 62
             7
100
AcDbLine
 10
-62.09999999999837
 20
-72.2911435116589
 11
-62.70000000000059
 21
-71.98605701523093
  0
LINE
  5
6F
100
AcDbEntity
  8
1
  6
CONTINUOUS
 62
             7
100
AcDbLine
 10
-52.49999999999987
 20
-78.69331429522981
 11
-62.09999999999837
 21
-78.69331429522981
  0
LINE
  5
6E
100
AcDbEntity
  8
1
  6
CONTINUOUS
 62
             7
100
AcDbLine
 10
-52.49999999999987
 20
-78.69331429522981
 11
-52.49999999999987
 21
-78.99999998235262
  0
LINE
  5
6D
100
AcDbEntity
  8
1
  6
CONTINUOUS
 62
             7
100
AcDbLine
 10
-62.09999999999837
 20
-78.69331429522981
 11
-62.70000000000059
 21
-78.08314130237748
  0
LINE
  5
6C
100
AcDbEntity
  8
1
  6
CONTINUOUS
 62
             7
100
AcDbLine
 10
-62.09999999999837
 20
-78.99999998235262
 11
-62.09999999999837
 21
-78.69331429522981
  0
LINE
  5
6B
100
AcDbEntity
  8
1
  6
CONTINUOUS
 62
             7
100
AcDbLine
 10
-49.99999999999987
 20
-39.8499999823548
 11
-49.99999999999987
 21
-53.75580267598752
  0
ENDBLK
  5
C3
100
AcDbEntity
  8
0
100
AcDbBlockEnd
  0
BLOCK
  5
2A
100
AcDbEntity
  8
0
100
AcDbBlockBegin
  2
HL522_ABGANGSBOGEN_DN40_50
 70
             0
 10
-31.04180980539027
 20
-48.48291423503981
 30
0.0
  3
HL522_ABGANGSBOGEN_DN40_50
  1

  0
SPLINE
  5
106
100
AcDbEntity
  8
0
  6
CONTINUOUS
 62
             7
100
AcDbSpline
210
0.0
220
0.0
230
1.0
 70
             0
 71
             3
 72
            12
 73
             8
 74
             7
 42
0.00000000001
 43
0.00000000001
 44
0.00000000001
 40
0.0
 40
0.0
 40
0.0
 40
0.0
 40
1.0
 40
1.0
 40
2.0
 40
2.0
 40
3.0
 40
3.0
 40
3.0
 40
3.0
 10
152.28552132104809
 20
-40.495006539909767
 30
0.0
 10
152.28552132104809
 20
-40.466920893509382
 30
0.0
 10
152.26241784544089
 20
-40.439329423174208
 30
0.0
 10
152.17465020043969
 20
-40.390683656645322
 30
0.0
 10
152.11153033124941
 20
-40.370485298504448
 30
0.0
 10
151.95951231084669
 20
-40.342399652104064
 30
0.0
 10
151.8732889660493
 20
-40.33500653990977
 30
0.0
 10
151.78552132104809
 20
-40.335006539909763
 30
0.0
 11
152.28552132104809
 21
-40.495006539909767
 31
0.0
 11
152.26848410543192
 21
-40.453595503733787
 31
0.0
 11
152.21853402294028
 21
-40.415006539909768
 31
0.0
 11
152.13907461738194
 21
-40.381869485082923
 31
0.0
 11
152.03552132104807
 21
-40.356442475304256
 31
0.0
 11
151.914930809098
 21
-40.340458448906944
 31
0.0
 11
151.78552132104809
 21
-40.335006539909763
 31
0.0
  0
SPLINE
  5
105
100
AcDbEntity
  8
0
  6
CONTINUOUS
 62
             7
100
AcDbSpline
210
0.0
220
0.0
230
1.0
 70
             0
 71
             3
 72
            12
 73
             8
 74
             7
 42
0.00000000001
 43
0.00000000001
 44
0.00000000001
 40
0.0
 40
0.0
 40
0.0
 40
0.0
 40
1.0
 40
1.0
 40
2.0
 40
2.0
 40
3.0
 40
3.0
 40
3.0
 40
3.0
 10
152.28552132104809
 20
-57.455006539909732
 30
0.0
 10
152.28552132104809
 20
-57.483092186310117
 30
0.0
 10
152.26241784544089
 20
-57.510683656645277
 30
0.0
 10
152.17465020043969
 20
-57.559329423174177
 30
0.0
 10
152.11153033124941
 20
-57.579527781315051
 30
0.0
 10
151.95951231084669
 20
-57.607613427715442
 30
0.0
 10
151.8732889660493
 20
-57.615006539909743
 30
0.0
 10
151.78552132104809
 20
-57.615006539909743
 30
0.0
 11
152.28552132104809
 21
-57.455006539909732
 31
0.0
 11
152.26848410543192
 21
-57.496417576085705
 31
0.0
 11
152.21853402294028
 21
-57.53500653990973
 31
0.0
 11
152.13907461738194
 21
-57.568143594736583
 31
0.0
 11
152.03552132104807
 21
-57.59357060451525
 31
0.0
 11
151.914930809098
 21
-57.609554630912569
 31
0.0
 11
151.78552132104809
 21
-57.615006539909743
 31
0.0
  0
SPLINE
  5
104
100
AcDbEntity
  8
0
  6
CONTINUOUS
 62
             7
100
AcDbSpline
210
0.0
220
0.0
230
1.0
 70
             0
 71
             3
 72
            38
 73
            34
 74
            25
 42
0.00000000001
 43
0.00000000001
 44
0.00000000001
 40
68.574173898359632
 40
68.574173898359632
 40
68.574173898359632
 40
68.574173898359632
 40
68.884509193328
 40
68.884509193328
 40
68.884509193328
 40
69.80066369198498
 40
69.80066369198498
 40
69.80066369198498
 40
72.631363749746129
 40
72.631363749746129
 40
72.631363749746129
 40
80.468433790195874
 40
80.468433790195874
 40
80.468433790195874
 40
91.921605798535893
 40
91.921605798535893
 40
91.921605798535893
 40
104.4103301484238
 40
104.4103301484238
 40
104.4103301484238
 40
111.36261383467161
 40
111.36261383467161
 40
111.36261383467161
 40
114.1098113994327
 40
114.1098113994327
 40
114.1098113994327
 40
115.35192573358781
 40
115.35192573358781
 40
115.35192573358781
 40
115.6757441372739
 40
115.6757441372739
 40
115.6757441372739
 40
115.7850019707604
 40
115.7850019707604
 40
115.7850019707604
 40
115.7850019707604
 10
95.102350361692942
 20
-33.440027558894201
 30
0.0
 10
95.059567481483199
 20
-33.534210980556523
 30
0.0
 10
95.016741561365791
 20
-33.628374821456887
 30
0.0
 10
94.973872585435927
 20
-33.722519080479877
 30
0.0
 10
94.821986127936796
 20
-34.056075870366293
 30
0.0
 10
94.692121579558233
 20
-34.339819084830602
 30
0.0
 10
94.593066922348484
 20
-34.555781175418943
 30
0.0
 10
94.188827551362266
 20
-35.437116612999141
 30
0.0
 10
93.791601783871442
 20
-36.292948625431379
 30
0.0
 10
93.401748731098451
 20
-37.123578894308039
 30
0.0
 10
92.210797570006804
 20
-39.661048015352833
 30
0.0
 10
91.068594307849068
 20
-42.006059399752182
 30
0.0
 10
89.978494120333593
 20
-44.173270788859931
 30
0.0
 10
88.266966466659142
 20
-47.575932549950153
 30
0.0
 10
86.469274821407637
 20
-50.966941893574337
 30
0.0
 10
84.591251522245415
 20
-54.279337708747427
 30
0.0
 10
82.494075533088832
 20
-57.978267840904252
 30
0.0
 10
80.313788281767117
 20
-61.549096125612053
 30
0.0
 10
78.054915595889696
 20
-64.918438038641256
 30
0.0
 10
76.782943381071348
 20
-66.815715969527076
 30
0.0
 10
75.439266521143907
 20
-68.718908450398743
 30
0.0
 10
74.029232248107505
 20
-70.585764369042664
 30
0.0
 10
73.511241658074368
 20
-71.27157308823277
 30
0.0
 10
72.94833014965279
 20
-72.000105285054858
 30
0.0
 10
72.345271572318751
 20
-72.756258223241929
 30
0.0
 10
72.067285328816553
 20
-73.104814935143807
 30
0.0
 10
71.806484057888767
 20
-73.426997954185424
 30
0.0
 10
71.564624152377093
 20
-73.722395754791791
 30
0.0
 10
71.487913840350458
 20
-73.816086593744856
 30
0.0
 10
71.418946826776306
 20
-73.899952414021243
 30
0.0
 10
71.359052340799096
 20
-73.97259269890786
 30
0.0
 10
71.335883498010773
 20
-74.000691969035614
 30
0.0
 10
71.312698110178872
 20
-74.028777580808537
 30
0.0
 10
71.289496177303377
 20
-74.056849534226586
 30
0.0
 11
95.102350361692942
 21
-33.440027558894201
 31
0.0
 11
95.038143759459459
 21
-33.58128800567679
 31
0.0
 11
94.973872585435927
 21
-33.722519080479877
 31
0.0
 11
94.763657828783693
 21
-34.18324814018618
 31
0.0
 11
94.593066922348484
 21
-34.555781175418943
 31
0.0
 11
93.992012957393484
 21
-35.858694473127322
 31
0.0
 11
93.401748731098451
 21
-37.123578894308039
 31
0.0
 11
92.227171135418416
 21
-39.597438315780416
 31
0.0
 11
91.085837733629532
 21
-41.946249855345584
 31
0.0
 11
89.978494120333593
 21
-44.173270788859931
 31
0.0
 11
87.347308688347425
 21
-49.260153978522624
 31
0.0
 11
84.591251522245415
 21
-54.279337708747427
 31
0.0
 11
82.466539402278599
 21
-57.932849279746073
 31
0.0
 11
80.287425513670428
 21
-61.484651947061039
 31
0.0
 11
78.054915595889696
 21
-64.918438038641256
 31
0.0
 11
76.093847193830371
 21
-67.763509458432665
 31
0.0
 11
74.029232248107505
 21
-70.585764369042664
 31
0.0
 11
73.21915240545097
 21
-71.644632214018444
 31
0.0
 11
72.345271572318751
 21
-72.756258223241929
 31
0.0
 11
71.941400485601477
 21
-73.259261580752693
 31
0.0
 11
71.564624152377093
 21
-73.722395754791791
 31
0.0
 11
71.455532311819553
 21
-73.855388184624758
 31
0.0
 11
71.359052340799096
 21
-73.97259269890786
 31
0.0
 11
71.324286667833931
 21
-74.014731360333357
 31
0.0
 11
71.289496177303377
 21
-74.056849534226586
 31
0.0
  0
SPLINE
  5
103
100
AcDbEntity
  8
0
  6
CONTINUOUS
 62
             7
100
AcDbSpline
210
0.0
220
0.0
230
1.0
 70
             0
 71
             3
 72
            17
 73
            13
 74
             9
 42
0.00000000001
 43
0.00000000001
 44
0.00000000001
 40
0.0
 40
0.0
 40
0.0
 40
0.0
 40
0.0719322878951743
 40
0.0719322878951743
 40
0.0719322878951743
 40
0.1450186605167646
 40
0.1450186605167646
 40
0.1450186605167646
 40
0.2180915605133614
 40
0.2180915605133614
 40
0.2180915605133614
 40
0.2900269364277284
 40
0.2900269364277284
 40
0.2900269364277284
 40
0.2900269364277284
 10
71.563621547534495
 20
-73.975006539903063
 30
0.0
 10
71.543322263025928
 20
-73.975006539902907
 30
0.0
 10
71.519096774736198
 20
-73.976275856193013
 30
0.0
 10
71.49192862870683
 20
-73.980255080378754
 30
0.0
 10
71.467820662264486
 20
-73.983786090666797
 30
0.0
 10
71.443967768927436
 20
-73.989074413972943
 30
0.0
 10
71.420617492993216
 20
-73.996046143497352
 30
0.0
 10
71.400767908050796
 20
-74.001972666069534
 30
0.0
 10
71.377491494199518
 20
-74.01024686871591
 30
0.0
 10
71.352334288537151
 20
-74.021931964565397
 30
0.0
 10
71.330582761670982
 20
-74.032035180308625
 30
0.0
 10
71.309558028131704
 20
-74.043697865807289
 30
0.0
 10
71.289496177303377
 20
-74.056849534226586
 30
0.0
 11
71.563621547534495
 21
-73.975006539903063
 31
0.0
 11
71.530350911190965
 21
-73.976138601071199
 31
0.0
 11
71.49192862870683
 21
-73.980255080378754
 31
0.0
 11
71.45598892690947
 21
-73.986860342224418
 31
0.0
 11
71.420617492993216
 21
-73.996046143497352
 31
0.0
 11
71.388466248535167
 21
-74.006829589052387
 31
0.0
 11
71.352334288537151
 21
-74.021931964565397
 31
0.0
 11
71.320281604406077
 21
-74.038247579642459
 31
0.0
 11
71.289496177303377
 21
-74.056849534226586
 31
0.0
  0
SPLINE
  5
102
100
AcDbEntity
  8
0
  6
CONTINUOUS
 62
             7
100
AcDbSpline
210
0.0
220
0.0
230
1.0
 70
             0
 71
             3
 72
            29
 73
            25
 74
            17
 42
0.00000000001
 43
0.00000000001
 44
0.00000000001
 40
1.010839592849311
 40
1.010839592849311
 40
1.010839592849311
 40
1.010839592849311
 40
2.1226142450197978
 40
2.1226142450197978
 40
2.1226142450197978
 40
3.1066263614053078
 40
3.1066263614053078
 40
3.1066263614053078
 40
3.9566085318959292
 40
3.9566085318959292
 40
3.9566085318959292
 40
4.6695455539102024
 40
4.6695455539102024
 40
4.6695455539102024
 40
5.2410363830095337
 40
5.2410363830095337
 40
5.2410363830095337
 40
5.6694792685486748
 40
5.6694792685486748
 40
5.6694792685486748
 40
5.9643754412982197
 40
5.9643754412982197
 40
5.9643754412982197
 40
6.1621799923229457
 40
6.1621799923229457
 40
6.1621799923229457
 40
6.1621799923229457
 10
150.28552132104809
 20
-69.075006539909765
 30
0.0
 10
150.28552132104809
 20
-69.520571857634749
 30
0.0
 10
150.29844096527961
 20
-69.900048056023977
 30
0.0
 10
150.31243206672059
 20
-70.186373169169954
 30
0.0
 10
150.32554596400811
 20
-70.454746473475893
 30
0.0
 10
150.34708327866201
 20
-70.79436650760573
 30
0.0
 10
150.38369276622251
 20
-71.167728448224324
 30
0.0
 10
150.41795407857691
 20
-71.517142518762626
 30
0.0
 10
150.4558392317582
 20
-71.79842902311583
 30
0.0
 10
150.48860520517869
 20
-72.011130915653013
 30
0.0
 10
150.52059061505079
 20
-72.218765742369769
 30
0.0
 10
150.5635725243275
 20
-72.464084903702059
 30
0.0
 10
150.6196554113823
 20
-72.711811700533531
 30
0.0
 10
150.67404121670509
 20
-72.952042224553395
 30
0.0
 10
150.72642615202059
 20
-73.131276064425037
 30
0.0
 10
150.77047613245941
 20
-73.262861911684624
 30
0.0
 10
150.8142432140879
 20
-73.393602685251665
 30
0.0
 10
150.86923392923461
 20
-73.535404936372686
 30
0.0
 10
150.9349497888519
 20
-73.658089098869482
 30
0.0
 10
150.98223291701379
 20
-73.746361412623827
 30
0.0
 10
151.04039577252959
 20
-73.834684547673277
 30
0.0
 10
151.10801041469631
 20
-73.895625927734102
 30
0.0
 10
151.16657290437439
 20
-73.948408562181498
 30
0.0
 10
151.22596952321859
 20
-73.975006539909771
 30
0.0
 10
151.28552132104809
 20
-73.975006539909771
 30
0.0
 11
150.28552132104809
 21
-69.075006539909765
 31
0.0
 11
150.29373003084399
 21
-69.690404931256992
 31
0.0
 11
150.31243206672059
 21
-70.186373169169954
 31
0.0
 11
150.33925157011916
 21
-70.637680070079881
 31
0.0
 11
150.38369276622251
 21
-71.167728448224324
 31
0.0
 11
150.43670973780078
 21
-71.640696748689095
 31
0.0
 11
150.48860520517869
 21
-72.011130915653013
 31
0.0
 11
150.54509375433699
 21
-72.346436819300251
 31
0.0
 11
150.6196554113823
 21
-72.711811700533531
 31
0.0
 11
150.69894170625233
 21
-73.028078559894183
 31
0.0
 11
150.77047613245941
 21
-73.262861911684624
 31
0.0
 11
150.84448216890985
 21
-73.463496734428404
 31
0.0
 11
150.9349497888519
 21
-73.658089098869482
 31
0.0
 11
151.0138557840223
 21
-73.787106613436862
 31
0.0
 11
151.10801041469631
 21
-73.895625927734102
 31
0.0
 11
151.19639487731538
 21
-73.955109721739689
 31
0.0
 11
151.28552132104809
 21
-73.975006539909771
 31
0.0
  0
SPLINE
  5
101
100
AcDbEntity
  8
0
  6
CONTINUOUS
 62
             7
100
AcDbSpline
210
0.0
220
0.0
230
1.0
 70
             0
 71
             3
 72
            38
 73
            34
 74
            27
 42
0.00000000001
 43
0.00000000001
 44
0.00000000001
 40
68.574175275498291
 40
68.574175275498291
 40
68.574175275498291
 40
68.574175275498291
 40
68.881991733843194
 40
68.881991733843194
 40
68.881991733843194
 40
69.790699938295546
 40
69.790699938295546
 40
69.790699938295546
 40
72.58839016884491
 40
72.58839016884491
 40
72.58839016884491
 40
80.305097264686424
 40
80.305097264686424
 40
80.305097264686424
 40
91.684991880288578
 40
91.684991880288578
 40
91.684991880288578
 40
104.135637832436
 40
104.135637832436
 40
104.135637832436
 40
110.965573749594
 40
110.965573749594
 40
110.965573749594
 40
113.6890605908802
 40
113.6890605908802
 40
113.6890605908802
 40
114.9360163953489
 40
114.9360163953489
 40
114.9360163953489
 40
115.2612823063921
 40
115.2612823063921
 40
115.2612823063921
 40
115.37104751160361
 40
115.37104751160361
 40
115.37104751160361
 40
115.37104751160361
 10
95.60112531223335
 20
-33.975006539909756
 30
0.0
 10
95.557815918696463
 20
-34.06802404447464
 30
0.0
 10
95.514463188828884
 20
-34.161020961595149
 30
0.0
 10
95.4710671226306
 20
-34.253997676451988
 30
0.0
 10
95.316760148331667
 20
-34.584602655351723
 30
0.0
 10
95.185175111426659
 20
-34.865077565083297
 30
0.0
 10
95.085590485992256
 20
-35.076893758267182
 30
0.0
 10
94.677752251234992
 20
-35.944364434029517
 30
0.0
 10
94.27712786322607
 20
-36.786444827016027
 30
0.0
 10
93.884086568215153
 20
-37.603436862082688
 30
0.0
 10
92.738114341072588
 20
-39.985502547972203
 30
0.0
 10
91.592139001175639
 20
-42.288297496955259
 30
0.0
 10
90.4461729934564
 20
-44.511802261858691
 30
0.0
 10
88.627772266312704
 20
-48.040024437798159
 30
0.0
 10
86.809321555906351
 20
-51.368737491810883
 30
0.0
 10
84.990864853265236
 20
-54.497844001622681
 30
0.0
 10
82.778972070353149
 20
-58.303955027507207
 30
0.0
 10
80.567074703401062
 20
-61.814741729612798
 30
0.0
 10
78.355171625712288
 20
-65.030199069278964
 30
0.0
 10
76.989975190528611
 20
-67.01479366651796
 30
0.0
 10
75.649399475657276
 20
-68.851091818028536
 30
0.0
 10
74.334179996691788
 20
-70.550206895778643
 30
0.0
 10
73.746378488500341
 20
-71.309580081216836
 30
0.0
 10
73.18097482484653
 20
-72.019163982544001
 30
0.0
 10
72.639312712848167
 20
-72.681985978784894
 30
0.0
 10
72.351299191317437
 20
-73.034422844972681
 30
0.0
 10
72.085224333225526
 20
-73.3550063284316
 30
0.0
 10
71.844042824572824
 20
-73.642417191902041
 30
0.0
 10
71.764305399422909
 20
-73.737438581979887
 30
0.0
 10
71.69378387283416
 20
-73.821093388522257
 30
0.0
 10
71.634523519538689
 20
-73.891213278592573
 30
0.0
 10
71.610906215080561
 20
-73.919158484793144
 30
0.0
 10
71.587272224412501
 20
-73.94708957189664
 30
0.0
 10
71.563621547534495
 20
-73.975006539903063
 30
0.0
 11
95.60112531223335
 21
-33.975006539909756
 31
0.0
 11
95.536128719679994
 21
-34.114517404321383
 31
0.0
 11
95.4710671226306
 21
-34.253997676451988
 31
0.0
 11
95.257807923487206
 21
-34.709991512003022
 31
0.0
 11
95.085590485992256
 21
-35.076893758267182
 31
0.0
 11
94.479289674698819
 21
-36.359094800435813
 31
0.0
 11
93.884086568215153
 21
-37.603436862082688
 31
0.0
 11
92.165127448552028
 21
-41.117079907340461
 31
0.0
 11
90.4461729934564
 21
-44.511802261858691
 31
0.0
 11
88.627757234522477
 21
-47.97351778892353
 31
0.0
 11
86.809317929197448
 21
-51.302205585309636
 31
0.0
 11
84.990864853265236
 21
-54.497844001622681
 31
0.0
 11
83.331944388969021
 21
-57.297053881598451
 31
0.0
 11
81.673022100030011
 21
-59.985516667782711
 31
0.0
 11
80.014097880820373
 21
-62.563231887801024
 31
0.0
 11
78.355171625712288
 21
-65.030199069278964
 31
0.0
 11
76.99820933861767
 21
-66.965773124310999
 31
0.0
 11
75.65782431297427
 21
-68.804952520405863
 31
0.0
 11
74.334179996691788
 21
-70.550206895778643
 31
0.0
 11
73.46944408119758
 21
-71.652303133230774
 31
0.0
 11
72.639312712848167
 21
-72.681985978784894
 31
0.0
 11
72.22411576388123
 21
-73.186586336362467
 31
0.0
 11
71.844042824572824
 21
-73.642417191902041
 31
0.0
 11
71.731604270110338
 21
-73.776153297750128
 31
0.0
 11
71.634523519538689
 21
-73.891213278592573
 31
0.0
 11
71.599085048194056
 21
-73.933120498570617
 31
0.0
 11
71.563621547534495
 21
-73.975006539903063
 31
0.0
  0
SPLINE
  5
100
100
AcDbEntity
  8
0
  6
CONTINUOUS
 62
             7
100
AcDbSpline
210
0.0
220
0.0
230
1.0
 70
             0
 71
             3
 72
            29
 73
            25
 74
            17
 42
0.00000000001
 43
0.00000000001
 44
0.00000000001
 40
0.0
 40
0.0
 40
0.0
 40
0.0
 40
0.1043859763318052
 40
0.1043859763318052
 40
0.1043859763318052
 40
0.2144294340235552
 40
0.2144294340235552
 40
0.2144294340235552
 40
0.3081163447930094
 40
0.3081163447930094
 40
0.3081163447930094
 40
0.4060829742557247
 40
0.4060829742557247
 40
0.4060829742557247
 40
0.503725185662341
 40
0.503725185662341
 40
0.503725185662341
 40
0.5991044664797316
 40
0.5991044664797316
 40
0.5991044664797316
 40
0.706787820916905
 40
0.706787820916905
 40
0.706787820916905
 40
0.8125955208487042
 40
0.8125955208487042
 40
0.8125955208487042
 40
0.8125955208487042
 10
95.102350361692942
 20
-33.440027558894201
 30
0.0
 10
95.099892665709746
 20
-33.475072007789763
 30
0.0
 10
95.101784594435344
 20
-33.509941243810438
 30
0.0
 10
95.107528913440234
 20
-33.544101954660803
 30
0.0
 10
95.112218299518702
 20
-33.571989117918179
 30
0.0
 10
95.120976315362384
 20
-33.60835798507631
 30
0.0
 10
95.13814936206532
 20
-33.649613643599587
 30
0.0
 10
95.150121603016586
 20
-33.678375149521528
 30
0.0
 10
95.164770200909103
 20
-33.706112006044521
 30
0.0
 10
95.181736223534529
 20
-33.732439226394199
 30
0.0
 10
95.199402132752709
 20
-33.75985250379766
 30
0.0
 10
95.219580608342284
 20
-33.785737444857602
 30
0.0
 10
95.241866440180615
 20
-33.809659425613582
 30
0.0
 10
95.26407805463694
 20
-33.833501740203317
 30
0.0
 10
95.288383012698162
 20
-33.855394147045217
 30
0.0
 10
95.314380139141917
 20
-33.874906349937717
 30
0.0
 10
95.339883730488879
 20
-33.894048128931097
 30
0.0
 10
95.36701585107032
 20
-33.910899218749726
 30
0.0
 10
95.395397742641222
 20
-33.925053367419792
 30
0.0
 10
95.434379578004524
 20
-33.944493745161537
 30
0.0
 10
95.469223410331836
 20
-33.955610190431457
 30
0.0
 10
95.496284228009586
 20
-33.962224111536237
 30
0.0
 10
95.530393655272377
 20
-33.97056077983401
 30
0.0
 10
95.56551333032283
 20
-33.975006896954852
 30
0.0
 10
95.60112531223335
 20
-33.975006539909756
 30
0.0
 11
95.102350361692942
 21
-33.440027558894201
 31
0.0
 11
95.101863881946059
 21
-33.492396158544452
 31
0.0
 11
95.107528913440234
 21
-33.544101954660803
 31
0.0
 11
95.118157765018609
 21
-33.591844613405485
 31
0.0
 11
95.13814936206532
 21
-33.649613643599587
 31
0.0
 11
95.158070124672093
 21
-33.691939292086488
 31
0.0
 11
95.181736223534529
 21
-33.732439226394199
 31
0.0
 11
95.210068860875012
 21
-33.772358562246694
 31
0.0
 11
95.241866440180615
 21
-33.809659425613582
 31
0.0
 11
95.276703722665985
 21
-33.843906679662112
 31
0.0
 11
95.314380139141917
 21
-33.874906349937717
 31
0.0
 11
95.35380957830759
 21
-33.901850220049994
 31
0.0
 11
95.395397742641222
 21
-33.925053367419792
 31
0.0
 11
95.450311366957479
 21
-33.948448660716878
 31
0.0
 11
95.496284228009586
 21
-33.962224111536237
 31
0.0
 11
95.548141312128578
 21
-33.971741710226574
 31
0.0
 11
95.60112531223335
 21
-33.975006539909756
 31
0.0
  0
SPLINE
  5
FF
100
AcDbEntity
  8
0
  6
CONTINUOUS
 62
             7
100
AcDbSpline
210
0.0
220
0.0
230
1.0
 70
             0
 71
             3
 72
            12
 73
             8
 74
             7
 42
0.00000000001
 43
0.00000000001
 44
0.00000000001
 40
0.0
 40
0.0
 40
0.0
 40
0.0
 40
1.0
 40
1.0
 40
2.0
 40
2.0
 40
3.0
 40
3.0
 40
3.0
 40
3.0
 10
150.78552132104809
 20
-57.615006539909743
 30
0.0
 10
150.69775367604689
 20
-57.615006539909743
 30
0.0
 10
150.6115303312495
 20
-57.607613427715449
 30
0.0
 10
150.45951231084669
 20
-57.579527781315058
 30
0.0
 10
150.3963924416565
 20
-57.559329423174191
 30
0.0
 10
150.30862479665521
 20
-57.510683656645313
 30
0.0
 10
150.28552132104809
 20
-57.483092186310131
 30
0.0
 10
150.28552132104809
 20
-57.455006539909753
 30
0.0
 11
150.78552132104809
 21
-57.615006539909743
 31
0.0
 11
150.65611183299816
 21
-57.609554630912569
 31
0.0
 11
150.53552132104809
 21
-57.59357060451525
 31
0.0
 11
150.43196802471419
 21
-57.568143594736597
 31
0.0
 11
150.35250861915586
 21
-57.535006539909752
 31
0.0
 11
150.30255853666421
 21
-57.496417576085726
 31
0.0
 11
150.28552132104809
 21
-57.455006539909753
 31
0.0
  0
SPLINE
  5
FE
100
AcDbEntity
  8
0
  6
CONTINUOUS
 62
             7
100
AcDbSpline
210
0.0
220
0.0
230
1.0
 70
             0
 71
             3
 72
            12
 73
             8
 74
             7
 42
0.00000000001
 43
0.00000000001
 44
0.00000000001
 40
0.0
 40
0.0
 40
0.0
 40
0.0
 40
1.0
 40
1.0
 40
2.0
 40
2.0
 40
3.0
 40
3.0
 40
3.0
 40
3.0
 10
150.78552132104809
 20
-40.33500653990977
 30
0.0
 10
150.69775367604689
 20
-40.33500653990977
 30
0.0
 10
150.61153033124941
 20
-40.342399652104064
 30
0.0
 10
150.45951231084669
 20
-40.370485298504448
 30
0.0
 10
150.39639244165639
 20
-40.390683656645322
 30
0.0
 10
150.30862479665521
 20
-40.439329423174208
 30
0.0
 10
150.28552132104809
 20
-40.466920893509382
 30
0.0
 10
150.28552132104809
 20
-40.495006539909767
 30
0.0
 11
150.78552132104809
 21
-40.33500653990977
 31
0.0
 11
150.65611183299814
 21
-40.340458448906944
 31
0.0
 11
150.53552132104807
 21
-40.356442475304256
 31
0.0
 11
150.43196802471414
 21
-40.381869485082916
 31
0.0
 11
150.3525086191558
 21
-40.415006539909768
 31
0.0
 11
150.30255853666421
 21
-40.453595503733787
 31
0.0
 11
150.28552132104809
 21
-40.495006539909767
 31
0.0
  0
ARC
  5
FD
100
AcDbEntity
  8
0
  6
CONTINUOUS
 62
             7
100
AcDbCircle
 10
151.78552132104809
 20
-58.47500653990974
 40
0.5
100
AcDbArc
 50
-90.0
 51
0.0
  0
ARC
  5
FC
100
AcDbEntity
  8
0
  6
CONTINUOUS
 62
             7
100
AcDbCircle
 10
151.78552132104809
 20
-39.47500653990976
 40
0.5
100
AcDbArc
 50
0.0
 51
90.0
  0
ARC
  5
FB
100
AcDbEntity
  8
0
  6
CONTINUOUS
 62
             7
100
AcDbCircle
 10
42.23220693268527
 20
-29.73220693268308
 40
52.99999999999965
100
AcDbArc
 50
-93.18341386623131
 51
-56.75291096891912
  0
ARC
  5
FA
100
AcDbEntity
  8
0
  6
CONTINUOUS
 62
             7
100
AcDbCircle
 10
151.28552132104809
 20
-24.97500653990976
 40
0.99999999999999
100
AcDbArc
 50
90.0
 51
180.0
  0
ARC
  5
F9
100
AcDbEntity
  8
0
  6
CONTINUOUS
 62
             7
100
AcDbCircle
 10
150.78552132104809
 20
-58.47500653990974
 40
0.5
100
AcDbArc
 50
180.0
 51
-90.0
  0
ARC
  5
F8
100
AcDbEntity
  8
0
  6
CONTINUOUS
 62
             7
100
AcDbCircle
 10
150.78552132104809
 20
-39.47500653990976
 40
0.5
100
AcDbArc
 50
90.0
 51
180.0
  0
ARC
  5
F7
100
AcDbEntity
  8
0
  6
CONTINUOUS
 62
             7
100
AcDbCircle
 10
42.23220693268527
 20
-29.73220693268308
 40
52.99999999999999
100
AcDbArc
 50
-4.01162541056892
 51
3.1834138662282
  0
LINE
  5
F6
100
AcDbEntity
  8
0
  6
CONTINUOUS
 62
             7
100
AcDbLine
 10
201.78552132104801
 20
-73.97500653990977
 11
201.78552132104801
 21
-23.97500653990977
  0
LINE
  5
F5
100
AcDbEntity
  8
0
  6
CONTINUOUS
 62
             7
100
AcDbLine
 10
151.28552132104809
 20
-73.97500653990977
 11
201.78552132104801
 21
-73.97500653990977
  0
LINE
  5
F4
100
AcDbEntity
  8
0
  6
CONTINUOUS
 62
             7
100
AcDbLine
 10
151.28552132104809
 20
-23.97500653990977
 11
201.78552132104801
 21
-23.97500653990977
  0
LINE
  5
F3
100
AcDbEntity
  8
0
  6
CONTINUOUS
 62
             7
100
AcDbLine
 10
205.28552132104801
 20
-73.03718436640082
 11
201.78552132104801
 21
-73.97500653990977
  0
LINE
  5
F2
100
AcDbEntity
  8
0
  6
CONTINUOUS
 62
             7
100
AcDbLine
 10
205.28552132104801
 20
-24.9128287134187
 11
201.78552132104801
 21
-23.97500653990977
  0
LINE
  5
F1
100
AcDbEntity
  8
0
  6
CONTINUOUS
 62
             7
100
AcDbLine
 10
152.28552132104809
 20
-57.45500653990973
 11
152.28552132104809
 21
-58.47500653990974
  0
LINE
  5
F0
100
AcDbEntity
  8
0
  6
CONTINUOUS
 62
             7
100
AcDbLine
 10
152.28552132104809
 20
-40.49500653990977
 11
152.28552132104809
 21
-57.45500653990973
  0
LINE
  5
EF
100
AcDbEntity
  8
0
  6
CONTINUOUS
 62
             7
100
AcDbLine
 10
152.28552132104809
 20
-39.47500653990976
 11
152.28552132104809
 21
-40.49500653990977
  0
LINE
  5
EE
100
AcDbEntity
  8
0
  6
CONTINUOUS
 62
             7
100
AcDbLine
 10
151.28552132104809
 20
-38.97500653990976
 11
151.78552132104809
 21
-38.97500653990976
  0
LINE
  5
ED
100
AcDbEntity
  8
0
  6
CONTINUOUS
 62
             7
100
AcDbLine
 10
151.78552132104809
 20
-38.97500653990976
 11
151.78552132104809
 21
-40.33500653990976
  0
LINE
  5
EC
100
AcDbEntity
  8
0
  6
CONTINUOUS
 62
             7
100
AcDbLine
 10
150.78552132104809
 20
-40.33500653990977
 11
151.78552132104809
 21
-40.33500653990976
  0
LINE
  5
EB
100
AcDbEntity
  8
0
  6
CONTINUOUS
 62
             7
100
AcDbLine
 10
150.78552132104809
 20
-57.61500653990974
 11
151.78552132104809
 21
-57.61500653990974
  0
LINE
  5
EA
100
AcDbEntity
  8
0
  6
CONTINUOUS
 62
             7
100
AcDbLine
 10
151.78552132104809
 20
-40.33500653990976
 11
151.78552132104809
 21
-57.61500653990974
  0
LINE
  5
E9
100
AcDbEntity
  8
0
  6
CONTINUOUS
 62
             7
100
AcDbLine
 10
151.78552132104809
 20
-57.61500653990974
 11
151.78552132104809
 21
-58.97500653990974
  0
LINE
  5
E8
100
AcDbEntity
  8
0
  6
CONTINUOUS
 62
             7
100
AcDbLine
 10
151.28552132104809
 20
-58.97500653990974
 11
151.78552132104809
 21
-58.97500653990974
  0
LINE
  5
E7
100
AcDbEntity
  8
0
  6
CONTINUOUS
 62
             7
100
AcDbLine
 10
90.99426121297442
 20
-25.20672353309017
 11
93.42673789059126
 21
-25.20672353309026
  0
LINE
  5
E6
100
AcDbEntity
  8
0
  6
CONTINUOUS
 62
             7
100
AcDbLine
 10
37.70672353308998
 20
-80.92673789058884
 11
93.42673789059126
 21
-25.20672353309026
  0
LINE
  5
E5
100
AcDbEntity
  8
0
  6
CONTINUOUS
 62
             7
100
AcDbLine
 10
37.70672353309001
 20
-78.49426121297202
 11
37.70672353308998
 21
-80.92673789058884
  0
LINE
  5
E4
100
AcDbEntity
  8
0
  6
CONTINUOUS
 62
             7
100
AcDbLine
 10
151.28552132104809
 20
-58.97500653990974
 11
151.28552132104809
 21
-73.97500653990977
  0
LINE
  5
E3
100
AcDbEntity
  8
0
  6
CONTINUOUS
 62
             7
100
AcDbLine
 10
71.5636215475345
 20
-73.97500653990306
 11
151.28552132104809
 21
-73.97500653990977
  0
LINE
  5
E2
100
AcDbEntity
  8
0
  6
CONTINUOUS
 62
             7
100
AcDbLine
 10
150.78552132104809
 20
-58.97500653990974
 11
151.28552132104809
 21
-58.97500653990974
  0
LINE
  5
E1
100
AcDbEntity
  8
0
  6
CONTINUOUS
 62
             7
100
AcDbLine
 10
151.28552132104809
 20
-23.97500653990977
 11
151.28552132104809
 21
-38.97500653990976
  0
LINE
  5
E0
100
AcDbEntity
  8
0
  6
CONTINUOUS
 62
             7
100
AcDbLine
 10
150.78552132104809
 20
-38.97500653990976
 11
151.28552132104809
 21
-38.97500653990976
  0
LINE
  5
DF
100
AcDbEntity
  8
0
  6
CONTINUOUS
 62
             7
100
AcDbLine
 10
150.78552132104809
 20
-38.97500653990976
 11
150.78552132104809
 21
-40.33500653990977
  0
LINE
  5
DE
100
AcDbEntity
  8
0
  6
CONTINUOUS
 62
             7
100
AcDbLine
 10
150.78552132104809
 20
-40.33500653990977
 11
150.78552132104809
 21
-57.61500653990974
  0
LINE
  5
DD
100
AcDbEntity
  8
0
  6
CONTINUOUS
 62
             7
100
AcDbLine
 10
150.28552132104809
 20
-58.47500653990974
 11
150.28552132104809
 21
-69.07500653990977
  0
LINE
  5
DC
100
AcDbEntity
  8
0
  6
CONTINUOUS
 62
             7
100
AcDbLine
 10
150.78552132104809
 20
-57.61500653990974
 11
150.78552132104809
 21
-58.97500653990974
  0
LINE
  5
DB
100
AcDbEntity
  8
0
  6
CONTINUOUS
 62
             7
100
AcDbLine
 10
95.60112531223335
 20
-33.97500653990976
 11
150.28552132104809
 21
-33.97500653990976
  0
LINE
  5
DA
100
AcDbEntity
  8
0
  6
CONTINUOUS
 62
             7
100
AcDbLine
 10
150.28552132104809
 20
-24.97500653990976
 11
150.28552132104809
 21
-33.97500653990976
  0
LINE
  5
D9
100
AcDbEntity
  8
0
  6
CONTINUOUS
 62
             7
100
AcDbLine
 10
93.42673789059126
 20
-25.20672353309026
 11
93.49744856870993
 21
-25.13601285497159
  0
LINE
  5
D8
100
AcDbEntity
  8
0
  6
CONTINUOUS
 62
             7
100
AcDbLine
 10
150.28552132104809
 20
-40.49500653990977
 11
150.28552132104809
 21
-57.45500653990975
  0
LINE
  5
D7
100
AcDbEntity
  8
0
  6
CONTINUOUS
 62
             7
100
AcDbLine
 10
150.28552132104809
 20
-57.45500653990975
 11
150.28552132104809
 21
-58.47500653990974
  0
LINE
  5
D6
100
AcDbEntity
  8
0
  6
CONTINUOUS
 62
             7
100
AcDbLine
 10
150.28552132104809
 20
-33.97500653990976
 11
150.28552132104809
 21
-39.47500653990976
  0
LINE
  5
D5
100
AcDbEntity
  8
0
  6
CONTINUOUS
 62
             7
100
AcDbLine
 10
150.28552132104809
 20
-39.47500653990976
 11
150.28552132104809
 21
-40.49500653990977
  0
LINE
  5
D4
100
AcDbEntity
  8
0
  6
CONTINUOUS
 62
             7
100
AcDbLine
 10
205.28552132104801
 20
-73.03718436640082
 11
205.28552132104801
 21
-24.9128287134187
  0
LINE
  5
D3
100
AcDbEntity
  8
1
  6
PHANTOM
 62
             2
100
AcDbLine
 10
71.5636215475345
 20
-53.97500653990642
 11
156.68766005507379
 21
-53.97500653990643
  0
LINE
  5
D2
100
AcDbEntity
  8
1
  6
PHANTOM
 62
             2
100
AcDbLine
 10
145.7255023071578
 20
-48.97500653990977
 11
209.44304421691939
 21
-48.97500653990978
  0
LINE
  5
D1
100
AcDbEntity
  8
1
  6
DOT_CENTER
 62
             2
100
AcDbLine
 10
95.23219943089352
 20
-32.91763599070395
 11
95.23219943089352
 21
-30.91763599070395
  0
LINE
  5
D0
100
AcDbEntity
  8
1
  6
DOT_CENTER
 62
             2
100
AcDbLine
 10
36.83488470653133
 20
-82.99999998235442
 11
48.83488470653133
 21
-82.99999998235442
  0
LINE
  5
CF
100
AcDbEntity
  8
1
  6
CONTINUOUS
 62
             7
100
AcDbLine
 10
93.49744856870993
 20
-25.13601285497159
 11
95.1504216629905
 21
-26.78898594925223
  0
LINE
  5
CE
100
AcDbEntity
  8
1
  6
CONTINUOUS
 62
             7
100
AcDbLine
 10
95.1504216629905
 20
-26.78898594925223
 11
39.28898594925157
 21
-82.6504216629878
  0
LINE
  5
CD
100
AcDbEntity
  8
1
  6
CONTINUOUS
 62
             7
100
AcDbLine
 10
37.63601285497134
 20
-80.99744856870748
 11
39.28898594925157
 21
-82.6504216629878
  0
LINE
  5
CC
100
AcDbEntity
  8
0
  6
CONTINUOUS
 62
             7
100
AcDbLine
 10
37.63601285497134
 20
-80.99744856870748
 11
37.70672353308998
 21
-80.92673789058884
  0
POINT
  5
CB
100
AcDbEntity
  8
1
 62
             3
 60
             1
100
AcDbPoint
 10
95.23219943089352
 20
-32.91763599070395
  0
POINT
  5
CA
100
AcDbEntity
  8
1
 62
             3
 60
             1
100
AcDbPoint
 10
95.23219943089352
 20
-30.91763599070395
  0
POINT
  5
C9
100
AcDbEntity
  8
1
 62
             3
 60
             1
100
AcDbPoint
 10
36.83488470653133
 20
-82.99999998235442
  0
POINT
  5
C8
100
AcDbEntity
  8
1
 62
             3
 60
             1
100
AcDbPoint
 10
48.83488470653133
 20
-82.99999998235442
  0
POINT
  5
C7
100
AcDbEntity
  8
1
 62
             3
 60
             1
100
AcDbPoint
 10
93.49744856870993
 20
-25.13601285497159
  0
POINT
  5
C6
100
AcDbEntity
  8
1
 62
             3
 60
             1
100
AcDbPoint
 10
95.1504216629905
 20
-26.78898594925223
  0
POINT
  5
C5
100
AcDbEntity
  8
1
 62
             3
 60
             1
100
AcDbPoint
 10
39.28898594925157
 20
-82.6504216629878
  0
POINT
  5
C4
100
AcDbEntity
  8
1
 62
             3
 60
             1
100
AcDbPoint
 10
37.63601285497134
 20
-80.99744856870748
  0
ENDBLK
  5
107
100
AcDbEntity
  8
0
100
AcDbBlockEnd
  0
BLOCK
  5
2C
100
AcDbEntity
  8
0
100
AcDbBlockBegin
  2
0522_1E_SCHRAUBVENTIL_3-23
 70
             0
 10
-123.6878731667004
 20
35.24929269764327
 30
0.0
  3
0522_1E_SCHRAUBVENTIL_3-23
  1

  0
LINE
  5
114
100
AcDbEntity
  8
1
  6
CONTINUOUS
 62
             7
100
AcDbLine
 10
48.42299942786002
 20
0.99999999999999
 11
48.42299942786002
 21
0.5
  0
LINE
  5
113
100
AcDbEntity
  8
1
  6
CONTINUOUS
 62
             7
100
AcDbLine
 10
-48.42299942785998
 20
0.99999999999999
 11
-48.42299942785998
 21
0.5
  0
LINE
  5
112
100
AcDbEntity
  8
0
  6
CONTINUOUS
 62
             7
100
AcDbLine
 10
56.00000000000003
 20
5.20000000000001
 11
-55.99999999999997
 21
5.20000000000001
  0
LINE
  5
111
100
AcDbEntity
  8
0
  6
CONTINUOUS
 62
             7
100
AcDbLine
 10
56.00000000000003
 20
6.0
 11
56.00000000000003
 21
5.20000000000001
  0
LINE
  5
110
100
AcDbEntity
  8
0
  6
CONTINUOUS
 62
             7
100
AcDbLine
 10
56.00000000000003
 20
6.0
 11
54.32325174739972
 21
6.0
  0
LINE
  5
10F
100
AcDbEntity
  8
0
  6
CONTINUOUS
 62
             7
100
AcDbLine
 10
-48.42299942785998
 20
0.99999999999999
 11
-55.99999999999997
 21
5.20000000000001
  0
LINE
  5
10E
100
AcDbEntity
  8
0
  6
CONTINUOUS
 62
             7
100
AcDbLine
 10
48.42299942786002
 20
0.99999999999999
 11
56.00000000000003
 21
5.20000000000001
  0
LINE
  5
10D
100
AcDbEntity
  8
0
  6
CONTINUOUS
 62
             7
100
AcDbLine
 10
-0.99999999999999
 20
6.0
 11
-55.99999999999997
 21
6.0
  0
LINE
  5
10C
100
AcDbEntity
  8
0
  6
CONTINUOUS
 62
             7
100
AcDbLine
 10
1.00000000000001
 20
6.0
 11
-0.99999999999999
 21
6.0
  0
LINE
  5
10B
100
AcDbEntity
  8
0
  6
CONTINUOUS
 62
             7
100
AcDbLine
 10
54.32325174739972
 20
6.0
 11
39.11369993212388
 21
6.0
  0
LINE
  5
10A
100
AcDbEntity
  8
0
  6
CONTINUOUS
 62
             7
100
AcDbLine
 10
39.11369993212388
 20
6.0
 11
1.00000000000001
 21
6.0
  0
LINE
  5
109
100
AcDbEntity
  8
0
  6
CONTINUOUS
 62
             7
100
AcDbLine
 10
-48.42299942785998
 20
0.99999999999999
 11
48.42299942786002
 21
0.99999999999999
  0
LINE
  5
108
100
AcDbEntity
  8
0
  6
CONTINUOUS
 62
             7
100
AcDbLine
 10
-55.99999999999997
 20
6.0
 11
-55.99999999999997
 21
5.20000000000001
  0
ENDBLK
  5
115
100
AcDbEntity
  8
0
100
AcDbBlockEnd
  0
BLOCK
  5
2E
100
AcDbEntity
  8
0
100
AcDbBlockBegin
  2
01076D_VENTILDICHTUNG
 70
             0
 10
-122.6878731667005
 20
30.74929269764328
 30
0.0
  3
01076D_VENTILDICHTUNG
  1

  0
LINE
  5
12A
100
AcDbEntity
  8
0
  6
CONTINUOUS
 62
             7
100
AcDbLine
 10
-55.00000000000007
 20
-3.0
 11
-49.42435935394488
 21
-3.0
  0
LINE
  5
129
100
AcDbEntity
  8
0
  6
CONTINUOUS
 62
             7
100
AcDbLine
 10
-55.00000000000007
 20
0.0
 11
55.00000000000011
 21
0.0
  0
LINE
  5
128
100
AcDbEntity
  8
0
  6
CONTINUOUS
 62
             7
100
AcDbLine
 10
48.46410161513779
 20
0.5
 11
48.42299942786002
 21
0.49999999999999
  0
LINE
  5
127
100
AcDbEntity
  8
0
  6
CONTINUOUS
 62
             7
100
AcDbLine
 10
48.46410161513779
 20
0.5
 11
48.7527767497326
 21
0.0
  0
LINE
  5
126
100
AcDbEntity
  8
0
  6
CONTINUOUS
 62
             7
100
AcDbLine
 10
44.49282032302757
 20
0.50000000000002
 11
46.47846096908268
 21
0.5
  0
LINE
  5
125
100
AcDbEntity
  8
0
  6
CONTINUOUS
 62
             7
100
AcDbLine
 10
44.05000000000003
 20
0.49999999999999
 11
44.49282032302757
 21
0.50000000000002
  0
LINE
  5
124
100
AcDbEntity
  8
0
  6
CONTINUOUS
 62
             7
100
AcDbLine
 10
-48.42299942785998
 20
0.49999999999999
 11
-48.46410161513778
 21
0.5
  0
LINE
  5
123
100
AcDbEntity
  8
0
  6
CONTINUOUS
 62
             7
100
AcDbLine
 10
-48.46410161513778
 20
0.5
 11
-48.75277674973258
 21
0.0
  0
LINE
  5
122
100
AcDbEntity
  8
0
  6
CONTINUOUS
 62
             7
100
AcDbLine
 10
-44.49282032302747
 20
0.50000000000002
 11
-44.04999999999997
 21
0.49999999999999
  0
LINE
  5
121
100
AcDbEntity
  8
0
  6
CONTINUOUS
 62
             7
100
AcDbLine
 10
-48.42299942785998
 20
0.49999999999999
 11
-46.47846096908268
 21
0.5
  0
LINE
  5
120
100
AcDbEntity
  8
0
  6
CONTINUOUS
 62
             7
100
AcDbLine
 10
-46.47846096908268
 20
0.5
 11
-44.49282032302747
 21
0.50000000000002
  0
LINE
  5
11F
100
AcDbEntity
  8
0
  6
CONTINUOUS
 62
             7
100
AcDbLine
 10
46.47846096908268
 20
0.5
 11
48.42299942786002
 21
0.49999999999999
  0
LINE
  5
11E
100
AcDbEntity
  8
0
  6
CONTINUOUS
 62
             7
100
AcDbLine
 10
-44.04999999999997
 20
0.49999999999999
 11
44.05000000000003
 21
0.49999999999999
  0
LINE
  5
11D
100
AcDbEntity
  8
0
  6
CONTINUOUS
 62
             7
100
AcDbLine
 10
-49.28717967697237
 20
-3.5
 11
-49.42435935394488
 21
-3.0
  0
LINE
  5
11C
100
AcDbEntity
  8
0
  6
CONTINUOUS
 62
             7
100
AcDbLine
 10
49.42435935394489
 20
-3.0
 11
55.00000000000011
 21
-3.0
  0
LINE
  5
11B
100
AcDbEntity
  8
0
  6
CONTINUOUS
 62
             7
100
AcDbLine
 10
49.28717967697247
 20
-3.49999999999999
 11
49.42435935394489
 21
-3.0
  0
LINE
  5
11A
100
AcDbEntity
  8
0
  6
CONTINUOUS
 62
             7
100
AcDbLine
 10
39.70000000000003
 20
-3.0
 11
49.42435935394489
 21
-3.0
  0
LINE
  5
119
100
AcDbEntity
  8
0
  6
CONTINUOUS
 62
             7
100
AcDbLine
 10
-39.69999999999997
 20
-3.0
 11
39.70000000000003
 21
-3.0
  0
LINE
  5
118
100
AcDbEntity
  8
0
  6
CONTINUOUS
 62
             7
100
AcDbLine
 10
-49.42435935394488
 20
-3.0
 11
-39.69999999999997
 21
-3.0
  0
LINE
  5
117
100
AcDbEntity
  8
0
  6
CONTINUOUS
 62
             7
100
AcDbLine
 10
55.00000000000011
 20
-3.0
 11
55.00000000000011
 21
0.0
  0
LINE
  5
116
100
AcDbEntity
  8
0
  6
CONTINUOUS
 62
             7
100
AcDbLine
 10
-55.00000000000007
 20
-3.0
 11
-55.00000000000007
 21
0.0
  0
ENDBLK
  5
12B
100
AcDbEntity
  8
0
100
AcDbBlockEnd
  0
BLOCK
  5
30
100
AcDbEntity
  8
0
100
AcDbBlockBegin
  2
GV_EINSATZ-ROHR
 70
             0
 10
-107.3878731667004
 20
25.24929269764328
 30
0.0
  3
GV_EINSATZ-ROHR
  1

  0
ARC
  5
133
100
AcDbEntity
  8
0
  6
CONTINUOUS
 62
             7
100
AcDbCircle
 10
-3.49999999999997
 20
-3.0
 40
14.0
100
AcDbArc
 50
90.0
 51
139.99479911513978
  0
ARC
  5
132
100
AcDbEntity
  8
0
  6
CONTINUOUS
 62
             7
100
AcDbCircle
 10
3.50000000000003
 20
-3.0
 40
9.99999999999999
100
AcDbArc
 50
64.15806723683291
 51
90.0
  0
ARC
  5
131
100
AcDbEntity
  8
0
  6
CONTINUOUS
 62
             7
100
AcDbCircle
 10
3.50000000000003
 20
-3.0
 40
14.0
100
AcDbArc
 50
40.00520088486021
 51
90.0
  0
ARC
  5
130
100
AcDbEntity
  8
0
  6
CONTINUOUS
 62
             7
100
AcDbCircle
 10
-3.49999999999997
 20
-3.0
 40
10.0
100
AcDbArc
 50
90.0
 51
115.84193276316718
  0
LINE
  5
12F
100
AcDbEntity
  8
0
  6
CONTINUOUS
 62
             7
100
AcDbLine
 10
-3.49999999999997
 20
11.0
 11
-3.49999999999997
 21
7.0
  0
LINE
  5
12E
100
AcDbEntity
  8
0
  6
CONTINUOUS
 62
             7
100
AcDbLine
 10
3.50000000000003
 20
11.0
 11
3.50000000000003
 21
7.0
  0
LINE
  5
12D
100
AcDbEntity
  8
0
  6
CONTINUOUS
 62
             7
100
AcDbLine
 10
3.50000000000003
 20
11.0
 11
-3.49999999999997
 21
11.0
  0
LINE
  5
12C
100
AcDbEntity
  8
0
  6
CONTINUOUS
 62
             7
100
AcDbLine
 10
3.50000000000003
 20
7.0
 11
-3.49999999999997
 21
7.0
  0
ENDBLK
  5
134
100
AcDbEntity
  8
0
100
AcDbBlockEnd
  0
BLOCK
  5
32
100
AcDbEntity
  8
0
100
AcDbBlockBegin
  2
HL522V_0_K_RPER
 70
             0
 10
-122.6878731667006
 20
-46.38547092284901
 30
0.0
  3
HL522V_0_K_RPER
  1

  0
SPLINE
  5
1E1
100
AcDbEntity
  8
0
  6
CONTINUOUS
 62
             7
100
AcDbSpline
210
0.0
220
0.0
230
1.0
 70
             0
 71
             3
 72
            11
 73
             7
 74
             5
 42
0.00000000001
 43
0.00000000001
 44
0.00000000001
 40
39.291584283896732
 40
39.291584283896732
 40
39.291584283896732
 40
39.291584283896732
 40
39.753407273889543
 40
39.753407273889543
 40
39.753407273889543
 40
40.214550990101678
 40
40.214550990101678
 40
40.214550990101678
 40
40.214550990101678
 10
33.655837283000572
 20
-65.081123355241743
 30
0.0
 10
33.712138086102783
 20
-65.223700347346039
 30
0.0
 10
33.768690110344458
 20
-65.366875721822453
 30
0.0
 10
33.825495257235303
 20
-65.510654064175924
 30
0.0
 10
33.881640664614807
 20
-65.652762553378579
 30
0.0
 10
33.938134669704731
 20
-65.7957165361845
 30
0.0
 10
33.994980232357328
 20
-65.939522773951921
 30
0.0
 11
33.655837283000572
 21
-65.081123355241743
 31
0.0
 11
33.740477141197204
 21
-65.295438203365393
 31
0.0
 11
33.825495257235303
 21
-65.510654064175924
 31
0.0
 11
33.9099751865689
 21
-65.724451763352135
 31
0.0
 11
33.994980232357328
 21
-65.939522773951921
 31
0.0
  0
SPLINE
  5
1E0
100
AcDbEntity
  8
0
  6
CONTINUOUS
 62
             7
100
AcDbSpline
210
0.0
220
0.0
230
1.0
 70
             0
 71
             3
 72
            26
 73
            22
 74
            15
 42
0.00000000001
 43
0.00000000001
 44
0.00000000001
 40
0.0
 40
0.0
 40
0.0
 40
0.0
 40
0.2181007167339535
 40
0.2181007167339535
 40
0.2181007167339535
 40
0.4266417924011252
 40
0.4266417924011252
 40
0.4266417924011252
 40
0.6235490345639281
 40
0.6235490345639281
 40
0.6235490345639281
 40
0.8094705977456755
 40
0.8094705977456755
 40
0.8094705977456755
 40
0.9858910219874477
 40
0.9858910219874477
 40
0.9858910219874477
 40
1.1525169971641469
 40
1.1525169971641469
 40
1.1525169971641469
 40
1.463506762142621
 40
1.463506762142621
 40
1.463506762142621
 40
1.463506762142621
 10
33.655837283000572
 20
-65.081123355241743
 30
0.0
 10
33.685826706463693
 20
-65.157068956276362
 30
0.0
 10
33.70830341086198
 20
-65.22656546787448
 30
0.0
 10
33.725309681849602
 20
-65.28778420950448
 30
0.0
 10
33.74180902548418
 20
-65.3471781269443
 30
0.0
 10
33.757900589727932
 20
-65.415847299282632
 30
0.0
 10
33.770084287753107
 20
-65.491379815732671
 30
0.0
 10
33.779365223581543
 20
-65.548916734075192
 30
0.0
 10
33.78713993068245
 20
-65.615154572806659
 30
0.0
 10
33.790118583270797
 20
-65.687178399381537
 30
0.0
 10
33.792750992841462
 20
-65.750830068966479
 30
0.0
 10
33.791385578719343
 20
-65.812916496725393
 30
0.0
 10
33.786065021857347
 20
-65.872958226588253
 30
0.0
 10
33.781414825931407
 20
-65.925435028294032
 30
0.0
 10
33.773006137762557
 20
-65.98467481360467
 30
0.0
 10
33.758145706949207
 20
-66.047037456501243
 30
0.0
 10
33.746535333768541
 20
-66.09576104774942
 30
0.0
 10
33.730176610308398
 20
-66.149791129563255
 30
0.0
 10
33.706788427975113
 20
-66.20540399794163
 30
0.0
 10
33.66527180752032
 20
-66.30412301406659
 30
0.0
 10
33.608450469488297
 20
-66.391549512864458
 30
0.0
 10
33.536273568668683
 20
-66.463726413687709
 30
0.0
 11
33.655837283000572
 21
-65.081123355241743
 31
0.0
 11
33.695442164603399
 21
-65.189976354649843
 31
0.0
 11
33.725309681849602
 21
-65.28778420950448
 31
0.0
 11
33.749315351904876
 21
-65.383530037989743
 31
0.0
 11
33.770084287753107
 21
-65.491379815732671
 31
0.0
 11
33.78246479172698
 21
-65.58384651696997
 31
0.0
 11
33.790118583270797
 21
-65.687178399381537
 31
0.0
 11
33.791074164976322
 21
-65.781422040380676
 31
0.0
 11
33.786065021857347
 21
-65.872958226588253
 31
0.0
 11
33.775934202486049
 21
-65.956290651098186
 31
0.0
 11
33.758145706949207
 21
-66.047037456501243
 31
0.0
 11
33.736883745894389
 21
-66.123637248297612
 31
0.0
 11
33.706788427975113
 21
-66.20540399794163
 31
0.0
 11
33.633028603458705
 21
-66.344518499052811
 31
0.0
 11
33.536273568668683
 21
-66.463726413687709
 31
0.0
  0
SPLINE
  5
1DF
100
AcDbEntity
  8
0
  6
CONTINUOUS
 62
             3
100
AcDbSpline
210
0.0
220
0.0
230
1.0
 70
             0
 71
             6
 72
            14
 73
             7
 74
             3
 42
0.00000000001
 43
0.00000000001
 44
0.00000000001
 40
0.0
 40
0.0
 40
0.0
 40
0.0
 40
0.0
 40
0.0
 40
0.0
 40
1.0
 40
1.0
 40
1.0
 40
1.0
 40
1.0
 40
1.0
 40
1.0
 10
17.231447658319802
 20
-80.121320278704388
 30
0.0
 10
17.464181518240501
 20
-80.427207261775493
 30
0.0
 10
17.64026867186853
 20
-80.728917481396365
 30
0.0
 10
17.754181611679218
 20
-81.008528095714155
 30
0.0
 10
17.800392830071502
 20
-81.248116262872372
 30
0.0
 10
17.773374819433361
 20
-81.429759141014529
 30
0.0
 10
17.66760007216012
 20
-81.535533888287773
 30
0.0
 11
17.231447658319802
 21
-80.121320278704388
 31
0.0
 11
17.703405320612628
 21
-80.978511260344476
 31
0.0
 11
17.66760007216012
 21
-81.535533888287773
 31
0.0
  0
SPLINE
  5
1DE
100
AcDbEntity
  8
0
  6
CONTINUOUS
 62
             3
100
AcDbSpline
210
0.0
220
0.0
230
1.0
 70
             0
 71
             6
 72
            15
 73
             8
 74
             5
 42
0.00000000001
 43
0.00000000001
 44
0.00000000001
 40
0.0
 40
0.0
 40
0.0
 40
0.0
 40
0.0
 40
0.0
 40
0.0
 40
0.5
 40
1.0
 40
1.0
 40
1.0
 40
1.0
 40
1.0
 40
1.0
 40
1.0
 10
14.132066166228601
 20
-82.999999982356258
 30
0.0
 10
14.2465486899056
 20
-82.999999982356258
 30
0.0
 10
14.475511646025691
 20
-82.917754446480558
 30
0.0
 10
14.69036606934983
 20
-82.671005463355414
 30
0.0
 10
14.86278187244184
 20
-82.276723871299055
 30
0.0
 10
14.9706829891767
 20
-81.785393363512867
 30
0.0
 10
15.00664822418562
 20
-81.261799370153767
 30
0.0
 10
15.00664822418562
 20
-80.999999982356258
 30
0.0
 11
14.132066166228601
 21
-82.999999982356258
 31
0.0
 11
14.466754263993588
 21
-82.847759019853783
 31
0.0
 11
14.750489047125621
 21
-82.414213492156932
 31
0.0
 11
14.940074617041297
 21
-81.765366924702164
 31
0.0
 11
15.00664822418562
 21
-80.999999982356258
 31
0.0
  0
SPLINE
  5
1DD
100
AcDbEntity
  8
0
  6
CONTINUOUS
 62
             3
100
AcDbSpline
210
0.0
220
0.0
230
1.0
 70
             0
 71
             6
 72
            14
 73
             7
 74
             3
 42
0.00000000001
 43
0.00000000001
 44
0.00000000001
 40
0.0
 40
0.0
 40
0.0
 40
0.0
 40
0.0
 40
0.0
 40
0.0
 40
1.0
 40
1.0
 40
1.0
 40
1.0
 40
1.0
 40
1.0
 40
1.0
 10
15.00664822418562
 20
-80.999999982356258
 30
0.0
 10
15.413489662569329
 20
-80.999999982356258
 30
0.0
 10
15.81886826602581
 20
-80.939974212197285
 30
0.0
 10
16.212758337740659
 20
-80.821008014318522
 30
0.0
 10
16.58553372705514
 20
-80.644186731151876
 30
0.0
 10
16.92806124214999
 20
-80.410595705136529
 30
0.0
 10
17.231447658319802
 20
-80.121320278704388
 30
0.0
 11
15.00664822418562
 21
-80.999999982356258
 31
0.0
 11
16.197009343153887
 21
-80.777616700353519
 31
0.0
 11
17.231447658319802
 21
-80.121320278704388
 31
0.0
  0
SPLINE
  5
1DC
100
AcDbEntity
  8
0
  6
CONTINUOUS
 62
             7
100
AcDbSpline
210
0.0
220
0.0
230
1.0
 70
             1
 71
             3
 72
            27
 73
            23
 74
            41
 42
0.00000000001
 43
0.00000000001
 44
0.00000000001
 40
33.799833165560017
 40
33.799833165560017
 40
33.799833165560017
 40
33.799833165560017
 40
35.671158069726467
 40
38.41262446303331
 40
42.155627563554653
 40
46.683817757814793
 40
51.635412200423247
 40
56.587006643031707
 40
61.115196837291847
 40
64.858199937813183
 40
67.599666331120034
 40
69.470991235286476
 40
71.342316139452933
 40
74.083782532759784
 40
77.826785633281119
 40
82.354975827541253
 40
87.30657027014972
 40
92.258164712758187
 40
96.786354907018335
 40
100.5293580075397
 40
103.27082440084649
 40
105.14214930501301
 40
105.14214930501301
 40
105.14214930501301
 40
105.14214930501301
 10
-15.89999999999772
 20
-25.499999999999989
 30
0.0
 10
-15.89999999999772
 20
-26.107619393820631
 30
0.0
 10
-15.03433447191482
 20
-27.605393214787899
 30
0.0
 10
-12.57770961652194
 20
-28.96179523983664
 30
0.0
 10
-9.0749379870466242
 20
-30.118612143080089
 30
0.0
 10
-4.7121575310665236
 20
-30.832030230343651
 30
0.0
 10
0.1000000000022823
 20
-31.087735978173431
 30
0.0
 10
4.9121575310674501
 20
-30.832030230343651
 30
0.0
 10
9.2749379870475508
 20
-30.118612143080089
 30
0.0
 10
12.77770961652651
 20
-28.96179523983664
 30
0.0
 10
15.234334471919381
 20
-27.605393214787899
 30
0.0
 10
16.45118464221024
 20
-25.499999999999989
 30
0.0
 10
15.234334471919381
 20
-23.394606785215721
 30
0.0
 10
12.77770961652651
 20
-22.03820476016335
 30
0.0
 10
9.2749379870475508
 20
-20.881387856923531
 30
0.0
 10
4.9121575310674501
 20
-20.167969769659969
 30
0.0
 10
0.1000000000022823
 20
-19.91226402183019
 30
0.0
 10
-4.7121575310665236
 20
-20.167969769659969
 30
0.0
 10
-9.0749379870466242
 20
-20.881387856923531
 30
0.0
 10
-12.57770961652194
 20
-22.03820476016335
 30
0.0
 10
-15.03433447191482
 20
-23.394606785215721
 30
0.0
 10
-15.89999999999772
 20
-24.892380606182989
 30
0.0
 10
-15.89999999999772
 20
-25.499999999999989
 30
0.0
 11
-15.89999999999772
 21
-25.499999999999989
 31
0.0
 11
-15.670418791760374
 21
-26.396021001680712
 31
0.0
 11
-15.116904260720725
 21
-27.19959346906473
 31
0.0
 11
-14.056017865032848
 21
-28.090310647152915
 31
0.0
 11
-12.844271909996825
 21
-28.732818887609618
 31
0.0
 11
-11.101459536128168
 21
-29.420072395245111
 31
0.0
 11
-9.3045640366783573
 21
-29.949593469063448
 31
0.0
 11
-7.0883031443397453
 21
-30.417088446181328
 31
0.0
 11
-4.8442719099985307
 21
-30.730810839625605
 31
0.0
 11
-2.3755372738561626
 21
-30.933450363140981
 31
0.0
 11
0.1000000000016563
 21
-31.000000000002252
 31
0.0
 11
2.5755372738587834
 21
-30.933450363140974
 31
0.0
 11
5.0442719100000053
 21
-30.730810839625605
 31
0.0
 11
7.2883031443408504
 21
-30.417088446181324
 31
0.0
 11
9.5045640366801063
 21
-29.949593469063444
 31
0.0
 11
11.301459536131196
 21
-29.420072395245118
 31
0.0
 11
13.044271910001004
 21
-28.732818887609621
 31
0.0
 11
14.256017865037395
 21
-28.090310647152858
 31
0.0
 11
15.316904260725464
 21
-27.199593469064329
 31
0.0
 11
15.870418791765315
 21
-26.396021001680058
 31
0.0
 11
16.10000000000278
 21
-25.500000000000519
 31
0.0
 11
15.870418791765315
 21
-24.603978998321541
 31
0.0
 11
15.316904260725462
 21
-23.800406530938044
 31
0.0
 11
14.25601786503738
 21
-22.909689352849256
 31
0.0
 11
13.044271910001004
 21
-22.267181112391697
 31
0.0
 11
11.301459536131199
 21
-21.579927604756531
 31
0.0
 11
9.5045640366801063
 21
-21.050406530939359
 31
0.0
 11
7.2883031443408495
 21
-20.582911553822196
 31
0.0
 11
5.0442719100000106
 21
-20.269189160378016
 31
0.0
 11
2.5755372738587838
 21
-20.066549636862639
 31
0.0
 11
0.1000000000016592
 21
-20.000000000001364
 31
0.0
 11
-2.3755372738561631
 21
-20.066549636862639
 31
0.0
 11
-4.8442719099985316
 21
-20.269189160378016
 31
0.0
 11
-7.0883031443397391
 21
-20.582911553822193
 31
0.0
 11
-9.3045640366783573
 21
-21.050406530939355
 31
0.0
 11
-11.101459536128184
 21
-21.579927604756538
 31
0.0
 11
-12.844271909996841
 21
-22.2671811123917
 31
0.0
 11
-14.056017865032853
 21
-22.90968935284932
 31
0.0
 11
-15.116904260720698
 21
-23.800406530938531
 31
0.0
 11
-15.67041879176036
 21
-24.603978998322393
 31
0.0
 11
-15.89999999999772
 21
-25.499999999999989
 31
0.0
  0
SPLINE
  5
1DB
100
AcDbEntity
  8
0
  6
CONTINUOUS
 62
             7
100
AcDbSpline
210
0.0
220
0.0
230
1.0
 70
             0
 71
             3
 72
            26
 73
            22
 74
            15
 42
0.00000000001
 43
0.00000000001
 44
0.00000000001
 40
0.0059621909237398
 40
0.0059621909237398
 40
0.0059621909237398
 40
0.0059621909237398
 40
0.1519149857053972
 40
0.1519149857053972
 40
0.1519149857053972
 40
0.2983699876386652
 40
0.2983699876386652
 40
0.2983699876386652
 40
0.5444466678397102
 40
0.5444466678397102
 40
0.5444466678397102
 40
0.7910792126747195
 40
0.7910792126747195
 40
0.7910792126747195
 40
1.0377109253911549
 40
1.0377109253911549
 40
1.0377109253911549
 40
1.2837876343260111
 40
1.2837876343260111
 40
1.2837876343260111
 40
1.575998032648865
 40
1.575998032648865
 40
1.575998032648865
 40
1.575998032648865
 10
-45.989129150267672
 20
-9.4999999999999964
 30
0.0
 10
-45.934435608655683
 20
-9.4999999999999964
 30
0.0
 10
-45.885491106892573
 20
-9.5044845970528371
 30
0.0
 10
-45.84366147088717
 20
-9.5106319257360177
 30
0.0
 10
-45.789343942078183
 20
-9.5186144886921973
 30
0.0
 10
-45.741408445326471
 20
-9.5302263945478778
 30
0.0
 10
-45.700804339678967
 20
-9.5424466916688964
 30
0.0
 10
-45.622108572534273
 20
-9.5661311354299272
 30
0.0
 10
-45.54663224624737
 20
-9.5994218797954964
 30
0.0
 10
-45.476082172748583
 20
-9.641566196308677
 30
0.0
 10
-45.405368466009577
 20
-9.6838082619910253
 30
0.0
 10
-45.340145170714578
 20
-9.7346216721401575
 30
0.0
 10
-45.281893900824471
 20
-9.7928519441844273
 30
0.0
 10
-45.211568608899469
 20
-9.8631518859386667
 30
0.0
 10
-45.163044305419866
 20
-9.932616256838898
 30
0.0
 10
-45.130541530222366
 20
-9.9869870337261872
 30
0.0
 10
-45.079660519786472
 20
-10.072100998592211
 30
0.0
 10
-45.049607135929783
 20
-10.151106988109399
 30
0.0
 10
-45.031363064563273
 20
-10.21168271804556
 30
0.0
 10
-45.003197885620168
 20
-10.30519946871979
 30
0.0
 10
-44.988887516807978
 20
-10.40233649251873
 30
0.0
 10
-44.988887516807978
 20
-10.5
 30
0.0
 11
-45.989129150267672
 21
-9.4999999999999964
 31
0.0
 11
-45.911571345974956
 21
-9.5030107146118148
 31
0.0
 11
-45.84366147088717
 21
-9.5106319257360177
 31
0.0
 11
-45.767090371597504
 21
-9.5249501583906433
 31
0.0
 11
-45.700804339678967
 21
-9.5424466916688964
 31
0.0
 11
-45.585388621096556
 21
-9.5850839917067283
 31
0.0
 11
-45.476082172748583
 21
-9.641566196308677
 31
0.0
 11
-45.374314622968178
 21
-9.7112134928608285
 31
0.0
 11
-45.281893900824471
 21
-9.7928519441844273
 31
0.0
 11
-45.192034271750607
 21
-9.8958929257804122
 31
0.0
 11
-45.130541530222366
 21
-9.9869870337261872
 31
0.0
 11
-45.068713445241798
 21
-10.108536713984572
 31
0.0
 11
-45.031363064563273
 21
-10.21168271804556
 31
0.0
 11
-44.999563348581958
 21
-10.354286325220141
 31
0.0
 11
-44.988887516807978
 21
-10.5
 31
0.0
  0
SPLINE
  5
1DA
100
AcDbEntity
  8
0
  6
CONTINUOUS
 62
             7
100
AcDbSpline
210
0.0
220
0.0
230
1.0
 70
             0
 71
             3
 72
            11
 73
             7
 74
             5
 42
0.00000000001
 43
0.00000000001
 44
0.00000000001
 40
0.0000052841952554
 40
0.0000052841952554
 40
0.0000052841952554
 40
0.0000052841952554
 40
1.129127736233148
 40
1.129127736233148
 40
1.129127736233148
 40
2.2606178489682738
 40
2.2606178489682738
 40
2.2606178489682738
 40
2.2606178489682738
 10
32.456388698792168
 20
-40.920964455034031
 30
0.0
 10
32.356212738373017
 20
-40.519998449559253
 30
0.0
 10
32.265994741275939
 20
-40.153692552698267
 30
0.0
 10
32.185800095967167
 20
-39.824745168422488
 30
0.0
 10
32.09869313206017
 20
-39.467444405770578
 30
0.0
 10
32.010268891726788
 20
-39.100307033477968
 30
0.0
 10
31.921078177949539
 20
-38.724659130815553
 30
0.0
 11
32.456388698792168
 21
-40.920964455034031
 31
0.0
 11
32.31360140421328
 21
-40.345847828778638
 31
0.0
 11
32.185800095967167
 21
-39.824745168422488
 31
0.0
 11
32.054220543159694
 21
-39.281582327122962
 31
0.0
 11
31.921078177949539
 21
-38.724659130815553
 31
0.0
  0
SPLINE
  5
1D9
100
AcDbEntity
  8
0
  6
CONTINUOUS
 62
             7
100
AcDbSpline
210
0.0
220
0.0
230
1.0
 70
             0
 71
             3
 72
            29
 73
            25
 74
            17
 42
0.00000000001
 43
0.00000000001
 44
0.00000000001
 40
0.3640122951268048
 40
0.3640122951268048
 40
0.3640122951268048
 40
0.3640122951268048
 40
0.5033465638025489
 40
0.5033465638025489
 40
0.5033465638025489
 40
0.6715333992533681
 40
0.6715333992533681
 40
0.6715333992533681
 40
0.8392388007155924
 40
0.8392388007155924
 40
0.8392388007155924
 40
0.9248866239223843
 40
0.9248866239223843
 40
0.9248866239223843
 40
1.010287262525307
 40
1.010287262525307
 40
1.010287262525307
 40
1.1301685686969809
 40
1.1301685686969809
 40
1.1301685686969809
 40
1.2218503626046291
 40
1.2218503626046291
 40
1.2218503626046291
 40
1.313330214919938
 40
1.313330214919938
 40
1.313330214919938
 40
1.313330214919938
 10
-0.9999999999999716
 20
-13.80400570200552
 30
0.0
 10
-0.9999999999999716
 20
-13.842269717607561
 30
0.0
 10
-0.9978052778124749
 20
-13.8896703393793
 30
0.0
 10
-0.9902272707663968
 20
-13.94290979587349
 30
0.0
 10
-0.9840007664434012
 20
-13.98665424002607
 30
0.0
 10
-0.9727950361509272
 20
-14.043823883132511
 30
0.0
 10
-0.9516135598014728
 20
-14.106420191500529
 30
0.0
 10
-0.937525447258821
 20
-14.148053920070421
 30
0.0
 10
-0.9155240385643424
 20
-14.2024519726268
 30
0.0
 10
-0.8815514726166924
 20
-14.25851567177048
 30
0.0
 10
-0.8683100661587133
 20
-14.28036748682158
 30
0.0
 10
-0.8520910601480125
 20
-14.304383555834059
 30
0.0
 10
-0.8325126617327925
 20
-14.32867679470986
 30
0.0
 10
-0.8119054301362638
 20
-14.35424662882633
 30
0.0
 10
-0.7919493878072501
 20
-14.37469755562315
 30
0.0
 10
-0.7741266326635383
 20
-14.39091442800361
 30
0.0
 10
-0.7496719079353653
 20
-14.413165709964129
 30
0.0
 10
-0.7169549104795152
 20
-14.438621900696489
 30
0.0
 10
-0.6762491001333615
 20
-14.45969411805631
 30
0.0
 10
-0.6484827933360577
 20
-14.47406792973422
 30
0.0
 10
-0.6198439833790701
 20
-14.48492791043455
 30
0.0
 10
-0.5906744727891322
 20
-14.49215212249096
 30
0.0
 10
-0.5657629595725098
 20
-14.498321785624929
 30
0.0
 10
-0.5351063537155483
 20
-14.5031679581384
 30
0.0
 10
-0.4999999999999858
 20
-14.502777863517011
 30
0.0
 11
-0.9999999999999716
 21
-13.80400570200552
 31
0.0
 11
-0.9979553880254635
 21
-13.867841958604949
 31
0.0
 11
-0.9902272707663968
 21
-13.94290979587349
 31
0.0
 11
-0.9765285297938566
 21
-14.017595544606218
 31
0.0
 11
-0.9516135598014728
 21
-14.106420191500529
 31
0.0
 11
-0.9240391862359569
 21
-14.177056692670334
 31
0.0
 11
-0.8815514726166924
 21
-14.25851567177048
 31
0.0
 11
-0.8594084391587078
 21
-14.292680699305908
 31
0.0
 11
-0.8325126617327925
 21
-14.32867679470986
 31
0.0
 11
-0.8022754685283591
 21
-14.363302972007737
 31
0.0
 11
-0.7741266326635383
 21
-14.39091442800361
 31
0.0
 11
-0.7312820235051927
 21
-14.425746422255221
 31
0.0
 11
-0.6762491001333615
 21
-14.45969411805631
 31
0.0
 11
-0.6339879878834844
 21
-14.478604220131697
 31
0.0
 11
-0.5906744727891322
 21
-14.49215212249096
 31
0.0
 11
-0.5491603015816614
 21
-14.499924902162245
 31
0.0
 11
-0.4999999999999858
 21
-14.502777863517011
 31
0.0
  0
SPLINE
  5
1D8
100
AcDbEntity
  8
0
  6
CONTINUOUS
 62
             7
100
AcDbSpline
210
0.0
220
0.0
230
1.0
 70
             0
 71
             3
 72
            26
 73
            22
 74
            15
 42
0.00000000001
 43
0.00000000001
 44
0.00000000001
 40
0.0018974620298636
 40
0.0018974620298636
 40
0.0018974620298636
 40
0.0018974620298636
 40
0.0933773143451738
 40
0.0933773143451738
 40
0.0933773143451738
 40
0.1850591082528384
 40
0.1850591082528384
 40
0.1850591082528384
 40
0.304940414424493
 40
0.304940414424493
 40
0.304940414424493
 40
0.4758778586957714
 40
0.4758778586957714
 40
0.4758778586957714
 40
0.6435832601580216
 40
0.6435832601580216
 40
0.6435832601580216
 40
0.8117700956088167
 40
0.8117700956088167
 40
0.8117700956088167
 40
0.9511043642845682
 40
0.9511043642845682
 40
0.9511043642845682
 40
0.9511043642845682
 10
0.5000000000009521
 20
-14.50277786346104
 30
0.0
 10
0.535106353737504
 20
-14.503167958138659
 30
0.0
 10
0.5657629595979614
 20
-14.498321785618639
 30
0.0
 10
0.5906744727891748
 20
-14.49215212249096
 30
0.0
 10
0.6242371798291373
 20
-14.483839877686711
 30
0.0
 10
0.652998848317992
 20
-14.47173009905654
 30
0.0
 10
0.6762491001334183
 20
-14.45969411805631
 30
0.0
 10
0.7105934783687218
 20
-14.441915029589371
 30
0.0
 10
0.7434188897559011
 20
-14.41885531277762
 30
0.0
 10
0.774126632663581
 20
-14.390914428003621
 30
0.0
 10
0.8239530310222847
 20
-14.345577534978631
 30
0.0
 10
0.8589336542962656
 20
-14.29584104082149
 30
0.0
 10
0.8815514726167351
 20
-14.258515671770491
 30
0.0
 10
0.9095074999309247
 20
-14.21238084913122
 30
0.0
 10
0.9330560377291874
 20
-14.161262089913169
 30
0.0
 10
0.9516135598015296
 20
-14.10642019150051
 30
0.0
 10
0.9692060484497063
 20
-14.05443019674216
 30
0.0
 10
0.9821698090952253
 20
-13.999517671465229
 30
0.0
 10
0.9902272707664395
 20
-13.942909795873501
 30
0.0
 10
0.9978052778102153
 20
-13.889670339395501
 30
0.0
 10
1.000000000000028
 20
-13.84226971762655
 30
0.0
 10
1.000000000000028
 20
-13.80400570200552
 30
0.0
 11
0.5000000000009521
 21
-14.50277786346104
 31
0.0
 11
0.5491603015995654
 21
-14.499924902152987
 31
0.0
 11
0.5906744727891748
 21
-14.49215212249096
 31
0.0
 11
0.6373289571704977
 21
-14.477319521347127
 31
0.0
 11
0.6762491001334183
 21
-14.45969411805631
 31
0.0
 11
0.7265516046463585
 21
-14.429114946645113
 31
0.0
 11
0.774126632663581
 21
-14.390914428003621
 31
0.0
 11
0.8380422701544958
 21
-14.321710728396811
 31
0.0
 11
0.8815514726167351
 21
-14.258515671770491
 31
0.0
 11
0.9201069556748253
 21
-14.185733085050522
 31
0.0
 11
0.9516135598015296
 21
-14.10642019150051
 31
0.0
 11
0.9744960504003455
 21
-14.026396698999523
 31
0.0
 11
0.9902272707664395
 21
-13.942909795873501
 31
0.0
 11
0.9979553880246497
 21
-13.867841958618147
 31
0.0
 11
1.000000000000028
 21
-13.80400570200552
 31
0.0
  0
SPLINE
  5
1D7
100
AcDbEntity
  8
0
  6
CONTINUOUS
 62
             7
100
AcDbSpline
210
0.0
220
0.0
230
1.0
 70
             0
 71
             3
 72
            32
 73
            28
 74
           109
 42
0.00000000001
 43
0.00000000001
 44
0.00000000001
 40
0.364012295126827
 40
0.364012295126827
 40
0.364012295126827
 40
0.364012295126827
 40
0.5029165996830932
 40
0.5029165996830932
 40
0.5029165996830932
 40
0.8185312934961038
 40
0.8185312934961038
 40
0.8185312934961038
 40
0.9509449951895609
 40
0.9509449951895609
 40
0.9509449951895609
 40
1.019742969082704
 40
1.019742969082704
 40
1.019742969082704
 40
1.0522237607108329
 40
1.0522237607108329
 40
1.0522237607108329
 40
1.060444678889134
 40
1.060444678889134
 40
1.060444678889134
 40
1.0624087369783179
 40
1.0624087369783179
 40
1.0624087369783179
 40
1.0628530415940809
 40
1.0628530415940809
 40
1.0628530415940809
 40
1.062993479214269
 40
1.062993479214269
 40
1.062993479214269
 40
1.062993479214269
 10
44.988887516808063
 20
-13.80400570200552
 30
0.0
 10
44.988887516808063
 20
-13.8509997572486
 30
0.0
 10
44.988961148765789
 20
-13.89741498407704
 30
0.0
 10
44.989103680249507
 20
-13.94290979587349
 30
0.0
 10
44.989483041627892
 20
-14.06399865330698
 30
0.0
 10
44.990327206178023
 20
-14.171162599452339
 30
0.0
 10
44.991364360298263
 20
-14.258515671770491
 30
0.0
 10
44.991709503866531
 20
-14.287584978337041
 30
0.0
 10
44.992376933753498
 20
-14.339934008932961
 30
0.0
 10
44.993340929037572
 20
-14.39091442800361
 30
0.0
 10
44.994009091492039
 20
-14.426249872584
 30
0.0
 10
44.994569906262448
 20
-14.447688641298431
 30
0.0
 10
44.994918459250229
 20
-14.459694118056291
 30
0.0
 10
44.995237350708813
 20
-14.470677940110541
 30
0.0
 10
44.995658306334157
 20
-14.48338113511554
 30
0.0
 10
44.996123207085333
 20
-14.49215212249095
 30
0.0
 10
44.996300301210432
 20
-14.4954932449381
 30
0.0
 10
44.99649198362026
 20
-14.498418295623081
 30
0.0
 10
44.996691508454113
 20
-14.5003529109417
 30
0.0
 10
44.996788142318763
 20
-14.501289883805001
 30
0.0
 10
44.996878336377307
 20
-14.5019142529025
 30
0.0
 10
44.996962186255537
 20
-14.50229768040232
 30
0.0
 10
44.997007519405827
 20
-14.50250497917048
 30
0.0
 10
44.997051308531653
 20
-14.502643269878069
 30
0.0
 10
44.997093572738052
 20
-14.50272134725612
 30
0.0
 10
44.997136905765942
 20
-14.502801399136629
 30
0.0
 10
44.997179765974352
 20
-14.502820233997801
 30
0.0
 10
44.997222136511112
 20
-14.50277786346104
 30
0.0
 11
44.988887516808063
 21
-13.80400570200552
 31
0.0
 11
44.988893630895134
 21
-13.827452912506313
 31
0.0
 11
44.988911885518725
 21
-13.850794163087523
 31
0.0
 11
44.988942149222396
 21
-13.874019965231991
 31
0.0
 11
44.988984290549702
 21
-13.897120830422576
 31
0.0
 11
44.989038178044211
 21
-13.920087270142123
 31
0.0
 11
44.989103680249507
 21
-13.94290979587349
 31
0.0
 11
44.989149499987178
 21
-13.956819455285876
 31
0.0
 11
44.989199352406509
 21
-13.970603511492973
 31
0.0
 11
44.989253144717274
 21
-13.984259955176661
 31
0.0
 11
44.989310784129188
 21
-13.997786777018822
 31
0.0
 11
44.989372177852012
 21
-14.011181967701344
 31
0.0
 11
44.989437233095458
 21
-14.024443517906104
 31
0.0
 11
44.98950585706929
 21
-14.037569418314984
 31
0.0
 11
44.989577956983247
 21
-14.050557659609867
 31
0.0
 11
44.98965344004705
 21
-14.063406232472639
 31
0.0
 11
44.989732213470461
 21
-14.076113127585181
 31
0.0
 11
44.989814184463214
 21
-14.088676335629373
 31
0.0
 11
44.989899260235042
 21
-14.101093847287101
 31
0.0
 11
44.989987347995694
 21
-14.113363653240242
 31
0.0
 11
44.990078354954896
 21
-14.125483744170683
 31
0.0
 11
44.99017218832239
 21
-14.137452110760306
 31
0.0
 11
44.99026875530793
 21
-14.149266743690992
 31
0.0
 11
44.990367963121251
 21
-14.160925633644624
 31
0.0
 11
44.990469718972093
 21
-14.172426771303087
 31
0.0
 11
44.990573930070184
 21
-14.183768147348255
 31
0.0
 11
44.990680503625285
 21
-14.194947752462024
 31
0.0
 11
44.990789346847109
 21
-14.205963577326262
 31
0.0
 11
44.990900366945439
 21
-14.216813612622865
 31
0.0
 11
44.991013471129961
 21
-14.227495849033703
 31
0.0
 11
44.991128566610442
 21
-14.238008277240665
 31
0.0
 11
44.991245560596639
 21
-14.248348887925633
 31
0.0
 11
44.991364360298263
 21
-14.258515671770491
 31
0.0
 11
44.991402572033067
 21
-14.261718198079141
 31
0.0
 11
44.991443243214668
 21
-14.265092148568892
 31
0.0
 11
44.991486366812921
 21
-14.268630786267567
 31
0.0
 11
44.991531935797695
 21
-14.272327374202986
 31
0.0
 11
44.991579943138859
 21
-14.276175175402958
 31
0.0
 11
44.991630381806281
 21
-14.280167452895315
 31
0.0
 11
44.991683244769824
 21
-14.284297469707868
 31
0.0
 11
44.991738524999334
 21
-14.288558488868436
 31
0.0
 11
44.991796215464703
 21
-14.29294377340484
 31
0.0
 11
44.991856309135777
 21
-14.297446586344895
 31
0.0
 11
44.991918798982432
 21
-14.302060190716421
 31
0.0
 11
44.991983677974524
 21
-14.306777849547238
 31
0.0
 11
44.992050939081913
 21
-14.311592825865162
 31
0.0
 11
44.992120575274491
 21
-14.316498382698013
 31
0.0
 11
44.99219257952209
 21
-14.321487783073609
 31
0.0
 11
44.992266944794579
 21
-14.326554290019766
 31
0.0
 11
44.992343664061863
 21
-14.331691166564312
 31
0.0
 11
44.992422730293761
 21
-14.336891675735055
 31
0.0
 11
44.992504136460163
 21
-14.342149080559821
 31
0.0
 11
44.992587875530901
 21
-14.347456644066419
 31
0.0
 11
44.992673940475875
 21
-14.352807629282676
 31
0.0
 11
44.992762324264923
 21
-14.358195299236407
 31
0.0
 11
44.992853019867951
 21
-14.363612916955432
 31
0.0
 11
44.992946020254784
 21
-14.369053745467573
 31
0.0
 11
44.993041318395292
 21
-14.374511047800638
 31
0.0
 11
44.99313890725935
 21
-14.379978086982454
 31
0.0
 11
44.993238779816828
 21
-14.385448126040842
 31
0.0
 11
44.993340929037572
 21
-14.39091442800361
 31
0.0
 11
44.9934313668684
 21
-14.39564718047426
 31
0.0
 11
44.99352041482517
 21
-14.40021017515839
 31
0.0
 11
44.993608013790265
 21
-14.404605927110801
 31
0.0
 11
44.993694104646032
 21
-14.408836951386277
 31
0.0
 11
44.993778628274839
 21
-14.412905763039623
 31
0.0
 11
44.993861525559055
 21
-14.416814877125628
 31
0.0
 11
44.993942737381033
 21
-14.420566808699093
 31
0.0
 11
44.994022204623143
 21
-14.424164072814806
 31
0.0
 11
44.994099868167751
 21
-14.427609184527563
 31
0.0
 11
44.994175668897221
 21
-14.430904658892164
 31
0.0
 11
44.994249547693911
 21
-14.4340530109634
 31
0.0
 11
44.994321445440178
 21
-14.437056755796064
 31
0.0
 11
44.994391303018418
 21
-14.43991840844496
 31
0.0
 11
44.994459061310963
 21
-14.442640483964869
 31
0.0
 11
44.994524661200174
 21
-14.445225497410597
 31
0.0
 11
44.994588043568434
 21
-14.447675963836934
 31
0.0
 11
44.994649149298098
 21
-14.449994398298676
 31
0.0
 11
44.994707919271519
 21
-14.452183315850617
 31
0.0
 11
44.994764294371109
 21
-14.454245231547558
 31
0.0
 11
44.994818215479157
 21
-14.456182660444284
 31
0.0
 11
44.994869623478088
 21
-14.457998117595601
 31
0.0
 11
44.994918459250229
 21
-14.459694118056291
 31
0.0
 11
44.995000274817976
 21
-14.462472623249045
 31
0.0
 11
44.995086141257119
 21
-14.465303145437737
 31
0.0
 11
44.995175856765421
 21
-14.468166061078676
 31
0.0
 11
44.99526921954066
 21
-14.471041746628186
 31
0.0
 11
44.995366027780619
 21
-14.473910578542583
 31
0.0
 11
44.995466079683055
 21
-14.476752933278185
 31
0.0
 11
44.995569173445759
 21
-14.47954918729131
 31
0.0
 11
44.995675107266507
 21
-14.482279717038281
 31
0.0
 11
44.995783679343063
 21
-14.484924898975411
 31
0.0
 11
44.995894687873196
 21
-14.48746510955902
 31
0.0
 11
44.996007931054706
 21
-14.489880725245428
 31
0.0
 11
44.996123207085333
 21
-14.49215212249095
 31
0.0
 11
44.996212938607442
 21
-14.493785351976916
 31
0.0
 11
44.996304914125318
 21
-14.495333281624632
 31
0.0
 11
44.996398946253933
 21
-14.496779956889522
 31
0.0
 11
44.99649484760829
 21
-14.498109423227042
 31
0.0
 11
44.996592430803361
 21
-14.499305726092622
 31
0.0
 11
44.996691508454113
 21
-14.5003529109417
 31
0.0
 11
44.996762777883106
 21
-14.500998147104463
 31
0.0
 11
44.996831641349736
 21
-14.501532875183315
 31
0.0
 11
44.996898107818907
 21
-14.501963813506514
 31
0.0
 11
44.996962186255537
 21
-14.50229768040232
 31
0.0
 11
44.997029030350753
 21
-14.502557971850511
 31
0.0
 11
44.997093572738052
 21
-14.50272134725612
 31
0.0
 11
44.997158215558756
 21
-14.502795513765054
 31
0.0
 11
44.997222136511112
 21
-14.50277786346104
 31
0.0
  0
SPLINE
  5
1D6
100
AcDbEntity
  8
0
  6
CONTINUOUS
 62
             7
100
AcDbSpline
210
0.0
220
0.0
230
1.0
 70
             0
 71
             3
 72
            11
 73
             7
 74
             5
 42
0.00000000001
 43
0.00000000001
 44
0.00000000001
 40
0.0
 40
0.0
 40
0.0
 40
0.0
 40
0.0089870857163006
 40
0.0089870857163006
 40
0.0089870857163006
 40
0.0179765393717188
 40
0.0179765393717188
 40
0.0179765393717188
 40
0.0179765393717188
 10
30.285022262164489
 20
-41.499999999999993
 30
0.0
 10
30.287973754102762
 20
-41.499999999999993
 30
0.0
 10
30.29096933284838
 20
-41.500048168266638
 30
0.0
 10
30.294007814556
 20
-41.500148513182857
 30
0.0
 10
30.29700331591394
 20
-41.500247438686358
 30
0.0
 10
30.29999625301831
 20
-41.500395613514208
 30
0.0
 10
30.302985997375249
 20
-41.500592522088859
 30
0.0
 11
30.285022262164489
 21
-41.499999999999993
 31
0.0
 11
30.289482417196741
 21
-41.500036627247844
 31
0.0
 11
30.294007814556
 21
-41.500148513182857
 31
0.0
 11
30.298499064841003
 21
-41.500333773984174
 31
0.0
 11
30.302985997375249
 21
-41.500592522088859
 31
0.0
  0
SPLINE
  5
1D5
100
AcDbEntity
  8
0
  6
CONTINUOUS
 62
             7
100
AcDbSpline
210
0.0
220
0.0
230
1.0
 70
             0
 71
             3
 72
            11
 73
             7
 74
             5
 42
0.00000000001
 43
0.00000000001
 44
0.00000000001
 40
0.2051908504546167
 40
0.2051908504546167
 40
0.2051908504546167
 40
0.2051908504546167
 40
0.8759080826322936
 40
0.8759080826322936
 40
0.8759080826322936
 40
1.549674272434524
 40
1.549674272434524
 40
1.549674272434524
 40
1.549674272434524
 10
30.571839724134929
 20
-41.585846039534552
 30
0.0
 10
30.830588934510139
 20
-41.586992152247198
 30
0.0
 10
31.0546924282582
 20
-41.587992397810368
 30
0.0
 10
31.242550296907961
 20
-41.588834856968028
 30
0.0
 10
31.466634696539781
 20
-41.589839776037508
 30
0.0
 10
31.691227202422969
 20
-41.590854394338713
 30
0.0
 10
31.916309623022158
 20
-41.591876072971893
 30
0.0
 11
30.571839724134929
 21
-41.585846039534552
 31
0.0
 11
30.933779263668491
 21
-41.587454318334409
 31
0.0
 11
31.242550296907961
 21
-41.588834856968028
 31
0.0
 11
31.579055702102298
 21
-41.590349180133572
 31
0.0
 11
31.916309623022158
 21
-41.591876072971893
 31
0.0
  0
SPLINE
  5
1D4
100
AcDbEntity
  8
0
  6
CONTINUOUS
 62
             7
100
AcDbSpline
210
0.0
220
0.0
230
1.0
 70
             0
 71
             6
 72
            15
 73
             8
 74
             5
 42
0.00000000001
 43
0.00000000001
 44
0.00000000001
 40
0.0
 40
0.0
 40
0.0
 40
0.0
 40
0.0
 40
0.0
 40
0.0
 40
0.5
 40
1.0
 40
1.0
 40
1.0
 40
1.0
 40
1.0
 40
1.0
 40
1.0
 10
45.499010978262042
 20
-18.5
 30
0.0
 10
45.433562553978661
 20
-18.500000000000011
 30
0.0
 10
45.302666900943493
 20
-18.47943861603498
 30
0.0
 10
45.179836943987787
 20
-18.417751370241131
 30
0.0
 10
45.081268688555987
 20
-18.319180972246919
 30
0.0
 10
45.019582783668312
 20
-18.196348345283759
 30
0.0
 10
44.999021846632772
 20
-18.065449846949779
 30
0.0
 10
44.9990218466328
 20
-17.999999999999979
 30
0.0
 11
45.499010978262042
 21
-18.5
 31
0.0
 11
45.307673401821198
 21
-18.461939759374715
 31
0.0
 11
45.14546528590963
 21
-18.353553377450751
 31
0.0
 11
45.037081259952743
 21
-18.191341735586363
 31
0.0
 11
44.9990218466328
 21
-17.999999999999979
 31
0.0
  0
SPLINE
  5
1D3
100
AcDbEntity
  8
0
  6
CONTINUOUS
 62
             7
100
AcDbSpline
210
0.0
220
0.0
230
1.0
 70
             0
 71
             6
 72
            14
 73
             7
 74
            16
 42
0.00000000001
 43
0.00000000001
 44
0.00000000001
 40
0.0
 40
0.0
 40
0.0
 40
0.0
 40
0.0
 40
0.0
 40
0.0
 40
0.5253626583950372
 40
0.5253626583950372
 40
0.5253626583950372
 40
0.5253626583950372
 40
0.5253626583950372
 40
0.5253626583950372
 40
0.5253626583950372
 10
44.9990218466328
 20
-17.999999999999979
 30
0.0
 10
44.997668839832102
 20
-17.999999999999979
 30
0.0
 10
44.99522148780926
 20
-18.039678742371962
 30
0.0
 10
44.991798474038767
 20
-18.114277170338021
 30
0.0
 10
44.987680656635597
 20
-18.219036227117801
 30
0.0
 10
44.983288987811349
 20
-18.349196855931581
 30
0.0
 10
44.979071710130007
 20
-18.5
 30
0.0
 11
44.9990218466328
 21
-17.999999999999979
 31
0.0
 11
44.998408438743176
 21
-18.002617047673503
 31
0.0
 11
44.997654005010858
 21
-18.010355383422286
 31
0.0
 11
44.996764464685043
 21
-18.023045796338653
 31
0.0
 11
44.995746835960624
 21
-18.040519075514901
 31
0.0
 11
44.99460920070603
 21
-18.062606010043343
 31
0.0
 11
44.993360663456428
 21
-18.089137389016255
 31
0.0
 11
44.992011304672516
 21
-18.119944001525923
 31
0.0
 11
44.990572128264461
 21
-18.154856636664629
 31
0.0
 11
44.989055003381452
 21
-18.19370608352466
 31
0.0
 11
44.987472600466418
 21
-18.236323131198269
 31
0.0
 11
44.985838321576495
 21
-18.282538568777753
 31
0.0
 11
44.984166224968497
 21
-18.33218318535539
 31
0.0
 11
44.982470943949977
 21
-18.385087770023446
 31
0.0
 11
44.980767599995872
 21
-18.441083111874228
 31
0.0
 11
44.979071710130007
 21
-18.5
 31
0.0
  0
SPLINE
  5
1D2
100
AcDbEntity
  8
0
  6
CONTINUOUS
 62
             7
100
AcDbSpline
210
0.0
220
0.0
230
1.0
 70
             0
 71
             3
 72
            35
 73
            31
 74
            21
 42
0.00000000001
 43
0.00000000001
 44
0.00000000001
 40
0.0
 40
0.0
 40
0.0
 40
0.0
 40
0.2871407446009064
 40
0.2871407446009064
 40
0.2871407446009064
 40
0.4462695400615084
 40
0.4462695400615084
 40
0.4462695400615084
 40
0.6469632449823455
 40
0.6469632449823455
 40
0.6469632449823455
 40
0.7832432990434171
 40
0.7832432990434171
 40
0.7832432990434171
 40
0.9147242360515475
 40
0.9147242360515475
 40
0.9147242360515475
 40
1.0750478869970139
 40
1.0750478869970139
 40
1.0750478869970139
 40
1.2310822357738169
 40
1.2310822357738169
 40
1.2310822357738169
 40
1.382731916029083
 40
1.382731916029083
 40
1.382731916029083
 40
1.5307316526024459
 40
1.5307316526024459
 40
1.5307316526024459
 40
1.6858104004277179
 40
1.6858104004277179
 40
1.6858104004277179
 40
1.6858104004277179
 10
28.86025968756126
 20
-19.546037216974671
 30
0.0
 10
28.855205403418609
 20
-19.44941697306691
 30
0.0
 10
28.86879535477123
 20
-19.354028276223779
 30
0.0
 10
28.897746163368488
 20
-19.26252439548503
 30
0.0
 10
28.913641462889331
 20
-19.212284638388962
 30
0.0
 10
28.934170120136439
 20
-19.163207043872589
 30
0.0
 10
28.958794026843609
 20
-19.115730850783219
 30
0.0
 10
28.98281322239421
 20
-19.06942057275252
 30
0.0
 10
29.01772395836835
 20
-19.011136051980351
 30
0.0
 10
29.068024701630211
 20
-18.94763984096577
 30
0.0
 10
29.092177917673911
 20
-18.917150476333379
 30
0.0
 10
29.122188264073909
 20
-18.88254573627113
 30
0.0
 10
29.158843505323009
 20
-18.846111857549861
 30
0.0
 10
29.18578912270004
 20
-18.819328965877911
 30
0.0
 10
29.218405381133511
 20
-18.789490190672321
 30
0.0
 10
29.257003673566839
 20
-18.75871075657621
 30
0.0
 10
29.29234388252004
 20
-18.73052941580066
 30
0.0
 10
29.336228465384441
 20
-18.69874411510763
 30
0.0
 10
29.388544409199799
 20
-18.667204814774809
 30
0.0
 10
29.432984416494289
 20
-18.640413618159851
 30
0.0
 10
29.479263532618379
 20
-18.616359404213568
 30
0.0
 10
29.52698570258304
 20
-18.595402673991881
 30
0.0
 10
29.567667732372151
 20
-18.577537553361541
 30
0.0
 10
29.615456529916511
 20
-18.55926271890046
 30
0.0
 10
29.669405488333691
 20
-18.54353842307075
 30
0.0
 10
29.72303685786591
 20
-18.527906693654291
 30
0.0
 10
29.771727692306261
 20
-18.518009842676001
 30
0.0
 10
29.81384859549685
 20
-18.511672343724971
 30
0.0
 10
29.85985407010379
 20
-18.504750373278501
 30
0.0
 10
29.91181247304414
 20
-18.500000000000021
 30
0.0
 10
29.968379028635741
 20
-18.5
 30
0.0
 11
28.86025968756126
 21
-19.546037216974671
 31
0.0
 11
28.866251015687407
 21
-19.402362170041471
 31
0.0
 11
28.897746163368488
 21
-19.26252439548503
 31
0.0
 11
28.924996867411171
 21
-19.188091286631607
 31
0.0
 11
28.958794026843609
 21
-19.115730850783219
 31
0.0
 11
29.003553783845188
 21
-19.038130070743453
 31
0.0
 11
29.068024701630211
 21
-18.94763984096577
 31
0.0
 11
29.108745844024586
 21
-18.899105042041146
 31
0.0
 11
29.158843505323009
 21
-18.846111857549861
 31
0.0
 11
29.203553836298809
 21
-18.803910010472098
 31
0.0
 11
29.257003673566839
 21
-18.75871075657621
 31
0.0
 11
29.316408140810008
 21
-18.714217020509484
 31
0.0
 11
29.388544409199799
 21
-18.667204814774809
 31
0.0
 11
29.456534244890104
 21
-18.629115819485868
 31
0.0
 11
29.52698570258304
 21
-18.595402673991881
 31
0.0
 11
29.593220497222838
 21
-18.568667739231078
 31
0.0
 11
29.669405488333691
 21
-18.54353842307075
 31
0.0
 11
29.745943466793385
 21
-18.524120046973323
 31
0.0
 11
29.81384859549685
 21
-18.511672343724971
 31
0.0
 11
29.887153406697049
 21
-18.503240432945066
 31
0.0
 11
29.968379028635741
 21
-18.5
 31
0.0
  0
SPLINE
  5
1D1
100
AcDbEntity
  8
0
  6
CONTINUOUS
 62
             7
100
AcDbSpline
210
0.0
220
0.0
230
1.0
 70
             0
 71
             3
 72
            11
 73
             7
 74
             5
 42
0.00000000001
 43
0.00000000001
 44
0.00000000001
 40
14.71344883075894
 40
14.71344883075894
 40
14.71344883075894
 40
14.71344883075894
 40
24.37825864616541
 40
24.37825864616541
 40
24.37825864616541
 40
33.918174090741822
 40
33.918174090741822
 40
33.918174090741822
 40
33.918174090741822
 10
28.86025968756126
 20
-19.546037216974671
 30
0.0
 10
29.014559778584481
 20
-22.495975519157419
 30
0.0
 10
29.372376243821869
 20
-25.679311611916511
 30
0.0
 10
29.93945199489951
 20
-29.146781814705189
 30
0.0
 10
30.413122504023779
 20
-32.043111578774457
 30
0.0
 10
31.03470327479663
 20
-35.149356241095028
 30
0.0
 10
31.811110365699641
 20
-38.500000000000028
 30
0.0
 11
28.86025968756126
 21
-19.546037216974671
 31
0.0
 11
29.245064968709979
 21
-24.152335053112704
 31
0.0
 11
29.93945199489951
 21
-29.146781814705189
 31
0.0
 11
30.761754962132549
 21
-33.653023159289212
 31
0.0
 11
31.811110365699641
 21
-38.500000000000028
 31
0.0
  0
SPLINE
  5
1D0
100
AcDbEntity
  8
0
  6
CONTINUOUS
 62
             7
100
AcDbSpline
210
0.0
220
0.0
230
1.0
 70
             0
 71
             3
 72
            11
 73
             7
 74
             5
 42
0.00000000001
 43
0.00000000001
 44
0.00000000001
 40
0.0
 40
0.0
 40
0.0
 40
0.0
 40
0.1322516034883261
 40
0.1322516034883261
 40
0.1322516034883261
 40
0.2834030377371211
 40
0.2834030377371211
 40
0.2834030377371211
 40
0.2834030377371211
 10
30.302985997375249
 20
-41.500592522088859
 30
0.0
 10
30.339726511126649
 20
-41.5030123048451
 30
0.0
 10
30.38345648848243
 20
-41.512782963788993
 30
0.0
 10
30.43194956415666
 20
-41.528785363609252
 30
0.0
 10
30.485027136031739
 20
-41.546300617381547
 30
0.0
 10
30.535220502050091
 20
-41.568442194124543
 30
0.0
 10
30.571839724134929
 20
-41.585846039534552
 30
0.0
 11
30.302985997375249
 21
-41.500592522088859
 31
0.0
 11
30.36306057004489
 21
-41.509595461450047
 31
0.0
 11
30.43194956415666
 21
-41.528785363609252
 31
0.0
 11
30.508066525317133
 21
-41.557357479707761
 31
0.0
 11
30.571839724134929
 21
-41.585846039534552
 31
0.0
  0
SPLINE
  5
1CF
100
AcDbEntity
  8
0
  6
CONTINUOUS
 62
             7
100
AcDbSpline
210
0.0
220
0.0
230
1.0
 70
             0
 71
             3
 72
            20
 73
            16
 74
            20
 42
0.00000000001
 43
0.00000000001
 44
0.00000000001
 40
0.4428366282860505
 40
0.4428366282860505
 40
0.4428366282860505
 40
0.4428366282860505
 40
0.617030086704814
 40
0.617030086704814
 40
0.617030086704814
 40
0.7002657800361271
 40
0.7002657800361271
 40
0.7002657800361271
 40
0.740870423917919
 40
0.740870423917919
 40
0.740870423917919
 40
0.7608988661888427
 40
0.7608988661888427
 40
0.7608988661888427
 40
0.7807368249983457
 40
0.7807368249983457
 40
0.7807368249983457
 40
0.7807368249983457
 10
31.921078177949539
 20
-38.724659130815553
 30
0.0
 10
31.883793806194721
 20
-38.696517821000228
 30
0.0
 10
31.837040022793879
 20
-38.659329152354807
 30
0.0
 10
31.78647257377273
 20
-38.614151998576418
 30
0.0
 10
31.765556088202
 20
-38.595465129781907
 30
0.0
 10
31.745230677679661
 20
-38.576522236340281
 30
0.0
 10
31.725589393388471
 20
-38.55740143348558
 30
0.0
 10
31.715775451795832
 20
-38.547847555050822
 30
0.0
 10
31.70618038310247
 20
-38.538296060575398
 30
0.0
 10
31.696810508377251
 20
-38.528757734351593
 30
0.0
 10
31.692109792702031
 20
-38.523972509264773
 30
0.0
 10
31.687457938691711
 20
-38.519182639814311
 30
0.0
 10
31.682856828731751
 20
-38.514390061412627
 30
0.0
 10
31.6748148300269
 20
-38.506013406728343
 30
0.0
 10
31.66941029689529
 20
-38.500212659573592
 30
0.0
 10
31.669201520751429
 20
-38.499999999999979
 30
0.0
 11
31.921078177949539
 21
-38.724659130815553
 31
0.0
 11
31.904535890641963
 21
-38.712047736633089
 31
0.0
 11
31.886933017873808
 21
-38.69834702516583
 31
0.0
 11
31.868368493977883
 21
-38.683575518985748
 31
0.0
 11
31.848941253287002
 21
-38.667751740664805
 31
0.0
 11
31.82875023013397
 21
-38.650894212774958
 31
0.0
 11
31.807894358851605
 21
-38.633021457888169
 31
0.0
 11
31.78647257377273
 21
-38.614151998576418
 31
0.0
 11
31.755552783100772
 21
-38.585939441303573
 31
0.0
 11
31.725589393388471
 21
-38.55740143348558
 31
0.0
 11
31.711033425807578
 21
-38.543073751839479
 31
0.0
 11
31.696810508377251
 21
-38.528757734351593
 31
0.0
 11
31.689796316411279
 21
-38.521576655375185
 31
0.0
 11
31.682856828731751
 21
-38.514390061412627
 31
0.0
 11
31.67906746211883
 21
-38.510430338309298
 31
0.0
 11
31.675788736751851
 21
-38.506983604795657
 31
0.0
 11
31.67309171628122
 21
-38.504133532539804
 31
0.0
 11
31.671047464357329
 21
-38.501963793209825
 31
0.0
 11
31.669727044630612
 21
-38.500558058473871
 31
0.0
 11
31.669201520751429
 21
-38.499999999999979
 31
0.0
  0
SPLINE
  5
1CE
100
AcDbEntity
  8
0
  6
CONTINUOUS
 62
             7
100
AcDbSpline
210
0.0
220
0.0
230
1.0
 70
             0
 71
             3
 72
            11
 73
             7
 74
             5
 42
0.00000000001
 43
0.00000000001
 44
0.00000000001
 40
35.71500857627489
 40
35.71500857627489
 40
35.71500857627489
 40
35.71500857627489
 40
37.000060099458032
 40
37.000060099458032
 40
37.000060099458032
 40
38.282066660820227
 40
38.282066660820227
 40
38.282066660820227
 40
38.282066660820227
 10
31.669201520751429
 20
-38.499999999999979
 30
0.0
 10
31.77108769241336
 20
-38.950640186271897
 30
0.0
 10
31.867804715897059
 20
-39.370545070149113
 30
0.0
 10
31.956866623812449
 20
-39.752438216596317
 30
0.0
 10
32.061835663686082
 20
-40.202540374243441
 30
0.0
 10
32.161115024264532
 20
-40.621035302142552
 30
0.0
 10
32.252038216724657
 20
-40.999999999999993
 30
0.0
 11
31.669201520751429
 21
-38.499999999999979
 31
0.0
 11
31.817843171186887
 21
-39.151999248232407
 31
0.0
 11
31.956866623812449
 21
-39.752438216596317
 31
0.0
 11
32.109719613048618
 21
-40.402895655719291
 31
0.0
 11
32.252038216724657
 21
-40.999999999999993
 31
0.0
  0
SPLINE
  5
1CD
100
AcDbEntity
  8
0
  6
CONTINUOUS
 62
             7
100
AcDbSpline
210
0.0
220
0.0
230
1.0
 70
             0
 71
             3
 72
            11
 73
             7
 74
             5
 42
0.00000000001
 43
0.00000000001
 44
0.00000000001
 40
0.8304002046997362
 40
0.8304002046997362
 40
0.8304002046997362
 40
0.8304002046997362
 40
0.9572048951445908
 40
0.9572048951445908
 40
0.9572048951445908
 40
1.082356764092216
 40
1.082356764092216
 40
1.082356764092216
 40
1.082356764092216
 10
31.921078177949539
 20
-38.724659130815553
 30
0.0
 10
31.900230927515889
 20
-38.697836233586393
 30
0.0
 10
31.875454081757301
 20
-38.661753211497583
 30
0.0
 10
31.853572716935862
 20
-38.617505928515783
 30
0.0
 10
31.834550361261481
 20
-38.579039975346348
 30
0.0
 10
31.820285012212171
 20
-38.539593883721018
 30
0.0
 10
31.811110365699641
 20
-38.500000000000028
 30
0.0
 11
31.921078177949539
 21
-38.724659130815553
 31
0.0
 11
31.887713240338126
 21
-38.677616674322913
 31
0.0
 11
31.853572716935862
 21
-38.617505928515783
 31
0.0
 11
31.82864865038206
 21
-38.559175938214736
 31
0.0
 11
31.811110365699641
 21
-38.500000000000028
 31
0.0
  0
SPLINE
  5
1CC
100
AcDbEntity
  8
0
  6
CONTINUOUS
 62
             7
100
AcDbSpline
210
0.0
220
0.0
230
1.0
 70
             0
 71
             6
 72
            14
 73
             7
 74
             3
 42
0.00000000001
 43
0.00000000001
 44
0.00000000001
 40
0.0
 40
0.0
 40
0.0
 40
0.0
 40
0.0
 40
0.0
 40
0.0
 40
0.5
 40
0.5
 40
0.5
 40
0.5
 40
0.5
 40
0.5
 40
0.5
 10
35.940493514012857
 20
-60.043588389584031
 30
0.0
 10
35.964745129292233
 20
-60.124056606394348
 30
0.0
 10
36.008357641968189
 20
-60.199526818126969
 30
0.0
 10
36.067073683462169
 20
-60.268047868630731
 30
0.0
 10
36.136635634314707
 20
-60.327668601795992
 30
0.0
 10
36.212785875226501
 20
-60.376437861555587
 30
0.0
 10
36.291266787058468
 20
-60.412404491884871
 30
0.0
 11
35.940493514012857
 21
-60.043588389584031
 31
0.0
 11
36.075208111588601
 21
-60.261372630634803
 31
0.0
 11
36.291266787058468
 21
-60.412404491884871
 31
0.0
  0
SPLINE
  5
1CB
100
AcDbEntity
  8
0
  6
CONTINUOUS
 62
             7
100
AcDbSpline
210
0.0
220
0.0
230
1.0
 70
             0
 71
             3
 72
            11
 73
             7
 74
             5
 42
0.00000000001
 43
0.00000000001
 44
0.00000000001
 40
173.83444590307451
 40
173.83444590307451
 40
173.83444590307451
 40
173.83444590307451
 40
175.98904694491591
 40
175.98904694491591
 40
175.98904694491591
 40
178.1451689244125
 40
178.1451689244125
 40
178.1451689244125
 40
178.1451689244125
 10
34.358327633197668
 20
-61.644151761915609
 30
0.0
 10
34.29942555240558
 20
-62.307018124721218
 30
0.0
 10
34.237197913906037
 20
-63.022758704700962
 30
0.0
 10
34.172273104468211
 20
-63.790703427579963
 30
0.0
 10
34.107856668979572
 20
-64.552634993163196
 30
0.0
 10
34.048701407486057
 20
-65.272324767506575
 30
0.0
 10
33.994980232358799
 20
-65.939522773951239
 30
0.0
 11
34.358327633197668
 21
-61.644151761915609
 31
0.0
 11
34.267558892075094
 21
-62.678023209720287
 31
0.0
 11
34.172273104468211
 21
-63.790703427579963
 31
0.0
 11
34.079615945777988
 21
-64.900638185442546
 31
0.0
 11
33.994980232358799
 21
-65.939522773951239
 31
0.0
  0
SPLINE
  5
1CA
100
AcDbEntity
  8
0
  6
CONTINUOUS
 62
             7
100
AcDbSpline
210
0.0
220
0.0
230
1.0
 70
             0
 71
             3
 72
            11
 73
             7
 74
             5
 42
0.00000000001
 43
0.00000000001
 44
0.00000000001
 40
0.0
 40
0.0
 40
0.0
 40
0.0
 40
0.0299324705698767
 40
0.0299324705698767
 40
0.0299324705698767
 40
0.0564238718960115
 40
0.0564238718960115
 40
0.0564238718960115
 40
0.0564238718960115
 10
35.217907588573077
 20
-61.891194065450883
 30
0.0
 10
35.210787729188148
 20
-61.898313924835833
 30
0.0
 10
35.203139419240308
 20
-61.904831445516713
 30
0.0
 10
35.194965211499088
 20
-61.910366653896723
 30
0.0
 10
35.187689161817389
 20
-61.915293669755187
 30
0.0
 10
35.17988132479654
 20
-61.919520215593288
 30
0.0
 10
35.1715551001666
 20
-61.92266985685167
 30
0.0
 11
35.217907588573077
 21
-61.891194065450883
 31
0.0
 11
35.206831780669688
 21
-61.901374603800662
 31
0.0
 11
35.194965211499088
 21
-61.910366653896723
 31
0.0
 11
35.183653971438439
 21
-61.917184770849232
 31
0.0
 11
35.1715551001666
 21
-61.92266985685167
 31
0.0
  0
SPLINE
  5
1C9
100
AcDbEntity
  8
0
  6
CONTINUOUS
 62
             7
100
AcDbSpline
210
0.0
220
0.0
230
1.0
 70
             0
 71
             3
 72
            35
 73
            31
 74
            23
 42
0.00000000001
 43
0.00000000001
 44
0.00000000001
 40
0.0
 40
0.0
 40
0.0
 40
0.0
 40
0.2148521334303416
 40
0.2148521334303416
 40
0.2148521334303416
 40
0.4004131008768302
 40
0.4004131008768302
 40
0.4004131008768302
 40
0.5899514339265883
 40
0.5899514339265883
 40
0.5899514339265883
 40
0.6851944638049369
 40
0.6851944638049369
 40
0.6851944638049369
 40
0.779168672705152
 40
0.779168672705152
 40
0.779168672705152
 40
0.9103329080371219
 40
0.9103329080371219
 40
0.9103329080371219
 40
1.0025233730240319
 40
1.0025233730240319
 40
1.0025233730240319
 40
1.0530875527705099
 40
1.0530875527705099
 40
1.0530875527705099
 40
1.099503229019883
 40
1.099503229019883
 40
1.099503229019883
 40
1.1127388928930051
 40
1.1127388928930051
 40
1.1127388928930051
 40
1.1127388928930051
 10
33.994980232358799
 20
-65.939522773951239
 30
0.0
 10
34.01375808182199
 20
-65.987026430703651
 30
0.0
 10
34.043858749985787
 20
-66.05367783295614
 30
0.0
 10
34.091340163902551
 20
-66.131333055198198
 30
0.0
 10
34.124009862019562
 20
-66.184763912845028
 30
0.0
 10
34.16014880859538
 20
-66.235612514902144
 30
0.0
 10
34.198350684799173
 20
-66.282807672141843
 30
0.0
 10
34.226622790304347
 20
-66.317735445262088
 30
0.0
 10
34.270651311270043
 20
-66.368757127776206
 30
0.0
 10
34.32741944206915
 20
-66.421448185629046
 30
0.0
 10
34.347623613444952
 20
-66.440201298473283
 30
0.0
 10
34.372099267907338
 20
-66.461631429364374
 30
0.0
 10
34.399854258225609
 20
-66.483256229844883
 30
0.0
 10
34.429808860302508
 20
-66.506594818183714
 30
0.0
 10
34.455821351577178
 20
-66.52411275852657
 30
0.0
 10
34.476835492890011
 20
-66.537094907953673
 30
0.0
 10
34.517617725198242
 20
-66.562289419873764
 30
0.0
 10
34.557471156057098
 20
-66.58145382637818
 30
0.0
 10
34.595021239983133
 20
-66.593434441043115
 30
0.0
 10
34.627235157689988
 20
-66.603712514872569
 30
0.0
 10
34.657775427221168
 20
-66.608710357087617
 30
0.0
 10
34.68576464563877
 20
-66.607677666166353
 30
0.0
 10
34.70563853352057
 20
-66.606944398688867
 30
0.0
 10
34.721983704846693
 20
-66.603253625697903
 30
0.0
 10
34.735311199788889
 20
-66.598392923615194
 30
0.0
 10
34.74874316484744
 20
-66.593494119990225
 30
0.0
 10
34.762435020752889
 20
-66.586193998367662
 30
0.0
 10
34.775447372822647
 20
-66.575423113981827
 30
0.0
 10
34.778911277135741
 20
-66.572555891155417
 30
0.0
 10
34.782167429821207
 20
-66.569574823494676
 30
0.0
 10
34.785229546204569
 20
-66.566512751545702
 30
0.0
 11
33.994980232358799
 21
-65.939522773951239
 31
0.0
 11
34.017756722390793
 21
-65.993107385666249
 31
0.0
 11
34.049427964234837
 21
-66.057647399823423
 31
0.0
 11
34.091340163902551
 21
-66.131333055198198
 31
0.0
 11
34.142770857568323
 21
-66.209408751322712
 31
0.0
 11
34.198350684799173
 21
-66.282807672141843
 31
0.0
 11
34.231763195249442
 21
-66.322565839724675
 31
0.0
 11
34.275009581422928
 21
-66.369847828224493
 31
0.0
 11
34.32741944206915
 21
-66.421448185629046
 31
0.0
 11
34.360805293043953
 21
-66.451275324873365
 31
0.0
 11
34.399854258225609
 21
-66.483256229844883
 31
0.0
 11
34.44169754834433
 21
-66.514059233491167
 31
0.0
 11
34.476835492890011
 21
-66.537094907953673
 31
0.0
 11
34.537140422079901
 21
-66.570219885969081
 31
0.0
 11
34.595021239983133
 21
-66.593434441043115
 31
0.0
 11
34.641977205044419
 21
-66.604797590386255
 31
0.0
 11
34.68576464563877
 21
-66.607677666166353
 31
0.0
 11
34.712992820066191
 21
-66.604583082867734
 31
0.0
 11
34.735311199788889
 21
-66.598392923615194
 31
0.0
 11
34.755536641176569
 21
-66.589110049083843
 31
0.0
 11
34.775447372822647
 21
-66.575423113981827
 31
0.0
 11
34.780489129987259
 21
-66.571041001184724
 31
0.0
 11
34.785229546204569
 21
-66.566512751545702
 31
0.0
  0
SPLINE
  5
1C8
100
AcDbEntity
  8
0
  6
CONTINUOUS
 62
             7
100
AcDbSpline
210
0.0
220
0.0
230
1.0
 70
             0
 71
             3
 72
            11
 73
             7
 74
             5
 42
0.00000000001
 43
0.00000000001
 44
0.00000000001
 40
174.04773149016279
 40
174.04773149016279
 40
174.04773149016279
 40
174.04773149016279
 40
176.37660442395611
 40
176.37660442395611
 40
176.37660442395611
 40
178.7076297389647
 40
178.7076297389647
 40
178.7076297389647
 40
178.7076297389647
 10
35.1715551001666
 20
-61.92266985685167
 30
0.0
 10
35.109465478721908
 20
-62.630929432051502
 30
0.0
 10
35.043137740742317
 20
-63.404914734775119
 30
0.0
 10
34.973451741969861
 20
-64.243100282387729
 30
0.0
 10
34.909857240628661
 20
-65.008017093092604
 30
0.0
 10
34.847125460456049
 20
-65.782376848594851
 30
0.0
 10
34.785229546204569
 20
-66.566512751545702
 30
0.0
 11
35.1715551001666
 21
-61.92266985685167
 31
0.0
 11
35.075352062566147
 21
-63.034162829964906
 31
0.0
 11
34.973451741969861
 21
-64.243100282387729
 31
0.0
 11
34.87870367392857
 21
-65.397599357374474
 31
0.0
 11
34.785229546204569
 21
-66.566512751545702
 31
0.0
  0
SPLINE
  5
1C7
100
AcDbEntity
  8
0
  6
CONTINUOUS
 62
             7
100
AcDbSpline
210
0.0
220
0.0
230
1.0
 70
             0
 71
             3
 72
            50
 73
            46
 74
           111
 42
0.00000000001
 43
0.00000000001
 44
0.00000000001
 40
0.0
 40
0.0
 40
0.0
 40
0.0
 40
0.1094540764322874
 40
0.1094540764322874
 40
0.1094540764322874
 40
0.2115729360234349
 40
0.2115729360234349
 40
0.2115729360234349
 40
0.42320027969565
 40
0.42320027969565
 40
0.42320027969565
 40
0.5424364717430791
 40
0.5424364717430791
 40
0.5424364717430791
 40
0.6595299633139921
 40
0.6595299633139921
 40
0.6595299633139921
 40
0.7811762523677013
 40
0.7811762523677013
 40
0.7811762523677013
 40
0.836947159047304
 40
0.836947159047304
 40
0.836947159047304
 40
0.8632743618919513
 40
0.8632743618919513
 40
0.8632743618919513
 40
0.876024478426599
 40
0.876024478426599
 40
0.876024478426599
 40
0.8822948695804749
 40
0.8822948695804749
 40
0.8822948695804749
 40
0.8854053324149244
 40
0.8854053324149244
 40
0.8854053324149244
 40
0.8869577412476164
 40
0.8869577412476164
 40
0.8869577412476164
 40
0.8877416439799134
 40
0.8877416439799134
 40
0.8877416439799134
 40
0.8881468165899598
 40
0.8881468165899598
 40
0.8881468165899598
 40
0.888504318714553
 40
0.888504318714553
 40
0.888504318714553
 40
0.888504318714553
 10
35.1715551001666
 20
-61.92266985685167
 30
0.0
 10
35.142299985245579
 20
-61.933736468936438
 30
0.0
 10
35.104580919749509
 20
-61.937829738877006
 30
0.0
 10
35.06350767805219
 20
-61.937147396521382
 30
0.0
 10
35.032294639160398
 20
-61.936628859936398
 30
0.0
 10
34.998011597921888
 20
-61.933334230711957
 30
0.0
 10
34.961894532135901
 20
-61.927628094082827
 30
0.0
 10
34.897827481304432
 20
-61.917506138228653
 30
0.0
 10
34.827350411020717
 20
-61.899694868905073
 30
0.0
 10
34.756910909518552
 20
-61.875768475085792
 30
0.0
 10
34.719587616050298
 20
-61.863090761599622
 30
0.0
 10
34.682210822716698
 20
-61.848674503795763
 30
0.0
 10
34.645738876212818
 20
-61.832736574647043
 30
0.0
 10
34.609568964228437
 20
-61.816930632003938
 30
0.0
 10
34.574253430713668
 20
-61.799612584293698
 30
0.0
 10
34.540737782247653
 20
-61.780987665486791
 30
0.0
 10
34.495699424836147
 20
-61.755959483476943
 30
0.0
 10
34.462191571688777
 20
-61.733174894732947
 30
0.0
 10
34.438374639870823
 20
-61.715388965918933
 30
0.0
 10
34.423023764116103
 20
-61.70392529018217
 30
0.0
 10
34.408560339836107
 20
-61.692192811555337
 30
0.0
 10
34.3951029813486
 20
-61.680224437156937
 30
0.0
 10
34.388877359294483
 20
-61.674687646584267
 30
0.0
 10
34.382402522294157
 20
-61.668687246558108
 30
0.0
 10
34.37585534941288
 20
-61.662264845406384
 30
0.0
 10
34.373221504019718
 20
-61.659681194112437
 30
0.0
 10
34.370172502325268
 20
-61.656633524434383
 30
0.0
 10
34.366870170215208
 20
-61.653219127728008
 30
0.0
 10
34.365893538214017
 20
-61.652209353732829
 30
0.0
 10
34.364343845730687
 20
-61.650598076414063
 30
0.0
 10
34.36254230119421
 20
-61.648681852382182
 30
0.0
 10
34.36231477974345
 20
-61.648439847778427
 30
0.0
 10
34.361377473374652
 20
-61.647442825053048
 30
0.0
 10
34.360421417152267
 20
-61.646406598590332
 30
0.0
 10
34.359807566753197
 20
-61.645741273672442
 30
0.0
 10
34.35949972530161
 20
-61.645399729302717
 30
0.0
 10
34.359374529703459
 20
-61.645260310326179
 30
0.0
 10
34.359143211355999
 20
-61.64500271207406
 30
0.0
 10
34.358977763641647
 20
-61.644813340894217
 30
0.0
 10
34.358859152940823
 20
-61.644669686354163
 30
0.0
 10
34.358687573399862
 20
-61.644461878965252
 30
0.0
 10
34.358645862848988
 20
-61.644387834371209
 30
0.0
 10
34.358617387920297
 20
-61.644344815162171
 30
0.0
 10
34.358540205753208
 20
-61.644228210277362
 30
0.0
 10
34.358431346637467
 20
-61.644155365371923
 30
0.0
 10
34.358327633197668
 20
-61.644151761915609
 30
0.0
 11
35.1715551001666
 21
-61.92266985685167
 31
0.0
 11
35.165971826701622
 21
-61.924663664319453
 31
0.0
 11
35.160197664416089
 21
-61.926497253411554
 31
0.0
 11
35.154240098331059
 21
-61.928173843458829
 31
0.0
 11
35.148106613467604
 21
-61.929696653792085
 31
0.0
 11
35.141804694846762
 21
-61.931068903742165
 31
0.0
 11
35.135341827489597
 21
-61.932293812639898
 31
0.0
 11
35.128725496417161
 21
-61.933374599816126
 31
0.0
 11
35.121963186650504
 21
-61.934314484601671
 31
0.0
 11
35.115062383210685
 21
-61.935116686327355
 31
0.0
 11
35.108030571118775
 21
-61.935784424324048
 31
0.0
 11
35.100875235395819
 21
-61.936320917922558
 31
0.0
 11
35.093603861062846
 21
-61.936729386453678
 31
0.0
 11
35.086223933140957
 21
-61.937013049248307
 31
0.0
 11
35.078742936651182
 21
-61.93717512563726
 31
0.0
 11
35.071168356614564
 21
-61.937218834951324
 31
0.0
 11
35.06350767805219
 21
-61.937147396521382
 31
0.0
 11
35.05405290229205
 21
-61.936908917351936
 31
0.0
 11
35.044421342257912
 21
-61.936506060135535
 31
0.0
 11
35.03462041381654
 21
-61.93594101238358
 31
0.0
 11
35.024657532834766
 21
-61.93521596160749
 31
0.0
 11
35.014540115179365
 21
-61.934333095318657
 31
0.0
 11
35.004275576717149
 21
-61.933294601028514
 31
0.0
 11
34.993871333314893
 21
-61.93210266624844
 31
0.0
 11
34.983334800839401
 21
-61.930759478489861
 31
0.0
 11
34.972673395157472
 21
-61.929267225264191
 31
0.0
 11
34.961894532135901
 21
-61.927628094082827
 31
0.0
 11
34.948997565440095
 21
-61.925501645158768
 31
0.0
 11
34.935941127271313
 21
-61.923172946433688
 31
0.0
 11
34.922736680008619
 21
-61.92064479646578
 31
0.0
 11
34.909395686031118
 21
-61.917919993813214
 31
0.0
 11
34.895929607717896
 21
-61.915001337034177
 31
0.0
 11
34.882349907448024
 21
-61.911891624686824
 31
0.0
 11
34.868668047600579
 21
-61.908593655329334
 31
0.0
 11
34.854895490554661
 21
-61.905110227519891
 31
0.0
 11
34.84104369868934
 21
-61.901444139816689
 31
0.0
 11
34.827124134383681
 21
-61.897598190777835
 31
0.0
 11
34.81314826001681
 21
-61.893575178961612
 31
0.0
 11
34.799127537967763
 21
-61.889377902926086
 31
0.0
 11
34.785073430615668
 21
-61.885009161229505
 31
0.0
 11
34.77099740033956
 21
-61.880471752430012
 31
0.0
 11
34.756910909518552
 21
-61.875768475085792
 31
0.0
 11
34.742914038432659
 21
-61.870933261843618
 31
0.0
 11
34.728923382359724
 21
-61.865937601551806
 31
0.0
 11
34.714950171925082
 21
-61.860784035690507
 31
0.0
 11
34.701005637754044
 21
-61.85547510573987
 31
0.0
 11
34.68710101047197
 21
-61.85001335318006
 31
0.0
 11
34.673247520704187
 21
-61.844401319491226
 31
0.0
 11
34.659456399076028
 21
-61.838641546153504
 31
0.0
 11
34.645738876212818
 21
-61.832736574647043
 31
0.0
 11
34.632217054901979
 21
-61.826738867078461
 31
0.0
 11
34.618786411727882
 21
-61.820601804745415
 31
0.0
 11
34.605458026845767
 21
-61.814327792733515
 31
0.0
 11
34.592242980410852
 21
-61.807919236128342
 31
0.0
 11
34.579152352578348
 21
-61.801378540015484
 31
0.0
 11
34.566197223503508
 21
-61.794708109480553
 31
0.0
 11
34.55338867334153
 21
-61.787910349609128
 31
0.0
 11
34.540737782247653
 21
-61.780987665486791
 31
0.0
 11
34.533722015821574
 21
-61.777054893765872
 31
0.0
 11
34.526896282926387
 21
-61.773161821714318
 31
0.0
 11
34.520258974362875
 21
-61.769310859362754
 31
0.0
 11
34.513808480931779
 21
-61.765504416741827
 31
0.0
 11
34.507543193433861
 21
-61.761744903882118
 31
0.0
 11
34.501461502669891
 21
-61.758034730814238
 31
0.0
 11
34.495561799440608
 21
-61.754376307568826
 31
0.0
 11
34.489842474546784
 21
-61.750772044176479
 31
0.0
 11
34.484301918789157
 21
-61.747224350667814
 31
0.0
 11
34.478938522968498
 21
-61.743735637073442
 31
0.0
 11
34.473750677885555
 21
-61.740308313423981
 31
0.0
 11
34.468736774341096
 21
-61.736944789750048
 31
0.0
 11
34.463895203135863
 21
-61.733647476082268
 31
0.0
 11
34.459224355070631
 21
-61.730418782451252
 31
0.0
 11
34.454722620946143
 21
-61.72726111888759
 31
0.0
 11
34.450388391563166
 21
-61.72417689542192
 31
0.0
 11
34.446220057722449
 21
-61.721168522084838
 31
0.0
 11
34.442216010224747
 21
-61.71823840890697
 31
0.0
 11
34.438374639870823
 21
-61.715388965918933
 31
0.0
 11
34.430773705423384
 21
-61.709634880157481
 31
0.0
 11
34.423323974397228
 21
-61.70383690800098
 31
0.0
 11
34.416028741634513
 21
-61.697995963536059
 31
0.0
 11
34.408891301977391
 21
-61.692112960849315
 31
0.0
 11
34.401914950268043
 21
-61.686188814027417
 31
0.0
 11
34.3951029813486
 21
-61.680224437156937
 31
0.0
 11
34.390389800740991
 21
-61.67598556758503
 31
0.0
 11
34.385599746940919
 21
-61.6715767452488
 31
0.0
 11
34.38074940236077
 21
-61.667001870929013
 31
0.0
 11
34.37585534941288
 21
-61.662264845406384
 31
0.0
 11
34.373804652090982
 21
-61.66024162366633
 31
0.0
 11
34.371613442332887
 21
-61.658053516096857
 31
0.0
 11
34.369296891315365
 21
-61.655709643762549
 31
0.0
 11
34.366870170215208
 21
-61.653219127728008
 31
0.0
 11
34.366217993424073
 21
-61.652543455384958
 31
0.0
 11
34.365443700121801
 21
-61.651737656961537
 31
0.0
 11
34.364562708313017
 21
-61.65081596717507
 31
0.0
 11
34.363590436002298
 21
-61.649792620742872
 31
0.0
 11
34.36254230119421
 21
-61.648681852382182
 31
0.0
 11
34.362326142414105
 21
-61.64845177396041
 31
0.0
 11
34.361972804936769
 21
-61.64807485027989
 31
0.0
 11
34.36151545844529
 21
-61.647585440431087
 31
0.0
 11
34.360987272622751
 21
-61.647017903504405
 31
0.0
 11
34.360421417152267
 21
-61.646406598590332
 31
0.0
 11
34.360016478482272
 21
-61.645966412892903
 31
0.0
 11
34.359714727877517
 21
-61.645636239730244
 31
0.0
 11
34.359504600047934
 21
-61.645404673931601
 31
0.0
 11
34.359374529703459
 21
-61.645260310326179
 31
0.0
 11
34.359074575954651
 21
-61.644922269448152
 31
0.0
 11
34.358859152940823
 21
-61.644669686354163
 31
0.0
 11
34.358684606200953
 21
-61.64444545519072
 31
0.0
 11
34.358617387920297
 21
-61.644344815162171
 31
0.0
 11
34.358482459786245
 21
-61.644205913003205
 31
0.0
 11
34.358327633197668
 21
-61.644151761915609
 31
0.0
  0
SPLINE
  5
1C6
100
AcDbEntity
  8
0
  6
CONTINUOUS
 62
             7
100
AcDbSpline
210
0.0
220
0.0
230
1.0
 70
             0
 71
             6
 72
            14
 73
             7
 74
             3
 42
0.00000000001
 43
0.00000000001
 44
0.00000000001
 40
0.0
 40
0.0
 40
0.0
 40
0.0
 40
0.0
 40
0.0
 40
0.0
 40
1.0
 40
1.0
 40
1.0
 40
1.0
 40
1.0
 40
1.0
 40
1.0
 10
36.469710654625892
 20
-60.170858750667087
 30
0.0
 10
36.441465567564528
 20
-60.221232917723739
 30
0.0
 10
36.410028092821939
 20
-60.271654813362503
 30
0.0
 10
36.380515570833978
 20
-60.314748050380672
 30
0.0
 10
36.353816386123349
 20
-60.348877078522243
 30
0.0
 10
36.326589967299441
 20
-60.378147184477847
 30
0.0
 10
36.291266787058468
 20
-60.412404491884871
 30
0.0
 11
36.469710654625892
 21
-60.170858750667087
 31
0.0
 11
36.381832644558237
 21
-60.309101300650724
 31
0.0
 11
36.291266787058468
 21
-60.412404491884871
 31
0.0
  0
SPLINE
  5
1C5
100
AcDbEntity
  8
0
  6
CONTINUOUS
 62
             7
100
AcDbSpline
210
0.0
220
0.0
230
1.0
 70
             0
 71
             3
 72
            29
 73
            25
 74
            17
 42
0.00000000001
 43
0.00000000001
 44
0.00000000001
 40
0.0
 40
0.0
 40
0.0
 40
0.0
 40
0.0539098103566755
 40
0.0539098103566755
 40
0.0539098103566755
 40
0.1103523371921578
 40
0.1103523371921578
 40
0.1103523371921578
 40
0.1835679820279093
 40
0.1835679820279093
 40
0.1835679820279093
 40
0.3106146931741427
 40
0.3106146931741427
 40
0.3106146931741427
 40
0.4048603562149399
 40
0.4048603562149399
 40
0.4048603562149399
 40
0.4733062936911391
 40
0.4733062936911391
 40
0.4733062936911391
 40
0.5434219050360829
 40
0.5434219050360829
 40
0.5434219050360829
 40
0.5666512373883235
 40
0.5666512373883235
 40
0.5666512373883235
 40
0.5666512373883235
 10
36.334732474812363
 20
-59.827911352386238
 30
0.0
 10
36.341948865665501
 20
-59.849125856737118
 30
0.0
 10
36.350204259970013
 20
-59.865978907503347
 30
0.0
 10
36.356308080952488
 20
-59.877263730265881
 30
0.0
 10
36.365565487952722
 20
-59.894378943431207
 30
0.0
 10
36.376002889539578
 20
-59.909985651999918
 30
0.0
 10
36.387280443814461
 20
-59.924388954179733
 30
0.0
 10
36.399073946300369
 20
-59.939451207565753
 30
0.0
 10
36.41522790611252
 20
-59.957597752688599
 30
0.0
 10
36.437549375166441
 20
-59.977520805700451
 30
0.0
 10
36.469535527867357
 20
-60.006070083275603
 30
0.0
 10
36.506245869308643
 20
-60.031154251565603
 30
0.0
 10
36.541493957124828
 20
-60.050211755646401
 30
0.0
 10
36.569208623967917
 20
-60.065196182013423
 30
0.0
 10
36.599275485295848
 20
-60.078221164548239
 30
0.0
 10
36.628566819402181
 20
-60.085845304566533
 30
0.0
 10
36.658242711147217
 20
-60.093569539762179
 30
0.0
 10
36.680318262987143
 20
-60.093986675848399
 30
0.0
 10
36.69643691951201
 20
-60.092083854357533
 30
0.0
 10
36.722953972859003
 20
-60.088953493033372
 30
0.0
 10
36.742896989427088
 20
-60.078403452560003
 30
0.0
 10
36.760105547649538
 20
-60.064542705699878
 30
0.0
 10
36.766030210957588
 20
-60.059770646513812
 30
0.0
 10
36.771714706115027
 20
-60.054536944963807
 30
0.0
 10
36.777310919542089
 20
-60.048948024872857
 30
0.0
 11
36.334732474812363
 21
-59.827911352386238
 31
0.0
 11
36.345937491583925
 21
-59.856311171921689
 31
0.0
 11
36.356308080952488
 21
-59.877263730265881
 31
0.0
 11
36.371036707155469
 21
-59.901843308842366
 31
0.0
 11
36.387280443814461
 21
-59.924388954179733
 31
0.0
 11
36.408466922027436
 21
-59.949132080080389
 31
0.0
 11
36.437549375166441
 21
-59.977520805700451
 31
0.0
 11
36.488298440477408
 21
-60.017425695733806
 31
0.0
 11
36.541493957124828
 21
-60.050211755646401
 31
0.0
 11
36.584439138039791
 21
-60.07078863748724
 31
0.0
 11
36.628566819402181
 21
-60.085845304566533
 31
0.0
 11
36.667585832664656
 21
-60.09257472571948
 31
0.0
 11
36.69643691951201
 21
-60.092083854357533
 31
0.0
 11
36.731761919252477
 21
-60.082337174604689
 31
0.0
 11
36.760105547649538
 21
-60.064542705699878
 31
0.0
 11
36.768831402301188
 21
-60.057051688125696
 31
0.0
 11
36.777310919542089
 21
-60.048948024872857
 31
0.0
  0
SPLINE
  5
1C4
100
AcDbEntity
  8
0
  6
CONTINUOUS
 62
             7
100
AcDbSpline
210
0.0
220
0.0
230
1.0
 70
             0
 71
             6
 72
            14
 73
             7
 74
             3
 42
0.00000000001
 43
0.00000000001
 44
0.00000000001
 40
0.0
 40
0.0
 40
0.0
 40
0.0
 40
0.0
 40
0.0
 40
0.0
 40
1.0
 40
1.0
 40
1.0
 40
1.0
 40
1.0
 40
1.0
 40
1.0
 10
36.469710654625892
 20
-60.170858750667087
 30
0.0
 10
36.428890942204923
 20
-60.120615228126319
 30
0.0
 10
36.385419689501738
 20
-60.064906645501253
 30
0.0
 10
36.346231848578199
 20
-60.01249580369246
 30
0.0
 10
36.312968291079507
 20
-59.965209140388453
 30
0.0
 10
36.281975808234279
 20
-59.91793673006579
 30
0.0
 10
36.244307110854592
 20
-59.85863228398901
 30
0.0
 11
36.469710654625892
 21
-60.170858750667087
 31
0.0
 11
36.349682421068721
 21
-60.015038369468812
 31
0.0
 11
36.244307110854592
 21
-59.85863228398901
 31
0.0
  0
SPLINE
  5
1C3
100
AcDbEntity
  8
0
  6
CONTINUOUS
 62
             7
100
AcDbSpline
210
0.0
220
0.0
230
1.0
 70
             0
 71
             6
 72
            14
 73
             7
 74
             3
 42
0.00000000001
 43
0.00000000001
 44
0.00000000001
 40
0.0
 40
0.0
 40
0.0
 40
0.0
 40
0.0
 40
0.0
 40
0.0
 40
1.0
 40
1.0
 40
1.0
 40
1.0
 40
1.0
 40
1.0
 40
1.0
 10
36.469710654625892
 20
-60.170858750667087
 30
0.0
 10
36.538775454108233
 20
-60.170728106151238
 30
0.0
 10
36.607869237785948
 20
-60.166271589849089
 30
0.0
 10
36.66724836573735
 20
-60.158965964268432
 30
0.0
 10
36.713936382840998
 20
-60.14869489920352
 30
0.0
 10
36.751724018775768
 20
-60.133748971735002
 30
0.0
 10
36.791169188020852
 20
-60.110825666230006
 30
0.0
 11
36.469710654625892
 21
-60.170858750667087
 31
0.0
 11
36.658998879751593
 21
-60.156443179771451
 31
0.0
 11
36.791169188020852
 21
-60.110825666230006
 31
0.0
  0
SPLINE
  5
1C2
100
AcDbEntity
  8
0
  6
CONTINUOUS
 62
             7
100
AcDbSpline
210
0.0
220
0.0
230
1.0
 70
             0
 71
             3
 72
            11
 73
             7
 74
             5
 42
0.00000000001
 43
0.00000000001
 44
0.00000000001
 40
0.5
 40
0.5
 40
0.5
 40
0.5
 40
0.5314023400087091
 40
0.5314023400087091
 40
0.5314023400087091
 40
0.5634521893275448
 40
0.5634521893275448
 40
0.5634521893275448
 40
0.5634521893275448
 10
36.791169188020852
 20
-60.110825666230006
 30
0.0
 10
36.789578881770623
 20
-60.100589914363958
 30
0.0
 10
36.787625940133893
 20
-60.090301015547368
 30
0.0
 10
36.785314059539758
 20
-60.079978388808271
 30
0.0
 10
36.783002195334262
 20
-60.069655835245108
 30
0.0
 10
36.780332812015807
 20
-60.059305871129723
 30
0.0
 10
36.777310919542089
 20
-60.048948024872857
 30
0.0
 11
36.791169188020852
 21
-60.110825666230006
 31
0.0
 11
36.788512214159269
 21
-60.095434605596537
 31
0.0
 11
36.785314059539758
 21
-60.079978388808271
 31
0.0
 11
36.781578750141506
 21
-60.064476441600704
 31
0.0
 11
36.777310919542089
 21
-60.048948024872857
 31
0.0
  0
SPLINE
  5
1C1
100
AcDbEntity
  8
0
  6
CONTINUOUS
 62
             7
100
AcDbSpline
210
0.0
220
0.0
230
1.0
 70
             0
 71
             3
 72
            11
 73
             7
 74
             5
 42
0.00000000001
 43
0.00000000001
 44
0.00000000001
 40
0.3820268574055065
 40
0.3820268574055065
 40
0.3820268574055065
 40
0.3820268574055065
 40
0.429785466961172
 40
0.429785466961172
 40
0.429785466961172
 40
0.4775493100609352
 40
0.4775493100609352
 40
0.4775493100609352
 40
0.4775493100609352
 10
36.334732474812363
 20
-59.827911352386238
 30
0.0
 10
36.321002976644792
 20
-59.832005036958329
 30
0.0
 10
36.305743184023171
 20
-59.836812873227167
 30
0.0
 10
36.289234077418833
 20
-59.842422636949649
 30
0.0
 10
36.275599405334113
 20
-59.847055673167873
 30
0.0
 10
36.260514716350229
 20
-59.852438847432737
 30
0.0
 10
36.244307110854592
 20
-59.85863228398901
 30
0.0
 11
36.334732474812363
 21
-59.827911352386238
 31
0.0
 11
36.31302562927938
 21
-59.834598464986541
 31
0.0
 11
36.289234077418833
 21
-59.842422636949649
 31
0.0
 11
36.267735444165808
 21
-59.84994231034257
 31
0.0
 11
36.244307110854592
 21
-59.85863228398901
 31
0.0
  0
SPLINE
  5
1C0
100
AcDbEntity
  8
0
  6
CONTINUOUS
 62
             7
100
AcDbSpline
210
0.0
220
0.0
230
1.0
 70
             0
 71
             6
 72
            14
 73
             7
 74
             3
 42
0.00000000001
 43
0.00000000001
 44
0.00000000001
 40
0.5
 40
0.5
 40
0.5
 40
0.5
 40
0.5
 40
0.5
 40
0.5
 40
1.0
 40
1.0
 40
1.0
 40
1.0
 40
1.0
 40
1.0
 40
1.0
 10
36.291266787058468
 20
-60.412404491884871
 30
0.0
 10
36.369747698890443
 20
-60.448371122214148
 30
0.0
 10
36.450559281642583
 20
-60.471535123113107
 30
0.0
 10
36.529443916175829
 20
-60.479945338557073
 30
0.0
 10
36.602143983511311
 20
-60.471650612563828
 30
0.0
 10
36.664401864830381
 20
-60.444699789193692
 30
0.0
 10
36.711959941475463
 20
-60.397141712548603
 30
0.0
 11
36.291266787058468
 21
-60.412404491884871
 31
0.0
 11
36.524805490807559
 21
-60.467416632487122
 31
0.0
 11
36.711959941475463
 21
-60.397141712548603
 31
0.0
  0
SPLINE
  5
1BF
100
AcDbEntity
  8
0
  6
CONTINUOUS
 62
             7
100
AcDbSpline
210
0.0
220
0.0
230
1.0
 70
             0
 71
             6
 72
            14
 73
             7
 74
             3
 42
0.00000000001
 43
0.00000000001
 44
0.00000000001
 40
0.0
 40
0.0
 40
0.0
 40
0.0
 40
0.0
 40
0.0
 40
0.0
 40
0.5
 40
0.5
 40
0.5
 40
0.5
 40
0.5
 40
0.5
 40
0.5
 10
36.711959941475463
 20
-60.397141712548603
 30
0.0
 10
36.745792988124506
 20
-60.363308665899552
 30
0.0
 10
36.772356178829988
 20
-60.322206381159127
 30
0.0
 10
36.790606900601709
 20
-60.274876377468338
 30
0.0
 10
36.799873609262818
 20
-60.222740211181218
 30
0.0
 10
36.799970544703903
 20
-60.167474191053167
 30
0.0
 10
36.791169188020852
 20
-60.110825666230006
 30
0.0
 11
36.711959941475463
 21
-60.397141712548603
 31
0.0
 11
36.783957736873326
 21
-60.271318608671358
 31
0.0
 11
36.791169188020852
 21
-60.110825666230006
 31
0.0
  0
SPLINE
  5
1BE
100
AcDbEntity
  8
0
  6
CONTINUOUS
 62
             7
100
AcDbSpline
210
0.0
220
0.0
230
1.0
 70
             0
 71
             3
 72
            11
 73
             7
 74
             5
 42
0.00000000001
 43
0.00000000001
 44
0.00000000001
 40
25.31158895372803
 40
25.31158895372803
 40
25.31158895372803
 40
25.31158895372803
 40
35.16453731007222
 40
35.16453731007222
 40
35.16453731007222
 40
44.694557287403057
 40
44.694557287403057
 40
44.694557287403057
 40
44.694557287403057
 10
30.302985997375249
 20
-41.500592522088859
 30
0.0
 10
31.103489278511621
 20
-44.437180361814598
 30
0.0
 10
32.016776055210521
 20
-47.581154185022669
 30
0.0
 10
33.052298419234837
 20
-50.961885463820522
 30
0.0
 10
33.914555299730999
 20
-53.776946642145319
 30
0.0
 10
34.87308358112422
 20
-56.793784262073252
 30
0.0
 10
35.940493514012857
 20
-60.043588389584031
 30
0.0
 11
30.302985997375249
 21
-41.500592522088859
 31
0.0
 11
31.589510052222067
 21
-46.064685203302652
 31
0.0
 11
33.052298419234837
 21
-50.961885463820522
 31
0.0
 11
34.419463571976671
 21
-55.339708320757531
 31
0.0
 11
35.940493514012857
 21
-60.043588389584031
 31
0.0
  0
SPLINE
  5
1BD
100
AcDbEntity
  8
0
  6
CONTINUOUS
 62
             7
100
AcDbSpline
210
0.0
220
0.0
230
1.0
 70
             0
 71
             3
 72
            20
 73
            16
 74
            11
 42
0.00000000001
 43
0.00000000001
 44
0.00000000001
 40
0.0000038490058714
 40
0.0000038490058714
 40
0.0000038490058714
 40
0.0000038490058714
 40
2.312349848159311
 40
2.312349848159311
 40
2.312349848159311
 40
4.653516260489071
 40
4.653516260489071
 40
4.653516260489071
 40
7.0196885525804262
 40
7.0196885525804262
 40
7.0196885525804262
 40
9.4077303541321129
 40
9.4077303541321129
 40
9.4077303541321129
 40
19.13272820246377
 40
19.13272820246377
 40
19.13272820246377
 40
19.13272820246377
 10
36.334732474812363
 20
-59.827911352386238
 30
0.0
 10
36.030245429984731
 20
-58.935232874515997
 30
0.0
 10
35.778849463143423
 20
-58.19050715550037
 30
0.0
 10
35.593048284253378
 20
-57.637741959997413
 30
0.0
 10
35.401361715173778
 20
-57.067467516823513
 30
0.0
 10
35.145852661052423
 20
-56.303951001227972
 30
0.0
 10
34.852473617910547
 20
-55.41679595821978
 30
0.0
 10
34.551619517516649
 20
-54.507036932776707
 30
0.0
 10
34.303131611585442
 20
-53.746046361827183
 30
0.0
 10
34.11552547315727
 20
-53.168314562202063
 30
0.0
 10
33.913724565689627
 20
-52.546870069958537
 30
0.0
 10
33.66366105806307
 20
-51.771880425474009
 30
0.0
 10
33.384636742788892
 20
-50.894873849463679
 30
0.0
 10
32.30608717687241
 20
-47.504864412714817
 30
0.0
 10
31.375938923648171
 20
-44.417693433803379
 30
0.0
 10
30.571839724134929
 20
-41.585846039534552
 30
0.0
 11
36.334732474812363
 21
-59.827911352386238
 31
0.0
 11
35.919383179806275
 21
-58.605359175304095
 31
0.0
 11
35.593048284253378
 21
-57.637741959997413
 31
0.0
 11
35.260895628855316
 21
-56.646099184046456
 31
0.0
 11
34.852473617910547
 21
-55.41679595821978
 31
0.0
 11
34.441531559796765
 21
-54.168045050529187
 31
0.0
 11
34.11552547315727
 21
-53.168314562202063
 31
0.0
 11
33.779039885900531
 21
-52.127429987245421
 31
0.0
 11
33.384636742788892
 21
-50.894873849463679
 31
0.0
 11
31.875319346060696
 21
-46.031049178569099
 31
0.0
 11
30.571839724134929
 21
-41.585846039534552
 31
0.0
  0
SPLINE
  5
1BC
100
AcDbEntity
  8
0
  6
CONTINUOUS
 62
             7
100
AcDbSpline
210
0.0
220
0.0
230
1.0
 70
             0
 71
             6
 72
            15
 73
             8
 74
             5
 42
0.00000000001
 43
0.00000000001
 44
0.00000000001
 40
0.0
 40
0.0
 40
0.0
 40
0.0
 40
0.0
 40
0.0
 40
0.0
 40
0.5
 40
1.0
 40
1.0
 40
1.0
 40
1.0
 40
1.0
 40
1.0
 40
1.0
 10
32.252038216724657
 20
-40.999999999999993
 30
0.0
 10
32.245767238477129
 20
-41.065449846949761
 30
0.0
 10
32.21848561352806
 20
-41.196348345293238
 30
0.0
 10
32.161748134939963
 20
-41.319180972225823
 30
0.0
 10
32.078647576701172
 20
-41.417751370261591
 30
0.0
 10
31.978262005093029
 20
-41.47943861602635
 30
0.0
 10
31.87219068798484
 20
-41.499999999999993
 30
0.0
 10
31.819175019670681
 20
-41.499999999999993
 30
0.0
 11
32.252038216724657
 21
-40.999999999999993
 31
0.0
 11
32.205957177646575
 21
-41.191341735586789
 31
0.0
 11
32.109551660499335
 21
-41.35355337745068
 31
0.0
 11
31.974715702215537
 21
-41.461939759374445
 31
0.0
 11
31.819175019670681
 21
-41.499999999999993
 31
0.0
  0
SPLINE
  5
1BB
100
AcDbEntity
  8
0
  6
CONTINUOUS
 62
             7
100
AcDbSpline
210
0.0
220
0.0
230
1.0
 70
             0
 71
             3
 72
            11
 73
             7
 74
             5
 42
0.00000000001
 43
0.00000000001
 44
0.00000000001
 40
0.5571887047945767
 40
0.5571887047945767
 40
0.5571887047945767
 40
0.5571887047945767
 40
0.6741342399491441
 40
0.6741342399491441
 40
0.6741342399491441
 40
0.7764989510588064
 40
0.7764989510588064
 40
0.7764989510588064
 40
0.7764989510588064
 10
32.456388698792168
 20
-40.920964455034031
 30
0.0
 10
32.417583838856309
 20
-40.933020882987392
 30
0.0
 10
32.380340120024577
 20
-40.945874124256683
 30
0.0
 10
32.345875670100199
 20
-40.959166080333603
 30
0.0
 10
32.30272057323743
 20
-40.97580977124565
 30
0.0
 10
32.27216058408618
 20
-40.989962522115803
 30
0.0
 10
32.252038216724657
 20
-40.999999999999993
 30
0.0
 11
32.456388698792168
 21
-40.920964455034031
 31
0.0
 11
32.399504530691878
 21
-40.939601944637488
 31
0.0
 11
32.345875670100199
 21
-40.959166080333603
 31
0.0
 11
32.29031966984946
 21
-40.982060370052238
 31
0.0
 11
32.252038216724657
 21
-40.999999999999993
 31
0.0
  0
SPLINE
  5
1BA
100
AcDbEntity
  8
0
  6
CONTINUOUS
 62
             7
100
AcDbSpline
210
0.0
220
0.0
230
1.0
 70
             0
 71
             3
 72
            32
 73
            28
 74
            23
 42
0.00000000001
 43
0.00000000001
 44
0.00000000001
 40
0.0
 40
0.0
 40
0.0
 40
0.0
 40
0.0824293673028299
 40
0.0824293673028299
 40
0.0824293673028299
 40
0.1638490086672141
 40
0.1638490086672141
 40
0.1638490086672141
 40
0.3049222440751846
 40
0.3049222440751846
 40
0.3049222440751846
 40
0.5107829479555637
 40
0.5107829479555637
 40
0.5107829479555637
 40
0.6201753191556545
 40
0.6201753191556545
 40
0.6201753191556545
 40
0.7301667617221044
 40
0.7301667617221044
 40
0.7301667617221044
 40
0.865293656498896
 40
0.865293656498896
 40
0.865293656498896
 40
1.00255555013978
 40
1.00255555013978
 40
1.00255555013978
 40
1.010784536543061
 40
1.010784536543061
 40
1.010784536543061
 40
1.010784536543061
 10
32.456388698792168
 20
-40.920964455034031
 30
0.0
 10
32.462710587663487
 20
-40.946352516489853
 30
0.0
 10
32.468906183010112
 20
-40.973067375529709
 30
0.0
 10
32.473333412437043
 20
-41.001611345233819
 30
0.0
 10
32.47724006386359
 20
-41.026798957894172
 30
0.0
 10
32.479832872622183
 20
-41.053817462804133
 30
0.0
 10
32.479773095363669
 20
-41.082713084878357
 30
0.0
 10
32.479695562340787
 20
-41.120191634126833
 30
0.0
 10
32.475154273677987
 20
-41.167669912069243
 30
0.0
 10
32.458127817881973
 20
-41.221700544364623
 30
0.0
 10
32.437184635884662
 20
-41.288160257363458
 30
0.0
 10
32.40214827783786
 20
-41.349217509228517
 30
0.0
 10
32.358957234862878
 20
-41.400994768803052
 30
0.0
 10
32.335727349194087
 20
-41.428842668212553
 30
0.0
 10
32.309600845595263
 20
-41.454654614977393
 30
0.0
 10
32.281070094333479
 20
-41.477618050870653
 30
0.0
 10
32.254575699815767
 20
-41.498942492153532
 30
0.0
 10
32.22382303046664
 20
-41.519568566374637
 30
0.0
 10
32.18877714399035
 20
-41.537167006728993
 30
0.0
 10
32.1421501761426
 20
-41.560580936153421
 30
0.0
 10
32.098518491354348
 20
-41.573323428668232
 30
0.0
 10
32.061167140413289
 20
-41.580634303580801
 30
0.0
 10
32.012609218999508
 20
-41.590138669032832
 30
0.0
 10
31.967004965581719
 20
-41.591954958372753
 30
0.0
 10
31.924538542874561
 20
-41.591907386859639
 30
0.0
 10
31.92178585741982
 20
-41.59190430326079
 30
0.0
 10
31.91904297812524
 20
-41.591893363865012
 30
0.0
 10
31.916309623022158
 20
-41.591876072971893
 30
0.0
 11
32.456388698792168
 21
-40.920964455034031
 31
0.0
 11
32.465571552906248
 21
-40.960104434540817
 31
0.0
 11
32.473333412437043
 21
-41.001611345233819
 31
0.0
 11
32.478040664657257
 21
-41.040771711525892
 31
0.0
 11
32.479773095363669
 21
-41.082713084878357
 31
0.0
 11
32.477910554479585
 21
-41.123397196493656
 31
0.0
 11
32.47128964061482
 21
-41.169981710718048
 31
0.0
 11
32.458127817881973
 21
-41.221700544364623
 31
0.0
 11
32.432706854650434
 21
-41.286215824720465
 31
0.0
 11
32.399210105412863
 21
-41.346267790730074
 31
0.0
 11
32.358957234862878
 21
-41.400994768803052
 31
0.0
 11
32.32200148919555
 21
-41.441138083655446
 31
0.0
 11
32.281070094333479
 21
-41.477618050870653
 31
0.0
 11
32.238130428646372
 21
-41.508789779148003
 31
0.0
 11
32.18877714399035
 21
-41.537167006728993
 31
0.0
 11
32.143270272376796
 21
-41.557217857898635
 31
0.0
 11
32.100490267422387
 21
-41.571318822085729
 31
0.0
 11
32.061167140413289
 21
-41.580634303580801
 31
0.0
 11
32.013600595839456
 21
-41.587791688671729
 31
0.0
 11
31.968044088310648
 21
-41.591117959745489
 31
0.0
 11
31.924538542874561
 21
-41.591907386859639
 31
0.0
 11
31.92041683406649
 21
-41.59189705765111
 31
0.0
 11
31.916309623022158
 21
-41.591876072971893
 31
0.0
  0
SPLINE
  5
1B9
100
AcDbEntity
  8
0
  6
CONTINUOUS
 62
             7
100
AcDbSpline
210
0.0
220
0.0
230
1.0
 70
             0
 71
             3
 72
            11
 73
             7
 74
             5
 42
0.00000000001
 43
0.00000000001
 44
0.00000000001
 40
0.5
 40
0.5
 40
0.5
 40
0.5
 40
0.6945214709486247
 40
0.6945214709486247
 40
0.6945214709486247
 40
0.8583593579341566
 40
0.8583593579341566
 40
0.8583593579341566
 40
0.8583593579341566
 10
36.244307110854592
 20
-59.85863228398901
 30
0.0
 10
36.181421645022141
 20
-59.882662801208212
 30
0.0
 10
36.121400811325003
 20
-59.911336935686627
 30
0.0
 10
36.069135061301658
 20
-59.942785886850942
 30
0.0
 10
36.016869311403752
 20
-59.974234837939797
 30
0.0
 10
35.972358645138023
 20
-60.008458605703879
 30
0.0
 10
35.940493514012857
 20
-60.043588389584031
 30
0.0
 11
36.244307110854592
 21
-59.85863228398901
 31
0.0
 11
36.152738692649706
 21
-59.897927172690558
 31
0.0
 11
36.069135061301658
 21
-59.942785886850942
 31
0.0
 11
35.997164055617475
 21
-59.99180682592074
 31
0.0
 11
35.940493514012857
 21
-60.043588389584031
 31
0.0
  0
SPLINE
  5
1B8
100
AcDbEntity
  8
0
  6
CONTINUOUS
 62
             7
100
AcDbSpline
210
0.0
220
0.0
230
1.0
 70
             0
 71
             3
 72
            11
 73
             7
 74
             5
 42
0.00000000001
 43
0.00000000001
 44
0.00000000001
 40
0.0
 40
0.0
 40
0.0
 40
0.0
 40
0.0574451205905785
 40
0.0574451205905785
 40
0.0574451205905785
 40
0.1396257507530964
 40
0.1396257507530964
 40
0.1396257507530964
 40
0.1396257507530964
 10
31.819175019670681
 20
-41.499999999999993
 30
0.0
 10
31.84038638222848
 20
-41.5
 30
0.0
 10
31.858091227762479
 20
-41.512754917141763
 30
0.0
 10
31.870086153978001
 20
-41.524274484631022
 30
0.0
 10
31.886483827811841
 20
-41.54002231892381
 30
0.0
 10
31.902100224100309
 20
-41.562991337168206
 30
0.0
 10
31.916309623022158
 20
-41.591876072971893
 30
0.0
 11
31.819175019670681
 21
-41.499999999999993
 31
0.0
 11
31.848086750452698
 21
-41.507817404507037
 31
0.0
 11
31.870086153978001
 21
-41.524274484631022
 31
0.0
 11
31.894018491592075
 21
-41.553148940734864
 31
0.0
 11
31.916309623022158
 21
-41.591876072971893
 31
0.0
  0
SPLINE
  5
1B7
100
AcDbEntity
  8
0
  6
CONTINUOUS
 62
             7
100
AcDbSpline
210
0.0
220
0.0
230
1.0
 70
             0
 71
             3
 72
            32
 73
            28
 74
           108
 42
0.00000000001
 43
0.00000000001
 44
0.00000000001
 40
0.0018974620295646
 40
0.0018974620295646
 40
0.0018974620295646
 40
0.0018974620295646
 40
0.0020378996497561
 40
0.0020378996497561
 40
0.0020378996497561
 40
0.0024822042655157
 40
0.0024822042655157
 40
0.0024822042655157
 40
0.0044462623547013
 40
0.0044462623547013
 40
0.0044462623547013
 40
0.0126671805329877
 40
0.0126671805329877
 40
0.0126671805329877
 40
0.0451479721611094
 40
0.0451479721611094
 40
0.0451479721611094
 40
0.113945946054267
 40
0.113945946054267
 40
0.113945946054267
 40
0.2463596477477313
 40
0.2463596477477313
 40
0.2463596477477313
 40
0.5619743415607275
 40
0.5619743415607275
 40
0.5619743415607275
 40
0.7008786461170078
 40
0.7008786461170078
 40
0.7008786461170078
 40
0.7008786461170078
 10
-44.99722213651107
 20
-14.50277786346104
 30
0.0
 10
-44.997179765974273
 20
-14.50282023399779
 30
0.0
 10
-44.997136905765871
 20
-14.502801399136629
 30
0.0
 10
-44.997093572737967
 20
-14.50272134725612
 30
0.0
 10
-44.997051308241268
 20
-14.50264326934168
 30
0.0
 10
-44.997007519116373
 20
-14.502504977847069
 30
0.0
 10
-44.996962186255473
 20
-14.50229768040232
 30
0.0
 10
-44.996878336288667
 20
-14.5019142524975
 30
0.0
 10
-44.996788142231267
 20
-14.501289882957501
 30
0.0
 10
-44.996691508454077
 20
-14.5003529109417
 30
0.0
 10
-44.996491983593373
 20
-14.49841829536307
 30
0.0
 10
-44.996300301179183
 20
-14.4954932443488
 30
0.0
 10
-44.996123207085283
 20
-14.492152122490969
 30
0.0
 10
-44.995658306337667
 20
-14.483381135182009
 30
0.0
 10
-44.995237350713268
 20
-14.470677940267199
 30
0.0
 10
-44.994918459250172
 20
-14.45969411805631
 30
0.0
 10
-44.994569906259073
 20
-14.4476886411829
 30
0.0
 10
-44.994009091489573
 20
-14.42624987245857
 30
0.0
 10
-44.993340929037473
 20
-14.390914428003621
 30
0.0
 10
-44.99289012900897
 20
-14.367074088998271
 30
0.0
 10
-44.992136060623373
 20
-14.32351121389825
 30
0.0
 10
-44.991364360298178
 20
-14.258515671770491
 30
0.0
 10
-44.990327206179771
 20
-14.17116259960101
 30
0.0
 10
-44.989483041628382
 20
-14.06399865347359
 30
0.0
 10
-44.989103680249471
 20
-13.942909795873501
 30
0.0
 10
-44.988961148766677
 20
-13.897414984367749
 30
0.0
 10
-44.988887516807978
 20
-13.8509997575645
 30
0.0
 10
-44.988887516807978
 20
-13.80400570200552
 30
0.0
 11
-44.99722213651107
 21
-14.50277786346104
 31
0.0
 11
-44.997158215558684
 21
-14.502795513765051
 31
0.0
 11
-44.997093572737967
 21
-14.50272134725612
 31
0.0
 11
-44.997029030133298
 21
-14.502557971153085
 31
0.0
 11
-44.996962186255473
 21
-14.50229768040232
 31
0.0
 11
-44.996898107769177
 21
-14.501963813216474
 31
0.0
 11
-44.996831641283677
 21
-14.501532874713629
 31
0.0
 11
-44.996762777833716
 21
-14.500998146689971
 31
0.0
 11
-44.996691508454077
 21
-14.5003529109417
 31
0.0
 11
-44.996592430791829
 21
-14.499305725961413
 31
0.0
 11
-44.996494847589382
 21
-14.498109422980525
 31
0.0
 11
-44.996398946232127
 21
-14.496779956571034
 31
0.0
 11
-44.996304914105423
 21
-14.495333281304941
 31
0.0
 11
-44.996212938594688
 21
-14.493785351754253
 31
0.0
 11
-44.996123207085283
 21
-14.492152122490969
 31
0.0
 11
-44.99600793105548
 21
-14.489880725262397
 31
0.0
 11
-44.995894687874689
 21
-14.487465109592991
 31
0.0
 11
-44.995783679345145
 21
-14.484924899025492
 31
0.0
 11
-44.995675107269044
 21
-14.482279717102644
 31
0.0
 11
-44.995569173448594
 21
-14.479549187367187
 31
0.0
 11
-44.995466079686032
 21
-14.476752933361864
 31
0.0
 11
-44.995366027783554
 21
-14.473910578629415
 31
0.0
 11
-44.99526921954341
 21
-14.471041746712592
 31
0.0
 11
-44.995175856767759
 21
-14.468166061154118
 31
0.0
 11
-44.995086141258874
 21
-14.46530314549676
 31
0.0
 11
-44.995000274818942
 21
-14.462472623283242
 31
0.0
 11
-44.994918459250172
 21
-14.45969411805631
 31
0.0
 11
-44.994869623477598
 21
-14.457998117580519
 31
0.0
 11
-44.994818215478304
 21
-14.456182660415433
 31
0.0
 11
-44.994764294369908
 21
-14.454245231506276
 31
0.0
 11
-44.99470791927007
 21
-14.452183315798269
 31
0.0
 11
-44.994649149296407
 21
-14.449994398236631
 31
0.0
 11
-44.994588043566552
 21
-14.447675963766589
 31
0.0
 11
-44.994524661198142
 21
-14.445225497333361
 31
0.0
 11
-44.994459061308824
 21
-14.442640483882171
 31
0.0
 11
-44.994391303016215
 21
-14.439918408358242
 31
0.0
 11
-44.994321445437969
 21
-14.437056755706791
 31
0.0
 11
-44.994249547691702
 21
-14.434053010873043
 31
0.0
 11
-44.994175668895068
 21
-14.43090465880222
 31
0.0
 11
-44.994099868165669
 21
-14.427609184439541
 31
0.0
 11
-44.994022204621167
 21
-14.424164072730232
 31
0.0
 11
-44.993942737379214
 21
-14.420566808619515
 31
0.0
 11
-44.993861525557399
 21
-14.416814877052607
 31
0.0
 11
-44.99377862827339
 21
-14.412905762974731
 31
0.0
 11
-44.993694104644803
 21
-14.408836951331111
 31
0.0
 11
-44.993608013789292
 21
-14.404605927066969
 31
0.0
 11
-44.993520414824467
 21
-14.400210175127523
 31
0.0
 11
-44.993431366867981
 21
-14.395647180457999
 31
0.0
 11
-44.993340929037473
 21
-14.390914428003621
 31
0.0
 11
-44.993289606639316
 21
-14.388184251863841
 31
0.0
 11
-44.993235875276312
 21
-14.385291229022188
 31
0.0
 11
-44.993179822019435
 21
-14.382234838176748
 31
0.0
 11
-44.9931215339397
 21
-14.379014558025609
 31
0.0
 11
-44.993061098108122
 21
-14.37562986726685
 31
0.0
 11
-44.992998601595673
 21
-14.37208024459856
 31
0.0
 11
-44.992934131473362
 21
-14.368365168718823
 31
0.0
 11
-44.992867774812197
 21
-14.36448411832572
 31
0.0
 11
-44.992799618683179
 21
-14.36043657211734
 31
0.0
 11
-44.992729750157309
 21
-14.356222008791768
 31
0.0
 11
-44.992658256305575
 21
-14.351839907047085
 31
0.0
 11
-44.99258522419899
 21
-14.34728974558138
 31
0.0
 11
-44.992510740908557
 21
-14.342571003092734
 31
0.0
 11
-44.992434893505269
 21
-14.337683158279232
 31
0.0
 11
-44.992357769060135
 21
-14.332625689838965
 31
0.0
 11
-44.992279454644127
 21
-14.327398076470004
 31
0.0
 11
-44.992200037328296
 21
-14.321999796870449
 31
0.0
 11
-44.9921196041836
 21
-14.316430329738381
 31
0.0
 11
-44.992038242281055
 21
-14.310689153771875
 31
0.0
 11
-44.991956038691654
 21
-14.304775747669021
 31
0.0
 11
-44.991873080486428
 21
-14.298689590127914
 31
0.0
 11
-44.991789454736328
 21
-14.292430159846623
 31
0.0
 11
-44.991705248512389
 21
-14.28599693552324
 31
0.0
 11
-44.991620548885606
 21
-14.279389395855855
 31
0.0
 11
-44.991535442926974
 21
-14.272607019542541
 31
0.0
 11
-44.991450017707507
 21
-14.265649285281395
 31
0.0
 11
-44.991364360298178
 21
-14.258515671770491
 31
0.0
 11
-44.991245560596745
 21
-14.248348887942205
 31
0.0
 11
-44.991128566610747
 21
-14.23800827727263
 31
0.0
 11
-44.991013471130394
 21
-14.227495849079864
 31
0.0
 11
-44.990900366945986
 21
-14.216813612682003
 31
0.0
 11
-44.990789346847777
 21
-14.205963577397148
 31
0.0
 11
-44.990680503626024
 21
-14.194947752543403
 31
0.0
 11
-44.990573930070987
 21
-14.18376814743886
 31
0.0
 11
-44.990469718972932
 21
-14.172426771401621
 31
0.0
 11
-44.990367963122125
 21
-14.160925633749789
 31
0.0
 11
-44.990268755308804
 21
-14.149266743801457
 31
0.0
 11
-44.990172188323264
 21
-14.137452110874728
 31
0.0
 11
-44.990078354955742
 21
-14.125483744287703
 31
0.0
 11
-44.989987347996511
 21
-14.113363653358473
 31
0.0
 11
-44.989899260235823
 21
-14.101093847405147
 31
0.0
 11
-44.98981418446396
 21
-14.08867633574582
 31
0.0
 11
-44.989732213471143
 21
-14.076113127698585
 31
0.0
 11
-44.989653440047675
 21
-14.063406232581553
 31
0.0
 11
-44.989577956983794
 21
-14.050557659712817
 31
0.0
 11
-44.989505857069759
 21
-14.037569418410474
 31
0.0
 11
-44.989437233095863
 21
-14.02444351799263
 31
0.0
 11
-44.989372177852324
 21
-14.011181967777375
 31
0.0
 11
-44.989310784129437
 21
-13.997786777082819
 31
0.0
 11
-44.989253144717445
 21
-13.984259955227053
 31
0.0
 11
-44.989199352406608
 21
-13.970603511528177
 31
0.0
 11
-44.989149499987192
 21
-13.956819455304295
 31
0.0
 11
-44.989103680249471
 21
-13.942909795873501
 31
0.0
 11
-44.98903817804451
 21
-13.920087270265009
 31
0.0
 11
-44.988984290550064
 21
-13.897120830621983
 31
0.0
 11
-44.988942149222666
 21
-13.874019965459471
 31
0.0
 11
-44.98891188551886
 21
-13.850794163292525
 31
0.0
 11
-44.98889363089512
 21
-13.827452912636192
 31
0.0
 11
-44.988887516807978
 21
-13.80400570200552
 31
0.0
  0
SPLINE
  5
1B6
100
AcDbEntity
  8
0
  6
CONTINUOUS
 62
             7
100
AcDbSpline
210
0.0
220
0.0
230
1.0
 70
             0
 71
             3
 72
            26
 73
            22
 74
            15
 42
0.00000000001
 43
0.00000000001
 44
0.00000000001
 40
0.0059588383630256
 40
0.0059588383630256
 40
0.0059588383630256
 40
0.0059588383630256
 40
0.1519116825219286
 40
0.1519116825219286
 40
0.1519116825219286
 40
0.2983667700715298
 40
0.2983667700715298
 40
0.2983667700715298
 40
0.5444433649944322
 40
0.5444433649944322
 40
0.5444433649944322
 40
0.7910758621005918
 40
0.7910758621005918
 40
0.7910758621005918
 40
1.0377074648931299
 40
1.0377074648931299
 40
1.0377074648931299
 40
1.283784102066063
 40
1.283784102066063
 40
1.283784102066063
 40
1.575994680114905
 40
1.575994680114905
 40
1.575994680114905
 40
1.575994680114905
 10
45.989129150267743
 20
-9.4999999999999964
 30
0.0
 10
45.934435588065988
 20
-9.4999999999999964
 30
0.0
 10
45.885491069559151
 20
-9.5044846004289383
 30
0.0
 10
45.843661422002171
 20
-9.5106319329202265
 30
0.0
 10
45.801709078445732
 20
-9.5167972969548877
 30
0.0
 10
45.753375854991447
 20
-9.5266246499981477
 30
0.0
 10
45.700804210326488
 20
-9.5424467305991278
 30
0.0
 10
45.605842933414628
 20
-9.5710264904078173
 30
0.0
 10
45.530385869770797
 20
-9.6091269323983077
 30
0.0
 10
45.476082130130017
 20
-9.6415662217676683
 30
0.0
 10
45.390729799616523
 20
-9.6925529303478157
 30
0.0
 10
45.326707465633163
 20
-9.7480545331662185
 30
0.0
 10
45.281893899534673
 20
-9.7928519454738066
 30
0.0
 10
45.211568644312052
 20
-9.8631518507953153
 30
0.0
 10
45.163044356937633
 20
-9.9326161840318079
 30
0.0
 10
45.130541585796593
 20
-9.986986940761458
 30
0.0
 10
45.088372866075026
 20
-10.057526932309671
 30
0.0
 10
45.055062230846758
 20
-10.132994505826099
 30
0.0
 10
45.031363116531992
 20
-10.21168254549427
 30
0.0
 10
45.003197903324512
 20
-10.30519934889441
 30
0.0
 10
44.988887516808028
 20
-10.402336432101791
 30
0.0
 10
44.988887516808063
 20
-10.5
 30
0.0
 11
45.989129150267743
 21
-9.4999999999999964
 31
0.0
 11
45.911571318143167
 21
-9.5030107167758793
 31
0.0
 11
45.843661422002171
 21
-9.5106319329202265
 31
0.0
 11
45.776215054080026
 21
-9.5229180630473067
 31
0.0
 11
45.700804210326488
 21
-9.5424467305991278
 31
0.0
 11
45.573196593751589
 21
-9.5905591525981464
 31
0.0
 11
45.476082130130017
 21
-9.6415662217676683
 31
0.0
 11
45.363785978176708
 21
-9.7195300697229463
 31
0.0
 11
45.281893899534673
 21
-9.7928519454738066
 31
0.0
 11
45.192034311135039
 21
-9.8958928738395784
 31
0.0
 11
45.130541585796593
 21
-9.986986940761458
 31
0.0
 11
45.074026249136736
 21
-10.096279225082879
 31
0.0
 11
45.031363116531992
 21
-10.21168254549427
 31
0.0
 11
44.999563361717207
 21
-10.354286236060359
 31
0.0
 11
44.988887516808063
 21
-10.5
 31
0.0
  0
ARC
  5
1B5
100
AcDbEntity
  8
0
  6
CONTINUOUS
 62
             7
100
AcDbCircle
 10
14.1320661662286
 20
-77.99999998235626
 40
5.0
100
AcDbArc
 50
-90.0
 51
-44.99999999999997
  0
ARC
  5
1B4
100
AcDbEntity
  8
0
  6
CONTINUOUS
 62
             7
100
AcDbCircle
 10
-40.99999999999987
 20
-80.99999998235626
 40
2.0
100
AcDbArc
 50
180.0
 51
-90.0
  0
ARC
  5
1B3
100
AcDbEntity
  8
0
  6
CONTINUOUS
 62
             7
100
AcDbCircle
 10
-0.14999999999772
 20
-28.49999999999999
 40
0.5
100
AcDbArc
 50
180.0
 51
0.0
  0
ARC
  5
1B2
100
AcDbEntity
  8
0
  6
CONTINUOUS
 62
             7
100
AcDbCircle
 10
-4.14999999999772
 20
-22.5
 40
0.5
100
AcDbArc
 50
0.0
 51
180.0
  0
ARC
  5
1B1
100
AcDbEntity
  8
0
  6
CONTINUOUS
 62
             7
100
AcDbCircle
 10
-0.14999999999772
 20
-22.5
 40
0.5
100
AcDbArc
 50
0.0
 51
180.0
  0
ARC
  5
1B0
100
AcDbEntity
  8
0
  6
CONTINUOUS
 62
             7
100
AcDbCircle
 10
2.35000000000228
 20
-22.5
 40
0.5
100
AcDbArc
 50
0.0
 51
180.0
  0
ARC
  5
1AF
100
AcDbEntity
  8
0
  6
CONTINUOUS
 62
             7
100
AcDbCircle
 10
-4.14999999999772
 20
-28.49999999999999
 40
0.5
100
AcDbArc
 50
180.0
 51
0.0
  0
ARC
  5
1AE
100
AcDbEntity
  8
0
  6
CONTINUOUS
 62
             7
100
AcDbCircle
 10
2.35000000000228
 20
-28.49999999999999
 40
0.5
100
AcDbArc
 50
180.0
 51
-90.0
  0
ARC
  5
1AD
100
AcDbEntity
  8
0
  6
CONTINUOUS
 62
             7
100
AcDbCircle
 10
3.35000000000228
 20
-27.49999999999999
 40
0.5
100
AcDbArc
 50
180.0
 51
-90.0
  0
ARC
  5
1AC
100
AcDbEntity
  8
0
  6
CONTINUOUS
 62
             7
100
AcDbCircle
 10
5.35000000000228
 20
-28.49999999999999
 40
0.5
100
AcDbArc
 50
-90.0
 51
90.0
  0
ARC
  5
1AB
100
AcDbEntity
  8
1
  6
CONTINUOUS
 62
             7
100
AcDbCircle
 10
-119.6403940490909
 20
-59.99999998235262
 40
78.0
100
AcDbArc
 50
-10.71345935534183
 51
10.71345935534185
  0
ARC
  5
1AA
100
AcDbEntity
  8
0
  6
CONTINUOUS
 62
             7
100
AcDbCircle
 10
-44.50000000000007
 20
-40.99999999999999
 40
0.5
100
AcDbArc
 50
180.0
 51
-90.0
  0
ARC
  5
1A9
100
AcDbEntity
  8
0
  6
CONTINUOUS
 62
             7
100
AcDbCircle
 10
0.00000000251896
 20
-59.50000000000058
 40
45.00000000002851
100
AcDbArc
 50
89.363367130939
 51
90.63663287547466
  0
ARC
  5
1A8
100
AcDbEntity
  8
0
  6
CONTINUOUS
 62
             7
100
AcDbCircle
 10
45.50000048908137
 20
-18.00000049005014
 40
0.50000048908152
100
AcDbArc
 50
179.99994384444528
 51
-90.11338955056242
  0
ARC
  5
1A7
100
AcDbEntity
  8
0
  6
CONTINUOUS
 62
             7
100
AcDbCircle
 10
78.40199487283952
 20
-18.0
 40
0.5
100
AcDbArc
 50
-90.00000000000325
 51
-44.99999999999857
  0
ARC
  5
1A6
100
AcDbEntity
  8
0
  6
CONTINUOUS
 62
             7
100
AcDbCircle
 10
45.68269478283264
 20
-9.0
 40
29.99999999999993
100
AcDbArc
 50
-51.61962779528447
 51
-45.00000000000138
  0
ARC
  5
1A5
100
AcDbEntity
  8
0
  6
CONTINUOUS
 62
             7
100
AcDbCircle
 10
-51.00000000000007
 20
-5.5
 40
4.0
100
AcDbArc
 50
180.0
 51
-90.0
  0
ARC
  5
1A4
100
AcDbEntity
  8
0
  6
CONTINUOUS
 62
             7
100
AcDbCircle
 10
35.35911434438308
 20
-80.13476362049229
 40
0.5
100
AcDbArc
 50
-134.99999999999943
 51
-45.00000000000058
  0
ARC
  5
1A3
100
AcDbEntity
  8
0
  6
CONTINUOUS
 62
             7
100
AcDbCircle
 10
92.63476362049481
 20
-22.85911434438331
 40
0.50000000000002
100
AcDbArc
 50
-44.99999999999914
 51
44.99999999999914
  0
ARC
  5
1A2
100
AcDbEntity
  8
0
  6
CONTINUOUS
 62
             7
100
AcDbCircle
 10
51.00000000000017
 20
-5.5
 40
4.0
100
AcDbArc
 50
-90.0
 51
0.0
  0
LINE
  5
1A1
100
AcDbEntity
  8
0
  6
CONTINUOUS
 62
             7
100
AcDbLine
 10
33.53627356866868
 20
-66.46372641368771
 11
27.25862196253015
 21
-72.74137801982624
  0
LINE
  5
1A0
100
AcDbEntity
  8
0
  6
CONTINUOUS
 62
             3
100
AcDbLine
 10
33.65583728300057
 20
-65.08112335524174
 11
17.2314476583198
 21
-80.12132027870439
  0
LINE
  5
19F
100
AcDbEntity
  8
0
  6
CONTINUOUS
 62
             7
100
AcDbLine
 10
27.25862196253015
 20
-72.74137801982624
 11
17.66760007216012
 21
-81.53553388828777
  0
LINE
  5
19E
100
AcDbEntity
  8
0
  6
CONTINUOUS
 62
             3
100
AcDbLine
 10
15.00664822418562
 20
-80.99999998235626
 11
-42.99999999999987
 21
-80.99999998235626
  0
LINE
  5
19D
100
AcDbEntity
  8
0
  6
CONTINUOUS
 62
             7
100
AcDbLine
 10
14.1320661662286
 20
-82.99999998235626
 11
-40.99999999999987
 21
-82.99999998235626
  0
LINE
  5
19C
100
AcDbEntity
  8
0
  6
CONTINUOUS
 62
             7
100
AcDbLine
 10
-42.99999999999987
 20
-74.49999998235626
 11
-42.99999999999987
 21
-80.99999998235626
  0
LINE
  5
19B
100
AcDbEntity
  8
0
  6
CONTINUOUS
 62
             7
100
AcDbLine
 10
-6.89999999999772
 20
-25.74999999999999
 11
-6.89999999999772
 21
-25.24999999999999
  0
LINE
  5
19A
100
AcDbEntity
  8
0
  6
CONTINUOUS
 62
             7
100
AcDbLine
 10
7.10000000000228
 20
-25.74999999999999
 11
14.10000000000228
 21
-25.74999999999999
  0
LINE
  5
199
100
AcDbEntity
  8
0
  6
CONTINUOUS
 62
             7
100
AcDbLine
 10
7.10000000000228
 20
-25.74999999999999
 11
7.10000000000228
 21
-25.24999999999999
  0
LINE
  5
198
100
AcDbEntity
  8
0
  6
CONTINUOUS
 62
             7
100
AcDbLine
 10
7.10000000000228
 20
-25.24999999999999
 11
14.10000000000228
 21
-25.24999999999999
  0
LINE
  5
197
100
AcDbEntity
  8
0
  6
CONTINUOUS
 62
             7
100
AcDbLine
 10
-13.89999999999772
 20
-25.74999999999999
 11
-13.89999999999772
 21
-25.24999999999999
  0
LINE
  5
196
100
AcDbEntity
  8
0
  6
CONTINUOUS
 62
             7
100
AcDbLine
 10
14.10000000000228
 20
-25.74999999999999
 11
14.10000000000228
 21
-25.24999999999999
  0
LINE
  5
195
100
AcDbEntity
  8
0
  6
CONTINUOUS
 62
             7
100
AcDbLine
 10
-13.89999999999772
 20
-25.74999999999999
 11
-6.89999999999772
 21
-25.74999999999999
  0
LINE
  5
194
100
AcDbEntity
  8
0
  6
CONTINUOUS
 62
             7
100
AcDbLine
 10
-13.89999999999772
 20
-25.24999999999999
 11
-6.89999999999772
 21
-25.24999999999999
  0
LINE
  5
193
100
AcDbEntity
  8
0
  6
CONTINUOUS
 62
             7
100
AcDbLine
 10
0.35000000000228
 20
-28.49999999999999
 11
0.35000000000228
 21
-22.5
  0
LINE
  5
192
100
AcDbEntity
  8
0
  6
CONTINUOUS
 62
             7
100
AcDbLine
 10
-0.64999999999772
 20
-28.49999999999999
 11
-0.64999999999772
 21
-25.99999999999999
  0
LINE
  5
191
100
AcDbEntity
  8
0
  6
CONTINUOUS
 62
             7
100
AcDbLine
 10
-3.64999999999772
 20
-24.99999999999999
 11
-3.64999999999772
 21
-22.5
  0
LINE
  5
190
100
AcDbEntity
  8
0
  6
CONTINUOUS
 62
             7
100
AcDbLine
 10
-0.64999999999772
 20
-24.99999999999999
 11
-0.64999999999772
 21
-22.5
  0
LINE
  5
18F
100
AcDbEntity
  8
0
  6
CONTINUOUS
 62
             7
100
AcDbLine
 10
-3.64999999999772
 20
-24.99999999999999
 11
-0.64999999999772
 21
-24.99999999999999
  0
LINE
  5
18E
100
AcDbEntity
  8
0
  6
CONTINUOUS
 62
             7
100
AcDbLine
 10
-3.64999999999772
 20
-25.99999999999999
 11
-0.64999999999772
 21
-25.99999999999999
  0
LINE
  5
18D
100
AcDbEntity
  8
0
  6
CONTINUOUS
 62
             7
100
AcDbLine
 10
-3.64999999999772
 20
-28.49999999999999
 11
-3.64999999999772
 21
-25.99999999999999
  0
LINE
  5
18C
100
AcDbEntity
  8
0
  6
CONTINUOUS
 62
             7
100
AcDbLine
 10
2.35000000000228
 20
-28.99999999999999
 11
5.35000000000228
 21
-28.99999999999999
  0
LINE
  5
18B
100
AcDbEntity
  8
0
  6
CONTINUOUS
 62
             7
100
AcDbLine
 10
1.85000000000228
 20
-28.49999999999999
 11
1.85000000000228
 21
-22.5
  0
LINE
  5
18A
100
AcDbEntity
  8
0
  6
CONTINUOUS
 62
             7
100
AcDbLine
 10
3.35000000000228
 20
-27.99999999999999
 11
5.35000000000228
 21
-27.99999999999999
  0
LINE
  5
189
100
AcDbEntity
  8
0
  6
CONTINUOUS
 62
             7
100
AcDbLine
 10
2.85000000000228
 20
-27.49999999999999
 11
2.85000000000228
 21
-22.5
  0
LINE
  5
188
100
AcDbEntity
  8
0
  6
CONTINUOUS
 62
             7
100
AcDbLine
 10
-4.64999999999772
 20
-28.49999999999999
 11
-4.64999999999772
 21
-22.5
  0
LINE
  5
187
100
AcDbEntity
  8
1
  6
PHANTOM
 62
             2
100
AcDbLine
 10
-37.39667428721557
 20
-59.99999998235262
 11
-53.11192278825358
 21
-59.99999998235262
  0
LINE
  5
186
100
AcDbEntity
  8
0
  6
CONTINUOUS
 62
             7
100
AcDbLine
 10
-42.99999999999997
 20
-41.49999999999999
 11
-42.99999999999987
 21
-45.4999999823508
  0
LINE
  5
185
100
AcDbEntity
  8
0
  6
CONTINUOUS
 62
             7
100
AcDbLine
 10
-42.99999999999997
 20
-41.49999999999999
 11
30.28502226216449
 21
-41.49999999999999
  0
LINE
  5
184
100
AcDbEntity
  8
1
  6
CONTINUOUS
 62
             7
100
AcDbLine
 10
-42.99999999999987
 20
-45.4999999823508
 11
-49.99999999999987
 21
-45.4999999823508
  0
LINE
  5
183
100
AcDbEntity
  8
1
  6
CONTINUOUS
 62
             7
100
AcDbLine
 10
-49.99999999999987
 20
-74.49999998235442
 11
-42.99999999999987
 21
-74.49999998235442
  0
LINE
  5
182
100
AcDbEntity
  8
0
  6
CONTINUOUS
 62
             7
100
AcDbLine
 10
92.9883170110881
 20
-23.21266773497659
 11
35.71266773497635
 21
-80.48831701108557
  0
LINE
  5
181
100
AcDbEntity
  8
0
  6
CONTINUOUS
 62
             7
100
AcDbLine
 10
-55.00000000000017
 20
-3.5
 11
-55.00000000000007
 21
-5.5
  0
LINE
  5
180
100
AcDbEntity
  8
0
  6
CONTINUOUS
 62
             7
100
AcDbLine
 10
39.20000000000003
 20
-5.5
 11
55.00000000000018
 21
-5.5
  0
LINE
  5
17F
100
AcDbEntity
  8
0
  6
CONTINUOUS
 62
             7
100
AcDbLine
 10
17.9174243050442
 20
-5.5
 11
37.70000000000003
 21
-5.5
  0
LINE
  5
17E
100
AcDbEntity
  8
0
  6
CONTINUOUS
 62
             7
100
AcDbLine
 10
-39.19999999999997
 20
-5.5
 11
-37.69999999999997
 21
-5.5
  0
LINE
  5
17D
100
AcDbEntity
  8
0
  6
CONTINUOUS
 62
             7
100
AcDbLine
 10
-55.00000000000007
 20
-5.5
 11
-39.19999999999997
 21
-5.5
  0
LINE
  5
17C
100
AcDbEntity
  8
0
  6
CONTINUOUS
 62
             7
100
AcDbLine
 10
-17.91742430504414
 20
-5.5
 11
-17.49999999999997
 21
-5.5
  0
LINE
  5
17B
100
AcDbEntity
  8
0
  6
CONTINUOUS
 62
             7
100
AcDbLine
 10
-37.69999999999997
 20
-5.5
 11
-17.91742430504414
 21
-5.5
  0
LINE
  5
17A
100
AcDbEntity
  8
0
  6
CONTINUOUS
 62
             7
100
AcDbLine
 10
17.50000000000003
 20
-5.5
 11
17.9174243050442
 21
-5.5
  0
LINE
  5
179
100
AcDbEntity
  8
0
  6
CONTINUOUS
 62
             7
100
AcDbLine
 10
-17.49999999999997
 20
-5.5
 11
17.50000000000003
 21
-5.5
  0
LINE
  5
178
100
AcDbEntity
  8
0
  6
CONTINUOUS
 62
             7
100
AcDbLine
 10
37.70000000000003
 20
-5.5
 11
39.20000000000003
 21
-5.5
  0
LINE
  5
177
100
AcDbEntity
  8
0
  6
CONTINUOUS
 62
             7
100
AcDbLine
 10
-50.00000000000007
 20
-9.49999999999997
 11
-45.00000000000007
 21
-14.50000000000005
  0
LINE
  5
176
100
AcDbEntity
  8
0
  6
CONTINUOUS
 62
             7
100
AcDbLine
 10
50.0000000000001
 20
-9.49999999999997
 11
45.00000000000009
 21
-14.50000000000004
  0
LINE
  5
175
100
AcDbEntity
  8
0
  6
CONTINUOUS
 62
             7
100
AcDbLine
 10
1.00000000000003
 20
-9.49999999999998
 11
1.00000000000003
 21
-10.5
  0
LINE
  5
174
100
AcDbEntity
  8
0
  6
CONTINUOUS
 62
             7
100
AcDbLine
 10
49.29289321881355
 20
-9.49999999999998
 11
44.98888751680806
 21
-13.80400570200552
  0
LINE
  5
173
100
AcDbEntity
  8
0
  6
CONTINUOUS
 62
             7
100
AcDbLine
 10
-0.99999999999997
 20
-9.49999999999998
 11
-0.99999999999997
 21
-10.5
  0
LINE
  5
172
100
AcDbEntity
  8
0
  6
CONTINUOUS
 62
             7
100
AcDbLine
 10
0.50000000000003
 20
-9.49999999999999
 11
0.50000000000095
 21
-14.50277786346104
  0
LINE
  5
171
100
AcDbEntity
  8
0
  6
CONTINUOUS
 62
             7
100
AcDbLine
 10
-0.49999999999997
 20
-9.49999999999999
 11
-0.49999999999999
 21
-14.50277786351701
  0
LINE
  5
170
100
AcDbEntity
  8
0
  6
CONTINUOUS
 62
             7
100
AcDbLine
 10
-50.00000000000007
 20
-9.49999999999997
 11
-49.29289321881348
 21
-9.49999999999998
  0
LINE
  5
16F
100
AcDbEntity
  8
0
  6
CONTINUOUS
 62
             7
100
AcDbLine
 10
-51.00000000000007
 20
-9.5
 11
-50.00000000000007
 21
-9.49999999999997
  0
LINE
  5
16E
100
AcDbEntity
  8
0
  6
CONTINUOUS
 62
             7
100
AcDbLine
 10
50.0000000000001
 20
-9.49999999999997
 11
51.00000000000017
 21
-9.5
  0
LINE
  5
16D
100
AcDbEntity
  8
0
  6
CONTINUOUS
 62
             7
100
AcDbLine
 10
0.50000000000003
 20
-9.49999999999999
 11
1.00000000000003
 21
-9.49999999999998
  0
LINE
  5
16C
100
AcDbEntity
  8
0
  6
CONTINUOUS
 62
             7
100
AcDbLine
 10
-0.49999999999997
 20
-9.49999999999999
 11
0.50000000000003
 21
-9.49999999999999
  0
LINE
  5
16B
100
AcDbEntity
  8
0
  6
CONTINUOUS
 62
             7
100
AcDbLine
 10
-0.99999999999997
 20
-9.49999999999998
 11
-0.49999999999997
 21
-9.49999999999999
  0
LINE
  5
16A
100
AcDbEntity
  8
0
  6
CONTINUOUS
 62
             7
100
AcDbLine
 10
-15.48999999999998
 20
-9.5
 11
-0.99999999999997
 21
-9.49999999999998
  0
LINE
  5
169
100
AcDbEntity
  8
0
  6
CONTINUOUS
 62
             7
100
AcDbLine
 10
45.98912915026774
 20
-9.5
 11
49.29289321881355
 21
-9.49999999999998
  0
LINE
  5
168
100
AcDbEntity
  8
0
  6
CONTINUOUS
 62
             7
100
AcDbLine
 10
17.50000000003649
 20
-9.5
 11
45.98912915026774
 21
-9.5
  0
LINE
  5
167
100
AcDbEntity
  8
0
  6
CONTINUOUS
 62
             7
100
AcDbLine
 10
1.00000000000003
 20
-9.49999999999998
 11
15.49000000000003
 21
-9.5
  0
LINE
  5
166
100
AcDbEntity
  8
0
  6
CONTINUOUS
 62
             7
100
AcDbLine
 10
15.49000000000003
 20
-9.5
 11
17.50000000003649
 21
-9.5
  0
LINE
  5
165
100
AcDbEntity
  8
0
  6
CONTINUOUS
 62
             7
100
AcDbLine
 10
49.29289321881355
 20
-9.49999999999998
 11
50.0000000000001
 21
-9.49999999999997
  0
LINE
  5
164
100
AcDbEntity
  8
0
  6
CONTINUOUS
 62
             7
100
AcDbLine
 10
-45.00000000000007
 20
-40.99999999999999
 11
32.25203821672466
 21
-40.99999999999999
  0
LINE
  5
163
100
AcDbEntity
  8
0
  6
CONTINUOUS
 62
             7
100
AcDbLine
 10
-44.98888751680798
 20
-13.80400570200552
 11
-44.98888751680798
 21
-10.5
  0
LINE
  5
162
100
AcDbEntity
  8
0
  6
CONTINUOUS
 62
             7
100
AcDbLine
 10
30.28502226216449
 20
-41.49999999999999
 11
31.81917501967068
 21
-41.49999999999999
  0
LINE
  5
161
100
AcDbEntity
  8
0
  6
CONTINUOUS
 62
             7
100
AcDbLine
 10
-44.50000000000007
 20
-41.49999999999999
 11
-42.99999999999997
 21
-41.49999999999999
  0
LINE
  5
160
100
AcDbEntity
  8
0
  6
CONTINUOUS
 62
             7
100
AcDbLine
 10
44.97907171013001
 20
-18.5
 11
29.96837902863574
 21
-18.5
  0
LINE
  5
15F
100
AcDbEntity
  8
0
  6
CONTINUOUS
 62
             7
100
AcDbLine
 10
44.98888751680806
 20
-13.80400570200552
 11
44.98888751680806
 21
-10.5
  0
LINE
  5
15E
100
AcDbEntity
  8
0
  6
CONTINUOUS
 62
             7
100
AcDbLine
 10
1.00000000000003
 20
-10.5
 11
1.00000000000003
 21
-13.80400570200552
  0
LINE
  5
15D
100
AcDbEntity
  8
0
  6
CONTINUOUS
 62
             7
100
AcDbLine
 10
-0.99999999999997
 20
-10.5
 11
-0.99999999999997
 21
-13.80400570200552
  0
LINE
  5
15C
100
AcDbEntity
  8
0
  6
CONTINUOUS
 62
             7
100
AcDbLine
 10
45.00000000000009
 20
-14.50000000000004
 11
44.99722213651111
 21
-14.50277786346104
  0
LINE
  5
15B
100
AcDbEntity
  8
0
  6
CONTINUOUS
 62
             7
100
AcDbLine
 10
45.00000000000009
 20
-18.0
 11
45.00000000000009
 21
-14.50000000000004
  0
LINE
  5
15A
100
AcDbEntity
  8
0
  6
CONTINUOUS
 62
             7
100
AcDbLine
 10
35.00556095378981
 20
-80.48831701108557
 11
27.2586219625296
 21
-72.74137801982499
  0
LINE
  5
159
100
AcDbEntity
  8
0
  6
CONTINUOUS
 62
             7
100
AcDbLine
 10
36.71195994147546
 20
-60.3971417125486
 11
35.21790758857308
 21
-61.89119406545088
  0
LINE
  5
158
100
AcDbEntity
  8
0
  6
CONTINUOUS
 62
             7
100
AcDbLine
 10
81.67460851210268
 20
-15.43449314192347
 11
78.7555482634328
 21
-18.35355339059326
  0
LINE
  5
157
100
AcDbEntity
  8
0
  6
CONTINUOUS
 62
             7
100
AcDbLine
 10
81.67460851210268
 20
-15.43449314192347
 11
85.91724919922197
 21
-15.43449314192356
  0
LINE
  5
156
100
AcDbEntity
  8
0
  6
CONTINUOUS
 62
             7
100
AcDbLine
 10
92.9883170110881
 20
-22.50556095379003
 11
35.00556095378981
 21
-80.48831701108557
  0
LINE
  5
155
100
AcDbEntity
  8
0
  6
CONTINUOUS
 62
             7
100
AcDbLine
 10
92.9883170110881
 20
-22.50556095379003
 11
85.91724919922197
 21
-15.43449314192356
  0
LINE
  5
154
100
AcDbEntity
  8
0
  6
CONTINUOUS
 62
             7
100
AcDbLine
 10
85.91724919922197
 20
-15.43449314192356
 11
34.78522954620457
 21
-66.5665127515457
  0
LINE
  5
153
100
AcDbEntity
  8
0
  6
CONTINUOUS
 62
             7
100
AcDbLine
 10
44.9990218466328
 20
-17.99999999999998
 11
45.00000000000009
 21
-18.0
  0
LINE
  5
152
100
AcDbEntity
  8
0
  6
CONTINUOUS
 62
             7
100
AcDbLine
 10
66.89589821842856
 20
-30.21320343559693
 11
36.71195994147546
 21
-60.3971417125486
  0
LINE
  5
151
100
AcDbEntity
  8
0
  6
CONTINUOUS
 62
             7
100
AcDbLine
 10
78.287808523877
 20
-18.82129313014903
 11
66.89589821842856
 21
-30.21320343559693
  0
LINE
  5
150
100
AcDbEntity
  8
0
  6
CONTINUOUS
 62
             7
100
AcDbLine
 10
78.60910165402605
 20
-18.5
 11
78.287808523877
 21
-18.82129313014903
  0
LINE
  5
14F
100
AcDbEntity
  8
0
  6
CONTINUOUS
 62
             7
100
AcDbLine
 10
78.7555482634328
 20
-18.35355339059326
 11
78.60910165402605
 21
-18.5
  0
LINE
  5
14E
100
AcDbEntity
  8
0
  6
CONTINUOUS
 62
             7
100
AcDbLine
 10
78.60910165402605
 20
-18.5
 11
78.4019948728395
 21
-18.5
  0
LINE
  5
14D
100
AcDbEntity
  8
0
  6
CONTINUOUS
 62
             7
100
AcDbLine
 10
78.4019948728395
 20
-18.5
 11
45.50000000000009
 21
-18.5
  0
LINE
  5
14C
100
AcDbEntity
  8
0
  6
CONTINUOUS
 62
             7
100
AcDbLine
 10
78.287808523877
 20
-18.82129313014903
 11
28.86025968756126
 21
-19.54603721697467
  0
LINE
  5
14B
100
AcDbEntity
  8
0
  6
CONTINUOUS
 62
             7
100
AcDbLine
 10
31.66920152075143
 20
-38.49999999999998
 11
31.81111036569964
 21
-38.50000000000003
  0
LINE
  5
14A
100
AcDbEntity
  8
0
  6
CONTINUOUS
 62
             7
100
AcDbLine
 10
34.35832763319767
 20
-61.64415176191561
 11
35.94049351401286
 21
-60.04358838958403
  0
LINE
  5
149
100
AcDbEntity
  8
0
  6
CONTINUOUS
 62
             7
100
AcDbLine
 10
36.77731091954209
 20
-60.04894802487286
 11
64.30907301006397
 21
-32.51718593148674
  0
LINE
  5
148
100
AcDbEntity
  8
0
  6
CONTINUOUS
 62
             7
100
AcDbLine
 10
45.50000000000009
 20
-18.5
 11
45.49901097826204
 21
-18.5
  0
LINE
  5
147
100
AcDbEntity
  8
0
  6
CONTINUOUS
 62
             7
100
AcDbLine
 10
45.49901097826204
 20
-18.5
 11
44.97907171013001
 21
-18.5
  0
LINE
  5
146
100
AcDbEntity
  8
0
  6
CONTINUOUS
 62
             7
100
AcDbLine
 10
-45.00000000000007
 20
-14.50000000000005
 11
-44.99722213651107
 21
-14.50277786346104
  0
LINE
  5
145
100
AcDbEntity
  8
0
  6
CONTINUOUS
 62
             7
100
AcDbLine
 10
-45.00000000000007
 20
-40.99999999999999
 11
-45.00000000000007
 21
-14.50000000000005
  0
LINE
  5
144
100
AcDbEntity
  8
0
  6
CONTINUOUS
 62
             7
100
AcDbLine
 10
-17.49999999999997
 20
-3.5
 11
-55.00000000000017
 21
-3.5
  0
LINE
  5
143
100
AcDbEntity
  8
0
  6
CONTINUOUS
 62
             7
100
AcDbLine
 10
13.50000000000003
 20
-3.5
 11
-13.49999999999997
 21
-3.5
  0
LINE
  5
142
100
AcDbEntity
  8
0
  6
CONTINUOUS
 62
             7
100
AcDbLine
 10
17.50000000000003
 20
-3.5
 11
13.50000000000003
 21
-3.5
  0
LINE
  5
141
100
AcDbEntity
  8
0
  6
CONTINUOUS
 62
             7
100
AcDbLine
 10
55.0000000000002
 20
-3.5
 11
17.50000000000003
 21
-3.5
  0
LINE
  5
140
100
AcDbEntity
  8
0
  6
CONTINUOUS
 62
             7
100
AcDbLine
 10
-13.49999999999997
 20
-3.5
 11
-17.49999999999997
 21
-3.5
  0
LINE
  5
13F
100
AcDbEntity
  8
0
  6
CONTINUOUS
 62
             7
100
AcDbLine
 10
-45.98912915026767
 20
-9.5
 11
-17.49999999999997
 21
-9.5
  0
LINE
  5
13E
100
AcDbEntity
  8
0
  6
CONTINUOUS
 62
             7
100
AcDbLine
 10
-17.49999999999997
 20
-9.5
 11
-15.48999999999998
 21
-9.5
  0
LINE
  5
13D
100
AcDbEntity
  8
0
  6
CONTINUOUS
 62
             7
100
AcDbLine
 10
55.0000000000002
 20
-3.5
 11
55.00000000000018
 21
-5.5
  0
LINE
  5
13C
100
AcDbEntity
  8
0
  6
CONTINUOUS
 62
             7
100
AcDbLine
 10
-49.29289321881348
 20
-9.49999999999998
 11
-44.98888751680798
 21
-13.80400570200552
  0
LINE
  5
13B
100
AcDbEntity
  8
0
  6
CONTINUOUS
 62
             7
100
AcDbLine
 10
-49.29289321881348
 20
-9.49999999999998
 11
-45.98912915026767
 21
-9.5
  0
LINE
  5
13A
100
AcDbEntity
  8
0
  6
CONTINUOUS
 62
             7
100
AcDbLine
 10
-44.98888751680798
 20
-10.5
 11
-0.99999999999997
 21
-10.5
  0
LINE
  5
139
100
AcDbEntity
  8
0
  6
CONTINUOUS
 62
             7
100
AcDbLine
 10
1.00000000000003
 20
-10.5
 11
44.98888751680806
 21
-10.5
  0
LINE
  5
138
100
AcDbEntity
  8
1
  6
PHANTOM
 62
             2
100
AcDbLine
 10
-0.00000000000003
 20
14.31132051571124
 11
0.0000000000002
 21
-83.76044499172637
  0
LINE
  5
137
100
AcDbEntity
  8
1
  6
PHANTOM
 62
             2
100
AcDbLine
 10
67.21970380612102
 20
-54.71970380612002
 11
52.08716682583562
 21
-39.58716682583392
  0
POINT
  5
136
100
AcDbEntity
  8
1
 62
             3
 60
             1
100
AcDbPoint
 10
-42.99999999999987
 20
-45.4999999823508
  0
POINT
  5
135
100
AcDbEntity
  8
1
 62
             3
 60
             1
100
AcDbPoint
 10
-42.99999999999987
 20
-74.49999998235442
  0
ENDBLK
  5
1E2
100
AcDbEntity
  8
0
100
AcDbBlockEnd
  0
BLOCK
  5
34
100
AcDbEntity
  8
0
100
AcDbBlockBegin
  2
HL522_ABGANGSBOGEN_DN4GRAD
 70
             0
 10
27.54433376598484
 20
10.10322933633531
 30
0.0
  3
HL522_ABGANGSBOGEN_DN4GRAD
  1

  0
SPLINE
  5
20D
100
AcDbEntity
  8
0
  6
DASHED
 62
             7
100
AcDbSpline
210
0.0
220
0.0
230
1.0
 70
             0
 71
             3
 72
            12
 73
             8
 74
             7
 42
0.00000000001
 43
0.00000000001
 44
0.00000000001
 40
0.0
 40
0.0
 40
0.0
 40
0.0
 40
1.0
 40
1.0
 40
2.0
 40
2.0
 40
3.0
 40
3.0
 40
3.0
 40
3.0
 10
53.355006539911948
 20
-138.49552132104591
 30
0.0
 10
53.355006539911948
 20
-138.40775367604471
 30
0.0
 10
53.362399652106248
 20
-138.32153033124729
 30
0.0
 10
53.390485298506633
 20
-138.16951231084451
 30
0.0
 10
53.410683656647507
 20
-138.10639244165429
 30
0.0
 10
53.459329423176378
 20
-138.01862479665311
 30
0.0
 10
53.486920893511567
 20
-137.99552132104591
 30
0.0
 10
53.515006539911951
 20
-137.99552132104591
 30
0.0
 11
53.355006539911948
 21
-138.49552132104591
 31
0.0
 11
53.360458448909121
 21
-138.36611183299598
 31
0.0
 11
53.37644247530644
 21
-138.24552132104589
 31
0.0
 11
53.401869485085108
 21
-138.14196802471199
 31
0.0
 11
53.435006539911939
 21
-138.0625086191537
 31
0.0
 11
53.473595503735964
 21
-138.01255853666211
 31
0.0
 11
53.515006539911951
 21
-137.99552132104591
 31
0.0
  0
SPLINE
  5
20C
100
AcDbEntity
  8
0
  6
DASHED
 62
             7
100
AcDbSpline
210
0.0
220
0.0
230
1.0
 70
             0
 71
             3
 72
            12
 73
             8
 74
             7
 42
0.00000000001
 43
0.00000000001
 44
0.00000000001
 40
0.0
 40
0.0
 40
0.0
 40
0.0
 40
1.0
 40
1.0
 40
2.0
 40
2.0
 40
3.0
 40
3.0
 40
3.0
 40
3.0
 10
70.635006539911927
 20
-138.49552132104591
 30
0.0
 10
70.635006539911927
 20
-138.40775367604471
 30
0.0
 10
70.627613427717634
 20
-138.32153033124729
 30
0.0
 10
70.599527781317249
 20
-138.16951231084451
 30
0.0
 10
70.579329423176375
 20
-138.10639244165429
 30
0.0
 10
70.530683656647497
 20
-138.01862479665311
 30
0.0
 10
70.503092186312315
 20
-137.99552132104591
 30
0.0
 10
70.475006539911931
 20
-137.99552132104591
 30
0.0
 11
70.635006539911927
 21
-138.49552132104591
 31
0.0
 11
70.629554630914754
 21
-138.36611183299598
 31
0.0
 11
70.613570604517435
 21
-138.24552132104589
 31
0.0
 11
70.588143594738781
 21
-138.14196802471199
 31
0.0
 11
70.555006539911943
 21
-138.0625086191537
 31
0.0
 11
70.516417576087917
 21
-138.01255853666211
 31
0.0
 11
70.475006539911931
 21
-137.99552132104591
 31
0.0
  0
SPLINE
  5
20B
100
AcDbEntity
  8
0
  6
DASHED
 62
             7
100
AcDbSpline
210
0.0
220
0.0
230
1.0
 70
             0
 71
             3
 72
            29
 73
            25
 74
            17
 42
0.00000000001
 43
0.00000000001
 44
0.00000000001
 40
1.010839592849311
 40
1.010839592849311
 40
1.010839592849311
 40
1.010839592849311
 40
2.1226142450197978
 40
2.1226142450197978
 40
2.1226142450197978
 40
3.1066263614053078
 40
3.1066263614053078
 40
3.1066263614053078
 40
3.9566085318959292
 40
3.9566085318959292
 40
3.9566085318959292
 40
4.6695455539102024
 40
4.6695455539102024
 40
4.6695455539102024
 40
5.2410363830095337
 40
5.2410363830095337
 40
5.2410363830095337
 40
5.6694792685486748
 40
5.6694792685486748
 40
5.6694792685486748
 40
5.9643754412982197
 40
5.9643754412982197
 40
5.9643754412982197
 40
6.1621799923229457
 40
6.1621799923229457
 40
6.1621799923229457
 40
6.1621799923229457
 10
82.09500653991195
 20
-137.99552132104591
 30
0.0
 10
82.540571857636934
 20
-137.99552132104591
 30
0.0
 10
82.920048056026161
 20
-138.0084409652774
 30
0.0
 10
83.206373169172139
 20
-138.02243206671849
 30
0.0
 10
83.474746473478078
 20
-138.03554596400599
 30
0.0
 10
83.8143665076079
 20
-138.05708327865989
 30
0.0
 10
84.187728448226508
 20
-138.0936927662203
 30
0.0
 10
84.53714251876481
 20
-138.12795407857479
 30
0.0
 10
84.818429023118
 20
-138.16583923175611
 30
0.0
 10
85.031130915655197
 20
-138.19860520517659
 30
0.0
 10
85.238765742371953
 20
-138.2305906150487
 30
0.0
 10
85.484084903704229
 20
-138.27357252432529
 30
0.0
 10
85.731811700535701
 20
-138.32965541138009
 30
0.0
 10
85.97204222455558
 20
-138.384041216703
 30
0.0
 10
86.151276064427222
 20
-138.43642615201841
 30
0.0
 10
86.282861911686808
 20
-138.4804761324572
 30
0.0
 10
86.413602685253849
 20
-138.52424321408569
 30
0.0
 10
86.55540493637487
 20
-138.57923392923249
 30
0.0
 10
86.678089098871666
 20
-138.64494978884969
 30
0.0
 10
86.766361412626011
 20
-138.69223291701169
 30
0.0
 10
86.854684547675461
 20
-138.75039577252741
 30
0.0
 10
86.915625927736286
 20
-138.81801041469421
 30
0.0
 10
86.968408562183669
 20
-138.87657290437221
 30
0.0
 10
86.995006539911941
 20
-138.93596952321639
 30
0.0
 10
86.995006539911941
 20
-138.99552132104591
 30
0.0
 11
82.09500653991195
 21
-137.99552132104591
 31
0.0
 11
82.710404931259177
 21
-138.00373003084181
 31
0.0
 11
83.206373169172139
 21
-138.02243206671849
 31
0.0
 11
83.657680070082051
 21
-138.04925157011704
 31
0.0
 11
84.187728448226508
 21
-138.0936927662203
 31
0.0
 11
84.660696748691265
 21
-138.14670973779869
 31
0.0
 11
85.031130915655197
 21
-138.19860520517659
 31
0.0
 11
85.366436819302436
 21
-138.25509375433484
 31
0.0
 11
85.731811700535701
 21
-138.32965541138009
 31
0.0
 11
86.048078559896368
 21
-138.40894170625018
 31
0.0
 11
86.282861911686808
 21
-138.4804761324572
 31
0.0
 11
86.48349673443056
 21
-138.55448216890767
 31
0.0
 11
86.678089098871666
 21
-138.64494978884969
 31
0.0
 11
86.807106613439046
 21
-138.72385578402015
 31
0.0
 11
86.915625927736286
 21
-138.81801041469421
 31
0.0
 11
86.975109721741873
 21
-138.90639487731323
 31
0.0
 11
86.995006539911941
 21
-138.99552132104591
 31
0.0
  0
SPLINE
  5
20A
100
AcDbEntity
  8
0
  6
DASHED
 62
             7
100
AcDbSpline
210
0.0
220
0.0
230
1.0
 70
             0
 71
             3
 72
            12
 73
             8
 74
             7
 42
0.00000000001
 43
0.00000000001
 44
0.00000000001
 40
0.0
 40
0.0
 40
0.0
 40
0.0
 40
1.0
 40
1.0
 40
2.0
 40
2.0
 40
3.0
 40
3.0
 40
3.0
 40
3.0
 10
70.475006539911917
 20
-139.99552132104591
 30
0.0
 10
70.503092186312301
 20
-139.99552132104591
 30
0.0
 10
70.530683656647469
 20
-139.97241784543871
 30
0.0
 10
70.579329423176361
 20
-139.88465020043751
 30
0.0
 10
70.599527781317235
 20
-139.82153033124729
 30
0.0
 10
70.62761342771762
 20
-139.66951231084451
 30
0.0
 10
70.635006539911927
 20
-139.58328896604709
 30
0.0
 10
70.635006539911927
 20
-139.49552132104591
 30
0.0
 11
70.475006539911917
 21
-139.99552132104591
 31
0.0
 11
70.516417576087903
 21
-139.97848410542974
 31
0.0
 11
70.555006539911915
 21
-139.92853402293809
 31
0.0
 11
70.588143594738767
 21
-139.84907461737978
 31
0.0
 11
70.613570604517435
 21
-139.74552132104589
 31
0.0
 11
70.629554630914754
 21
-139.62493080909582
 31
0.0
 11
70.635006539911927
 21
-139.49552132104591
 31
0.0
  0
SPLINE
  5
209
100
AcDbEntity
  8
0
  6
DASHED
 62
             7
100
AcDbSpline
210
0.0
220
0.0
230
1.0
 70
             0
 71
             3
 72
            12
 73
             8
 74
             7
 42
0.00000000001
 43
0.00000000001
 44
0.00000000001
 40
0.0
 40
0.0
 40
0.0
 40
0.0
 40
1.0
 40
1.0
 40
2.0
 40
2.0
 40
3.0
 40
3.0
 40
3.0
 40
3.0
 10
53.515006539911951
 20
-139.99552132104591
 30
0.0
 10
53.486920893511567
 20
-139.99552132104591
 30
0.0
 10
53.459329423176378
 20
-139.97241784543871
 30
0.0
 10
53.410683656647507
 20
-139.88465020043751
 30
0.0
 10
53.390485298506633
 20
-139.82153033124729
 30
0.0
 10
53.362399652106248
 20
-139.66951231084451
 30
0.0
 10
53.355006539911948
 20
-139.58328896604709
 30
0.0
 10
53.355006539911948
 20
-139.49552132104591
 30
0.0
 11
53.515006539911951
 21
-139.99552132104591
 31
0.0
 11
53.473595503735964
 21
-139.97848410542974
 31
0.0
 11
53.435006539911939
 21
-139.92853402293809
 31
0.0
 11
53.401869485085101
 21
-139.84907461737978
 31
0.0
 11
53.37644247530644
 21
-139.74552132104589
 31
0.0
 11
53.360458448909121
 21
-139.62493080909582
 31
0.0
 11
53.355006539911948
 21
-139.49552132104591
 31
0.0
  0
ARC
  5
208
100
AcDbEntity
  8
0
  6
DASHED
 62
             7
100
AcDbCircle
 10
52.49500653991195
 20
-138.49552132104591
 40
0.5
100
AcDbArc
 50
90.00000000000081
 51
180.0
  0
ARC
  5
207
100
AcDbEntity
  8
0
  6
DASHED
 62
             7
100
AcDbCircle
 10
71.49500653991193
 20
-138.49552132104591
 40
0.5
100
AcDbArc
 50
0.0
 51
90.0
  0
ARC
  5
206
100
AcDbEntity
  8
0
  6
DASHED
 62
             7
100
AcDbCircle
 10
37.99500653991195
 20
-138.99552132104591
 40
1.0
100
AcDbArc
 50
90.0
 51
180.0
  0
ARC
  5
205
100
AcDbEntity
  8
0
  6
DASHED
 62
             7
100
AcDbCircle
 10
52.49500653991195
 20
-139.49552132104591
 40
0.5
100
AcDbArc
 50
180.0
 51
-90.0
  0
ARC
  5
204
100
AcDbEntity
  8
0
  6
DASHED
 62
             7
100
AcDbCircle
 10
71.49500653991193
 20
-139.49552132104591
 40
0.5
100
AcDbArc
 50
-90.0
 51
0.0
  0
LINE
  5
203
100
AcDbEntity
  8
1
  6
DASHED
 62
             2
100
AcDbLine
 10
61.99500653991196
 20
-197.15304421691721
 11
61.99500653991196
 21
-133.43550230715559
  0
LINE
  5
202
100
AcDbEntity
  8
1
  6
PHANTOM
 62
             2
100
AcDbLine
 10
66.9950065399086
 20
-144.3976600550717
 11
66.9950065399086
 21
-69.80087129519049
  0
LINE
  5
201
100
AcDbEntity
  8
0
  6
DASHED
 62
             7
100
AcDbLine
 10
37.93282871342088
 20
-192.99552132104591
 11
86.05718436640301
 21
-192.99552132104591
  0
LINE
  5
200
100
AcDbEntity
  8
0
  6
DASHED
 62
             7
100
AcDbLine
 10
53.51500653991195
 20
-137.99552132104591
 11
52.49500653991194
 21
-137.99552132104591
  0
LINE
  5
1FF
100
AcDbEntity
  8
0
  6
DASHED
 62
             7
100
AcDbLine
 10
52.49500653991194
 20
-137.99552132104591
 11
46.99500653991195
 21
-137.99552132104591
  0
LINE
  5
1FE
100
AcDbEntity
  8
0
  6
DASHED
 62
             7
100
AcDbLine
 10
71.49500653991193
 20
-137.99552132104591
 11
70.47500653991193
 21
-137.99552132104591
  0
LINE
  5
1FD
100
AcDbEntity
  8
0
  6
DASHED
 62
             7
100
AcDbLine
 10
70.47500653991193
 20
-137.99552132104591
 11
53.51500653991195
 21
-137.99552132104591
  0
LINE
  5
1FC
100
AcDbEntity
  8
0
  6
DASHED
 62
             7
100
AcDbLine
 10
46.99500653991195
 20
-137.99552132104591
 11
37.99500653991195
 21
-137.99552132104591
  0
LINE
  5
1FB
100
AcDbEntity
  8
0
  6
DASHED
 62
             7
100
AcDbLine
 10
46.99500653991195
 20
-137.99552132104591
 11
46.99500653991195
 21
-83.31112531223116
  0
LINE
  5
1FA
100
AcDbEntity
  8
0
  6
DASHED
 62
             7
100
AcDbLine
 10
71.99500653991193
 20
-138.49552132104591
 11
70.63500653991193
 21
-138.49552132104591
  0
LINE
  5
1F9
100
AcDbEntity
  8
0
  6
DASHED
 62
             7
100
AcDbLine
 10
82.09500653991195
 20
-137.99552132104591
 11
71.49500653991193
 21
-137.99552132104591
  0
LINE
  5
1F8
100
AcDbEntity
  8
0
  6
DASHED
 62
             7
100
AcDbLine
 10
70.63500653991193
 20
-138.49552132104591
 11
53.35500653991195
 21
-138.49552132104591
  0
LINE
  5
1F7
100
AcDbEntity
  8
0
  6
DASHED
 62
             7
100
AcDbLine
 10
53.35500653991195
 20
-138.49552132104591
 11
51.99500653991195
 21
-138.49552132104591
  0
LINE
  5
1F6
100
AcDbEntity
  8
0
  6
DASHED
 62
             7
100
AcDbLine
 10
51.99500653991195
 20
-138.99552132104591
 11
51.99500653991195
 21
-138.49552132104591
  0
LINE
  5
1F5
100
AcDbEntity
  8
0
  6
DASHED
 62
             7
100
AcDbLine
 10
51.99500653991195
 20
-138.99552132104591
 11
36.99500653991195
 21
-138.99552132104591
  0
LINE
  5
1F4
100
AcDbEntity
  8
0
  6
DASHED
 62
             7
100
AcDbLine
 10
71.99500653991193
 20
-138.99552132104591
 11
71.99500653991193
 21
-138.49552132104591
  0
LINE
  5
1F3
100
AcDbEntity
  8
0
  6
DASHED
 62
             7
100
AcDbLine
 10
86.99500653991194
 20
-138.99552132104591
 11
86.99500653990651
 21
-74.18500653990432
  0
LINE
  5
1F2
100
AcDbEntity
  8
0
  6
DASHED
 62
             7
100
AcDbLine
 10
86.99500653991194
 20
-138.99552132104591
 11
71.99500653991193
 21
-138.99552132104591
  0
LINE
  5
1F1
100
AcDbEntity
  8
0
  6
DASHED
 62
             7
100
AcDbLine
 10
71.99500653991193
 20
-139.49552132104591
 11
71.99500653991193
 21
-138.99552132104591
  0
LINE
  5
1F0
100
AcDbEntity
  8
0
  6
DASHED
 62
             7
100
AcDbLine
 10
71.99500653991193
 20
-139.49552132104591
 11
70.63500653991193
 21
-139.49552132104591
  0
LINE
  5
1EF
100
AcDbEntity
  8
0
  6
DASHED
 62
             7
100
AcDbLine
 10
70.63500653991193
 20
-139.49552132104591
 11
53.35500653991195
 21
-139.49552132104591
  0
LINE
  5
1EE
100
AcDbEntity
  8
0
  6
DASHED
 62
             7
100
AcDbLine
 10
70.63500653991193
 20
-139.49552132104591
 11
70.63500653991193
 21
-138.49552132104591
  0
LINE
  5
1ED
100
AcDbEntity
  8
0
  6
DASHED
 62
             7
100
AcDbLine
 10
53.35500653991195
 20
-139.49552132104591
 11
53.35500653991195
 21
-138.49552132104591
  0
LINE
  5
1EC
100
AcDbEntity
  8
0
  6
DASHED
 62
             7
100
AcDbLine
 10
53.35500653991195
 20
-139.49552132104591
 11
51.99500653991195
 21
-139.49552132104591
  0
LINE
  5
1EB
100
AcDbEntity
  8
0
  6
DASHED
 62
             7
100
AcDbLine
 10
51.99500653991195
 20
-139.49552132104591
 11
51.99500653991195
 21
-138.99552132104591
  0
LINE
  5
1EA
100
AcDbEntity
  8
0
  6
DASHED
 62
             7
100
AcDbLine
 10
53.51500653991195
 20
-139.99552132104591
 11
52.49500653991195
 21
-139.99552132104591
  0
LINE
  5
1E9
100
AcDbEntity
  8
0
  6
DASHED
 62
             7
100
AcDbLine
 10
70.47500653991192
 20
-139.99552132104591
 11
53.51500653991195
 21
-139.99552132104591
  0
LINE
  5
1E8
100
AcDbEntity
  8
0
  6
DASHED
 62
             7
100
AcDbLine
 10
71.49500653991193
 20
-139.99552132104591
 11
70.47500653991192
 21
-139.99552132104591
  0
LINE
  5
1E7
100
AcDbEntity
  8
0
  6
DASHED
 62
             7
100
AcDbLine
 10
36.99500653991195
 20
-189.49552132104591
 11
37.93282871342088
 21
-192.99552132104591
  0
LINE
  5
1E6
100
AcDbEntity
  8
0
  6
DASHED
 62
             7
100
AcDbLine
 10
86.99500653991194
 20
-189.49552132104591
 11
86.05718436640301
 21
-192.99552132104591
  0
LINE
  5
1E5
100
AcDbEntity
  8
0
  6
DASHED
 62
             7
100
AcDbLine
 10
36.99500653991195
 20
-189.49552132104591
 11
36.99500653991195
 21
-138.99552132104591
  0
LINE
  5
1E4
100
AcDbEntity
  8
0
  6
DASHED
 62
             7
100
AcDbLine
 10
86.99500653991194
 20
-189.49552132104591
 11
86.99500653991194
 21
-138.99552132104591
  0
LINE
  5
1E3
100
AcDbEntity
  8
0
  6
DASHED
 62
             7
100
AcDbLine
 10
36.99500653991195
 20
-189.49552132104591
 11
86.99500653991194
 21
-189.49552132104591
  0
ENDBLK
  5
20E
100
AcDbEntity
  8
0
100
AcDbBlockEnd
  0
BLOCK
  5
36
100
AcDbEntity
  8
0
100
AcDbBlockBegin
  2
HL522V_K_RPER
 70
             0
 10
-129.68515740447401
 20
52.85622627957127
 30
0.0
  3
HL522V_K_RPER
  1

  0
POINT
  5
210
100
AcDbEntity
  8
1
 62
             3
 60
             1
100
AcDbPoint
 10
-49.99728423777196
 20
24.74169722006627
  0
POINT
  5
20F
100
AcDbEntity
  8
1
 62
             3
 60
             1
100
AcDbPoint
 10
-49.99728423777196
 20
53.74169722006991
  0
ENDBLK
  5
211
100
AcDbEntity
  8
0
100
AcDbBlockEnd
  0
BLOCK
  5
214
100
AcDbEntity
  8
0
100
AcDbBlockBegin
  2
*D9
 70
             1
 10
0.0
 20
0.0
 30
0.0
  3
*D9
  1

  0
LINE
  5
215
100
AcDbEntity
  8
0
  6
CONTINUOUS
 62
             4
100
AcDbLine
 10
61.99500653991197
 20
-208.61484784001129
 11
0.0000000000002
 21
-208.61484784001129
  0
LINE
  5
216
100
AcDbEntity
  8
0
  6
CONTINUOUS
 62
             4
100
AcDbLine
 10
0.0000000000002
 20
-83.76044499172639
 11
0.0000000000002
 21
-210.61484784001129
  0
LINE
  5
217
100
AcDbEntity
  8
0
  6
CONTINUOUS
 62
             4
100
AcDbLine
 10
61.99500653991197
 20
-197.15304421691721
 11
61.99500653991197
 21
-210.61484784001129
  0
SOLID
  5
218
100
AcDbEntity
  8
0
 62
             4
100
AcDbTrace
 10
54.99500653991197
 20
-209.53641532312307
 11
54.99500653991197
 21
-207.69328035689952
 12
61.99500653991197
 22
-208.61484784001129
 13
61.99500653991197
 23
-208.61484784001129
  0
SOLID
  5
219
100
AcDbEntity
  8
0
 62
             4
100
AcDbTrace
 10
7.0000000000002
 20
-207.69328035689952
 11
7.0000000000002
 21
-209.53641532312307
 12
0.0000000000002
 22
-208.61484784001129
 13
0.0000000000002
 23
-208.61484784001129
  0
MTEXT
  5
21B
100
AcDbEntity
  8
0
 62
             1
100
AcDbMText
 10
24.34305710204333
 20
-206.61484784001129
 30
0.0
 40
7.0
 41
0.0
 71
             7
 72
             1
  1
62
  7
CONVERTER_1
 11
0.99999999999706
 21
0.00000242406841
 31
0.0
  0
ENDBLK
  5
21C
100
AcDbEntity
  8
0
100
AcDbBlockEnd
  0
BLOCK
  5
220
100
AcDbEntity
  8
0
100
AcDbBlockBegin
  2
*D10
 70
             1
 10
0.0
 20
0.0
 30
0.0
  3
*D10
  1

  0
LINE
  5
221
100
AcDbEntity
  8
0
  6
CONTINUOUS
 62
             4
100
AcDbLine
 10
139.97936930730199
 20
-33.97500653990976
 11
139.97936930730199
 21
-3.2910664222919
  0
LINE
  5
222
100
AcDbEntity
  8
0
  6
CONTINUOUS
 62
             4
100
AcDbLine
 10
139.97936930730199
 20
-73.97500653990977
 11
139.97936930730199
 21
-33.97500653990976
  0
LINE
  5
223
100
AcDbEntity
  8
0
  6
CONTINUOUS
 62
             4
100
AcDbLine
 10
150.28552132104807
 20
-33.97500653990976
 11
137.97936930730199
 21
-33.97500653990976
  0
LINE
  5
224
100
AcDbEntity
  8
0
  6
CONTINUOUS
 62
             4
100
AcDbLine
 10
151.28552132104807
 20
-73.97500653990977
 11
137.97936930730199
 21
-73.97500653990977
  0
SOLID
  5
225
100
AcDbEntity
  8
0
 62
             4
100
AcDbTrace
 10
140.90093679041377
 20
-40.97500653990976
 11
139.05780182419022
 21
-40.97500653990976
 12
139.97936930730199
 22
-33.97500653990976
 13
139.97936930730199
 23
-33.97500653990976
  0
SOLID
  5
226
100
AcDbEntity
  8
0
 62
             4
100
AcDbTrace
 10
139.05780182419022
 20
-66.97500653990977
 11
140.90093679041377
 21
-66.97500653990977
 12
139.97936930730199
 22
-73.97500653990977
 13
139.97936930730199
 23
-73.97500653990977
  0
MTEXT
  5
227
100
AcDbEntity
  8
0
 62
             1
100
AcDbMText
 10
137.97936930730199
 20
-25.2710664222919
 30
0.0
 40
7.0
 41
0.0
 71
             7
 72
             1
  1
\C1;DN\C1;40
  7
CONVERTER_1
 11
0.0
 21
1.0
 31
0.0
  0
ENDBLK
  5
228
100
AcDbEntity
  8
0
100
AcDbBlockEnd
  0
BLOCK
  5
22C
100
AcDbEntity
  8
0
100
AcDbBlockBegin
  2
*D11
 70
             1
 10
0.0
 20
0.0
 30
0.0
  3
*D11
  1

  0
LINE
  5
22D
100
AcDbEntity
  8
0
  6
CONTINUOUS
 62
             4
100
AcDbLine
 10
220.54699822265141
 20
-73.97500653990977
 11
220.54699822265141
 21
-23.97500653990977
  0
LINE
  5
22E
100
AcDbEntity
  8
0
  6
CONTINUOUS
 62
             4
100
AcDbLine
 10
201.78552132104801
 20
-23.97500653990977
 11
222.54699822265141
 21
-23.97500653990977
  0
LINE
  5
22F
100
AcDbEntity
  8
0
  6
CONTINUOUS
 62
             4
100
AcDbLine
 10
201.78552132104801
 20
-73.97500653990977
 11
222.54699822265141
 21
-73.97500653990977
  0
SOLID
  5
230
100
AcDbEntity
  8
0
 62
             4
100
AcDbTrace
 10
221.46856570576318
 20
-30.97500653990977
 11
219.62543073953964
 21
-30.97500653990977
 12
220.54699822265141
 22
-23.97500653990977
 13
220.54699822265141
 23
-23.97500653990977
  0
SOLID
  5
231
100
AcDbEntity
  8
0
 62
             4
100
AcDbTrace
 10
219.62543073953964
 20
-66.97500653990977
 11
221.46856570576318
 21
-66.97500653990977
 12
220.54699822265141
 22
-73.97500653990977
 13
220.54699822265141
 23
-73.97500653990977
  0
MTEXT
  5
232
100
AcDbEntity
  8
0
 62
             1
100
AcDbMText
 10
218.54699822265141
 20
-55.38701308217667
 30
0.0
 40
7.0
 41
0.0
 71
             7
 72
             1
  1
\C1;DN\C1;50
  7
CONVERTER_1
 11
0.0
 21
1.0
 31
0.0
  0
ENDBLK
  5
233
100
AcDbEntity
  8
0
100
AcDbBlockEnd
  0
BLOCK
  5
237
100
AcDbEntity
  8
0
100
AcDbBlockBegin
  2
*D12
 70
             1
 10
0.0
 20
0.0
 30
0.0
  3
*D12
  1

  0
LINE
  5
238
100
AcDbEntity
  8
0
  6
CONTINUOUS
 62
             4
100
AcDbLine
 10
115.415295301904
 20
-53.97500653990641
 11
115.415295301904
 21
0.0
  0
LINE
  5
239
100
AcDbEntity
  8
0
  6
CONTINUOUS
 62
             4
100
AcDbLine
 10
71.5636215475345
 20
-53.97500653990641
 11
117.415295301904
 21
-53.97500653990641
  0
LINE
  5
23A
100
AcDbEntity
  8
0
  6
CONTINUOUS
 62
             4
100
AcDbLine
 10
55.00000000000011
 20
0.0
 11
117.415295301904
 21
0.0
  0
SOLID
  5
23B
100
AcDbEntity
  8
0
 62
             4
100
AcDbTrace
 10
114.49372781879222
 20
-46.97500653990641
 11
116.33686278501577
 21
-46.97500653990641
 12
115.415295301904
 22
-53.97500653990641
 13
115.415295301904
 23
-53.97500653990641
  0
SOLID
  5
23C
100
AcDbEntity
  8
0
 62
             4
100
AcDbTrace
 10
116.33686278501577
 20
-7.0
 11
114.49372781879222
 21
-7.0
 12
115.415295301904
 22
0.0
 13
115.415295301904
 23
0.0
  0
MTEXT
  5
23D
100
AcDbEntity
  8
0
 62
             1
100
AcDbMText
 10
113.415295301904
 20
-24.9098883508374
 30
0.0
 40
7.0
 41
0.0
 71
             7
 72
             1
  1
54
  7
CONVERTER_1
 11
0.0
 21
1.0
 31
0.0
  0
ENDBLK
  5
23E
100
AcDbEntity
  8
0
100
AcDbBlockEnd
  0
BLOCK
  5
242
100
AcDbEntity
  8
0
100
AcDbBlockBegin
  2
*D13
 70
             1
 10
0.0
 20
0.0
 30
0.0
  3
*D13
  1

  0
LINE
  5
243
100
AcDbEntity
  8
0
  6
CONTINUOUS
 62
             4
100
AcDbLine
 10
73.8534111604494
 20
-14.0
 11
73.8534111604494
 21
0.0
  0
LINE
  5
244
100
AcDbEntity
  8
0
  6
CONTINUOUS
 62
             4
100
AcDbLine
 10
73.8534111604494
 20
0.0
 11
73.8534111604494
 21
6.0
  0
LINE
  5
245
100
AcDbEntity
  8
0
  6
CONTINUOUS
 62
             4
100
AcDbLine
 10
73.8534111604494
 20
6.0
 11
73.8534111604494
 21
39.6868643416194
  0
LINE
  5
246
100
AcDbEntity
  8
0
  6
CONTINUOUS
 62
             4
100
AcDbLine
 10
55.00000000000011
 20
0.0
 11
75.8534111604494
 21
0.0
  0
LINE
  5
247
100
AcDbEntity
  8
0
  6
CONTINUOUS
 62
             4
100
AcDbLine
 10
56.00000000000003
 20
6.0
 11
75.8534111604494
 21
6.0
  0
SOLID
  5
248
100
AcDbEntity
  8
0
 62
             4
100
AcDbTrace
 10
74.77497864356117
 20
-7.0
 11
72.93184367733763
 21
-7.0
 12
73.8534111604494
 22
0.0
 13
73.8534111604494
 23
0.0
  0
SOLID
  5
249
100
AcDbEntity
  8
0
 62
             4
100
AcDbTrace
 10
72.93184367733763
 20
13.0
 11
74.77497864356117
 21
13.0
 12
73.8534111604494
 22
6.0
 13
73.8534111604494
 23
6.0
  0
MTEXT
  5
24A
100
AcDbEntity
  8
0
 62
             1
100
AcDbMText
 10
71.8534111604494
 20
15.8868643416194
 30
0.0
 40
7.0
 41
0.0
 71
             7
 72
             1
  1
\C1;6\C1;-24
  7
CONVERTER_1
 11
0.0
 21
1.0
 31
0.0
  0
ENDBLK
  5
24B
100
AcDbEntity
  8
0
100
AcDbBlockEnd
  0
BLOCK
  5
24F
100
AcDbEntity
  8
0
100
AcDbBlockBegin
  2
*D14
 70
             1
 10
0.0
 20
0.0
 30
0.0
  3
*D14
  1

  0
LINE
  5
250
100
AcDbEntity
  8
0
  6
CONTINUOUS
 62
             4
100
AcDbLine
 10
-119.52327718095751
 20
0.0
 11
-119.52327718095751
 21
-192.99552132104591
  0
LINE
  5
251
100
AcDbEntity
  8
0
  6
CONTINUOUS
 62
             4
100
AcDbLine
 10
37.93282871342089
 20
-192.99552132104591
 11
-121.52327718095751
 21
-192.99552132104591
  0
LINE
  5
252
100
AcDbEntity
  8
0
  6
CONTINUOUS
 62
             4
100
AcDbLine
 10
-55.00000000000007
 20
0.0
 11
-121.52327718095751
 21
0.0
  0
SOLID
  5
253
100
AcDbEntity
  8
0
 62
             4
100
AcDbTrace
 10
-118.60170969784573
 20
-7.0
 11
-120.44484466406928
 21
-7.0
 12
-119.52327718095751
 22
0.0
 13
-119.52327718095751
 23
0.0
  0
SOLID
  5
254
100
AcDbEntity
  8
0
 62
             4
100
AcDbTrace
 10
-120.44484466406928
 20
-185.99552132104591
 11
-118.60170969784573
 21
-185.99552132104591
 12
-119.52327718095751
 22
-192.99552132104591
 13
-119.52327718095751
 23
-192.99552132104591
  0
MTEXT
  5
255
100
AcDbEntity
  8
0
 62
             1
100
AcDbMText
 10
-121.52327718095751
 20
-91.8257215342185
 30
0.0
 40
7.0
 41
0.0
 71
             7
 72
             1
  1
193
  7
CONVERTER_1
 11
0.0
 21
1.0
 31
0.0
  0
ENDBLK
  5
256
100
AcDbEntity
  8
0
100
AcDbBlockEnd
  0
BLOCK
  5
25A
100
AcDbEntity
  8
0
100
AcDbBlockBegin
  2
*D15
 70
             1
 10
0.0
 20
0.0
 30
0.0
  3
*D15
  1

  0
LINE
  5
25B
100
AcDbEntity
  8
0
  6
CONTINUOUS
 62
             4
100
AcDbLine
 10
205.28552132104801
 20
-88.26252115435138
 11
152.28552132104809
 21
-88.26252115435138
  0
LINE
  5
25C
100
AcDbEntity
  8
0
  6
CONTINUOUS
 62
             4
100
AcDbLine
 10
152.28552132104809
 20
-57.45500653990973
 11
152.28552132104809
 21
-90.26252115435138
  0
LINE
  5
25D
100
AcDbEntity
  8
0
  6
CONTINUOUS
 62
             4
100
AcDbLine
 10
205.28552132104801
 20
-73.03718436640082
 11
205.28552132104801
 21
-90.26252115435138
  0
SOLID
  5
25E
100
AcDbEntity
  8
0
 62
             4
100
AcDbTrace
 10
198.28552132104801
 20
-89.18408863746315
 11
198.28552132104801
 21
-87.3409536712396
 12
205.28552132104801
 22
-88.26252115435138
 13
205.28552132104801
 23
-88.26252115435138
  0
SOLID
  5
25F
100
AcDbEntity
  8
0
 62
             4
100
AcDbTrace
 10
159.28552132104809
 20
-87.3409536712396
 11
159.28552132104809
 21
-89.18408863746315
 12
152.28552132104809
 22
-88.26252115435138
 13
152.28552132104809
 23
-88.26252115435138
  0
MTEXT
  5
260
100
AcDbEntity
  8
0
 62
             1
100
AcDbMText
 10
174.24809034041041
 20
-86.26252115435138
 30
0.0
 40
7.0
 41
0.0
 71
             7
 72
             1
  1
53
  7
CONVERTER_1
 11
0.99999999999706
 21
0.00000242406841
 31
0.0
  0
ENDBLK
  5
261
100
AcDbEntity
  8
0
100
AcDbBlockEnd
  0
BLOCK
  5
265
100
AcDbEntity
  8
0
100
AcDbBlockBegin
  2
*D16
 70
             1
 10
0.0
 20
0.0
 30
0.0
  3
*D16
  1

  0
LINE
  5
266
100
AcDbEntity
  8
0
  6
CONTINUOUS
 62
             4
100
AcDbLine
 10
205.28552132104801
 20
-118.6718278969915
 11
0.0000000000002
 21
-118.6718278969915
  0
LINE
  5
267
100
AcDbEntity
  8
0
  6
CONTINUOUS
 62
             4
100
AcDbLine
 10
0.0000000000002
 20
-83.76044499172637
 11
0.0000000000002
 21
-120.6718278969915
  0
LINE
  5
268
100
AcDbEntity
  8
0
  6
CONTINUOUS
 62
             4
100
AcDbLine
 10
205.28552132104801
 20
-73.03718436640082
 11
205.28552132104801
 21
-120.6718278969915
  0
SOLID
  5
269
100
AcDbEntity
  8
0
 62
             4
100
AcDbTrace
 10
198.28552132104801
 20
-119.59339538010327
 11
198.28552132104801
 21
-117.75026041387973
 12
205.28552132104801
 22
-118.6718278969915
 13
205.28552132104801
 23
-118.6718278969915
  0
SOLID
  5
26A
100
AcDbEntity
  8
0
 62
             4
100
AcDbTrace
 10
7.0000000000002
 20
-117.75026041387973
 11
7.0000000000002
 21
-119.59339538010327
 12
0.0000000000002
 22
-118.6718278969915
 13
0.0000000000002
 23
-118.6718278969915
  0
MTEXT
  5
26B
100
AcDbEntity
  8
0
 62
             1
100
AcDbMText
 10
111.99267723499679
 20
-116.6718278969915
 30
0.0
 40
7.0
 41
0.0
 71
             7
 72
             1
  1
205
  7
CONVERTER_1
 11
0.99999999999706
 21
0.00000242406841
 31
0.0
  0
ENDBLK
  5
26C
100
AcDbEntity
  8
0
100
AcDbBlockEnd
  0
BLOCK
  5
270
100
AcDbEntity
  8
0
100
AcDbBlockBegin
  2
*D17
 70
             1
 10
0.0
 20
0.0
 30
0.0
  3
*D17
  1

  0
LINE
  5
271
100
AcDbEntity
  8
0
  6
CONTINUOUS
 62
             4
100
AcDbLine
 10
205.28552132104801
 20
-103.68132457315478
 11
95.23219943089352
 21
-103.68132457315478
  0
LINE
  5
272
100
AcDbEntity
  8
0
  6
CONTINUOUS
 62
             4
100
AcDbLine
 10
95.23219943089352
 20
-32.91763599070394
 11
95.23219943089352
 21
-105.68132457315478
  0
LINE
  5
273
100
AcDbEntity
  8
0
  6
CONTINUOUS
 62
             4
100
AcDbLine
 10
205.28552132104801
 20
-73.03718436640082
 11
205.28552132104801
 21
-105.68132457315478
  0
SOLID
  5
274
100
AcDbEntity
  8
0
 62
             4
100
AcDbTrace
 10
198.28552132104801
 20
-104.60289205626655
 11
198.28552132104801
 21
-102.75975709004301
 12
205.28552132104801
 22
-103.68132457315478
 13
205.28552132104801
 23
-103.68132457315478
  0
SOLID
  5
275
100
AcDbEntity
  8
0
 62
             4
100
AcDbTrace
 10
102.23219943089352
 20
-102.75975709004301
 11
102.23219943089352
 21
-104.60289205626655
 12
95.23219943089352
 22
-103.68132457315478
 13
95.23219943089352
 23
-103.68132457315478
  0
MTEXT
  5
276
100
AcDbEntity
  8
0
 62
             1
100
AcDbMText
 10
143.64538378770339
 20
-101.68132457315478
 30
0.0
 40
7.0
 41
0.0
 71
             7
 72
             1
  1
110
  7
CONVERTER_1
 11
0.99999999999706
 21
0.00000242406841
 31
0.0
  0
ENDBLK
  5
277
100
AcDbEntity
  8
0
100
AcDbBlockEnd
  0
BLOCK
  5
27B
100
AcDbEntity
  8
0
100
AcDbBlockBegin
  2
*D18
 70
             1
 10
0.0
 20
0.0
 30
0.0
  3
*D18
  1

  0
LINE
  5
27C
100
AcDbEntity
  8
0
  6
CONTINUOUS
 62
             4
100
AcDbLine
 10
-105.63507964512399
 20
0.0
 11
-105.63507964512399
 21
-82.99999998235444
  0
LINE
  5
27D
100
AcDbEntity
  8
0
  6
CONTINUOUS
 62
             4
100
AcDbLine
 10
-55.00000000000007
 20
0.0
 11
-107.63507964512399
 21
0.0
  0
LINE
  5
27E
100
AcDbEntity
  8
0
  6
CONTINUOUS
 62
             4
100
AcDbLine
 10
36.83488470653131
 20
-82.99999998235444
 11
-107.63507964512399
 21
-82.99999998235444
  0
SOLID
  5
27F
100
AcDbEntity
  8
0
 62
             4
100
AcDbTrace
 10
-104.71351216201222
 20
-7.0
 11
-106.55664712823577
 21
-7.0
 12
-105.63507964512399
 22
0.0
 13
-105.63507964512399
 23
0.0
  0
SOLID
  5
280
100
AcDbEntity
  8
0
 62
             4
100
AcDbTrace
 10
-106.55664712823577
 20
-75.99999998235444
 11
-104.71351216201222
 21
-75.99999998235444
 12
-105.63507964512399
 22
-82.99999998235444
 13
-105.63507964512399
 23
-82.99999998235444
  0
MTEXT
  5
281
100
AcDbEntity
  8
0
 62
             1
100
AcDbMText
 10
-107.63507964512399
 20
-44.608633889119
 30
0.0
 40
7.0
 41
0.0
 71
             7
 72
             1
  1
83
  7
CONVERTER_1
 11
0.0
 21
1.0
 31
0.0
  0
ENDBLK
  5
282
100
AcDbEntity
  8
0
100
AcDbBlockEnd
  0
ENDSEC
  0
SECTION
  2
ENTITIES
  0
DIMENSION
  5
284
100
AcDbEntity
  8
1
100
AcDbDimension
  2
*D18
 10
-105.63507964512399
 20
0.0
 11
-111.13507964512399
 21
-39.358633889119
 31
0.0
 53
-89.99999999999987
  1
<>
  3
ME10_DIM_9
100
AcDbAlignedDimension
 13
36.83488470653133
 23
-82.99999998235442
 14
-55.00000000000007
 24
0.0
 50
-89.99999999999987
100
AcDbRotatedDimension
  0
DIMENSION
  5
279
100
AcDbEntity
  8
1
100
AcDbDimension
  2
*D17
 10
205.28552132104801
 20
-103.68132457315478
 11
149.94538378770341
 21
-98.18132457315478
 31
0.0
 53
0.00013888888889
  1
<>
  3
ME10_DIM_8
100
AcDbAlignedDimension
 13
95.23219943089352
 23
-32.91763599070395
 14
205.28552132104801
 24
-73.03718436640082
100
AcDbRotatedDimension
  0
DIMENSION
  5
26E
100
AcDbEntity
  8
1
100
AcDbDimension
  2
*D16
 10
205.28552132104801
 20
-118.6718278969915
 11
120.3926772349968
 21
-113.1718278969915
 31
0.0
 53
0.00013888888889
  1
<>
  3
ME10_DIM_7
100
AcDbAlignedDimension
 13
0.0000000000002
 23
-83.76044499172637
 14
205.28552132104801
 24
-73.03718436640082
100
AcDbRotatedDimension
  0
DIMENSION
  5
263
100
AcDbEntity
  8
1
100
AcDbDimension
  2
*D15
 10
205.28552132104801
 20
-88.26252115435138
 11
179.49809034041041
 21
-82.76252115435138
 31
0.0
 53
0.00013888888889
  1
<>
  3
ME10_DIM_6
100
AcDbAlignedDimension
 13
152.28552132104809
 23
-57.45500653990973
 14
205.28552132104801
 24
-73.03718436640082
100
AcDbRotatedDimension
  0
DIMENSION
  5
258
100
AcDbEntity
  8
1
100
AcDbDimension
  2
*D14
 10
-119.52327718095751
 20
0.0
 11
-125.02327718095751
 21
-84.47572153421851
 31
0.0
 53
-89.99999999999987
  1
<>
  3
ME10_DIM_5
100
AcDbAlignedDimension
 13
37.93282871342088
 23
-192.99552132104591
 14
-55.00000000000007
 24
0.0
 50
-89.99999999999987
100
AcDbRotatedDimension
  0
DIMENSION
  5
24D
100
AcDbEntity
  8
1
100
AcDbDimension
  2
*D13
 10
73.8534111604494
 20
0.0
 11
68.3534111604494
 21
27.7868643416194
 31
0.0
 53
-89.99999999999987
  1
<>
  3
ME10_DIM_4
100
AcDbAlignedDimension
 13
56.00000000000003
 23
6.0
 14
55.00000000000011
 24
0.0
 50
-89.99999999999987
100
AcDbRotatedDimension
  0
DIMENSION
  5
240
100
AcDbEntity
  8
1
100
AcDbDimension
  2
*D12
 10
115.415295301904
 20
-53.97500653990641
 11
109.915295301904
 21
-19.6598883508374
 31
0.0
 53
-89.99999999999987
  1
<>
  3
ME10_DIM_3
100
AcDbAlignedDimension
 13
55.00000000000011
 23
0.0
 14
71.5636215475345
 24
-53.97500653990642
 50
-89.99999999999987
100
AcDbRotatedDimension
  0
DIMENSION
  5
235
100
AcDbEntity
  8
1
100
AcDbDimension
  2
*D11
 10
220.54699822265141
 20
-23.97500653990977
 11
215.04699822265141
 21
-46.35701308217667
 31
0.0
 53
90.0
  1
<>
  3
ME10_DIM_2
100
AcDbAlignedDimension
 13
201.78552132104801
 23
-73.97500653990977
 14
201.78552132104801
 24
-23.97500653990977
 50
90.0
100
AcDbRotatedDimension
  0
DIMENSION
  5
22A
100
AcDbEntity
  8
1
100
AcDbDimension
  2
*D10
 10
139.97936930730199
 20
-33.97500653990976
 11
134.47936930730199
 21
-16.2410664222919
 31
0.0
 53
90.0
  1
<>
  3
ME10_DIM_1
100
AcDbAlignedDimension
 13
151.28552132104809
 23
-73.97500653990977
 14
150.28552132104809
 24
-33.97500653990976
 50
90.0
100
AcDbRotatedDimension
  0
DIMENSION
  5
21E
100
AcDbEntity
  8
1
100
AcDbDimension
  2
*D9
 10
61.99500653991197
 20
-208.61484784001129
 11
29.59305710204333
 21
-203.11484784001129
 31
0.0
 53
0.00013888888889
  1
<>
  3
ME10_DIM_0
100
AcDbAlignedDimension
 13
0.0000000000002
 23
-83.76044499172637
 14
61.99500653991196
 24
-197.15304421691721
100
AcDbRotatedDimension
  0
INSERT
  5
39
100
AcDbEntity
  8
0
100
AcDbBlockReference
  2
HL19_2K_RPER
 10
11.91125039204957
 20
-70.12349165679376
  0
INSERT
  5
3A
100
AcDbEntity
  8
0
100
AcDbBlockReference
  2
HOLL_NDERMUTTER_1_ZOLL
 10
-117.6878731667003
 20
-25.75070728470934
  0
INSERT
  5
3B
100
AcDbEntity
  8
0
100
AcDbBlockReference
  2
HL522_ABGANGSBOGEN_DN40_50
 10
-31.04180980539027
 20
-48.48291423503981
  0
INSERT
  5
3C
100
AcDbEntity
  8
0
100
AcDbBlockReference
  2
0522_1E_SCHRAUBVENTIL_3-23
 10
-123.6878731667004
 20
35.24929269764327
  0
INSERT
  5
3D
100
AcDbEntity
  8
0
100
AcDbBlockReference
  2
01076D_VENTILDICHTUNG
 10
-122.6878731667005
 20
30.74929269764328
  0
INSERT
  5
3E
100
AcDbEntity
  8
0
100
AcDbBlockReference
  2
GV_EINSATZ-ROHR
 10
-107.3878731667004
 20
25.24929269764328
  0
INSERT
  5
3F
100
AcDbEntity
  8
0
100
AcDbBlockReference
  2
HL522V_0_K_RPER
 10
-122.6878731667006
 20
-46.38547092284901
  0
INSERT
  5
40
100
AcDbEntity
  8
0
100
AcDbBlockReference
  2
HL522_ABGANGSBOGEN_DN4GRAD
 10
27.54433376598484
 20
10.10322933633531
  0
INSERT
  5
41
100
AcDbEntity
  8
0
100
AcDbBlockReference
  2
HL522V_K_RPER
 10
-129.68515740447401
 20
52.85622627957127
  0
ENDSEC
  0
SECTION
  2
OBJECTS
  0
DICTIONARY
  5
19
100
AcDbDictionary
  3
ACAD_GROUP
350
1A
  3
ACAD_MLINESTYLE
350
1B
  0
DICTIONARY
  5
1A
102
{ACAD_REACTORS
330
19
102
}
100
AcDbDictionary
  0
DICTIONARY
  5
1B
102
{ACAD_REACTORS
330
19
102
}
100
AcDbDictionary
  3
STANDARD
350
1C
  0
MLINESTYLE
  5
1C
102
{ACAD_REACTORS
330
1B
102
}
100
AcDbMlineStyle
  2
STANDARD
 70
             0
  3

 62
             0
 51
90.0
 52
90.0
 71
             2
 49
0.5
 62
           256
  6
BYLAYER
 49
-0.5
 62
           256
  6
BYLAYER
  0
ENDSEC
  0
EOF
