  0
SECTION
  2
HEADER
  9
$ACADVER
  1
AC1015
  9
$ACADMAINTVER
 70
     6
  9
$DWGCODEPAGE
  3
ANSI_1252
  9
$INSBASE
 10
0.0
 20
0.0
 30
0.0
  9
$EXTMIN
 10
-700.9999999992597
 20
-63.06830316404671
 30
0.0
  9
$EXTMAX
 10
559.8973167649699
 20
326.790119681966
 30
0.0
  9
$LIMMIN
 10
0.0
 20
0.0
  9
$LIMMAX
 10
12.0
 20
9.0
  9
$ORTHOMODE
 70
     0
  9
$REGENMODE
 70
     1
  9
$FILLMODE
 70
     1
  9
$QTEXTMODE
 70
     0
  9
$MIRRTEXT
 70
     1
  9
$LTSCALE
 40
1.0
  9
$ATTMODE
 70
     1
  9
$TEXTSIZE
 40
0.2
  9
$TRACEWID
 40
0.05
  9
$TEXTSTYLE
  7
Standard
  9
$CLAYER
  8
0
  9
$CELTYPE
  6
ByLayer
  9
$CECOLOR
 62
   256
  9
$CELTSCALE
 40
1.0
  9
$DISPSILH
 70
     0
  9
$DIMSCALE
 40
1.0
  9
$DIMASZ
 40
0.18
  9
$DIMEXO
 40
0.0625
  9
$DIMDLI
 40
0.38
  9
$DIMRND
 40
0.0
  9
$DIMDLE
 40
0.0
  9
$DIMEXE
 40
0.18
  9
$DIMTP
 40
0.0
  9
$DIMTM
 40
0.0
  9
$DIMTXT
 40
0.18
  9
$DIMCEN
 40
0.09
  9
$DIMTSZ
 40
0.0
  9
$DIMTOL
 70
     0
  9
$DIMLIM
 70
     0
  9
$DIMTIH
 70
     1
  9
$DIMTOH
 70
     1
  9
$DIMSE1
 70
     0
  9
$DIMSE2
 70
     0
  9
$DIMTAD
 70
     0
  9
$DIMZIN
 70
     0
  9
$DIMBLK
  1

  9
$DIMASO
 70
     1
  9
$DIMSHO
 70
     1
  9
$DIMPOST
  1

  9
$DIMAPOST
  1

  9
$DIMALT
 70
     0
  9
$DIMALTD
 70
     2
  9
$DIMALTF
 40
25.4
  9
$DIMLFAC
 40
1.0
  9
$DIMTOFL
 70
     0
  9
$DIMTVP
 40
0.0
  9
$DIMTIX
 70
     0
  9
$DIMSOXD
 70
     0
  9
$DIMSAH
 70
     0
  9
$DIMBLK1
  1

  9
$DIMBLK2
  1

  9
$DIMSTYLE
  2
Standard
  9
$DIMCLRD
 70
     0
  9
$DIMCLRE
 70
     0
  9
$DIMCLRT
 70
     0
  9
$DIMTFAC
 40
1.0
  9
$DIMGAP
 40
0.09
  9
$DIMJUST
 70
     0
  9
$DIMSD1
 70
     0
  9
$DIMSD2
 70
     0
  9
$DIMTOLJ
 70
     1
  9
$DIMTZIN
 70
     0
  9
$DIMALTZ
 70
     0
  9
$DIMALTTZ
 70
     0
  9
$DIMUPT
 70
     0
  9
$DIMDEC
 70
     4
  9
$DIMTDEC
 70
     4
  9
$DIMALTU
 70
     2
  9
$DIMALTTD
 70
     2
  9
$DIMTXSTY
  7
Standard
  9
$DIMAUNIT
 70
     0
  9
$DIMADEC
 70
     0
  9
$DIMALTRND
 40
0.0
  9
$DIMAZIN
 70
     0
  9
$DIMDSEP
 70
    46
  9
$DIMATFIT
 70
     3
  9
$DIMFRAC
 70
     0
  9
$DIMLDRBLK
  1

  9
$DIMLUNIT
 70
     2
  9
$DIMLWD
 70
    -2
  9
$DIMLWE
 70
    -2
  9
$DIMTMOVE
 70
     0
  9
$LUNITS
 70
     2
  9
$LUPREC
 70
     4
  9
$SKETCHINC
 40
0.1
  9
$FILLETRAD
 40
0.5
  9
$AUNITS
 70
     0
  9
$AUPREC
 70
     0
  9
$MENU
  1
.
  9
$ELEVATION
 40
0.0
  9
$PELEVATION
 40
0.0
  9
$THICKNESS
 40
0.0
  9
$LIMCHECK
 70
     0
  9
$CHAMFERA
 40
0.5
  9
$CHAMFERB
 40
0.5
  9
$CHAMFERC
 40
1.0
  9
$CHAMFERD
 40
0.0
  9
$SKPOLY
 70
     0
  9
$TDCREATE
 40
2456583.412213923
  9
$TDUCREATE
 40
2456583.32888059
  9
$TDUPDATE
 40
2456583.412214282
  9
$TDUUPDATE
 40
2456583.328880949
  9
$TDINDWG
 40
0.0000000116
  9
$TDUSRTIMER
 40
0.0000000116
  9
$USRTIMER
 70
     1
  9
$ANGBASE
 50
0.0
  9
$ANGDIR
 70
     0
  9
$PDMODE
 70
     0
  9
$PDSIZE
 40
0.0
  9
$PLINEWID
 40
0.0
  9
$SPLFRAME
 70
     0
  9
$SPLINETYPE
 70
     6
  9
$SPLINESEGS
 70
     8
  9
$HANDSEED
  5
32F
  9
$SURFTAB1
 70
     6
  9
$SURFTAB2
 70
     6
  9
$SURFTYPE
 70
     6
  9
$SURFU
 70
     6
  9
$SURFV
 70
     6
  9
$UCSBASE
  2

  9
$UCSNAME
  2

  9
$UCSORG
 10
0.0
 20
0.0
 30
0.0
  9
$UCSXDIR
 10
1.0
 20
0.0
 30
0.0
  9
$UCSYDIR
 10
0.0
 20
1.0
 30
0.0
  9
$UCSORTHOREF
  2

  9
$UCSORTHOVIEW
 70
     0
  9
$UCSORGTOP
 10
0.0
 20
0.0
 30
0.0
  9
$UCSORGBOTTOM
 10
0.0
 20
0.0
 30
0.0
  9
$UCSORGLEFT
 10
0.0
 20
0.0
 30
0.0
  9
$UCSORGRIGHT
 10
0.0
 20
0.0
 30
0.0
  9
$UCSORGFRONT
 10
0.0
 20
0.0
 30
0.0
  9
$UCSORGBACK
 10
0.0
 20
0.0
 30
0.0
  9
$PUCSBASE
  2

  9
$PUCSNAME
  2

  9
$PUCSORG
 10
0.0
 20
0.0
 30
0.0
  9
$PUCSXDIR
 10
1.0
 20
0.0
 30
0.0
  9
$PUCSYDIR
 10
0.0
 20
1.0
 30
0.0
  9
$PUCSORTHOREF
  2

  9
$PUCSORTHOVIEW
 70
     0
  9
$PUCSORGTOP
 10
0.0
 20
0.0
 30
0.0
  9
$PUCSORGBOTTOM
 10
0.0
 20
0.0
 30
0.0
  9
$PUCSORGLEFT
 10
0.0
 20
0.0
 30
0.0
  9
$PUCSORGRIGHT
 10
0.0
 20
0.0
 30
0.0
  9
$PUCSORGFRONT
 10
0.0
 20
0.0
 30
0.0
  9
$PUCSORGBACK
 10
0.0
 20
0.0
 30
0.0
  9
$USERI1
 70
     0
  9
$USERI2
 70
     0
  9
$USERI3
 70
     0
  9
$USERI4
 70
     0
  9
$USERI5
 70
     0
  9
$USERR1
 40
18.1
  9
$USERR2
 40
0.0
  9
$USERR3
 40
0.0
  9
$USERR4
 40
0.0
  9
$USERR5
 40
0.0
  9
$WORLDVIEW
 70
     1
  9
$SHADEDGE
 70
     3
  9
$SHADEDIF
 70
    70
  9
$TILEMODE
 70
     1
  9
$MAXACTVP
 70
    64
  9
$PINSBASE
 10
0.0
 20
0.0
 30
0.0
  9
$PLIMCHECK
 70
     0
  9
$PEXTMIN
 10
1.00000000000000E+20
 20
1.00000000000000E+20
 30
1.00000000000000E+20
  9
$PEXTMAX
 10
-1.00000000000000E+20
 20
-1.00000000000000E+20
 30
-1.00000000000000E+20
  9
$PLIMMIN
 10
0.0
 20
0.0
  9
$PLIMMAX
 10
12.0
 20
9.0
  9
$UNITMODE
 70
     0
  9
$VISRETAIN
 70
     1
  9
$PLINEGEN
 70
     0
  9
$PSLTSCALE
 70
     1
  9
$TREEDEPTH
 70
  3020
  9
$CMLSTYLE
  2
Standard
  9
$CMLJUST
 70
     0
  9
$CMLSCALE
 40
1.0
  9
$PROXYGRAPHICS
 70
     1
  9
$MEASUREMENT
 70
     1
  9
$CELWEIGHT
370
    -1
  9
$ENDCAPS
280
     0
  9
$JOINSTYLE
280
     0
  9
$LWDISPLAY
290
     0
  9
$INSUNITS
 70
     1
  9
$HYPERLINKBASE
  1

  9
$STYLESHEET
  1

  9
$XEDIT
290
     1
  9
$CEPSNTYPE
380
     0
  9
$PSTYLEMODE
290
     1
  9
$FINGERPRINTGUID
  2
{185E97D0-93E4-42E3-A7CD-5946DB04149C}
  9
$VERSIONGUID
  2
{FAEB1C32-E019-11D5-929B-00C0DF256EC4}
  9
$EXTNAMES
290
     1
  9
$PSVPSCALE
 40
0.0
  9
$OLESTARTUP
290
     0
  0
ENDSEC
  0
SECTION
  2
CLASSES
  0
CLASS
  1
ACDBDICTIONARYWDFLT
  2
AcDbDictionaryWithDefault
  3
ObjectDBX Classes
 90
        0
280
     0
281
     0
  0
CLASS
  1
VISUALSTYLE
  2
AcDbVisualStyle
  3
ObjectDBX Classes
 90
     4095
280
     0
281
     0
  0
CLASS
  1
MATERIAL
  2
AcDbMaterial
  3
ObjectDBX Classes
 90
     1153
280
     0
281
     0
  0
CLASS
  1
DICTIONARYVAR
  2
AcDbDictionaryVar
  3
ObjectDBX Classes
 90
        0
280
     0
281
     0
  0
CLASS
  1
ACDBPLACEHOLDER
  2
AcDbPlaceHolder
  3
ObjectDBX Classes
 90
        0
280
     0
281
     0
  0
CLASS
  1
LAYOUT
  2
AcDbLayout
  3
ObjectDBX Classes
 90
        0
280
     0
281
     0
  0
ENDSEC
  0
SECTION
  2
TABLES
  0
TABLE
  2
VPORT
  5
8
330
0
100
AcDbSymbolTable
 70
     1
  0
VPORT
  5
29
330
8
100
AcDbSymbolTableRecord
100
AcDbViewportTableRecord
  2
*Active
 70
     0
 10
0.0
 20
0.0
 11
1.0
 21
1.0
 12
-70.55134161714489
 22
131.8609082589597
 13
0.0
 23
0.0
 14
0.5
 24
0.5
 15
0.5
 25
0.5
 16
0.0
 26
0.0
 36
1.0
 17
0.0
 27
0.0
 37
0.0
 40
865.418102648207
 41
1.60267857142857
 42
50.0
 43
0.0
 44
0.0
 50
0.0
 51
0.0
 71
     0
 72
   100
 73
     1
 74
     3
 75
     0
 76
     0
 77
     0
 78
     0
281
     0
 65
     1
110
0.0
120
0.0
130
0.0
111
1.0
121
0.0
131
0.0
112
0.0
122
1.0
132
0.0
 79
     0
146
0.0
  0
ENDTAB
  0
TABLE
  2
LTYPE
  5
5
330
0
100
AcDbSymbolTable
 70
     8
  0
LTYPE
  5
14
330
5
100
AcDbSymbolTableRecord
100
AcDbLinetypeTableRecord
  2
ByBlock
 70
     0
  3

 72
    65
 73
     0
 40
0.0
  0
LTYPE
  5
15
330
5
100
AcDbSymbolTableRecord
100
AcDbLinetypeTableRecord
  2
ByLayer
 70
     0
  3

 72
    65
 73
     0
 40
0.0
  0
LTYPE
  5
16
330
5
100
AcDbSymbolTableRecord
100
AcDbLinetypeTableRecord
  2
Continuous
 70
     0
  3
Solid line
 72
    65
 73
     0
 40
0.0
  0
LTYPE
  5
3F
330
5
100
AcDbSymbolTableRecord
100
AcDbLinetypeTableRecord
  2
DASHED
 70
     0
  3
Dashed
 72
    65
 73
     2
 40
15.0
 49
7.0
 74
     0
 49
-8.0
 74
     0
  0
LTYPE
  5
40
330
5
100
AcDbSymbolTableRecord
100
AcDbLinetypeTableRecord
  2
DOTTED
 70
     0
  3
Dotted
 72
    65
 73
     2
 40
1.0
 49
0.0
 74
     0
 49
-1.0
 74
     0
  0
LTYPE
  5
41
330
5
100
AcDbSymbolTableRecord
100
AcDbLinetypeTableRecord
  2
DOT_CENTER
 70
     0
  3
Dot_Center
 72
    65
 73
     4
 40
14.0
 49
12.0
 74
     0
 49
-1.0
 74
     0
 49
0.0
 74
     0
 49
-1.0
 74
     0
  0
LTYPE
  5
42
330
5
100
AcDbSymbolTableRecord
100
AcDbLinetypeTableRecord
  2
LONG_DASHED
 70
     0
  3
Long_Dashed
 72
    65
 73
     2
 40
15.0
 49
10.0
 74
     0
 49
-5.0
 74
     0
  0
LTYPE
  5
43
330
5
100
AcDbSymbolTableRecord
100
AcDbLinetypeTableRecord
  2
DASH_CENTER
 70
     0
  3
Dash_Center
 72
    65
 73
     4
 40
14.0
 49
11.0
 74
     0
 49
-1.0
 74
     0
 49
1.0
 74
     0
 49
-1.0
 74
     0
  0
LTYPE
  5
44
330
5
100
AcDbSymbolTableRecord
100
AcDbLinetypeTableRecord
  2
PHANTOM
 70
     0
  3
Phantom
 72
    65
 73
     6
 40
13.0
 49
10.0
 74
     0
 49
-1.0
 74
     0
 49
0.0
 74
     0
 49
-1.0
 74
     0
 49
0.0
 74
     0
 49
-1.0
 74
     0
  0
LTYPE
  5
45
330
5
100
AcDbSymbolTableRecord
100
AcDbLinetypeTableRecord
  2
CENTER_DASH_DASH
 70
     0
  3
Center_Dash_Dash
 72
    65
 73
     6
 40
14.0
 49
9.0
 74
     0
 49
-1.0
 74
     0
 49
1.0
 74
     0
 49
-1.0
 74
     0
 49
1.0
 74
     0
 49
-1.0
 74
     0
  0
ENDTAB
  0
TABLE
  2
LAYER
  5
2
330
0
100
AcDbSymbolTable
 70
     2
  0
LAYER
  5
10
330
2
100
AcDbSymbolTableRecord
100
AcDbLayerTableRecord
  2
0
 70
     0
 62
     7
  6
Continuous
370
    -3
390
F
  0
LAYER
  5
46
330
2
100
AcDbSymbolTableRecord
100
AcDbLayerTableRecord
  2
1
 70
     0
 62
     7
  6
Continuous
370
    -3
390
F
  0
ENDTAB
  0
TABLE
  2
STYLE
  5
3
330
0
100
AcDbSymbolTable
 70
     2
  0
STYLE
  5
11
330
3
100
AcDbSymbolTableRecord
100
AcDbTextStyleTableRecord
  2
Standard
 70
     0
 40
0.0
 41
1.0
 50
0.0
 71
     0
 42
0.2
  3
txt
  4

  0
STYLE
  5
1BF
330
3
100
AcDbSymbolTableRecord
100
AcDbTextStyleTableRecord
  2
CONVERTER_11
 70
     0
 40
0.0
 41
0.9
 50
0.0
 71
     0
 42
0.2
  3
txt.shx
  4

  0
ENDTAB
  0
TABLE
  2
VIEW
  5
6
330
0
100
AcDbSymbolTable
 70
     0
  0
ENDTAB
  0
TABLE
  2
UCS
  5
7
330
0
100
AcDbSymbolTable
 70
     0
  0
ENDTAB
  0
TABLE
  2
APPID
  5
9
330
0
100
AcDbSymbolTable
 70
     1
  0
APPID
  5
12
330
9
100
AcDbSymbolTableRecord
100
AcDbRegAppTableRecord
  2
ACAD
 70
     0
  0
ENDTAB
  0
TABLE
  2
DIMSTYLE
  5
A
330
0
100
AcDbSymbolTable
 70
     5
100
AcDbDimStyleTable
  0
DIMSTYLE
105
27
330
A
100
AcDbSymbolTableRecord
100
AcDbDimStyleTableRecord
  2
Standard
 70
     0
178
     0
340
11
  0
DIMSTYLE
105
1CA
102
{ACAD_REACTORS
330
1CB
102
}
330
A
100
AcDbSymbolTableRecord
100
AcDbDimStyleTableRecord
  2
ME10_DIM_10
 70
     0
 41
20.0
 42
0.0
 44
2.0
 73
     0
 74
     0
 77
     1
 78
     8
140
20.0
147
5.0
172
     1
173
     1
174
     1
175
     1
176
     4
177
     4
271
     2
178
     1
271
     2
340
1BF
  0
DIMSTYLE
105
1D5
102
{ACAD_REACTORS
330
1D6
102
}
330
A
100
AcDbSymbolTableRecord
100
AcDbDimStyleTableRecord
  2
ME10_DIM_11
 70
     0
 41
20.0
 42
0.0
 44
2.0
 73
     0
 74
     0
 77
     1
 78
     8
140
20.0
147
5.0
172
     1
173
     1
174
     1
175
     1
176
     4
177
     4
271
     2
178
     1
271
     2
340
1BF
  0
DIMSTYLE
105
1E0
102
{ACAD_REACTORS
330
1E1
102
}
330
A
100
AcDbSymbolTableRecord
100
AcDbDimStyleTableRecord
  2
ME10_DIM_12
 70
     0
 41
20.0
 42
0.0
 44
2.0
 73
     0
 74
     0
 77
     1
 78
     8
140
20.0
147
5.0
172
     1
173
     1
174
     1
175
     1
176
     4
177
     4
271
     2
178
     1
271
     2
340
1BF
  0
DIMSTYLE
105
302
102
{ACAD_REACTORS
330
303
102
}
330
A
100
AcDbSymbolTableRecord
100
AcDbDimStyleTableRecord
  2
ME10_DIM_13
 70
     0
 41
20.0
 42
0.0
 44
2.0
 73
     0
 74
     0
 77
     1
 78
     8
140
20.0
147
5.0
172
     1
173
     1
174
     1
175
     1
176
     4
177
     4
271
     2
178
     1
271
     2
340
1BF
  0
ENDTAB
  0
TABLE
  2
BLOCK_RECORD
  5
1
330
0
100
AcDbSymbolTable
 70
    15
  0
BLOCK_RECORD
  5
1F
330
1
100
AcDbSymbolTableRecord
100
AcDbBlockTableRecord
  2
*Model_Space
340
22
  0
BLOCK_RECORD
  5
1B
330
1
100
AcDbSymbolTableRecord
100
AcDbBlockTableRecord
  2
*Paper_Space
340
1E
  0
BLOCK_RECORD
  5
23
330
1
100
AcDbSymbolTableRecord
100
AcDbBlockTableRecord
  2
*Paper_Space0
340
26
  0
BLOCK_RECORD
  5
47
330
1
100
AcDbSymbolTableRecord
100
AcDbBlockTableRecord
  2
531-Hartschaum-Distanzelement-20mm_1__1
340
0
102
{BLKREFS
331
4E
102
}
  0
BLOCK_RECORD
  5
4A
330
1
100
AcDbSymbolTableRecord
100
AcDbBlockTableRecord
  2
531-Hartschaum-Distanzelement-20mm__2
340
0
102
{BLKREFS
331
4F
102
}
  0
BLOCK_RECORD
  5
4D
330
1
100
AcDbSymbolTableRecord
100
AcDbBlockTableRecord
  2
BG-531-Unterbauelement-20mm__3
340
0
102
{BLKREFS
331
53
102
}
  0
BLOCK_RECORD
  5
52
330
1
100
AcDbSymbolTableRecord
100
AcDbBlockTableRecord
  2
HL531U-Zeichnung-WEB__4
340
0
102
{BLKREFS
331
57
102
}
  0
BLOCK_RECORD
  5
56
330
1
100
AcDbSymbolTableRecord
100
AcDbBlockTableRecord
  2
Vordans3
340
0
102
{BLKREFS
331
6D
102
}
  0
BLOCK_RECORD
  5
5A
330
1
100
AcDbSymbolTableRecord
100
AcDbBlockTableRecord
  2
531-Hartschaum-Distanzelement-20mm_1__5
340
0
102
{BLKREFS
331
61
102
}
  0
BLOCK_RECORD
  5
5D
330
1
100
AcDbSymbolTableRecord
100
AcDbBlockTableRecord
  2
531-Hartschaum-Distanzelement-20mm__6
340
0
102
{BLKREFS
331
62
102
}
  0
BLOCK_RECORD
  5
60
330
1
100
AcDbSymbolTableRecord
100
AcDbBlockTableRecord
  2
BG-531-Unterbauelement-20mm__7
340
0
102
{BLKREFS
331
66
102
}
  0
BLOCK_RECORD
  5
65
330
1
100
AcDbSymbolTableRecord
100
AcDbBlockTableRecord
  2
HL531U-Zeichnung-WEB__8
340
0
102
{BLKREFS
331
6A
102
}
  0
BLOCK_RECORD
  5
69
330
1
100
AcDbSymbolTableRecord
100
AcDbBlockTableRecord
  2
Untsicht3
340
0
102
{BLKREFS
331
6E
102
}
  0
BLOCK_RECORD
  5
1C1
330
1
100
AcDbSymbolTableRecord
100
AcDbBlockTableRecord
  2
*D11
340
0
  0
BLOCK_RECORD
  5
1CC
330
1
100
AcDbSymbolTableRecord
100
AcDbBlockTableRecord
  2
*D12
340
0
  0
BLOCK_RECORD
  5
1D7
330
1
100
AcDbSymbolTableRecord
100
AcDbBlockTableRecord
  2
*D13
340
0
  0
BLOCK_RECORD
  5
2F7
330
1
100
AcDbSymbolTableRecord
100
AcDbBlockTableRecord
  2
*D14
340
0
  0
ENDTAB
  0
ENDSEC
  0
SECTION
  2
BLOCKS
  0
BLOCK
  5
20
330
1F
100
AcDbEntity
  8
0
100
AcDbBlockBegin
  2
*Model_Space
 70
     0
 10
0.0
 20
0.0
 30
0.0
  3
*Model_Space
  1

  0
ENDBLK
  5
21
330
1F
100
AcDbEntity
  8
0
100
AcDbBlockEnd
  0
BLOCK
  5
1C
330
1B
100
AcDbEntity
 67
     1
  8
0
100
AcDbBlockBegin
  2
*Paper_Space
 70
     0
 10
0.0
 20
0.0
 30
0.0
  3
*Paper_Space
  1

  0
ENDBLK
  5
1D
330
1B
100
AcDbEntity
 67
     1
  8
0
100
AcDbBlockEnd
  0
BLOCK
  5
24
330
23
100
AcDbEntity
  8
0
100
AcDbBlockBegin
  2
*Paper_Space0
 70
     0
 10
0.0
 20
0.0
 30
0.0
  3
*Paper_Space0
  1

  0
ENDBLK
  5
25
330
23
100
AcDbEntity
  8
0
100
AcDbBlockEnd
  0
BLOCK
  5
48
330
47
100
AcDbEntity
  8
0
100
AcDbBlockBegin
  2
531-Hartschaum-Distanzelement-20mm_1__1
 70
     0
 10
-100.9999999992606
 20
1.49999999999795
 30
0.0
  3
531-Hartschaum-Distanzelement-20mm_1__1
  1

  0
LINE
  5
6F
330
47
100
AcDbEntity
  8
0
  6
Continuous
 62
     7
100
AcDbLine
 10
26.32793170109562
 20
80.26917420765574
 30
0.0
 11
30.90797271348038
 21
72.33631047345591
 31
0.0
  0
LINE
  5
70
330
47
100
AcDbEntity
  8
0
  6
Continuous
 62
     3
100
AcDbLine
 10
32.64002352104944
 20
73.33631047345591
 30
0.0
 11
28.05998250866469
 21
81.26917420765574
 31
0.0
  0
LINE
  5
71
330
47
100
AcDbEntity
  8
0
  6
Continuous
 62
     3
100
AcDbLine
 10
69.94001749281506
 20
81.26917420765596
 30
0.0
 11
65.3599764804303
 21
73.33631047345591
 31
0.0
  0
LINE
  5
72
330
47
100
AcDbEntity
  8
0
  6
Continuous
 62
     7
100
AcDbLine
 10
499.0000000007394
 20
1.49999999999909
 30
0.0
 11
499.0000000007394
 21
186.5000000000018
 31
0.0
  0
LINE
  5
73
330
47
100
AcDbEntity
  8
0
  6
Continuous
 62
     7
100
AcDbLine
 10
-100.9999999992606
 20
1.49999999999795
 30
0.0
 11
-100.9999999992606
 21
186.5000000000008
 31
0.0
  0
LINE
  5
74
330
47
100
AcDbEntity
  8
0
  6
Continuous
 62
     7
100
AcDbLine
 10
67.09202728799937
 20
72.3363104734558
 30
0.0
 11
71.67206830038413
 21
80.26917420765596
 31
0.0
  0
LINE
  5
75
330
47
100
AcDbEntity
  8
0
  6
Continuous
 62
     7
100
AcDbLine
 10
-100.9999999992606
 20
1.49999999999795
 30
0.0
 11
499.0000000007394
 21
1.49999999999909
 31
0.0
  0
LINE
  5
76
330
47
100
AcDbEntity
  8
0
  6
Continuous
 62
     3
100
AcDbLine
 10
366.1556802764608
 20
70.81531869189791
 30
0.0
 11
364.7832258544031
 21
72.2700931965461
 31
0.0
  0
LINE
  5
77
330
47
100
AcDbEntity
  8
0
  6
Continuous
 62
     3
100
AcDbLine
 10
366.1556802764608
 20
70.81531869189791
 30
0.0
 11
366.8419074874892
 21
70.08793143957382
 31
0.0
  0
LINE
  5
78
330
47
100
AcDbEntity
  8
0
  6
Continuous
 62
     3
100
AcDbLine
 10
330.0463377974629
 20
73.08919121513873
 30
0.0
 11
329.1803123936779
 21
72.58919121513873
 31
0.0
  0
LINE
  5
79
330
47
100
AcDbEntity
  8
0
  6
Continuous
 62
     3
100
AcDbLine
 10
329.1803123936779
 20
72.58919121513873
 30
0.0
 11
326.059600188928
 21
77.99442330956651
 31
0.0
  0
LINE
  5
7A
330
47
100
AcDbEntity
  8
0
  6
Continuous
 62
     7
100
AcDbLine
 10
326.9256255927121
 20
78.49442330956651
 30
0.0
 11
330.0463377974629
 21
73.08919121513873
 31
0.0
  0
LINE
  5
7B
330
47
100
AcDbEntity
  8
0
  6
Continuous
 62
     3
100
AcDbLine
 10
331.7783886050311
 20
74.08919121513873
 30
0.0
 11
330.0463377974629
 21
73.08919121513873
 31
0.0
  0
LINE
  5
7C
330
47
100
AcDbEntity
  8
0
  6
Continuous
 62
     3
100
AcDbLine
 10
331.8443197250181
 20
70.8153186918978
 30
0.0
 11
331.1580925139897
 21
70.08793143957371
 31
0.0
  0
LINE
  5
7D
330
47
100
AcDbEntity
  8
0
  6
Continuous
 62
     3
100
AcDbLine
 10
328.6576764002812
 20
79.4944233095664
 30
0.0
 11
331.7783886050311
 21
74.08919121513873
 31
0.0
  0
LINE
  5
7E
330
47
100
AcDbEntity
  8
0
  6
Continuous
 62
     3
100
AcDbLine
 10
331.8443197250181
 20
70.8153186918978
 30
0.0
 11
333.2167741470757
 21
72.27009319654599
 31
0.0
  0
LINE
  5
7F
330
47
100
AcDbEntity
  8
0
  6
Continuous
 62
     3
100
AcDbLine
 10
366.2216113964478
 20
74.08919121513873
 30
0.0
 11
367.9536622040178
 21
73.08919121513873
 31
0.0
  0
LINE
  5
80
330
47
100
AcDbEntity
  8
0
  6
Continuous
 62
     3
100
AcDbLine
 10
367.9536622040178
 20
73.08919121513873
 30
0.0
 11
368.8196876078009
 21
72.58919121513873
 31
0.0
  0
LINE
  5
81
330
47
100
AcDbEntity
  8
0
  6
Continuous
 62
     3
100
AcDbLine
 10
369.3423236011977
 20
79.4944233095664
 30
0.0
 11
366.2216113964478
 21
74.08919121513873
 31
0.0
  0
LINE
  5
82
330
47
100
AcDbEntity
  8
0
  6
Continuous
 62
     3
100
AcDbLine
 10
371.9403998125517
 20
77.9944233095664
 30
0.0
 11
368.8196876078009
 21
72.58919121513873
 31
0.0
  0
LINE
  5
83
330
47
100
AcDbEntity
  8
0
  6
Continuous
 62
     7
100
AcDbLine
 10
367.9536622040178
 20
73.08919121513873
 30
0.0
 11
371.0743744087667
 21
78.4944233095664
 31
0.0
  0
LINE
  5
84
330
47
100
AcDbEntity
  8
0
  6
Continuous
 62
     3
100
AcDbLine
 10
64.71962208309742
 20
69.56051745575951
 30
0.0
 11
65.34840696639276
 21
68.7829381539899
 31
0.0
  0
LINE
  5
85
330
47
100
AcDbEntity
  8
0
  6
Continuous
 62
     3
100
AcDbLine
 10
33.28037791838142
 20
69.56051745575962
 30
0.0
 11
32.65159303508699
 21
68.78293815399002
 31
0.0
  0
LINE
  5
86
330
47
100
AcDbEntity
  8
0
  6
Continuous
 62
     3
100
AcDbLine
 10
33.28037791838142
 20
69.56051745575962
 30
0.0
 11
34.53794768497028
 21
71.11567605929883
 31
0.0
  0
LINE
  5
87
330
47
100
AcDbEntity
  8
0
  6
Continuous
 62
     3
100
AcDbLine
 10
64.71962208309742
 20
69.56051745575951
 30
0.0
 11
63.46205231650947
 21
71.11567605929883
 31
0.0
  0
LINE
  5
88
330
47
100
AcDbEntity
  8
0
  6
Continuous
 62
     3
100
AcDbLine
 10
30.90797271348038
 20
72.33631047345591
 30
0.0
 11
30.0419473096963
 21
71.8363104734558
 31
0.0
  0
LINE
  5
89
330
47
100
AcDbEntity
  8
0
  6
Continuous
 62
     3
100
AcDbLine
 10
30.90797271348038
 20
72.33631047345591
 30
0.0
 11
32.64002352104944
 21
73.33631047345591
 31
0.0
  0
LINE
  5
8A
330
47
100
AcDbEntity
  8
0
  6
Continuous
 62
     3
100
AcDbLine
 10
65.3599764804303
 20
73.33631047345591
 30
0.0
 11
67.09202728799937
 21
72.3363104734558
 31
0.0
  0
LINE
  5
8B
330
47
100
AcDbEntity
  8
0
  6
Continuous
 62
     3
100
AcDbLine
 10
67.09202728799937
 20
72.3363104734558
 30
0.0
 11
67.95805269178345
 21
71.83631047345591
 31
0.0
  0
LINE
  5
8C
330
47
100
AcDbEntity
  8
0
  6
Continuous
 62
     3
100
AcDbLine
 10
72.5380937041682
 20
79.76917420765585
 30
0.0
 11
67.95805269178345
 21
71.83631047345591
 31
0.0
  0
LINE
  5
8D
330
47
100
AcDbEntity
  8
0
  6
Continuous
 62
     3
100
AcDbLine
 10
30.0419473096963
 20
71.8363104734558
 30
0.0
 11
25.46190629731154
 21
79.76917420765562
 31
0.0
  0
LINE
  5
8E
330
47
100
AcDbEntity
  8
0
  6
Continuous
 62
     3
100
AcDbLine
 10
369.3423236011977
 20
79.4944233095664
 30
0.0
 11
371.0743744087667
 21
78.4944233095664
 31
0.0
  0
LINE
  5
8F
330
47
100
AcDbEntity
  8
0
  6
Continuous
 62
     3
100
AcDbLine
 10
326.3347621338789
 20
79.69747386788822
 30
0.0
 11
325.4096503842111
 21
79.31777892372031
 31
0.0
  0
LINE
  5
90
330
47
100
AcDbEntity
  8
0
  6
Continuous
 62
     3
100
AcDbLine
 10
326.9256255927121
 20
78.49442330956651
 30
0.0
 11
328.6576764002812
 21
79.4944233095664
 31
0.0
  0
LINE
  5
91
330
47
100
AcDbEntity
  8
0
  6
Continuous
 62
     3
100
AcDbLine
 10
326.3347621338789
 20
79.69747386788822
 30
0.0
 11
328.1849856332146
 21
80.45686375622381
 31
0.0
  0
LINE
  5
92
330
47
100
AcDbEntity
  8
0
  6
Continuous
 62
     3
100
AcDbLine
 10
369.8150143682642
 20
80.4568637562237
 30
0.0
 11
371.6652378675999
 21
79.697473867888
 31
0.0
  0
LINE
  5
93
330
47
100
AcDbEntity
  8
0
  6
Continuous
 62
     3
100
AcDbLine
 10
371.9403998125517
 20
77.9944233095664
 30
0.0
 11
371.0743744087667
 21
78.4944233095664
 31
0.0
  0
LINE
  5
94
330
47
100
AcDbEntity
  8
0
  6
Continuous
 62
     3
100
AcDbLine
 10
326.9256255927121
 20
78.49442330956651
 30
0.0
 11
326.059600188928
 21
77.99442330956651
 31
0.0
  0
LINE
  5
95
330
47
100
AcDbEntity
  8
0
  6
Continuous
 62
     3
100
AcDbLine
 10
372.5903496172678
 20
79.3177789237202
 30
0.0
 11
371.6652378675999
 21
79.697473867888
 31
0.0
  0
LINE
  5
96
330
47
100
AcDbEntity
  8
0
  6
Continuous
 62
     3
100
AcDbLine
 10
25.32486555838841
 20
95.30380909741007
 30
0.0
 11
24.35853354033316
 21
95.56110742791668
 31
0.0
  0
LINE
  5
97
330
47
100
AcDbEntity
  8
0
  6
Continuous
 62
     3
100
AcDbLine
 10
70.74247040698174
 20
94.78921243639684
 30
0.0
 11
72.67513444309134
 21
95.30380909740984
 31
0.0
  0
LINE
  5
98
330
47
100
AcDbEntity
  8
0
  6
Continuous
 62
     3
100
AcDbLine
 10
73.64146646114659
 20
95.56110742791634
 30
0.0
 11
72.67513444309134
 21
95.30380909740984
 31
0.0
  0
LINE
  5
99
330
47
100
AcDbEntity
  8
0
  6
Continuous
 62
     3
100
AcDbLine
 10
25.46190629731154
 20
79.76917420765562
 30
0.0
 11
26.32793170109562
 21
80.26917420765574
 31
0.0
  0
LINE
  5
9A
330
47
100
AcDbEntity
  8
0
  6
Continuous
 62
     3
100
AcDbLine
 10
25.32486555838841
 20
82.6961909025905
 30
0.0
 11
27.25752959449892
 21
83.2107875636035
 31
0.0
  0
LINE
  5
9B
330
47
100
AcDbEntity
  8
0
  6
Continuous
 62
     3
100
AcDbLine
 10
25.32486555838841
 20
95.30380909741007
 30
0.0
 11
27.25752959449892
 21
94.78921243639707
 31
0.0
  0
LINE
  5
9C
330
47
100
AcDbEntity
  8
0
  6
Continuous
 62
     3
100
AcDbLine
 10
72.5380937041682
 20
79.76917420765585
 30
0.0
 11
71.67206830038413
 21
80.26917420765596
 31
0.0
  0
LINE
  5
9D
330
47
100
AcDbEntity
  8
0
  6
Continuous
 62
     3
100
AcDbLine
 10
69.94001749281506
 20
81.26917420765596
 30
0.0
 11
71.67206830038413
 21
80.26917420765596
 31
0.0
  0
LINE
  5
9E
330
47
100
AcDbEntity
  8
0
  6
Continuous
 62
     3
100
AcDbLine
 10
73.64146646114659
 20
82.43889257208434
 30
0.0
 11
72.67513444309134
 21
82.69619090259084
 31
0.0
  0
LINE
  5
9F
330
47
100
AcDbEntity
  8
0
  6
Continuous
 62
     3
100
AcDbLine
 10
70.74247040698174
 20
83.21078756360384
 30
0.0
 11
72.67513444309134
 21
82.69619090259084
 31
0.0
  0
LINE
  5
A0
330
47
100
AcDbEntity
  8
0
  6
Continuous
 62
     3
100
AcDbLine
 10
26.32793170109562
 20
80.26917420765574
 30
0.0
 11
28.05998250866469
 21
81.26917420765574
 31
0.0
  0
LINE
  5
A1
330
47
100
AcDbEntity
  8
0
  6
Continuous
 62
     3
100
AcDbLine
 10
25.32486555838841
 20
82.6961909025905
 30
0.0
 11
24.35853354033316
 21
82.43889257208389
 31
0.0
  0
LINE
  5
A2
330
47
100
AcDbEntity
  8
0
  6
Continuous
 62
     7
100
AcDbLine
 10
499.0000000007394
 20
186.5000000000018
 30
0.0
 11
-100.9999999992606
 21
186.5000000000008
 31
0.0
  0
LINE
  5
A3
330
47
100
AcDbEntity
  8
0
  6
Continuous
 62
     3
100
AcDbLine
 10
372.5903496172678
 20
98.68222107627946
 30
0.0
 11
371.6652378675999
 21
98.30252613211167
 31
0.0
  0
LINE
  5
A4
330
47
100
AcDbEntity
  8
0
  6
Continuous
 62
     3
100
AcDbLine
 10
371.9403998125517
 20
100.0055766904334
 30
0.0
 11
371.0743744087667
 21
99.50557669043337
 31
0.0
  0
LINE
  5
A5
330
47
100
AcDbEntity
  8
0
  6
Continuous
 62
     3
100
AcDbLine
 10
369.8150143682642
 20
97.54313624377596
 30
0.0
 11
371.6652378675999
 21
98.30252613211167
 31
0.0
  0
LINE
  5
A6
330
47
100
AcDbEntity
  8
0
  6
Continuous
 62
     3
100
AcDbLine
 10
369.3423236011977
 20
98.50557669043337
 30
0.0
 11
371.0743744087667
 21
99.50557669043337
 31
0.0
  0
LINE
  5
A7
330
47
100
AcDbEntity
  8
0
  6
Continuous
 62
     3
100
AcDbLine
 10
368.8196876078009
 20
105.4108087848612
 30
0.0
 11
371.9403998125517
 21
100.0055766904334
 31
0.0
  0
LINE
  5
A8
330
47
100
AcDbEntity
  8
0
  6
Continuous
 62
     7
100
AcDbLine
 10
371.0743744087667
 20
99.50557669043337
 30
0.0
 11
367.9536622040159
 21
104.9108087848612
 31
0.0
  0
LINE
  5
A9
330
47
100
AcDbEntity
  8
0
  6
Continuous
 62
     3
100
AcDbLine
 10
369.3423236011977
 20
98.50557669043337
 30
0.0
 11
366.2216113964478
 21
103.9108087848612
 31
0.0
  0
LINE
  5
AA
330
47
100
AcDbEntity
  8
0
  6
Continuous
 62
     3
100
AcDbLine
 10
366.2216113964478
 20
103.9108087848612
 30
0.0
 11
367.9536622040159
 21
104.9108087848612
 31
0.0
  0
LINE
  5
AB
330
47
100
AcDbEntity
  8
0
  6
Continuous
 62
     3
100
AcDbLine
 10
367.9536622040159
 20
104.9108087848612
 30
0.0
 11
368.8196876078009
 21
105.4108087848612
 31
0.0
  0
LINE
  5
AC
330
47
100
AcDbEntity
  8
0
  6
Continuous
 62
     3
100
AcDbLine
 10
366.1556802764608
 20
107.184681308102
 30
0.0
 11
364.7832258544031
 21
105.7299068034538
 31
0.0
  0
LINE
  5
AD
330
47
100
AcDbEntity
  8
0
  6
Continuous
 62
     3
100
AcDbLine
 10
331.8443197250181
 20
107.184681308102
 30
0.0
 11
333.2167741470757
 21
105.7299068034538
 31
0.0
  0
LINE
  5
AE
330
47
100
AcDbEntity
  8
0
  6
Continuous
 62
     3
100
AcDbLine
 10
330.046337797462
 20
104.9108087848612
 30
0.0
 11
331.7783886050311
 21
103.9108087848611
 31
0.0
  0
LINE
  5
AF
330
47
100
AcDbEntity
  8
0
  6
Continuous
 62
     3
100
AcDbLine
 10
331.8443197250181
 20
107.184681308102
 30
0.0
 11
331.1580925139897
 21
107.9120685604261
 31
0.0
  0
LINE
  5
B0
330
47
100
AcDbEntity
  8
0
  6
Continuous
 62
     3
100
AcDbLine
 10
366.1556802764608
 20
107.184681308102
 30
0.0
 11
366.8419074874892
 21
107.9120685604261
 31
0.0
  0
LINE
  5
B1
330
47
100
AcDbEntity
  8
0
  6
Continuous
 62
     3
100
AcDbLine
 10
328.6576764002812
 20
98.50557669043349
 30
0.0
 11
331.7783886050311
 21
103.9108087848611
 31
0.0
  0
LINE
  5
B2
330
47
100
AcDbEntity
  8
0
  6
Continuous
 62
     3
100
AcDbLine
 10
330.046337797462
 20
104.9108087848612
 30
0.0
 11
329.1803123936779
 21
105.4108087848612
 31
0.0
  0
LINE
  5
B3
330
47
100
AcDbEntity
  8
0
  6
Continuous
 62
     7
100
AcDbLine
 10
330.046337797462
 20
104.9108087848612
 30
0.0
 11
326.9256255927121
 21
99.50557669043349
 31
0.0
  0
LINE
  5
B4
330
47
100
AcDbEntity
  8
0
  6
Continuous
 62
     3
100
AcDbLine
 10
326.9256255927121
 20
99.50557669043349
 30
0.0
 11
328.6576764002812
 21
98.50557669043349
 31
0.0
  0
LINE
  5
B5
330
47
100
AcDbEntity
  8
0
  6
Continuous
 62
     3
100
AcDbLine
 10
326.3347621338789
 20
98.30252613211178
 30
0.0
 11
328.1849856332146
 21
97.54313624377619
 31
0.0
  0
LINE
  5
B6
330
47
100
AcDbEntity
  8
0
  6
Continuous
 62
     3
100
AcDbLine
 10
326.9256255927121
 20
99.50557669043349
 30
0.0
 11
326.059600188928
 21
100.0055766904335
 31
0.0
  0
LINE
  5
B7
330
47
100
AcDbEntity
  8
0
  6
Continuous
 62
     3
100
AcDbLine
 10
326.059600188928
 20
100.0055766904335
 30
0.0
 11
329.1803123936779
 21
105.4108087848612
 31
0.0
  0
LINE
  5
B8
330
47
100
AcDbEntity
  8
0
  6
Continuous
 62
     3
100
AcDbLine
 10
326.3347621338789
 20
98.30252613211178
 30
0.0
 11
325.4096503842111
 21
98.68222107627957
 31
0.0
  0
LINE
  5
B9
330
47
100
AcDbEntity
  8
0
  6
Continuous
 62
     3
100
AcDbLine
 10
64.71962208309833
 20
108.439482544241
 30
0.0
 11
65.34840696639276
 21
109.2170618460106
 31
0.0
  0
LINE
  5
BA
330
47
100
AcDbEntity
  8
0
  6
Continuous
 62
     3
100
AcDbLine
 10
33.28037791838142
 20
108.4394825442408
 30
0.0
 11
32.65159303508699
 21
109.2170618460104
 31
0.0
  0
LINE
  5
BB
330
47
100
AcDbEntity
  8
0
  6
Continuous
 62
     3
100
AcDbLine
 10
64.71962208309833
 20
108.439482544241
 30
0.0
 11
63.46205231650947
 21
106.8843239407016
 31
0.0
  0
LINE
  5
BC
330
47
100
AcDbEntity
  8
0
  6
Continuous
 62
     3
100
AcDbLine
 10
33.28037791838142
 20
108.4394825442408
 30
0.0
 11
34.53794768497028
 21
106.8843239407016
 31
0.0
  0
LINE
  5
BD
330
47
100
AcDbEntity
  8
0
  6
Continuous
 62
     3
100
AcDbLine
 10
67.09202728799937
 20
105.6636895265447
 30
0.0
 11
65.3599764804303
 21
104.6636895265447
 31
0.0
  0
LINE
  5
BE
330
47
100
AcDbEntity
  8
0
  6
Continuous
 62
     3
100
AcDbLine
 10
72.5380937041682
 20
98.23082579234472
 30
0.0
 11
71.67206830038413
 21
97.73082579234472
 31
0.0
  0
LINE
  5
BF
330
47
100
AcDbEntity
  8
0
  6
Continuous
 62
     3
100
AcDbLine
 10
67.09202728799937
 20
105.6636895265447
 30
0.0
 11
67.95805269178345
 21
106.1636895265447
 31
0.0
  0
LINE
  5
C0
330
47
100
AcDbEntity
  8
0
  6
Continuous
 62
     3
100
AcDbLine
 10
30.90797271348038
 20
105.6636895265445
 30
0.0
 11
30.0419473096963
 21
106.1636895265447
 31
0.0
  0
LINE
  5
C1
330
47
100
AcDbEntity
  8
0
  6
Continuous
 62
     3
100
AcDbLine
 10
32.64002352104944
 20
104.6636895265447
 30
0.0
 11
30.90797271348038
 21
105.6636895265445
 31
0.0
  0
LINE
  5
C2
330
47
100
AcDbEntity
  8
0
  6
Continuous
 62
     3
100
AcDbLine
 10
26.32793170109562
 20
97.73082579234483
 30
0.0
 11
25.46190629731154
 21
98.23082579234483
 31
0.0
  0
LINE
  5
C3
330
47
100
AcDbEntity
  8
0
  6
Continuous
 62
     3
100
AcDbLine
 10
28.05998250866469
 20
96.73082579234483
 30
0.0
 11
26.32793170109562
 21
97.73082579234483
 31
0.0
  0
LINE
  5
C4
330
47
100
AcDbEntity
  8
0
  6
Continuous
 62
     3
100
AcDbLine
 10
69.94001749281506
 20
96.73082579234472
 30
0.0
 11
71.67206830038413
 21
97.73082579234472
 31
0.0
  0
LINE
  5
C5
330
47
100
AcDbEntity
  8
0
  6
Continuous
 62
     3
100
AcDbLine
 10
67.95805269178345
 20
106.1636895265447
 30
0.0
 11
72.5380937041682
 21
98.23082579234472
 31
0.0
  0
LINE
  5
C6
330
47
100
AcDbEntity
  8
0
  6
Continuous
 62
     3
100
AcDbLine
 10
25.46190629731154
 20
98.23082579234483
 30
0.0
 11
30.0419473096963
 21
106.1636895265447
 31
0.0
  0
LINE
  5
C7
330
47
100
AcDbEntity
  8
0
  6
Continuous
 62
     7
100
AcDbLine
 10
30.90797271348038
 20
105.6636895265445
 30
0.0
 11
26.32793170109562
 21
97.73082579234483
 31
0.0
  0
LINE
  5
C8
330
47
100
AcDbEntity
  8
0
  6
Continuous
 62
     3
100
AcDbLine
 10
28.05998250866469
 20
96.73082579234483
 30
0.0
 11
32.64002352104944
 21
104.6636895265447
 31
0.0
  0
LINE
  5
C9
330
47
100
AcDbEntity
  8
0
  6
Continuous
 62
     7
100
AcDbLine
 10
71.67206830038413
 20
97.73082579234472
 30
0.0
 11
67.09202728799937
 21
105.6636895265447
 31
0.0
  0
LINE
  5
CA
330
47
100
AcDbEntity
  8
0
  6
Continuous
 62
     3
100
AcDbLine
 10
65.3599764804303
 20
104.6636895265447
 30
0.0
 11
69.94001749281506
 21
96.73082579234472
 31
0.0
  0
LINE
  5
CB
330
47
100
AcDbEntity
  8
1
  6
DOT_CENTER
 62
     2
100
AcDbLine
 10
76.50000000073925
 20
89.00000000000023
 30
0.0
 11
21.50000000073959
 21
89.00000000000023
 31
0.0
  0
LINE
  5
CC
330
47
100
AcDbEntity
  8
1
  6
DOT_CENTER
 62
     2
100
AcDbLine
 10
49.00000000073942
 20
116.5000000000001
 30
0.0
 11
49.00000000073942
 21
61.5000000000004
 31
0.0
  0
LINE
  5
CD
330
47
100
AcDbEntity
  8
1
  6
DOT_CENTER
 62
     2
100
AcDbLine
 10
376.5000000007397
 20
88.99999999999989
 30
0.0
 11
321.5000000007392
 21
88.99999999999989
 31
0.0
  0
LINE
  5
CE
330
47
100
AcDbEntity
  8
1
  6
DOT_CENTER
 62
     2
100
AcDbLine
 10
349.0000000007394
 20
116.5000000000002
 30
0.0
 11
349.0000000007394
 21
61.49999999999962
 31
0.0
  0
ARC
  5
CF
330
47
100
AcDbEntity
  8
0
  6
Continuous
 62
     3
100
AcDbCircle
 10
359.2934081661724
 20
78.08919121513873
 30
0.0
 40
7.999999999999948
100
AcDbArc
 50
313.3321969307244
 51
329.9999999999997
  0
ARC
  5
D0
330
47
100
AcDbEntity
  8
0
  6
Continuous
 62
     3
100
AcDbCircle
 10
359.2934081661724
 20
78.08919121513873
 30
0.0
 40
10.99999999999969
100
AcDbArc
 50
313.3321969307228
 51
329.9999999999992
  0
ARC
  5
D1
330
47
100
AcDbEntity
  8
0
  6
Continuous
 62
     7
100
AcDbCircle
 10
359.2934081661742
 20
78.08919121514134
 30
0.0
 40
10.00000000000069
100
AcDbArc
 50
313.332196930707
 51
329.9999999999849
  0
ARC
  5
D2
330
47
100
AcDbEntity
  8
0
  6
Continuous
 62
     7
100
AcDbCircle
 10
338.7065918353083
 20
78.0891912151368
 30
0.0
 40
9.999999999999904
100
AcDbArc
 50
209.9999999999876
 51
226.6678030692609
  0
ARC
  5
D3
330
47
100
AcDbEntity
  8
0
  6
Continuous
 62
     3
100
AcDbCircle
 10
338.7065918353064
 20
78.08919121513873
 30
0.0
 40
7.99999999999982
100
AcDbArc
 50
210.0000000000007
 51
226.6678030692758
  0
ARC
  5
D4
330
47
100
AcDbEntity
  8
0
  6
Continuous
 62
     3
100
AcDbCircle
 10
335.5858796305565
 20
83.49442330956765
 30
0.0
 40
11.00000000000028
100
AcDbArc
 50
202.3147880810802
 51
210.000000000006
  0
ARC
  5
D5
330
47
100
AcDbEntity
  8
0
  6
Continuous
 62
     3
100
AcDbCircle
 10
338.7065918353064
 20
78.08919121513873
 30
0.0
 40
10.99999999999972
100
AcDbArc
 50
210.0000000000008
 51
226.6678030692779
  0
ARC
  5
D6
330
47
100
AcDbEntity
  8
0
  6
Continuous
 62
     7
100
AcDbCircle
 10
49.00000000073942
 20
89.00000000000023
 30
0.0
 40
24.99999999999985
100
AcDbArc
 50
231.0394697813174
 51
308.9605302186824
  0
ARC
  5
D7
330
47
100
AcDbEntity
  8
0
  6
Continuous
 62
     3
100
AcDbCircle
 10
49.00000000073942
 20
89.00000000000023
 30
0.0
 40
22.99999999999975
100
AcDbArc
 50
231.0394697813178
 51
308.9605302186839
  0
ARC
  5
D8
330
47
100
AcDbEntity
  8
0
  6
Continuous
 62
     3
100
AcDbCircle
 10
58.43177325015495
 20
77.3363104734558
 30
0.0
 40
11.00000000000014
100
AcDbArc
 50
308.9605302186837
 51
329.9999999999997
  0
ARC
  5
D9
330
47
100
AcDbEntity
  8
0
  6
Continuous
 62
     7
100
AcDbCircle
 10
58.43177325015586
 20
77.33631047345716
 30
0.0
 40
10.00000000000001
100
AcDbArc
 50
308.9605302186703
 51
329.9999999999907
  0
ARC
  5
DA
330
47
100
AcDbEntity
  8
0
  6
Continuous
 62
     3
100
AcDbCircle
 10
39.56822675132571
 20
77.33631047345591
 30
0.0
 40
11.00000000000056
100
AcDbArc
 50
209.999999999999
 51
231.0394697813126
  0
ARC
  5
DB
330
47
100
AcDbEntity
  8
0
  6
Continuous
 62
     7
100
AcDbCircle
 10
39.56822675132571
 20
77.33631047345591
 30
0.0
 40
10.00000000000082
100
AcDbArc
 50
209.9999999999973
 51
231.0394697813126
  0
ARC
  5
DC
330
47
100
AcDbEntity
  8
0
  6
Continuous
 62
     3
100
AcDbCircle
 10
39.56822675132571
 20
77.33631047345591
 30
0.0
 40
8.000000000000655
100
AcDbArc
 50
209.9999999999972
 51
231.0394697813129
  0
ARC
  5
DD
330
47
100
AcDbEntity
  8
0
  6
Continuous
 62
     3
100
AcDbCircle
 10
58.43177325015495
 20
77.3363104734558
 30
0.0
 40
7.999999999999904
100
AcDbArc
 50
308.9605302186825
 51
330.0000000000002
  0
ARC
  5
DE
330
47
100
AcDbEntity
  8
0
  6
Continuous
 62
     3
100
AcDbCircle
 10
49.00000000073942
 20
89.00000000000023
 30
0.0
 40
25.9999999999999
100
AcDbArc
 50
231.0394697813172
 51
308.9605302186843
  0
ARC
  5
DF
330
47
100
AcDbEntity
  8
0
  6
Continuous
 62
     3
100
AcDbCircle
 10
349.0000000007394
 20
88.99999999999989
 30
0.0
 40
23.00000000000027
100
AcDbArc
 50
226.6678030692748
 51
313.3321969307253
  0
ARC
  5
E0
330
47
100
AcDbEntity
  8
0
  6
Continuous
 62
     3
100
AcDbCircle
 10
349.0000000007394
 20
88.99999999999989
 30
0.0
 40
25.99999999999993
100
AcDbArc
 50
226.6678030692758
 51
313.3321969307245
  0
ARC
  5
E1
330
47
100
AcDbEntity
  8
0
  6
Continuous
 62
     7
100
AcDbCircle
 10
349.0000000007394
 20
88.99999999999989
 30
0.0
 40
25.0000000000002
100
AcDbArc
 50
226.6678030692751
 51
313.3321969307253
  0
ARC
  5
E2
330
47
100
AcDbEntity
  8
0
  6
Continuous
 62
     3
100
AcDbCircle
 10
362.4141203709214
 20
83.49442330956504
 30
0.0
 40
7.999999999999974
100
AcDbArc
 50
330.0000000000112
 51
337.685211918936
  0
ARC
  5
E3
330
47
100
AcDbEntity
  8
0
  6
Continuous
 62
     3
100
AcDbCircle
 10
362.4141203709205
 20
83.49442330956208
 30
0.0
 40
10.99999999999987
100
AcDbArc
 50
330.0000000000256
 51
337.6852119189498
  0
ARC
  5
E4
330
47
100
AcDbEntity
  8
0
  6
Continuous
 62
     7
100
AcDbCircle
 10
335.5858796305574
 20
83.49442330956504
 30
0.0
 40
10.00000000000004
100
AcDbArc
 50
202.3147880810647
 51
209.9999999999901
  0
ARC
  5
E5
330
47
100
AcDbEntity
  8
0
  6
Continuous
 62
     7
100
AcDbCircle
 10
349.0000000007394
 20
88.99999999999989
 30
0.0
 40
24.49999999999986
100
AcDbArc
 50
157.6852119189257
 51
202.3147880810738
  0
ARC
  5
E6
330
47
100
AcDbEntity
  8
0
  6
Continuous
 62
     3
100
AcDbCircle
 10
335.5858796305574
 20
83.49442330956504
 30
0.0
 40
7.999999999999944
100
AcDbArc
 50
202.3147880810632
 51
209.9999999999892
  0
ARC
  5
E7
330
47
100
AcDbEntity
  8
0
  6
Continuous
 62
     3
100
AcDbCircle
 10
349.0000000007394
 20
88.99999999999989
 30
0.0
 40
22.49999999999977
100
AcDbArc
 50
157.6852119189254
 51
202.3147880810741
  0
ARC
  5
E8
330
47
100
AcDbEntity
  8
0
  6
Continuous
 62
     7
100
AcDbCircle
 10
362.4141203709214
 20
83.49442330956504
 30
0.0
 40
10.00000000000009
100
AcDbArc
 50
330.0000000000093
 51
337.6852119189341
  0
ARC
  5
E9
330
47
100
AcDbEntity
  8
0
  6
Continuous
 62
     3
100
AcDbCircle
 10
349.0000000007394
 20
88.99999999999989
 30
0.0
 40
22.49999999999968
100
AcDbArc
 50
337.6852119189256
 51
22.31478808107411
  0
ARC
  5
EA
330
47
100
AcDbEntity
  8
0
  6
Continuous
 62
     7
100
AcDbCircle
 10
349.0000000007394
 20
88.99999999999989
 30
0.0
 40
24.49999999999982
100
AcDbArc
 50
337.6852119189257
 51
22.31478808107408
  0
ARC
  5
EB
330
47
100
AcDbEntity
  8
0
  6
Continuous
 62
     7
100
AcDbCircle
 10
63.0118142625397
 20
92.73082579234472
 30
0.0
 40
10.00000000000002
100
AcDbArc
 50
14.90981482056239
 51
29.99999999999989
  0
ARC
  5
EC
330
47
100
AcDbEntity
  8
0
  6
Continuous
 62
     3
100
AcDbCircle
 10
63.01181426254061
 20
92.73082579234142
 30
0.0
 40
8.000000000000693
100
AcDbArc
 50
14.9098148205857
 51
30.00000000002424
  0
ARC
  5
ED
330
47
100
AcDbEntity
  8
0
  6
Continuous
 62
     3
100
AcDbCircle
 10
34.98818573894005
 20
92.73082579234483
 30
0.0
 40
7.999999999999869
100
AcDbArc
 50
149.9999999999995
 51
165.0901851794364
  0
ARC
  5
EE
330
47
100
AcDbEntity
  8
0
  6
Continuous
 62
     7
100
AcDbCircle
 10
34.98818573894005
 20
92.73082579234483
 30
0.0
 40
10.00000000000004
100
AcDbArc
 50
150.0000000000001
 51
165.090185179437
  0
ARC
  5
EF
330
47
100
AcDbEntity
  8
0
  6
Continuous
 62
     3
100
AcDbCircle
 10
49.00000000073942
 20
89.00000000000023
 30
0.0
 40
22.5000000000011
100
AcDbArc
 50
345.0901851794387
 51
14.90981482056185
  0
ARC
  5
F0
330
47
100
AcDbEntity
  8
0
  6
Continuous
 62
     7
100
AcDbCircle
 10
49.00000000073942
 20
89.00000000000023
 30
0.0
 40
24.5000000000004
100
AcDbArc
 50
345.0901851794383
 51
14.90981482056228
  0
ARC
  5
F1
330
47
100
AcDbEntity
  8
0
  6
Continuous
 62
     3
100
AcDbCircle
 10
34.98818573894005
 20
85.26917420765574
 30
0.0
 40
7.999999999999873
100
AcDbArc
 50
194.9098148205636
 51
210.0000000000005
  0
ARC
  5
F2
330
47
100
AcDbEntity
  8
0
  6
Continuous
 62
     3
100
AcDbCircle
 10
49.00000000073942
 20
89.00000000000023
 30
0.0
 40
22.49999999999946
100
AcDbArc
 50
165.0901851794364
 51
194.9098148205633
  0
ARC
  5
F3
330
47
100
AcDbEntity
  8
0
  6
Continuous
 62
     3
100
AcDbCircle
 10
63.01181426254061
 20
85.26917420765687
 30
0.0
 40
10.99999999999945
100
AcDbArc
 50
329.9999999999922
 51
345.090185179432
  0
ARC
  5
F4
330
47
100
AcDbEntity
  8
0
  6
Continuous
 62
     7
100
AcDbCircle
 10
63.0118142625397
 20
85.26917420765585
 30
0.0
 40
9.999999999999975
100
AcDbArc
 50
330.0000000000006
 51
345.0901851794383
  0
ARC
  5
F5
330
47
100
AcDbEntity
  8
0
  6
Continuous
 62
     3
100
AcDbCircle
 10
63.01181426254061
 20
85.26917420765926
 30
0.0
 40
8.00000000000073
100
AcDbArc
 50
329.9999999999758
 51
345.0901851794143
  0
ARC
  5
F6
330
47
100
AcDbEntity
  8
0
  6
Continuous
 62
     7
100
AcDbCircle
 10
34.98818573894005
 20
85.26917420765574
 30
0.0
 40
10.00000000000005
100
AcDbArc
 50
194.909814820563
 51
209.9999999999999
  0
ARC
  5
F7
330
47
100
AcDbEntity
  8
0
  6
Continuous
 62
     3
100
AcDbCircle
 10
34.98818573893914
 20
85.26917420765744
 30
0.0
 40
10.99999999999972
100
AcDbArc
 50
194.9098148205732
 51
210.0000000000114
  0
ARC
  5
F8
330
47
100
AcDbEntity
  8
0
  6
Continuous
 62
     7
100
AcDbCircle
 10
49.00000000073942
 20
89.00000000000023
 30
0.0
 40
24.49999999999963
100
AcDbArc
 50
165.0901851794367
 51
194.9098148205631
  0
ARC
  5
F9
330
47
100
AcDbEntity
  8
0
  6
Continuous
 62
     3
100
AcDbCircle
 10
49.00000000073942
 20
89.00000000000023
 30
0.0
 40
25.50000000000048
100
AcDbArc
 50
345.0901851794383
 51
14.90981482056221
  0
ARC
  5
FA
330
47
100
AcDbEntity
  8
0
  6
Continuous
 62
     3
100
AcDbCircle
 10
49.00000000073942
 20
89.00000000000023
 30
0.0
 40
25.49999999999975
100
AcDbArc
 50
165.0901851794365
 51
194.9098148205632
  0
ARC
  5
FB
330
47
100
AcDbEntity
  8
0
  6
Continuous
 62
     3
100
AcDbCircle
 10
349.0000000007394
 20
88.99999999999989
 30
0.0
 40
25.49999999999986
100
AcDbArc
 50
157.6852119189258
 51
202.3147880810739
  0
ARC
  5
FC
330
47
100
AcDbEntity
  8
0
  6
Continuous
 62
     3
100
AcDbCircle
 10
349.0000000007394
 20
88.99999999999989
 30
0.0
 40
25.49999999999991
100
AcDbArc
 50
337.6852119189259
 51
22.31478808107391
  0
ARC
  5
FD
330
47
100
AcDbEntity
  8
0
  6
Continuous
 62
     3
100
AcDbCircle
 10
362.4141203709196
 20
94.50557669043849
 30
0.0
 40
11.00000000000044
100
AcDbArc
 50
22.31478808104403
 51
29.99999999996856
  0
ARC
  5
FE
330
47
100
AcDbEntity
  8
0
  6
Continuous
 62
     3
100
AcDbCircle
 10
362.4141203709214
 20
94.50557669043474
 30
0.0
 40
7.999999999999944
100
AcDbArc
 50
22.31478808106322
 51
29.99999999998883
  0
ARC
  5
FF
330
47
100
AcDbEntity
  8
0
  6
Continuous
 62
     7
100
AcDbCircle
 10
362.4141203709214
 20
94.50557669043474
 30
0.0
 40
10.00000000000008
100
AcDbArc
 50
22.31478808106533
 51
29.99999999999068
  0
ARC
  5
100
330
47
100
AcDbEntity
  8
0
  6
Continuous
 62
     3
100
AcDbCircle
 10
359.2934081661724
 20
99.91080878486116
 30
0.0
 40
10.99999999999974
100
AcDbArc
 50
30.00000000000103
 51
46.66780306927737
  0
ARC
  5
101
330
47
100
AcDbEntity
  8
0
  6
Continuous
 62
     7
100
AcDbCircle
 10
359.2934081661706
 20
99.91080878486298
 30
0.0
 40
9.999999999999932
100
AcDbArc
 50
29.99999999998847
 51
46.66780306926081
  0
ARC
  5
102
330
47
100
AcDbEntity
  8
0
  6
Continuous
 62
     3
100
AcDbCircle
 10
359.2934081661724
 20
99.91080878486116
 30
0.0
 40
7.99999999999994
100
AcDbArc
 50
30.0000000000006
 51
46.66780306927563
  0
ARC
  5
103
330
47
100
AcDbEntity
  8
0
  6
Continuous
 62
     3
100
AcDbCircle
 10
338.7065918353064
 20
99.91080878486116
 30
0.0
 40
7.999999999999996
100
AcDbArc
 50
133.3321969307247
 51
149.9999999999996
  0
ARC
  5
104
330
47
100
AcDbEntity
  8
0
  6
Continuous
 62
     7
100
AcDbCircle
 10
338.7065918353064
 20
99.91080878486116
 30
0.0
 40
9.999999999999936
100
AcDbArc
 50
133.332196930724
 51
149.9999999999999
  0
ARC
  5
105
330
47
100
AcDbEntity
  8
0
  6
Continuous
 62
     3
100
AcDbCircle
 10
338.7065918353064
 20
99.91080878486116
 30
0.0
 40
10.99999999999968
100
AcDbArc
 50
133.3321969307224
 51
149.999999999999
  0
ARC
  5
106
330
47
100
AcDbEntity
  8
0
  6
Continuous
 62
     3
100
AcDbCircle
 10
335.5858796305574
 20
94.50557669043485
 30
0.0
 40
7.999999999999876
100
AcDbArc
 50
150.0000000000108
 51
157.6852119189361
  0
ARC
  5
107
330
47
100
AcDbEntity
  8
0
  6
Continuous
 62
     7
100
AcDbCircle
 10
335.5858796305574
 20
94.50557669043485
 30
0.0
 40
10.00000000000009
100
AcDbArc
 50
150.0000000000093
 51
157.6852119189347
  0
ARC
  5
108
330
47
100
AcDbEntity
  8
0
  6
Continuous
 62
     3
100
AcDbCircle
 10
335.5858796305565
 20
94.50557669043349
 30
0.0
 40
10.99999999999973
100
AcDbArc
 50
149.9999999999991
 51
157.6852119189258
  0
ARC
  5
109
330
47
100
AcDbEntity
  8
0
  6
Continuous
 62
     3
100
AcDbCircle
 10
58.43177325015404
 20
100.6636895265457
 30
0.0
 40
11.00000000000001
100
AcDbArc
 50
29.99999999999399
 51
51.03946978130936
  0
ARC
  5
10A
330
47
100
AcDbEntity
  8
0
  6
Continuous
 62
     7
100
AcDbCircle
 10
39.56822675132571
 20
100.6636895265447
 30
0.0
 40
10.00000000000052
100
AcDbArc
 50
128.960530218688
 51
150.0000000000037
  0
ARC
  5
10B
330
47
100
AcDbEntity
  8
0
  6
Continuous
 62
     3
100
AcDbCircle
 10
39.56822675132571
 20
100.6636895265447
 30
0.0
 40
11.00000000000056
100
AcDbArc
 50
128.9605302186881
 51
150.0000000000015
  0
ARC
  5
10C
330
47
100
AcDbEntity
  8
0
  6
Continuous
 62
     7
100
AcDbCircle
 10
58.43177325015404
 20
100.6636895265457
 30
0.0
 40
10.00000000000032
100
AcDbArc
 50
29.99999999999235
 51
51.03946978130917
  0
ARC
  5
10D
330
47
100
AcDbEntity
  8
0
  6
Continuous
 62
     3
100
AcDbCircle
 10
63.01181426254061
 20
92.7308257923437
 30
0.0
 40
10.99999999999949
100
AcDbArc
 50
14.90981482056858
 51
30.00000000000782
  0
ARC
  5
10E
330
47
100
AcDbEntity
  8
0
  6
Continuous
 62
     3
100
AcDbCircle
 10
58.43177325015404
 20
100.6636895265457
 30
0.0
 40
8.000000000000158
100
AcDbArc
 50
29.99999999999111
 51
51.03946978130765
  0
ARC
  5
10F
330
47
100
AcDbEntity
  8
0
  6
Continuous
 62
     3
100
AcDbCircle
 10
39.56822675132571
 20
100.6636895265447
 30
0.0
 40
8.000000000000432
100
AcDbArc
 50
128.9605302186879
 51
150.0000000000027
  0
ARC
  5
110
330
47
100
AcDbEntity
  8
0
  6
Continuous
 62
     3
100
AcDbCircle
 10
34.98818573893914
 20
92.73082579234301
 30
0.0
 40
10.99999999999985
100
AcDbArc
 50
149.9999999999886
 51
165.0901851794262
  0
ARC
  5
111
330
47
100
AcDbEntity
  8
0
  6
Continuous
 62
     3
100
AcDbCircle
 10
49.00000000073942
 20
89.00000000000023
 30
0.0
 40
26.00000000000059
100
AcDbArc
 50
51.03946978131584
 51
128.9605302186829
  0
ARC
  5
112
330
47
100
AcDbEntity
  8
0
  6
Continuous
 62
     3
100
AcDbCircle
 10
349.0000000007394
 20
88.99999999999989
 30
0.0
 40
26.0
100
AcDbArc
 50
46.66780306927574
 51
133.3321969307242
  0
ARC
  5
113
330
47
100
AcDbEntity
  8
0
  6
Continuous
 62
     3
100
AcDbCircle
 10
49.00000000073942
 20
89.00000000000023
 30
0.0
 40
23.00000000000031
100
AcDbArc
 50
51.03946978131609
 51
128.9605302186822
  0
ARC
  5
114
330
47
100
AcDbEntity
  8
0
  6
Continuous
 62
     7
100
AcDbCircle
 10
49.00000000073942
 20
89.00000000000023
 30
0.0
 40
25.00000000000055
100
AcDbArc
 50
51.03946978131601
 51
128.9605302186827
  0
ARC
  5
115
330
47
100
AcDbEntity
  8
0
  6
Continuous
 62
     3
100
AcDbCircle
 10
349.0000000007394
 20
88.99999999999989
 30
0.0
 40
23.00000000000024
100
AcDbArc
 50
46.66780306927492
 51
133.3321969307252
  0
ARC
  5
116
330
47
100
AcDbEntity
  8
0
  6
Continuous
 62
     7
100
AcDbCircle
 10
349.0000000007394
 20
88.99999999999989
 30
0.0
 40
25.0000000000003
100
AcDbArc
 50
46.66780306927494
 51
133.3321969307249
  0
ENDBLK
  5
49
330
47
100
AcDbEntity
  8
0
100
AcDbBlockEnd
  0
BLOCK
  5
4B
330
4A
100
AcDbEntity
  8
0
100
AcDbBlockBegin
  2
531-Hartschaum-Distanzelement-20mm__2
 70
     0
 10
-700.9999999992597
 20
1.49999999999795
 30
0.0
  3
531-Hartschaum-Distanzelement-20mm__2
  1

  0
LINE
  5
117
330
4A
100
AcDbEntity
  8
0
  6
Continuous
 62
     7
100
AcDbLine
 10
-100.9999999992606
 20
1.49999999999795
 30
0.0
 11
-100.9999999992606
 21
186.5000000000008
 31
0.0
  0
LINE
  5
118
330
4A
100
AcDbEntity
  8
0
  6
Continuous
 62
     3
100
AcDbLine
 10
-569.0920272865187
 20
105.6636895265435
 30
0.0
 11
-569.9580526903037
 21
106.1636895265435
 31
0.0
  0
LINE
  5
119
330
4A
100
AcDbEntity
  8
0
  6
Continuous
 62
     7
100
AcDbLine
 10
-100.9999999992606
 20
186.5000000000008
 30
0.0
 11
-700.9999999992597
 21
186.5000000000008
 31
0.0
  0
LINE
  5
11A
330
4A
100
AcDbEntity
  8
0
  6
Continuous
 62
     3
100
AcDbLine
 10
-535.2803779169017
 20
108.4394825442399
 30
0.0
 11
-534.6515930336077
 21
109.2170618460095
 31
0.0
  0
LINE
  5
11B
330
4A
100
AcDbEntity
  8
0
  6
Continuous
 62
     3
100
AcDbLine
 10
-535.2803779169017
 20
108.4394825442399
 30
0.0
 11
-536.5379476834905
 21
106.8843239407006
 31
0.0
  0
LINE
  5
11C
330
4A
100
AcDbEntity
  8
0
  6
Continuous
 62
     3
100
AcDbLine
 10
-566.7196220816177
 20
108.4394825442398
 30
0.0
 11
-565.4620523150297
 21
106.8843239407006
 31
0.0
  0
LINE
  5
11D
330
4A
100
AcDbEntity
  8
0
  6
Continuous
 62
     3
100
AcDbLine
 10
-566.7196220816177
 20
108.4394825442398
 30
0.0
 11
-567.3484069649126
 21
109.2170618460094
 31
0.0
  0
LINE
  5
11E
330
4A
100
AcDbEntity
  8
0
  6
Continuous
 62
     3
100
AcDbLine
 10
-532.9079727120006
 20
105.6636895265435
 30
0.0
 11
-532.0419473082156
 21
106.1636895265436
 31
0.0
  0
LINE
  5
11F
330
4A
100
AcDbEntity
  8
0
  6
Continuous
 62
     3
100
AcDbLine
 10
-532.9079727120006
 20
105.6636895265435
 30
0.0
 11
-534.6400235195697
 21
104.6636895265436
 31
0.0
  0
LINE
  5
120
330
4A
100
AcDbEntity
  8
0
  6
Continuous
 62
     3
100
AcDbLine
 10
-532.0419473082156
 20
106.1636895265436
 30
0.0
 11
-527.4619062958318
 21
98.2308257923437
 31
0.0
  0
LINE
  5
121
330
4A
100
AcDbEntity
  8
0
  6
Continuous
 62
     3
100
AcDbLine
 10
-526.3585335388539
 20
82.4388925720832
 30
0.0
 11
-527.3248655569087
 21
82.69619090258982
 31
0.0
  0
LINE
  5
122
330
4A
100
AcDbEntity
  8
0
  6
Continuous
 62
     3
100
AcDbLine
 10
-526.3585335388539
 20
95.56110742791532
 30
0.0
 11
-527.3248655569087
 21
95.30380909740882
 31
0.0
  0
LINE
  5
123
330
4A
100
AcDbEntity
  8
0
  6
Continuous
 62
     3
100
AcDbLine
 10
-569.9580526903037
 20
71.83631047345477
 30
0.0
 11
-574.5380937026885
 21
79.7691742076546
 31
0.0
  0
LINE
  5
124
330
4A
100
AcDbEntity
  8
0
  6
Continuous
 62
     7
100
AcDbLine
 10
-573.6720682989048
 20
80.26917420765471
 30
0.0
 11
-569.0920272865187
 21
72.33631047345489
 31
0.0
  0
LINE
  5
125
330
4A
100
AcDbEntity
  8
0
  6
Continuous
 62
     3
100
AcDbLine
 10
-529.2575295930187
 20
83.21078756360282
 30
0.0
 11
-527.3248655569087
 21
82.69619090258982
 31
0.0
  0
LINE
  5
126
330
4A
100
AcDbEntity
  8
0
  6
Continuous
 62
     3
100
AcDbLine
 10
-534.6400235195697
 20
73.33631047345477
 30
0.0
 11
-532.9079727120006
 21
72.33631047345477
 31
0.0
  0
LINE
  5
127
330
4A
100
AcDbEntity
  8
0
  6
Continuous
 62
     3
100
AcDbLine
 10
-530.0599825071845
 20
81.26917420765483
 30
0.0
 11
-528.3279316996159
 21
80.26917420765483
 31
0.0
  0
LINE
  5
128
330
4A
100
AcDbEntity
  8
0
  6
Continuous
 62
     3
100
AcDbLine
 10
-529.2575295930187
 20
94.78921243639581
 30
0.0
 11
-527.3248655569087
 21
95.30380909740882
 31
0.0
  0
LINE
  5
129
330
4A
100
AcDbEntity
  8
0
  6
Continuous
 62
     3
100
AcDbLine
 10
-527.4619062958318
 20
79.76917420765483
 30
0.0
 11
-528.3279316996159
 21
80.26917420765483
 31
0.0
  0
LINE
  5
12A
330
4A
100
AcDbEntity
  8
0
  6
Continuous
 62
     3
100
AcDbLine
 10
-530.0599825071845
 20
81.26917420765483
 30
0.0
 11
-534.6400235195697
 21
73.33631047345477
 31
0.0
  0
LINE
  5
12B
330
4A
100
AcDbEntity
  8
0
  6
Continuous
 62
     7
100
AcDbLine
 10
-532.9079727120006
 20
72.33631047345477
 30
0.0
 11
-528.3279316996159
 21
80.26917420765483
 31
0.0
  0
LINE
  5
12C
330
4A
100
AcDbEntity
  8
0
  6
Continuous
 62
     3
100
AcDbLine
 10
-567.3599764789506
 20
73.33631047345477
 30
0.0
 11
-571.9400174913358
 21
81.2691742076546
 31
0.0
  0
LINE
  5
12D
330
4A
100
AcDbEntity
  8
0
  6
Continuous
 62
     3
100
AcDbLine
 10
-232.0463377959823
 20
73.0891912151377
 30
0.0
 11
-231.1803123921991
 21
72.5891912151377
 31
0.0
  0
LINE
  5
12E
330
4A
100
AcDbEntity
  8
0
  6
Continuous
 62
     3
100
AcDbLine
 10
-228.0596001874483
 20
77.99442330956526
 30
0.0
 11
-231.1803123921991
 21
72.5891912151377
 31
0.0
  0
LINE
  5
12F
330
4A
100
AcDbEntity
  8
0
  6
Continuous
 62
     7
100
AcDbLine
 10
-232.0463377959823
 20
73.0891912151377
 30
0.0
 11
-228.9256255912333
 21
78.49442330956526
 31
0.0
  0
LINE
  5
130
330
4A
100
AcDbEntity
  8
0
  6
Continuous
 62
     3
100
AcDbLine
 10
-230.6576763988023
 20
79.49442330956526
 30
0.0
 11
-233.7783886035522
 21
74.0891912151377
 31
0.0
  0
LINE
  5
131
330
4A
100
AcDbEntity
  8
0
  6
Continuous
 62
     3
100
AcDbLine
 10
-268.221611394968
 20
74.08919121513759
 30
0.0
 11
-269.9536622025371
 21
73.08919121513759
 31
0.0
  0
LINE
  5
132
330
4A
100
AcDbEntity
  8
0
  6
Continuous
 62
     3
100
AcDbLine
 10
-269.9536622025371
 20
73.08919121513759
 30
0.0
 11
-270.8196876063221
 21
72.58919121513759
 31
0.0
  0
LINE
  5
133
330
4A
100
AcDbEntity
  8
0
  6
Continuous
 62
     7
100
AcDbLine
 10
-273.0743744072879
 20
78.49442330956538
 30
0.0
 11
-269.9536622025371
 21
73.08919121513759
 31
0.0
  0
LINE
  5
134
330
4A
100
AcDbEntity
  8
0
  6
Continuous
 62
     3
100
AcDbLine
 10
-233.7783886035522
 20
74.0891912151377
 30
0.0
 11
-232.0463377959823
 21
73.0891912151377
 31
0.0
  0
LINE
  5
135
330
4A
100
AcDbEntity
  8
0
  6
Continuous
 62
     3
100
AcDbLine
 10
-527.4619062958318
 20
79.76917420765483
 30
0.0
 11
-532.0419473082156
 21
71.83631047345477
 31
0.0
  0
LINE
  5
136
330
4A
100
AcDbEntity
  8
0
  6
Continuous
 62
     3
100
AcDbLine
 10
-270.8196876063221
 20
72.58919121513759
 30
0.0
 11
-273.940399811072
 21
77.99442330956538
 31
0.0
  0
LINE
  5
137
330
4A
100
AcDbEntity
  8
0
  6
Continuous
 62
     3
100
AcDbLine
 10
-271.3423235997188
 20
79.49442330956538
 30
0.0
 11
-268.221611394968
 21
74.08919121513759
 31
0.0
  0
LINE
  5
138
330
4A
100
AcDbEntity
  8
0
  6
Continuous
 62
     3
100
AcDbLine
 10
-227.4096503827323
 20
79.31777892371906
 30
0.0
 11
-228.3347621323983
 21
79.69747386788697
 31
0.0
  0
LINE
  5
139
330
4A
100
AcDbEntity
  8
0
  6
Continuous
 62
     3
100
AcDbLine
 10
-230.6576763988023
 20
79.49442330956526
 30
0.0
 11
-228.9256255912333
 21
78.49442330956526
 31
0.0
  0
LINE
  5
13A
330
4A
100
AcDbEntity
  8
0
  6
Continuous
 62
     3
100
AcDbLine
 10
-273.6652378661211
 20
79.6974738678872
 30
0.0
 11
-271.8150143667854
 21
80.45686375622279
 31
0.0
  0
LINE
  5
13B
330
4A
100
AcDbEntity
  8
0
  6
Continuous
 62
     3
100
AcDbLine
 10
-228.0596001874483
 20
77.99442330956526
 30
0.0
 11
-228.9256255912333
 21
78.49442330956526
 31
0.0
  0
LINE
  5
13C
330
4A
100
AcDbEntity
  8
0
  6
Continuous
 62
     3
100
AcDbLine
 10
-273.6652378661211
 20
79.6974738678872
 30
0.0
 11
-274.5903496157889
 21
79.31777892371929
 31
0.0
  0
LINE
  5
13D
330
4A
100
AcDbEntity
  8
0
  6
Continuous
 62
     3
100
AcDbLine
 10
-230.1849856317349
 20
80.45686375622267
 30
0.0
 11
-228.3347621323983
 21
79.69747386788697
 31
0.0
  0
LINE
  5
13E
330
4A
100
AcDbEntity
  8
0
  6
Continuous
 62
     3
100
AcDbLine
 10
-273.0743744072879
 20
78.49442330956538
 30
0.0
 11
-273.940399811072
 21
77.99442330956538
 31
0.0
  0
LINE
  5
13F
330
4A
100
AcDbEntity
  8
0
  6
Continuous
 62
     3
100
AcDbLine
 10
-273.0743744072879
 20
78.49442330956538
 30
0.0
 11
-271.3423235997188
 21
79.49442330956538
 31
0.0
  0
LINE
  5
140
330
4A
100
AcDbEntity
  8
0
  6
Continuous
 62
     3
100
AcDbLine
 10
-569.0920272865187
 20
72.33631047345489
 30
0.0
 11
-567.3599764789506
 21
73.33631047345477
 31
0.0
  0
LINE
  5
141
330
4A
100
AcDbEntity
  8
0
  6
Continuous
 62
     3
100
AcDbLine
 10
-567.3599764789506
 20
104.6636895265435
 30
0.0
 11
-569.0920272865187
 21
105.6636895265435
 31
0.0
  0
LINE
  5
142
330
4A
100
AcDbEntity
  8
0
  6
Continuous
 62
     3
100
AcDbLine
 10
-227.4096503827313
 20
98.68222107627844
 30
0.0
 11
-228.3347621323983
 21
98.30252613211053
 31
0.0
  0
LINE
  5
143
330
4A
100
AcDbEntity
  8
0
  6
Continuous
 62
     3
100
AcDbLine
 10
-230.1849856317349
 20
97.54313624377494
 30
0.0
 11
-228.3347621323983
 21
98.30252613211053
 31
0.0
  0
LINE
  5
144
330
4A
100
AcDbEntity
  8
0
  6
Continuous
 62
     3
100
AcDbLine
 10
-230.6576763988014
 20
98.50557669043235
 30
0.0
 11
-233.7783886035522
 21
103.9108087848601
 31
0.0
  0
LINE
  5
145
330
4A
100
AcDbEntity
  8
0
  6
Continuous
 62
     3
100
AcDbLine
 10
-230.6576763988014
 20
98.50557669043235
 30
0.0
 11
-228.9256255912333
 21
99.50557669043235
 31
0.0
  0
LINE
  5
146
330
4A
100
AcDbEntity
  8
0
  6
Continuous
 62
     3
100
AcDbLine
 10
-228.0596001874483
 20
100.0055766904324
 30
0.0
 11
-228.9256255912333
 21
99.50557669043235
 31
0.0
  0
LINE
  5
147
330
4A
100
AcDbEntity
  8
0
  6
Continuous
 62
     3
100
AcDbLine
 10
-271.3423235997188
 20
98.50557669043235
 30
0.0
 11
-268.221611394968
 21
103.91080878486
 31
0.0
  0
LINE
  5
148
330
4A
100
AcDbEntity
  8
0
  6
Continuous
 62
     3
100
AcDbLine
 10
-233.7783886035522
 20
103.9108087848601
 30
0.0
 11
-232.0463377959823
 21
104.9108087848601
 31
0.0
  0
LINE
  5
149
330
4A
100
AcDbEntity
  8
0
  6
Continuous
 62
     3
100
AcDbLine
 10
-233.8443197235392
 20
107.184681308101
 30
0.0
 11
-235.2167741455969
 21
105.7299068034528
 31
0.0
  0
LINE
  5
14A
330
4A
100
AcDbEntity
  8
0
  6
Continuous
 62
     3
100
AcDbLine
 10
-268.155680274981
 20
107.184681308101
 30
0.0
 11
-266.7832258529234
 21
105.7299068034528
 31
0.0
  0
LINE
  5
14B
330
4A
100
AcDbEntity
  8
0
  6
Continuous
 62
     3
100
AcDbLine
 10
-268.155680274981
 20
107.184681308101
 30
0.0
 11
-268.8419074860103
 21
107.9120685604249
 31
0.0
  0
LINE
  5
14C
330
4A
100
AcDbEntity
  8
0
  6
Continuous
 62
     3
100
AcDbLine
 10
-269.9536622025371
 20
104.9108087848601
 30
0.0
 11
-268.221611394968
 21
103.91080878486
 31
0.0
  0
LINE
  5
14D
330
4A
100
AcDbEntity
  8
0
  6
Continuous
 62
     3
100
AcDbLine
 10
-233.8443197235392
 20
107.184681308101
 30
0.0
 11
-233.1580925125109
 21
107.912068560425
 31
0.0
  0
LINE
  5
14E
330
4A
100
AcDbEntity
  8
0
  6
Continuous
 62
     3
100
AcDbLine
 10
-232.0463377959823
 20
104.9108087848601
 30
0.0
 11
-231.1803123921991
 21
105.4108087848601
 31
0.0
  0
LINE
  5
14F
330
4A
100
AcDbEntity
  8
0
  6
Continuous
 62
     3
100
AcDbLine
 10
-269.9536622025371
 20
104.9108087848601
 30
0.0
 11
-270.8196876063221
 21
105.4108087848601
 31
0.0
  0
LINE
  5
150
330
4A
100
AcDbEntity
  8
0
  6
Continuous
 62
     3
100
AcDbLine
 10
-273.0743744072879
 20
99.50557669043246
 30
0.0
 11
-271.3423235997188
 21
98.50557669043235
 31
0.0
  0
LINE
  5
151
330
4A
100
AcDbEntity
  8
0
  6
Continuous
 62
     3
100
AcDbLine
 10
-273.6652378661211
 20
98.30252613211076
 30
0.0
 11
-271.8150143667854
 21
97.54313624377505
 31
0.0
  0
LINE
  5
152
330
4A
100
AcDbEntity
  8
0
  6
Continuous
 62
     3
100
AcDbLine
 10
-273.6652378661211
 20
98.30252613211076
 30
0.0
 11
-274.5903496157889
 21
98.68222107627855
 31
0.0
  0
LINE
  5
153
330
4A
100
AcDbEntity
  8
0
  6
Continuous
 62
     3
100
AcDbLine
 10
-273.0743744072879
 20
99.50557669043246
 30
0.0
 11
-273.940399811072
 21
100.0055766904325
 31
0.0
  0
LINE
  5
154
330
4A
100
AcDbEntity
  8
0
  6
Continuous
 62
     3
100
AcDbLine
 10
-273.940399811072
 20
100.0055766904325
 30
0.0
 11
-270.8196876063221
 21
105.4108087848601
 31
0.0
  0
LINE
  5
155
330
4A
100
AcDbEntity
  8
0
  6
Continuous
 62
     7
100
AcDbLine
 10
-269.9536622025371
 20
104.9108087848601
 30
0.0
 11
-273.0743744072879
 21
99.50557669043246
 31
0.0
  0
LINE
  5
156
330
4A
100
AcDbEntity
  8
0
  6
Continuous
 62
     3
100
AcDbLine
 10
-231.1803123921991
 20
105.4108087848601
 30
0.0
 11
-228.0596001874483
 21
100.0055766904324
 31
0.0
  0
LINE
  5
157
330
4A
100
AcDbEntity
  8
0
  6
Continuous
 62
     7
100
AcDbLine
 10
-228.9256255912333
 20
99.50557669043235
 30
0.0
 11
-232.0463377959823
 21
104.9108087848601
 31
0.0
  0
LINE
  5
158
330
4A
100
AcDbEntity
  8
0
  6
Continuous
 62
     3
100
AcDbLine
 10
-233.8443197235392
 20
70.81531869189689
 30
0.0
 11
-235.2167741455969
 21
72.27009319654508
 31
0.0
  0
LINE
  5
159
330
4A
100
AcDbEntity
  8
0
  6
Continuous
 62
     3
100
AcDbLine
 10
-268.155680274981
 20
70.81531869189678
 30
0.0
 11
-266.7832258529234
 21
72.27009319654496
 31
0.0
  0
LINE
  5
15A
330
4A
100
AcDbEntity
  8
0
  6
Continuous
 62
     3
100
AcDbLine
 10
-569.0920272865187
 20
72.33631047345489
 30
0.0
 11
-569.9580526903037
 21
71.83631047345477
 31
0.0
  0
LINE
  5
15B
330
4A
100
AcDbEntity
  8
0
  6
Continuous
 62
     3
100
AcDbLine
 10
-566.7196220816177
 20
69.5605174557586
 30
0.0
 11
-567.3484069649126
 21
68.78293815398888
 31
0.0
  0
LINE
  5
15C
330
4A
100
AcDbEntity
  8
0
  6
Continuous
 62
     3
100
AcDbLine
 10
-233.8443197235392
 20
70.81531869189689
 30
0.0
 11
-233.1580925125109
 21
70.0879314395728
 31
0.0
  0
LINE
  5
15D
330
4A
100
AcDbEntity
  8
0
  6
Continuous
 62
     3
100
AcDbLine
 10
-268.155680274981
 20
70.81531869189678
 30
0.0
 11
-268.8419074860103
 21
70.08793143957269
 31
0.0
  0
LINE
  5
15E
330
4A
100
AcDbEntity
  8
0
  6
Continuous
 62
     7
100
AcDbLine
 10
-700.9999999992597
 20
1.49999999999795
 30
0.0
 11
-100.9999999992606
 21
1.49999999999795
 31
0.0
  0
LINE
  5
15F
330
4A
100
AcDbEntity
  8
0
  6
Continuous
 62
     3
100
AcDbLine
 10
-532.9079727120006
 20
72.33631047345477
 30
0.0
 11
-532.0419473082156
 21
71.83631047345477
 31
0.0
  0
LINE
  5
160
330
4A
100
AcDbEntity
  8
0
  6
Continuous
 62
     3
100
AcDbLine
 10
-566.7196220816177
 20
69.5605174557586
 30
0.0
 11
-565.4620523150297
 21
71.11567605929781
 31
0.0
  0
LINE
  5
161
330
4A
100
AcDbEntity
  8
0
  6
Continuous
 62
     3
100
AcDbLine
 10
-535.2803779169017
 20
69.56051745575849
 30
0.0
 11
-536.5379476834905
 21
71.1156760592977
 31
0.0
  0
LINE
  5
162
330
4A
100
AcDbEntity
  8
0
  6
Continuous
 62
     3
100
AcDbLine
 10
-535.2803779169017
 20
69.56051745575849
 30
0.0
 11
-534.6515930336077
 21
68.78293815398888
 31
0.0
  0
LINE
  5
163
330
4A
100
AcDbEntity
  8
0
  6
Continuous
 62
     7
100
AcDbLine
 10
-700.9999999992597
 20
186.5000000000008
 30
0.0
 11
-700.9999999992597
 21
1.49999999999795
 31
0.0
  0
LINE
  5
164
330
4A
100
AcDbEntity
  8
0
  6
Continuous
 62
     3
100
AcDbLine
 10
-527.4619062958318
 20
98.2308257923437
 30
0.0
 11
-528.3279316996159
 21
97.7308257923437
 31
0.0
  0
LINE
  5
165
330
4A
100
AcDbEntity
  8
0
  6
Continuous
 62
     7
100
AcDbLine
 10
-569.0920272865187
 20
105.6636895265435
 30
0.0
 11
-573.6720682989048
 21
97.73082579234381
 31
0.0
  0
LINE
  5
166
330
4A
100
AcDbEntity
  8
0
  6
Continuous
 62
     3
100
AcDbLine
 10
-571.9400174913358
 20
96.73082579234381
 30
0.0
 11
-567.3599764789506
 21
104.6636895265435
 31
0.0
  0
LINE
  5
167
330
4A
100
AcDbEntity
  8
0
  6
Continuous
 62
     3
100
AcDbLine
 10
-530.0599825071845
 20
96.7308257923437
 30
0.0
 11
-528.3279316996159
 21
97.7308257923437
 31
0.0
  0
LINE
  5
168
330
4A
100
AcDbEntity
  8
0
  6
Continuous
 62
     7
100
AcDbLine
 10
-528.3279316996159
 20
97.7308257923437
 30
0.0
 11
-532.9079727120006
 21
105.6636895265435
 31
0.0
  0
LINE
  5
169
330
4A
100
AcDbEntity
  8
0
  6
Continuous
 62
     3
100
AcDbLine
 10
-571.9400174913358
 20
96.73082579234381
 30
0.0
 11
-573.6720682989048
 21
97.73082579234381
 31
0.0
  0
LINE
  5
16A
330
4A
100
AcDbEntity
  8
0
  6
Continuous
 62
     3
100
AcDbLine
 10
-574.6751344416116
 20
95.30380909740904
 30
0.0
 11
-572.7424704055006
 21
94.78921243639604
 31
0.0
  0
LINE
  5
16B
330
4A
100
AcDbEntity
  8
0
  6
Continuous
 62
     3
100
AcDbLine
 10
-573.6720682989048
 20
97.73082579234381
 30
0.0
 11
-574.5380937026885
 21
98.23082579234381
 31
0.0
  0
LINE
  5
16C
330
4A
100
AcDbEntity
  8
0
  6
Continuous
 62
     3
100
AcDbLine
 10
-574.5380937026885
 20
79.7691742076546
 30
0.0
 11
-573.6720682989048
 21
80.26917420765471
 31
0.0
  0
LINE
  5
16D
330
4A
100
AcDbEntity
  8
0
  6
Continuous
 62
     3
100
AcDbLine
 10
-574.6751344416116
 20
82.69619090258948
 30
0.0
 11
-572.7424704055006
 21
83.21078756360248
 31
0.0
  0
LINE
  5
16E
330
4A
100
AcDbEntity
  8
0
  6
Continuous
 62
     3
100
AcDbLine
 10
-573.6720682989048
 20
80.26917420765471
 30
0.0
 11
-571.9400174913358
 21
81.2691742076546
 31
0.0
  0
LINE
  5
16F
330
4A
100
AcDbEntity
  8
0
  6
Continuous
 62
     3
100
AcDbLine
 10
-574.6751344416116
 20
95.30380909740904
 30
0.0
 11
-575.6414664596668
 21
95.56110742791566
 31
0.0
  0
LINE
  5
170
330
4A
100
AcDbEntity
  8
0
  6
Continuous
 62
     3
100
AcDbLine
 10
-574.6751344416116
 20
82.69619090258948
 30
0.0
 11
-575.6414664596668
 21
82.43889257208286
 31
0.0
  0
LINE
  5
171
330
4A
100
AcDbEntity
  8
0
  6
Continuous
 62
     3
100
AcDbLine
 10
-574.5380937026885
 20
98.23082579234381
 30
0.0
 11
-569.9580526903037
 21
106.1636895265435
 31
0.0
  0
LINE
  5
172
330
4A
100
AcDbEntity
  8
0
  6
Continuous
 62
     3
100
AcDbLine
 10
-534.6400235195697
 20
104.6636895265436
 30
0.0
 11
-530.0599825071845
 21
96.7308257923437
 31
0.0
  0
LINE
  5
173
330
4A
100
AcDbEntity
  8
1
  6
DOT_CENTER
 62
     2
100
AcDbLine
 10
-523.4999999992598
 20
88.9999999999992
 30
0.0
 11
-578.4999999992596
 21
88.9999999999992
 31
0.0
  0
LINE
  5
174
330
4A
100
AcDbEntity
  8
1
  6
DOT_CENTER
 62
     2
100
AcDbLine
 10
-550.9999999992597
 20
116.499999999999
 30
0.0
 11
-550.9999999992597
 21
61.49999999999938
 31
0.0
  0
LINE
  5
175
330
4A
100
AcDbEntity
  8
1
  6
DOT_CENTER
 62
     2
100
AcDbLine
 10
-223.499999999261
 20
88.99999999999886
 30
0.0
 11
-278.4999999992601
 21
88.99999999999886
 31
0.0
  0
LINE
  5
176
330
4A
100
AcDbEntity
  8
1
  6
DOT_CENTER
 62
     2
100
AcDbLine
 10
-250.9999999992606
 20
116.4999999999984
 30
0.0
 11
-250.9999999992606
 21
61.49999999999928
 31
0.0
  0
ARC
  5
177
330
4A
100
AcDbEntity
  8
0
  6
Continuous
 62
     3
100
AcDbCircle
 10
-250.9999999992606
 20
88.99999999999886
 30
0.0
 40
23.00000000000028
100
AcDbArc
 50
46.66780306927492
 51
133.3321969307234
  0
ARC
  5
178
330
4A
100
AcDbEntity
  8
0
  6
Continuous
 62
     7
100
AcDbCircle
 10
-250.9999999992606
 20
88.99999999999886
 30
0.0
 40
24.5000000000015
100
AcDbArc
 50
337.6852119189273
 51
22.31478808107222
  0
ARC
  5
179
330
4A
100
AcDbEntity
  8
0
  6
Continuous
 62
     3
100
AcDbCircle
 10
-250.9999999992606
 20
88.99999999999886
 30
0.0
 40
22.50000000000054
100
AcDbArc
 50
337.6852119189265
 51
22.31478808107321
  0
ARC
  5
17A
330
4A
100
AcDbEntity
  8
0
  6
Continuous
 62
     7
100
AcDbCircle
 10
-250.9999999992606
 20
88.99999999999886
 30
0.0
 40
24.49999999999984
100
AcDbArc
 50
157.6852119189257
 51
202.3147880810738
  0
ARC
  5
17B
330
4A
100
AcDbEntity
  8
0
  6
Continuous
 62
     3
100
AcDbCircle
 10
-250.9999999992606
 20
88.99999999999886
 30
0.0
 40
22.4999999999997
100
AcDbArc
 50
157.6852119189257
 51
202.3147880810741
  0
ARC
  5
17C
330
4A
100
AcDbEntity
  8
0
  6
Continuous
 62
     3
100
AcDbCircle
 10
-550.9999999992597
 20
88.9999999999992
 30
0.0
 40
25.49999999999919
100
AcDbArc
 50
345.0901851794372
 51
14.909814820563
  0
ARC
  5
17D
330
4A
100
AcDbEntity
  8
0
  6
Continuous
 62
     3
100
AcDbCircle
 10
-250.9999999992606
 20
88.99999999999886
 30
0.0
 40
25.49999999999984
100
AcDbArc
 50
157.6852119189258
 51
202.314788081074
  0
ARC
  5
17E
330
4A
100
AcDbEntity
  8
0
  6
Continuous
 62
     3
100
AcDbCircle
 10
-250.9999999992606
 20
88.99999999999886
 30
0.0
 40
25.49999999999988
100
AcDbArc
 50
337.6852119189255
 51
22.3147880810731
  0
ARC
  5
17F
330
4A
100
AcDbEntity
  8
0
  6
Continuous
 62
     7
100
AcDbCircle
 10
-250.9999999992606
 20
88.99999999999886
 30
0.0
 40
25.00000000000032
100
AcDbArc
 50
46.66780306927499
 51
133.3321969307233
  0
ARC
  5
180
330
4A
100
AcDbEntity
  8
0
  6
Continuous
 62
     7
100
AcDbCircle
 10
-560.4317732486747
 20
100.6636895265435
 30
0.0
 40
9.999999999999815
100
AcDbArc
 50
128.9605302186812
 51
149.9999999999988
  0
ARC
  5
181
330
4A
100
AcDbEntity
  8
0
  6
Continuous
 62
     3
100
AcDbCircle
 10
-560.4317732486747
 20
100.6636895265435
 30
0.0
 40
8.0000000000003
100
AcDbArc
 50
128.9605302186844
 51
150.0000000000011
  0
ARC
  5
182
330
4A
100
AcDbEntity
  8
0
  6
Continuous
 62
     7
100
AcDbCircle
 10
-541.5682267498446
 20
100.6636895265436
 30
0.0
 40
9.999999999999583
100
AcDbArc
 50
30.00000000000063
 51
51.03946978131877
  0
ARC
  5
183
330
4A
100
AcDbEntity
  8
0
  6
Continuous
 62
     3
100
AcDbCircle
 10
-550.9999999992597
 20
88.9999999999992
 30
0.0
 40
22.99999999999975
100
AcDbArc
 50
51.03946978131787
 51
128.9605302186839
  0
ARC
  5
184
330
4A
100
AcDbEntity
  8
0
  6
Continuous
 62
     3
100
AcDbCircle
 10
-541.5682267498446
 20
100.6636895265436
 30
0.0
 40
7.999999999999475
100
AcDbArc
 50
30.00000000000217
 51
51.03946978132011
  0
ARC
  5
185
330
4A
100
AcDbEntity
  8
0
  6
Continuous
 62
     3
100
AcDbCircle
 10
-541.5682267498437
 20
100.6636895265425
 30
0.0
 40
10.99999999999988
100
AcDbArc
 50
30.00000000000703
 51
51.03946978132731
  0
ARC
  5
186
330
4A
100
AcDbEntity
  8
0
  6
Continuous
 62
     3
100
AcDbCircle
 10
-550.9999999992597
 20
88.9999999999992
 30
0.0
 40
25.99999999999968
100
AcDbArc
 50
51.03946978131808
 51
128.9605302186836
  0
ARC
  5
187
330
4A
100
AcDbEntity
  8
0
  6
Continuous
 62
     3
100
AcDbCircle
 10
-250.9999999992606
 20
88.99999999999886
 30
0.0
 40
25.99999999999988
100
AcDbArc
 50
46.66780306927575
 51
133.3321969307244
  0
ARC
  5
188
330
4A
100
AcDbEntity
  8
0
  6
Continuous
 62
     7
100
AcDbCircle
 10
-550.9999999992597
 20
88.9999999999992
 30
0.0
 40
24.99999999999991
100
AcDbArc
 50
51.03946978131752
 51
128.9605302186826
  0
ARC
  5
189
330
4A
100
AcDbEntity
  8
0
  6
Continuous
 62
     3
100
AcDbCircle
 10
-560.4317732486747
 20
77.33631047345477
 30
0.0
 40
8.000000000000263
100
AcDbArc
 50
209.9999999999989
 51
231.0394697813149
  0
ARC
  5
18A
330
4A
100
AcDbEntity
  8
0
  6
Continuous
 62
     3
100
AcDbCircle
 10
-541.5682267498446
 20
77.33631047345477
 30
0.0
 40
7.999999999999707
100
AcDbArc
 50
308.9605302186795
 51
329.9999999999978
  0
ARC
  5
18B
330
4A
100
AcDbEntity
  8
0
  6
Continuous
 62
     7
100
AcDbCircle
 10
-550.9999999992597
 20
88.9999999999992
 30
0.0
 40
24.49999999999952
100
AcDbArc
 50
345.0901851794377
 51
14.90981482056283
  0
ARC
  5
18C
330
4A
100
AcDbEntity
  8
0
  6
Continuous
 62
     7
100
AcDbCircle
 10
-536.9881857374608
 20
85.26917420765483
 30
0.0
 40
10.00000000000043
100
AcDbArc
 50
330.0000000000014
 51
345.0901851794389
  0
ARC
  5
18D
330
4A
100
AcDbEntity
  8
0
  6
Continuous
 62
     3
100
AcDbCircle
 10
-240.7065918338276
 20
78.0891912151377
 30
0.0
 40
10.99999999999961
100
AcDbArc
 50
313.3321969307224
 51
329.9999999999991
  0
ARC
  5
18E
330
4A
100
AcDbEntity
  8
0
  6
Continuous
 62
     7
100
AcDbCircle
 10
-240.7065918338258
 20
78.08919121514032
 30
0.0
 40
10.00000000000065
100
AcDbArc
 50
313.3321969307067
 51
329.9999999999845
  0
ARC
  5
18F
330
4A
100
AcDbEntity
  8
0
  6
Continuous
 62
     7
100
AcDbCircle
 10
-261.2934081646927
 20
78.08919121513759
 30
0.0
 40
9.999999999999984
100
AcDbArc
 50
210.0000000000001
 51
226.6678030692759
  0
ARC
  5
190
330
4A
100
AcDbEntity
  8
0
  6
Continuous
 62
     3
100
AcDbCircle
 10
-240.7065918338276
 20
78.0891912151377
 30
0.0
 40
7.999999999999948
100
AcDbArc
 50
313.3321969307244
 51
329.9999999999996
  0
ARC
  5
191
330
4A
100
AcDbEntity
  8
0
  6
Continuous
 62
     3
100
AcDbCircle
 10
-261.2934081646927
 20
78.08919121513759
 30
0.0
 40
7.99999999999982
100
AcDbArc
 50
210.0000000000007
 51
226.6678030692755
  0
ARC
  5
192
330
4A
100
AcDbEntity
  8
0
  6
Continuous
 62
     3
100
AcDbCircle
 10
-264.4141203694435
 20
83.49442330956538
 30
0.0
 40
10.9999999999998
100
AcDbArc
 50
202.3147880810742
 51
210.0000000000008
  0
ARC
  5
193
330
4A
100
AcDbEntity
  8
0
  6
Continuous
 62
     3
100
AcDbCircle
 10
-264.4141203694426
 20
83.49442330956401
 30
0.0
 40
7.999999999999944
100
AcDbArc
 50
202.3147880810632
 51
209.9999999999892
  0
ARC
  5
194
330
4A
100
AcDbEntity
  8
0
  6
Continuous
 62
     7
100
AcDbCircle
 10
-264.4141203694426
 20
83.49442330956401
 30
0.0
 40
10.00000000000004
100
AcDbArc
 50
202.3147880810647
 51
209.9999999999906
  0
ARC
  5
195
330
4A
100
AcDbEntity
  8
0
  6
Continuous
 62
     3
100
AcDbCircle
 10
-237.5858796290795
 20
83.49442330956094
 30
0.0
 40
10.9999999999999
100
AcDbArc
 50
330.0000000000257
 51
337.6852119189496
  0
ARC
  5
196
330
4A
100
AcDbEntity
  8
0
  6
Continuous
 62
     7
100
AcDbCircle
 10
-237.5858796290731
 20
83.4944233095747
 30
0.0
 40
10.00000000000074
100
AcDbArc
 50
329.99999999994
 51
337.6852119188694
  0
ARC
  5
197
330
4A
100
AcDbEntity
  8
0
  6
Continuous
 62
     3
100
AcDbCircle
 10
-237.5858796290759
 20
83.49442330956936
 30
0.0
 40
8.000000000000389
100
AcDbArc
 50
329.9999999999678
 51
337.6852119188958
  0
ARC
  5
198
330
4A
100
AcDbEntity
  8
0
  6
Continuous
 62
     3
100
AcDbCircle
 10
-536.9881857374608
 20
85.26917420765483
 30
0.0
 40
11.00000000000012
100
AcDbArc
 50
330.0000000000003
 51
345.0901851794378
  0
ARC
  5
199
330
4A
100
AcDbEntity
  8
0
  6
Continuous
 62
     3
100
AcDbCircle
 10
-560.4317732486747
 20
77.33631047345477
 30
0.0
 40
11.00000000000012
100
AcDbArc
 50
209.9999999999997
 51
231.0394697813163
  0
ARC
  5
19A
330
4A
100
AcDbEntity
  8
0
  6
Continuous
 62
     3
100
AcDbCircle
 10
-560.4317732486747
 20
100.6636895265435
 30
0.0
 40
11.00000000000015
100
AcDbArc
 50
128.9605302186836
 51
150.0000000000003
  0
ARC
  5
19B
330
4A
100
AcDbEntity
  8
0
  6
Continuous
 62
     3
100
AcDbCircle
 10
-237.5858796290777
 20
94.5055766904311
 30
0.0
 40
11.0000000000012
100
AcDbArc
 50
22.31478808107825
 51
30.00000000000437
  0
ARC
  5
19C
330
4A
100
AcDbEntity
  8
0
  6
Continuous
 62
     3
100
AcDbCircle
 10
-237.5858796290786
 20
94.50557669043371
 30
0.0
 40
8.000000000000785
100
AcDbArc
 50
22.31478808106074
 51
29.99999999998557
  0
ARC
  5
19D
330
4A
100
AcDbEntity
  8
0
  6
Continuous
 62
     7
100
AcDbCircle
 10
-237.5858796290731
 20
94.50557669042291
 30
0.0
 40
10.00000000000072
100
AcDbArc
 50
22.31478808113001
 51
30.00000000005998
  0
ARC
  5
19E
330
4A
100
AcDbEntity
  8
0
  6
Continuous
 62
     3
100
AcDbCircle
 10
-240.7065918338276
 20
99.91080878486014
 30
0.0
 40
7.999999999999872
100
AcDbArc
 50
30.00000000000018
 51
46.66780306927577
  0
ARC
  5
19F
330
4A
100
AcDbEntity
  8
0
  6
Continuous
 62
     3
100
AcDbCircle
 10
-261.2934081646927
 20
99.91080878486014
 30
0.0
 40
7.999999999999979
100
AcDbArc
 50
133.3321969307243
 51
150.0000000000001
  0
ARC
  5
1A0
330
4A
100
AcDbEntity
  8
0
  6
Continuous
 62
     7
100
AcDbCircle
 10
-261.2934081646927
 20
99.91080878486014
 30
0.0
 40
9.999999999999957
100
AcDbArc
 50
133.3321969307239
 51
150.0000000000002
  0
ARC
  5
1A1
330
4A
100
AcDbEntity
  8
0
  6
Continuous
 62
     7
100
AcDbCircle
 10
-240.7065918338258
 20
99.91080878485752
 30
0.0
 40
10.00000000000051
100
AcDbArc
 50
30.00000000001534
 51
46.66780306929351
  0
ARC
  5
1A2
330
4A
100
AcDbEntity
  8
0
  6
Continuous
 62
     3
100
AcDbCircle
 10
-240.7065918338276
 20
99.91080878486014
 30
0.0
 40
10.99999999999967
100
AcDbArc
 50
30.00000000000072
 51
46.66780306927749
  0
ARC
  5
1A3
330
4A
100
AcDbEntity
  8
0
  6
Continuous
 62
     3
100
AcDbCircle
 10
-264.4141203694426
 20
94.50557669043371
 30
0.0
 40
7.999999999999876
100
AcDbArc
 50
150.0000000000108
 51
157.6852119189361
  0
ARC
  5
1A4
330
4A
100
AcDbEntity
  8
0
  6
Continuous
 62
     7
100
AcDbCircle
 10
-264.4141203694426
 20
94.50557669043371
 30
0.0
 40
10.00000000000015
100
AcDbArc
 50
150.0000000000088
 51
157.6852119189341
  0
ARC
  5
1A5
330
4A
100
AcDbEntity
  8
0
  6
Continuous
 62
     3
100
AcDbCircle
 10
-536.9881857374608
 20
92.7308257923437
 30
0.0
 40
11.0000000000001
100
AcDbArc
 50
14.90981482056221
 51
29.99999999999965
  0
ARC
  5
1A6
330
4A
100
AcDbEntity
  8
0
  6
Continuous
 62
     3
100
AcDbCircle
 10
-264.4141203694435
 20
94.50557669043246
 30
0.0
 40
10.99999999999974
100
AcDbArc
 50
149.999999999999
 51
157.6852119189258
  0
ARC
  5
1A7
330
4A
100
AcDbEntity
  8
0
  6
Continuous
 62
     3
100
AcDbCircle
 10
-261.2934081646927
 20
99.91080878486014
 30
0.0
 40
11.00000000000013
100
AcDbArc
 50
133.3321969307263
 51
150.0000000000016
  0
ARC
  5
1A8
330
4A
100
AcDbEntity
  8
0
  6
Continuous
 62
     3
100
AcDbCircle
 10
-250.9999999992606
 20
88.99999999999886
 30
0.0
 40
22.99999999999963
100
AcDbArc
 50
226.6678030692765
 51
313.3321969307253
  0
ARC
  5
1A9
330
4A
100
AcDbEntity
  8
0
  6
Continuous
 62
     7
100
AcDbCircle
 10
-560.4317732486747
 20
77.33631047345477
 30
0.0
 40
9.999999999999583
100
AcDbArc
 50
210.0000000000006
 51
231.0394697813184
  0
ARC
  5
1AA
330
4A
100
AcDbEntity
  8
0
  6
Continuous
 62
     7
100
AcDbCircle
 10
-541.5682267498446
 20
77.33631047345477
 30
0.0
 40
9.999999999999805
100
AcDbArc
 50
308.9605302186812
 51
329.9999999999988
  0
ARC
  5
1AB
330
4A
100
AcDbEntity
  8
0
  6
Continuous
 62
     3
100
AcDbCircle
 10
-261.2934081646927
 20
78.08919121513759
 30
0.0
 40
11.00000000000046
100
AcDbArc
 50
209.9999999999986
 51
226.6678030692742
  0
ARC
  5
1AC
330
4A
100
AcDbEntity
  8
0
  6
Continuous
 62
     3
100
AcDbCircle
 10
-550.9999999992597
 20
88.9999999999992
 30
0.0
 40
23.00000000000032
100
AcDbArc
 50
231.0394697813161
 51
308.960530218682
  0
ARC
  5
1AD
330
4A
100
AcDbEntity
  8
0
  6
Continuous
 62
     3
100
AcDbCircle
 10
-541.5682267498437
 20
77.33631047345591
 30
0.0
 40
10.99999999999988
100
AcDbArc
 50
308.9605302186725
 51
329.9999999999929
  0
ARC
  5
1AE
330
4A
100
AcDbEntity
  8
0
  6
Continuous
 62
     3
100
AcDbCircle
 10
-550.9999999992597
 20
88.9999999999992
 30
0.0
 40
26.00000000000027
100
AcDbArc
 50
231.0394697813165
 51
308.9605302186819
  0
ARC
  5
1AF
330
4A
100
AcDbEntity
  8
0
  6
Continuous
 62
     7
100
AcDbCircle
 10
-550.9999999992597
 20
88.9999999999992
 30
0.0
 40
24.99999999999985
100
AcDbArc
 50
231.0394697813174
 51
308.9605302186824
  0
ARC
  5
1B0
330
4A
100
AcDbEntity
  8
0
  6
Continuous
 62
     7
100
AcDbCircle
 10
-250.9999999992606
 20
88.99999999999886
 30
0.0
 40
24.99999999999959
100
AcDbArc
 50
226.6678030692765
 51
313.3321969307253
  0
ARC
  5
1B1
330
4A
100
AcDbEntity
  8
0
  6
Continuous
 62
     3
100
AcDbCircle
 10
-550.9999999992597
 20
88.9999999999992
 30
0.0
 40
25.50000000000063
100
AcDbArc
 50
165.090185179437
 51
194.9098148205627
  0
ARC
  5
1B2
330
4A
100
AcDbEntity
  8
0
  6
Continuous
 62
     3
100
AcDbCircle
 10
-536.9881857374608
 20
92.7308257923437
 30
0.0
 40
8.000000000000723
100
AcDbArc
 50
14.9098148205612
 51
29.99999999999729
  0
ARC
  5
1B3
330
4A
100
AcDbEntity
  8
0
  6
Continuous
 62
     3
100
AcDbCircle
 10
-550.9999999992597
 20
88.9999999999992
 30
0.0
 40
22.49999999999978
100
AcDbArc
 50
345.0901851794378
 51
14.90981482056275
  0
ARC
  5
1B4
330
4A
100
AcDbEntity
  8
0
  6
Continuous
 62
     3
100
AcDbCircle
 10
-536.9881857374608
 20
85.26917420765483
 30
0.0
 40
8.000000000000655
100
AcDbArc
 50
330.0000000000027
 51
345.0901851794396
  0
ARC
  5
1B5
330
4A
100
AcDbEntity
  8
0
  6
Continuous
 62
     3
100
AcDbCircle
 10
-565.0118142610581
 20
92.73082579234642
 30
0.0
 40
8.000000000000531
100
AcDbArc
 50
150.0000000000238
 51
165.0901851794569
  0
ARC
  5
1B6
330
4A
100
AcDbEntity
  8
0
  6
Continuous
 62
     3
100
AcDbCircle
 10
-550.9999999992597
 20
88.9999999999992
 30
0.0
 40
22.4999999999999
100
AcDbArc
 50
165.0901851794367
 51
194.909814820563
  0
ARC
  5
1B7
330
4A
100
AcDbEntity
  8
0
  6
Continuous
 62
     7
100
AcDbCircle
 10
-565.011814261059
 20
92.73082579234494
 30
0.0
 40
10.00000000000065
100
AcDbArc
 50
150.0000000000097
 51
165.0901851794446
  0
ARC
  5
1B8
330
4A
100
AcDbEntity
  8
0
  6
Continuous
 62
     3
100
AcDbCircle
 10
-565.0118142610581
 20
85.26917420765153
 30
0.0
 40
8.000000000000371
100
AcDbArc
 50
194.9098148205391
 51
209.9999999999733
  0
ARC
  5
1B9
330
4A
100
AcDbEntity
  8
0
  6
Continuous
 62
     7
100
AcDbCircle
 10
-565.011814261059
 20
85.26917420765358
 30
0.0
 40
10.00000000000063
100
AcDbArc
 50
194.9098148205554
 51
209.9999999999903
  0
ARC
  5
1BA
330
4A
100
AcDbEntity
  8
0
  6
Continuous
 62
     3
100
AcDbCircle
 10
-565.0118142610604
 20
85.26917420765642
 30
0.0
 40
11.00000000000016
100
AcDbArc
 50
194.9098148205725
 51
210.0000000000102
  0
ARC
  5
1BB
330
4A
100
AcDbEntity
  8
0
  6
Continuous
 62
     3
100
AcDbCircle
 10
-565.01181426106
 20
92.73082579234199
 30
0.0
 40
11.00000000000063
100
AcDbArc
 50
149.999999999991
 51
165.0901851794275
  0
ARC
  5
1BC
330
4A
100
AcDbEntity
  8
0
  6
Continuous
 62
     7
100
AcDbCircle
 10
-550.9999999992597
 20
88.9999999999992
 30
0.0
 40
24.50000000000051
100
AcDbArc
 50
165.0901851794372
 51
194.9098148205625
  0
ARC
  5
1BD
330
4A
100
AcDbEntity
  8
0
  6
Continuous
 62
     7
100
AcDbCircle
 10
-536.9881857374608
 20
92.7308257923437
 30
0.0
 40
10.00000000000046
100
AcDbArc
 50
14.90981482056172
 51
29.99999999999859
  0
ARC
  5
1BE
330
4A
100
AcDbEntity
  8
0
  6
Continuous
 62
     3
100
AcDbCircle
 10
-250.9999999992606
 20
88.99999999999886
 30
0.0
 40
25.99999999999991
100
AcDbArc
 50
226.6678030692758
 51
313.3321969307244
  0
ENDBLK
  5
4C
330
4A
100
AcDbEntity
  8
0
100
AcDbBlockEnd
  0
BLOCK
  5
50
330
4D
100
AcDbEntity
  8
0
100
AcDbBlockBegin
  2
BG-531-Unterbauelement-20mm__3
 70
     0
 10
-700.9999999992597
 20
1.49999999999795
 30
0.0
  3
BG-531-Unterbauelement-20mm__3
  1

  0
INSERT
  5
4E
330
4D
100
AcDbEntity
  8
0
100
AcDbBlockReference
  2
531-Hartschaum-Distanzelement-20mm_1__1
 10
-100.9999999992606
 20
1.49999999999795
 30
0.0
  0
INSERT
  5
4F
330
4D
100
AcDbEntity
  8
0
100
AcDbBlockReference
  2
531-Hartschaum-Distanzelement-20mm__2
 10
-700.9999999992597
 20
1.49999999999795
 30
0.0
  0
ENDBLK
  5
51
330
4D
100
AcDbEntity
  8
0
100
AcDbBlockEnd
  0
BLOCK
  5
54
330
52
100
AcDbEntity
  8
0
100
AcDbBlockBegin
  2
HL531U-Zeichnung-WEB__4
 70
     0
 10
-700.9999999992597
 20
1.49999999999795
 30
0.0
  3
HL531U-Zeichnung-WEB__4
  1

  0
INSERT
  5
53
330
52
100
AcDbEntity
  8
0
100
AcDbBlockReference
  2
BG-531-Unterbauelement-20mm__3
 10
-700.9999999992597
 20
1.49999999999795
 30
0.0
  0
ENDBLK
  5
55
330
52
100
AcDbEntity
  8
0
100
AcDbBlockEnd
  0
BLOCK
  5
58
330
56
100
AcDbEntity
  8
0
100
AcDbBlockBegin
  2
Vordans3
 70
     0
 10
-100.9999999999955
 20
89.00000000000045
 30
0.0
  3
Vordans3
  1

  0
INSERT
  5
57
330
56
100
AcDbEntity
  8
0
100
AcDbBlockReference
  2
HL531U-Zeichnung-WEB__4
 10
-700.9999999992597
 20
1.49999999999795
 30
0.0
  0
MTEXT
  5
1C0
330
56
100
AcDbEntity
  8
1
 62
     1
100
AcDbMText
 10
-100.9999999992601
 20
-3.50000000000046
 30
0.0
 40
3.5
 41
0.0
 71
     2
 72
     1
  1
 
  7
CONVERTER_11
 73
     1
 44
1.32052821128451
  0
DIMENSION
  5
1CB
330
56
100
AcDbEntity
  8
1
100
AcDbDimension
  2
*D11
 10
-700.9999999992597
 20
-60.4352532122988
 30
0.0
 11
-406.73327907596
 21
-45.4352532122988
 31
0.0
 70
    32
  1
<>
 71
     5
 42
-1.0
 53
0.00013888888889
  3
ME10_DIM_10
100
AcDbAlignedDimension
 13
-100.9999999992606
 23
1.49999999999795
 33
0.0
 14
-700.9999999992597
 24
1.49999999999795
 34
0.0
100
AcDbRotatedDimension
  0
DIMENSION
  5
1D6
330
56
100
AcDbEntity
  8
1
100
AcDbDimension
  2
*D12
 10
-100.9999999992606
 20
-60.4352532122988
 30
0.0
 11
181.245482553605
 21
-45.4352532122988
 31
0.0
 70
    32
  1
<>
 71
     5
 42
-1.0
 53
0.00013888888889
  3
ME10_DIM_11
100
AcDbAlignedDimension
 13
499.0000000007394
 23
1.49999999999909
 33
0.0
 14
-100.9999999992606
 24
1.49999999999795
 34
0.0
100
AcDbRotatedDimension
  0
DIMENSION
  5
1E1
330
56
100
AcDbEntity
  8
1
100
AcDbDimension
  2
*D13
 10
557.264266813222
 20
1.49999999999909
 30
0.0
 11
542.264266813222
 21
96.8301423120172
 31
0.0
 70
    32
  1
<>
 71
     5
 42
-1.0
 53
90.0
  3
ME10_DIM_12
100
AcDbAlignedDimension
 13
499.0000000007394
 23
186.5000000000018
 33
0.0
 14
499.0000000007394
 24
1.49999999999909
 34
0.0
 50
90.0
100
AcDbRotatedDimension
  0
ENDBLK
  5
59
330
56
100
AcDbEntity
  8
0
100
AcDbBlockEnd
  0
BLOCK
  5
5B
330
5A
100
AcDbEntity
  8
0
100
AcDbBlockBegin
  2
531-Hartschaum-Distanzelement-20mm_1__5
 70
     0
 10
-100.9999999985203
 20
248.9999999996527
 30
0.0
  3
531-Hartschaum-Distanzelement-20mm_1__5
  1

  0
LINE
  5
1E2
330
5A
100
AcDbEntity
  8
0
  6
Continuous
 62
     7
100
AcDbLine
 10
369.8150143690045
 20
277.9999999996527
 30
0.0
 11
371.5000000014798
 21
277.9999999996527
 31
0.0
  0
LINE
  5
1E3
330
5A
100
AcDbEntity
  8
0
  6
Continuous
 62
     7
100
AcDbLine
 10
369.342323601938
 20
277.9999999996527
 30
0.0
 11
369.8150143690045
 21
277.9999999996527
 31
0.0
  0
LINE
  5
1E4
330
5A
100
AcDbEntity
  8
0
  6
Continuous
 62
     7
100
AcDbLine
 10
366.2216113971881
 20
277.9999999996527
 30
0.0
 11
364.7832258551434
 21
277.9999999996527
 31
0.0
  0
LINE
  5
1E5
330
5A
100
AcDbEntity
  8
0
  6
Continuous
 62
     7
100
AcDbLine
 10
366.2216113971881
 20
277.9999999996527
 30
0.0
 11
369.342323601938
 21
277.9999999996527
 31
0.0
  0
LINE
  5
1E6
330
5A
100
AcDbEntity
  8
0
  6
Continuous
 62
     7
100
AcDbLine
 10
364.7832258551434
 20
277.9999999996527
 30
0.0
 11
333.2167741478161
 21
277.9999999996527
 31
0.0
  0
LINE
  5
1E7
330
5A
100
AcDbEntity
  8
0
  6
Continuous
 62
     7
100
AcDbLine
 10
333.2167741478161
 20
277.9999999996527
 30
0.0
 11
331.7783886057714
 21
277.9999999996527
 31
0.0
  0
LINE
  5
1E8
330
5A
100
AcDbEntity
  8
0
  6
Continuous
 62
     7
100
AcDbLine
 10
328.6576764010215
 20
277.9999999996527
 30
0.0
 11
328.184985633955
 21
277.9999999996527
 31
0.0
  0
LINE
  5
1E9
330
5A
100
AcDbEntity
  8
0
  6
Continuous
 62
     7
100
AcDbLine
 10
328.184985633955
 20
277.9999999996527
 30
0.0
 11
326.5000000014798
 21
277.9999999996527
 31
0.0
  0
LINE
  5
1EA
330
5A
100
AcDbEntity
  8
0
  6
Continuous
 62
     7
100
AcDbLine
 10
328.6576764010215
 20
277.9999999996527
 30
0.0
 11
331.7783886057714
 21
277.9999999996527
 31
0.0
  0
LINE
  5
1EB
330
5A
100
AcDbEntity
  8
0
  6
Continuous
 62
     7
100
AcDbLine
 10
70.74247040772207
 20
277.9999999996527
 30
0.0
 11
71.50000000147975
 21
277.9999999996527
 31
0.0
  0
LINE
  5
1EC
330
5A
100
AcDbEntity
  8
0
  6
Continuous
 62
     7
100
AcDbLine
 10
34.53794768571061
 20
277.9999999996527
 30
0.0
 11
32.64002352178977
 21
277.9999999996527
 31
0.0
  0
LINE
  5
1ED
330
5A
100
AcDbEntity
  8
0
  6
Continuous
 62
     7
100
AcDbLine
 10
65.35997648117063
 20
277.9999999996527
 30
0.0
 11
63.4620523172498
 21
277.9999999996527
 31
0.0
  0
LINE
  5
1EE
330
5A
100
AcDbEntity
  8
0
  6
Continuous
 62
     7
100
AcDbLine
 10
63.4620523172498
 20
277.9999999996527
 30
0.0
 11
34.53794768571061
 21
277.9999999996527
 31
0.0
  0
LINE
  5
1EF
330
5A
100
AcDbEntity
  8
0
  6
Continuous
 62
     7
100
AcDbLine
 10
28.05998250940502
 20
277.9999999996527
 30
0.0
 11
32.64002352178977
 21
277.9999999996527
 31
0.0
  0
LINE
  5
1F0
330
5A
100
AcDbEntity
  8
0
  6
Continuous
 62
     7
100
AcDbLine
 10
69.94001749355539
 20
277.9999999996527
 30
0.0
 11
70.74247040772207
 21
277.9999999996527
 31
0.0
  0
LINE
  5
1F1
330
5A
100
AcDbEntity
  8
0
  6
Continuous
 62
     7
100
AcDbLine
 10
65.35997648117063
 20
277.9999999996527
 30
0.0
 11
69.94001749355539
 21
277.9999999996527
 31
0.0
  0
LINE
  5
1F2
330
5A
100
AcDbEntity
  8
0
  6
Continuous
 62
     7
100
AcDbLine
 10
27.25752959523925
 20
277.9999999996527
 30
0.0
 11
26.50000000147975
 21
277.9999999996527
 31
0.0
  0
LINE
  5
1F3
330
5A
100
AcDbEntity
  8
0
  6
Continuous
 62
     7
100
AcDbLine
 10
28.05998250940502
 20
277.9999999996527
 30
0.0
 11
27.25752959523925
 21
277.9999999996527
 31
0.0
  0
LINE
  5
1F4
330
5A
100
AcDbEntity
  8
0
  6
Continuous
 62
     7
100
AcDbLine
 10
-100.9999999985203
 20
248.9999999996527
 30
0.0
 11
499.0000000014798
 21
248.9999999996527
 31
0.0
  0
LINE
  5
1F5
330
5A
100
AcDbEntity
  8
0
  6
Continuous
 62
     7
100
AcDbLine
 10
499.0000000014798
 20
268.9999999996527
 30
0.0
 11
499.0000000014798
 21
248.9999999996527
 31
0.0
  0
LINE
  5
1F6
330
5A
100
AcDbEntity
  8
0
  6
Continuous
 62
     7
100
AcDbLine
 10
-100.9999999985203
 20
268.9999999996527
 30
0.0
 11
-100.9999999985203
 21
248.9999999996527
 31
0.0
  0
LINE
  5
1F7
330
5A
100
AcDbEntity
  8
0
  6
Continuous
 62
     7
100
AcDbLine
 10
374.5000000014798
 20
268.9999999996527
 30
0.0
 11
499.0000000014798
 21
268.9999999996527
 31
0.0
  0
LINE
  5
1F8
330
5A
100
AcDbEntity
  8
0
  6
Continuous
 62
     7
100
AcDbLine
 10
373.5000000014798
 20
269.9999999996527
 30
0.0
 11
373.5000000014798
 21
275.9999999996527
 31
0.0
  0
LINE
  5
1F9
330
5A
100
AcDbEntity
  8
0
  6
Continuous
 62
     3
100
AcDbLine
 10
371.6652378683402
 20
275.9999999996527
 30
0.0
 11
373.5000000014798
 21
275.9999999996527
 31
0.0
  0
LINE
  5
1FA
330
5A
100
AcDbEntity
  8
0
  6
Continuous
 62
     7
100
AcDbLine
 10
372.5903496180081
 20
268.9999999996527
 30
0.0
 11
374.5000000014798
 21
268.9999999996527
 31
0.0
  0
LINE
  5
1FB
330
5A
100
AcDbEntity
  8
0
  6
Continuous
 62
     7
100
AcDbLine
 10
371.9403998132921
 20
268.9999999996527
 30
0.0
 11
372.5903496180081
 21
268.9999999996527
 31
0.0
  0
LINE
  5
1FC
330
5A
100
AcDbEntity
  8
0
  6
Continuous
 62
     3
100
AcDbLine
 10
371.6652378683402
 20
269.9999999996527
 30
0.0
 11
373.5000000014798
 21
269.9999999996527
 31
0.0
  0
LINE
  5
1FD
330
5A
100
AcDbEntity
  8
0
  6
Continuous
 62
     3
100
AcDbLine
 10
371.0743744095071
 20
275.9999999996527
 30
0.0
 11
371.6652378683402
 21
275.9999999996527
 31
0.0
  0
LINE
  5
1FE
330
5A
100
AcDbEntity
  8
0
  6
Continuous
 62
     3
100
AcDbLine
 10
371.0743744095071
 20
269.9999999996527
 30
0.0
 11
371.0743744095071
 21
275.9999999996527
 31
0.0
  0
LINE
  5
1FF
330
5A
100
AcDbEntity
  8
0
  6
Continuous
 62
     3
100
AcDbLine
 10
371.6652378683402
 20
269.9999999996527
 30
0.0
 11
371.6652378683402
 21
275.9999999996527
 31
0.0
  0
LINE
  5
200
330
5A
100
AcDbEntity
  8
0
  6
Continuous
 62
     3
100
AcDbLine
 10
367.9536622047581
 20
275.9999999996527
 30
0.0
 11
366.1556802772011
 21
275.9999999996527
 31
0.0
  0
LINE
  5
201
330
5A
100
AcDbEntity
  8
0
  6
Continuous
 62
     3
100
AcDbLine
 10
371.0743744095071
 20
275.9999999996527
 30
0.0
 11
367.9536622047581
 21
275.9999999996527
 31
0.0
  0
LINE
  5
202
330
5A
100
AcDbEntity
  8
0
  6
Continuous
 62
     3
100
AcDbLine
 10
367.9536622047581
 20
269.9999999996527
 30
0.0
 11
367.9536622047581
 21
275.9999999996527
 31
0.0
  0
LINE
  5
203
330
5A
100
AcDbEntity
  8
0
  6
Continuous
 62
     7
100
AcDbLine
 10
368.8196876085412
 20
268.9999999996527
 30
0.0
 11
371.9403998132921
 21
268.9999999996527
 31
0.0
  0
LINE
  5
204
330
5A
100
AcDbEntity
  8
0
  6
Continuous
 62
     7
100
AcDbLine
 10
366.8419074882295
 20
268.9999999996527
 30
0.0
 11
368.8196876085412
 21
268.9999999996527
 31
0.0
  0
LINE
  5
205
330
5A
100
AcDbEntity
  8
0
  6
Continuous
 62
     3
100
AcDbLine
 10
367.9536622047581
 20
269.9999999996527
 30
0.0
 11
366.1556802772011
 21
269.9999999996527
 31
0.0
  0
LINE
  5
206
330
5A
100
AcDbEntity
  8
0
  6
Continuous
 62
     3
100
AcDbLine
 10
371.0743744095071
 20
269.9999999996527
 30
0.0
 11
371.6652378683402
 21
269.9999999996527
 31
0.0
  0
LINE
  5
207
330
5A
100
AcDbEntity
  8
0
  6
Continuous
 62
     3
100
AcDbLine
 10
371.0743744095071
 20
269.9999999996527
 30
0.0
 11
367.9536622047581
 21
269.9999999996527
 31
0.0
  0
LINE
  5
208
330
5A
100
AcDbEntity
  8
0
  6
Continuous
 62
     3
100
AcDbLine
 10
326.3347621346193
 20
275.9999999996527
 30
0.0
 11
324.5000000014798
 21
275.9999999996527
 31
0.0
  0
LINE
  5
209
330
5A
100
AcDbEntity
  8
0
  6
Continuous
 62
     3
100
AcDbLine
 10
326.3347621346193
 20
269.9999999996527
 30
0.0
 11
324.5000000014798
 21
269.9999999996527
 31
0.0
  0
LINE
  5
20A
330
5A
100
AcDbEntity
  8
0
  6
Continuous
 62
     7
100
AcDbLine
 10
324.5000000014798
 20
275.9999999996527
 30
0.0
 11
324.5000000014798
 21
269.9999999996527
 31
0.0
  0
LINE
  5
20B
330
5A
100
AcDbEntity
  8
0
  6
Continuous
 62
     7
100
AcDbLine
 10
326.0596001896683
 20
268.9999999996527
 30
0.0
 11
329.1803123944183
 21
268.9999999996527
 31
0.0
  0
LINE
  5
20C
330
5A
100
AcDbEntity
  8
0
  6
Continuous
 62
     3
100
AcDbLine
 10
366.1556802772011
 20
269.9999999996527
 30
0.0
 11
331.8443197257584
 21
269.9999999996527
 31
0.0
  0
LINE
  5
20D
330
5A
100
AcDbEntity
  8
0
  6
Continuous
 62
     7
100
AcDbLine
 10
331.15809251473
 20
268.9999999996527
 30
0.0
 11
366.8419074882295
 21
268.9999999996527
 31
0.0
  0
LINE
  5
20E
330
5A
100
AcDbEntity
  8
0
  6
Continuous
 62
     7
100
AcDbLine
 10
73.64146646188692
 20
268.9999999996527
 30
0.0
 11
74.50000000147975
 21
268.9999999996527
 31
0.0
  0
LINE
  5
20F
330
5A
100
AcDbEntity
  8
0
  6
Continuous
 62
     7
100
AcDbLine
 10
74.50000000147975
 20
268.9999999996527
 30
0.0
 11
323.5000000014798
 21
268.9999999996527
 31
0.0
  0
LINE
  5
210
330
5A
100
AcDbEntity
  8
0
  6
Continuous
 62
     7
100
AcDbLine
 10
323.5000000014798
 20
268.9999999996527
 30
0.0
 11
325.4096503849514
 21
268.9999999996527
 31
0.0
  0
LINE
  5
211
330
5A
100
AcDbEntity
  8
0
  6
Continuous
 62
     3
100
AcDbLine
 10
331.8443197257584
 20
269.9999999996527
 30
0.0
 11
330.0463377982032
 21
269.9999999996527
 31
0.0
  0
LINE
  5
212
330
5A
100
AcDbEntity
  8
0
  6
Continuous
 62
     3
100
AcDbLine
 10
331.8443197257584
 20
275.9999999996527
 30
0.0
 11
330.0463377982032
 21
275.9999999996527
 31
0.0
  0
LINE
  5
213
330
5A
100
AcDbEntity
  8
0
  6
Continuous
 62
     7
100
AcDbLine
 10
329.1803123944183
 20
268.9999999996527
 30
0.0
 11
331.15809251473
 21
268.9999999996527
 31
0.0
  0
LINE
  5
214
330
5A
100
AcDbEntity
  8
0
  6
Continuous
 62
     3
100
AcDbLine
 10
330.0463377982032
 20
269.9999999996527
 30
0.0
 11
330.0463377982032
 21
275.9999999996527
 31
0.0
  0
LINE
  5
215
330
5A
100
AcDbEntity
  8
0
  6
Continuous
 62
     3
100
AcDbLine
 10
331.8443197257584
 20
269.9999999996527
 30
0.0
 11
331.8443197257584
 21
275.9999999996527
 31
0.0
  0
LINE
  5
216
330
5A
100
AcDbEntity
  8
0
  6
Continuous
 62
     3
100
AcDbLine
 10
366.1556802772011
 20
269.9999999996527
 30
0.0
 11
366.1556802772011
 21
275.9999999996527
 31
0.0
  0
LINE
  5
217
330
5A
100
AcDbEntity
  8
0
  6
Continuous
 62
     3
100
AcDbLine
 10
330.0463377982032
 20
269.9999999996527
 30
0.0
 11
326.9256255934524
 21
269.9999999996527
 31
0.0
  0
LINE
  5
218
330
5A
100
AcDbEntity
  8
0
  6
Continuous
 62
     3
100
AcDbLine
 10
326.9256255934524
 20
275.9999999996527
 30
0.0
 11
330.0463377982032
 21
275.9999999996527
 31
0.0
  0
LINE
  5
219
330
5A
100
AcDbEntity
  8
0
  6
Continuous
 62
     3
100
AcDbLine
 10
366.1556802772011
 20
275.9999999996527
 30
0.0
 11
331.8443197257584
 21
275.9999999996527
 31
0.0
  0
LINE
  5
21A
330
5A
100
AcDbEntity
  8
0
  6
Continuous
 62
     7
100
AcDbLine
 10
325.4096503849514
 20
268.9999999996527
 30
0.0
 11
326.0596001896683
 21
268.9999999996527
 31
0.0
  0
LINE
  5
21B
330
5A
100
AcDbEntity
  8
0
  6
Continuous
 62
     3
100
AcDbLine
 10
326.3347621346193
 20
269.9999999996527
 30
0.0
 11
326.3347621346193
 21
275.9999999996527
 31
0.0
  0
LINE
  5
21C
330
5A
100
AcDbEntity
  8
0
  6
Continuous
 62
     3
100
AcDbLine
 10
326.9256255934524
 20
275.9999999996527
 30
0.0
 11
326.3347621346193
 21
275.9999999996527
 31
0.0
  0
LINE
  5
21D
330
5A
100
AcDbEntity
  8
0
  6
Continuous
 62
     3
100
AcDbLine
 10
326.9256255934524
 20
269.9999999996527
 30
0.0
 11
326.3347621346193
 21
269.9999999996527
 31
0.0
  0
LINE
  5
21E
330
5A
100
AcDbEntity
  8
0
  6
Continuous
 62
     3
100
AcDbLine
 10
326.9256255934524
 20
269.9999999996527
 30
0.0
 11
326.9256255934524
 21
275.9999999996527
 31
0.0
  0
LINE
  5
21F
330
5A
100
AcDbEntity
  8
0
  6
Continuous
 62
     3
100
AcDbLine
 10
72.67513444383167
 20
275.9999999996527
 30
0.0
 11
73.50000000147975
 21
275.9999999996527
 31
0.0
  0
LINE
  5
220
330
5A
100
AcDbEntity
  8
0
  6
Continuous
 62
     7
100
AcDbLine
 10
73.50000000147975
 20
269.9999999996527
 30
0.0
 11
73.50000000147975
 21
275.9999999996527
 31
0.0
  0
LINE
  5
221
330
5A
100
AcDbEntity
  8
0
  6
Continuous
 62
     7
100
AcDbLine
 10
72.53809370490853
 20
268.9999999996527
 30
0.0
 11
73.64146646188692
 21
268.9999999996527
 31
0.0
  0
LINE
  5
222
330
5A
100
AcDbEntity
  8
0
  6
Continuous
 62
     7
100
AcDbLine
 10
67.95805269252378
 20
268.9999999996527
 30
0.0
 11
72.53809370490853
 21
268.9999999996527
 31
0.0
  0
LINE
  5
223
330
5A
100
AcDbEntity
  8
0
  6
Continuous
 62
     3
100
AcDbLine
 10
72.67513444383167
 20
269.9999999996527
 30
0.0
 11
73.50000000147975
 21
269.9999999996527
 31
0.0
  0
LINE
  5
224
330
5A
100
AcDbEntity
  8
0
  6
Continuous
 62
     7
100
AcDbLine
 10
65.34840696713309
 20
268.9999999996527
 30
0.0
 11
67.95805269252378
 21
268.9999999996527
 31
0.0
  0
LINE
  5
225
330
5A
100
AcDbEntity
  8
0
  6
Continuous
 62
     7
100
AcDbLine
 10
30.04194731043663
 20
268.9999999996527
 30
0.0
 11
32.65159303582732
 21
268.9999999996527
 31
0.0
  0
LINE
  5
226
330
5A
100
AcDbEntity
  8
0
  6
Continuous
 62
     7
100
AcDbLine
 10
32.65159303582732
 20
268.9999999996527
 30
0.0
 11
65.34840696713309
 21
268.9999999996527
 31
0.0
  0
LINE
  5
227
330
5A
100
AcDbEntity
  8
0
  6
Continuous
 62
     7
100
AcDbLine
 10
25.46190629805187
 20
268.9999999996527
 30
0.0
 11
30.04194731043663
 21
268.9999999996527
 31
0.0
  0
LINE
  5
228
330
5A
100
AcDbEntity
  8
0
  6
Continuous
 62
     7
100
AcDbLine
 10
24.35853354107348
 20
268.9999999996527
 30
0.0
 11
25.46190629805187
 21
268.9999999996527
 31
0.0
  0
LINE
  5
229
330
5A
100
AcDbEntity
  8
0
  6
Continuous
 62
     7
100
AcDbLine
 10
23.50000000147975
 20
268.9999999996527
 30
0.0
 11
24.35853354107348
 21
268.9999999996527
 31
0.0
  0
LINE
  5
22A
330
5A
100
AcDbEntity
  8
0
  6
Continuous
 62
     7
100
AcDbLine
 10
-100.9999999985203
 20
268.9999999996527
 30
0.0
 11
23.50000000147975
 21
268.9999999996527
 31
0.0
  0
LINE
  5
22B
330
5A
100
AcDbEntity
  8
0
  6
Continuous
 62
     3
100
AcDbLine
 10
72.67513444383167
 20
269.9999999996527
 30
0.0
 11
72.67513444383167
 21
275.9999999996527
 31
0.0
  0
LINE
  5
22C
330
5A
100
AcDbEntity
  8
0
  6
Continuous
 62
     3
100
AcDbLine
 10
71.67206830112445
 20
275.9999999996527
 30
0.0
 11
72.67513444383167
 21
275.9999999996527
 31
0.0
  0
LINE
  5
22D
330
5A
100
AcDbEntity
  8
0
  6
Continuous
 62
     3
100
AcDbLine
 10
71.67206830112445
 20
269.9999999996527
 30
0.0
 11
72.67513444383167
 21
269.9999999996527
 31
0.0
  0
LINE
  5
22E
330
5A
100
AcDbEntity
  8
0
  6
Continuous
 62
     3
100
AcDbLine
 10
71.67206830112445
 20
269.9999999996527
 30
0.0
 11
67.0920272887397
 21
269.9999999996527
 31
0.0
  0
LINE
  5
22F
330
5A
100
AcDbEntity
  8
0
  6
Continuous
 62
     7
100
AcDbLine
 10
24.50000000147975
 20
275.9999999996527
 30
0.0
 11
24.50000000147975
 21
269.9999999996527
 31
0.0
  0
LINE
  5
230
330
5A
100
AcDbEntity
  8
0
  6
Continuous
 62
     3
100
AcDbLine
 10
67.0920272887397
 20
269.9999999996527
 30
0.0
 11
64.71962208383775
 21
269.9999999996527
 31
0.0
  0
LINE
  5
231
330
5A
100
AcDbEntity
  8
0
  6
Continuous
 62
     3
100
AcDbLine
 10
64.71962208383775
 20
275.9999999996527
 30
0.0
 11
64.71962208383775
 21
269.9999999996527
 31
0.0
  0
LINE
  5
232
330
5A
100
AcDbEntity
  8
0
  6
Continuous
 62
     3
100
AcDbLine
 10
71.67206830112445
 20
269.9999999996527
 30
0.0
 11
71.67206830112445
 21
275.9999999996527
 31
0.0
  0
LINE
  5
233
330
5A
100
AcDbEntity
  8
0
  6
Continuous
 62
     3
100
AcDbLine
 10
25.32486555912874
 20
269.9999999996527
 30
0.0
 11
24.50000000147975
 21
269.9999999996527
 31
0.0
  0
LINE
  5
234
330
5A
100
AcDbEntity
  8
0
  6
Continuous
 62
     3
100
AcDbLine
 10
30.90797271422071
 20
275.9999999996527
 30
0.0
 11
30.90797271422071
 21
269.9999999996527
 31
0.0
  0
LINE
  5
235
330
5A
100
AcDbEntity
  8
0
  6
Continuous
 62
     3
100
AcDbLine
 10
26.32793170183595
 20
269.9999999996527
 30
0.0
 11
25.32486555912874
 21
269.9999999996527
 31
0.0
  0
LINE
  5
236
330
5A
100
AcDbEntity
  8
0
  6
Continuous
 62
     3
100
AcDbLine
 10
30.90797271422071
 20
269.9999999996527
 30
0.0
 11
26.32793170183595
 21
269.9999999996527
 31
0.0
  0
LINE
  5
237
330
5A
100
AcDbEntity
  8
0
  6
Continuous
 62
     3
100
AcDbLine
 10
33.28037791912175
 20
269.9999999996527
 30
0.0
 11
30.90797271422071
 21
269.9999999996527
 31
0.0
  0
LINE
  5
238
330
5A
100
AcDbEntity
  8
0
  6
Continuous
 62
     3
100
AcDbLine
 10
25.32486555912874
 20
275.9999999996527
 30
0.0
 11
25.32486555912874
 21
269.9999999996527
 31
0.0
  0
LINE
  5
239
330
5A
100
AcDbEntity
  8
0
  6
Continuous
 62
     3
100
AcDbLine
 10
26.32793170183595
 20
275.9999999996527
 30
0.0
 11
26.32793170183595
 21
269.9999999996527
 31
0.0
  0
LINE
  5
23A
330
5A
100
AcDbEntity
  8
0
  6
Continuous
 62
     3
100
AcDbLine
 10
33.28037791912175
 20
275.9999999996527
 30
0.0
 11
33.28037791912175
 21
269.9999999996527
 31
0.0
  0
LINE
  5
23B
330
5A
100
AcDbEntity
  8
0
  6
Continuous
 62
     3
100
AcDbLine
 10
25.32486555912874
 20
275.9999999996527
 30
0.0
 11
24.50000000147975
 21
275.9999999996527
 31
0.0
  0
LINE
  5
23C
330
5A
100
AcDbEntity
  8
0
  6
Continuous
 62
     3
100
AcDbLine
 10
33.28037791912175
 20
275.9999999996527
 30
0.0
 11
30.90797271422071
 21
275.9999999996527
 31
0.0
  0
LINE
  5
23D
330
5A
100
AcDbEntity
  8
0
  6
Continuous
 62
     3
100
AcDbLine
 10
26.32793170183595
 20
275.9999999996527
 30
0.0
 11
25.32486555912874
 21
275.9999999996527
 31
0.0
  0
LINE
  5
23E
330
5A
100
AcDbEntity
  8
0
  6
Continuous
 62
     3
100
AcDbLine
 10
30.90797271422071
 20
275.9999999996527
 30
0.0
 11
26.32793170183595
 21
275.9999999996527
 31
0.0
  0
LINE
  5
23F
330
5A
100
AcDbEntity
  8
0
  6
Continuous
 62
     3
100
AcDbLine
 10
67.0920272887397
 20
275.9999999996527
 30
0.0
 11
64.71962208383775
 21
275.9999999996527
 31
0.0
  0
LINE
  5
240
330
5A
100
AcDbEntity
  8
0
  6
Continuous
 62
     3
100
AcDbLine
 10
71.67206830112445
 20
275.9999999996527
 30
0.0
 11
67.0920272887397
 21
275.9999999996527
 31
0.0
  0
LINE
  5
241
330
5A
100
AcDbEntity
  8
0
  6
Continuous
 62
     3
100
AcDbLine
 10
67.0920272887397
 20
275.9999999996527
 30
0.0
 11
67.0920272887397
 21
269.9999999996527
 31
0.0
  0
LINE
  5
242
330
5A
100
AcDbEntity
  8
0
  6
Continuous
 62
     3
100
AcDbLine
 10
64.71962208383775
 20
275.9999999996527
 30
0.0
 11
33.28037791912175
 21
275.9999999996527
 31
0.0
  0
LINE
  5
243
330
5A
100
AcDbEntity
  8
0
  6
Continuous
 62
     3
100
AcDbLine
 10
64.71962208383775
 20
269.9999999996527
 30
0.0
 11
33.28037791912175
 21
269.9999999996527
 31
0.0
  0
ARC
  5
244
330
5A
100
AcDbEntity
  8
0
  6
Continuous
 62
     7
100
AcDbCircle
 10
26.50000000147975
 20
275.9999999996527
 30
0.0
 40
2.0
100
AcDbArc
 50
90.0
 51
180.0
  0
ARC
  5
245
330
5A
100
AcDbEntity
  8
0
  6
Continuous
 62
     7
100
AcDbCircle
 10
71.50000000147975
 20
275.9999999996527
 30
0.0
 40
2.0
100
AcDbArc
 50
0.0
 51
90.0
  0
ARC
  5
246
330
5A
100
AcDbEntity
  8
0
  6
Continuous
 62
     7
100
AcDbCircle
 10
326.5000000014798
 20
275.9999999996527
 30
0.0
 40
2.0
100
AcDbArc
 50
90.0
 51
180.0
  0
ARC
  5
247
330
5A
100
AcDbEntity
  8
0
  6
Continuous
 62
     7
100
AcDbCircle
 10
371.5000000014798
 20
275.9999999996527
 30
0.0
 40
2.0
100
AcDbArc
 50
0.0
 51
90.0
  0
ARC
  5
248
330
5A
100
AcDbEntity
  8
0
  6
Continuous
 62
     7
100
AcDbCircle
 10
74.50000000147975
 20
269.9999999996527
 30
0.0
 40
1.0
100
AcDbArc
 50
180.0
 51
270.0
  0
ARC
  5
249
330
5A
100
AcDbEntity
  8
0
  6
Continuous
 62
     7
100
AcDbCircle
 10
23.50000000147975
 20
269.9999999996527
 30
0.0
 40
1.0
100
AcDbArc
 50
270.0
 51
0.0
  0
ARC
  5
24A
330
5A
100
AcDbEntity
  8
0
  6
Continuous
 62
     7
100
AcDbCircle
 10
323.5000000014798
 20
269.9999999996527
 30
0.0
 40
1.0
100
AcDbArc
 50
270.0
 51
0.0
  0
ARC
  5
24B
330
5A
100
AcDbEntity
  8
0
  6
Continuous
 62
     7
100
AcDbCircle
 10
374.5000000014798
 20
269.9999999996527
 30
0.0
 40
1.0
100
AcDbArc
 50
180.0
 51
270.0
  0
SPLINE
  5
24C
330
5A
100
AcDbEntity
  8
0
  6
Continuous
 62
     3
100
AcDbSpline
210
0.0
220
0.0
230
1.0
 70
     8
 71
     3
 72
    13
 73
     9
 74
     7
 42
0.000000001
 43
0.0000000001
 44
0.00000001
 40
0.0
 40
0.0
 40
0.0
 40
0.0
 40
0.4534380352480581
 40
0.9164985361496754
 40
1.39576899611646
 40
1.893099999102073
 40
2.405558068106673
 40
2.926549670764894
 40
2.926549670764894
 40
2.926549670764894
 40
2.926549670764894
 10
369.342323601938
 20
277.9999999996527
 30
0.0
 10
369.4940217620873
 20
277.9865038450957
 30
0.0
 10
369.8006372859435
 20
277.9592251183453
 30
0.0
 10
370.2252429182004
 20
277.7455865358421
 30
0.0
 10
370.587514794434
 20
277.4238931467027
 30
0.0
 10
370.8615425814962
 20
277.0043291770536
 30
0.0
 10
371.040534730676
 20
276.5193165125953
 30
0.0
 10
371.0630325973057
 20
276.1740558148834
 30
0.0
 10
371.0743744095071
 20
275.9999999996527
 30
0.0
 11
369.342323601938
 21
277.9999999996527
 31
0.0
 11
369.7906112185063
 21
277.931851137188
 31
0.0
 11
370.208349005723
 21
277.7320508072216
 31
0.0
 11
370.5670681468059
 21
277.4142131849883
 31
0.0
 11
370.842323601938
 21
276.9999999996527
 31
0.0
 11
371.0153557633735
 21
276.5176379518524
 31
0.0
 11
371.0743744095071
 21
275.9999999996527
 31
0.0
  0
SPLINE
  5
24D
330
5A
100
AcDbEntity
  8
0
  6
Continuous
 62
     3
100
AcDbSpline
210
0.0
220
0.0
230
1.0
 70
     8
 71
     3
 72
    13
 73
     9
 74
     7
 42
0.000000001
 43
0.0000000001
 44
0.00000001
 40
0.0
 40
0.0
 40
0.0
 40
0.0
 40
0.4836978073122936
 40
0.9726244212013675
 40
1.470477811652344
 40
1.978443686020911
 40
2.495007422292838
 40
3.016470517905743
 40
3.016470517905743
 40
3.016470517905743
 40
3.016470517905743
 10
369.8150143690045
 20
277.9999999996527
 30
0.0
 10
369.9767774379516
 20
277.9866180633492
 30
0.0
 10
370.3020522436864
 20
277.9597095169275
 30
0.0
 10
370.7546014986052
 20
277.7478443643306
 30
0.0
 10
371.1422544301823
 20
277.4270970904572
 30
0.0
 10
371.436299559907
 20
277.007417977566
 30
0.0
 10
371.6288069451512
 20
276.5211455143698
 30
0.0
 10
371.6530560811096
 20
276.1742609227289
 30
0.0
 10
371.6652378683402
 20
275.9999999996527
 30
0.0
 11
369.8150143690045
 21
277.9999999996527
 31
0.0
 11
370.2938873206587
 21
277.931851137188
 31
0.0
 11
370.7401261186728
 21
277.7320508072216
 31
0.0
 11
371.1233196032942
 21
277.4142131849883
 31
0.0
 11
371.4173549221086
 21
276.9999999996527
 31
0.0
 11
371.6021925549479
 21
276.5176379518524
 31
0.0
 11
371.6652378683402
 21
275.9999999996527
 31
0.0
  0
SPLINE
  5
24E
330
5A
100
AcDbEntity
  8
0
  6
Continuous
 62
     3
100
AcDbSpline
210
0.0
220
0.0
230
1.0
 70
     8
 71
     3
 72
    13
 73
     9
 74
     7
 42
0.000000001
 43
0.0000000001
 44
0.00000001
 40
0.0
 40
0.0
 40
0.0
 40
0.0
 40
0.5197461645773429
 40
1.021215869683101
 40
1.489344079875153
 40
1.91574249320718
 40
2.302378966973421
 40
2.664074360346633
 40
2.664074360346633
 40
2.664074360346633
 40
2.664074360346633
 10
366.1556802772011
 20
275.9999999996527
 30
0.0
 10
366.1468208275019
 20
276.1735105193418
 30
0.0
 10
366.1294134503795
 20
276.5144301983687
 30
0.0
 10
365.9903666040523
 20
276.9953366200179
 30
0.0
 10
365.7768878184028
 20
277.4132542066098
 30
0.0
 10
365.4930653567503
 20
277.7364781869201
 30
0.0
 10
365.1550563994401
 20
277.9568961406274
 30
0.0
 10
364.9043844976466
 20
277.9859548830703
 30
0.0
 10
364.7832258551434
 20
277.9999999996527
 30
0.0
 11
366.1556802772011
 21
275.9999999996527
 31
0.0
 11
366.1089146733776
 21
276.5176379518525
 31
0.0
 11
365.9718062501821
 21
276.9999999996527
 31
0.0
 11
365.7536974251162
 21
277.4142131849883
 31
0.0
 11
365.4694530661718
 21
277.7320508072216
 31
0.0
 11
365.1384431034037
 21
277.9318511371881
 31
0.0
 11
364.7832258551434
 21
277.9999999996527
 31
0.0
  0
SPLINE
  5
24F
330
5A
100
AcDbEntity
  8
0
  6
Continuous
 62
     3
100
AcDbSpline
210
0.0
220
0.0
230
1.0
 70
     8
 71
     3
 72
    13
 73
     9
 74
     7
 42
0.000000001
 43
0.0000000001
 44
0.00000001
 40
0.0
 40
0.0
 40
0.0
 40
0.0
 40
0.4534380352472714
 40
0.916498536148786
 40
1.395768996115953
 40
1.893099999101787
 40
2.40555806810654
 40
2.926549670764813
 40
2.926549670764813
 40
2.926549670764813
 40
2.926549670764813
 10
366.2216113971881
 20
277.9999999996527
 30
0.0
 10
366.3733095573372
 20
277.9865038450956
 30
0.0
 10
366.6799250811929
 20
277.9592251183452
 30
0.0
 10
367.1045307134498
 20
277.745586535842
 30
0.0
 10
367.4668025896837
 20
277.4238931467028
 30
0.0
 10
367.7408303767463
 20
277.0043291770536
 30
0.0
 10
367.9198225259266
 20
276.5193165125954
 30
0.0
 10
367.9423203925567
 20
276.1740558148834
 30
0.0
 10
367.9536622047581
 20
275.9999999996527
 30
0.0
 11
366.2216113971881
 21
277.9999999996527
 31
0.0
 11
366.6698990137556
 21
277.931851137188
 31
0.0
 11
367.0876368009722
 21
277.7320508072216
 31
0.0
 11
367.4463559420556
 21
277.4142131849883
 31
0.0
 11
367.7216113971881
 21
276.9999999996527
 31
0.0
 11
367.894643558624
 21
276.5176379518524
 31
0.0
 11
367.9536622047581
 21
275.9999999996527
 31
0.0
  0
SPLINE
  5
250
330
5A
100
AcDbEntity
  8
0
  6
Continuous
 62
     3
100
AcDbSpline
210
0.0
220
0.0
230
1.0
 70
     8
 71
     3
 72
    13
 73
     9
 74
     7
 42
0.000000001
 43
0.0000000001
 44
0.00000001
 40
0.0
 40
0.0
 40
0.0
 40
0.0
 40
0.5197461645773839
 40
1.021215869683173
 40
1.489344079875013
 40
1.915742493206964
 40
2.302378966973205
 40
2.664074360346473
 40
2.664074360346473
 40
2.664074360346473
 40
2.664074360346473
 10
331.8443197257584
 20
275.9999999996527
 30
0.0
 10
331.8531791754579
 20
276.1735105193419
 30
0.0
 10
331.8705865525804
 20
276.5144301983688
 30
0.0
 10
332.009633398908
 20
276.9953366200177
 30
0.0
 10
332.2231121845567
 20
277.41325420661
 30
0.0
 10
332.5069346462092
 20
277.7364781869202
 30
0.0
 10
332.8449436035193
 20
277.9568961406274
 30
0.0
 10
333.0956155053129
 20
277.9859548830703
 30
0.0
 10
333.2167741478161
 20
277.9999999996527
 30
0.0
 11
331.8443197257584
 21
275.9999999996527
 31
0.0
 11
331.8910853295824
 21
276.5176379518525
 31
0.0
 11
332.028193752778
 21
276.9999999996527
 31
0.0
 11
332.2463025778434
 21
277.4142131849883
 31
0.0
 11
332.5305469367877
 21
277.7320508072216
 31
0.0
 11
332.8615568995558
 21
277.9318511371881
 31
0.0
 11
333.2167741478161
 21
277.9999999996527
 31
0.0
  0
SPLINE
  5
251
330
5A
100
AcDbEntity
  8
0
  6
Continuous
 62
     3
100
AcDbSpline
210
0.0
220
0.0
230
1.0
 70
     8
 71
     3
 72
    13
 73
     9
 74
     7
 42
0.000000001
 43
0.0000000001
 44
0.00000001
 40
0.0
 40
0.0
 40
0.0
 40
0.0
 40
0.4534380352472714
 40
0.916498536148786
 40
1.395768996115655
 40
1.893099999101458
 40
2.405558068106058
 40
2.926549670764234
 40
2.926549670764234
 40
2.926549670764234
 40
2.926549670764234
 10
331.7783886057714
 20
277.9999999996527
 30
0.0
 10
331.6266904456223
 20
277.9865038450956
 30
0.0
 10
331.3200749217664
 20
277.9592251183452
 30
0.0
 10
330.89546928951
 20
277.7455865358421
 30
0.0
 10
330.5331974132761
 20
277.4238931467027
 30
0.0
 10
330.2591696262136
 20
277.0043291770537
 30
0.0
 10
330.0801774770337
 20
276.5193165125954
 30
0.0
 10
330.0576796104044
 20
276.1740558148834
 30
0.0
 10
330.0463377982032
 20
275.9999999996527
 30
0.0
 11
331.7783886057714
 21
277.9999999996527
 31
0.0
 11
331.3301009892039
 21
277.931851137188
 31
0.0
 11
330.9123632019873
 21
277.7320508072216
 31
0.0
 11
330.5536440609043
 21
277.4142131849883
 31
0.0
 11
330.2783886057719
 21
276.9999999996527
 31
0.0
 11
330.1053564443364
 21
276.5176379518524
 31
0.0
 11
330.0463377982032
 21
275.9999999996527
 31
0.0
  0
SPLINE
  5
252
330
5A
100
AcDbEntity
  8
0
  6
Continuous
 62
     3
100
AcDbSpline
210
0.0
220
0.0
230
1.0
 70
     8
 71
     3
 72
    13
 73
     9
 74
     7
 42
0.000000001
 43
0.0000000001
 44
0.00000001
 40
0.0
 40
0.0
 40
0.0
 40
0.0
 40
0.5209916026582774
 40
1.033449671662824
 40
1.530780674648453
 40
2.010051134615242
 40
2.473111635516884
 40
2.926549670764933
 40
2.926549670764933
 40
2.926549670764933
 40
2.926549670764933
 10
326.9256255934524
 20
275.9999999996527
 30
0.0
 10
326.9369674056538
 20
276.1740558148834
 30
0.0
 10
326.9594652722835
 20
276.5193165125955
 30
0.0
 10
327.1384574214632
 20
277.0043291770535
 30
0.0
 10
327.4124852085255
 20
277.4238931467029
 30
0.0
 10
327.774757084759
 20
277.745586535842
 30
0.0
 10
328.1993627170161
 20
277.9592251183454
 30
0.0
 10
328.5059782408721
 20
277.9865038450957
 30
0.0
 10
328.6576764010215
 20
277.9999999996527
 30
0.0
 11
326.9256255934524
 21
275.9999999996527
 31
0.0
 11
326.984644239586
 21
276.5176379518525
 31
0.0
 11
327.1576764010215
 21
276.9999999996527
 31
0.0
 11
327.4329318561536
 21
277.4142131849883
 31
0.0
 11
327.7916509972365
 21
277.7320508072216
 31
0.0
 11
328.2093887844532
 21
277.9318511371881
 31
0.0
 11
328.6576764010215
 21
277.9999999996527
 31
0.0
  0
SPLINE
  5
253
330
5A
100
AcDbEntity
  8
0
  6
Continuous
 62
     3
100
AcDbSpline
210
0.0
220
0.0
230
1.0
 70
     8
 71
     3
 72
    13
 73
     9
 74
     7
 42
0.000000001
 43
0.0000000001
 44
0.00000001
 40
0.0
 40
0.0
 40
0.0
 40
0.0
 40
0.520991602658279
 40
1.033449671662828
 40
1.530780674648693
 40
2.01005113461583
 40
2.473111635517042
 40
2.926549670764656
 40
2.926549670764656
 40
2.926549670764656
 40
2.926549670764656
 10
30.90797271422071
 20
275.9999999996527
 30
0.0
 10
30.91931452642203
 20
276.1740558148834
 30
0.0
 10
30.94181239305173
 20
276.5193165125954
 30
0.0
 10
31.12080454223157
 20
277.0043291770536
 30
0.0
 10
31.39483232929409
 20
277.4238931467029
 30
0.0
 10
31.75710420552818
 20
277.7455865358417
 30
0.0
 10
32.18170983778465
 20
277.9592251183454
 30
0.0
 10
32.48832536164056
 20
277.9865038450956
 30
0.0
 10
32.64002352178977
 20
277.9999999996527
 30
0.0
 11
30.90797271422071
 21
275.9999999996527
 31
0.0
 11
30.96699136035432
 21
276.5176379518525
 31
0.0
 11
31.14002352178978
 21
276.9999999996527
 31
0.0
 11
31.41527897692231
 21
277.4142131849883
 31
0.0
 11
31.77399811800569
 21
277.7320508072216
 31
0.0
 11
32.19173590522189
 21
277.9318511371881
 31
0.0
 11
32.64002352178977
 21
277.9999999996527
 31
0.0
  0
SPLINE
  5
254
330
5A
100
AcDbEntity
  8
0
  6
Continuous
 62
     3
100
AcDbSpline
210
0.0
220
0.0
230
1.0
 70
     8
 71
     3
 72
    13
 73
     9
 74
     7
 42
0.000000001
 43
0.0000000001
 44
0.00000001
 40
0.0
 40
0.0
 40
0.0
 40
0.0
 40
0.519408569375502
 40
1.017862580602207
 40
1.477768202470254
 40
1.888688474052354
 40
2.251885732048506
 40
2.584426548912296
 40
2.584426548912296
 40
2.584426548912296
 40
2.584426548912296
 10
64.71962208383775
 20
275.9999999996527
 30
0.0
 10
64.71153542922568
 20
276.1733628158786
 30
0.0
 10
64.69568834910645
 20
276.5130944517108
 30
0.0
 10
64.56902841746185
 20
276.9926661256599
 30
0.0
 10
64.3746353389015
 20
277.4096927885632
 30
0.0
 10
64.11615844267273
 20
277.7326947201833
 30
0.0
 10
63.80660696902122
 20
277.9557178469596
 30
0.0
 10
63.57347975912996
 20
277.9856793530133
 30
0.0
 10
63.4620523172498
 20
277.9999999996527
 30
0.0
 11
64.71962208383775
 21
275.9999999996527
 31
0.0
 11
64.67677110930651
 21
276.5176379518525
 31
0.0
 11
64.55113968214664
 21
276.9999999996527
 31
0.0
 11
64.35128818994411
 21
277.4142131849883
 31
0.0
 11
64.09083720054377
 21
277.7320508072216
 31
0.0
 11
63.78753523661254
 21
277.9318511371881
 31
0.0
 11
63.4620523172498
 21
277.9999999996527
 31
0.0
  0
SPLINE
  5
255
330
5A
100
AcDbEntity
  8
0
  6
Continuous
 62
     3
100
AcDbSpline
210
0.0
220
0.0
230
1.0
 70
     8
 71
     3
 72
    13
 73
     9
 74
     7
 42
0.000000001
 43
0.0000000001
 44
0.00000001
 40
0.0
 40
0.0
 40
0.0
 40
0.0
 40
0.5194085693755394
 40
1.017862580602359
 40
1.477768202470384
 40
1.888688474052227
 40
2.251885732048711
 40
2.584426548912564
 40
2.584426548912564
 40
2.584426548912564
 40
2.584426548912564
 10
33.28037791912175
 20
275.9999999996527
 30
0.0
 10
33.28846457373396
 20
276.1733628158786
 30
0.0
 10
33.30431165385347
 20
276.5130944517109
 30
0.0
 10
33.43097158549861
 20
276.9926661256599
 30
0.0
 10
33.62536466405889
 20
277.409692788563
 30
0.0
 10
33.88384156028725
 20
277.7326947201836
 30
0.0
 10
34.19339303393907
 20
277.9557178469595
 30
0.0
 10
34.42652024383045
 20
277.9856793530133
 30
0.0
 10
34.53794768571061
 20
277.9999999996527
 30
0.0
 11
33.28037791912175
 21
275.9999999996527
 31
0.0
 11
33.32322889365344
 21
276.5176379518525
 31
0.0
 11
33.44886032081376
 21
276.9999999996527
 31
0.0
 11
33.64871181301623
 21
277.4142131849883
 31
0.0
 11
33.90916280241618
 21
277.7320508072216
 31
0.0
 11
34.21246476634781
 21
277.9318511371881
 31
0.0
 11
34.53794768571061
 21
277.9999999996527
 31
0.0
  0
SPLINE
  5
256
330
5A
100
AcDbEntity
  8
0
  6
Continuous
 62
     3
100
AcDbSpline
210
0.0
220
0.0
230
1.0
 70
     8
 71
     3
 72
    13
 73
     9
 74
     7
 42
0.000000001
 43
0.0000000001
 44
0.00000001
 40
0.0
 40
0.0
 40
0.0
 40
0.0
 40
0.4534380352476788
 40
0.9164985361492191
 40
1.395768996115801
 40
1.893099999101564
 40
2.405558068106298
 40
2.926549670764528
 40
2.926549670764528
 40
2.926549670764528
 40
2.926549670764528
 10
65.35997648117063
 20
277.9999999996527
 30
0.0
 10
65.51167464131984
 20
277.9865038450957
 30
0.0
 10
65.81829016517582
 20
277.9592251183452
 30
0.0
 10
66.2428957974326
 20
277.7455865358422
 30
0.0
 10
66.60516767366595
 20
277.4238931467026
 30
0.0
 10
66.87919546072834
 20
277.0043291770536
 30
0.0
 10
67.0581876099087
 20
276.5193165125954
 30
0.0
 10
67.08068547653838
 20
276.1740558148834
 30
0.0
 10
67.0920272887397
 20
275.9999999996527
 30
0.0
 11
65.35997648117063
 21
277.9999999996527
 31
0.0
 11
65.80826409773857
 21
277.931851137188
 31
0.0
 11
66.22600188495517
 21
277.7320508072216
 31
0.0
 11
66.58472102603776
 21
277.4142131849883
 31
0.0
 11
66.85997648117018
 21
276.9999999996527
 31
0.0
 11
67.03300864260603
 21
276.5176379518524
 31
0.0
 11
67.0920272887397
 21
275.9999999996527
 31
0.0
  0
SPLINE
  5
257
330
5A
100
AcDbEntity
  8
0
  6
Continuous
 62
     3
100
AcDbSpline
210
0.0
220
0.0
230
1.0
 70
     8
 71
     3
 72
    13
 73
     9
 74
     7
 42
0.000000001
 43
0.0000000001
 44
0.00000001
 40
0.0
 40
0.0
 40
0.0
 40
0.0
 40
0.520991602658234
 40
1.033449671662762
 40
1.530780674648553
 40
2.010051134615355
 40
2.473111635517285
 40
2.926549670765032
 40
2.926549670765032
 40
2.926549670765032
 40
2.926549670765032
 10
26.32793170183595
 20
275.9999999996527
 30
0.0
 10
26.33927351403712
 20
276.1740558148834
 30
0.0
 10
26.36177138066649
 20
276.5193165125954
 30
0.0
 10
26.54076352984635
 20
277.0043291770536
 30
0.0
 10
26.81479131690884
 20
277.4238931467027
 30
0.0
 10
27.1770631931427
 20
277.7455865358421
 30
0.0
 10
27.60166882539966
 20
277.9592251183451
 30
0.0
 10
27.90828434925579
 20
277.9865038450957
 30
0.0
 10
28.05998250940502
 20
277.9999999996527
 30
0.0
 11
26.32793170183595
 21
275.9999999996527
 31
0.0
 11
26.38695034796916
 21
276.5176379518525
 31
0.0
 11
26.55998250940456
 21
276.9999999996527
 31
0.0
 11
26.83523796453704
 21
277.4142131849883
 31
0.0
 11
27.19395710562003
 21
277.7320508072215
 31
0.0
 11
27.61169489283702
 21
277.9318511371879
 31
0.0
 11
28.05998250940502
 21
277.9999999996527
 31
0.0
  0
SPLINE
  5
258
330
5A
100
AcDbEntity
  8
0
  6
Continuous
 62
     3
100
AcDbSpline
210
0.0
220
0.0
230
1.0
 70
     8
 71
     3
 72
    13
 73
     9
 74
     7
 42
0.000000001
 43
0.0000000001
 44
0.00000001
 40
0.0
 40
0.0
 40
0.0
 40
0.0
 40
0.5218101701573606
 40
1.041377781008014
 40
1.557038032841747
 40
2.068149365086044
 40
2.57528818873704
 40
3.080119285626795
 40
3.080119285626795
 40
3.080119285626795
 40
3.080119285626795
 10
25.32486555912874
 20
275.9999999996527
 30
0.0
 10
25.33764135014739
 20
276.1744111549798
 30
0.0
 10
25.36313804059771
 20
276.5224839050702
 30
0.0
 10
25.56518379784942
 20
277.0095909031402
 30
0.0
 10
25.87319026701061
 20
277.4292277398053
 30
0.0
 10
26.27842870238023
 20
277.7492477056971
 30
0.0
 10
26.75038099800046
 20
277.9599949062471
 30
0.0
 10
27.08873726144808
 20
277.98668526175
 30
0.0
 10
27.25752959523925
 20
277.9999999996527
 30
0.0
 11
25.32486555912874
 21
275.9999999996527
 31
0.0
 11
25.39071998692219
 21
276.5176379518525
 31
0.0
 11
25.58379344298692
 21
276.9999999996527
 31
0.0
 11
25.89093011389361
 21
277.4142131849883
 31
0.0
 11
26.29119757718399
 21
277.7320508072216
 31
0.0
 11
26.75731946826818
 21
277.9318511371881
 31
0.0
 11
27.25752959523925
 21
277.9999999996527
 31
0.0
  0
SPLINE
  5
259
330
5A
100
AcDbEntity
  8
0
  6
Continuous
 62
     3
100
AcDbSpline
210
0.0
220
0.0
230
1.0
 70
     8
 71
     3
 72
    13
 73
     9
 74
     7
 42
0.000000001
 43
0.0000000001
 44
0.00000001
 40
0.0
 40
0.0
 40
0.0
 40
0.0
 40
0.4534380352476226
 40
0.9164985361488038
 40
1.395768996115982
 40
1.893099999101807
 40
2.405558068106407
 40
2.92654967076463
 40
2.92654967076463
 40
2.92654967076463
 40
2.92654967076463
 10
69.94001749355539
 20
277.9999999996527
 30
0.0
 10
70.0917156537046
 20
277.9865038450956
 30
0.0
 10
70.39833117756048
 20
277.9592251183453
 30
0.0
 10
70.82293680981701
 20
277.7455865358418
 30
0.0
 10
71.18520868605103
 20
277.4238931467029
 30
0.0
 10
71.45923647311363
 20
277.0043291770536
 30
0.0
 10
71.63822862229344
 20
276.5193165125954
 30
0.0
 10
71.6607264889231
 20
276.1740558148833
 30
0.0
 10
71.67206830112445
 20
275.9999999996527
 30
0.0
 11
69.94001749355539
 21
277.9999999996527
 31
0.0
 11
70.38830511012327
 21
277.931851137188
 31
0.0
 11
70.80604289733947
 21
277.7320508072216
 31
0.0
 11
71.16476203842285
 21
277.4142131849883
 31
0.0
 11
71.44001749355539
 21
276.9999999996527
 31
0.0
 11
71.61304965499085
 21
276.5176379518524
 31
0.0
 11
71.67206830112445
 21
275.9999999996527
 31
0.0
  0
SPLINE
  5
25A
330
5A
100
AcDbEntity
  8
0
  6
Continuous
 62
     3
100
AcDbSpline
210
0.0
220
0.0
230
1.0
 70
     8
 71
     3
 72
    13
 73
     9
 74
     7
 42
0.000000001
 43
0.0000000001
 44
0.00000001
 40
0.0
 40
0.0
 40
0.0
 40
0.0
 40
0.5048310968893649
 40
1.011969920540293
 40
1.523081252784581
 40
2.038741504618031
 40
2.558309115468609
 40
3.080119285625956
 40
3.080119285625956
 40
3.080119285625956
 40
3.080119285625956
 10
70.74247040772207
 20
277.9999999996527
 30
0.0
 10
70.91126274151311
 20
277.98668526175
 30
0.0
 10
71.24961900496055
 20
277.9599949062469
 30
0.0
 10
71.72157130058065
 20
277.7492477056971
 30
0.0
 10
72.12680973595016
 20
277.4292277398054
 30
0.0
 10
72.43481620511109
 20
277.0095909031401
 30
0.0
 10
72.63686196236216
 20
276.5224839050701
 30
0.0
 10
72.66235865281284
 20
276.1744111549797
 30
0.0
 10
72.67513444383167
 20
275.9999999996527
 30
0.0
 11
70.74247040772207
 21
277.9999999996527
 31
0.0
 11
71.24268053469274
 21
277.931851137188
 31
0.0
 11
71.70880242577687
 21
277.7320508072216
 31
0.0
 11
72.1090698890672
 21
277.4142131849883
 31
0.0
 11
72.41620655997349
 21
276.9999999996527
 31
0.0
 11
72.60928001603787
 21
276.5176379518524
 31
0.0
 11
72.67513444383167
 21
275.9999999996527
 31
0.0
  0
SPLINE
  5
25B
330
5A
100
AcDbEntity
  8
0
  6
Continuous
 62
     3
100
AcDbSpline
210
0.0
220
0.0
230
1.0
 70
     8
 71
     3
 72
    13
 73
     9
 74
     7
 42
0.000000001
 43
0.0000000001
 44
0.00000001
 40
0.0
 40
0.0
 40
0.0
 40
0.0
 40
0.5214630956129549
 40
1.038026831884829
 40
1.545992706253409
 40
2.043846096704393
 40
2.53277271059349
 40
3.016470517905776
 40
3.016470517905776
 40
3.016470517905776
 40
3.016470517905776
 10
326.3347621346193
 20
275.9999999996527
 30
0.0
 10
326.3469439218498
 20
276.174260922729
 30
0.0
 10
326.3711930578082
 20
276.5211455143698
 30
0.0
 10
326.5637004430525
 20
277.0074179775661
 30
0.0
 10
326.8577455727772
 20
277.4270970904573
 30
0.0
 10
327.2453985043543
 20
277.7478443643305
 30
0.0
 10
327.6979477592729
 20
277.9597095169277
 30
0.0
 10
328.0232225650079
 20
277.9866180633492
 30
0.0
 10
328.184985633955
 20
277.9999999996527
 30
0.0
 11
326.3347621346193
 21
275.9999999996527
 31
0.0
 11
326.3978074480116
 21
276.5176379518525
 31
0.0
 11
326.5826450808509
 21
276.9999999996527
 31
0.0
 11
326.8766803996652
 21
277.4142131849883
 31
0.0
 11
327.2598738842867
 21
277.7320508072216
 31
0.0
 11
327.7061126823008
 21
277.9318511371881
 31
0.0
 11
328.184985633955
 21
277.9999999996527
 31
0.0
  0
SPLINE
  5
25C
330
5A
100
AcDbEntity
  8
0
  6
Continuous
 62
     3
100
AcDbSpline
210
0.0
220
0.0
230
1.0
 70
     8
 71
     3
 72
    13
 73
     9
 74
     7
 42
0.000000001
 43
0.0000000001
 44
0.00000001
 40
0.0
 40
0.0
 40
0.0
 40
0.0
 40
0.24184890237269
 40
0.4863122078142508
 40
0.7352389018449654
 40
0.9892218379990672
 40
1.247503705147519
 40
1.508235252468874
 40
1.508235252468874
 40
1.508235252468874
 40
1.508235252468874
 10
372.5903496180081
 20
268.9999999996527
 30
0.0
 10
372.5094680839637
 20
269.0066909677689
 30
0.0
 10
372.3468306830603
 20
269.0201452479836
 30
0.0
 10
372.1205560562646
 20
269.126077820571
 30
0.0
 10
371.9267295916535
 20
269.2864514574282
 30
0.0
 10
371.7797070265469
 20
269.4962910126229
 30
0.0
 10
371.683453337078
 20
269.7394272438351
 30
0.0
 10
371.6713287619442
 20
269.9128695382767
 30
0.0
 10
371.6652378683402
 20
269.9999999996527
 30
0.0
 11
372.5903496180081
 21
268.9999999996527
 31
0.0
 11
372.3509131421813
 21
269.034074430885
 31
0.0
 11
372.1277937431746
 21
269.1339745958682
 31
0.0
 11
371.9361970008637
 21
269.2928934069848
 31
0.0
 11
371.7891793414565
 21
269.4999999996526
 31
0.0
 11
371.6967605250368
 21
269.7411810235528
 31
0.0
 11
371.6652378683402
 21
269.9999999996527
 31
0.0
  0
SPLINE
  5
25D
330
5A
100
AcDbEntity
  8
0
  6
Continuous
 62
     3
100
AcDbSpline
210
0.0
220
0.0
230
1.0
 70
     8
 71
     3
 72
    13
 73
     9
 74
     7
 42
0.000000001
 43
0.0000000001
 44
0.00000001
 40
0.0
 40
0.0
 40
0.0
 40
0.0
 40
0.2267190160729182
 40
0.458249264780984
 40
0.6978844934660243
 40
0.9465499939761012
 40
1.20277902771671
 40
1.463274828993747
 40
1.463274828993747
 40
1.463274828993747
 40
1.463274828993747
 10
371.9403998132921
 20
268.9999999996527
 30
0.0
 10
371.8645507337363
 20
269.0067480768849
 30
0.0
 10
371.7112429740125
 20
269.0203874471824
 30
0.0
 10
371.4989401586112
 20
269.1272067344098
 30
0.0
 10
371.3178042216169
 20
269.2880534287256
 30
0.0
 10
371.1807903277095
 20
269.4978354122738
 30
0.0
 10
371.0912942560978
 20
269.7403417443011
 30
0.0
 10
371.0800453156065
 20
269.9129720920547
 30
0.0
 10
371.0743744095071
 20
269.9999999996527
 30
0.0
 11
371.9403998132921
 21
268.9999999996527
 31
0.0
 11
371.7162560050075
 21
269.034074430885
 31
0.0
 11
371.5073871113991
 21
269.1339745958682
 31
0.0
 11
371.3280275408574
 21
269.2928934069848
 31
0.0
 11
371.1903998132912
 21
269.4999999996526
 31
0.0
 11
371.1038837325736
 21
269.7411810235528
 31
0.0
 11
371.0743744095071
 21
269.9999999996527
 31
0.0
  0
SPLINE
  5
25E
330
5A
100
AcDbEntity
  8
0
  6
Continuous
 62
     3
100
AcDbSpline
210
0.0
220
0.0
230
1.0
 70
     8
 71
     3
 72
    13
 73
     9
 74
     7
 42
0.000000001
 43
0.0000000001
 44
0.00000001
 40
0.0
 40
0.0
 40
0.0
 40
0.0
 40
0.2604958012769859
 40
0.5167248350174409
 40
0.7653903355275178
 40
1.005025564212558
 40
1.236555812920521
 40
1.46327482899254
 40
1.46327482899254
 40
1.46327482899254
 40
1.46327482899254
 10
367.9536622047581
 20
269.9999999996527
 30
0.0
 10
367.9593331108574
 20
269.9129720920547
 30
0.0
 10
367.9705820513482
 20
269.7403417443012
 30
0.0
 10
368.0600781229596
 20
269.4978354122736
 30
0.0
 10
368.1970920168671
 20
269.2880534287257
 30
0.0
 10
368.3782279538611
 20
269.1272067344097
 30
0.0
 10
368.5905307692622
 20
269.0203874471825
 30
0.0
 10
368.7438385289857
 20
269.006748076885
 30
0.0
 10
368.8196876085412
 20
268.9999999996527
 30
0.0
 11
367.9536622047581
 21
269.9999999996527
 31
0.0
 11
367.9831715278242
 21
269.7411810235528
 31
0.0
 11
368.0696876085412
 21
269.4999999996526
 31
0.0
 11
368.2073153361075
 21
269.2928934069848
 31
0.0
 11
368.3866749066492
 21
269.1339745958682
 31
0.0
 11
368.5955438002575
 21
269.034074430885
 31
0.0
 11
368.8196876085412
 21
268.9999999996527
 31
0.0
  0
SPLINE
  5
25F
330
5A
100
AcDbEntity
  8
0
  6
Continuous
 62
     3
100
AcDbSpline
210
0.0
220
0.0
230
1.0
 70
     8
 71
     3
 72
    13
 73
     9
 74
     7
 42
0.000000001
 43
0.0000000001
 44
0.00000001
 40
0.0
 40
0.0
 40
0.0
 40
0.0
 40
0.2598730843735131
 40
0.5106079370608134
 40
0.7446720414624197
 40
0.9578712464827553
 40
1.151189480482031
 40
1.332037174867769
 40
1.332037174867769
 40
1.332037174867769
 40
1.332037174867769
 10
366.1556802772011
 20
269.9999999996527
 30
0.0
 10
366.1601100020863
 20
269.9132447391121
 30
0.0
 10
366.1688136972895
 20
269.7427848994931
 30
0.0
 10
366.2383371176525
 20
269.5023316877343
 30
0.0
 10
366.3450765114168
 20
269.2933728956679
 30
0.0
 10
366.4869877418562
 20
269.1317609067102
 30
0.0
 10
366.6559922200229
 20
269.0215519357345
 30
0.0
 10
366.7813281677487
 20
269.0070225578546
 30
0.0
 10
366.8419074882295
 20
268.9999999996527
 30
0.0
 11
366.1556802772011
 21
269.9999999996527
 31
0.0
 11
366.1790630791128
 21
269.7411810235528
 31
0.0
 11
366.2476172907104
 21
269.4999999996526
 31
0.0
 11
366.3566717032429
 21
269.2928934069848
 31
0.0
 11
366.4987938827148
 21
269.1339745958682
 31
0.0
 11
366.664298864099
 21
269.034074430885
 31
0.0
 11
366.8419074882295
 21
268.9999999996527
 31
0.0
  0
SPLINE
  5
260
330
5A
100
AcDbEntity
  8
0
  6
Continuous
 62
     3
100
AcDbSpline
210
0.0
220
0.0
230
1.0
 70
     8
 71
     3
 72
    13
 73
     9
 74
     7
 42
0.000000001
 43
0.0000000001
 44
0.00000001
 40
0.0
 40
0.0
 40
0.0
 40
0.0
 40
0.2598730843735131
 40
0.5106079370608134
 40
0.7446720414624197
 40
0.9578712464827553
 40
1.151189480482031
 40
1.332037174867769
 40
1.332037174867769
 40
1.332037174867769
 40
1.332037174867769
 10
331.8443197257584
 20
269.9999999996527
 30
0.0
 10
331.8398900008732
 20
269.9132447391121
 30
0.0
 10
331.83118630567
 20
269.7427848994931
 30
0.0
 10
331.7616628853071
 20
269.5023316877343
 30
0.0
 10
331.6549234915426
 20
269.2933728956679
 30
0.0
 10
331.5130122611032
 20
269.1317609067102
 30
0.0
 10
331.3440077829367
 20
269.0215519357345
 30
0.0
 10
331.2186718352107
 20
269.0070225578546
 30
0.0
 10
331.15809251473
 20
268.9999999996527
 30
0.0
 11
331.8443197257584
 21
269.9999999996527
 31
0.0
 11
331.8209369238467
 21
269.7411810235528
 31
0.0
 11
331.7523827122491
 21
269.4999999996526
 31
0.0
 11
331.6433282997166
 21
269.2928934069848
 31
0.0
 11
331.5012061202447
 21
269.1339745958682
 31
0.0
 11
331.3357011388605
 21
269.034074430885
 31
0.0
 11
331.15809251473
 21
268.9999999996527
 31
0.0
  0
SPLINE
  5
261
330
5A
100
AcDbEntity
  8
0
  6
Continuous
 62
     3
100
AcDbSpline
210
0.0
220
0.0
230
1.0
 70
     8
 71
     3
 72
    13
 73
     9
 74
     7
 42
0.000000001
 43
0.0000000001
 44
0.00000001
 40
0.0
 40
0.0
 40
0.0
 40
0.0
 40
0.2604958012770889
 40
0.5167248350178318
 40
0.7653903355279087
 40
1.005025564212949
 40
1.236555812920912
 40
1.463274828992931
 40
1.463274828992931
 40
1.463274828992931
 40
1.463274828992931
 10
330.0463377982032
 20
269.9999999996527
 30
0.0
 10
330.0406668921034
 20
269.9129720920546
 30
0.0
 10
330.0294179516122
 20
269.7403417443011
 30
0.0
 10
329.9399218799999
 20
269.4978354122738
 30
0.0
 10
329.8029079860927
 20
269.2880534287258
 30
0.0
 10
329.6217720490982
 20
269.1272067344097
 30
0.0
 10
329.4094692336973
 20
269.0203874471825
 30
0.0
 10
329.2561614739737
 20
269.006748076885
 30
0.0
 10
329.1803123944183
 20
268.9999999996527
 30
0.0
 11
330.0463377982032
 21
269.9999999996527
 31
0.0
 11
330.0168284751362
 21
269.7411810235528
 31
0.0
 11
329.9303123944183
 21
269.4999999996526
 31
0.0
 11
329.792684666852
 21
269.2928934069848
 31
0.0
 11
329.6133250963103
 21
269.1339745958682
 31
0.0
 11
329.404456202702
 21
269.034074430885
 31
0.0
 11
329.1803123944183
 21
268.9999999996527
 31
0.0
  0
SPLINE
  5
262
330
5A
100
AcDbEntity
  8
0
  6
Continuous
 62
     3
100
AcDbSpline
210
0.0
220
0.0
230
1.0
 70
     8
 71
     3
 72
    13
 73
     9
 74
     7
 42
0.000000001
 43
0.0000000001
 44
0.00000001
 40
0.0
 40
0.0
 40
0.0
 40
0.0
 40
0.2607315473213687
 40
0.519013414469963
 40
0.7729963506239987
 40
1.021923044654101
 40
1.266386350095662
 40
1.508235252468802
 40
1.508235252468802
 40
1.508235252468802
 40
1.508235252468802
 10
326.3347621346193
 20
269.9999999996527
 30
0.0
 10
326.3286712410153
 20
269.9128695382767
 30
0.0
 10
326.3165466658814
 20
269.7394272438352
 30
0.0
 10
326.2202929764121
 20
269.4962910126229
 30
0.0
 10
326.0732704113057
 20
269.2864514574284
 30
0.0
 10
325.8794439466953
 20
269.1260778205709
 30
0.0
 10
325.6531693198993
 20
269.0201452479836
 30
0.0
 10
325.4905319189959
 20
269.0066909677689
 30
0.0
 10
325.4096503849514
 20
268.9999999996527
 30
0.0
 11
326.3347621346193
 21
269.9999999996527
 31
0.0
 11
326.3032394779227
 21
269.7411810235528
 31
0.0
 11
326.2108206615026
 21
269.4999999996526
 31
0.0
 11
326.0638030020955
 21
269.2928934069848
 31
0.0
 11
325.8722062597853
 21
269.1339745958682
 31
0.0
 11
325.6490868607787
 21
269.034074430885
 31
0.0
 11
325.4096503849514
 21
268.9999999996527
 31
0.0
  0
SPLINE
  5
263
330
5A
100
AcDbEntity
  8
0
  6
Continuous
 62
     3
100
AcDbSpline
210
0.0
220
0.0
230
1.0
 70
     8
 71
     3
 72
    13
 73
     9
 74
     7
 42
0.000000001
 43
0.0000000001
 44
0.00000001
 40
0.0
 40
0.0
 40
0.0
 40
0.0
 40
0.260495801277031
 40
0.5167248350175052
 40
0.7653903355273933
 40
1.005025564212689
 40
1.236555812921011
 40
1.463274828993199
 40
1.463274828993199
 40
1.463274828993199
 40
1.463274828993199
 10
326.9256255934524
 20
269.9999999996527
 30
0.0
 10
326.919954687353
 20
269.9129720920548
 30
0.0
 10
326.9087057468616
 20
269.7403417443011
 30
0.0
 10
326.8192096752505
 20
269.4978354122738
 30
0.0
 10
326.6821957813434
 20
269.2880534287254
 30
0.0
 10
326.5010598443487
 20
269.1272067344097
 30
0.0
 10
326.2887570289475
 20
269.0203874471825
 30
0.0
 10
326.1354492692238
 20
269.0067480768851
 30
0.0
 10
326.0596001896683
 20
268.9999999996527
 30
0.0
 11
326.9256255934524
 21
269.9999999996527
 31
0.0
 11
326.8961162703859
 21
269.7411810235528
 31
0.0
 11
326.8096001896688
 21
269.4999999996526
 31
0.0
 11
326.6719724621029
 21
269.2928934069848
 31
0.0
 11
326.4926128915608
 21
269.1339745958682
 31
0.0
 11
326.2837439979522
 21
269.034074430885
 31
0.0
 11
326.0596001896683
 21
268.9999999996527
 31
0.0
  0
SPLINE
  5
264
330
5A
100
AcDbEntity
  8
0
  6
Continuous
 62
     3
100
AcDbSpline
210
0.0
220
0.0
230
1.0
 70
     8
 71
     3
 72
    13
 73
     9
 74
     7
 42
0.000000001
 43
0.0000000001
 44
0.00000001
 40
0.0
 40
0.0
 40
0.0
 40
0.0
 40
0.2267190160720893
 40
0.458249264780076
 40
0.6978844934650892
 40
0.9465499939751109
 40
1.20277902771572
 40
1.463274828992759
 40
1.463274828992759
 40
1.463274828992759
 40
1.463274828992759
 10
72.53809370490853
 20
268.9999999996527
 30
0.0
 10
72.46224462535307
 20
269.006748076885
 30
0.0
 10
72.30893686562948
 20
269.0203874471825
 30
0.0
 10
72.09663405022854
 20
269.1272067344099
 30
0.0
 10
71.91549811323429
 20
269.2880534287257
 30
0.0
 10
71.77848421932688
 20
269.4978354122737
 30
0.0
 10
71.68898814771512
 20
269.7403417443011
 30
0.0
 10
71.67773920722391
 20
269.9129720920547
 30
0.0
 10
71.67206830112445
 20
269.9999999996527
 30
0.0
 11
72.53809370490853
 21
268.9999999996527
 31
0.0
 11
72.31394989662476
 21
269.034074430885
 31
0.0
 11
72.1050810030165
 21
269.1339745958683
 31
0.0
 11
71.9257214324748
 21
269.2928934069849
 31
0.0
 11
71.78809370490853
 21
269.4999999996526
 31
0.0
 11
71.70157762419103
 21
269.7411810235528
 31
0.0
 11
71.67206830112445
 21
269.9999999996527
 31
0.0
  0
SPLINE
  5
265
330
5A
100
AcDbEntity
  8
0
  6
Continuous
 62
     3
100
AcDbSpline
210
0.0
220
0.0
230
1.0
 70
     8
 71
     3
 72
    13
 73
     9
 74
     7
 42
0.000000001
 43
0.0000000001
 44
0.00000001
 40
0.0
 40
0.0
 40
0.0
 40
0.0
 40
0.2597042877512878
 40
0.5089312936955612
 40
0.7388841041861709
 40
0.9443442385234078
 40
1.125942864105422
 40
1.292213270002777
 40
1.292213270002777
 40
1.292213270002777
 40
1.292213270002777
 10
33.28037791912175
 20
269.9999999996527
 30
0.0
 10
33.27633459176801
 20
269.9133185905172
 30
0.0
 10
33.26841104580117
 20
269.743452772012
 30
0.0
 10
33.20508108284814
 20
269.5036669335573
 30
0.0
 10
33.1078845424994
 20
269.2951536031558
 30
0.0
 10
32.97864609419358
 20
269.1336526387797
 30
0.0
 10
32.82387035723115
 20
269.022141082511
 30
0.0
 10
32.70730675591812
 20
269.0071603228632
 30
0.0
 10
32.65159303582732
 20
268.9999999996527
 30
0.0
 11
33.28037791912175
 21
269.9999999996527
 31
0.0
 11
33.25895243185613
 21
269.7411810235528
 31
0.0
 11
33.19613671827619
 21
269.4999999996526
 31
0.0
 11
33.09621097217496
 21
269.2928934069848
 31
0.0
 11
32.96598547747499
 21
269.1339745958682
 31
0.0
 11
32.81433449550894
 21
269.034074430885
 31
0.0
 11
32.65159303582732
 21
268.9999999996527
 31
0.0
  0
SPLINE
  5
266
330
5A
100
AcDbEntity
  8
0
  6
Continuous
 62
     3
100
AcDbSpline
210
0.0
220
0.0
230
1.0
 70
     8
 71
     3
 72
    13
 73
     9
 74
     7
 42
0.000000001
 43
0.0000000001
 44
0.00000001
 40
0.0
 40
0.0
 40
0.0
 40
0.0
 40
0.2609050843418813
 40
0.5206888886365334
 40
0.7785190134866442
 40
1.034074678470615
 40
1.287644088941211
 40
1.540059636300215
 40
1.540059636300215
 40
1.540059636300215
 40
1.540059636300215
 10
25.32486555912874
 20
269.9999999996527
 30
0.0
 10
25.31847766363745
 20
269.9127944222354
 30
0.0
 10
25.30572931128995
 20
269.7387580487397
 30
0.0
 10
25.20470643595336
 20
269.4952045501877
 30
0.0
 10
25.05070320121318
 20
269.2853861330885
 30
0.0
 10
24.84808398473076
 20
269.125376150123
 30
0.0
 10
24.61210783752453
 20
269.0200025533812
 30
0.0
 10
24.442929707606
 20
269.0066573685753
 30
0.0
 10
24.35853354107348
 20
268.9999999996527
 30
0.0
 11
25.32486555912874
 21
269.9999999996527
 31
0.0
 11
25.29193834523204
 21
269.7411810235528
 31
0.0
 11
25.19540161719988
 21
269.4999999996526
 31
0.0
 11
25.04183328174651
 21
269.2928934069848
 31
0.0
 11
24.84169955010111
 21
269.1339745958682
 31
0.0
 11
24.60863860455902
 21
269.034074430885
 31
0.0
 11
24.35853354107348
 21
268.9999999996527
 31
0.0
  0
SPLINE
  5
267
330
5A
100
AcDbEntity
  8
0
  6
Continuous
 62
     3
100
AcDbSpline
210
0.0
220
0.0
230
1.0
 70
     8
 71
     3
 72
    13
 73
     9
 74
     7
 42
0.000000001
 43
0.0000000001
 44
0.00000001
 40
0.0
 40
0.0
 40
0.0
 40
0.0
 40
0.2267190160724862
 40
0.4582492647804815
 40
0.6978844934649342
 40
0.9465499939749343
 40
1.20277902771568
 40
1.463274828992725
 40
1.463274828992725
 40
1.463274828992725
 40
1.463274828992725
 10
25.46190629805187
 20
268.9999999996527
 30
0.0
 10
25.53775537760746
 20
269.006748076885
 30
0.0
 10
25.69106313733117
 20
269.0203874471824
 30
0.0
 10
25.90336595273226
 20
269.1272067344094
 30
0.0
 10
26.08450188972582
 20
269.288053428726
 30
0.0
 10
26.22151578363296
 20
269.4978354122738
 30
0.0
 10
26.31101185524533
 20
269.7403417443011
 30
0.0
 10
26.3222607957365
 20
269.9129720920547
 30
0.0
 10
26.32793170183595
 20
269.9999999996527
 30
0.0
 11
25.46190629805187
 21
268.9999999996527
 31
0.0
 11
25.68605010633604
 21
269.034074430885
 31
0.0
 11
25.89491899994437
 21
269.1339745958682
 31
0.0
 11
26.07427857048526
 21
269.2928934069848
 31
0.0
 11
26.21190629805142
 21
269.4999999996526
 31
0.0
 11
26.29842237876932
 21
269.7411810235528
 31
0.0
 11
26.32793170183595
 21
269.9999999996527
 31
0.0
  0
SPLINE
  5
268
330
5A
100
AcDbEntity
  8
0
  6
Continuous
 62
     3
100
AcDbSpline
210
0.0
220
0.0
230
1.0
 70
     8
 71
     3
 72
    13
 73
     9
 74
     7
 42
0.000000001
 43
0.0000000001
 44
0.00000001
 40
0.0
 40
0.0
 40
0.0
 40
0.0
 40
0.2597042877513581
 40
0.5089312936957606
 40
0.7388841041861942
 40
0.9443442385233995
 40
1.125942864105129
 40
1.292213270002817
 40
1.292213270002817
 40
1.292213270002817
 40
1.292213270002817
 10
64.71962208383775
 20
269.9999999996527
 30
0.0
 10
64.72366541119176
 20
269.9133185905172
 30
0.0
 10
64.73158895715922
 20
269.743452772012
 30
0.0
 10
64.7949189201129
 20
269.5036669335574
 30
0.0
 10
64.89211546046096
 20
269.2951536031558
 30
0.0
 10
65.02135390876684
 20
269.1336526387798
 30
0.0
 10
65.17612964572905
 20
269.0221410825109
 30
0.0
 10
65.29269324704217
 20
269.0071603228633
 30
0.0
 10
65.34840696713309
 20
268.9999999996527
 30
0.0
 11
64.71962208383775
 21
269.9999999996527
 31
0.0
 11
64.74104757110422
 21
269.7411810235528
 31
0.0
 11
64.80386328468467
 21
269.4999999996526
 31
0.0
 11
64.9037890307855
 21
269.2928934069848
 31
0.0
 11
65.03401452548542
 21
269.1339745958682
 31
0.0
 11
65.18566550745112
 21
269.034074430885
 31
0.0
 11
65.34840696713309
 21
268.9999999996527
 31
0.0
  0
SPLINE
  5
269
330
5A
100
AcDbEntity
  8
0
  6
Continuous
 62
     3
100
AcDbSpline
210
0.0
220
0.0
230
1.0
 70
     8
 71
     3
 72
    13
 73
     9
 74
     7
 42
0.000000001
 43
0.0000000001
 44
0.00000001
 40
0.0
 40
0.0
 40
0.0
 40
0.0
 40
0.260495801277039
 40
0.5167248350176475
 40
0.7653903355277165
 40
1.005025564212767
 40
1.236555812920705
 40
1.463274828992794
 40
1.463274828992794
 40
1.463274828992794
 40
1.463274828992794
 10
67.0920272887397
 20
269.9999999996527
 30
0.0
 10
67.09769819483914
 20
269.9129720920547
 30
0.0
 10
67.10894713533037
 20
269.7403417443011
 30
0.0
 10
67.19844320694214
 20
269.4978354122737
 30
0.0
 10
67.33545710084954
 20
269.2880534287256
 30
0.0
 10
67.51659303784376
 20
269.1272067344098
 30
0.0
 10
67.72889585324477
 20
269.0203874471825
 30
0.0
 10
67.8822036129683
 20
269.0067480768849
 30
0.0
 10
67.95805269252378
 20
268.9999999996527
 30
0.0
 11
67.0920272887397
 21
269.9999999996527
 31
0.0
 11
67.12153661180628
 21
269.7411810235528
 31
0.0
 11
67.20805269252378
 21
269.4999999996526
 31
0.0
 11
67.34568042009005
 21
269.2928934069848
 31
0.0
 11
67.52503999063174
 21
269.1339745958682
 31
0.0
 11
67.73390888424001
 21
269.034074430885
 31
0.0
 11
67.95805269252378
 21
268.9999999996527
 31
0.0
  0
SPLINE
  5
26A
330
5A
100
AcDbEntity
  8
0
  6
Continuous
 62
     3
100
AcDbSpline
210
0.0
220
0.0
230
1.0
 70
     8
 71
     3
 72
    13
 73
     9
 74
     7
 42
0.000000001
 43
0.0000000001
 44
0.00000001
 40
0.0
 40
0.0
 40
0.0
 40
0.0
 40
0.2604958012770394
 40
0.5167248350176504
 40
0.7653903355277154
 40
1.005025564212761
 40
1.236555812920705
 40
1.463274828992791
 40
1.463274828992791
 40
1.463274828992791
 40
1.463274828992791
 10
30.90797271422071
 20
269.9999999996527
 30
0.0
 10
30.90230180812125
 20
269.9129720920547
 30
0.0
 10
30.89105286763002
 20
269.740341744301
 30
0.0
 10
30.80155679601826
 20
269.4978354122738
 30
0.0
 10
30.66454290211087
 20
269.2880534287256
 30
0.0
 10
30.48340696511665
 20
269.1272067344099
 30
0.0
 10
30.27110414971565
 20
269.0203874471823
 30
0.0
 10
30.11779638999211
 20
269.0067480768851
 30
0.0
 10
30.04194731043663
 20
268.9999999996527
 30
0.0
 11
30.90797271422071
 21
269.9999999996527
 31
0.0
 11
30.87846339115413
 21
269.7411810235528
 31
0.0
 11
30.79194731043663
 21
269.4999999996526
 31
0.0
 11
30.65431958287035
 21
269.2928934069848
 31
0.0
 11
30.47496001232867
 21
269.1339745958682
 31
0.0
 11
30.2660911187204
 21
269.034074430885
 31
0.0
 11
30.04194731043663
 21
268.9999999996527
 31
0.0
  0
SPLINE
  5
26B
330
5A
100
AcDbEntity
  8
0
  6
Continuous
 62
     3
100
AcDbSpline
210
0.0
220
0.0
230
1.0
 70
     8
 71
     3
 72
    13
 73
     9
 74
     7
 42
0.000000001
 43
0.0000000001
 44
0.00000001
 40
0.0
 40
0.0
 40
0.0
 40
0.0
 40
0.252415547359001
 40
0.505984957829603
 40
0.7615406228135715
 40
1.019370747663682
 40
1.279154551958334
 40
1.540059636300215
 40
1.540059636300215
 40
1.540059636300215
 40
1.540059636300215
 10
73.64146646188692
 20
268.9999999996527
 30
0.0
 10
73.55707029535441
 20
269.0066573685754
 30
0.0
 10
73.38789216543586
 20
269.0200025533812
 30
0.0
 10
73.15191601822963
 20
269.125376150123
 30
0.0
 10
72.94929680174724
 20
269.2853861330885
 30
0.0
 10
72.79529356700704
 20
269.4952045501876
 30
0.0
 10
72.69427069167043
 20
269.7387580487397
 30
0.0
 10
72.68152233932297
 20
269.9127944222355
 30
0.0
 10
72.67513444383167
 20
269.9999999996527
 30
0.0
 11
73.64146646188692
 21
268.9999999996527
 31
0.0
 11
73.39136139840139
 21
269.034074430885
 31
0.0
 11
73.1583004528593
 21
269.1339745958682
 31
0.0
 11
72.9581667212139
 21
269.2928934069848
 31
0.0
 11
72.80459838576053
 21
269.4999999996526
 31
0.0
 11
72.70806165772836
 21
269.7411810235528
 31
0.0
 11
72.67513444383167
 21
269.9999999996527
 31
0.0
  0
ENDBLK
  5
5C
330
5A
100
AcDbEntity
  8
0
100
AcDbBlockEnd
  0
BLOCK
  5
5E
330
5D
100
AcDbEntity
  8
0
100
AcDbBlockBegin
  2
531-Hartschaum-Distanzelement-20mm__6
 70
     0
 10
-700.9999999985193
 20
248.9999999996527
 30
0.0
  3
531-Hartschaum-Distanzelement-20mm__6
  1

  0
LINE
  5
26C
330
5D
100
AcDbEntity
  8
0
  6
Continuous
 62
     7
100
AcDbLine
 10
-230.1849856309946
 20
277.9999999996527
 30
0.0
 11
-228.4999999985203
 21
277.9999999996527
 31
0.0
  0
LINE
  5
26D
330
5D
100
AcDbEntity
  8
0
  6
Continuous
 62
     7
100
AcDbLine
 10
-233.7783886028119
 20
277.9999999996527
 30
0.0
 11
-235.2167741448566
 21
277.9999999996527
 31
0.0
  0
LINE
  5
26E
330
5D
100
AcDbEntity
  8
0
  6
Continuous
 62
     7
100
AcDbLine
 10
-230.657676398062
 20
277.9999999996527
 30
0.0
 11
-230.1849856309946
 21
277.9999999996527
 31
0.0
  0
LINE
  5
26F
330
5D
100
AcDbEntity
  8
0
  6
Continuous
 62
     7
100
AcDbLine
 10
-233.7783886028119
 20
277.9999999996527
 30
0.0
 11
-230.657676398062
 21
277.9999999996527
 31
0.0
  0
LINE
  5
270
330
5D
100
AcDbEntity
  8
0
  6
Continuous
 62
     7
100
AcDbLine
 10
-235.2167741448566
 20
277.9999999996527
 30
0.0
 11
-266.783225852183
 21
277.9999999996527
 31
0.0
  0
LINE
  5
271
330
5D
100
AcDbEntity
  8
0
  6
Continuous
 62
     7
100
AcDbLine
 10
-266.783225852183
 20
277.9999999996527
 30
0.0
 11
-268.2216113942277
 21
277.9999999996527
 31
0.0
  0
LINE
  5
272
330
5D
100
AcDbEntity
  8
0
  6
Continuous
 62
     7
100
AcDbLine
 10
-271.3423235989785
 20
277.9999999996527
 30
0.0
 11
-271.815014366045
 21
277.9999999996527
 31
0.0
  0
LINE
  5
273
330
5D
100
AcDbEntity
  8
0
  6
Continuous
 62
     7
100
AcDbLine
 10
-271.815014366045
 20
277.9999999996527
 30
0.0
 11
-273.4999999985203
 21
277.9999999996527
 31
0.0
  0
LINE
  5
274
330
5D
100
AcDbEntity
  8
0
  6
Continuous
 62
     7
100
AcDbLine
 10
-271.3423235989785
 20
277.9999999996527
 30
0.0
 11
-268.2216113942277
 21
277.9999999996527
 31
0.0
  0
LINE
  5
275
330
5D
100
AcDbEntity
  8
0
  6
Continuous
 62
     7
100
AcDbLine
 10
-534.6400235188294
 20
277.9999999996527
 30
0.0
 11
-536.5379476827502
 21
277.9999999996527
 31
0.0
  0
LINE
  5
276
330
5D
100
AcDbEntity
  8
0
  6
Continuous
 62
     7
100
AcDbLine
 10
-530.0599825064442
 20
277.9999999996527
 30
0.0
 11
-529.2575295922784
 21
277.9999999996527
 31
0.0
  0
LINE
  5
277
330
5D
100
AcDbEntity
  8
0
  6
Continuous
 62
     7
100
AcDbLine
 10
-534.6400235188294
 20
277.9999999996527
 30
0.0
 11
-530.0599825064442
 21
277.9999999996527
 31
0.0
  0
LINE
  5
278
330
5D
100
AcDbEntity
  8
0
  6
Continuous
 62
     3
100
AcDbLine
 10
-528.3279316988755
 20
275.9999999996527
 30
0.0
 11
-532.9079727112603
 21
275.9999999996527
 31
0.0
  0
LINE
  5
279
330
5D
100
AcDbEntity
  8
0
  6
Continuous
 62
     3
100
AcDbLine
 10
-532.9079727112603
 20
275.9999999996527
 30
0.0
 11
-535.2803779161613
 21
275.9999999996527
 31
0.0
  0
LINE
  5
27A
330
5D
100
AcDbEntity
  8
0
  6
Continuous
 62
     7
100
AcDbLine
 10
-700.9999999985193
 20
248.9999999996527
 30
0.0
 11
-100.9999999985203
 21
248.9999999996527
 31
0.0
  0
LINE
  5
27B
330
5D
100
AcDbEntity
  8
0
  6
Continuous
 62
     7
100
AcDbLine
 10
-100.9999999985203
 20
268.9999999996527
 30
0.0
 11
-100.9999999985203
 21
248.9999999996527
 31
0.0
  0
LINE
  5
27C
330
5D
100
AcDbEntity
  8
0
  6
Continuous
 62
     3
100
AcDbLine
 10
-228.334762131658
 20
269.9999999996527
 30
0.0
 11
-226.4999999985203
 21
269.9999999996527
 31
0.0
  0
LINE
  5
27D
330
5D
100
AcDbEntity
  8
0
  6
Continuous
 62
     3
100
AcDbLine
 10
-232.0463377952419
 20
269.9999999996527
 30
0.0
 11
-233.8443197227989
 21
269.9999999996527
 31
0.0
  0
LINE
  5
27E
330
5D
100
AcDbEntity
  8
0
  6
Continuous
 62
     3
100
AcDbLine
 10
-228.9256255904929
 20
269.9999999996527
 30
0.0
 11
-232.0463377952419
 21
269.9999999996527
 31
0.0
  0
LINE
  5
27F
330
5D
100
AcDbEntity
  8
0
  6
Continuous
 62
     3
100
AcDbLine
 10
-273.6652378653807
 20
269.9999999996527
 30
0.0
 11
-275.4999999985203
 21
269.9999999996527
 31
0.0
  0
LINE
  5
280
330
5D
100
AcDbEntity
  8
0
  6
Continuous
 62
     3
100
AcDbLine
 10
-269.9536622017968
 20
269.9999999996527
 30
0.0
 11
-273.0743744065476
 21
269.9999999996527
 31
0.0
  0
LINE
  5
281
330
5D
100
AcDbEntity
  8
0
  6
Continuous
 62
     3
100
AcDbLine
 10
-233.8443197227989
 20
269.9999999996527
 30
0.0
 11
-268.1556802742407
 21
269.9999999996527
 31
0.0
  0
LINE
  5
282
330
5D
100
AcDbEntity
  8
0
  6
Continuous
 62
     3
100
AcDbLine
 10
-566.7196220808773
 20
269.9999999996527
 30
0.0
 11
-569.0920272857784
 21
269.9999999996527
 31
0.0
  0
LINE
  5
283
330
5D
100
AcDbEntity
  8
0
  6
Continuous
 62
     3
100
AcDbLine
 10
-569.0920272857784
 20
269.9999999996527
 30
0.0
 11
-573.6720682981645
 21
269.9999999996527
 31
0.0
  0
LINE
  5
284
330
5D
100
AcDbEntity
  8
0
  6
Continuous
 62
     3
100
AcDbLine
 10
-528.3279316988755
 20
269.9999999996527
 30
0.0
 11
-532.9079727112603
 21
269.9999999996527
 31
0.0
  0
LINE
  5
285
330
5D
100
AcDbEntity
  8
0
  6
Continuous
 62
     3
100
AcDbLine
 10
-532.9079727112603
 20
269.9999999996527
 30
0.0
 11
-535.2803779161613
 21
269.9999999996527
 31
0.0
  0
LINE
  5
286
330
5D
100
AcDbEntity
  8
0
  6
Continuous
 62
     3
100
AcDbLine
 10
-528.3279316988755
 20
269.9999999996527
 30
0.0
 11
-527.3248655561683
 21
269.9999999996527
 31
0.0
  0
LINE
  5
287
330
5D
100
AcDbEntity
  8
0
  6
Continuous
 62
     3
100
AcDbLine
 10
-535.2803779161613
 20
269.9999999996527
 30
0.0
 11
-566.7196220808773
 21
269.9999999996527
 31
0.0
  0
LINE
  5
288
330
5D
100
AcDbEntity
  8
0
  6
Continuous
 62
     7
100
AcDbLine
 10
-571.9400174905954
 20
277.9999999996527
 30
0.0
 11
-567.3599764782102
 21
277.9999999996527
 31
0.0
  0
LINE
  5
289
330
5D
100
AcDbEntity
  8
0
  6
Continuous
 62
     7
100
AcDbLine
 10
-572.7424704047603
 20
277.9999999996527
 30
0.0
 11
-573.4999999985193
 21
277.9999999996527
 31
0.0
  0
LINE
  5
28A
330
5D
100
AcDbEntity
  8
0
  6
Continuous
 62
     7
100
AcDbLine
 10
-571.9400174905954
 20
277.9999999996527
 30
0.0
 11
-572.7424704047603
 21
277.9999999996527
 31
0.0
  0
LINE
  5
28B
330
5D
100
AcDbEntity
  8
0
  6
Continuous
 62
     7
100
AcDbLine
 10
-565.4620523142894
 20
277.9999999996527
 30
0.0
 11
-567.3599764782102
 21
277.9999999996527
 31
0.0
  0
LINE
  5
28C
330
5D
100
AcDbEntity
  8
0
  6
Continuous
 62
     7
100
AcDbLine
 10
-536.5379476827502
 20
277.9999999996527
 30
0.0
 11
-565.4620523142894
 21
277.9999999996527
 31
0.0
  0
LINE
  5
28D
330
5D
100
AcDbEntity
  8
0
  6
Continuous
 62
     3
100
AcDbLine
 10
-574.6751344408713
 20
275.9999999996527
 30
0.0
 11
-575.4999999985193
 21
275.9999999996527
 31
0.0
  0
LINE
  5
28E
330
5D
100
AcDbEntity
  8
0
  6
Continuous
 62
     7
100
AcDbLine
 10
-575.4999999985193
 20
275.9999999996527
 30
0.0
 11
-575.4999999985193
 21
269.9999999996527
 31
0.0
  0
LINE
  5
28F
330
5D
100
AcDbEntity
  8
0
  6
Continuous
 62
     3
100
AcDbLine
 10
-574.6751344408713
 20
275.9999999996527
 30
0.0
 11
-574.6751344408713
 21
269.9999999996527
 31
0.0
  0
LINE
  5
290
330
5D
100
AcDbEntity
  8
0
  6
Continuous
 62
     7
100
AcDbLine
 10
-700.9999999985193
 20
268.9999999996527
 30
0.0
 11
-576.4999999985193
 21
268.9999999996527
 31
0.0
  0
LINE
  5
291
330
5D
100
AcDbEntity
  8
0
  6
Continuous
 62
     3
100
AcDbLine
 10
-527.3248655561683
 20
269.9999999996527
 30
0.0
 11
-526.4999999985193
 21
269.9999999996527
 31
0.0
  0
LINE
  5
292
330
5D
100
AcDbEntity
  8
0
  6
Continuous
 62
     7
100
AcDbLine
 10
-529.2575295922784
 20
277.9999999996527
 30
0.0
 11
-528.4999999985193
 21
277.9999999996527
 31
0.0
  0
LINE
  5
293
330
5D
100
AcDbEntity
  8
0
  6
Continuous
 62
     3
100
AcDbLine
 10
-528.3279316988755
 20
275.9999999996527
 30
0.0
 11
-527.3248655561683
 21
275.9999999996527
 31
0.0
  0
LINE
  5
294
330
5D
100
AcDbEntity
  8
0
  6
Continuous
 62
     3
100
AcDbLine
 10
-528.3279316988755
 20
269.9999999996527
 30
0.0
 11
-528.3279316988755
 21
275.9999999996527
 31
0.0
  0
LINE
  5
295
330
5D
100
AcDbEntity
  8
0
  6
Continuous
 62
     3
100
AcDbLine
 10
-527.3248655561683
 20
269.9999999996527
 30
0.0
 11
-527.3248655561683
 21
275.9999999996527
 31
0.0
  0
LINE
  5
296
330
5D
100
AcDbEntity
  8
0
  6
Continuous
 62
     7
100
AcDbLine
 10
-700.9999999985193
 20
268.9999999996527
 30
0.0
 11
-700.9999999985193
 21
248.9999999996527
 31
0.0
  0
LINE
  5
297
330
5D
100
AcDbEntity
  8
0
  6
Continuous
 62
     7
100
AcDbLine
 10
-576.4999999985193
 20
268.9999999996527
 30
0.0
 11
-575.6414664589265
 21
268.9999999996527
 31
0.0
  0
LINE
  5
298
330
5D
100
AcDbEntity
  8
0
  6
Continuous
 62
     3
100
AcDbLine
 10
-574.6751344408713
 20
269.9999999996527
 30
0.0
 11
-575.4999999985193
 21
269.9999999996527
 31
0.0
  0
LINE
  5
299
330
5D
100
AcDbEntity
  8
0
  6
Continuous
 62
     7
100
AcDbLine
 10
-526.3585335381135
 20
268.9999999996527
 30
0.0
 11
-525.4999999985193
 21
268.9999999996527
 31
0.0
  0
LINE
  5
29A
330
5D
100
AcDbEntity
  8
0
  6
Continuous
 62
     7
100
AcDbLine
 10
-526.4999999985193
 20
269.9999999996527
 30
0.0
 11
-526.4999999985193
 21
275.9999999996527
 31
0.0
  0
LINE
  5
29B
330
5D
100
AcDbEntity
  8
0
  6
Continuous
 62
     3
100
AcDbLine
 10
-527.3248655561683
 20
275.9999999996527
 30
0.0
 11
-526.4999999985193
 21
275.9999999996527
 31
0.0
  0
LINE
  5
29C
330
5D
100
AcDbEntity
  8
0
  6
Continuous
 62
     3
100
AcDbLine
 10
-268.1556802742407
 20
269.9999999996527
 30
0.0
 11
-269.9536622017968
 21
269.9999999996527
 31
0.0
  0
LINE
  5
29D
330
5D
100
AcDbEntity
  8
0
  6
Continuous
 62
     3
100
AcDbLine
 10
-268.1556802742407
 20
275.9999999996527
 30
0.0
 11
-269.9536622017968
 21
275.9999999996527
 31
0.0
  0
LINE
  5
29E
330
5D
100
AcDbEntity
  8
0
  6
Continuous
 62
     3
100
AcDbLine
 10
-273.0743744065476
 20
275.9999999996527
 30
0.0
 11
-269.9536622017968
 21
275.9999999996527
 31
0.0
  0
LINE
  5
29F
330
5D
100
AcDbEntity
  8
0
  6
Continuous
 62
     7
100
AcDbLine
 10
-274.5903496150486
 20
268.9999999996527
 30
0.0
 11
-273.9403998103317
 21
268.9999999996527
 31
0.0
  0
LINE
  5
2A0
330
5D
100
AcDbEntity
  8
0
  6
Continuous
 62
     7
100
AcDbLine
 10
-273.9403998103317
 20
268.9999999996527
 30
0.0
 11
-270.8196876055818
 21
268.9999999996527
 31
0.0
  0
LINE
  5
2A1
330
5D
100
AcDbEntity
  8
0
  6
Continuous
 62
     3
100
AcDbLine
 10
-269.9536622017968
 20
269.9999999996527
 30
0.0
 11
-269.9536622017968
 21
275.9999999996527
 31
0.0
  0
LINE
  5
2A2
330
5D
100
AcDbEntity
  8
0
  6
Continuous
 62
     3
100
AcDbLine
 10
-268.1556802742407
 20
269.9999999996527
 30
0.0
 11
-268.1556802742407
 21
275.9999999996527
 31
0.0
  0
LINE
  5
2A3
330
5D
100
AcDbEntity
  8
0
  6
Continuous
 62
     7
100
AcDbLine
 10
-231.1803123914588
 20
268.9999999996527
 30
0.0
 11
-228.0596001867079
 21
268.9999999996527
 31
0.0
  0
LINE
  5
2A4
330
5D
100
AcDbEntity
  8
0
  6
Continuous
 62
     3
100
AcDbLine
 10
-228.9256255904929
 20
275.9999999996527
 30
0.0
 11
-232.0463377952419
 21
275.9999999996527
 31
0.0
  0
LINE
  5
2A5
330
5D
100
AcDbEntity
  8
0
  6
Continuous
 62
     3
100
AcDbLine
 10
-232.0463377952419
 20
275.9999999996527
 30
0.0
 11
-233.8443197227989
 21
275.9999999996527
 31
0.0
  0
LINE
  5
2A6
330
5D
100
AcDbEntity
  8
0
  6
Continuous
 62
     3
100
AcDbLine
 10
-232.0463377952419
 20
269.9999999996527
 30
0.0
 11
-232.0463377952419
 21
275.9999999996527
 31
0.0
  0
LINE
  5
2A7
330
5D
100
AcDbEntity
  8
0
  6
Continuous
 62
     7
100
AcDbLine
 10
-233.1580925117705
 20
268.9999999996527
 30
0.0
 11
-231.1803123914588
 21
268.9999999996527
 31
0.0
  0
LINE
  5
2A8
330
5D
100
AcDbEntity
  8
0
  6
Continuous
 62
     3
100
AcDbLine
 10
-233.8443197227989
 20
269.9999999996527
 30
0.0
 11
-233.8443197227989
 21
275.9999999996527
 31
0.0
  0
LINE
  5
2A9
330
5D
100
AcDbEntity
  8
0
  6
Continuous
 62
     3
100
AcDbLine
 10
-233.8443197227989
 20
275.9999999996527
 30
0.0
 11
-268.1556802742407
 21
275.9999999996527
 31
0.0
  0
LINE
  5
2AA
330
5D
100
AcDbEntity
  8
0
  6
Continuous
 62
     7
100
AcDbLine
 10
-275.4999999985203
 20
275.9999999996527
 30
0.0
 11
-275.4999999985203
 21
269.9999999996527
 31
0.0
  0
LINE
  5
2AB
330
5D
100
AcDbEntity
  8
0
  6
Continuous
 62
     3
100
AcDbLine
 10
-273.0743744065476
 20
275.9999999996527
 30
0.0
 11
-273.6652378653807
 21
275.9999999996527
 31
0.0
  0
LINE
  5
2AC
330
5D
100
AcDbEntity
  8
0
  6
Continuous
 62
     3
100
AcDbLine
 10
-273.6652378653807
 20
275.9999999996527
 30
0.0
 11
-275.4999999985203
 21
275.9999999996527
 31
0.0
  0
LINE
  5
2AD
330
5D
100
AcDbEntity
  8
0
  6
Continuous
 62
     3
100
AcDbLine
 10
-273.6652378653807
 20
269.9999999996527
 30
0.0
 11
-273.6652378653807
 21
275.9999999996527
 31
0.0
  0
LINE
  5
2AE
330
5D
100
AcDbEntity
  8
0
  6
Continuous
 62
     7
100
AcDbLine
 10
-276.4999999985203
 20
268.9999999996527
 30
0.0
 11
-274.5903496150486
 21
268.9999999996527
 31
0.0
  0
LINE
  5
2AF
330
5D
100
AcDbEntity
  8
0
  6
Continuous
 62
     3
100
AcDbLine
 10
-273.0743744065476
 20
269.9999999996527
 30
0.0
 11
-273.6652378653807
 21
269.9999999996527
 31
0.0
  0
LINE
  5
2B0
330
5D
100
AcDbEntity
  8
0
  6
Continuous
 62
     3
100
AcDbLine
 10
-273.0743744065476
 20
269.9999999996527
 30
0.0
 11
-273.0743744065476
 21
275.9999999996527
 31
0.0
  0
LINE
  5
2B1
330
5D
100
AcDbEntity
  8
0
  6
Continuous
 62
     7
100
AcDbLine
 10
-270.8196876055818
 20
268.9999999996527
 30
0.0
 11
-268.84190748527
 21
268.9999999996527
 31
0.0
  0
LINE
  5
2B2
330
5D
100
AcDbEntity
  8
0
  6
Continuous
 62
     7
100
AcDbLine
 10
-268.84190748527
 20
268.9999999996527
 30
0.0
 11
-233.1580925117705
 21
268.9999999996527
 31
0.0
  0
LINE
  5
2B3
330
5D
100
AcDbEntity
  8
0
  6
Continuous
 62
     3
100
AcDbLine
 10
-228.334762131658
 20
275.9999999996527
 30
0.0
 11
-226.4999999985203
 21
275.9999999996527
 31
0.0
  0
LINE
  5
2B4
330
5D
100
AcDbEntity
  8
0
  6
Continuous
 62
     3
100
AcDbLine
 10
-228.9256255904929
 20
275.9999999996527
 30
0.0
 11
-228.334762131658
 21
275.9999999996527
 31
0.0
  0
LINE
  5
2B5
330
5D
100
AcDbEntity
  8
0
  6
Continuous
 62
     3
100
AcDbLine
 10
-228.334762131658
 20
269.9999999996527
 30
0.0
 11
-228.334762131658
 21
275.9999999996527
 31
0.0
  0
LINE
  5
2B6
330
5D
100
AcDbEntity
  8
0
  6
Continuous
 62
     3
100
AcDbLine
 10
-228.9256255904929
 20
269.9999999996527
 30
0.0
 11
-228.334762131658
 21
269.9999999996527
 31
0.0
  0
LINE
  5
2B7
330
5D
100
AcDbEntity
  8
0
  6
Continuous
 62
     7
100
AcDbLine
 10
-228.0596001867079
 20
268.9999999996527
 30
0.0
 11
-227.4096503819919
 21
268.9999999996527
 31
0.0
  0
LINE
  5
2B8
330
5D
100
AcDbEntity
  8
0
  6
Continuous
 62
     3
100
AcDbLine
 10
-228.9256255904929
 20
269.9999999996527
 30
0.0
 11
-228.9256255904929
 21
275.9999999996527
 31
0.0
  0
LINE
  5
2B9
330
5D
100
AcDbEntity
  8
0
  6
Continuous
 62
     7
100
AcDbLine
 10
-226.4999999985203
 20
269.9999999996527
 30
0.0
 11
-226.4999999985203
 21
275.9999999996527
 31
0.0
  0
LINE
  5
2BA
330
5D
100
AcDbEntity
  8
0
  6
Continuous
 62
     7
100
AcDbLine
 10
-225.4999999985203
 20
268.9999999996527
 30
0.0
 11
-100.9999999985203
 21
268.9999999996527
 31
0.0
  0
LINE
  5
2BB
330
5D
100
AcDbEntity
  8
0
  6
Continuous
 62
     7
100
AcDbLine
 10
-227.4096503819919
 20
268.9999999996527
 30
0.0
 11
-225.4999999985203
 21
268.9999999996527
 31
0.0
  0
LINE
  5
2BC
330
5D
100
AcDbEntity
  8
0
  6
Continuous
 62
     3
100
AcDbLine
 10
-532.9079727112603
 20
275.9999999996527
 30
0.0
 11
-532.9079727112603
 21
269.9999999996527
 31
0.0
  0
LINE
  5
2BD
330
5D
100
AcDbEntity
  8
0
  6
Continuous
 62
     3
100
AcDbLine
 10
-535.2803779161613
 20
275.9999999996527
 30
0.0
 11
-535.2803779161613
 21
269.9999999996527
 31
0.0
  0
LINE
  5
2BE
330
5D
100
AcDbEntity
  8
0
  6
Continuous
 62
     7
100
AcDbLine
 10
-525.4999999985193
 20
268.9999999996527
 30
0.0
 11
-276.4999999985203
 21
268.9999999996527
 31
0.0
  0
LINE
  5
2BF
330
5D
100
AcDbEntity
  8
0
  6
Continuous
 62
     7
100
AcDbLine
 10
-527.4619062950915
 20
268.9999999996527
 30
0.0
 11
-526.3585335381135
 21
268.9999999996527
 31
0.0
  0
LINE
  5
2C0
330
5D
100
AcDbEntity
  8
0
  6
Continuous
 62
     7
100
AcDbLine
 10
-532.0419473074753
 20
268.9999999996527
 30
0.0
 11
-527.4619062950915
 21
268.9999999996527
 31
0.0
  0
LINE
  5
2C1
330
5D
100
AcDbEntity
  8
0
  6
Continuous
 62
     7
100
AcDbLine
 10
-534.6515930328674
 20
268.9999999996527
 30
0.0
 11
-532.0419473074753
 21
268.9999999996527
 31
0.0
  0
LINE
  5
2C2
330
5D
100
AcDbEntity
  8
0
  6
Continuous
 62
     7
100
AcDbLine
 10
-567.3484069641722
 20
268.9999999996527
 30
0.0
 11
-534.6515930328674
 21
268.9999999996527
 31
0.0
  0
LINE
  5
2C3
330
5D
100
AcDbEntity
  8
0
  6
Continuous
 62
     7
100
AcDbLine
 10
-575.6414664589265
 20
268.9999999996527
 30
0.0
 11
-574.5380937019481
 21
268.9999999996527
 31
0.0
  0
LINE
  5
2C4
330
5D
100
AcDbEntity
  8
0
  6
Continuous
 62
     7
100
AcDbLine
 10
-569.9580526895634
 20
268.9999999996527
 30
0.0
 11
-567.3484069641722
 21
268.9999999996527
 31
0.0
  0
LINE
  5
2C5
330
5D
100
AcDbEntity
  8
0
  6
Continuous
 62
     7
100
AcDbLine
 10
-574.5380937019481
 20
268.9999999996527
 30
0.0
 11
-569.9580526895634
 21
268.9999999996527
 31
0.0
  0
LINE
  5
2C6
330
5D
100
AcDbEntity
  8
0
  6
Continuous
 62
     3
100
AcDbLine
 10
-573.6720682981645
 20
269.9999999996527
 30
0.0
 11
-574.6751344408713
 21
269.9999999996527
 31
0.0
  0
LINE
  5
2C7
330
5D
100
AcDbEntity
  8
0
  6
Continuous
 62
     3
100
AcDbLine
 10
-573.6720682981645
 20
275.9999999996527
 30
0.0
 11
-574.6751344408713
 21
275.9999999996527
 31
0.0
  0
LINE
  5
2C8
330
5D
100
AcDbEntity
  8
0
  6
Continuous
 62
     3
100
AcDbLine
 10
-569.0920272857784
 20
275.9999999996527
 30
0.0
 11
-573.6720682981645
 21
275.9999999996527
 31
0.0
  0
LINE
  5
2C9
330
5D
100
AcDbEntity
  8
0
  6
Continuous
 62
     3
100
AcDbLine
 10
-566.7196220808773
 20
275.9999999996527
 30
0.0
 11
-569.0920272857784
 21
275.9999999996527
 31
0.0
  0
LINE
  5
2CA
330
5D
100
AcDbEntity
  8
0
  6
Continuous
 62
     3
100
AcDbLine
 10
-535.2803779161613
 20
275.9999999996527
 30
0.0
 11
-566.7196220808773
 21
275.9999999996527
 31
0.0
  0
LINE
  5
2CB
330
5D
100
AcDbEntity
  8
0
  6
Continuous
 62
     3
100
AcDbLine
 10
-573.6720682981645
 20
275.9999999996527
 30
0.0
 11
-573.6720682981645
 21
269.9999999996527
 31
0.0
  0
LINE
  5
2CC
330
5D
100
AcDbEntity
  8
0
  6
Continuous
 62
     3
100
AcDbLine
 10
-569.0920272857784
 20
275.9999999996527
 30
0.0
 11
-569.0920272857784
 21
269.9999999996527
 31
0.0
  0
LINE
  5
2CD
330
5D
100
AcDbEntity
  8
0
  6
Continuous
 62
     3
100
AcDbLine
 10
-566.7196220808773
 20
275.9999999996527
 30
0.0
 11
-566.7196220808773
 21
269.9999999996527
 31
0.0
  0
ARC
  5
2CE
330
5D
100
AcDbEntity
  8
0
  6
Continuous
 62
     7
100
AcDbCircle
 10
-273.4999999985203
 20
275.9999999996527
 30
0.0
 40
2.0
100
AcDbArc
 50
90.0
 51
180.0
  0
ARC
  5
2CF
330
5D
100
AcDbEntity
  8
0
  6
Continuous
 62
     7
100
AcDbCircle
 10
-525.4999999985193
 20
269.9999999996527
 30
0.0
 40
1.0
100
AcDbArc
 50
180.0
 51
270.0
  0
ARC
  5
2D0
330
5D
100
AcDbEntity
  8
0
  6
Continuous
 62
     7
100
AcDbCircle
 10
-276.4999999985203
 20
269.9999999996527
 30
0.0
 40
1.0
100
AcDbArc
 50
270.0
 51
0.0
  0
ARC
  5
2D1
330
5D
100
AcDbEntity
  8
0
  6
Continuous
 62
     7
100
AcDbCircle
 10
-225.4999999985203
 20
269.9999999996527
 30
0.0
 40
1.0
100
AcDbArc
 50
180.0
 51
270.0
  0
ARC
  5
2D2
330
5D
100
AcDbEntity
  8
0
  6
Continuous
 62
     7
100
AcDbCircle
 10
-528.4999999985193
 20
275.9999999996527
 30
0.0
 40
2.0
100
AcDbArc
 50
0.0
 51
90.0
  0
ARC
  5
2D3
330
5D
100
AcDbEntity
  8
0
  6
Continuous
 62
     7
100
AcDbCircle
 10
-576.4999999985193
 20
269.9999999996527
 30
0.0
 40
1.0
100
AcDbArc
 50
270.0
 51
0.0
  0
ARC
  5
2D4
330
5D
100
AcDbEntity
  8
0
  6
Continuous
 62
     7
100
AcDbCircle
 10
-573.4999999985193
 20
275.9999999996527
 30
0.0
 40
2.0
100
AcDbArc
 50
90.0
 51
180.0
  0
ARC
  5
2D5
330
5D
100
AcDbEntity
  8
0
  6
Continuous
 62
     7
100
AcDbCircle
 10
-228.4999999985203
 20
275.9999999996527
 30
0.0
 40
2.0
100
AcDbArc
 50
0.0
 51
90.0
  0
SPLINE
  5
2D6
330
5D
100
AcDbEntity
  8
0
  6
Continuous
 62
     3
100
AcDbSpline
210
0.0
220
0.0
230
1.0
 70
     8
 71
     3
 72
    13
 73
     9
 74
     7
 42
0.000000001
 43
0.0000000001
 44
0.00000001
 40
0.0
 40
0.0
 40
0.0
 40
0.0
 40
0.4534380352480301
 40
0.9164985361496728
 40
1.395768996116542
 40
1.893099999102329
 40
2.405558068106929
 40
2.926549670765104
 40
2.926549670765104
 40
2.926549670765104
 40
2.926549670765104
 10
-230.657676398062
 20
277.9999999996527
 30
0.0
 10
-230.5059782379127
 20
277.9865038450957
 30
0.0
 10
-230.1993627140565
 20
277.9592251183452
 30
0.0
 10
-229.7747570817996
 20
277.7455865358421
 30
0.0
 10
-229.4124852055658
 20
277.4238931467027
 30
0.0
 10
-229.1384574185034
 20
277.0043291770536
 30
0.0
 10
-228.9594652693234
 20
276.5193165125954
 30
0.0
 10
-228.9369674026941
 20
276.1740558148834
 30
0.0
 10
-228.9256255904929
 20
275.9999999996527
 30
0.0
 11
-230.657676398062
 21
277.9999999996527
 31
0.0
 11
-230.2093887814937
 21
277.931851137188
 31
0.0
 11
-229.791650994277
 21
277.7320508072216
 31
0.0
 11
-229.432931853194
 21
277.4142131849883
 31
0.0
 11
-229.1576763980615
 21
276.9999999996527
 31
0.0
 11
-228.9846442366261
 21
276.5176379518524
 31
0.0
 11
-228.9256255904929
 21
275.9999999996527
 31
0.0
  0
SPLINE
  5
2D7
330
5D
100
AcDbEntity
  8
0
  6
Continuous
 62
     3
100
AcDbSpline
210
0.0
220
0.0
230
1.0
 70
     8
 71
     3
 72
    13
 73
     9
 74
     7
 42
0.000000001
 43
0.0000000001
 44
0.00000001
 40
0.0
 40
0.0
 40
0.0
 40
0.0
 40
0.4836978073118434
 40
0.9726244212004763
 40
1.470477811651453
 40
1.978443686020036
 40
2.495007422292278
 40
3.016470517905287
 40
3.016470517905287
 40
3.016470517905287
 40
3.016470517905287
 10
-230.1849856309946
 20
277.9999999996527
 30
0.0
 10
-230.0232225620477
 20
277.9866180633492
 30
0.0
 10
-229.697947756313
 20
277.9597095169277
 30
0.0
 10
-229.2453985013948
 20
277.7478443643304
 30
0.0
 10
-228.8577455698176
 20
277.4270970904572
 30
0.0
 10
-228.5637004400931
 20
277.0074179775659
 30
0.0
 10
-228.3711930548478
 20
276.5211455143699
 30
0.0
 10
-228.3469439188888
 20
276.174260922729
 30
0.0
 10
-228.334762131658
 20
275.9999999996527
 30
0.0
 11
-230.1849856309946
 21
277.9999999996527
 31
0.0
 11
-229.7061126793408
 21
277.931851137188
 31
0.0
 11
-229.2598738813272
 21
277.7320508072216
 31
0.0
 11
-228.8766803967058
 21
277.4142131849883
 31
0.0
 11
-228.5826450778914
 21
276.9999999996527
 31
0.0
 11
-228.3978074450512
 21
276.5176379518524
 31
0.0
 11
-228.334762131658
 21
275.9999999996527
 31
0.0
  0
SPLINE
  5
2D8
330
5D
100
AcDbEntity
  8
0
  6
Continuous
 62
     3
100
AcDbSpline
210
0.0
220
0.0
230
1.0
 70
     8
 71
     3
 72
    13
 73
     9
 74
     7
 42
0.000000001
 43
0.0000000001
 44
0.00000001
 40
0.0
 40
0.0
 40
0.0
 40
0.0
 40
0.5197461645773455
 40
1.021215869683119
 40
1.489344079874986
 40
1.915742493206937
 40
2.302378966973202
 40
2.664074360346833
 40
2.664074360346833
 40
2.664074360346833
 40
2.664074360346833
 10
-233.8443197227989
 20
275.9999999996527
 30
0.0
 10
-233.8531791724982
 20
276.1735105193419
 30
0.0
 10
-233.8705865496204
 20
276.5144301983688
 30
0.0
 10
-234.0096333959481
 20
276.9953366200177
 30
0.0
 10
-234.2231121815967
 20
277.41325420661
 30
0.0
 10
-234.5069346432492
 20
277.7364781869202
 30
0.0
 10
-234.8449436005596
 20
277.9568961406275
 30
0.0
 10
-235.0956155023534
 20
277.9859548830703
 30
0.0
 10
-235.2167741448566
 20
277.9999999996527
 30
0.0
 11
-233.8443197227989
 21
275.9999999996527
 31
0.0
 11
-233.8910853266225
 21
276.5176379518525
 31
0.0
 11
-234.0281937498181
 21
276.9999999996527
 31
0.0
 11
-234.2463025748835
 21
277.4142131849883
 31
0.0
 11
-234.5305469338277
 21
277.7320508072216
 31
0.0
 11
-234.8615568965959
 21
277.9318511371881
 31
0.0
 11
-235.2167741448566
 21
277.9999999996527
 31
0.0
  0
SPLINE
  5
2D9
330
5D
100
AcDbEntity
  8
0
  6
Continuous
 62
     3
100
AcDbSpline
210
0.0
220
0.0
230
1.0
 70
     8
 71
     3
 72
    13
 73
     9
 74
     7
 42
0.000000001
 43
0.0000000001
 44
0.00000001
 40
0.0
 40
0.0
 40
0.0
 40
0.0
 40
0.4534380352476648
 40
0.9164985361492564
 40
1.39576899611636
 40
1.893099999101957
 40
2.40555806810673
 40
2.926549670765003
 40
2.926549670765003
 40
2.926549670765003
 40
2.926549670765003
 10
-233.7783886028119
 20
277.9999999996527
 30
0.0
 10
-233.6266904426627
 20
277.9865038450956
 30
0.0
 10
-233.3200749188067
 20
277.9592251183453
 30
0.0
 10
-232.8954692865499
 20
277.745586535842
 30
0.0
 10
-232.5331974103158
 20
277.4238931467029
 30
0.0
 10
-232.2591696232538
 20
277.0043291770534
 30
0.0
 10
-232.0801774740733
 20
276.5193165125955
 30
0.0
 10
-232.0576796074433
 20
276.1740558148833
 30
0.0
 10
-232.0463377952419
 20
275.9999999996527
 30
0.0
 11
-233.7783886028119
 21
277.9999999996527
 31
0.0
 11
-233.330100986244
 21
277.931851137188
 31
0.0
 11
-232.9123631990273
 21
277.7320508072216
 31
0.0
 11
-232.553644057944
 21
277.4142131849883
 31
0.0
 11
-232.2783886028119
 21
276.9999999996527
 31
0.0
 11
-232.105356441376
 21
276.5176379518524
 31
0.0
 11
-232.0463377952419
 21
275.9999999996527
 31
0.0
  0
SPLINE
  5
2DA
330
5D
100
AcDbEntity
  8
0
  6
Continuous
 62
     3
100
AcDbSpline
210
0.0
220
0.0
230
1.0
 70
     8
 71
     3
 72
    13
 73
     9
 74
     7
 42
0.000000001
 43
0.0000000001
 44
0.00000001
 40
0.0
 40
0.0
 40
0.0
 40
0.0
 40
0.5197461645773737
 40
1.021215869683054
 40
1.489344079874709
 40
1.91574249320666
 40
2.302378966972998
 40
2.664074360346992
 40
2.664074360346992
 40
2.664074360346992
 40
2.664074360346992
 10
-268.1556802742407
 20
275.9999999996527
 30
0.0
 10
-268.1468208245413
 20
276.1735105193418
 30
0.0
 10
-268.1294134474188
 20
276.5144301983687
 30
0.0
 10
-267.9903666010916
 20
276.9953366200176
 30
0.0
 10
-267.7768878154434
 20
277.4132542066101
 30
0.0
 10
-267.4930653537908
 20
277.7364781869201
 30
0.0
 10
-267.1550563964803
 20
277.9568961406276
 30
0.0
 10
-266.9043844946864
 20
277.9859548830702
 30
0.0
 10
-266.783225852183
 20
277.9999999996527
 30
0.0
 11
-268.1556802742407
 21
275.9999999996527
 31
0.0
 11
-268.1089146704168
 21
276.5176379518525
 31
0.0
 11
-267.9718062472216
 21
276.9999999996527
 31
0.0
 11
-267.7536974221566
 21
277.4142131849883
 31
0.0
 11
-267.4694530632123
 21
277.7320508072216
 31
0.0
 11
-267.1384431004441
 21
277.9318511371881
 31
0.0
 11
-266.783225852183
 21
277.9999999996527
 31
0.0
  0
SPLINE
  5
2DB
330
5D
100
AcDbEntity
  8
0
  6
Continuous
 62
     3
100
AcDbSpline
210
0.0
220
0.0
230
1.0
 70
     8
 71
     3
 72
    13
 73
     9
 74
     7
 42
0.000000001
 43
0.0000000001
 44
0.00000001
 40
0.0
 40
0.0
 40
0.0
 40
0.0
 40
0.4534380352478896
 40
0.9164985361491991
 40
1.395768996116409
 40
1.893099999102211
 40
2.405558068106753
 40
2.926549670764949
 40
2.926549670764949
 40
2.926549670764949
 40
2.926549670764949
 10
-534.6400235188294
 20
277.9999999996527
 30
0.0
 10
-534.4883253586803
 20
277.9865038450957
 30
0.0
 10
-534.1817098348239
 20
277.9592251183453
 30
0.0
 10
-533.7571042025675
 20
277.7455865358419
 30
0.0
 10
-533.3948323263332
 20
277.4238931467028
 30
0.0
 10
-533.1208045392708
 20
277.0043291770538
 30
0.0
 10
-532.9418123900911
 20
276.5193165125953
 30
0.0
 10
-532.9193145234615
 20
276.1740558148834
 30
0.0
 10
-532.9079727112603
 20
275.9999999996527
 30
0.0
 11
-534.6400235188294
 21
277.9999999996527
 31
0.0
 11
-534.1917359022613
 21
277.931851137188
 31
0.0
 11
-533.7739981150448
 21
277.7320508072216
 31
0.0
 11
-533.4152789739614
 21
277.4142131849883
 31
0.0
 11
-533.1400235188289
 21
276.9999999996527
 31
0.0
 11
-532.9669913573937
 21
276.5176379518524
 31
0.0
 11
-532.9079727112603
 21
275.9999999996527
 31
0.0
  0
SPLINE
  5
2DC
330
5D
100
AcDbEntity
  8
0
  6
Continuous
 62
     3
100
AcDbSpline
210
0.0
220
0.0
230
1.0
 70
     8
 71
     3
 72
    13
 73
     9
 74
     7
 42
0.000000001
 43
0.0000000001
 44
0.00000001
 40
0.0
 40
0.0
 40
0.0
 40
0.0
 40
0.4534380352478896
 40
0.9164985361489939
 40
1.395768996115778
 40
1.893099999101644
 40
2.405558068106301
 40
2.926549670764484
 40
2.926549670764484
 40
2.926549670764484
 40
2.926549670764484
 10
-530.0599825064442
 20
277.9999999996527
 30
0.0
 10
-529.908284346295
 20
277.9865038450958
 30
0.0
 10
-529.6016688224388
 20
277.9592251183453
 30
0.0
 10
-529.1770631901826
 20
277.7455865358421
 30
0.0
 10
-528.8147913139488
 20
277.4238931467026
 30
0.0
 10
-528.5407635268863
 20
277.0043291770537
 30
0.0
 10
-528.3617713777062
 20
276.5193165125954
 30
0.0
 10
-528.3392735110766
 20
276.1740558148834
 30
0.0
 10
-528.3279316988755
 20
275.9999999996527
 30
0.0
 11
-530.0599825064442
 21
277.9999999996527
 31
0.0
 11
-529.611694889876
 21
277.931851137188
 31
0.0
 11
-529.1939571026599
 21
277.7320508072216
 31
0.0
 11
-528.835237961577
 21
277.4142131849883
 31
0.0
 11
-528.5599825064444
 21
276.9999999996527
 31
0.0
 11
-528.3869503450088
 21
276.5176379518524
 31
0.0
 11
-528.3279316988755
 21
275.9999999996527
 31
0.0
  0
SPLINE
  5
2DD
330
5D
100
AcDbEntity
  8
0
  6
Continuous
 62
     3
100
AcDbSpline
210
0.0
220
0.0
230
1.0
 70
     8
 71
     3
 72
    13
 73
     9
 74
     7
 42
0.000000001
 43
0.0000000001
 44
0.00000001
 40
0.0
 40
0.0
 40
0.0
 40
0.0
 40
0.5194085693755406
 40
1.017862580602356
 40
1.477768202470466
 40
1.888688474052655
 40
2.251885732048807
 40
2.584426548912319
 40
2.584426548912319
 40
2.584426548912319
 40
2.584426548912319
 10
-535.2803779161613
 20
275.9999999996527
 30
0.0
 10
-535.2884645707737
 20
276.1733628158787
 30
0.0
 10
-535.304311650893
 20
276.5130944517109
 30
0.0
 10
-535.4309715825382
 20
276.9926661256599
 30
0.0
 10
-535.6253646610987
 20
277.4096927885632
 30
0.0
 10
-535.8838415573274
 20
277.7326947201832
 30
0.0
 10
-536.1933930309792
 20
277.9557178469597
 30
0.0
 10
-536.4265202408699
 20
277.9856793530132
 30
0.0
 10
-536.5379476827502
 20
277.9999999996527
 30
0.0
 11
-535.2803779161613
 21
275.9999999996527
 31
0.0
 11
-535.323228890693
 21
276.5176379518525
 31
0.0
 11
-535.4488603178534
 21
276.9999999996527
 31
0.0
 11
-535.648711810056
 21
277.4142131849883
 31
0.0
 11
-535.9091627994565
 21
277.7320508072216
 31
0.0
 11
-536.2124647633877
 21
277.9318511371881
 31
0.0
 11
-536.5379476827502
 21
277.9999999996527
 31
0.0
  0
SPLINE
  5
2DE
330
5D
100
AcDbEntity
  8
0
  6
Continuous
 62
     3
100
AcDbSpline
210
0.0
220
0.0
230
1.0
 70
     8
 71
     3
 72
    13
 73
     9
 74
     7
 42
0.000000001
 43
0.0000000001
 44
0.00000001
 40
0.0
 40
0.0
 40
0.0
 40
0.0
 40
0.5209916026582838
 40
1.033449671662964
 40
1.530780674648845
 40
2.010051134615634
 40
2.473111635517173
 40
2.926549670764436
 40
2.926549670764436
 40
2.926549670764436
 40
2.926549670764436
 10
-273.0743744065476
 20
275.9999999996527
 30
0.0
 10
-273.0630325943463
 20
276.1740558148835
 30
0.0
 10
-273.0405347277166
 20
276.5193165125954
 30
0.0
 10
-272.8615425785362
 20
277.0043291770536
 30
0.0
 10
-272.5875147914737
 20
277.4238931467027
 30
0.0
 10
-272.22524291524
 20
277.7455865358421
 30
0.0
 10
-271.8006372829835
 20
277.9592251183453
 30
0.0
 10
-271.4940217591275
 20
277.9865038450956
 30
0.0
 10
-271.3423235989785
 20
277.9999999996527
 30
0.0
 11
-273.0743744065476
 21
275.9999999996527
 31
0.0
 11
-273.0153557604139
 21
276.5176379518525
 31
0.0
 11
-272.8423235989781
 21
276.9999999996527
 31
0.0
 11
-272.5670681438455
 21
277.4142131849883
 31
0.0
 11
-272.2083490027626
 21
277.7320508072216
 31
0.0
 11
-271.7906112155461
 21
277.9318511371881
 31
0.0
 11
-271.3423235989785
 21
277.9999999996527
 31
0.0
  0
SPLINE
  5
2DF
330
5D
100
AcDbEntity
  8
0
  6
Continuous
 62
     3
100
AcDbSpline
210
0.0
220
0.0
230
1.0
 70
     8
 71
     3
 72
    13
 73
     9
 74
     7
 42
0.000000001
 43
0.0000000001
 44
0.00000001
 40
0.0
 40
0.0
 40
0.0
 40
0.0
 40
0.4534380352480581
 40
0.9164985361496754
 40
1.395768996116545
 40
1.893099999102347
 40
2.405558068106947
 40
2.926549670765123
 40
2.926549670765123
 40
2.926549670765123
 40
2.926549670765123
 10
-268.2216113942277
 20
277.9999999996527
 30
0.0
 10
-268.373309554377
 20
277.9865038450957
 30
0.0
 10
-268.6799250782332
 20
277.9592251183452
 30
0.0
 10
-269.1045307104901
 20
277.7455865358422
 30
0.0
 10
-269.4668025867239
 20
277.4238931467027
 30
0.0
 10
-269.7408303737864
 20
277.0043291770536
 30
0.0
 10
-269.9198225229663
 20
276.5193165125954
 30
0.0
 10
-269.9423203895956
 20
276.1740558148834
 30
0.0
 10
-269.9536622017968
 20
275.9999999996527
 30
0.0
 11
-268.2216113942277
 21
277.9999999996527
 31
0.0
 11
-268.669899010796
 21
277.931851137188
 31
0.0
 11
-269.0876367980127
 21
277.7320508072216
 31
0.0
 11
-269.4463559390957
 21
277.4142131849883
 31
0.0
 11
-269.7216113942281
 21
276.9999999996527
 31
0.0
 11
-269.8946435556636
 21
276.5176379518524
 31
0.0
 11
-269.9536622017968
 21
275.9999999996527
 31
0.0
  0
SPLINE
  5
2E0
330
5D
100
AcDbEntity
  8
0
  6
Continuous
 62
     3
100
AcDbSpline
210
0.0
220
0.0
230
1.0
 70
     8
 71
     3
 72
    13
 73
     9
 74
     7
 42
0.000000001
 43
0.0000000001
 44
0.00000001
 40
0.0
 40
0.0
 40
0.0
 40
0.0
 40
0.521463095613051
 40
1.038026831884966
 40
1.545992706253349
 40
2.043846096704245
 40
2.532772710592979
 40
3.016470517905208
 40
3.016470517905208
 40
3.016470517905208
 40
3.016470517905208
 10
-273.6652378653807
 20
275.9999999996527
 30
0.0
 10
-273.6530560781499
 20
276.1742609227289
 30
0.0
 10
-273.6288069421909
 20
276.5211455143698
 30
0.0
 10
-273.4362995569466
 20
277.0074179775659
 30
0.0
 10
-273.1422544272224
 20
277.4270970904574
 30
0.0
 10
-272.7546014956452
 20
277.7478443643305
 30
0.0
 10
-272.3020522407268
 20
277.9597095169277
 30
0.0
 10
-271.9767774349922
 20
277.9866180633493
 30
0.0
 10
-271.815014366045
 20
277.9999999996527
 30
0.0
 11
-273.6652378653807
 21
275.9999999996527
 31
0.0
 11
-273.6021925519876
 21
276.5176379518525
 31
0.0
 11
-273.4173549191482
 21
276.9999999996527
 31
0.0
 11
-273.1233196003342
 21
277.4142131849883
 31
0.0
 11
-272.7401261157129
 21
277.7320508072216
 31
0.0
 11
-272.2938873176992
 21
277.9318511371881
 31
0.0
 11
-271.815014366045
 21
277.9999999996527
 31
0.0
  0
SPLINE
  5
2E1
330
5D
100
AcDbEntity
  8
0
  6
Continuous
 62
     3
100
AcDbSpline
210
0.0
220
0.0
230
1.0
 70
     8
 71
     3
 72
    13
 73
     9
 74
     7
 42
0.000000001
 43
0.0000000001
 44
0.00000001
 40
0.0
 40
0.0
 40
0.0
 40
0.0
 40
0.2418489023728307
 40
0.4863122078142876
 40
0.7352389018446742
 40
0.9892218379987923
 40
1.247503705147061
 40
1.508235252468313
 40
1.508235252468313
 40
1.508235252468313
 40
1.508235252468313
 10
-227.4096503819919
 20
268.9999999996527
 30
0.0
 10
-227.4905319160363
 20
269.006690967769
 30
0.0
 10
-227.6531693169397
 20
269.0201452479836
 30
0.0
 10
-227.8794439437354
 20
269.126077820571
 30
0.0
 10
-228.0732704083461
 20
269.2864514574284
 30
0.0
 10
-228.2202929734528
 20
269.4962910126227
 30
0.0
 10
-228.316546662921
 20
269.7394272438352
 30
0.0
 10
-228.3286712380542
 20
269.9128695382767
 30
0.0
 10
-228.334762131658
 20
269.9999999996527
 30
0.0
 11
-227.4096503819919
 21
268.9999999996527
 31
0.0
 11
-227.6490868578188
 21
269.034074430885
 31
0.0
 11
-227.8722062568254
 21
269.1339745958682
 31
0.0
 11
-228.0638029991359
 21
269.2928934069848
 31
0.0
 11
-228.2108206585431
 21
269.4999999996526
 31
0.0
 11
-228.3032394749623
 21
269.7411810235528
 31
0.0
 11
-228.334762131658
 21
269.9999999996527
 31
0.0
  0
SPLINE
  5
2E2
330
5D
100
AcDbEntity
  8
0
  6
Continuous
 62
     3
100
AcDbSpline
210
0.0
220
0.0
230
1.0
 70
     8
 71
     3
 72
    13
 73
     9
 74
     7
 42
0.000000001
 43
0.0000000001
 44
0.00000001
 40
0.0
 40
0.0
 40
0.0
 40
0.0
 40
0.2604958012769827
 40
0.5167248350174474
 40
0.7653903355275085
 40
1.005025564212549
 40
1.236555812920512
 40
1.463274828992531
 40
1.463274828992531
 40
1.463274828992531
 40
1.463274828992531
 10
-232.0463377952419
 20
269.9999999996527
 30
0.0
 10
-232.0406668891426
 20
269.9129720920547
 30
0.0
 10
-232.0294179486517
 20
269.7403417443011
 30
0.0
 10
-231.9399218770404
 20
269.4978354122737
 30
0.0
 10
-231.8029079831329
 20
269.2880534287256
 30
0.0
 10
-231.6217720461389
 20
269.1272067344098
 30
0.0
 10
-231.4094692307378
 20
269.0203874471825
 30
0.0
 10
-231.2561614710143
 20
269.006748076885
 30
0.0
 10
-231.1803123914588
 20
268.9999999996527
 30
0.0
 11
-232.0463377952419
 21
269.9999999996527
 31
0.0
 11
-232.0168284721758
 21
269.7411810235528
 31
0.0
 11
-231.9303123914588
 21
269.4999999996526
 31
0.0
 11
-231.7926846638925
 21
269.2928934069848
 31
0.0
 11
-231.6133250933508
 21
269.1339745958682
 31
0.0
 11
-231.4044561997425
 21
269.034074430885
 31
0.0
 11
-231.1803123914588
 21
268.9999999996527
 31
0.0
  0
SPLINE
  5
2E3
330
5D
100
AcDbEntity
  8
0
  6
Continuous
 62
     3
100
AcDbSpline
210
0.0
220
0.0
230
1.0
 70
     8
 71
     3
 72
    13
 73
     9
 74
     7
 42
0.000000001
 43
0.0000000001
 44
0.00000001
 40
0.0
 40
0.0
 40
0.0
 40
0.0
 40
0.2267190160728901
 40
0.458249264780956
 40
0.6978844934656985
 40
0.9465499939757281
 40
1.202779027716481
 40
1.463274828993521
 40
1.463274828993521
 40
1.463274828993521
 40
1.463274828993521
 10
-228.0596001867079
 20
268.9999999996527
 30
0.0
 10
-228.1354492662636
 20
269.0067480768849
 30
0.0
 10
-228.2887570259876
 20
269.0203874471824
 30
0.0
 10
-228.5010598413888
 20
269.1272067344096
 30
0.0
 10
-228.6821957783828
 20
269.2880534287258
 30
0.0
 10
-228.8192096722899
 20
269.4978354122738
 30
0.0
 10
-228.9087057439023
 20
269.7403417443009
 30
0.0
 10
-228.9199546843935
 20
269.9129720920548
 30
0.0
 10
-228.9256255904929
 20
269.9999999996527
 30
0.0
 11
-228.0596001867079
 21
268.9999999996527
 31
0.0
 11
-228.2837439949925
 21
269.034074430885
 31
0.0
 11
-228.4926128886009
 21
269.1339745958682
 31
0.0
 11
-228.6719724591422
 21
269.2928934069848
 31
0.0
 11
-228.8096001867084
 21
269.4999999996526
 31
0.0
 11
-228.8961162674263
 21
269.7411810235528
 31
0.0
 11
-228.9256255904929
 21
269.9999999996527
 31
0.0
  0
SPLINE
  5
2E4
330
5D
100
AcDbEntity
  8
0
  6
Continuous
 62
     3
100
AcDbSpline
210
0.0
220
0.0
230
1.0
 70
     8
 71
     3
 72
    13
 73
     9
 74
     7
 42
0.000000001
 43
0.0000000001
 44
0.00000001
 40
0.0
 40
0.0
 40
0.0
 40
0.0
 40
0.2607315473212999
 40
0.5190134144696095
 40
0.772996350623744
 40
1.021923044654415
 40
1.266386350096391
 40
1.508235252469531
 40
1.508235252469531
 40
1.508235252469531
 40
1.508235252469531
 10
-273.6652378653807
 20
269.9999999996527
 30
0.0
 10
-273.6713287589847
 20
269.9128695382767
 30
0.0
 10
-273.683453334118
 20
269.7394272438352
 30
0.0
 10
-273.7797070235865
 20
269.4962910126228
 30
0.0
 10
-273.9267295886931
 20
269.2864514574282
 30
0.0
 10
-274.1205560533043
 20
269.1260778205709
 30
0.0
 10
-274.3468306801005
 20
269.0201452479836
 30
0.0
 10
-274.509468081004
 20
269.006690967769
 30
0.0
 10
-274.5903496150486
 20
268.9999999996527
 30
0.0
 11
-273.6652378653807
 21
269.9999999996527
 31
0.0
 11
-273.6967605220768
 21
269.7411810235528
 31
0.0
 11
-273.7891793384961
 21
269.4999999996526
 31
0.0
 11
-273.9361969979033
 21
269.2928934069848
 31
0.0
 11
-274.1277937402142
 21
269.1339745958682
 31
0.0
 11
-274.3509131392213
 21
269.034074430885
 31
0.0
 11
-274.5903496150486
 21
268.9999999996527
 31
0.0
  0
SPLINE
  5
2E5
330
5D
100
AcDbEntity
  8
0
  6
Continuous
 62
     3
100
AcDbSpline
210
0.0
220
0.0
230
1.0
 70
     8
 71
     3
 72
    13
 73
     9
 74
     7
 42
0.000000001
 43
0.0000000001
 44
0.00000001
 40
0.0
 40
0.0
 40
0.0
 40
0.0
 40
0.2604958012770439
 40
0.5167248350177676
 40
0.7653903355278129
 40
1.005025564212555
 40
1.236555812920621
 40
1.463274828993539
 40
1.463274828993539
 40
1.463274828993539
 40
1.463274828993539
 10
-269.9536622017968
 20
269.9999999996527
 30
0.0
 10
-269.9593331078962
 20
269.9129720920546
 30
0.0
 10
-269.9705820483875
 20
269.7403417443011
 30
0.0
 10
-270.0600781199997
 20
269.4978354122738
 30
0.0
 10
-270.1970920139069
 20
269.2880534287257
 30
0.0
 10
-270.3782279509009
 20
269.1272067344096
 30
0.0
 10
-270.5905307663022
 20
269.0203874471825
 30
0.0
 10
-270.743838526026
 20
269.0067480768849
 30
0.0
 10
-270.8196876055818
 20
268.9999999996527
 30
0.0
 11
-269.9536622017968
 21
269.9999999996527
 31
0.0
 11
-269.9831715248635
 21
269.7411810235528
 31
0.0
 11
-270.0696876055813
 21
269.4999999996526
 31
0.0
 11
-270.2073153331475
 21
269.2928934069848
 31
0.0
 11
-270.3866749036888
 21
269.1339745958682
 31
0.0
 11
-270.5955437972972
 21
269.034074430885
 31
0.0
 11
-270.8196876055818
 21
268.9999999996527
 31
0.0
  0
SPLINE
  5
2E6
330
5D
100
AcDbEntity
  8
0
  6
Continuous
 62
     3
100
AcDbSpline
210
0.0
220
0.0
230
1.0
 70
     8
 71
     3
 72
    13
 73
     9
 74
     7
 42
0.000000001
 43
0.0000000001
 44
0.00000001
 40
0.0
 40
0.0
 40
0.0
 40
0.0
 40
0.260495801277031
 40
0.5167248350175052
 40
0.7653903355273933
 40
1.005025564212689
 40
1.236555812921011
 40
1.463274828993199
 40
1.463274828993199
 40
1.463274828993199
 40
1.463274828993199
 10
-273.0743744065476
 20
269.9999999996527
 30
0.0
 10
-273.080045312647
 20
269.9129720920548
 30
0.0
 10
-273.0912942531382
 20
269.7403417443011
 30
0.0
 10
-273.1807903247496
 20
269.4978354122738
 30
0.0
 10
-273.3178042186566
 20
269.2880534287254
 30
0.0
 10
-273.4989401556512
 20
269.1272067344097
 30
0.0
 10
-273.7112429710525
 20
269.0203874471825
 30
0.0
 10
-273.8645507307762
 20
269.0067480768851
 30
0.0
 10
-273.9403998103317
 20
268.9999999996527
 30
0.0
 11
-273.0743744065476
 21
269.9999999996527
 31
0.0
 11
-273.1038837296141
 21
269.7411810235528
 31
0.0
 11
-273.1903998103312
 21
269.4999999996526
 31
0.0
 11
-273.3280275378971
 21
269.2928934069848
 31
0.0
 11
-273.5073871084392
 21
269.1339745958682
 31
0.0
 11
-273.7162560020478
 21
269.034074430885
 31
0.0
 11
-273.9403998103317
 21
268.9999999996527
 31
0.0
  0
SPLINE
  5
2E7
330
5D
100
AcDbEntity
  8
0
  6
Continuous
 62
     3
100
AcDbSpline
210
0.0
220
0.0
230
1.0
 70
     8
 71
     3
 72
    13
 73
     9
 74
     7
 42
0.000000001
 43
0.0000000001
 44
0.00000001
 40
0.0
 40
0.0
 40
0.0
 40
0.0
 40
0.2598730843735489
 40
0.5106079370608492
 40
0.7446720414624952
 40
0.9578712464831339
 40
1.151189480482288
 40
1.332037174867272
 40
1.332037174867272
 40
1.332037174867272
 40
1.332037174867272
 10
-233.8443197227989
 20
269.9999999996527
 30
0.0
 10
-233.8398899979136
 20
269.9132447391121
 30
0.0
 10
-233.83118630271
 20
269.7427848994931
 30
0.0
 10
-233.7616628823473
 20
269.5023316877343
 30
0.0
 10
-233.6549234885827
 20
269.2933728956679
 30
0.0
 10
-233.5130122581429
 20
269.1317609067103
 30
0.0
 10
-233.3440077799765
 20
269.0215519357346
 30
0.0
 10
-233.2186718322511
 20
269.0070225578545
 30
0.0
 10
-233.1580925117705
 20
268.9999999996527
 30
0.0
 11
-233.8443197227989
 21
269.9999999996527
 31
0.0
 11
-233.8209369208868
 21
269.7411810235528
 31
0.0
 11
-233.7523827092892
 21
269.4999999996526
 31
0.0
 11
-233.6433282967566
 21
269.2928934069848
 31
0.0
 11
-233.5012061172843
 21
269.1339745958682
 31
0.0
 11
-233.3357011359003
 21
269.034074430885
 31
0.0
 11
-233.1580925117705
 21
268.9999999996527
 31
0.0
  0
SPLINE
  5
2E8
330
5D
100
AcDbEntity
  8
0
  6
Continuous
 62
     3
100
AcDbSpline
210
0.0
220
0.0
230
1.0
 70
     8
 71
     3
 72
    13
 73
     9
 74
     7
 42
0.000000001
 43
0.0000000001
 44
0.00000001
 40
0.0
 40
0.0
 40
0.0
 40
0.0
 40
0.2598730843735541
 40
0.5106079370609787
 40
0.7446720414625851
 40
0.9578712464829208
 40
1.151189480482196
 40
1.332037174867934
 40
1.332037174867934
 40
1.332037174867934
 40
1.332037174867934
 10
-268.1556802742407
 20
269.9999999996527
 30
0.0
 10
-268.160109999126
 20
269.9132447391121
 30
0.0
 10
-268.1688136943295
 20
269.742784899493
 30
0.0
 10
-268.238337114693
 20
269.5023316877344
 30
0.0
 10
-268.3450765084573
 20
269.2933728956679
 30
0.0
 10
-268.4869877388967
 20
269.1317609067102
 30
0.0
 10
-268.6559922170634
 20
269.0215519357345
 30
0.0
 10
-268.7813281647892
 20
269.0070225578544
 30
0.0
 10
-268.84190748527
 20
268.9999999996527
 30
0.0
 11
-268.1556802742407
 21
269.9999999996527
 31
0.0
 11
-268.1790630761529
 21
269.7411810235528
 31
0.0
 11
-268.2476172877509
 21
269.4999999996526
 31
0.0
 11
-268.3566717002834
 21
269.2928934069848
 31
0.0
 11
-268.4987938797553
 21
269.1339745958682
 31
0.0
 11
-268.6642988611395
 21
269.034074430885
 31
0.0
 11
-268.84190748527
 21
268.9999999996527
 31
0.0
  0
SPLINE
  5
2E9
330
5D
100
AcDbEntity
  8
0
  6
Continuous
 62
     3
100
AcDbSpline
210
0.0
220
0.0
230
1.0
 70
     8
 71
     3
 72
    13
 73
     9
 74
     7
 42
0.000000001
 43
0.0000000001
 44
0.00000001
 40
0.0
 40
0.0
 40
0.0
 40
0.0
 40
0.5209916026583032
 40
1.033449671662946
 40
1.530780674648496
 40
2.01005113461529
 40
2.473111635516932
 40
2.926549670764493
 40
2.926549670764493
 40
2.926549670764493
 40
2.926549670764493
 10
-573.6720682981645
 20
275.9999999996527
 30
0.0
 10
-573.660726485963
 20
276.1740558148834
 30
0.0
 10
-573.6382286193334
 20
276.5193165125954
 30
0.0
 10
-573.459236470153
 20
277.0043291770534
 30
0.0
 10
-573.1852086830913
 20
277.4238931467029
 30
0.0
 10
-572.8229368068572
 20
277.7455865358419
 30
0.0
 10
-572.3983311746008
 20
277.9592251183452
 30
0.0
 10
-572.0917156507445
 20
277.9865038450956
 30
0.0
 10
-571.9400174905954
 20
277.9999999996527
 30
0.0
 11
-573.6720682981645
 21
275.9999999996527
 31
0.0
 11
-573.6130496520307
 21
276.5176379518525
 31
0.0
 11
-573.440017490595
 21
276.9999999996527
 31
0.0
 11
-573.1647620354629
 21
277.4142131849883
 31
0.0
 11
-572.80604289438
 21
277.7320508072215
 31
0.0
 11
-572.3883051071632
 21
277.9318511371879
 31
0.0
 11
-571.9400174905954
 21
277.9999999996527
 31
0.0
  0
SPLINE
  5
2EA
330
5D
100
AcDbEntity
  8
0
  6
Continuous
 62
     3
100
AcDbSpline
210
0.0
220
0.0
230
1.0
 70
     8
 71
     3
 72
    13
 73
     9
 74
     7
 42
0.000000001
 43
0.0000000001
 44
0.00000001
 40
0.0
 40
0.0
 40
0.0
 40
0.0
 40
0.5209916026582517
 40
1.033449671662741
 40
1.530780674648339
 40
2.010051134615511
 40
2.473111635517152
 40
2.926549670764246
 40
2.926549670764246
 40
2.926549670764246
 40
2.926549670764246
 10
-569.0920272857784
 20
275.9999999996527
 30
0.0
 10
-569.0806854735772
 20
276.1740558148836
 30
0.0
 10
-569.0581876069477
 20
276.5193165125953
 30
0.0
 10
-568.8791954577678
 20
277.0043291770535
 30
0.0
 10
-568.605167670706
 20
277.4238931467031
 30
0.0
 10
-568.2428957944716
 20
277.7455865358419
 30
0.0
 10
-567.818290162215
 20
277.9592251183452
 30
0.0
 10
-567.5116746383592
 20
277.9865038450956
 30
0.0
 10
-567.3599764782102
 20
277.9999999996527
 30
0.0
 11
-569.0920272857784
 21
275.9999999996527
 31
0.0
 11
-569.033008639645
 21
276.5176379518525
 31
0.0
 11
-568.8599764782098
 21
276.9999999996527
 31
0.0
 11
-568.5847210230777
 21
277.4142131849883
 31
0.0
 11
-568.2260018819943
 21
277.7320508072216
 31
0.0
 11
-567.8082640947775
 21
277.9318511371881
 31
0.0
 11
-567.3599764782102
 21
277.9999999996527
 31
0.0
  0
SPLINE
  5
2EB
330
5D
100
AcDbEntity
  8
0
  6
Continuous
 62
     3
100
AcDbSpline
210
0.0
220
0.0
230
1.0
 70
     8
 71
     3
 72
    13
 73
     9
 74
     7
 42
0.000000001
 43
0.0000000001
 44
0.00000001
 40
0.0
 40
0.0
 40
0.0
 40
0.0
 40
0.5194085693755031
 40
1.017862580602147
 40
1.477768202470256
 40
1.888688474052446
 40
2.251885732048787
 40
2.584426548912299
 40
2.584426548912299
 40
2.584426548912299
 40
2.584426548912299
 10
-566.7196220808773
 20
275.9999999996527
 30
0.0
 10
-566.7115354262652
 20
276.1733628158785
 30
0.0
 10
-566.695688346146
 20
276.5130944517107
 30
0.0
 10
-566.5690284145019
 20
276.99266612566
 30
0.0
 10
-566.3746353359411
 20
277.4096927885632
 30
0.0
 10
-566.1161584397122
 20
277.7326947201834
 30
0.0
 10
-565.8066069660608
 20
277.9557178469595
 30
0.0
 10
-565.5734797561694
 20
277.9856793530132
 30
0.0
 10
-565.4620523142894
 20
277.9999999996527
 30
0.0
 11
-566.7196220808773
 21
275.9999999996527
 31
0.0
 11
-566.6767711063461
 21
276.5176379518525
 31
0.0
 11
-566.5511396791865
 21
276.9999999996527
 31
0.0
 11
-566.3512881869838
 21
277.4142131849883
 31
0.0
 11
-566.0908371975834
 21
277.7320508072216
 31
0.0
 11
-565.7875352336519
 21
277.9318511371881
 31
0.0
 11
-565.4620523142894
 21
277.9999999996527
 31
0.0
  0
SPLINE
  5
2EC
330
5D
100
AcDbEntity
  8
0
  6
Continuous
 62
     3
100
AcDbSpline
210
0.0
220
0.0
230
1.0
 70
     8
 71
     3
 72
    13
 73
     9
 74
     7
 42
0.000000001
 43
0.0000000001
 44
0.00000001
 40
0.0
 40
0.0
 40
0.0
 40
0.0
 40
0.2524155473589728
 40
0.5059849578293789
 40
0.7615406228131025
 40
1.019370747663281
 40
1.279154551957907
 40
1.540059636299794
 40
1.540059636299794
 40
1.540059636299794
 40
1.540059636299794
 10
-526.3585335381135
 20
268.9999999996527
 30
0.0
 10
-526.4429297046462
 20
269.0066573685754
 30
0.0
 10
-526.6121078345644
 20
269.0200025533812
 30
0.0
 10
-526.8480839817705
 20
269.125376150123
 30
0.0
 10
-527.0507031982527
 20
269.2853861330887
 30
0.0
 10
-527.2047064329929
 20
269.4952045501875
 30
0.0
 10
-527.3057293083295
 20
269.7387580487398
 30
0.0
 10
-527.3184776606771
 20
269.9127944222355
 30
0.0
 10
-527.3248655561683
 20
269.9999999996527
 30
0.0
 11
-526.3585335381135
 21
268.9999999996527
 31
0.0
 11
-526.6086386015991
 21
269.034074430885
 31
0.0
 11
-526.8416995471409
 21
269.1339745958682
 31
0.0
 11
-527.041833278786
 21
269.2928934069848
 31
0.0
 11
-527.1954016142395
 21
269.4999999996526
 31
0.0
 11
-527.2919383422716
 21
269.7411810235528
 31
0.0
 11
-527.3248655561683
 21
269.9999999996527
 31
0.0
  0
SPLINE
  5
2ED
330
5D
100
AcDbEntity
  8
0
  6
Continuous
 62
     3
100
AcDbSpline
210
0.0
220
0.0
230
1.0
 70
     8
 71
     3
 72
    13
 73
     9
 74
     7
 42
0.000000001
 43
0.0000000001
 44
0.00000001
 40
0.0
 40
0.0
 40
0.0
 40
0.0
 40
0.5048310968899563
 40
1.011969920540531
 40
1.523081252784886
 40
2.038741504618574
 40
2.558309115469209
 40
3.080119285626506
 40
3.080119285626506
 40
3.080119285626506
 40
3.080119285626506
 10
-529.2575295922784
 20
277.9999999996527
 30
0.0
 10
-529.0887372584872
 20
277.98668526175
 30
0.0
 10
-528.7503809950397
 20
277.9599949062471
 30
0.0
 10
-528.2784286994195
 20
277.749247705697
 30
0.0
 10
-527.87319026405
 20
277.4292277398053
 30
0.0
 10
-527.5651837948888
 20
277.0095909031403
 30
0.0
 10
-527.3631380376371
 20
276.52248390507
 30
0.0
 10
-527.3376413471871
 20
276.1744111549799
 30
0.0
 10
-527.3248655561683
 20
275.9999999996527
 30
0.0
 11
-529.2575295922784
 21
277.9999999996527
 31
0.0
 11
-528.7573194653071
 21
277.931851137188
 31
0.0
 11
-528.2911975742234
 21
277.7320508072216
 31
0.0
 11
-527.8909301109329
 21
277.4142131849883
 31
0.0
 11
-527.5837934400263
 21
276.9999999996527
 31
0.0
 11
-527.3907199839617
 21
276.5176379518524
 31
0.0
 11
-527.3248655561683
 21
275.9999999996527
 31
0.0
  0
SPLINE
  5
2EE
330
5D
100
AcDbEntity
  8
0
  6
Continuous
 62
     3
100
AcDbSpline
210
0.0
220
0.0
230
1.0
 70
     8
 71
     3
 72
    13
 73
     9
 74
     7
 42
0.000000001
 43
0.0000000001
 44
0.00000001
 40
0.0
 40
0.0
 40
0.0
 40
0.0
 40
0.2267190160720191
 40
0.458249264779416
 40
0.6978844934642909
 40
0.9465499939744149
 40
1.202779027715196
 40
1.463274828992259
 40
1.463274828992259
 40
1.463274828992259
 40
1.463274828992259
 10
-527.4619062950915
 20
268.9999999996527
 30
0.0
 10
-527.537755374647
 20
269.0067480768849
 30
0.0
 10
-527.6910631343703
 20
269.0203874471824
 30
0.0
 10
-527.9033659497708
 20
269.12720673441
 30
0.0
 10
-528.084501886765
 20
269.2880534287258
 30
0.0
 10
-528.2215157806722
 20
269.4978354122738
 30
0.0
 10
-528.3110118522848
 20
269.740341744301
 30
0.0
 10
-528.322260792776
 20
269.9129720920547
 30
0.0
 10
-528.3279316988755
 20
269.9999999996527
 30
0.0
 11
-527.4619062950915
 21
268.9999999996527
 31
0.0
 11
-527.6860501033751
 21
269.034074430885
 31
0.0
 11
-527.8949189969828
 21
269.1339745958683
 31
0.0
 11
-528.0742785675243
 21
269.2928934069849
 31
0.0
 11
-528.2119062950908
 21
269.4999999996526
 31
0.0
 11
-528.2984223758087
 21
269.7411810235528
 31
0.0
 11
-528.3279316988755
 21
269.9999999996527
 31
0.0
  0
SPLINE
  5
2EF
330
5D
100
AcDbEntity
  8
0
  6
Continuous
 62
     3
100
AcDbSpline
210
0.0
220
0.0
230
1.0
 70
     8
 71
     3
 72
    13
 73
     9
 74
     7
 42
0.000000001
 43
0.0000000001
 44
0.00000001
 40
0.0
 40
0.0
 40
0.0
 40
0.0
 40
0.260905084341888
 40
0.5206888886365982
 40
0.7785190134866413
 40
1.034074678470543
 40
1.287644088940949
 40
1.540059636300147
 40
1.540059636300147
 40
1.540059636300147
 40
1.540059636300147
 10
-574.6751344408713
 20
269.9999999996527
 30
0.0
 10
-574.6815223363625
 20
269.9127944222353
 30
0.0
 10
-574.69427068871
 20
269.7387580487398
 30
0.0
 10
-574.7952935640469
 20
269.4952045501877
 30
0.0
 10
-574.9492967987869
 20
269.2853861330885
 30
0.0
 10
-575.1519160152692
 20
269.1253761501231
 30
0.0
 10
-575.3878921624755
 20
269.0200025533812
 30
0.0
 10
-575.5570702923939
 20
269.0066573685753
 30
0.0
 10
-575.6414664589265
 20
268.9999999996527
 30
0.0
 11
-574.6751344408713
 21
269.9999999996527
 31
0.0
 11
-574.708061654768
 21
269.7411810235528
 31
0.0
 11
-574.8045983828004
 21
269.4999999996526
 31
0.0
 11
-574.9581667182536
 21
269.2928934069848
 31
0.0
 11
-575.1583004498989
 21
269.1339745958682
 31
0.0
 11
-575.3913613954408
 21
269.034074430885
 31
0.0
 11
-575.6414664589265
 21
268.9999999996527
 31
0.0
  0
SPLINE
  5
2F0
330
5D
100
AcDbEntity
  8
0
  6
Continuous
 62
     3
100
AcDbSpline
210
0.0
220
0.0
230
1.0
 70
     8
 71
     3
 72
    13
 73
     9
 74
     7
 42
0.000000001
 43
0.0000000001
 44
0.00000001
 40
0.0
 40
0.0
 40
0.0
 40
0.0
 40
0.2597042877513124
 40
0.5089312936956254
 40
0.7388841041860714
 40
0.9443442385234389
 40
1.125942864105358
 40
1.292213270002101
 40
1.292213270002101
 40
1.292213270002101
 40
1.292213270002101
 10
-535.2803779161613
 20
269.9999999996527
 30
0.0
 10
-535.2763345888076
 20
269.9133185905172
 30
0.0
 10
-535.2684110428405
 20
269.7434527720119
 30
0.0
 10
-535.2050810798871
 20
269.5036669335575
 30
0.0
 10
-535.107884539539
 20
269.2951536031557
 30
0.0
 10
-534.9786460912329
 20
269.1336526387797
 30
0.0
 10
-534.8238703542706
 20
269.0221410825112
 30
0.0
 10
-534.707306752958
 20
269.0071603228632
 30
0.0
 10
-534.6515930328674
 20
268.9999999996527
 30
0.0
 11
-535.2803779161613
 21
269.9999999996527
 31
0.0
 11
-535.2589524288954
 21
269.7411810235528
 31
0.0
 11
-535.1961367153153
 21
269.4999999996526
 31
0.0
 11
-535.0962109692144
 21
269.2928934069848
 31
0.0
 11
-534.9659854745144
 21
269.1339745958682
 31
0.0
 11
-534.8143344925484
 21
269.034074430885
 31
0.0
 11
-534.6515930328674
 21
268.9999999996527
 31
0.0
  0
SPLINE
  5
2F1
330
5D
100
AcDbEntity
  8
0
  6
Continuous
 62
     3
100
AcDbSpline
210
0.0
220
0.0
230
1.0
 70
     8
 71
     3
 72
    13
 73
     9
 74
     7
 42
0.000000001
 43
0.0000000001
 44
0.00000001
 40
0.0
 40
0.0
 40
0.0
 40
0.0
 40
0.2604958012770374
 40
0.516724835017742
 40
0.7653903355276616
 40
1.005025564212574
 40
1.236555812920845
 40
1.463274828993651
 40
1.463274828993651
 40
1.463274828993651
 40
1.463274828993651
 10
-532.9079727112603
 20
269.9999999996527
 30
0.0
 10
-532.9023018051608
 20
269.9129720920546
 30
0.0
 10
-532.8910528646697
 20
269.7403417443011
 30
0.0
 10
-532.8015567930574
 20
269.4978354122739
 30
0.0
 10
-532.6645428991505
 20
269.2880534287256
 30
0.0
 10
-532.4834069621561
 20
269.1272067344095
 30
0.0
 10
-532.2711041467551
 20
269.0203874471825
 30
0.0
 10
-532.117796387031
 20
269.006748076885
 30
0.0
 10
-532.0419473074753
 20
268.9999999996527
 30
0.0
 11
-532.9079727112603
 21
269.9999999996527
 31
0.0
 11
-532.8784633881937
 21
269.7411810235528
 31
0.0
 11
-532.791947307476
 21
269.4999999996526
 31
0.0
 11
-532.65431957991
 21
269.2928934069848
 31
0.0
 11
-532.4749600093685
 21
269.1339745958682
 31
0.0
 11
-532.2660911157598
 21
269.034074430885
 31
0.0
 11
-532.0419473074753
 21
268.9999999996527
 31
0.0
  0
SPLINE
  5
2F2
330
5D
100
AcDbEntity
  8
0
  6
Continuous
 62
     3
100
AcDbSpline
210
0.0
220
0.0
230
1.0
 70
     8
 71
     3
 72
    13
 73
     9
 74
     7
 42
0.000000001
 43
0.0000000001
 44
0.00000001
 40
0.0
 40
0.0
 40
0.0
 40
0.0
 40
0.2597042877513124
 40
0.50893129369574
 40
0.7388841041863341
 40
0.9443442385234855
 40
1.125942864105595
 40
1.29221327000256
 40
1.29221327000256
 40
1.29221327000256
 40
1.29221327000256
 10
-566.7196220808773
 20
269.9999999996527
 30
0.0
 10
-566.7236654082311
 20
269.9133185905172
 30
0.0
 10
-566.7315889541981
 20
269.743452772012
 30
0.0
 10
-566.794918917152
 20
269.5036669335574
 30
0.0
 10
-566.8921154575003
 20
269.2951536031559
 30
0.0
 10
-567.0213539058063
 20
269.1336526387796
 30
0.0
 10
-567.1761296427685
 20
269.0221410825112
 30
0.0
 10
-567.2926932440815
 20
269.0071603228632
 30
0.0
 10
-567.3484069641722
 20
268.9999999996527
 30
0.0
 11
-566.7196220808773
 21
269.9999999996527
 31
0.0
 11
-566.7410475681432
 21
269.7411810235528
 31
0.0
 11
-566.8038632817238
 21
269.4999999996526
 31
0.0
 11
-566.903789027825
 21
269.2928934069848
 31
0.0
 11
-567.0340145225248
 21
269.1339745958682
 31
0.0
 11
-567.185665504491
 21
269.034074430885
 31
0.0
 11
-567.3484069641722
 21
268.9999999996527
 31
0.0
  0
SPLINE
  5
2F3
330
5D
100
AcDbEntity
  8
0
  6
Continuous
 62
     3
100
AcDbSpline
210
0.0
220
0.0
230
1.0
 70
     8
 71
     3
 72
    13
 73
     9
 74
     7
 42
0.000000001
 43
0.0000000001
 44
0.00000001
 40
0.0
 40
0.0
 40
0.0
 40
0.0
 40
0.2267190160724686
 40
0.4582492647802268
 40
0.6978844934650543
 40
0.9465499939750368
 40
1.202779027715588
 40
1.463274828992625
 40
1.463274828992625
 40
1.463274828992625
 40
1.463274828992625
 10
-574.5380937019481
 20
268.9999999996527
 30
0.0
 10
-574.4622446223924
 20
269.006748076885
 30
0.0
 10
-574.3089368626688
 20
269.0203874471824
 30
0.0
 10
-574.096634047268
 20
269.1272067344098
 30
0.0
 10
-573.915498110274
 20
269.2880534287258
 30
0.0
 10
-573.7784842163668
 20
269.4978354122737
 30
0.0
 10
-573.6889881447551
 20
269.7403417443011
 30
0.0
 10
-573.677739204264
 20
269.9129720920547
 30
0.0
 10
-573.6720682981645
 20
269.9999999996527
 30
0.0
 11
-574.5380937019481
 21
268.9999999996527
 31
0.0
 11
-574.313949893664
 21
269.034074430885
 31
0.0
 11
-574.1050810000559
 21
269.1339745958682
 31
0.0
 11
-573.9257214295145
 21
269.2928934069848
 31
0.0
 11
-573.7880937019484
 21
269.4999999996526
 31
0.0
 11
-573.7015776212311
 21
269.7411810235528
 31
0.0
 11
-573.6720682981645
 21
269.9999999996527
 31
0.0
  0
SPLINE
  5
2F4
330
5D
100
AcDbEntity
  8
0
  6
Continuous
 62
     3
100
AcDbSpline
210
0.0
220
0.0
230
1.0
 70
     8
 71
     3
 72
    13
 73
     9
 74
     7
 42
0.000000001
 43
0.0000000001
 44
0.00000001
 40
0.0
 40
0.0
 40
0.0
 40
0.0
 40
0.2604958012770889
 40
0.5167248350177935
 40
0.7653903355278389
 40
1.005025564213092
 40
1.236555812920747
 40
1.463274828993104
 40
1.463274828993104
 40
1.463274828993104
 40
1.463274828993104
 10
-569.0920272857784
 20
269.9999999996527
 30
0.0
 10
-569.097698191878
 20
269.9129720920547
 30
0.0
 10
-569.1089471323696
 20
269.740341744301
 30
0.0
 10
-569.1984432039816
 20
269.4978354122739
 30
0.0
 10
-569.3354570978888
 20
269.2880534287254
 30
0.0
 10
-569.5165930348834
 20
269.12720673441
 30
0.0
 10
-569.7288958502841
 20
269.0203874471823
 30
0.0
 10
-569.882203610008
 20
269.006748076885
 30
0.0
 10
-569.9580526895634
 20
268.9999999996527
 30
0.0
 11
-569.0920272857784
 21
269.9999999996527
 31
0.0
 11
-569.1215366088454
 21
269.7411810235528
 31
0.0
 11
-569.2080526895631
 21
269.4999999996526
 31
0.0
 11
-569.3456804171294
 21
269.2928934069848
 31
0.0
 11
-569.5250399876713
 21
269.1339745958682
 31
0.0
 11
-569.7339088812794
 21
269.034074430885
 31
0.0
 11
-569.9580526895634
 21
268.9999999996527
 31
0.0
  0
SPLINE
  5
2F5
330
5D
100
AcDbEntity
  8
0
  6
Continuous
 62
     3
100
AcDbSpline
210
0.0
220
0.0
230
1.0
 70
     8
 71
     3
 72
    13
 73
     9
 74
     7
 42
0.000000001
 43
0.0000000001
 44
0.00000001
 40
0.0
 40
0.0
 40
0.0
 40
0.0
 40
0.5218101701574248
 40
1.041377781008135
 40
1.557038032841868
 40
2.068149365086187
 40
2.575288188736785
 40
3.080119285626734
 40
3.080119285626734
 40
3.080119285626734
 40
3.080119285626734
 10
-574.6751344408713
 20
275.9999999996527
 30
0.0
 10
-574.6623586498525
 20
276.1744111549799
 30
0.0
 10
-574.6368619594017
 20
276.5224839050703
 30
0.0
 10
-574.4348162021498
 20
277.0095909031401
 30
0.0
 10
-574.1268097329887
 20
277.4292277398054
 30
0.0
 10
-573.7215712976191
 20
277.7492477056969
 30
0.0
 10
-573.249619001999
 20
277.9599949062472
 30
0.0
 10
-572.9112627385514
 20
277.98668526175
 30
0.0
 10
-572.7424704047603
 20
277.9999999996527
 30
0.0
 11
-574.6751344408713
 21
275.9999999996527
 31
0.0
 11
-574.6092800130773
 21
276.5176379518525
 31
0.0
 11
-574.4162065570124
 21
276.9999999996527
 31
0.0
 11
-574.1090698861058
 21
277.4142131849883
 31
0.0
 11
-573.7088024228153
 21
277.7320508072216
 31
0.0
 11
-573.2426805317316
 21
277.9318511371881
 31
0.0
 11
-572.7424704047603
 21
277.9999999996527
 31
0.0
  0
ENDBLK
  5
5F
330
5D
100
AcDbEntity
  8
0
100
AcDbBlockEnd
  0
BLOCK
  5
63
330
60
100
AcDbEntity
  8
0
100
AcDbBlockBegin
  2
BG-531-Unterbauelement-20mm__7
 70
     0
 10
-700.9999999985193
 20
248.9999999996527
 30
0.0
  3
BG-531-Unterbauelement-20mm__7
  1

  0
INSERT
  5
61
330
60
100
AcDbEntity
  8
0
100
AcDbBlockReference
  2
531-Hartschaum-Distanzelement-20mm_1__5
 10
-100.9999999985203
 20
248.9999999996527
 30
0.0
  0
INSERT
  5
62
330
60
100
AcDbEntity
  8
0
100
AcDbBlockReference
  2
531-Hartschaum-Distanzelement-20mm__6
 10
-700.9999999985193
 20
248.9999999996527
 30
0.0
  0
ENDBLK
  5
64
330
60
100
AcDbEntity
  8
0
100
AcDbBlockEnd
  0
BLOCK
  5
67
330
65
100
AcDbEntity
  8
0
100
AcDbBlockBegin
  2
HL531U-Zeichnung-WEB__8
 70
     0
 10
-700.9999999985193
 20
248.9999999996527
 30
0.0
  3
HL531U-Zeichnung-WEB__8
  1

  0
INSERT
  5
66
330
65
100
AcDbEntity
  8
0
100
AcDbBlockReference
  2
BG-531-Unterbauelement-20mm__7
 10
-700.9999999985193
 20
248.9999999996527
 30
0.0
  0
ENDBLK
  5
68
330
65
100
AcDbEntity
  8
0
100
AcDbBlockEnd
  0
BLOCK
  5
6B
330
69
100
AcDbEntity
  8
0
100
AcDbBlockBegin
  2
Untsicht3
 70
     0
 10
-100.9999999992551
 20
263.4999999998266
 30
0.0
  3
Untsicht3
  1

  0
INSERT
  5
6A
330
69
100
AcDbEntity
  8
0
100
AcDbBlockReference
  2
HL531U-Zeichnung-WEB__8
 10
-700.9999999985193
 20
248.9999999996527
 30
0.0
  0
MTEXT
  5
2F6
330
69
100
AcDbEntity
  8
1
 62
     1
100
AcDbMText
 10
-100.9999999992601
 20
243.9999999998266
 30
0.0
 40
3.5
 41
0.0
 71
     2
 72
     1
  1
 
  7
CONVERTER_11
 73
     1
 44
1.32052821128451
  0
DIMENSION
  5
303
330
69
100
AcDbEntity
  8
1
100
AcDbDimension
  2
*D14
 10
557.264266813222
 20
248.9999999996527
 30
0.0
 11
542.264266813222
 21
311.790119681966
 31
0.0
 70
    32
  1
<>
 71
     5
 42
-1.0
 53
90.0
  3
ME10_DIM_13
100
AcDbAlignedDimension
 13
499.0000000014798
 23
268.9999999996527
 33
0.0
 14
499.0000000014798
 24
248.9999999996527
 34
0.0
 50
90.0
100
AcDbRotatedDimension
  0
ENDBLK
  5
6C
330
69
100
AcDbEntity
  8
0
100
AcDbBlockEnd
  0
BLOCK
  5
1C8
330
1C1
100
AcDbEntity
  8
0
100
AcDbBlockBegin
  2
*D11
 70
     1
 10
0.0
 20
0.0
 30
0.0
  3
*D11
  1

  0
LINE
  5
1C2
330
1C1
100
AcDbEntity
  8
1
  6
Continuous
 62
     4
100
AcDbLine
 10
-700.9999999992597
 20
-60.4352532122988
 30
0.0
 11
-100.9999999992606
 21
-60.4352532122988
 31
0.0
  0
LINE
  5
1C3
330
1C1
100
AcDbEntity
  8
1
  6
Continuous
 62
     4
100
AcDbLine
 10
-700.9999999992597
 20
1.49999999999795
 30
0.0
 11
-700.9999999992597
 21
-62.4352532122988
 31
0.0
  0
LINE
  5
1C4
330
1C1
100
AcDbEntity
  8
1
  6
Continuous
 62
     4
100
AcDbLine
 10
-100.9999999992606
 20
1.49999999999795
 30
0.0
 11
-100.9999999992606
 21
-62.4352532122988
 31
0.0
  0
SOLID
  5
1C5
330
1C1
100
AcDbEntity
  8
1
 62
     4
100
AcDbTrace
 10
-680.9999999992597
 20
-57.80220326055088
 30
0.0
 11
-680.9999999992597
 21
-63.06830316404671
 31
0.0
 12
-700.9999999992597
 22
-60.4352532122988
 32
0.0
 13
-700.9999999992597
 23
-60.4352532122988
 33
0.0
  0
SOLID
  5
1C6
330
1C1
100
AcDbEntity
  8
1
 62
     4
100
AcDbTrace
 10
-120.9999999992606
 20
-63.06830316404671
 30
0.0
 11
-120.9999999992606
 21
-57.80220326055088
 31
0.0
 12
-100.9999999992606
 22
-60.4352532122988
 32
0.0
 13
-100.9999999992606
 23
-60.4352532122988
 33
0.0
  0
MTEXT
  5
1C7
330
1C1
100
AcDbEntity
  8
1
 62
     1
100
AcDbMText
 10
-430.73327907596
 20
-55.4352532122988
 30
0.0
 40
20.0
 41
0.0
 71
     7
 72
     1
  1
600
  7
CONVERTER_11
 11
0.9999999999970619
 21
2.424068405545306E-6
 31
0.0
 73
     1
 44
0.60024009603842
  0
ENDBLK
  5
1C9
330
1C1
100
AcDbEntity
  8
0
100
AcDbBlockEnd
  0
BLOCK
  5
1D3
330
1CC
100
AcDbEntity
  8
0
100
AcDbBlockBegin
  2
*D12
 70
     1
 10
0.0
 20
0.0
 30
0.0
  3
*D12
  1

  0
LINE
  5
1CD
330
1CC
100
AcDbEntity
  8
1
  6
Continuous
 62
     4
100
AcDbLine
 10
-100.9999999992606
 20
-60.4352532122988
 30
0.0
 11
499.0000000007394
 21
-60.4352532122988
 31
0.0
  0
LINE
  5
1CE
330
1CC
100
AcDbEntity
  8
1
  6
Continuous
 62
     4
100
AcDbLine
 10
-100.9999999992606
 20
1.49999999999795
 30
0.0
 11
-100.9999999992606
 21
-62.4352532122988
 31
0.0
  0
LINE
  5
1CF
330
1CC
100
AcDbEntity
  8
1
  6
Continuous
 62
     4
100
AcDbLine
 10
499.0000000007394
 20
1.49999999999909
 30
0.0
 11
499.0000000007394
 21
-62.4352532122988
 31
0.0
  0
SOLID
  5
1D0
330
1CC
100
AcDbEntity
  8
1
 62
     4
100
AcDbTrace
 10
-80.99999999926061
 20
-57.80220326055088
 30
0.0
 11
-80.99999999926061
 21
-63.06830316404671
 31
0.0
 12
-100.9999999992606
 22
-60.4352532122988
 32
0.0
 13
-100.9999999992606
 23
-60.4352532122988
 33
0.0
  0
SOLID
  5
1D1
330
1CC
100
AcDbEntity
  8
1
 62
     4
100
AcDbTrace
 10
479.0000000007394
 20
-63.06830316404671
 30
0.0
 11
479.0000000007394
 21
-57.80220326055088
 31
0.0
 12
499.0000000007394
 22
-60.4352532122988
 32
0.0
 13
499.0000000007394
 23
-60.4352532122988
 33
0.0
  0
MTEXT
  5
1D2
330
1CC
100
AcDbEntity
  8
1
 62
     1
100
AcDbMText
 10
157.245482553605
 20
-55.4352532122988
 30
0.0
 40
20.0
 41
0.0
 71
     7
 72
     1
  1
600
  7
CONVERTER_11
 11
0.9999999999970619
 21
2.424068405545306E-6
 31
0.0
 73
     1
 44
0.60024009603842
  0
ENDBLK
  5
1D4
330
1CC
100
AcDbEntity
  8
0
100
AcDbBlockEnd
  0
BLOCK
  5
1DE
330
1D7
100
AcDbEntity
  8
0
100
AcDbBlockBegin
  2
*D13
 70
     1
 10
0.0
 20
0.0
 30
0.0
  3
*D13
  1

  0
LINE
  5
1D8
330
1D7
100
AcDbEntity
  8
1
  6
Continuous
 62
     4
100
AcDbLine
 10
557.264266813222
 20
1.49999999999909
 30
0.0
 11
557.264266813222
 21
186.5000000000018
 31
0.0
  0
LINE
  5
1D9
330
1D7
100
AcDbEntity
  8
1
  6
Continuous
 62
     4
100
AcDbLine
 10
499.0000000007394
 20
1.49999999999909
 30
0.0
 11
559.264266813222
 21
1.49999999999909
 31
0.0
  0
LINE
  5
1DA
330
1D7
100
AcDbEntity
  8
1
  6
Continuous
 62
     4
100
AcDbLine
 10
499.0000000007394
 20
186.5000000000018
 30
0.0
 11
559.264266813222
 21
186.5000000000018
 31
0.0
  0
SOLID
  5
1DB
330
1D7
100
AcDbEntity
  8
1
 62
     4
100
AcDbTrace
 10
554.6312168614741
 20
21.49999999999909
 30
0.0
 11
559.8973167649699
 21
21.49999999999909
 31
0.0
 12
557.264266813222
 22
1.49999999999909
 32
0.0
 13
557.264266813222
 23
1.49999999999909
 33
0.0
  0
SOLID
  5
1DC
330
1D7
100
AcDbEntity
  8
1
 62
     4
100
AcDbTrace
 10
559.8973167649699
 20
166.5000000000018
 30
0.0
 11
554.6312168614741
 21
166.5000000000018
 31
0.0
 12
557.264266813222
 22
186.5000000000018
 32
0.0
 13
557.264266813222
 23
186.5000000000018
 33
0.0
  0
MTEXT
  5
1DD
330
1D7
100
AcDbEntity
  8
1
 62
     1
100
AcDbMText
 10
552.264266813222
 20
75.8301423120172
 30
0.0
 40
20.0
 41
0.0
 71
     7
 72
     1
  1
185
  7
CONVERTER_11
 11
0.0
 21
1.0
 31
0.0
 73
     1
 44
0.60024009603842
  0
ENDBLK
  5
1DF
330
1D7
100
AcDbEntity
  8
0
100
AcDbBlockEnd
  0
BLOCK
  5
300
330
2F7
100
AcDbEntity
  8
0
100
AcDbBlockBegin
  2
*D14
 70
     1
 10
0.0
 20
0.0
 30
0.0
  3
*D14
  1

  0
LINE
  5
2F8
330
2F7
100
AcDbEntity
  8
1
  6
Continuous
 62
     4
100
AcDbLine
 10
557.264266813222
 20
208.9999999996526
 30
0.0
 11
557.264266813222
 21
248.9999999996527
 31
0.0
  0
LINE
  5
2F9
330
2F7
100
AcDbEntity
  8
1
  6
Continuous
 62
     4
100
AcDbLine
 10
557.264266813222
 20
248.9999999996527
 30
0.0
 11
557.264266813222
 21
268.9999999996527
 31
0.0
  0
LINE
  5
2FA
330
2F7
100
AcDbEntity
  8
1
  6
Continuous
 62
     4
100
AcDbLine
 10
557.264266813222
 20
268.9999999996527
 30
0.0
 11
557.264266813222
 21
326.790119681966
 31
0.0
  0
LINE
  5
2FB
330
2F7
100
AcDbEntity
  8
1
  6
Continuous
 62
     4
100
AcDbLine
 10
499.0000000014797
 20
248.9999999996527
 30
0.0
 11
559.264266813222
 21
248.9999999996527
 31
0.0
  0
LINE
  5
2FC
330
2F7
100
AcDbEntity
  8
1
  6
Continuous
 62
     4
100
AcDbLine
 10
499.0000000014797
 20
268.9999999996527
 30
0.0
 11
559.264266813222
 21
268.9999999996527
 31
0.0
  0
SOLID
  5
2FD
330
2F7
100
AcDbEntity
  8
1
 62
     4
100
AcDbTrace
 10
559.8973167649699
 20
228.9999999996527
 30
0.0
 11
554.6312168614741
 21
228.9999999996527
 31
0.0
 12
557.264266813222
 22
248.9999999996527
 32
0.0
 13
557.264266813222
 23
248.9999999996527
 33
0.0
  0
SOLID
  5
2FE
330
2F7
100
AcDbEntity
  8
1
 62
     4
100
AcDbTrace
 10
554.6312168614741
 20
288.9999999996527
 30
0.0
 11
559.8973167649699
 21
288.9999999996527
 31
0.0
 12
557.264266813222
 22
268.9999999996527
 32
0.0
 13
557.264266813222
 23
268.9999999996527
 33
0.0
  0
MTEXT
  5
2FF
330
2F7
100
AcDbEntity
  8
1
 62
     1
100
AcDbMText
 10
552.264266813222
 20
296.790119681966
 30
0.0
 40
20.0
 41
0.0
 71
     7
 72
     1
  1
20
  7
CONVERTER_11
 11
0.0
 21
1.0
 31
0.0
 73
     1
 44
0.60024009603842
  0
ENDBLK
  5
301
330
2F7
100
AcDbEntity
  8
0
100
AcDbBlockEnd
  0
ENDSEC
  0
SECTION
  2
ENTITIES
  0
INSERT
  5
6D
330
1F
100
AcDbEntity
  8
0
100
AcDbBlockReference
  2
Vordans3
 10
-100.9999999999955
 20
89.00000000000045
 30
0.0
  0
INSERT
  5
6E
330
1F
100
AcDbEntity
  8
0
100
AcDbBlockReference
  2
Untsicht3
 10
-100.9999999992551
 20
263.4999999998266
 30
0.0
  0
ENDSEC
  0
SECTION
  2
OBJECTS
  0
DICTIONARY
  5
C
330
0
100
AcDbDictionary
281
     1
  3
ACAD_GROUP
350
D
  3
ACAD_LAYOUT
350
1A
  3
ACAD_MATERIAL
350
3B
  3
ACAD_MLEADERSTYLE
350
306
  3
ACAD_MLINESTYLE
350
17
  3
ACAD_PLOTSETTINGS
350
19
  3
ACAD_PLOTSTYLENAME
350
E
  3
ACAD_VISUALSTYLE
350
2A
  3
AcDbVariableDictionary
350
304
  0
DICTIONARY
  5
D
102
{ACAD_REACTORS
330
C
102
}
330
C
100
AcDbDictionary
281
     1
  0
DICTIONARY
  5
1A
102
{ACAD_REACTORS
330
C
102
}
330
C
100
AcDbDictionary
281
     1
  3
Layout1
350
1E
  3
Layout2
350
26
  3
Model
350
22
  0
DICTIONARY
  5
3B
102
{ACAD_REACTORS
330
C
102
}
330
C
100
AcDbDictionary
281
     1
  3
ByBlock
350
3D
  3
ByLayer
350
3C
  3
Global
350
3E
  0
DICTIONARY
  5
306
102
{ACAD_REACTORS
330
C
102
}
330
C
100
AcDbDictionary
281
     1
  0
DICTIONARY
  5
17
102
{ACAD_REACTORS
330
C
102
}
330
C
100
AcDbDictionary
281
     1
  3
Standard
350
18
  0
DICTIONARY
  5
19
102
{ACAD_REACTORS
330
C
102
}
330
C
100
AcDbDictionary
281
     1
  0
ACDBDICTIONARYWDFLT
  5
E
102
{ACAD_REACTORS
330
C
102
}
330
C
100
AcDbDictionary
281
     1
  3
Normal
350
F
100
AcDbDictionaryWithDefault
340
F
  0
DICTIONARY
  5
2A
102
{ACAD_REACTORS
330
C
102
}
330
C
100
AcDbDictionary
281
     1
  3
2dWireframe
350
2F
  3
3D Hidden
350
31
  3
3dWireframe
350
30
  3
Basic
350
32
  3
Brighten
350
36
  3
ColorChange
350
3A
  3
Conceptual
350
34
  3
Dim
350
35
  3
Facepattern
350
39
  3
Flat
350
2B
  3
FlatWithEdges
350
2C
  3
Gouraud
350
2D
  3
GouraudWithEdges
350
2E
  3
Linepattern
350
38
  3
Realistic
350
33
  3
Thicken
350
37
  0
DICTIONARY
  5
304
102
{ACAD_REACTORS
330
C
102
}
330
C
100
AcDbDictionary
281
     1
  3
DIMASSOC
350
307
  3
HIDETEXT
350
308
  0
LAYOUT
  5
1E
102
{ACAD_REACTORS
330
1A
102
}
330
1A
100
AcDbPlotSettings
  1

  2
none_device
  4

  6

 40
0.0
 41
0.0
 42
0.0
 43
0.0
 44
0.0
 45
0.0
 46
0.0
 47
0.0
 48
0.0
 49
0.0
140
0.0
141
0.0
142
1.0
143
1.0
 70
   688
 72
     0
 73
     0
 74
     5
  7

 75
    16
147
1.0
148
0.0
149
0.0
100
AcDbLayout
  1
Layout1
 70
     1
 71
     1
 10
0.0
 20
0.0
 11
12.0
 21
9.0
 12
0.0
 22
0.0
 32
0.0
 14
1.00000000000000E+20
 24
1.00000000000000E+20
 34
1.00000000000000E+20
 15
-1.00000000000000E+20
 25
-1.00000000000000E+20
 35
-1.00000000000000E+20
146
0.0
 13
0.0
 23
0.0
 33
0.0
 16
1.0
 26
0.0
 36
0.0
 17
0.0
 27
1.0
 37
0.0
 76
     0
330
1B
  0
LAYOUT
  5
26
102
{ACAD_REACTORS
330
1A
102
}
330
1A
100
AcDbPlotSettings
  1

  2
none_device
  4

  6

 40
0.0
 41
0.0
 42
0.0
 43
0.0
 44
0.0
 45
0.0
 46
0.0
 47
0.0
 48
0.0
 49
0.0
140
0.0
141
0.0
142
1.0
143
1.0
 70
   688
 72
     0
 73
     0
 74
     5
  7

 75
    16
147
1.0
148
0.0
149
0.0
100
AcDbLayout
  1
Layout2
 70
     1
 71
     2
 10
0.0
 20
0.0
 11
0.0
 21
0.0
 12
0.0
 22
0.0
 32
0.0
 14
0.0
 24
0.0
 34
0.0
 15
0.0
 25
0.0
 35
0.0
146
0.0
 13
0.0
 23
0.0
 33
0.0
 16
1.0
 26
0.0
 36
0.0
 17
0.0
 27
1.0
 37
0.0
 76
     0
330
23
  0
LAYOUT
  5
22
102
{ACAD_REACTORS
330
1A
102
}
330
1A
100
AcDbPlotSettings
  1

  2
none_device
  4

  6

 40
0.0
 41
0.0
 42
0.0
 43
0.0
 44
0.0
 45
0.0
 46
0.0
 47
0.0
 48
0.0
 49
0.0
140
0.0
141
0.0
142
1.0
143
1.0
 70
  1712
 72
     0
 73
     0
 74
     0
  7

 75
     0
147
1.0
148
0.0
149
0.0
100
AcDbLayout
  1
Model
 70
     1
 71
     0
 10
0.0
 20
0.0
 11
12.0
 21
9.0
 12
0.0
 22
0.0
 32
0.0
 14
-700.9999999992597
 24
-63.06830316404671
 34
0.0
 15
559.8973167649699
 25
326.790119681966
 35
0.0
146
0.0
 13
0.0
 23
0.0
 33
0.0
 16
1.0
 26
0.0
 36
0.0
 17
0.0
 27
1.0
 37
0.0
 76
     0
330
1F
331
29
  0
MATERIAL
  5
3D
102
{ACAD_REACTORS
330
3B
102
}
102
{ACAD_XDICTIONARY
360
32B
102
}
330
3B
100
AcDbMaterial
  1
ByBlock
  0
MATERIAL
  5
3C
102
{ACAD_REACTORS
330
3B
102
}
102
{ACAD_XDICTIONARY
360
329
102
}
330
3B
100
AcDbMaterial
  1
ByLayer
  0
MATERIAL
  5
3E
102
{ACAD_REACTORS
330
3B
102
}
102
{ACAD_XDICTIONARY
360
32D
102
}
330
3B
100
AcDbMaterial
  1
Global
  0
MLINESTYLE
  5
18
102
{ACAD_REACTORS
330
17
102
}
330
17
100
AcDbMlineStyle
  2
Standard
 70
     0
  3

 62
   256
 51
90.0
 52
90.0
 71
     2
 49
0.5
 62
   256
  6
BYLAYER
 49
-0.5
 62
   256
  6
BYLAYER
  0
ACDBPLACEHOLDER
  5
F
102
{ACAD_REACTORS
330
E
102
}
330
E
  0
VISUALSTYLE
  5
2F
102
{ACAD_REACTORS
330
2A
102
}
102
{ACAD_XDICTIONARY
360
311
102
}
330
2A
100
AcDbVisualStyle
  2
2dWireframe
 70
     4
 71
     0
 72
     2
 73
     0
 90
        0
 40
-0.6
 41
-30.0
 62
     5
 63
     7
 74
     1
 91
        4
 64
     7
 65
   257
 75
     1
175
     1
 42
1.0
 92
        0
 66
   257
 43
1.0
 76
     1
 77
     6
 78
     2
 67
     7
 79
     5
170
     0
171
     0
290
     0
174
     0
 93
        1
 44
0.0
173
     0
291
     0
 45
0.0
1001
ACAD
1000
AcDbSavedByObjectVersion
1070
     0
  0
VISUALSTYLE
  5
31
102
{ACAD_REACTORS
330
2A
102
}
102
{ACAD_XDICTIONARY
360
315
102
}
330
2A
100
AcDbVisualStyle
  2
3D Hidden
 70
     6
 71
     1
 72
     2
 73
     2
 90
        0
 40
-0.6
 41
-30.0
 62
     5
 63
     7
 74
     2
 91
        2
 64
     7
 65
   257
 75
     2
175
     1
 42
40.0
 92
        0
 66
   257
 43
1.0
 76
     1
 77
     6
 78
     2
 67
     7
 79
     3
170
     0
171
     0
290
     0
174
     0
 93
        1
 44
0.0
173
     0
291
     0
 45
0.0
1001
ACAD
1000
AcDbSavedByObjectVersion
1070
     0
  0
VISUALSTYLE
  5
30
102
{ACAD_REACTORS
330
2A
102
}
102
{ACAD_XDICTIONARY
360
313
102
}
330
2A
100
AcDbVisualStyle
  2
3dWireframe
 70
     5
 71
     0
 72
     2
 73
     0
 90
        0
 40
-0.6
 41
-30.0
 62
     5
 63
     7
 74
     1
 91
        4
 64
     7
 65
   257
 75
     1
175
     1
 42
1.0
 92
        0
 66
   257
 43
1.0
 76
     1
 77
     6
 78
     2
 67
     7
 79
     5
170
     0
171
     0
290
     0
174
     0
 93
        1
 44
0.0
173
     0
291
     0
 45
0.0
1001
ACAD
1000
AcDbSavedByObjectVersion
1070
     0
  0
VISUALSTYLE
  5
32
102
{ACAD_REACTORS
330
2A
102
}
102
{ACAD_XDICTIONARY
360
317
102
}
330
2A
100
AcDbVisualStyle
  2
Basic
 70
     7
 71
     1
 72
     0
 73
     1
 90
        0
 40
-0.6
 41
-30.0
 62
     5
 63
     7
 74
     0
 91
        4
 64
     7
 65
   257
 75
     1
175
     1
 42
1.0
 92
        8
 66
     7
 43
1.0
 76
     1
 77
     6
 78
     2
 67
     7
 79
     5
170
     0
171
     0
290
     0
174
     0
 93
        1
 44
0.0
173
     0
291
     1
 45
0.0
1001
ACAD
1000
AcDbSavedByObjectVersion
1070
     0
  0
VISUALSTYLE
  5
36
102
{ACAD_REACTORS
330
2A
102
}
102
{ACAD_XDICTIONARY
360
31F
102
}
330
2A
100
AcDbVisualStyle
  2
Brighten
 70
    12
 71
     2
 72
     2
 73
     0
 90
        0
 40
-0.6
 41
-30.0
 62
     5
 63
     7
 74
     1
 91
        4
 64
     7
 65
   257
 75
     1
175
     1
 42
1.0
 92
        8
 66
     7
 43
1.0
 76
     1
 77
     6
 78
     2
 67
     7
 79
     5
170
     0
171
     0
290
     0
174
     0
 93
        1
 44
50.0
173
     0
291
     1
 45
0.0
1001
ACAD
1000
AcDbSavedByObjectVersion
1070
     0
  0
VISUALSTYLE
  5
3A
102
{ACAD_REACTORS
330
2A
102
}
102
{ACAD_XDICTIONARY
360
327
102
}
330
2A
100
AcDbVisualStyle
  2
ColorChange
 70
    16
 71
     2
 72
     2
 73
     3
 90
        0
 40
-0.6
 41
-30.0
 62
     5
 63
     8
 74
     1
 91
        4
 64
     7
 65
   257
 75
     1
175
     1
 42
1.0
 92
        8
 66
     8
 43
1.0
 76
     1
 77
     6
 78
     2
 67
     7
 79
     5
170
     0
171
     0
290
     0
174
     0
 93
        1
 44
0.0
173
     0
291
     1
 45
0.0
1001
ACAD
1000
AcDbSavedByObjectVersion
1070
     0
  0
VISUALSTYLE
  5
34
102
{ACAD_REACTORS
330
2A
102
}
102
{ACAD_XDICTIONARY
360
31B
102
}
330
2A
100
AcDbVisualStyle
  2
Conceptual
 70
     9
 71
     3
 72
     2
 73
     0
 90
        0
 40
-0.6
 41
-30.0
 62
     5
 63
     7
 74
     2
 91
        2
 64
     7
 65
   257
 75
     1
175
     1
 42
40.0
 92
        8
 66
     7
 43
1.0
 76
     1
 77
     6
 78
     2
 67
     7
 79
     3
170
     0
171
     0
290
     0
174
     0
 93
        1
 44
0.0
173
     0
291
     0
 45
0.0
1001
ACAD
1000
AcDbSavedByObjectVersion
1070
     0
  0
VISUALSTYLE
  5
35
102
{ACAD_REACTORS
330
2A
102
}
102
{ACAD_XDICTIONARY
360
31D
102
}
330
2A
100
AcDbVisualStyle
  2
Dim
 70
    11
 71
     2
 72
     2
 73
     0
 90
        0
 40
-0.6
 41
-30.0
 62
     5
 63
     7
 74
     1
 91
        4
 64
     7
 65
   257
 75
     1
175
     1
 42
1.0
 92
        8
 66
     7
 43
1.0
 76
     1
 77
     6
 78
     2
 67
     7
 79
     5
170
     0
171
     0
290
     0
174
     0
 93
        1
 44
-50.0
173
     0
291
     1
 45
0.0
1001
ACAD
1000
AcDbSavedByObjectVersion
1070
     0
  0
VISUALSTYLE
  5
39
102
{ACAD_REACTORS
330
2A
102
}
102
{ACAD_XDICTIONARY
360
325
102
}
330
2A
100
AcDbVisualStyle
  2
Facepattern
 70
    15
 71
     2
 72
     2
 73
     0
 90
        0
 40
-0.6
 41
-30.0
 62
     5
 63
     7
 74
     1
 91
        4
 64
     7
 65
   257
 75
     1
175
     1
 42
1.0
 92
        8
 66
     7
 43
1.0
 76
     1
 77
     6
 78
     2
 67
     7
 79
     5
170
     0
171
     0
290
     0
174
     0
 93
        1
 44
0.0
173
     0
291
     1
 45
0.0
1001
ACAD
1000
AcDbSavedByObjectVersion
1070
     0
  0
VISUALSTYLE
  5
2B
102
{ACAD_REACTORS
330
2A
102
}
102
{ACAD_XDICTIONARY
360
309
102
}
330
2A
100
AcDbVisualStyle
  2
Flat
 70
     0
 71
     2
 72
     1
 73
     1
 90
        2
 40
-0.6
 41
30.0
 62
     5
 63
     7
 74
     0
 91
        4
 64
     7
 65
   257
 75
     1
175
     1
 42
1.0
 92
        8
 66
     7
 43
1.0
 76
     1
 77
     6
 78
     2
 67
     7
 79
     5
170
     0
171
     0
290
     0
174
     0
 93
       13
 44
0.0
173
     0
291
     1
 45
0.0
1001
ACAD
1000
AcDbSavedByObjectVersion
1070
     0
  0
VISUALSTYLE
  5
2C
102
{ACAD_REACTORS
330
2A
102
}
102
{ACAD_XDICTIONARY
360
30B
102
}
330
2A
100
AcDbVisualStyle
  2
FlatWithEdges
 70
     1
 71
     2
 72
     1
 73
     1
 90
        2
 40
-0.6
 41
30.0
 62
     5
 63
     7
 74
     1
 91
        4
 64
     7
 65
   257
 75
     1
175
     1
 42
1.0
 92
        0
 66
   257
 43
1.0
 76
     1
 77
     6
 78
     2
 67
     7
 79
     5
170
     0
171
     0
290
     0
174
     0
 93
       13
 44
0.0
173
     0
291
     1
 45
0.0
1001
ACAD
1000
AcDbSavedByObjectVersion
1070
     0
  0
VISUALSTYLE
  5
2D
102
{ACAD_REACTORS
330
2A
102
}
102
{ACAD_XDICTIONARY
360
30D
102
}
330
2A
100
AcDbVisualStyle
  2
Gouraud
 70
     2
 71
     2
 72
     2
 73
     1
 90
        2
 40
-0.6
 41
30.0
 62
     5
 63
     7
 74
     0
 91
        4
 64
     7
 65
   257
 75
     1
175
     1
 42
1.0
 92
        0
 66
     7
 43
1.0
 76
     1
 77
     6
 78
     2
 67
     7
 79
     5
170
     0
171
     0
290
     0
174
     0
 93
       13
 44
0.0
173
     0
291
     1
 45
0.0
1001
ACAD
1000
AcDbSavedByObjectVersion
1070
     0
  0
VISUALSTYLE
  5
2E
102
{ACAD_REACTORS
330
2A
102
}
102
{ACAD_XDICTIONARY
360
30F
102
}
330
2A
100
AcDbVisualStyle
  2
GouraudWithEdges
 70
     3
 71
     2
 72
     2
 73
     1
 90
        2
 40
-0.6
 41
30.0
 62
     5
 63
     7
 74
     1
 91
        4
 64
     7
 65
   257
 75
     1
175
     1
 42
1.0
 92
        0
 66
   257
 43
1.0
 76
     1
 77
     6
 78
     2
 67
     7
 79
     5
170
     0
171
     0
290
     0
174
     0
 93
       13
 44
0.0
173
     0
291
     1
 45
0.0
1001
ACAD
1000
AcDbSavedByObjectVersion
1070
     0
  0
VISUALSTYLE
  5
38
102
{ACAD_REACTORS
330
2A
102
}
102
{ACAD_XDICTIONARY
360
323
102
}
330
2A
100
AcDbVisualStyle
  2
Linepattern
 70
    14
 71
     2
 72
     2
 73
     0
 90
        0
 40
-0.6
 41
-30.0
 62
     5
 63
     7
 74
     1
 91
        4
 64
     7
 65
   257
 75
     7
175
     7
 42
1.0
 92
        8
 66
     7
 43
1.0
 76
     1
 77
     6
 78
     2
 67
     7
 79
     5
170
     0
171
     0
290
     0
174
     0
 93
        1
 44
0.0
173
     0
291
     1
 45
0.0
1001
ACAD
1000
AcDbSavedByObjectVersion
1070
     0
  0
VISUALSTYLE
  5
33
102
{ACAD_REACTORS
330
2A
102
}
102
{ACAD_XDICTIONARY
360
319
102
}
330
2A
100
AcDbVisualStyle
  2
Realistic
 70
     8
 71
     2
 72
     2
 73
     0
 90
        0
 40
-0.6
 41
-30.0
 62
     5
 63
     7
 74
     1
 91
        0
 64
     7
 65
   257
 75
     1
175
     1
 42
1.0
 92
        8
 66
     8
 43
1.0
 76
     1
 77
     6
 78
     2
 67
     7
 79
     5
170
     0
171
     0
290
     0
174
     0
 93
       13
 44
0.0
173
     0
291
     0
 45
0.0
1001
ACAD
1000
AcDbSavedByObjectVersion
1070
     0
  0
VISUALSTYLE
  5
37
102
{ACAD_REACTORS
330
2A
102
}
102
{ACAD_XDICTIONARY
360
321
102
}
330
2A
100
AcDbVisualStyle
  2
Thicken
 70
    13
 71
     2
 72
     2
 73
     0
 90
        0
 40
-0.6
 41
-30.0
 62
     5
 63
     7
 74
     1
 91
        4
 64
     7
 65
   257
 75
     1
175
     1
 42
1.0
 92
       12
 66
     7
 43
1.0
 76
     1
 77
     6
 78
     2
 67
     7
 79
     5
170
     0
171
     0
290
     0
174
     0
 93
        1
 44
0.0
173
     0
291
     1
 45
0.0
1001
ACAD
1000
AcDbSavedByObjectVersion
1070
     0
  0
DICTIONARYVAR
  5
307
102
{ACAD_REACTORS
330
304
102
}
330
304
100
DictionaryVariables
280
     0
  1
2
  0
DICTIONARYVAR
  5
308
102
{ACAD_REACTORS
330
304
102
}
330
304
100
DictionaryVariables
280
     0
  1
1
  0
DICTIONARY
  5
32B
330
3D
100
AcDbDictionary
280
     1
281
     1
  3
ACAD_XREC_ROUNDTRIP
360
32C
  0
DICTIONARY
  5
329
330
3C
100
AcDbDictionary
280
     1
281
     1
  3
ACAD_XREC_ROUNDTRIP
360
32A
  0
DICTIONARY
  5
32D
330
3E
100
AcDbDictionary
280
     1
281
     1
  3
ACAD_XREC_ROUNDTRIP
360
32E
  0
DICTIONARY
  5
311
330
2F
100
AcDbDictionary
280
     1
281
     1
  3
ACAD_XREC_ROUNDTRIP
360
312
  0
DICTIONARY
  5
315
330
31
100
AcDbDictionary
280
     1
281
     1
  3
ACAD_XREC_ROUNDTRIP
360
316
  0
DICTIONARY
  5
313
330
30
100
AcDbDictionary
280
     1
281
     1
  3
ACAD_XREC_ROUNDTRIP
360
314
  0
DICTIONARY
  5
317
330
32
100
AcDbDictionary
280
     1
281
     1
  3
ACAD_XREC_ROUNDTRIP
360
318
  0
DICTIONARY
  5
31F
330
36
100
AcDbDictionary
280
     1
281
     1
  3
ACAD_XREC_ROUNDTRIP
360
320
  0
DICTIONARY
  5
327
330
3A
100
AcDbDictionary
280
     1
281
     1
  3
ACAD_XREC_ROUNDTRIP
360
328
  0
DICTIONARY
  5
31B
330
34
100
AcDbDictionary
280
     1
281
     1
  3
ACAD_XREC_ROUNDTRIP
360
31C
  0
DICTIONARY
  5
31D
330
35
100
AcDbDictionary
280
     1
281
     1
  3
ACAD_XREC_ROUNDTRIP
360
31E
  0
DICTIONARY
  5
325
330
39
100
AcDbDictionary
280
     1
281
     1
  3
ACAD_XREC_ROUNDTRIP
360
326
  0
DICTIONARY
  5
309
330
2B
100
AcDbDictionary
280
     1
281
     1
  3
ACAD_XREC_ROUNDTRIP
360
30A
  0
DICTIONARY
  5
30B
330
2C
100
AcDbDictionary
280
     1
281
     1
  3
ACAD_XREC_ROUNDTRIP
360
30C
  0
DICTIONARY
  5
30D
330
2D
100
AcDbDictionary
280
     1
281
     1
  3
ACAD_XREC_ROUNDTRIP
360
30E
  0
DICTIONARY
  5
30F
330
2E
100
AcDbDictionary
280
     1
281
     1
  3
ACAD_XREC_ROUNDTRIP
360
310
  0
DICTIONARY
  5
323
330
38
100
AcDbDictionary
280
     1
281
     1
  3
ACAD_XREC_ROUNDTRIP
360
324
  0
DICTIONARY
  5
319
330
33
100
AcDbDictionary
280
     1
281
     1
  3
ACAD_XREC_ROUNDTRIP
360
31A
  0
DICTIONARY
  5
321
330
37
100
AcDbDictionary
280
     1
281
     1
  3
ACAD_XREC_ROUNDTRIP
360
322
  0
XRECORD
  5
32C
102
{ACAD_REACTORS
330
32B
102
}
330
32B
100
AcDbXrecord
280
     1
102
MATERIAL
148
0.0
149
0.0
149
0.0
 93
        0
 94
      127
282
     0
 72
     1
 77
     1
171
     1
175
     1
179
     1
273
     0
  0
XRECORD
  5
32A
102
{ACAD_REACTORS
330
329
102
}
330
329
100
AcDbXrecord
280
     1
102
MATERIAL
148
0.0
149
0.0
149
0.0
 93
        0
 94
      127
282
     0
 72
     1
 77
     1
171
     1
175
     1
179
     1
273
     0
  0
XRECORD
  5
32E
102
{ACAD_REACTORS
330
32D
102
}
330
32D
100
AcDbXrecord
280
     1
102
MATERIAL
148
0.0
149
0.0
149
0.0
 93
        0
 94
      127
282
     0
 72
     1
 77
     1
171
     1
175
     1
179
     1
273
     0
  0
XRECORD
  5
312
102
{ACAD_REACTORS
330
311
102
}
330
311
100
AcDbXrecord
280
     1
102
RTVSPropertyOp0
 70
     1
102
RTVSPropertyOp1
 70
     1
102
RTVSPropertyOp2
 70
     1
102
RTVSPropertyOp3
 70
     1
102
RTVSPropertyOp4
 70
     1
102
RTVSPropertyOp5
 70
     1
102
RTVSPropertyOp6
 70
     1
102
RTVSPropertyOp7
 70
     1
102
RTVSPropertyOp8
 70
     1
102
RTVSPropertyOp9
 70
     1
102
RTVSPropertyOp10
 70
     1
102
RTVSPropertyOp11
 70
     1
102
RTVSPropertyOp12
 70
     1
102
RTVSPropertyOp13
 70
     1
102
RTVSPropertyOp14
 70
     1
102
RTVSPropertyOp15
 70
     1
102
RTVSPropertyOp16
 70
     1
102
RTVSPropertyOp17
 70
     1
102
RTVSPropertyOp18
 70
     1
102
RTVSPropertyOp19
 70
     1
102
RTVSPropertyOp20
 70
     1
102
RTVSPropertyOp21
 70
     1
102
RTVSPropertyOp22
 70
     1
102
RTVSPropertyOp23
 70
     1
102
RTVSPropertyOp24
 70
     1
102
RTVSPropertyOp25
 70
     1
102
RTVSPropertyOp26
 70
     1
102
RTVSPropertyOp27
 70
     1
102
RTVSPropertyOp28
 70
     1
102
RTVSPropertyOp29
 70
     1
102
RTVSPropertyOp30
 70
     1
102
RTVSPropertyOp31
 70
     1
102
RTVSPropertyOp32
 70
     1
  0
XRECORD
  5
316
102
{ACAD_REACTORS
330
315
102
}
330
315
100
AcDbXrecord
280
     1
102
RTVSPropertyOp0
 70
     1
102
RTVSPropertyOp1
 70
     1
102
RTVSPropertyOp2
 70
     1
102
RTVSPropertyOp3
 70
     1
102
RTVSPropertyOp4
 70
     1
102
RTVSPropertyOp5
 70
     1
102
RTVSPropertyOp6
 70
     1
102
RTVSPropertyOp7
 70
     1
102
RTVSPropertyOp8
 70
     1
102
RTVSPropertyOp9
 70
     1
102
RTVSPropertyOp10
 70
     1
102
RTVSPropertyOp11
 70
     1
102
RTVSPropertyOp12
 70
     1
102
RTVSPropertyOp13
 70
     1
102
RTVSPropertyOp14
 70
     1
102
RTVSPropertyOp15
 70
     1
102
RTVSPropertyOp16
 70
     1
102
RTVSPropertyOp17
 70
     1
102
RTVSPropertyOp18
 70
     1
102
RTVSPropertyOp19
 70
     1
102
RTVSPropertyOp20
 70
     1
102
RTVSPropertyOp21
 70
     1
102
RTVSPropertyOp22
 70
     1
102
RTVSPropertyOp23
 70
     1
102
RTVSPropertyOp24
 70
     1
102
RTVSPropertyOp25
 70
     1
102
RTVSPropertyOp26
 70
     1
102
RTVSPropertyOp27
 70
     1
102
RTVSPropertyOp28
 70
     1
102
RTVSPropertyOp29
 70
     1
102
RTVSPropertyOp30
 70
     1
102
RTVSPropertyOp31
 70
     1
102
RTVSPropertyOp32
 70
     1
  0
XRECORD
  5
314
102
{ACAD_REACTORS
330
313
102
}
330
313
100
AcDbXrecord
280
     1
102
RTVSPropertyOp0
 70
     1
102
RTVSPropertyOp1
 70
     1
102
RTVSPropertyOp2
 70
     1
102
RTVSPropertyOp3
 70
     1
102
RTVSPropertyOp4
 70
     1
102
RTVSPropertyOp5
 70
     1
102
RTVSPropertyOp6
 70
     1
102
RTVSPropertyOp7
 70
     1
102
RTVSPropertyOp8
 70
     1
102
RTVSPropertyOp9
 70
     1
102
RTVSPropertyOp10
 70
     1
102
RTVSPropertyOp11
 70
     1
102
RTVSPropertyOp12
 70
     1
102
RTVSPropertyOp13
 70
     1
102
RTVSPropertyOp14
 70
     1
102
RTVSPropertyOp15
 70
     1
102
RTVSPropertyOp16
 70
     1
102
RTVSPropertyOp17
 70
     1
102
RTVSPropertyOp18
 70
     1
102
RTVSPropertyOp19
 70
     1
102
RTVSPropertyOp20
 70
     1
102
RTVSPropertyOp21
 70
     1
102
RTVSPropertyOp22
 70
     1
102
RTVSPropertyOp23
 70
     1
102
RTVSPropertyOp24
 70
     1
102
RTVSPropertyOp25
 70
     1
102
RTVSPropertyOp26
 70
     1
102
RTVSPropertyOp27
 70
     1
102
RTVSPropertyOp28
 70
     1
102
RTVSPropertyOp29
 70
     1
102
RTVSPropertyOp30
 70
     1
102
RTVSPropertyOp31
 70
     1
102
RTVSPropertyOp32
 70
     1
  0
XRECORD
  5
318
102
{ACAD_REACTORS
330
317
102
}
330
317
100
AcDbXrecord
280
     1
102
RTVSPropertyOp0
 70
     1
102
RTVSPropertyOp1
 70
     1
102
RTVSPropertyOp2
 70
     1
102
RTVSPropertyOp3
 70
     1
102
RTVSPropertyOp4
 70
     1
102
RTVSPropertyOp5
 70
     1
102
RTVSPropertyOp6
 70
     1
102
RTVSPropertyOp7
 70
     1
102
RTVSPropertyOp8
 70
     1
102
RTVSPropertyOp9
 70
     1
102
RTVSPropertyOp10
 70
     1
102
RTVSPropertyOp11
 70
     1
102
RTVSPropertyOp12
 70
     1
102
RTVSPropertyOp13
 70
     1
102
RTVSPropertyOp14
 70
     1
102
RTVSPropertyOp15
 70
     1
102
RTVSPropertyOp16
 70
     1
102
RTVSPropertyOp17
 70
     1
102
RTVSPropertyOp18
 70
     1
102
RTVSPropertyOp19
 70
     1
102
RTVSPropertyOp20
 70
     1
102
RTVSPropertyOp21
 70
     1
102
RTVSPropertyOp22
 70
     1
102
RTVSPropertyOp23
 70
     1
102
RTVSPropertyOp24
 70
     1
102
RTVSPropertyOp25
 70
     1
102
RTVSPropertyOp26
 70
     1
102
RTVSPropertyOp27
 70
     1
102
RTVSPropertyOp28
 70
     1
102
RTVSPropertyOp29
 70
     1
102
RTVSPropertyOp30
 70
     1
102
RTVSPropertyOp31
 70
     1
102
RTVSPropertyOp32
 70
     1
  0
XRECORD
  5
320
102
{ACAD_REACTORS
330
31F
102
}
330
31F
100
AcDbXrecord
280
     1
102
RTVSPropertyOp0
 70
     1
102
RTVSPropertyOp1
 70
     1
102
RTVSPropertyOp2
 70
     1
102
RTVSPropertyOp3
 70
     1
102
RTVSPropertyOp4
 70
     1
102
RTVSPropertyOp5
 70
     1
102
RTVSPropertyOp6
 70
     1
102
RTVSPropertyOp7
 70
     1
102
RTVSPropertyOp8
 70
     1
102
RTVSPropertyOp9
 70
     1
102
RTVSPropertyOp10
 70
     1
102
RTVSPropertyOp11
 70
     1
102
RTVSPropertyOp12
 70
     1
102
RTVSPropertyOp13
 70
     1
102
RTVSPropertyOp14
 70
     1
102
RTVSPropertyOp15
 70
     1
102
RTVSPropertyOp16
 70
     1
102
RTVSPropertyOp17
 70
     1
102
RTVSPropertyOp18
 70
     1
102
RTVSPropertyOp19
 70
     1
102
RTVSPropertyOp20
 70
     1
102
RTVSPropertyOp21
 70
     1
102
RTVSPropertyOp22
 70
     1
102
RTVSPropertyOp23
 70
     1
102
RTVSPropertyOp24
 70
     1
102
RTVSPropertyOp25
 70
     1
102
RTVSPropertyOp26
 70
     1
102
RTVSPropertyOp27
 70
     1
102
RTVSPropertyOp28
 70
     1
102
RTVSPropertyOp29
 70
     1
102
RTVSPropertyOp30
 70
     1
102
RTVSPropertyOp31
 70
     1
102
RTVSPropertyOp32
 70
     1
  0
XRECORD
  5
328
102
{ACAD_REACTORS
330
327
102
}
330
327
100
AcDbXrecord
280
     1
102
RTVSPropertyOp0
 70
     1
102
RTVSPropertyOp1
 70
     1
102
RTVSPropertyOp2
 70
     1
102
RTVSPropertyOp3
 70
     1
102
RTVSPropertyOp4
 70
     1
102
RTVSPropertyOp5
 70
     1
102
RTVSPropertyOp6
 70
     1
102
RTVSPropertyOp7
 70
     1
102
RTVSPropertyOp8
 70
     1
102
RTVSPropertyOp9
 70
     1
102
RTVSPropertyOp10
 70
     1
102
RTVSPropertyOp11
 70
     1
102
RTVSPropertyOp12
 70
     1
102
RTVSPropertyOp13
 70
     1
102
RTVSPropertyOp14
 70
     1
102
RTVSPropertyOp15
 70
     1
102
RTVSPropertyOp16
 70
     1
102
RTVSPropertyOp17
 70
     1
102
RTVSPropertyOp18
 70
     1
102
RTVSPropertyOp19
 70
     1
102
RTVSPropertyOp20
 70
     1
102
RTVSPropertyOp21
 70
     1
102
RTVSPropertyOp22
 70
     1
102
RTVSPropertyOp23
 70
     1
102
RTVSPropertyOp24
 70
     1
102
RTVSPropertyOp25
 70
     1
102
RTVSPropertyOp26
 70
     1
102
RTVSPropertyOp27
 70
     1
102
RTVSPropertyOp28
 70
     1
102
RTVSPropertyOp29
 70
     1
102
RTVSPropertyOp30
 70
     1
102
RTVSPropertyOp31
 70
     1
102
RTVSPropertyOp32
 70
     1
  0
XRECORD
  5
31C
102
{ACAD_REACTORS
330
31B
102
}
330
31B
100
AcDbXrecord
280
     1
102
RTVSPropertyOp0
 70
     1
102
RTVSPropertyOp1
 70
     1
102
RTVSPropertyOp2
 70
     1
102
RTVSPropertyOp3
 70
     1
102
RTVSPropertyOp4
 70
     1
102
RTVSPropertyOp5
 70
     1
102
RTVSPropertyOp6
 70
     1
102
RTVSPropertyOp7
 70
     1
102
RTVSPropertyOp8
 70
     1
102
RTVSPropertyOp9
 70
     1
102
RTVSPropertyOp10
 70
     1
102
RTVSPropertyOp11
 70
     1
102
RTVSPropertyOp12
 70
     1
102
RTVSPropertyOp13
 70
     1
102
RTVSPropertyOp14
 70
     1
102
RTVSPropertyOp15
 70
     1
102
RTVSPropertyOp16
 70
     1
102
RTVSPropertyOp17
 70
     1
102
RTVSPropertyOp18
 70
     1
102
RTVSPropertyOp19
 70
     1
102
RTVSPropertyOp20
 70
     1
102
RTVSPropertyOp21
 70
     1
102
RTVSPropertyOp22
 70
     1
102
RTVSPropertyOp23
 70
     1
102
RTVSPropertyOp24
 70
     1
102
RTVSPropertyOp25
 70
     1
102
RTVSPropertyOp26
 70
     1
102
RTVSPropertyOp27
 70
     1
102
RTVSPropertyOp28
 70
     1
102
RTVSPropertyOp29
 70
     1
102
RTVSPropertyOp30
 70
     1
102
RTVSPropertyOp31
 70
     1
102
RTVSPropertyOp32
 70
     1
  0
XRECORD
  5
31E
102
{ACAD_REACTORS
330
31D
102
}
330
31D
100
AcDbXrecord
280
     1
102
RTVSPropertyOp0
 70
     1
102
RTVSPropertyOp1
 70
     1
102
RTVSPropertyOp2
 70
     1
102
RTVSPropertyOp3
 70
     1
102
RTVSPropertyOp4
 70
     1
102
RTVSPropertyOp5
 70
     1
102
RTVSPropertyOp6
 70
     1
102
RTVSPropertyOp7
 70
     1
102
RTVSPropertyOp8
 70
     1
102
RTVSPropertyOp9
 70
     1
102
RTVSPropertyOp10
 70
     1
102
RTVSPropertyOp11
 70
     1
102
RTVSPropertyOp12
 70
     1
102
RTVSPropertyOp13
 70
     1
102
RTVSPropertyOp14
 70
     1
102
RTVSPropertyOp15
 70
     1
102
RTVSPropertyOp16
 70
     1
102
RTVSPropertyOp17
 70
     1
102
RTVSPropertyOp18
 70
     1
102
RTVSPropertyOp19
 70
     1
102
RTVSPropertyOp20
 70
     1
102
RTVSPropertyOp21
 70
     1
102
RTVSPropertyOp22
 70
     1
102
RTVSPropertyOp23
 70
     1
102
RTVSPropertyOp24
 70
     1
102
RTVSPropertyOp25
 70
     1
102
RTVSPropertyOp26
 70
     1
102
RTVSPropertyOp27
 70
     1
102
RTVSPropertyOp28
 70
     1
102
RTVSPropertyOp29
 70
     1
102
RTVSPropertyOp30
 70
     1
102
RTVSPropertyOp31
 70
     1
102
RTVSPropertyOp32
 70
     1
  0
XRECORD
  5
326
102
{ACAD_REACTORS
330
325
102
}
330
325
100
AcDbXrecord
280
     1
102
RTVSPropertyOp0
 70
     1
102
RTVSPropertyOp1
 70
     1
102
RTVSPropertyOp2
 70
     1
102
RTVSPropertyOp3
 70
     1
102
RTVSPropertyOp4
 70
     1
102
RTVSPropertyOp5
 70
     1
102
RTVSPropertyOp6
 70
     1
102
RTVSPropertyOp7
 70
     1
102
RTVSPropertyOp8
 70
     1
102
RTVSPropertyOp9
 70
     1
102
RTVSPropertyOp10
 70
     1
102
RTVSPropertyOp11
 70
     1
102
RTVSPropertyOp12
 70
     1
102
RTVSPropertyOp13
 70
     1
102
RTVSPropertyOp14
 70
     1
102
RTVSPropertyOp15
 70
     1
102
RTVSPropertyOp16
 70
     1
102
RTVSPropertyOp17
 70
     1
102
RTVSPropertyOp18
 70
     1
102
RTVSPropertyOp19
 70
     1
102
RTVSPropertyOp20
 70
     1
102
RTVSPropertyOp21
 70
     1
102
RTVSPropertyOp22
 70
     1
102
RTVSPropertyOp23
 70
     1
102
RTVSPropertyOp24
 70
     1
102
RTVSPropertyOp25
 70
     1
102
RTVSPropertyOp26
 70
     1
102
RTVSPropertyOp27
 70
     1
102
RTVSPropertyOp28
 70
     1
102
RTVSPropertyOp29
 70
     1
102
RTVSPropertyOp30
 70
     1
102
RTVSPropertyOp31
 70
     1
102
RTVSPropertyOp32
 70
     1
  0
XRECORD
  5
30A
102
{ACAD_REACTORS
330
309
102
}
330
309
100
AcDbXrecord
280
     1
102
RTVSPropertyOp0
 70
     1
102
RTVSPropertyOp1
 70
     1
102
RTVSPropertyOp2
 70
     1
102
RTVSPropertyOp3
 70
     1
102
RTVSPropertyOp4
 70
     1
102
RTVSPropertyOp5
 70
     1
102
RTVSPropertyOp6
 70
     1
102
RTVSPropertyOp7
 70
     1
102
RTVSPropertyOp8
 70
     1
102
RTVSPropertyOp9
 70
     1
102
RTVSPropertyOp10
 70
     1
102
RTVSPropertyOp11
 70
     1
102
RTVSPropertyOp12
 70
     1
102
RTVSPropertyOp13
 70
     1
102
RTVSPropertyOp14
 70
     1
102
RTVSPropertyOp15
 70
     1
102
RTVSPropertyOp16
 70
     1
102
RTVSPropertyOp17
 70
     1
102
RTVSPropertyOp18
 70
     1
102
RTVSPropertyOp19
 70
     1
102
RTVSPropertyOp20
 70
     1
102
RTVSPropertyOp21
 70
     1
102
RTVSPropertyOp22
 70
     1
102
RTVSPropertyOp23
 70
     1
102
RTVSPropertyOp24
 70
     1
102
RTVSPropertyOp25
 70
     1
102
RTVSPropertyOp26
 70
     1
102
RTVSPropertyOp27
 70
     1
102
RTVSPropertyOp28
 70
     1
102
RTVSPropertyOp29
 70
     1
102
RTVSPropertyOp30
 70
     1
102
RTVSPropertyOp31
 70
     1
102
RTVSPropertyOp32
 70
     1
  0
XRECORD
  5
30C
102
{ACAD_REACTORS
330
30B
102
}
330
30B
100
AcDbXrecord
280
     1
102
RTVSPropertyOp0
 70
     1
102
RTVSPropertyOp1
 70
     1
102
RTVSPropertyOp2
 70
     1
102
RTVSPropertyOp3
 70
     1
102
RTVSPropertyOp4
 70
     1
102
RTVSPropertyOp5
 70
     1
102
RTVSPropertyOp6
 70
     1
102
RTVSPropertyOp7
 70
     1
102
RTVSPropertyOp8
 70
     1
102
RTVSPropertyOp9
 70
     1
102
RTVSPropertyOp10
 70
     1
102
RTVSPropertyOp11
 70
     1
102
RTVSPropertyOp12
 70
     1
102
RTVSPropertyOp13
 70
     1
102
RTVSPropertyOp14
 70
     1
102
RTVSPropertyOp15
 70
     1
102
RTVSPropertyOp16
 70
     1
102
RTVSPropertyOp17
 70
     1
102
RTVSPropertyOp18
 70
     1
102
RTVSPropertyOp19
 70
     1
102
RTVSPropertyOp20
 70
     1
102
RTVSPropertyOp21
 70
     1
102
RTVSPropertyOp22
 70
     1
102
RTVSPropertyOp23
 70
     1
102
RTVSPropertyOp24
 70
     1
102
RTVSPropertyOp25
 70
     1
102
RTVSPropertyOp26
 70
     1
102
RTVSPropertyOp27
 70
     1
102
RTVSPropertyOp28
 70
     1
102
RTVSPropertyOp29
 70
     1
102
RTVSPropertyOp30
 70
     1
102
RTVSPropertyOp31
 70
     1
102
RTVSPropertyOp32
 70
     1
  0
XRECORD
  5
30E
102
{ACAD_REACTORS
330
30D
102
}
330
30D
100
AcDbXrecord
280
     1
102
RTVSPropertyOp0
 70
     1
102
RTVSPropertyOp1
 70
     1
102
RTVSPropertyOp2
 70
     1
102
RTVSPropertyOp3
 70
     1
102
RTVSPropertyOp4
 70
     1
102
RTVSPropertyOp5
 70
     1
102
RTVSPropertyOp6
 70
     1
102
RTVSPropertyOp7
 70
     1
102
RTVSPropertyOp8
 70
     1
102
RTVSPropertyOp9
 70
     1
102
RTVSPropertyOp10
 70
     1
102
RTVSPropertyOp11
 70
     1
102
RTVSPropertyOp12
 70
     1
102
RTVSPropertyOp13
 70
     1
102
RTVSPropertyOp14
 70
     1
102
RTVSPropertyOp15
 70
     1
102
RTVSPropertyOp16
 70
     1
102
RTVSPropertyOp17
 70
     1
102
RTVSPropertyOp18
 70
     1
102
RTVSPropertyOp19
 70
     1
102
RTVSPropertyOp20
 70
     1
102
RTVSPropertyOp21
 70
     1
102
RTVSPropertyOp22
 70
     1
102
RTVSPropertyOp23
 70
     1
102
RTVSPropertyOp24
 70
     1
102
RTVSPropertyOp25
 70
     1
102
RTVSPropertyOp26
 70
     1
102
RTVSPropertyOp27
 70
     1
102
RTVSPropertyOp28
 70
     1
102
RTVSPropertyOp29
 70
     1
102
RTVSPropertyOp30
 70
     1
102
RTVSPropertyOp31
 70
     1
102
RTVSPropertyOp32
 70
     1
  0
XRECORD
  5
310
102
{ACAD_REACTORS
330
30F
102
}
330
30F
100
AcDbXrecord
280
     1
102
RTVSPropertyOp0
 70
     1
102
RTVSPropertyOp1
 70
     1
102
RTVSPropertyOp2
 70
     1
102
RTVSPropertyOp3
 70
     1
102
RTVSPropertyOp4
 70
     1
102
RTVSPropertyOp5
 70
     1
102
RTVSPropertyOp6
 70
     1
102
RTVSPropertyOp7
 70
     1
102
RTVSPropertyOp8
 70
     1
102
RTVSPropertyOp9
 70
     1
102
RTVSPropertyOp10
 70
     1
102
RTVSPropertyOp11
 70
     1
102
RTVSPropertyOp12
 70
     1
102
RTVSPropertyOp13
 70
     1
102
RTVSPropertyOp14
 70
     1
102
RTVSPropertyOp15
 70
     1
102
RTVSPropertyOp16
 70
     1
102
RTVSPropertyOp17
 70
     1
102
RTVSPropertyOp18
 70
     1
102
RTVSPropertyOp19
 70
     1
102
RTVSPropertyOp20
 70
     1
102
RTVSPropertyOp21
 70
     1
102
RTVSPropertyOp22
 70
     1
102
RTVSPropertyOp23
 70
     1
102
RTVSPropertyOp24
 70
     1
102
RTVSPropertyOp25
 70
     1
102
RTVSPropertyOp26
 70
     1
102
RTVSPropertyOp27
 70
     1
102
RTVSPropertyOp28
 70
     1
102
RTVSPropertyOp29
 70
     1
102
RTVSPropertyOp30
 70
     1
102
RTVSPropertyOp31
 70
     1
102
RTVSPropertyOp32
 70
     1
  0
XRECORD
  5
324
102
{ACAD_REACTORS
330
323
102
}
330
323
100
AcDbXrecord
280
     1
102
RTVSPropertyOp0
 70
     1
102
RTVSPropertyOp1
 70
     1
102
RTVSPropertyOp2
 70
     1
102
RTVSPropertyOp3
 70
     1
102
RTVSPropertyOp4
 70
     1
102
RTVSPropertyOp5
 70
     1
102
RTVSPropertyOp6
 70
     1
102
RTVSPropertyOp7
 70
     1
102
RTVSPropertyOp8
 70
     1
102
RTVSPropertyOp9
 70
     1
102
RTVSPropertyOp10
 70
     1
102
RTVSPropertyOp11
 70
     1
102
RTVSPropertyOp12
 70
     1
102
RTVSPropertyOp13
 70
     1
102
RTVSPropertyOp14
 70
     1
102
RTVSPropertyOp15
 70
     1
102
RTVSPropertyOp16
 70
     1
102
RTVSPropertyOp17
 70
     1
102
RTVSPropertyOp18
 70
     1
102
RTVSPropertyOp19
 70
     1
102
RTVSPropertyOp20
 70
     1
102
RTVSPropertyOp21
 70
     1
102
RTVSPropertyOp22
 70
     1
102
RTVSPropertyOp23
 70
     1
102
RTVSPropertyOp24
 70
     1
102
RTVSPropertyOp25
 70
     1
102
RTVSPropertyOp26
 70
     1
102
RTVSPropertyOp27
 70
     1
102
RTVSPropertyOp28
 70
     1
102
RTVSPropertyOp29
 70
     1
102
RTVSPropertyOp30
 70
     1
102
RTVSPropertyOp31
 70
     1
102
RTVSPropertyOp32
 70
     1
  0
XRECORD
  5
31A
102
{ACAD_REACTORS
330
319
102
}
330
319
100
AcDbXrecord
280
     1
102
RTVSPropertyOp0
 70
     1
102
RTVSPropertyOp1
 70
     1
102
RTVSPropertyOp2
 70
     1
102
RTVSPropertyOp3
 70
     1
102
RTVSPropertyOp4
 70
     1
102
RTVSPropertyOp5
 70
     1
102
RTVSPropertyOp6
 70
     1
102
RTVSPropertyOp7
 70
     1
102
RTVSPropertyOp8
 70
     1
102
RTVSPropertyOp9
 70
     1
102
RTVSPropertyOp10
 70
     1
102
RTVSPropertyOp11
 70
     1
102
RTVSPropertyOp12
 70
     1
102
RTVSPropertyOp13
 70
     1
102
RTVSPropertyOp14
 70
     1
102
RTVSPropertyOp15
 70
     1
102
RTVSPropertyOp16
 70
     1
102
RTVSPropertyOp17
 70
     1
102
RTVSPropertyOp18
 70
     1
102
RTVSPropertyOp19
 70
     1
102
RTVSPropertyOp20
 70
     1
102
RTVSPropertyOp21
 70
     1
102
RTVSPropertyOp22
 70
     1
102
RTVSPropertyOp23
 70
     1
102
RTVSPropertyOp24
 70
     1
102
RTVSPropertyOp25
 70
     1
102
RTVSPropertyOp26
 70
     1
102
RTVSPropertyOp27
 70
     1
102
RTVSPropertyOp28
 70
     1
102
RTVSPropertyOp29
 70
     1
102
RTVSPropertyOp30
 70
     1
102
RTVSPropertyOp31
 70
     1
102
RTVSPropertyOp32
 70
     1
  0
XRECORD
  5
322
102
{ACAD_REACTORS
330
321
102
}
330
321
100
AcDbXrecord
280
     1
102
RTVSPropertyOp0
 70
     1
102
RTVSPropertyOp1
 70
     1
102
RTVSPropertyOp2
 70
     1
102
RTVSPropertyOp3
 70
     1
102
RTVSPropertyOp4
 70
     1
102
RTVSPropertyOp5
 70
     1
102
RTVSPropertyOp6
 70
     1
102
RTVSPropertyOp7
 70
     1
102
RTVSPropertyOp8
 70
     1
102
RTVSPropertyOp9
 70
     1
102
RTVSPropertyOp10
 70
     1
102
RTVSPropertyOp11
 70
     1
102
RTVSPropertyOp12
 70
     1
102
RTVSPropertyOp13
 70
     1
102
RTVSPropertyOp14
 70
     1
102
RTVSPropertyOp15
 70
     1
102
RTVSPropertyOp16
 70
     1
102
RTVSPropertyOp17
 70
     1
102
RTVSPropertyOp18
 70
     1
102
RTVSPropertyOp19
 70
     1
102
RTVSPropertyOp20
 70
     1
102
RTVSPropertyOp21
 70
     1
102
RTVSPropertyOp22
 70
     1
102
RTVSPropertyOp23
 70
     1
102
RTVSPropertyOp24
 70
     1
102
RTVSPropertyOp25
 70
     1
102
RTVSPropertyOp26
 70
     1
102
RTVSPropertyOp27
 70
     1
102
RTVSPropertyOp28
 70
     1
102
RTVSPropertyOp29
 70
     1
102
RTVSPropertyOp30
 70
     1
102
RTVSPropertyOp31
 70
     1
102
RTVSPropertyOp32
 70
     1
  0
ENDSEC
  0
EOF
