  0
SECTION
  2
HEADER
  9
$ACADVER
  1
AC1014
  9
$ACADMAINTVER
 70
             0
  9
$DWGCODEPAGE
  3
ANSI_1252
  9
$INSBASE
 10
0.0
 20
0.0
 30
0.0
  9
$EXTMIN
 10
-148.55786822367011
 20
181.23875453125399
 30
0.0
  9
$EXTMAX
 10
36.0
 20
260.11768327757812
 30
0.0
  9
$LIMMIN
 10
0.0
 20
0.0
  9
$LIMMAX
 10
0.0
 20
0.0
  9
$ORTHOMODE
 70
             0
  9
$REGENMODE
 70
             1
  9
$FILLMODE
 70
             1
  9
$QTEXTMODE
 70
             0
  9
$MIRRTEXT
 70
             1
  9
$DRAGMODE
 70
             2
  9
$LTSCALE
 40
1.0
  9
$OSMODE
 70
             0
  9
$ATTMODE
 70
             1
  9
$TEXTSIZE
 40
0.2
  9
$TRACEWID
 40
0.05
  9
$TEXTSTYLE
  7
STANDARD
  9
$CLAYER
  8
0
  9
$CELTYPE
  6
CONTINUOUS
  9
$CECOLOR
 62
           256
  9
$CELTSCALE
 40
1.0
  9
$DELOBJ
 70
             1
  9
$DISPSILH
 70
             0
  9
$DIMSCALE
 40
1.0
  9
$DIMASZ
 40
0.18
  9
$DIMEXO
 40
0.0625
  9
$DIMDLI
 40
0.38
  9
$DIMRND
 40
0.0
  9
$DIMDLE
 40
0.0
  9
$DIMEXE
 40
0.18
  9
$DIMTP
 40
0.0
  9
$DIMTM
 40
0.0
  9
$DIMTXT
 40
0.18
  9
$DIMCEN
 40
0.09
  9
$DIMTSZ
 40
0.0
  9
$DIMTOL
 70
             0
  9
$DIMLIM
 70
             0
  9
$DIMTIH
 70
             1
  9
$DIMTOH
 70
             1
  9
$DIMSE1
 70
             0
  9
$DIMSE2
 70
             0
  9
$DIMTAD
 70
             0
  9
$DIMZIN
 70
             0
  9
$DIMBLK
  1

  9
$DIMASO
 70
             1
  9
$DIMSHO
 70
             1
  9
$DIMPOST
  1

  9
$DIMAPOST
  1

  9
$DIMALT
 70
             0
  9
$DIMALTD
 70
             2
  9
$DIMALTF
 40
25.4
  9
$DIMLFAC
 40
1.0
  9
$DIMTOFL
 70
             0
  9
$DIMTVP
 40
0.0
  9
$DIMTIX
 70
             0
  9
$DIMSOXD
 70
             0
  9
$DIMSAH
 70
             0
  9
$DIMBLK1
  1

  9
$DIMBLK2
  1

  9
$DIMSTYLE
  2
STANDARD
  9
$DIMCLRD
 70
             0
  9
$DIMCLRE
 70
             0
  9
$DIMCLRT
 70
             0
  9
$DIMTFAC
 40
1.0
  9
$DIMGAP
 40
0.09
  9
$DIMJUST
 70
             0
  9
$DIMSD1
 70
             0
  9
$DIMSD2
 70
             0
  9
$DIMTOLJ
 70
             1
  9
$DIMTZIN
 70
             0
  9
$DIMALTZ
 70
             0
  9
$DIMALTTZ
 70
             0
  9
$DIMFIT
 70
             3
  9
$DIMUPT
 70
             0
  9
$DIMUNIT
 70
             2
  9
$DIMDEC
 70
             4
  9
$DIMTDEC
 70
             4
  9
$DIMALTU
 70
             2
  9
$DIMALTTD
 70
             2
  9
$DIMTXSTY
  7
STANDARD
  9
$DIMAUNIT
 70
             0
  9
$LUNITS
 70
             2
  9
$LUPREC
 70
             4
  9
$SKETCHINC
 40
0.1
  9
$FILLETRAD
 40
0.0
  9
$AUNITS
 70
             0
  9
$AUPREC
 70
             0
  9
$MENU
  1
acad
  9
$ELEVATION
 40
0.0
  9
$PELEVATION
 40
0.0
  9
$THICKNESS
 40
0.0
  9
$LIMCHECK
 70
             0
  9
$BLIPMODE
 70
             1
  9
$CHAMFERA
 40
0.0
  9
$CHAMFERB
 40
0.0
  9
$CHAMFERC
 40
0.0
  9
$CHAMFERD
 40
0.0
  9
$SKPOLY
 70
             0
  9
$TDCREATE
 40
0.000000000
  9
$TDUPDATE
 40
0.000000000
  9
$TDINDWG
 40
0.0000000000
  9
$TDUSRTIMER
 40
0.0000000000
  9
$USRTIMER
 70
             1
  9
$ANGBASE
 50
0.0
  9
$ANGDIR
 70
             0
  9
$PDMODE
 70
             0
  9
$PDSIZE
 40
0.0
  9
$PLINEWID
 40
0.0
  9
$COORDS
 70
             0
  9
$SPLFRAME
 70
             0
  9
$SPLINETYPE
 70
             6
  9
$SPLINESEGS
 70
             8
  9
$ATTDIA
 70
             0
  9
$ATTREQ
 70
             1
  9
$HANDLING
 70
             1
  9
$HANDSEED
  5
F2
  9
$SURFTAB1
 70
             6
  9
$SURFTAB2
 70
             6
  9
$SURFTYPE
 70
             6
  9
$SURFU
 70
             6
  9
$SURFV
 70
             6
  9
$UCSNAME
  2

  9
$UCSORG
 10
0.0
 20
0.0
 30
0.0
  9
$UCSXDIR
 10
1.0
 20
0.0
 30
0.0
  9
$UCSYDIR
 10
0.0
 20
1.0
 30
0.0
  9
$PUCSNAME
  2

  9
$PUCSORG
 10
0.0
 20
0.0
 30
0.0
  9
$PUCSXDIR
 10
1.0
 20
0.0
 30
0.0
  9
$PUCSYDIR
 10
0.0
 20
1.0
 30
0.0
  9
$USERI1
 70
             0
  9
$USERI2
 70
             0
  9
$USERI3
 70
             0
  9
$USERI4
 70
             0
  9
$USERI5
 70
             0
  9
$USERR1
 40
12.01
  9
$USERR2
 40
0.0
  9
$USERR3
 40
0.0
  9
$USERR4
 40
0.0
  9
$USERR5
 40
0.0
  9
$WORLDVIEW
 70
             1
  9
$SHADEDGE
 70
             3
  9
$SHADEDIF
 70
            70
  9
$TILEMODE
 70
             1
  9
$MAXACTVP
 70
            16
  9
$PINSBASE
 10
0.0
 20
0.0
 30
0.0
  9
$PLIMCHECK
 70
             0
  9
$PEXTMIN
 10
1.00000000000000E+20
 20
1.00000000000000E+20
 30
1.00000000000000E+20
  9
$PEXTMAX
 10
-1.00000000000000E+20
 20
-1.00000000000000E+20
 30
-1.00000000000000E+20
  9
$PLIMMIN
 10
0.0
 20
0.0
  9
$PLIMMAX
 10
12.0
 20
9.0
  9
$UNITMODE
 70
             0
  9
$VISRETAIN
 70
             0
  9
$PLINEGEN
 70
             1
  9
$PSLTSCALE
 70
             0
  9
$TREEDEPTH
 70
          3020
  9
$PICKSTYLE
 70
             1
  9
$CMLSTYLE
  2
STANDARD
  9
$CMLJUST
 70
             0
  9
$CMLSCALE
 40
1.0
  9
$PROXYGRAPHICS
 70
             0
  9
$MEASUREMENT
 70
             1
  0
ENDSEC
  0
SECTION
  2
CLASSES
  0
CLASS
  1
LWPOLYLINE
  2
AcDbPolyline
  3
"AutoCAD"
 90
        0
280
             0
281
             1
  0
CLASS
  1
IMAGE
  2
AcDbRasterImage
  3
ISM
 90
      127
280
             0
281
             1
  0
CLASS
  1
OLE2FRAME
  2
AcDbOle2Frame
  3
""
 90
        0
280
             0
281
             1
  0
CLASS
  1
HATCH
  2
AcDbHatch
  3
"ACAD_SEDONA"
 90
        0
280
             0
281
             1
  0
CLASS
  1
DICTIONARYVAR
  2
AcDbDictionaryVar
  3
"AutoCAD"
 90
        0
280
             0
281
             0
  0
CLASS
  1
RASTERVARIABLES
  2
AcDbRasterVariables
  3
ISM
 90
        0
280
             0
281
             0
  0
CLASS
  1
IMAGEDEF
  2
AcDbRasterImageDef
  3
ISM
 90
        0
280
             0
281
             0
  0
CLASS
  1
IMAGEDEF_REACTOR
  2
AcDbRasterImageDefReactor
  3
ISM
 90
        1
280
             0
281
             0
  0
CLASS
  1
IDBUFFER
  2
AcDbIdBuffer
  3
"Acad"
 90
        0
280
             0
281
             0
  0
CLASS
  1
SPATIAL_FILTER
  2
AcDbSpatialFilter
  3
"Acad"
 90
        0
280
             0
281
             0
  0
CLASS
  1
XRECORD
  2
AcDbXrecord
  3
"<Built In>"
 90
        0
280
             0
281
             0
  0
CLASS
  1
SORTENTSTABLE
  2
AcDbSortentsTable
  3
"AutoCAD"
 90
        0
280
             0
281
             0
  0
CLASS
  1
LAYER_INDEX
  2
AcDbLayerIndex
  3
"Acad"
 90
        0
280
             0
281
             0
  0
CLASS
  1
SPATIAL_INDEX
  2
AcDbSpatialIndex
  3
"Acad"
 90
        0
280
             0
281
             0
  0
CLASS
  1
OBJECT_PTR
  2
CAseDLPNTableRecord
  3
"ASE-LPNTableRecord"
 90
        1
280
             0
281
             0
  0
CLASS
  1
LAYOUT
  2
AcDbLayout
  3
"AutoCAD 2000"
 90
        0
280
             0
281
             0
  0
CLASS
  1
PLOTSETTINGS
  2
AcDbPlotSettings
  3
"AutoCAD 2000"
 90
        0
280
             0
281
             0
  0
CLASS
  1
ACDBDICTIONARYWDFLT
  2
AcDbDictionaryWithDefault
  3
"AutoCAD 2000"
 90
        0
280
             0
281
             0
  0
CLASS
  1
ACDBPLACEHOLDER
  2
AcDbPlaceHolder
  3
"AutoCAD 2000"
 90
        0
280
             0
281
             0
  0
ENDSEC
  0
SECTION
  2
TABLES
  0
TABLE
  2
VPORT
  5
7
100
AcDbSymbolTable
 70
             1
  0
VPORT
  5
15
100
AcDbSymbolTableRecord
100
AcDbViewportTableRecord
  2
*ACTIVE
 70
             0
 10
0.0
 20
0.0
 11
1.0
 21
1.0
 12
-56.27893411183506
 22
220.67821890441604
 13
0.0
 23
0.0
 14
1.0
 24
1.0
 15
0.0
 25
0.0
 16
0.0
 26
0.0
 36
1.0
 17
0.0
 27
0.0
 37
0.0
 40
126.67147278638534
 41
1.60267857142857
 42
50.0
 43
0.0
 44
0.0
 50
0.0
 51
0.0
 71
             0
 72
           100
 73
             1
 74
             1
 75
             0
 76
             0
 77
             0
 78
             0
  0
ENDTAB
  0
TABLE
  2
LTYPE
  5
4
100
AcDbSymbolTable
 70
            10
  0
LTYPE
  5
11
100
AcDbSymbolTableRecord
100
AcDbLinetypeTableRecord
  2
BYBLOCK
 70
            64
  3

 72
            65
 73
             0
 40
0.0
  0
LTYPE
  5
12
100
AcDbSymbolTableRecord
100
AcDbLinetypeTableRecord
  2
BYLAYER
 70
            64
  3

 72
            65
 73
             0
 40
0.0
  0
LTYPE
  5
13
100
AcDbSymbolTableRecord
100
AcDbLinetypeTableRecord
  2
CONTINUOUS
 70
            64
  3
Solid line
 72
            65
 73
             0
 40
0.0
  0
LTYPE
  5
1D
100
AcDbSymbolTableRecord
100
AcDbLinetypeTableRecord
  2
DASHED
 70
            64
  3
Dashed
 72
            65
 73
             2
 40
15.0
 49
7.0
 74
             0
 49
-8.0
 74
             0
  0
LTYPE
  5
1E
100
AcDbSymbolTableRecord
100
AcDbLinetypeTableRecord
  2
DOTTED
 70
            64
  3
Dotted
 72
            65
 73
             2
 40
1.0
 49
0.0
 74
             0
 49
-1.0
 74
             0
  0
LTYPE
  5
1F
100
AcDbSymbolTableRecord
100
AcDbLinetypeTableRecord
  2
DOT_CENTER
 70
            64
  3
Dot_Center
 72
            65
 73
             4
 40
14.0
 49
12.0
 74
             0
 49
-1.0
 74
             0
 49
0.0
 74
             0
 49
-1.0
 74
             0
  0
LTYPE
  5
20
100
AcDbSymbolTableRecord
100
AcDbLinetypeTableRecord
  2
LONG_DASHED
 70
            64
  3
Long_Dashed
 72
            65
 73
             2
 40
15.0
 49
10.0
 74
             0
 49
-5.0
 74
             0
  0
LTYPE
  5
21
100
AcDbSymbolTableRecord
100
AcDbLinetypeTableRecord
  2
DASH_CENTER
 70
            64
  3
Dash_Center
 72
            65
 73
             4
 40
14.0
 49
11.0
 74
             0
 49
-1.0
 74
             0
 49
1.0
 74
             0
 49
-1.0
 74
             0
  0
LTYPE
  5
22
100
AcDbSymbolTableRecord
100
AcDbLinetypeTableRecord
  2
PHANTOM
 70
            64
  3
Phantom
 72
            65
 73
             6
 40
13.0
 49
10.0
 74
             0
 49
-1.0
 74
             0
 49
0.0
 74
             0
 49
-1.0
 74
             0
 49
0.0
 74
             0
 49
-1.0
 74
             0
  0
LTYPE
  5
23
100
AcDbSymbolTableRecord
100
AcDbLinetypeTableRecord
  2
CENTER_DASH_DASH
 70
            64
  3
Center_Dash_Dash
 72
            65
 73
             6
 40
14.0
 49
9.0
 74
             0
 49
-1.0
 74
             0
 49
1.0
 74
             0
 49
-1.0
 74
             0
 49
1.0
 74
             0
 49
-1.0
 74
             0
  0
ENDTAB
  0
TABLE
  2
LAYER
  5
2
100
AcDbSymbolTable
 70
             4
  0
LAYER
  5
14
100
AcDbSymbolTableRecord
100
AcDbLayerTableRecord
  2
0
 70
             0
 62
             7
  6
CONTINUOUS
  0
LAYER
  5
24
100
AcDbSymbolTableRecord
100
AcDbLayerTableRecord
  2
1
 70
             0
 62
             7
  6
CONTINUOUS
  0
LAYER
  5
25
100
AcDbSymbolTableRecord
100
AcDbLayerTableRecord
  2
GIALLO
 70
             0
 62
             7
  6
CONTINUOUS
  0
LAYER
  5
26
100
AcDbSymbolTableRecord
100
AcDbLayerTableRecord
  2
VERDE
 70
             0
 62
             7
  6
CONTINUOUS
  0
ENDTAB
  0
TABLE
  2
STYLE
  5
3
100
AcDbSymbolTable
 70
             2
  0
STYLE
  5
17
100
AcDbSymbolTableRecord
100
AcDbTextStyleTableRecord
  2
STANDARD
 70
             0
 40
0.0
 41
1.0
 50
0.0
 71
             0
 42
0.0
  3
txt
  4

  0
STYLE
  5
E1
100
AcDbSymbolTableRecord
100
AcDbTextStyleTableRecord
  2
CONVERTER_1
 70
             0
 40
0.0
 41
0.9
 50
0.0
 71
             0
 42
0.0
  3
txt.shx
  4

  0
ENDTAB
  0
TABLE
  2
VIEW
  5
5
100
AcDbSymbolTable
 70
             0
  0
ENDTAB
  0
TABLE
  2
UCS
  5
6
100
AcDbSymbolTable
 70
             0
  0
ENDTAB
  0
TABLE
  2
APPID
  5
8
100
AcDbSymbolTable
 70
             1
  0
APPID
  5
16
100
AcDbSymbolTableRecord
100
AcDbRegAppTableRecord
  2
ACAD
 70
             0
  0
ENDTAB
  0
TABLE
  2
DIMSTYLE
  5
9
100
AcDbSymbolTable
 70
             3
  0
DIMSTYLE
105
18
100
AcDbSymbolTableRecord
100
AcDbDimStyleTableRecord
  2
STANDARD
 70
             0
  3

  4

  5

  6

  7

 40
1.0
 41
0.18
 42
0.0625
 43
0.38
 44
0.18
 45
0.0
 46
0.0
 47
0.0
 48
0.0
 71
             0
 72
             0
 73
             1
 74
             1
 75
             0
 76
             0
 77
             0
 78
             0
140
0.18
141
0.09
142
0.0
143
25.4
144
1.0
145
0.0
146
1.0
147
0.09
170
             0
171
             2
172
             0
173
             0
174
             0
175
             0
176
             0
177
             0
178
             0
270
             2
271
             4
272
             4
273
             2
274
             2
275
             0
280
             0
281
             0
282
             0
283
             1
284
             0
285
             0
286
             0
287
             3
288
             0
340
17
  0
DIMSTYLE
105
E4
100
AcDbSymbolTableRecord
100
AcDbDimStyleTableRecord
  2
ME10_DIM_0
 70
             0
  3
Ø<>
  4

  5

  6

  7

 40
1.0
 41
7.0
 42
0.0
 43
0.38
 44
2.0
 45
0.0
 46
0.0
 47
0.0
 48
0.0
 71
             0
 72
             0
 73
             0
 74
             0
 75
             0
 76
             0
 77
             1
 78
             8
140
7.0
141
0.09
142
0.0
143
25.4
144
1.0
145
0.0
146
1.0
147
0.625
170
             0
171
             2
172
             1
173
             1
174
             0
175
             0
176
             4
177
             4
178
             1
270
             2
271
             2
272
             4
273
             2
274
             2
275
             0
280
             0
281
             0
282
             0
283
             1
284
             0
285
             0
286
             0
287
             3
288
             0
340
E1
  0
DIMSTYLE
105
EF
100
AcDbSymbolTableRecord
100
AcDbDimStyleTableRecord
  2
ME10_DIM_1
 70
             0
  3
Ø<>
  4

  5

  6

  7

 40
1.0
 41
7.0
 42
0.0
 43
0.38
 44
2.0
 45
0.0
 46
0.0
 47
0.0
 48
0.0
 71
             0
 72
             0
 73
             0
 74
             0
 75
             0
 76
             0
 77
             1
 78
             8
140
7.0
141
0.09
142
0.0
143
25.4
144
1.0
145
0.0
146
1.0
147
0.625
170
             0
171
             2
172
             1
173
             1
174
             0
175
             0
176
             4
177
             4
178
             1
270
             2
271
             2
272
             4
273
             2
274
             2
275
             0
280
             0
281
             0
282
             0
283
             1
284
             0
285
             0
286
             0
287
             3
288
             0
340
E1
  0
ENDTAB
  0
TABLE
  2
BLOCK_RECORD
  5
1
100
AcDbSymbolTable
 70
             4
  0
BLOCK_RECORD
  5
A
100
AcDbSymbolTableRecord
100
AcDbBlockTableRecord
  2
*MODEL_SPACE
  0
BLOCK_RECORD
  5
B
100
AcDbSymbolTableRecord
100
AcDbBlockTableRecord
  2
*PAPER_SPACE
  0
BLOCK_RECORD
  5
27
100
AcDbSymbolTableRecord
100
AcDbBlockTableRecord
  2
DREHGRIFF_ZU_HL555N
  0
BLOCK_RECORD
  5
29
100
AcDbSymbolTableRecord
100
AcDbBlockTableRecord
  2
VENTILSTOPFEN
  0
BLOCK_RECORD
  5
DA
100
AcDbSymbolTableRecord
100
AcDbBlockTableRecord
  2
*D2
  0
BLOCK_RECORD
  5
E6
100
AcDbSymbolTableRecord
100
AcDbBlockTableRecord
  2
*D3
  0
ENDTAB
  0
ENDSEC
  0
SECTION
  2
BLOCKS
  0
BLOCK
  5
D
100
AcDbEntity
  8
0
100
AcDbBlockBegin
  2
*MODEL_SPACE
 70
             0
 10
0.0
 20
0.0
 30
0.0
  3
*MODEL_SPACE
  1

  0
ENDBLK
  5
E
100
AcDbEntity
  8
0
100
AcDbBlockEnd
  0
BLOCK
  5
F
100
AcDbEntity
 67
             1
  8
0
100
AcDbBlockBegin
  2
*PAPER_SPACE
 70
             0
 10
0.0
 20
0.0
 30
0.0
  3
*PAPER_SPACE
  1

  0
ENDBLK
  5
10
100
AcDbEntity
 67
             1
  8
0
100
AcDbBlockEnd
  0
BLOCK
  5
28
100
AcDbEntity
  8
0
100
AcDbBlockBegin
  2
DREHGRIFF_ZU_HL555N
 70
             0
 10
-288.00184528758467
 20
21.59141286513841
 30
0.0
  3
DREHGRIFF_ZU_HL555N
  1

  0
ARC
  5
4B
100
AcDbEntity
  8
1
  6
CONTINUOUS
 62
             7
100
AcDbCircle
 10
-116.3078682236699
 20
207.24039044594269
 40
0.5
100
AcDbArc
 50
179.99999999998698
 51
-90.0
  0
ARC
  5
4A
100
AcDbEntity
  8
1
  6
CONTINUOUS
 62
             7
100
AcDbCircle
 10
-104.3078682236699
 20
207.24039044594269
 40
0.5
100
AcDbArc
 50
-90.0
 51
-0.00000000000977
  0
SPLINE
  5
49
100
AcDbEntity
  8
GIALLO
  6
CONTINUOUS
 62
             7
100
AcDbSpline
210
0.0
220
0.0
230
1.0
 70
             0
 71
             3
 72
            20
 73
            16
 74
            27
 42
0.00000000001
 43
0.00000000001
 44
0.00000000001
 40
0.0
 40
0.0
 40
0.0
 40
0.0
 40
1.4953736749740201
 40
2.5824913702782601
 40
3.85700609799808
 40
5.2812582388510796
 40
6.8127290351608902
 40
8.4054907404662096
 40
10.011684734436299
 40
11.583030640907401
 40
13.072343267587801
 40
14.4350299618864
 40
15.630552943309601
 40
16.623886870737699
 40
17.7048260141142
 40
17.7048260141142
 40
17.7048260141142
 40
17.7048260141142
 10
-96.707405221021702
 20
228.045464505929
 30
0.0
 10
-96.229557047944667
 20
228.19168091309521
 30
0.0
 10
-95.378425439320097
 20
228.3316049356813
 30
0.0
 10
-94.100710741437354
 20
228.47372151444179
 30
0.0
 10
-92.842256522441119
 20
228.57138844768031
 30
0.0
 10
-91.434102609666468
 20
228.6464881101636
 30
0.0
 10
-89.918629681946442
 20
228.6956695720562
 30
0.0
 10
-88.341890799092226
 20
228.7175232484216
 30
0.0
 10
-86.751715967582555
 20
228.71126240859459
 30
0.0
 10
-85.196390133556463
 20
228.6770930431052
 30
0.0
 10
-83.723078016273405
 20
228.6162140269964
 30
0.0
 10
-82.376553519660291
 20
228.53045119939461
 30
0.0
 10
-81.197202143137332
 20
228.42354543455849
 30
0.0
 10
-80.116349379462832
 20
228.28381064771901
 30
0.0
 10
-79.435303010384246
 20
228.15518077229379
 30
0.0
 10
-79.091605294902109
 20
228.045464505924
 30
0.0
 11
-96.707405221021702
 21
228.045464505929
 31
0.0
 11
-95.981078633065877
 21
228.22216631754387
 31
0.0
 11
-95.242407079047453
 21
228.33871445819031
 31
0.0
 11
-94.702818078862393
 21
228.40504936209985
 31
0.0
 11
-94.16222157653074
 21
228.46128755309701
 31
0.0
 11
-93.527383430213362
 21
228.51665114272021
 31
0.0
 11
-92.891746607761192
 21
228.56268353380827
 31
0.0
 11
-92.180876767382244
 21
228.60530618408714
 31
0.0
 11
-91.469584911773524
 21
228.63982153475757
 31
0.0
 11
-90.704395371048321
 21
228.66889827515556
 31
0.0
 11
-89.938948152053797
 21
228.69035775682059
 31
0.0
 11
-89.142696678753495
 21
228.70520715994635
 31
0.0
 11
-88.346343952002854
 21
228.71275668246895
 31
0.0
 11
-87.54323877961248
 21
228.7131708828654
 31
0.0
 11
-86.740162784344136
 21
228.70633773167563
 31
0.0
 11
-85.954603660821945
 21
228.69251658893759
 31
0.0
 11
-85.169207651093345
 21
228.67129594100672
 31
0.0
 11
-84.425040615227715
 21
228.64391222320722
 31
0.0
 11
-83.681211229028719
 21
228.60869603754389
 31
0.0
 11
-83.00103483663446
 21
228.56880706308584
 31
0.0
 11
-82.321385536473855
 21
228.52044008768252
 31
0.0
 11
-81.725718852842178
 21
228.46978572452213
 31
0.0
 11
-81.131048188992537
 21
228.40920970379824
 31
0.0
 11
-80.638055049910221
 21
228.34937153612074
 31
0.0
 11
-80.146366984545864
 21
228.27838456481626
 31
0.0
 11
-79.614313130585259
 21
228.18200342287795
 31
0.0
 11
-79.091605294902109
 21
228.045464505924
 31
0.0
  0
SPLINE
  5
48
100
AcDbEntity
  8
GIALLO
  6
CONTINUOUS
 62
             7
100
AcDbSpline
210
0.0
220
0.0
230
1.0
 70
             0
 71
             3
 72
            23
 73
            19
 74
            33
 42
0.00000000001
 43
0.00000000001
 44
0.00000000001
 40
0.0
 40
0.0
 40
0.0
 40
0.0
 40
4.8234948253340804
 40
7.1224388118641802
 40
9.3026460640984094
 40
11.343513491716999
 40
13.2386634255723
 40
14.9998681523317
 40
16.659674626278001
 40
18.2698854799286
 40
19.893113006029299
 40
21.589033655253399
 40
23.402184199485301
 40
25.356501135541599
 40
27.455910217196699
 40
29.687740201191801
 40
32.026717811108398
 40
35.453974082555298
 40
35.453974082555298
 40
35.453974082555298
 40
35.453974082555298
 10
-78.683986353799185
 20
227.2643506653574
 30
0.0
 10
-78.722968377426923
 20
225.65699802723631
 30
0.0
 10
-79.041249307983037
 20
223.28494903600171
 30
0.0
 10
-80.020827495006273
 20
220.33376581302139
 30
0.0
 10
-80.980885596028656
 20
218.37571064065409
 30
0.0
 10
-82.151362511780604
 20
216.69538441544239
 30
0.0
 10
-83.501122809190463
 20
215.34330195178759
 30
0.0
 10
-84.994840889514165
 20
214.36323069956671
 30
0.0
 10
-86.590855538452047
 20
213.79303570888251
 30
0.0
 10
-88.236361147944308
 20
213.66079811650931
 30
0.0
 10
-89.868859310590608
 20
213.97413366550711
 30
0.0
 10
-91.428767923176935
 20
214.71576243714
 30
0.0
 10
-92.868302394706575
 20
215.85258657267039
 30
0.0
 10
-94.148909618981094
 20
217.34428707696591
 30
0.0
 10
-95.237019518780301
 20
219.1444835203624
 30
0.0
 10
-96.103241445015243
 20
221.1997497935258
 30
0.0
 10
-96.813435624973636
 20
223.7764643306887
 30
0.0
 10
-97.050588825930134
 20
225.69220697652341
 30
0.0
 10
-97.100573222378785
 20
226.83326110914749
 30
0.0
 11
-78.683986353799185
 21
227.2643506653574
 31
0.0
 11
-78.877563168733914
 21
224.86036059990391
 31
0.0
 11
-79.352065160919707
 21
222.49577980463107
 31
0.0
 11
-79.682017950538295
 21
221.39403938433179
 31
0.0
 11
-80.082825343843282
 21
220.31607041843873
 31
0.0
 11
-80.531632448502435
 21
219.32183246447624
 31
0.0
 11
-81.051091390524505
 21
218.36267221900832
 31
0.0
 11
-81.604866887126406
 21
217.50449400048495
 31
0.0
 11
-82.227443027103192
 21
216.69493822216185
 31
0.0
 11
-82.869975711456419
 21
215.99692846745967
 31
0.0
 11
-83.576137404366847
 21
215.36354168148114
 31
0.0
 11
-84.289825225191507
 21
214.8452393044129
 31
0.0
 11
-85.056195126131172
 21
214.40893640713898
 31
0.0
 11
-85.822453195266277
 21
214.08581577863808
 31
0.0
 11
-86.622645387466193
 21
213.86012759733512
 31
0.0
 11
-87.421136282441651
 21
213.74405675225819
 31
0.0
 11
-88.227892389842438
 21
213.73379053005436
 31
0.0
 11
-89.03519494170331
 21
213.83200066198035
 31
0.0
 11
-89.823161515390353
 21
214.03376389314414
 31
0.0
 11
-90.612856147524596
 21
214.34650655399597
 31
0.0
 11
-91.359981318973055
 21
214.75093314777081
 31
0.0
 11
-92.104824500930249
 21
215.26977325213031
 31
0.0
 11
-92.791656308528516
 21
215.86350746903392
 31
0.0
 11
-93.466315838598575
 21
216.57168245846424
 31
0.0
 11
-94.074685763959337
 21
217.33768184916985
 31
0.0
 11
-94.657304439886019
 21
218.21177711587538
 31
0.0
 11
-95.170085484508661
 21
219.12866424561059
 31
0.0
 11
-95.642763324996793
 21
220.14024362160626
 31
0.0
 11
-96.044572303964031
 21
221.18203656451811
 31
0.0
 11
-96.393466566301257
 21
222.2988381665634
 31
0.0
 11
-96.671575382828706
 21
223.43540812703904
 31
0.0
 11
-96.956601725515455
 21
225.12574391503509
 31
0.0
 11
-97.100573222378785
 21
226.83326110914749
 31
0.0
  0
SPLINE
  5
47
100
AcDbEntity
  8
GIALLO
  6
CONTINUOUS
 62
             7
100
AcDbSpline
210
0.0
220
0.0
230
1.0
 70
             0
 71
             3
 72
            23
 73
            19
 74
            33
 42
0.00000000001
 43
0.00000000001
 44
0.00000000001
 40
0.0
 40
0.0
 40
0.0
 40
0.0
 40
4.8234948253342802
 40
7.1224388118641704
 40
9.3026460640984308
 40
11.343513491717101
 40
13.2386634255723
 40
14.9998681523317
 40
16.659674626278001
 40
18.2698854799287
 40
19.893113006029299
 40
21.589033655253399
 40
23.402184199485301
 40
25.356501135541599
 40
27.4559102171966
 40
29.687740201191801
 40
32.026717811108497
 40
35.453974082555398
 40
35.453974082555398
 40
35.453974082555398
 40
35.453974082555398
 10
-141.9317500935407
 20
227.2643506653539
 30
0.0
 10
-141.89276806991279
 20
225.65699802724251
 30
0.0
 10
-141.57448713935489
 20
223.2849490360046
 30
0.0
 10
-140.59490895233361
 20
220.33376581302321
 30
0.0
 10
-139.63485085131069
 20
218.37571064065489
 30
0.0
 10
-138.46437393555669
 20
216.69538441544799
 30
0.0
 10
-137.11461363815209
 20
215.34330195179129
 30
0.0
 10
-135.6208955578274
 20
214.36323069956319
 30
0.0
 10
-134.02488090888841
 20
213.7930357088857
 30
0.0
 10
-132.37937529939421
 20
213.660798116504
 30
0.0
 10
-130.7468771367482
 20
213.97413366550691
 30
0.0
 10
-129.18696852416099
 20
214.71576243713591
 30
0.0
 10
-127.74743405263391
 20
215.85258657266539
 30
0.0
 10
-126.4668268283593
 20
217.34428707696611
 30
0.0
 10
-125.37871692856299
 20
219.1444835203603
 30
0.0
 10
-124.5124950023235
 20
221.19974979353009
 30
0.0
 10
-123.8023008223648
 20
223.776464330697
 30
0.0
 10
-123.56514762141011
 20
225.69220697652301
 30
0.0
 10
-123.51516322496251
 20
226.83326110914649
 30
0.0
 11
-141.9317500935407
 21
227.2643506653539
 31
0.0
 11
-141.73817327860522
 21
224.86036059990761
 31
0.0
 11
-141.26367128641908
 21
222.49577980463374
 31
0.0
 11
-140.93371849680088
 21
221.39403938433395
 31
0.0
 11
-140.5329111034963
 21
220.31607041844052
 31
0.0
 11
-140.08410399883709
 21
219.32183246447769
 31
0.0
 11
-139.56464505681453
 21
218.36267221901022
 31
0.0
 11
-139.010869560212
 21
217.50449400048825
 31
0.0
 11
-138.38829342023536
 21
216.6949382221664
 31
0.0
 11
-137.74576073588361
 21
215.99692846746399
 31
0.0
 11
-137.03959904297477
 21
215.36354168148375
 31
0.0
 11
-136.32591122215041
 21
214.84523930441301
 31
0.0
 11
-135.55954132121036
 21
214.40893640713779
 31
0.0
 11
-134.7932832520747
 21
214.08581577863796
 31
0.0
 11
-133.99309105987413
 21
213.8601275973358
 31
0.0
 11
-133.19460016489782
 21
213.74405675225702
 31
0.0
 11
-132.38784405749638
 21
213.73379053005127
 31
0.0
 11
-131.58054150563538
 21
213.8320006619777
 31
0.0
 11
-130.79257493194831
 21
214.03376389314244
 31
0.0
 11
-130.00288029981382
 21
214.34650655399378
 31
0.0
 11
-129.25575512836542
 21
214.75093314776728
 31
0.0
 11
-128.51091194640892
 21
215.26977325212599
 31
0.0
 11
-127.8240801388115
 21
215.86350746902991
 31
0.0
 11
-127.14942060874185
 21
216.57168245846171
 31
0.0
 11
-126.54105068338147
 21
217.33768184916877
 31
0.0
 11
-125.95843200745568
 21
218.21177711587444
 31
0.0
 11
-125.44565096283344
 21
219.12866424560985
 31
0.0
 11
-124.97297312234427
 21
220.14024362160734
 31
0.0
 11
-124.57116414337548
 21
221.18203656452178
 31
0.0
 11
-124.22226988103748
 21
222.29883816656908
 31
0.0
 11
-123.94416106451008
 21
223.43540812704498
 31
0.0
 11
-123.65913472182432
 21
225.12574391503733
 31
0.0
 11
-123.51516322496251
 21
226.83326110914649
 31
0.0
  0
SPLINE
  5
46
100
AcDbEntity
  8
GIALLO
  6
CONTINUOUS
 62
             7
100
AcDbSpline
210
0.0
220
0.0
230
1.0
 70
             0
 71
             3
 72
            20
 73
            16
 74
            27
 42
0.00000000001
 43
0.00000000001
 44
0.00000000001
 40
0.0
 40
0.0
 40
0.0
 40
0.0
 40
1.4953736749741
 40
2.5824913702783099
 40
3.8570060979981799
 40
5.2812582388511702
 40
6.8127290351609604
 40
8.4054907404662895
 40
10.0116847344364
 40
11.5830306409075
 40
13.0723432675879
 40
14.435029961886499
 40
15.6305529433097
 40
16.623886870737799
 40
17.7048260141143
 40
17.7048260141143
 40
17.7048260141143
 40
17.7048260141143
 10
-123.90833122631589
 20
228.04546450593179
 30
0.0
 10
-124.386179399395
 20
228.1916809130893
 30
0.0
 10
-125.237311008018
 20
228.33160493568411
 30
0.0
 10
-126.5150257059029
 20
228.4737215144437
 30
0.0
 10
-127.7734799248999
 20
228.57138844768161
 30
0.0
 10
-129.1816338376747
 20
228.6464881101632
 30
0.0
 10
-130.6971067653966
 20
228.6956695720589
 30
0.0
 10
-132.27384564824749
 20
228.71752324842311
 30
0.0
 10
-133.86402047975611
 20
228.71126240859221
 30
0.0
 10
-135.41934631378459
 20
228.67709304309969
 30
0.0
 10
-136.89265843106651
 20
228.6162140270005
 30
0.0
 10
-138.23918292767701
 20
228.5304511994033
 30
0.0
 10
-139.41853430420281
 20
228.42354543455971
 30
0.0
 10
-140.49938706787691
 20
228.283810647715
 30
0.0
 10
-141.1804334369576
 20
228.15518077229351
 30
0.0
 10
-141.52413115243681
 20
228.04546450592969
 30
0.0
 11
-123.90833122631589
 21
228.04546450593179
 31
0.0
 11
-124.6346578142731
 21
228.22216631754179
 31
0.0
 11
-125.37332936829142
 21
228.33871445819142
 31
0.0
 11
-125.91291836847689
 21
228.40504936210198
 31
0.0
 11
-126.45351487080919
 21
228.46128755309894
 31
0.0
 11
-127.08835301712719
 21
228.51665114272183
 31
0.0
 11
-127.72398983957972
 21
228.56268353380946
 31
0.0
 11
-128.43485967995889
 21
228.60530618408771
 31
0.0
 11
-129.1461515355679
 21
228.63982153475791
 31
0.0
 11
-129.91134107629367
 21
228.66889827515666
 31
0.0
 11
-130.67678829528836
 21
228.69035775682258
 31
0.0
 11
-131.47303976858782
 21
228.70520715994834
 31
0.0
 11
-132.26939249533726
 21
228.71275668247003
 31
0.0
 11
-133.07249766772685
 21
228.71317088286494
 31
0.0
 11
-133.87557366299509
 21
228.70633773167333
 31
0.0
 11
-134.66113278651795
 21
228.69251658893393
 31
0.0
 11
-135.44652879624712
 21
228.67129594100342
 31
0.0
 11
-136.19069583211268
 21
228.64391222320691
 31
0.0
 11
-136.93452521831085
 21
228.60869603754745
 31
0.0
 11
-137.61470161070415
 21
228.56880706309201
 31
0.0
 11
-138.29435091086438
 21
228.52044008768905
 31
0.0
 11
-138.89001759449675
 21
228.46978572452653
 31
0.0
 11
-139.48468825834718
 21
228.40920970379938
 31
0.0
 11
-139.97768139742973
 21
228.34937153611949
 31
0.0
 11
-140.46936946279445
 21
228.27838456481402
 31
0.0
 11
-141.00142331675562
 21
228.18200342287744
 31
0.0
 11
-141.52413115243681
 21
228.04546450592969
 31
0.0
  0
ARC
  5
45
100
AcDbEntity
  8
0
  6
CONTINUOUS
 62
             7
100
AcDbCircle
 10
-122.8178682236702
 20
221.61039044594591
 40
24.99999999999742
100
AcDbArc
 50
166.11246332169651
 51
176.50945687949104
  0
ARC
  5
44
100
AcDbEntity
  8
0
  6
CONTINUOUS
 62
             7
100
AcDbCircle
 10
-144.17477994171881
 20
226.89076182184979
 40
3.0000000000017
100
AcDbArc
 50
116.59386846684973
 51
166.11246332178774
  0
ARC
  5
43
100
AcDbEntity
  8
0
  6
CONTINUOUS
 62
             7
100
AcDbCircle
 10
-132.0878682236677
 20
202.74730380275261
 40
29.99999999999391
100
AcDbArc
 50
100.45714276222917
 51
116.59386846687596
  0
ARC
  5
42
100
AcDbEntity
  8
0
  6
CONTINUOUS
 62
             7
100
AcDbCircle
 10
-76.44095650561968
 20
226.89076182184431
 40
3.00000000000107
100
AcDbArc
 50
13.88753667843241
 51
63.40613153314177
  0
ARC
  5
41
100
AcDbEntity
  8
0
  6
CONTINUOUS
 62
             7
100
AcDbCircle
 10
-97.79786822367097
 20
221.6103904459475
 40
25.00000000000315
100
AcDbArc
 50
3.49054312051165
 51
13.88753667831269
  0
ARC
  5
40
100
AcDbEntity
  8
0
  6
CONTINUOUS
 62
             7
100
AcDbCircle
 10
-88.52786822366781
 20
202.74730380275111
 40
29.99999999999235
100
AcDbArc
 50
63.4061315331249
 51
79.54285723778287
  0
ARC
  5
3F
100
AcDbEntity
  8
0
  6
CONTINUOUS
 62
             7
100
AcDbCircle
 10
-110.3078682236718
 20
84.74039044594434
 40
150.00000000000202
100
AcDbArc
 50
79.54285723778011
 51
100.45714276221916
  0
LINE
  5
3E
100
AcDbEntity
  8
0
  6
CONTINUOUS
 62
             7
100
AcDbLine
 10
-148.55786822367011
 20
210.24039044594221
 11
-116.8078682236696
 21
210.2403904459421
  0
LINE
  5
3D
100
AcDbEntity
  8
GIALLO
  6
CONTINUOUS
 62
             7
100
AcDbLine
 10
-145.83403074616081
 20
227.7643164529043
 11
-142.43759913461051
 21
227.76431645291001
  0
LINE
  5
3C
100
AcDbEntity
  8
0
  6
CONTINUOUS
 62
             7
100
AcDbLine
 10
-148.55786822367011
 20
210.24039044594221
 11
-147.771489751475
 21
223.1324852679046
  0
LINE
  5
3B
100
AcDbEntity
  8
GIALLO
  6
CONTINUOUS
 62
             7
100
AcDbLine
 10
-74.78170570117877
 20
227.7643164529062
 11
-78.17813731272906
 21
227.76431645290049
  0
LINE
  5
3A
100
AcDbEntity
  8
0
  6
CONTINUOUS
 62
             7
100
AcDbLine
 10
-72.05786822366932
 20
210.24039044594181
 11
-72.84424669586224
 21
223.13248526790761
  0
LINE
  5
39
100
AcDbEntity
  8
GIALLO
  6
CONTINUOUS
 62
             7
100
AcDbLine
 10
-122.99486324414291
 20
227.7643164529083
 11
-97.62087320319728
 21
227.76431645289861
  0
LINE
  5
38
100
AcDbEntity
  8
1
  6
DOT_CENTER
 62
             2
100
AcDbLine
 10
-72.80786822367094
 20
235.4361401681783
 11
-72.80786822367207
 21
241.11768327757659
  0
LINE
  5
37
100
AcDbEntity
  8
1
  6
DOT_CENTER
 62
             2
100
AcDbLine
 10
-147.807868223669
 20
235.4361401681798
 11
-147.8078682236702
 21
241.1176832775781
  0
LINE
  5
36
100
AcDbEntity
  8
1
  6
PHANTOM
 62
             2
100
AcDbLine
 10
-110.30786822367
 20
206.1738915421667
 11
-110.3078682236669
 21
239.26547978798399
  0
LINE
  5
35
100
AcDbEntity
  8
1
  6
CONTINUOUS
 62
             7
100
AcDbLine
 10
-116.8078682236696
 20
210.2403904459421
 11
-116.8078682236699
 21
207.24039044594281
  0
LINE
  5
34
100
AcDbEntity
  8
0
  6
CONTINUOUS
 62
             7
100
AcDbLine
 10
-116.8078682236696
 20
210.2403904459421
 11
-103.8078682236696
 21
210.24039044594201
  0
LINE
  5
33
100
AcDbEntity
  8
1
  6
CONTINUOUS
 62
             7
100
AcDbLine
 10
-116.3078682236699
 20
206.74039044594269
 11
-104.3078682236699
 21
206.74039044594269
  0
LINE
  5
32
100
AcDbEntity
  8
1
  6
CONTINUOUS
 62
             7
100
AcDbLine
 10
-103.8078682236699
 20
207.24039044594261
 11
-103.8078682236696
 21
210.24039044594201
  0
LINE
  5
31
100
AcDbEntity
  8
0
  6
CONTINUOUS
 62
             7
100
AcDbLine
 10
-103.8078682236696
 20
210.24039044594201
 11
-72.05786822366932
 21
210.24039044594181
  0
POINT
  5
30
100
AcDbEntity
  8
1
 62
             3
 60
             1
100
AcDbPoint
 10
-116.8078682236696
 20
210.2403904459421
  0
POINT
  5
2F
100
AcDbEntity
  8
1
 62
             3
 60
             1
100
AcDbPoint
 10
-103.8078682236696
 20
210.24039044594201
  0
ENDBLK
  5
4C
100
AcDbEntity
  8
0
100
AcDbBlockEnd
  0
BLOCK
  5
2A
100
AcDbEntity
  8
0
100
AcDbBlockBegin
  2
VENTILSTOPFEN
 70
             0
 10
-298.05034064706251
 20
-69.55375155047886
 30
0.0
  3
VENTILSTOPFEN
  1

  0
XLINE
  5
D7
100
AcDbEntity
  8
1
  6
DOT_CENTER
 62
             3
 60
             1
100
AcDbXline
 10
3.00000000000057
 20
193.74039044594269
 30
0.0
 11
-1.0
 21
0.0
 31
0.0
  0
XLINE
  5
D6
100
AcDbEntity
  8
1
  6
DOT_CENTER
 62
             3
 60
             1
100
AcDbXline
 10
21.50000000000057
 20
224.74039044594269
 30
0.0
 11
0.0
 21
1.0
 31
0.0
  0
XLINE
  5
D5
100
AcDbEntity
  8
1
  6
DOT_CENTER
 62
             3
 60
             1
100
AcDbXline
 10
-21.49999999999943
 20
224.74039044594269
 30
0.0
 11
0.0
 21
1.0
 31
0.0
  0
XLINE
  5
D4
100
AcDbEntity
  8
1
  6
DOT_CENTER
 62
             3
 60
             1
100
AcDbXline
 10
20.00000000000057
 20
220.74039044594269
 30
0.0
 11
0.0
 21
1.0
 31
0.0
  0
XLINE
  5
D3
100
AcDbEntity
  8
1
  6
DOT_CENTER
 62
             3
 60
             1
100
AcDbXline
 10
-19.99999999999943
 20
220.74039044594269
 30
0.0
 11
0.0
 21
1.0
 31
0.0
  0
ARC
  5
D2
100
AcDbEntity
  8
0
  6
CONTINUOUS
 62
             7
100
AcDbCircle
 10
34.53760800000049
 20
230.94664403201
 40
0.24847199999279
100
AcDbArc
 50
-85.91199999994244
 51
0.0
  0
ARC
  5
D1
100
AcDbEntity
  8
0
  6
CONTINUOUS
 62
             7
100
AcDbCircle
 10
34.53760800000049
 20
231.64335952000991
 40
0.24847200000002
100
AcDbArc
 50
0.0
 51
90.00000000023103
  0
ARC
  5
D0
100
AcDbEntity
  8
0
  6
CONTINUOUS
 62
             7
100
AcDbCircle
 10
-34.5376080000005
 20
231.64335952000991
 40
0.24847199999999
100
AcDbArc
 50
90.0
 51
180.0
  0
ARC
  5
CF
100
AcDbEntity
  8
0
  6
CONTINUOUS
 62
             7
100
AcDbCircle
 10
-34.5376080000005
 20
230.94664403201
 40
0.248472
100
AcDbArc
 50
180.0
 51
-94.08800000005431
  0
ARC
  5
CE
100
AcDbEntity
  8
0
  6
CONTINUOUS
 62
             7
100
AcDbCircle
 10
-0.12423600000849
 20
22.4326386484799
 40
212.30778814700534
100
AcDbArc
 50
80.60370097882061
 51
99.3962990211747
  0
LINE
  5
CD
100
AcDbEntity
  8
1
  6
CONTINUOUS
 62
             2
100
AcDbLine
 10
-2.19999999999943
 20
193.74039044594269
 11
-2.19999999999943
 21
196.74039044594269
  0
LINE
  5
CC
100
AcDbEntity
  8
1
  6
CONTINUOUS
 62
             2
100
AcDbLine
 10
2.20000000000057
 20
196.74039044594269
 11
2.20000000000057
 21
193.74039044594269
  0
LINE
  5
CB
100
AcDbEntity
  8
1
  6
CONTINUOUS
 62
             2
100
AcDbLine
 10
2.20000000000057
 20
189.74039044594269
 11
2.20000000000057
 21
187.74039044594269
  0
LINE
  5
CA
100
AcDbEntity
  8
1
  6
CONTINUOUS
 62
             2
100
AcDbLine
 10
-2.19999999999943
 20
189.74039044594269
 11
-2.19999999999943
 21
187.74039044594269
  0
LINE
  5
C9
100
AcDbEntity
  8
1
  6
CONTINUOUS
 62
             7
100
AcDbLine
 10
3.00000000000057
 20
193.74039044594269
 11
4.00000000000057
 21
193.74039044594269
  0
LINE
  5
C8
100
AcDbEntity
  8
1
  6
CONTINUOUS
 62
             7
100
AcDbLine
 10
3.00000000000057
 20
196.74039044594269
 11
4.00000000000057
 21
196.74039044594269
  0
LINE
  5
C7
100
AcDbEntity
  8
1
  6
CONTINUOUS
 62
             7
100
AcDbLine
 10
3.00000000000057
 20
196.74039044594269
 11
3.00000000000057
 21
193.74039044594269
  0
LINE
  5
C6
100
AcDbEntity
  8
1
  6
CONTINUOUS
 62
             7
100
AcDbLine
 10
-2.99999999999943
 20
193.74039044594269
 11
0.00000000000057
 21
193.74039044594269
  0
LINE
  5
C5
100
AcDbEntity
  8
1
  6
CONTINUOUS
 62
             7
100
AcDbLine
 10
-2.99999999999943
 20
196.74039044594269
 11
3.00000000000057
 21
196.74039044594269
  0
LINE
  5
C4
100
AcDbEntity
  8
1
  6
CONTINUOUS
 62
             7
100
AcDbLine
 10
-2.99999999999943
 20
193.74039044594269
 11
-2.99999999999943
 21
196.74039044594269
  0
LINE
  5
C3
100
AcDbEntity
  8
1
  6
CONTINUOUS
 62
             7
100
AcDbLine
 10
3.00000000000057
 20
187.74039044594269
 11
4.00000000000057
 21
187.74039044594269
  0
LINE
  5
C2
100
AcDbEntity
  8
1
  6
CONTINUOUS
 62
             7
100
AcDbLine
 10
3.00000000000057
 20
189.74039044594269
 11
4.00000000000057
 21
189.74039044594269
  0
LINE
  5
C1
100
AcDbEntity
  8
1
  6
CONTINUOUS
 62
             7
100
AcDbLine
 10
3.00000000000057
 20
189.74039044594269
 11
3.00000000000057
 21
187.74039044594269
  0
LINE
  5
C0
100
AcDbEntity
  8
1
  6
CONTINUOUS
 62
             7
100
AcDbLine
 10
-2.99999999999943
 20
187.74039044594269
 11
3.00000000000057
 21
187.74039044594269
  0
LINE
  5
BF
100
AcDbEntity
  8
1
  6
CONTINUOUS
 62
             7
100
AcDbLine
 10
-2.99999999999943
 20
189.74039044594269
 11
3.00000000000057
 21
189.74039044594269
  0
LINE
  5
BE
100
AcDbEntity
  8
1
  6
CONTINUOUS
 62
             7
100
AcDbLine
 10
-2.99999999999943
 20
189.74039044594269
 11
-2.99999999999943
 21
187.74039044594269
  0
LINE
  5
BD
100
AcDbEntity
  8
1
  6
CONTINUOUS
 62
             7
100
AcDbLine
 10
-3.99999999999943
 20
187.74039044594269
 11
-3.99999999999943
 21
182.74039044594269
  0
LINE
  5
BC
100
AcDbEntity
  8
1
  6
CONTINUOUS
 62
             7
100
AcDbLine
 10
-3.99999999999943
 20
187.74039044594269
 11
-2.99999999999943
 21
187.74039044594269
  0
LINE
  5
BB
100
AcDbEntity
  8
1
  6
CONTINUOUS
 62
             7
100
AcDbLine
 10
4.00000000000057
 20
189.74039044594269
 11
4.00000000000057
 21
193.74039044594269
  0
LINE
  5
BA
100
AcDbEntity
  8
1
  6
CONTINUOUS
 62
             7
100
AcDbLine
 10
-3.99999999999943
 20
189.74039044594269
 11
-2.99999999999943
 21
189.74039044594269
  0
LINE
  5
B9
100
AcDbEntity
  8
1
  6
CONTINUOUS
 62
             7
100
AcDbLine
 10
-3.99999999999943
 20
193.74039044594269
 11
-3.99999999999943
 21
189.74039044594269
  0
LINE
  5
B8
100
AcDbEntity
  8
1
  6
CONTINUOUS
 62
             7
100
AcDbLine
 10
-3.99999999999943
 20
193.74039044594269
 11
-2.99999999999943
 21
193.74039044594269
  0
LINE
  5
B7
100
AcDbEntity
  8
1
  6
CONTINUOUS
 62
             7
100
AcDbLine
 10
4.00000000000057
 20
196.74039044594269
 11
4.00000000000057
 21
220.74039044594269
  0
LINE
  5
B6
100
AcDbEntity
  8
1
  6
CONTINUOUS
 62
             7
100
AcDbLine
 10
-3.99999999999943
 20
196.74039044594269
 11
-2.99999999999943
 21
196.74039044594269
  0
LINE
  5
B5
100
AcDbEntity
  8
1
  6
CONTINUOUS
 62
             7
100
AcDbLine
 10
4.00000000000057
 20
220.74039044594269
 11
20.00000000000057
 21
220.74039044594269
  0
LINE
  5
B4
100
AcDbEntity
  8
1
  6
CONTINUOUS
 62
             7
100
AcDbLine
 10
4.00000000000057
 20
182.74039044594269
 11
4.00000000000057
 21
187.74039044594269
  0
LINE
  5
B3
100
AcDbEntity
  8
1
  6
CONTINUOUS
 62
             7
100
AcDbLine
 10
-3.99999999999943
 20
182.74039044594269
 11
-0.74999999999943
 21
182.74039044594269
  0
LINE
  5
B2
100
AcDbEntity
  8
1
  6
CONTINUOUS
 62
             7
100
AcDbLine
 10
-3.99999999999943
 20
220.74039044594269
 11
4.00000000000057
 21
220.74039044594269
  0
LINE
  5
B1
100
AcDbEntity
  8
1
  6
CONTINUOUS
 62
             7
100
AcDbLine
 10
-3.99999999999943
 20
220.74039044594269
 11
-3.99999999999943
 21
196.74039044594269
  0
LINE
  5
B0
100
AcDbEntity
  8
1
  6
CONTINUOUS
 62
             7
100
AcDbLine
 10
21.50000000000057
 20
224.14231423458941
 11
21.50000000000057
 21
224.33846665729601
  0
LINE
  5
AF
100
AcDbEntity
  8
1
  6
CONTINUOUS
 62
             7
100
AcDbLine
 10
21.50000000000057
 20
224.14231423458941
 11
20.00000000000057
 21
223.74039044594269
  0
LINE
  5
AE
100
AcDbEntity
  8
1
  6
CONTINUOUS
 62
             7
100
AcDbLine
 10
21.50000000000057
 20
224.33846665729601
 11
20.00000000000057
 21
224.74039044594269
  0
LINE
  5
AD
100
AcDbEntity
  8
1
  6
CONTINUOUS
 62
             7
100
AcDbLine
 10
-19.99999999999943
 20
223.74039044594269
 11
-21.49999999999943
 21
224.14231423458941
  0
LINE
  5
AC
100
AcDbEntity
  8
1
  6
CONTINUOUS
 62
             7
100
AcDbLine
 10
-21.49999999999943
 20
224.33846665729601
 11
-21.49999999999943
 21
224.14231423458941
  0
LINE
  5
AB
100
AcDbEntity
  8
1
  6
CONTINUOUS
 62
             7
100
AcDbLine
 10
-19.99999999999943
 20
224.74039044594269
 11
-21.49999999999943
 21
224.33846665729601
  0
LINE
  5
AA
100
AcDbEntity
  8
1
  6
CONTINUOUS
 62
             7
100
AcDbLine
 10
-19.99999999999943
 20
224.74039044594269
 11
20.00000000000057
 21
224.74039044594269
  0
LINE
  5
A9
100
AcDbEntity
  8
1
  6
CONTINUOUS
 62
             7
100
AcDbLine
 10
-19.99999999999943
 20
224.74039044594269
 11
-19.99999999999943
 21
225.74039044594269
  0
LINE
  5
A8
100
AcDbEntity
  8
1
  6
CONTINUOUS
 62
             7
100
AcDbLine
 10
-19.99999999999943
 20
223.74039044594269
 11
20.00000000000057
 21
223.74039044594269
  0
LINE
  5
A7
100
AcDbEntity
  8
1
  6
CONTINUOUS
 62
             7
100
AcDbLine
 10
-19.99999999999943
 20
222.74039044594269
 11
-19.99999999999943
 21
223.74039044594269
  0
LINE
  5
A6
100
AcDbEntity
  8
1
  6
CONTINUOUS
 62
             7
100
AcDbLine
 10
20.00000000000057
 20
224.74039044594269
 11
20.00000000000057
 21
225.74039044594269
  0
LINE
  5
A5
100
AcDbEntity
  8
1
  6
CONTINUOUS
 62
             7
100
AcDbLine
 10
20.00000000000057
 20
222.74039044594269
 11
20.00000000000057
 21
223.74039044594269
  0
LINE
  5
A4
100
AcDbEntity
  8
1
  6
CONTINUOUS
 62
             7
100
AcDbLine
 10
20.00000000000057
 20
225.74039044594269
 11
20.00000000000057
 21
229.74039044594269
  0
LINE
  5
A3
100
AcDbEntity
  8
1
  6
CONTINUOUS
 62
             7
100
AcDbLine
 10
-19.99999999999943
 20
225.74039044594269
 11
20.00000000000057
 21
225.74039044594269
  0
LINE
  5
A2
100
AcDbEntity
  8
1
  6
CONTINUOUS
 62
             7
100
AcDbLine
 10
-19.99999999999943
 20
222.74039044594269
 11
-19.99999999999943
 21
220.74039044594269
  0
LINE
  5
A1
100
AcDbEntity
  8
1
  6
CONTINUOUS
 62
             7
100
AcDbLine
 10
-19.99999999999943
 20
222.74039044594269
 11
20.00000000000057
 21
222.74039044594269
  0
LINE
  5
A0
100
AcDbEntity
  8
1
  6
PHANTOM
 62
             2
100
AcDbLine
 10
0.00000000000057
 20
237.39348362507499
 11
0.00000000000057
 21
181.23875453125399
  0
LINE
  5
9F
100
AcDbEntity
  8
1
  6
CONTINUOUS
 62
             7
100
AcDbLine
 10
-19.99999999999943
 20
229.74039044594269
 11
20.00000000000057
 21
229.74039044594269
  0
LINE
  5
9E
100
AcDbEntity
  8
1
  6
CONTINUOUS
 62
             7
100
AcDbLine
 10
20.00000000000057
 20
229.74039044594269
 11
21.13264134708444
 21
229.74039044594269
  0
LINE
  5
9D
100
AcDbEntity
  8
1
  6
CONTINUOUS
 62
             7
100
AcDbLine
 10
20.00000000000057
 20
220.74039044594269
 11
20.00000000000057
 21
222.74039044594269
  0
LINE
  5
9C
100
AcDbEntity
  8
1
  6
CONTINUOUS
 62
             7
100
AcDbLine
 10
-19.99999999999943
 20
220.74039044594269
 11
-3.99999999999943
 21
220.74039044594269
  0
LINE
  5
9B
100
AcDbEntity
  8
1
  6
CONTINUOUS
 62
             7
100
AcDbLine
 10
-19.99999999999943
 20
229.74039044594269
 11
-19.99999999999943
 21
225.74039044594269
  0
LINE
  5
9A
100
AcDbEntity
  8
1
  6
CONTINUOUS
 62
             7
100
AcDbLine
 10
-21.13264134708327
 20
229.74039044594269
 11
-19.99999999999943
 21
229.74039044594269
  0
LINE
  5
99
100
AcDbEntity
  8
VERDE
  6
CONTINUOUS
 62
             3
100
AcDbLine
 10
-36.0
 20
238.8818749684699
 11
-36.0
 21
235.8818749684699
  0
LINE
  5
98
100
AcDbEntity
  8
0
  6
CONTINUOUS
 62
             7
100
AcDbLine
 10
21.13264134708444
 20
229.74039044594269
 11
34.55549798400051
 21
230.69916592002011
  0
LINE
  5
97
100
AcDbEntity
  8
0
  6
CONTINUOUS
 62
             7
100
AcDbLine
 10
34.78608000000051
 20
231.64335952000991
 11
34.78608000000051
 21
230.94664403201
  0
LINE
  5
96
100
AcDbEntity
  8
0
  6
CONTINUOUS
 62
             7
100
AcDbLine
 10
-21.13264134708327
 20
229.74039044594269
 11
-34.5554979840005
 21
230.69916592002011
  0
LINE
  5
95
100
AcDbEntity
  8
0
  6
CONTINUOUS
 62
             7
100
AcDbLine
 10
-34.7860799999995
 20
231.64335952000991
 11
-34.7860800000005
 21
230.94664403201
  0
LINE
  5
94
100
AcDbEntity
  8
VERDE
  6
CONTINUOUS
 62
             3
100
AcDbLine
 10
-34.5376080000005
 20
231.8918315200099
 11
34.53760799999949
 21
231.8918315200099
  0
LINE
  5
93
100
AcDbEntity
  8
VERDE
  6
CONTINUOUS
 62
             3
100
AcDbLine
 10
-34.63018374564351
 20
230.71606201601
 11
34.63018374564351
 21
230.71606201601
  0
LINE
  5
92
100
AcDbEntity
  8
VERDE
  6
CONTINUOUS
 62
             3
100
AcDbLine
 10
36.0
 20
235.8818749684699
 11
36.0
 21
238.8818749684699
  0
LINE
  5
91
100
AcDbEntity
  8
1
  6
CONTINUOUS
 62
             7
100
AcDbLine
 10
-3.99999999999943
 20
189.74039044594269
 11
0.00000000000057
 21
193.74039044594269
  0
LINE
  5
90
100
AcDbEntity
  8
1
  6
CONTINUOUS
 62
             7
100
AcDbLine
 10
0.00000000000057
 20
193.74039044594269
 11
3.00000000000057
 21
193.74039044594269
  0
LINE
  5
8F
100
AcDbEntity
  8
1
  6
CONTINUOUS
 62
             7
100
AcDbLine
 10
-2.99999999999943
 20
189.74039044594269
 11
1.00000000000057
 21
193.74039044594269
  0
LINE
  5
8E
100
AcDbEntity
  8
1
  6
CONTINUOUS
 62
             7
100
AcDbLine
 10
-1.99999999999943
 20
189.74039044594269
 11
2.00000000000057
 21
193.74039044594269
  0
LINE
  5
8D
100
AcDbEntity
  8
1
  6
CONTINUOUS
 62
             7
100
AcDbLine
 10
-0.99999999999943
 20
189.74039044594269
 11
3.00000000000057
 21
193.74039044594269
  0
LINE
  5
8C
100
AcDbEntity
  8
1
  6
CONTINUOUS
 62
             7
100
AcDbLine
 10
0.00000000000057
 20
189.74039044594269
 11
4.00000000000057
 21
193.74039044594269
  0
LINE
  5
8B
100
AcDbEntity
  8
1
  6
CONTINUOUS
 62
             7
100
AcDbLine
 10
1.00000000000057
 20
189.74039044594269
 11
4.00000000000057
 21
192.74039044594269
  0
LINE
  5
8A
100
AcDbEntity
  8
1
  6
CONTINUOUS
 62
             7
100
AcDbLine
 10
2.00000000000057
 20
189.74039044594269
 11
4.00000000000057
 21
191.74039044594269
  0
LINE
  5
89
100
AcDbEntity
  8
1
  6
CONTINUOUS
 62
             7
100
AcDbLine
 10
3.00000000000057
 20
189.74039044594269
 11
4.00000000000057
 21
190.74039044594269
  0
LINE
  5
88
100
AcDbEntity
  8
1
  6
CONTINUOUS
 62
             7
100
AcDbLine
 10
-3.99999999999943
 20
190.74039044594269
 11
-0.99999999999943
 21
193.74039044594269
  0
LINE
  5
87
100
AcDbEntity
  8
1
  6
CONTINUOUS
 62
             7
100
AcDbLine
 10
-3.99999999999943
 20
191.74039044594269
 11
-1.99999999999943
 21
193.74039044594269
  0
LINE
  5
86
100
AcDbEntity
  8
1
  6
CONTINUOUS
 62
             7
100
AcDbLine
 10
-3.99999999999943
 20
192.74039044594269
 11
-2.99999999999943
 21
193.74039044594269
  0
LINE
  5
85
100
AcDbEntity
  8
1
  6
CONTINUOUS
 62
             7
100
AcDbLine
 10
-3.99999999999943
 20
193.74039044594269
 11
0.00000000000057
 21
189.74039044594269
  0
LINE
  5
84
100
AcDbEntity
  8
1
  6
CONTINUOUS
 62
             7
100
AcDbLine
 10
-2.99999999999943
 20
193.74039044594269
 11
1.00000000000057
 21
189.74039044594269
  0
LINE
  5
83
100
AcDbEntity
  8
1
  6
CONTINUOUS
 62
             7
100
AcDbLine
 10
-1.99999999999943
 20
193.74039044594269
 11
2.00000000000057
 21
189.74039044594269
  0
LINE
  5
82
100
AcDbEntity
  8
1
  6
CONTINUOUS
 62
             7
100
AcDbLine
 10
-0.99999999999943
 20
193.74039044594269
 11
3.00000000000057
 21
189.74039044594269
  0
LINE
  5
81
100
AcDbEntity
  8
1
  6
CONTINUOUS
 62
             7
100
AcDbLine
 10
0.00000000000057
 20
193.74039044594269
 11
4.00000000000057
 21
189.74039044594269
  0
LINE
  5
80
100
AcDbEntity
  8
1
  6
CONTINUOUS
 62
             7
100
AcDbLine
 10
1.00000000000057
 20
193.74039044594269
 11
4.00000000000057
 21
190.74039044594269
  0
LINE
  5
7F
100
AcDbEntity
  8
1
  6
CONTINUOUS
 62
             7
100
AcDbLine
 10
2.00000000000057
 20
193.74039044594269
 11
4.00000000000057
 21
191.74039044594269
  0
LINE
  5
7E
100
AcDbEntity
  8
1
  6
CONTINUOUS
 62
             7
100
AcDbLine
 10
3.00000000000057
 20
193.74039044594269
 11
4.00000000000057
 21
192.74039044594269
  0
LINE
  5
7D
100
AcDbEntity
  8
1
  6
CONTINUOUS
 62
             7
100
AcDbLine
 10
-3.99999999999943
 20
192.74039044594269
 11
-0.99999999999943
 21
189.74039044594269
  0
LINE
  5
7C
100
AcDbEntity
  8
1
  6
CONTINUOUS
 62
             7
100
AcDbLine
 10
-3.99999999999943
 20
191.74039044594269
 11
-1.99999999999943
 21
189.74039044594269
  0
LINE
  5
7B
100
AcDbEntity
  8
1
  6
CONTINUOUS
 62
             7
100
AcDbLine
 10
-3.99999999999943
 20
190.74039044594269
 11
-2.99999999999943
 21
189.74039044594269
  0
LINE
  5
7A
100
AcDbEntity
  8
1
  6
CONTINUOUS
 62
             7
100
AcDbLine
 10
-0.74999999999943
 20
182.74039044594269
 11
-0.74999999999943
 21
184.74039044594269
  0
LINE
  5
79
100
AcDbEntity
  8
1
  6
CONTINUOUS
 62
             7
100
AcDbLine
 10
-0.74999999999943
 20
184.74039044594269
 11
0.75000000000057
 21
184.74039044594269
  0
LINE
  5
78
100
AcDbEntity
  8
1
  6
CONTINUOUS
 62
             7
100
AcDbLine
 10
0.75000000000057
 20
184.74039044594269
 11
0.75000000000057
 21
182.74039044594269
  0
LINE
  5
77
100
AcDbEntity
  8
1
  6
CONTINUOUS
 62
             7
100
AcDbLine
 10
0.75000000000057
 20
182.74039044594269
 11
4.00000000000057
 21
182.74039044594269
  0
POINT
  5
76
100
AcDbEntity
  8
1
 62
             3
 60
             1
100
AcDbPoint
 10
2.20000000000057
 20
193.74039044594269
  0
POINT
  5
75
100
AcDbEntity
  8
1
 62
             3
 60
             1
100
AcDbPoint
 10
3.00000000000057
 20
193.74039044594269
  0
POINT
  5
74
100
AcDbEntity
  8
1
 62
             3
 60
             1
100
AcDbPoint
 10
3.00000000000057
 20
196.74039044594269
  0
POINT
  5
73
100
AcDbEntity
  8
1
 62
             3
 60
             1
100
AcDbPoint
 10
-2.99999999999943
 20
196.74039044594269
  0
POINT
  5
72
100
AcDbEntity
  8
1
 62
             3
 60
             1
100
AcDbPoint
 10
-2.99999999999943
 20
193.74039044594269
  0
POINT
  5
71
100
AcDbEntity
  8
1
 62
             3
 60
             1
100
AcDbPoint
 10
3.00000000000057
 20
187.74039044594269
  0
POINT
  5
70
100
AcDbEntity
  8
1
 62
             3
 60
             1
100
AcDbPoint
 10
3.00000000000057
 20
189.74039044594269
  0
POINT
  5
6F
100
AcDbEntity
  8
1
 62
             3
 60
             1
100
AcDbPoint
 10
-2.99999999999943
 20
187.74039044594269
  0
POINT
  5
6E
100
AcDbEntity
  8
1
 62
             3
 60
             1
100
AcDbPoint
 10
-2.99999999999943
 20
189.74039044594269
  0
POINT
  5
6D
100
AcDbEntity
  8
1
 62
             3
 60
             1
100
AcDbPoint
 10
4.00000000000057
 20
187.74039044594269
  0
POINT
  5
6C
100
AcDbEntity
  8
1
 62
             3
 60
             1
100
AcDbPoint
 10
-3.99999999999943
 20
187.74039044594269
  0
POINT
  5
6B
100
AcDbEntity
  8
1
 62
             3
 60
             1
100
AcDbPoint
 10
4.00000000000057
 20
189.74039044594269
  0
POINT
  5
6A
100
AcDbEntity
  8
1
 62
             3
 60
             1
100
AcDbPoint
 10
-3.99999999999943
 20
189.74039044594269
  0
POINT
  5
69
100
AcDbEntity
  8
1
 62
             3
 60
             1
100
AcDbPoint
 10
4.00000000000057
 20
193.74039044594269
  0
POINT
  5
68
100
AcDbEntity
  8
1
 62
             3
 60
             1
100
AcDbPoint
 10
-3.99999999999943
 20
193.74039044594269
  0
POINT
  5
67
100
AcDbEntity
  8
1
 62
             3
 60
             1
100
AcDbPoint
 10
4.00000000000057
 20
196.74039044594269
  0
POINT
  5
66
100
AcDbEntity
  8
1
 62
             3
 60
             1
100
AcDbPoint
 10
-3.99999999999943
 20
196.74039044594269
  0
POINT
  5
65
100
AcDbEntity
  8
1
 62
             3
 60
             1
100
AcDbPoint
 10
4.00000000000057
 20
220.74039044594269
  0
POINT
  5
64
100
AcDbEntity
  8
1
 62
             3
 60
             1
100
AcDbPoint
 10
4.00000000000057
 20
182.74039044594269
  0
POINT
  5
63
100
AcDbEntity
  8
1
 62
             3
 60
             1
100
AcDbPoint
 10
-3.99999999999943
 20
182.74039044594269
  0
POINT
  5
62
100
AcDbEntity
  8
1
 62
             3
 60
             1
100
AcDbPoint
 10
20.00000000000057
 20
223.74039044594269
  0
POINT
  5
61
100
AcDbEntity
  8
1
 62
             3
 60
             1
100
AcDbPoint
 10
20.00000000000057
 20
224.74039044594269
  0
POINT
  5
60
100
AcDbEntity
  8
1
 62
             3
 60
             1
100
AcDbPoint
 10
-21.49999999999943
 20
224.33846665729601
  0
POINT
  5
5F
100
AcDbEntity
  8
1
 62
             3
 60
             1
100
AcDbPoint
 10
-19.99999999999943
 20
224.74039044594269
  0
POINT
  5
5E
100
AcDbEntity
  8
1
 62
             3
 60
             1
100
AcDbPoint
 10
-19.99999999999943
 20
223.74039044594269
  0
POINT
  5
5D
100
AcDbEntity
  8
1
 62
             3
 60
             1
100
AcDbPoint
 10
20.00000000000057
 20
224.74039044594269
  0
POINT
  5
5C
100
AcDbEntity
  8
1
 62
             3
 60
             1
100
AcDbPoint
 10
20.00000000000057
 20
223.74039044594269
  0
POINT
  5
5B
100
AcDbEntity
  8
1
 62
             3
 60
             1
100
AcDbPoint
 10
21.50000000000057
 20
224.74039044594269
  0
POINT
  5
5A
100
AcDbEntity
  8
1
 62
             3
 60
             1
100
AcDbPoint
 10
-21.49999999999943
 20
224.74039044594269
  0
POINT
  5
59
100
AcDbEntity
  8
1
 62
             3
 60
             1
100
AcDbPoint
 10
20.00000000000057
 20
225.74039044594269
  0
POINT
  5
58
100
AcDbEntity
  8
1
 62
             3
 60
             1
100
AcDbPoint
 10
-19.99999999999943
 20
225.74039044594269
  0
POINT
  5
57
100
AcDbEntity
  8
1
 62
             3
 60
             1
100
AcDbPoint
 10
20.00000000000057
 20
222.74039044594269
  0
POINT
  5
56
100
AcDbEntity
  8
1
 62
             3
 60
             1
100
AcDbPoint
 10
-19.99999999999943
 20
222.74039044594269
  0
POINT
  5
55
100
AcDbEntity
  8
1
 62
             3
 60
             1
100
AcDbPoint
 10
20.00000000000057
 20
229.74039044594269
  0
POINT
  5
54
100
AcDbEntity
  8
1
 62
             3
 60
             1
100
AcDbPoint
 10
20.00000000000057
 20
220.74039044594269
  0
POINT
  5
53
100
AcDbEntity
  8
1
 62
             3
 60
             1
100
AcDbPoint
 10
-19.99999999999943
 20
220.74039044594269
  0
POINT
  5
52
100
AcDbEntity
  8
1
 62
             3
 60
             1
100
AcDbPoint
 10
-19.99999999999943
 20
229.74039044594269
  0
POINT
  5
51
100
AcDbEntity
  8
1
 62
             3
 60
             1
100
AcDbPoint
 10
0.00000000000057
 20
193.74039044594269
  0
POINT
  5
50
100
AcDbEntity
  8
1
 62
             3
 60
             1
100
AcDbPoint
 10
-0.74999999999943
 20
182.74039044594269
  0
POINT
  5
4F
100
AcDbEntity
  8
1
 62
             3
 60
             1
100
AcDbPoint
 10
-0.74999999999943
 20
184.74039044594269
  0
POINT
  5
4E
100
AcDbEntity
  8
1
 62
             3
 60
             1
100
AcDbPoint
 10
0.75000000000057
 20
184.74039044594269
  0
POINT
  5
4D
100
AcDbEntity
  8
1
 62
             3
 60
             1
100
AcDbPoint
 10
0.75000000000057
 20
182.74039044594269
  0
ENDBLK
  5
D8
100
AcDbEntity
  8
0
100
AcDbBlockEnd
  0
BLOCK
  5
DB
100
AcDbEntity
  8
0
100
AcDbBlockBegin
  2
*D2
 70
             1
 10
0.0
 20
0.0
 30
0.0
  3
*D2
  1

  0
LINE
  5
DC
100
AcDbEntity
  8
0
  6
CONTINUOUS
 62
             4
100
AcDbLine
 10
-147.80786822367017
 20
251.11768327757812
 11
-72.80786822367207
 21
251.11768327757812
  0
LINE
  5
DD
100
AcDbEntity
  8
0
  6
CONTINUOUS
 62
             4
100
AcDbLine
 10
-72.80786822367207
 20
241.11768327757665
 11
-72.80786822367207
 21
253.11768327757812
  0
LINE
  5
DE
100
AcDbEntity
  8
0
  6
CONTINUOUS
 62
             4
100
AcDbLine
 10
-147.80786822367017
 20
241.11768327757812
 11
-147.80786822367017
 21
253.11768327757812
  0
SOLID
  5
DF
100
AcDbEntity
  8
0
 62
             4
100
AcDbTrace
 10
-79.80786822367207
 20
250.19611579446635
 11
-79.80786822367207
 21
252.0392507606899
 12
-72.80786822367207
 22
251.11768327757812
 13
-72.80786822367207
 23
251.11768327757812
  0
SOLID
  5
E0
100
AcDbEntity
  8
0
 62
             4
100
AcDbTrace
 10
-140.80786822367017
 20
252.0392507606899
 11
-140.80786822367017
 21
250.19611579446635
 12
-147.80786822367017
 22
251.11768327757812
 13
-147.80786822367017
 23
251.11768327757812
  0
MTEXT
  5
E2
100
AcDbEntity
  8
0
 62
             1
100
AcDbMText
 10
-116.02907641257114
 20
253.11766936342548
 30
0.0
 40
7.0
 41
0.0
 71
             7
 72
             1
  1
\C1;Ø\C1;75
  7
CONVERTER_1
 11
0.99999999999706
 21
0.00000242406841
 31
0.0
  0
ENDBLK
  5
E3
100
AcDbEntity
  8
0
100
AcDbBlockEnd
  0
BLOCK
  5
E7
100
AcDbEntity
  8
0
100
AcDbBlockBegin
  2
*D3
 70
             1
 10
0.0
 20
0.0
 30
0.0
  3
*D3
  1

  0
LINE
  5
E8
100
AcDbEntity
  8
0
  6
CONTINUOUS
 62
             4
100
AcDbLine
 10
-36.0
 20
248.8818749684699
 11
36.0
 21
248.8818749684699
  0
LINE
  5
E9
100
AcDbEntity
  8
0
  6
CONTINUOUS
 62
             4
100
AcDbLine
 10
36.0
 20
238.8818749684699
 11
36.0
 21
250.8818749684699
  0
LINE
  5
EA
100
AcDbEntity
  8
0
  6
CONTINUOUS
 62
             4
100
AcDbLine
 10
-36.0
 20
238.8818749684699
 11
-36.0
 21
250.8818749684699
  0
SOLID
  5
EB
100
AcDbEntity
  8
0
 62
             4
100
AcDbTrace
 10
29.0
 20
247.96030748535813
 11
29.0
 21
249.80344245158167
 12
36.0
 22
248.8818749684699
 13
36.0
 23
248.8818749684699
  0
SOLID
  5
EC
100
AcDbEntity
  8
0
 62
             4
100
AcDbTrace
 10
-29.0
 20
249.80344245158167
 11
-29.0
 21
247.96030748535813
 12
-36.0
 22
248.8818749684699
 13
-36.0
 23
248.8818749684699
  0
MTEXT
  5
ED
100
AcDbEntity
  8
0
 62
             1
100
AcDbMText
 10
-6.43901649734091
 20
250.88186105431726
 30
0.0
 40
7.0
 41
0.0
 71
             7
 72
             1
  1
\C1;Ø\C1;72
  7
CONVERTER_1
 11
0.99999999999706
 21
0.00000242406841
 31
0.0
  0
ENDBLK
  5
EE
100
AcDbEntity
  8
0
100
AcDbBlockEnd
  0
ENDSEC
  0
SECTION
  2
ENTITIES
  0
DIMENSION
  5
F0
100
AcDbEntity
  8
1
100
AcDbDimension
  2
*D3
 10
36.0
 20
248.8818749684699
 11
0.35098350264222
 21
254.3818749684699
 31
0.0
 53
180.0
  1
<>
  3
ME10_DIM_1
100
AcDbAlignedDimension
 13
-36.0
 23
238.8818749684699
 14
36.0
 24
238.8818749684699
 50
180.0
100
AcDbRotatedDimension
  0
DIMENSION
  5
E5
100
AcDbEntity
  8
1
100
AcDbDimension
  2
*D2
 10
-72.80786822367207
 20
251.11768327757812
 11
-109.23907641258801
 21
256.61768327757812
 31
0.0
 53
179.99999999999466
  1
<>
  3
ME10_DIM_0
100
AcDbAlignedDimension
 13
-147.8078682236702
 23
241.1176832775781
 14
-72.80786822367207
 24
241.11768327757659
 50
179.99999999999466
100
AcDbRotatedDimension
  0
INSERT
  5
2D
100
AcDbEntity
  8
1
100
AcDbBlockReference
  2
DREHGRIFF_ZU_HL555N
 10
-288.00184528758467
 20
21.59141286513841
  0
INSERT
  5
2E
100
AcDbEntity
  8
1
100
AcDbBlockReference
  2
VENTILSTOPFEN
 10
-298.05034064706251
 20
-69.55375155047886
  0
ENDSEC
  0
SECTION
  2
OBJECTS
  0
DICTIONARY
  5
19
100
AcDbDictionary
  3
ACAD_GROUP
350
1A
  3
ACAD_MLINESTYLE
350
1B
  0
DICTIONARY
  5
1A
102
{ACAD_REACTORS
330
19
102
}
100
AcDbDictionary
  0
DICTIONARY
  5
1B
102
{ACAD_REACTORS
330
19
102
}
100
AcDbDictionary
  3
STANDARD
350
1C
  0
MLINESTYLE
  5
1C
102
{ACAD_REACTORS
330
1B
102
}
100
AcDbMlineStyle
  2
STANDARD
 70
             0
  3

 62
             0
 51
90.0
 52
90.0
 71
             2
 49
0.5
 62
           256
  6
BYLAYER
 49
-0.5
 62
           256
  6
BYLAYER
  0
ENDSEC
  0
EOF
