  0
SECTION
  2
HEADER
  9
$ACADVER
  1
AC1014
  9
$ACADMAINTVER
 70
             0
  9
$DWGCODEPAGE
  3
ANSI_1252
  9
$INSBASE
 10
0.0
 20
0.0
 30
0.0
  9
$EXTMIN
 10
1.00000000000000E+20
 20
1.00000000000000E+20
 30
1.00000000000000E+20
  9
$EXTMAX
 10
-1.00000000000000E+20
 20
-1.00000000000000E+20
 30
-1.00000000000000E+20
  9
$LIMMIN
 10
0.0
 20
0.0
  9
$LIMMAX
 10
0.0
 20
0.0
  9
$ORTHOMODE
 70
             0
  9
$REGENMODE
 70
             1
  9
$FILLMODE
 70
             1
  9
$QTEXTMODE
 70
             0
  9
$MIRRTEXT
 70
             1
  9
$DRAGMODE
 70
             2
  9
$LTSCALE
 40
1.0
  9
$OSMODE
 70
             0
  9
$ATTMODE
 70
             1
  9
$TEXTSIZE
 40
0.2
  9
$TRACEWID
 40
0.05
  9
$TEXTSTYLE
  7
STANDARD
  9
$CLAYER
  8
0
  9
$CELTYPE
  6
CONTINUOUS
  9
$CECOLOR
 62
           256
  9
$CELTSCALE
 40
1.0
  9
$DELOBJ
 70
             1
  9
$DISPSILH
 70
             0
  9
$DIMSCALE
 40
1.0
  9
$DIMASZ
 40
0.18
  9
$DIMEXO
 40
0.0625
  9
$DIMDLI
 40
0.38
  9
$DIMRND
 40
0.0
  9
$DIMDLE
 40
0.0
  9
$DIMEXE
 40
0.18
  9
$DIMTP
 40
0.0
  9
$DIMTM
 40
0.0
  9
$DIMTXT
 40
0.18
  9
$DIMCEN
 40
0.09
  9
$DIMTSZ
 40
0.0
  9
$DIMTOL
 70
             0
  9
$DIMLIM
 70
             0
  9
$DIMTIH
 70
             1
  9
$DIMTOH
 70
             1
  9
$DIMSE1
 70
             0
  9
$DIMSE2
 70
             0
  9
$DIMTAD
 70
             0
  9
$DIMZIN
 70
             0
  9
$DIMBLK
  1

  9
$DIMASO
 70
             1
  9
$DIMSHO
 70
             1
  9
$DIMPOST
  1

  9
$DIMAPOST
  1

  9
$DIMALT
 70
             0
  9
$DIMALTD
 70
             2
  9
$DIMALTF
 40
25.4
  9
$DIMLFAC
 40
1.0
  9
$DIMTOFL
 70
             0
  9
$DIMTVP
 40
0.0
  9
$DIMTIX
 70
             0
  9
$DIMSOXD
 70
             0
  9
$DIMSAH
 70
             0
  9
$DIMBLK1
  1

  9
$DIMBLK2
  1

  9
$DIMSTYLE
  2
STANDARD
  9
$DIMCLRD
 70
             0
  9
$DIMCLRE
 70
             0
  9
$DIMCLRT
 70
             0
  9
$DIMTFAC
 40
1.0
  9
$DIMGAP
 40
0.09
  9
$DIMJUST
 70
             0
  9
$DIMSD1
 70
             0
  9
$DIMSD2
 70
             0
  9
$DIMTOLJ
 70
             1
  9
$DIMTZIN
 70
             0
  9
$DIMALTZ
 70
             0
  9
$DIMALTTZ
 70
             0
  9
$DIMFIT
 70
             3
  9
$DIMUPT
 70
             0
  9
$DIMUNIT
 70
             2
  9
$DIMDEC
 70
             4
  9
$DIMTDEC
 70
             4
  9
$DIMALTU
 70
             2
  9
$DIMALTTD
 70
             2
  9
$DIMTXSTY
  7
STANDARD
  9
$DIMAUNIT
 70
             0
  9
$LUNITS
 70
             2
  9
$LUPREC
 70
             4
  9
$SKETCHINC
 40
0.1
  9
$FILLETRAD
 40
0.0
  9
$AUNITS
 70
             0
  9
$AUPREC
 70
             0
  9
$MENU
  1
acad
  9
$ELEVATION
 40
0.0
  9
$PELEVATION
 40
0.0
  9
$THICKNESS
 40
0.0
  9
$LIMCHECK
 70
             0
  9
$BLIPMODE
 70
             1
  9
$CHAMFERA
 40
0.0
  9
$CHAMFERB
 40
0.0
  9
$CHAMFERC
 40
0.0
  9
$CHAMFERD
 40
0.0
  9
$SKPOLY
 70
             0
  9
$TDCREATE
 40
0.000000000
  9
$TDUPDATE
 40
0.000000000
  9
$TDINDWG
 40
0.0000000000
  9
$TDUSRTIMER
 40
0.0000000000
  9
$USRTIMER
 70
             1
  9
$ANGBASE
 50
0.0
  9
$ANGDIR
 70
             0
  9
$PDMODE
 70
             0
  9
$PDSIZE
 40
0.0
  9
$PLINEWID
 40
0.0
  9
$COORDS
 70
             0
  9
$SPLFRAME
 70
             0
  9
$SPLINETYPE
 70
             6
  9
$SPLINESEGS
 70
             8
  9
$ATTDIA
 70
             0
  9
$ATTREQ
 70
             1
  9
$HANDLING
 70
             1
  9
$HANDSEED
  5
126
  9
$SURFTAB1
 70
             6
  9
$SURFTAB2
 70
             6
  9
$SURFTYPE
 70
             6
  9
$SURFU
 70
             6
  9
$SURFV
 70
             6
  9
$UCSNAME
  2

  9
$UCSORG
 10
0.0
 20
0.0
 30
0.0
  9
$UCSXDIR
 10
1.0
 20
0.0
 30
0.0
  9
$UCSYDIR
 10
0.0
 20
1.0
 30
0.0
  9
$PUCSNAME
  2

  9
$PUCSORG
 10
0.0
 20
0.0
 30
0.0
  9
$PUCSXDIR
 10
1.0
 20
0.0
 30
0.0
  9
$PUCSYDIR
 10
0.0
 20
1.0
 30
0.0
  9
$USERI1
 70
             0
  9
$USERI2
 70
             0
  9
$USERI3
 70
             0
  9
$USERI4
 70
             0
  9
$USERI5
 70
             0
  9
$USERR1
 40
11.6
  9
$USERR2
 40
0.0
  9
$USERR3
 40
0.0
  9
$USERR4
 40
0.0
  9
$USERR5
 40
0.0
  9
$WORLDVIEW
 70
             1
  9
$SHADEDGE
 70
             3
  9
$SHADEDIF
 70
            70
  9
$TILEMODE
 70
             1
  9
$MAXACTVP
 70
            16
  9
$PINSBASE
 10
0.0
 20
0.0
 30
0.0
  9
$PLIMCHECK
 70
             0
  9
$PEXTMIN
 10
1.00000000000000E+20
 20
1.00000000000000E+20
 30
1.00000000000000E+20
  9
$PEXTMAX
 10
-1.00000000000000E+20
 20
-1.00000000000000E+20
 30
-1.00000000000000E+20
  9
$PLIMMIN
 10
0.0
 20
0.0
  9
$PLIMMAX
 10
12.0
 20
9.0
  9
$UNITMODE
 70
             0
  9
$VISRETAIN
 70
             0
  9
$PLINEGEN
 70
             1
  9
$PSLTSCALE
 70
             0
  9
$TREEDEPTH
 70
          3020
  9
$PICKSTYLE
 70
             1
  9
$CMLSTYLE
  2
STANDARD
  9
$CMLJUST
 70
             0
  9
$CMLSCALE
 40
1.0
  9
$PROXYGRAPHICS
 70
             0
  9
$MEASUREMENT
 70
             1
  0
ENDSEC
  0
SECTION
  2
CLASSES
  0
CLASS
  1
LWPOLYLINE
  2
AcDbPolyline
  3
"AutoCAD"
 90
        0
280
             0
281
             1
  0
CLASS
  1
IMAGE
  2
AcDbRasterImage
  3
ISM
 90
      127
280
             0
281
             1
  0
CLASS
  1
OLE2FRAME
  2
AcDbOle2Frame
  3
""
 90
        0
280
             0
281
             1
  0
CLASS
  1
HATCH
  2
AcDbHatch
  3
"ACAD_SEDONA"
 90
        0
280
             0
281
             1
  0
CLASS
  1
DICTIONARYVAR
  2
AcDbDictionaryVar
  3
"AutoCAD"
 90
        0
280
             0
281
             0
  0
CLASS
  1
RASTERVARIABLES
  2
AcDbRasterVariables
  3
ISM
 90
        0
280
             0
281
             0
  0
CLASS
  1
IMAGEDEF
  2
AcDbRasterImageDef
  3
ISM
 90
        0
280
             0
281
             0
  0
CLASS
  1
IMAGEDEF_REACTOR
  2
AcDbRasterImageDefReactor
  3
ISM
 90
        1
280
             0
281
             0
  0
CLASS
  1
IDBUFFER
  2
AcDbIdBuffer
  3
"Acad"
 90
        0
280
             0
281
             0
  0
CLASS
  1
SPATIAL_FILTER
  2
AcDbSpatialFilter
  3
"Acad"
 90
        0
280
             0
281
             0
  0
CLASS
  1
XRECORD
  2
AcDbXrecord
  3
"<Built In>"
 90
        0
280
             0
281
             0
  0
CLASS
  1
SORTENTSTABLE
  2
AcDbSortentsTable
  3
"AutoCAD"
 90
        0
280
             0
281
             0
  0
CLASS
  1
LAYER_INDEX
  2
AcDbLayerIndex
  3
"Acad"
 90
        0
280
             0
281
             0
  0
CLASS
  1
SPATIAL_INDEX
  2
AcDbSpatialIndex
  3
"Acad"
 90
        0
280
             0
281
             0
  0
CLASS
  1
OBJECT_PTR
  2
CAseDLPNTableRecord
  3
"ASE-LPNTableRecord"
 90
        1
280
             0
281
             0
  0
CLASS
  1
LAYOUT
  2
AcDbLayout
  3
"AutoCAD 2000"
 90
        1
280
             0
281
             0
  0
CLASS
  1
PLOTSETTINGS
  2
AcDbPlotSettings
  3
"AutoCAD 2000"
 90
        1
280
             0
281
             0
  0
CLASS
  1
ACDBDICTIONARYWDFLT
  2
AcDbDictionaryWithDefault
  3
"AutoCAD 2000"
 90
        1
280
             0
281
             0
  0
CLASS
  1
ACDBPLACEHOLDER
  2
AcDbPlaceHolder
  3
"AutoCAD 2000"
 90
        1
280
             0
281
             0
  0
ENDSEC
  0
SECTION
  2
TABLES
  0
TABLE
  2
VPORT
  5
7
100
AcDbSymbolTable
 70
             1
  0
VPORT
  5
15
100
AcDbSymbolTableRecord
100
AcDbViewportTableRecord
  2
*ACTIVE
 70
             0
 10
0.0
 20
0.0
 11
1.0
 21
1.0
 12
11.19804427939646
 22
-117.15375546976375
 13
0.0
 23
0.0
 14
1.0
 24
1.0
 15
0.0
 25
0.0
 16
0.0
 26
0.0
 36
1.0
 17
0.0
 27
0.0
 37
0.0
 40
378.12602196182786
 41
1.60267857142857
 42
50.0
 43
0.0
 44
0.0
 50
0.0
 51
0.0
 71
             0
 72
           100
 73
             1
 74
             1
 75
             0
 76
             0
 77
             0
 78
             0
  0
ENDTAB
  0
TABLE
  2
LTYPE
  5
4
100
AcDbSymbolTable
 70
            10
  0
LTYPE
  5
11
100
AcDbSymbolTableRecord
100
AcDbLinetypeTableRecord
  2
BYBLOCK
 70
            64
  3

 72
            65
 73
             0
 40
0.0
  0
LTYPE
  5
12
100
AcDbSymbolTableRecord
100
AcDbLinetypeTableRecord
  2
BYLAYER
 70
            64
  3

 72
            65
 73
             0
 40
0.0
  0
LTYPE
  5
13
100
AcDbSymbolTableRecord
100
AcDbLinetypeTableRecord
  2
CONTINUOUS
 70
            64
  3
Solid line
 72
            65
 73
             0
 40
0.0
  0
LTYPE
  5
1D
100
AcDbSymbolTableRecord
100
AcDbLinetypeTableRecord
  2
DASHED
 70
            64
  3
Dashed
 72
            65
 73
             2
 40
15.0
 49
12.0
 74
             0
 49
-3.0
 74
             0
  0
LTYPE
  5
1E
100
AcDbSymbolTableRecord
100
AcDbLinetypeTableRecord
  2
DOTTED
 70
            64
  3
Dotted
 72
            65
 73
             2
 40
3.5
 49
0.5
 74
             0
 49
-3.0
 74
             0
  0
LTYPE
  5
1F
100
AcDbSymbolTableRecord
100
AcDbLinetypeTableRecord
  2
DOT_CENTER
 70
            64
  3
Dot_Center
 72
            65
 73
             4
 40
2.0
 49
1.25
 74
             0
 49
-0.25
 74
             0
 49
0.25
 74
             0
 49
-0.25
 74
             0
  0
LTYPE
  5
20
100
AcDbSymbolTableRecord
100
AcDbLinetypeTableRecord
  2
LONG_DASHED
 70
            64
  3
Long_Dashed
 72
            65
 73
             2
 40
2.0
 49
1.5
 74
             0
 49
-0.5
 74
             0
  0
LTYPE
  5
21
100
AcDbSymbolTableRecord
100
AcDbLinetypeTableRecord
  2
DASH_CENTER
 70
            64
  3
Dash_Center
 72
            65
 73
             4
 40
36.0
 49
24.0
 74
             0
 49
-3.0
 74
             0
 49
6.0
 74
             0
 49
-3.0
 74
             0
  0
LTYPE
  5
22
100
AcDbSymbolTableRecord
100
AcDbLinetypeTableRecord
  2
PHANTOM
 70
            64
  3
Phantom
 72
            65
 73
             6
 40
2.5
 49
1.25
 74
             0
 49
-0.25
 74
             0
 49
0.25
 74
             0
 49
-0.25
 74
             0
 49
0.25
 74
             0
 49
-0.25
 74
             0
  0
LTYPE
  5
23
100
AcDbSymbolTableRecord
100
AcDbLinetypeTableRecord
  2
CENTER_DASH_DASH
 70
            64
  3
Center_Dash_Dash
 72
            65
 73
             6
 40
22.0
 49
12.0
 74
             0
 49
-3.0
 74
             0
 49
0.5
 74
             0
 49
-3.0
 74
             0
 49
0.5
 74
             0
 49
-3.0
 74
             0
  0
ENDTAB
  0
TABLE
  2
LAYER
  5
2
100
AcDbSymbolTable
 70
             2
  0
LAYER
  5
14
100
AcDbSymbolTableRecord
100
AcDbLayerTableRecord
  2
0
 70
             0
 62
             7
  6
CONTINUOUS
  0
LAYER
  5
24
100
AcDbSymbolTableRecord
100
AcDbLayerTableRecord
  2
1
 70
             0
 62
             7
  6
CONTINUOUS
  0
ENDTAB
  0
TABLE
  2
STYLE
  5
3
100
AcDbSymbolTable
 70
             2
  0
STYLE
  5
17
100
AcDbSymbolTableRecord
100
AcDbTextStyleTableRecord
  2
STANDARD
 70
             0
 40
0.0
 41
1.0
 50
0.0
 71
             0
 42
0.0
  3
txt
  4

  0
STYLE
  5
F4
100
AcDbSymbolTableRecord
100
AcDbTextStyleTableRecord
  2
CONVERTER_1
 70
             0
 40
0.0
 41
0.9
 50
0.0
 71
             0
 42
0.0
  3
txt.shx
  4

  0
ENDTAB
  0
TABLE
  2
VIEW
  5
5
100
AcDbSymbolTable
 70
             0
  0
ENDTAB
  0
TABLE
  2
UCS
  5
6
100
AcDbSymbolTable
 70
             0
  0
ENDTAB
  0
TABLE
  2
APPID
  5
8
100
AcDbSymbolTable
 70
             1
  0
APPID
  5
16
100
AcDbSymbolTableRecord
100
AcDbRegAppTableRecord
  2
ACAD
 70
             0
  0
ENDTAB
  0
TABLE
  2
DIMSTYLE
  5
9
100
AcDbSymbolTable
 70
             6
  0
DIMSTYLE
105
18
100
AcDbSymbolTableRecord
100
AcDbDimStyleTableRecord
  2
STANDARD
 70
             0
  3

  4

  5

  6

  7

 40
1.0
 41
0.18
 42
0.0625
 43
0.38
 44
0.18
 45
0.0
 46
0.0
 47
0.0
 48
0.0
 71
             0
 72
             0
 73
             1
 74
             1
 75
             0
 76
             0
 77
             0
 78
             0
140
0.18
141
0.09
142
0.0
143
25.4
144
1.0
145
0.0
146
1.0
147
0.09
170
             0
171
             2
172
             0
173
             0
174
             0
175
             0
176
             0
177
             0
178
             0
270
             2
271
             4
272
             4
273
             2
274
             2
275
             0
280
             0
281
             0
282
             0
283
             1
284
             0
285
             0
286
             0
287
             0
288
             0
340
17
  0
DIMSTYLE
105
F7
100
AcDbSymbolTableRecord
100
AcDbDimStyleTableRecord
  2
ME10_DIM_0
 70
             0
  3
Ø<>
  4

  5

  6

  7

 40
1.0
 41
12.0
 42
0.0
 43
0.38
 44
2.0
 45
0.0
 46
0.0
 47
0.0
 48
0.0
 71
             0
 72
             0
 73
             0
 74
             0
 75
             0
 76
             0
 77
             1
 78
             8
140
12.0
141
0.09
142
0.0
143
25.4
144
1.0
145
0.0
146
1.0
147
0.625
170
             0
171
             2
172
             0
173
             1
174
             0
175
             0
176
             4
177
             4
178
             1
270
             2
271
             2
272
             4
273
             2
274
             2
275
             0
280
             0
281
             0
282
             0
283
             1
284
             0
285
             0
286
             0
287
             0
288
             0
340
17
  0
DIMSTYLE
105
102
100
AcDbSymbolTableRecord
100
AcDbDimStyleTableRecord
  2
ME10_DIM_1
 70
             0
  3
DN<>
  4

  5

  6

  7

 40
1.0
 41
12.0
 42
0.0
 43
0.38
 44
2.0
 45
0.0
 46
0.0
 47
0.0
 48
0.0
 71
             0
 72
             0
 73
             0
 74
             0
 75
             0
 76
             0
 77
             1
 78
             8
140
12.0
141
0.09
142
0.0
143
25.4
144
1.0
145
0.0
146
1.0
147
0.625
170
             0
171
             2
172
             0
173
             1
174
             0
175
             0
176
             4
177
             4
178
             1
270
             2
271
             2
272
             4
273
             2
274
             2
275
             0
280
             0
281
             0
282
             0
283
             1
284
             0
285
             0
286
             0
287
             0
288
             0
340
17
  0
DIMSTYLE
105
10D
100
AcDbSymbolTableRecord
100
AcDbDimStyleTableRecord
  2
ME10_DIM_2
 70
             0
  3
Ø<>
  4

  5

  6

  7

 40
1.0
 41
12.0
 42
0.0
 43
0.38
 44
2.0
 45
0.0
 46
0.0
 47
0.0
 48
0.0
 71
             0
 72
             0
 73
             0
 74
             0
 75
             0
 76
             0
 77
             1
 78
             8
140
12.0
141
0.09
142
0.0
143
25.4
144
1.0
145
0.0
146
1.0
147
0.625
170
             0
171
             2
172
             0
173
             1
174
             0
175
             0
176
             4
177
             4
178
             1
270
             2
271
             2
272
             4
273
             2
274
             2
275
             0
280
             0
281
             0
282
             0
283
             1
284
             0
285
             0
286
             0
287
             0
288
             0
340
17
  0
DIMSTYLE
105
118
100
AcDbSymbolTableRecord
100
AcDbDimStyleTableRecord
  2
ME10_DIM_3
 70
             0
  3

  4

  5

  6

  7

 40
1.0
 41
12.0
 42
0.0
 43
0.38
 44
2.0
 45
0.0
 46
0.0
 47
0.0
 48
0.0
 71
             0
 72
             0
 73
             0
 74
             0
 75
             0
 76
             0
 77
             1
 78
             8
140
12.0
141
0.09
142
0.0
143
25.4
144
1.0
145
0.0
146
1.0
147
0.625
170
             0
171
             2
172
             0
173
             1
174
             0
175
             0
176
             4
177
             4
178
             1
270
             2
271
             2
272
             4
273
             2
274
             2
275
             0
280
             0
281
             0
282
             0
283
             1
284
             0
285
             0
286
             0
287
             0
288
             0
340
17
  0
DIMSTYLE
105
123
100
AcDbSymbolTableRecord
100
AcDbDimStyleTableRecord
  2
ME10_DIM_4
 70
             0
  3

  4

  5

  6

  7

 40
1.0
 41
12.0
 42
0.0
 43
0.38
 44
2.0
 45
0.0
 46
0.0
 47
0.0
 48
0.0
 71
             0
 72
             0
 73
             0
 74
             0
 75
             0
 76
             0
 77
             1
 78
             8
140
12.0
141
0.09
142
0.0
143
25.4
144
1.0
145
0.0
146
1.0
147
0.625
170
             0
171
             2
172
             0
173
             1
174
             0
175
             0
176
             4
177
             4
178
             1
270
             2
271
             2
272
             4
273
             2
274
             2
275
             0
280
             0
281
             0
282
             0
283
             1
284
             0
285
             0
286
             0
287
             0
288
             0
340
17
  0
ENDTAB
  0
TABLE
  2
BLOCK_RECORD
  5
1
100
AcDbSymbolTable
 70
             6
  0
BLOCK_RECORD
  5
A
100
AcDbSymbolTableRecord
100
AcDbBlockTableRecord
  2
*MODEL_SPACE
  0
BLOCK_RECORD
  5
B
100
AcDbSymbolTableRecord
100
AcDbBlockTableRecord
  2
*PAPER_SPACE
  0
BLOCK_RECORD
  5
25
100
AcDbSymbolTableRecord
100
AcDbBlockTableRecord
  2
HL_616_5_K_RPER
  0
BLOCK_RECORD
  5
ED
100
AcDbSymbolTableRecord
100
AcDbBlockTableRecord
  2
*D1
  0
BLOCK_RECORD
  5
F9
100
AcDbSymbolTableRecord
100
AcDbBlockTableRecord
  2
*D2
  0
BLOCK_RECORD
  5
104
100
AcDbSymbolTableRecord
100
AcDbBlockTableRecord
  2
*D3
  0
BLOCK_RECORD
  5
10F
100
AcDbSymbolTableRecord
100
AcDbBlockTableRecord
  2
*D4
  0
BLOCK_RECORD
  5
11A
100
AcDbSymbolTableRecord
100
AcDbBlockTableRecord
  2
*D5
  0
ENDTAB
  0
ENDSEC
  0
SECTION
  2
BLOCKS
  0
BLOCK
  5
D
100
AcDbEntity
  8
0
100
AcDbBlockBegin
  2
*MODEL_SPACE
 70
             0
 10
0.0
 20
0.0
 30
0.0
  3
*MODEL_SPACE
  1

  0
ENDBLK
  5
E
100
AcDbEntity
  8
0
100
AcDbBlockEnd
  0
BLOCK
  5
F
100
AcDbEntity
 67
             1
  8
0
100
AcDbBlockBegin
  2
*PAPER_SPACE
 70
             0
 10
0.0
 20
0.0
 30
0.0
  3
*PAPER_SPACE
  1

  0
ENDBLK
  5
10
100
AcDbEntity
 67
             1
  8
0
100
AcDbBlockEnd
  0
BLOCK
  5
26
100
AcDbEntity
  8
0
100
AcDbBlockBegin
  2
HL_616_5_K_RPER
 70
             0
 10
-182.4579727425587
 20
-738.64616558223247
 30
0.0
  3
HL_616_5_K_RPER
  1

  0
SPLINE
  5
E8
100
AcDbEntity
  8
0
  6
CONTINUOUS
 62
             7
100
AcDbSpline
210
0.0
220
0.0
230
1.0
 70
             0
 71
             3
 72
            12
 73
             8
 74
            11
 42
0.00000000001
 43
0.00000000001
 44
0.00000000001
 40
0.0
 40
0.0
 40
0.0
 40
0.0
 40
0.1764400736822528
 40
0.3475862868491492
 40
0.4323285403238731
 40
0.5943402768481823
 40
0.7535838098651446
 40
0.7535838098651446
 40
0.7535838098651446
 40
0.7535838098651446
 10
-101.47903208238731
 20
1.0
 30
0.0
 10
-101.47903208238731
 20
1.087767645001094
 30
0.0
 10
-101.4583358406955
 20
1.173990989798483
 30
0.0
 10
-101.3797130211443
 20
1.32600901020129
 30
0.0
 10
-101.3231698373165
 20
1.3891288793915071
 30
0.0
 10
-101.1869911192194
 20
1.4768965243926859
 30
0.0
 10
-101.10975169369971
 20
1.4999999999998861
 30
0.0
 10
-101.03112887414861
 20
1.4999999999998861
 30
0.0
 11
-101.47903208238731
 21
1.0
 31
0.0
 11
-101.47109661743677
 21
1.1053112985629712
 31
0.0
 11
-101.44706554180196
 21
1.1845796838293399
 31
0.0
 11
-101.41006409488773
 21
1.264342502171161
 31
0.0
 11
-101.36932884295994
 21
1.3334302789430899
 31
0.0
 11
-101.35025879734971
 21
1.3577920891170641
 31
0.0
 11
-101.3278007288751
 21
1.37935373656824
 31
0.0
 11
-101.26588427343596
 21
1.4243527005831493
 31
0.0
 11
-101.19382346603368
 21
1.4657082213856267
 31
0.0
 11
-101.12479041270424
 21
1.4914189532768045
 31
0.0
 11
-101.03112887414861
 21
1.4999999999998861
 31
0.0
  0
SPLINE
  5
E7
100
AcDbEntity
  8
0
  6
CONTINUOUS
 62
             7
100
AcDbSpline
210
0.0
220
0.0
230
1.0
 70
             0
 71
             3
 72
            26
 73
            22
 74
            39
 42
0.00000000001
 43
0.00000000001
 44
0.00000000001
 40
0.0058443308168439
 40
0.0058443308168439
 40
0.0058443308168439
 40
0.0058443308168439
 40
0.1032651661151599
 40
0.1519432819299105
 40
0.2007893325484947
 40
0.2497008727543892
 40
0.2985469795098823
 40
0.3618062545023664
 40
0.4463262943274653
 40
0.5454747196446544
 40
0.6278329429604168
 40
0.7105041935071905
 40
0.7928624335281774
 40
0.9580216374071429
 40
1.125676670138182
 40
1.2908357663071737
 40
1.3396818162187187
 40
1.3885933877938046
 40
1.4374395387237429
 40
1.4921246733648479
 40
1.5835454966261968
 40
1.5835454966261968
 40
1.5835454966261968
 40
1.5835454966261968
 10
-137.49636358827749
 20
-7.5000000000001137
 30
0.0
 10
-137.49636358827749
 20
-7.4513220073640127
 30
0.0
 10
-137.49991799646051
 20
-7.4027089340887926
 30
0.0
 10
-137.50699848380191
 20
-7.354548518203103
 30
0.0
 10
-137.5141033981416
 20
-7.306221953528393
 30
0.0
 10
-137.52473969055151
 20
-7.2584809014967959
 30
0.0
 10
-137.53882193612731
 20
-7.2117087676486156
 30
0.0
 10
-137.55705947243379
 20
-7.1511354390126201
 30
0.0
 10
-137.58710165479161
 20
-7.0721347781849033
 30
0.0
 10
-137.63796321291221
 20
-6.9870259528586018
 30
0.0
 10
-137.6802116656585
 20
-6.9163298059461056
 30
0.0
 10
-137.73103184529711
 20
-6.8511236328605207
 30
0.0
 10
-137.78926905412749
 20
-6.7928887017023101
 30
0.0
 10
-137.9060565309376
 20
-6.6761057924807119
 30
0.0
 10
-138.0499505431242
 20
-6.5900667126571193
 30
0.0
 10
-138.20809813717071
 20
-6.5424551012092991
 30
0.0
 10
-138.2548705248343
 20
-6.5283738958557933
 30
0.0
 10
-138.30261178669139
 20
-6.5177384010277137
 30
0.0
 10
-138.35093853282609
 20
-6.5106340313370197
 30
0.0
 10
-138.40504217392839
 20
-6.502680417681006
 30
0.0
 10
-138.45411283602829
 20
-6.5000000000001137
 30
0.0
 10
-138.4963898446446
 20
-6.5000000000001137
 30
0.0
 11
-137.49636358827749
 21
-7.5000000000001137
 31
0.0
 11
-137.49794229380393
 21
-7.4378426877371577
 31
0.0
 11
-137.50188284439508
 21
-7.3920571005361619
 31
0.0
 11
-137.50440172898314
 21
-7.3725503521180817
 31
0.0
 11
-137.50728877469598
 21
-7.352574002959722
 31
0.0
 11
-137.51065590167963
 21
-7.3301833492649546
 31
0.0
 11
-137.51468676946598
 21
-7.3063502725168066
 31
0.0
 11
-137.51954065795053
 21
-7.2824723883051838
 31
0.0
 11
-137.52510924027754
 21
-7.2593202140066602
 31
0.0
 11
-137.5312129638119
 21
-7.2372392041059275
 31
0.0
 11
-137.53767407013035
 21
-7.2155212378800266
 31
0.0
 11
-137.54640776315088
 21
-7.1867983986422432
 31
0.0
 11
-137.55587036890481
 21
-7.1573637052572554
 31
0.0
 11
-137.57041007156619
 21
-7.1173045124486194
 31
0.0
 11
-137.58802605978389
 21
-7.0768152290669626
 31
0.0
 11
-137.61299257534137
 21
-7.0295888032164395
 31
0.0
 11
-137.63947998879883
 21
-6.9844878667526213
 31
0.0
 11
-137.66049271853171
 21
-6.9497382558695779
 31
0.0
 11
-137.68203182422482
 21
-6.9165791803250016
 31
0.0
 11
-137.70570691804136
 21
-6.884199045803566
 31
0.0
 11
-137.72989299753456
 21
-6.8546528564742193
 31
0.0
 11
-137.7530861738168
 21
-6.8293689694402371
 31
0.0
 11
-137.77754026632283
 21
-6.8046170307910909
 31
0.0
 11
-137.83718971403871
 21
-6.7461600770373504
 31
0.0
 11
-137.90598232079824
 21
-6.6857012881722024
 31
0.0
 11
-137.97940836346297
 21
-6.6347388285847897
 31
0.0
 11
-138.06126327134893
 21
-6.5936918809225293
 31
0.0
 11
-138.1511568365728
 21
-6.5604766095608182
 31
0.0
 11
-138.22615361819626
 21
-6.5370193527094376
 31
0.0
 11
-138.24194565062481
 21
-6.5323428091450362
 31
0.0
 11
-138.25846495536473
 21
-6.5279139670162047
 31
0.0
 11
-138.2791667024641
 21
-6.523077424987294
 31
0.0
 11
-138.30242182846052
 21
-6.5183685202462307
 31
0.0
 11
-138.32571990105407
 21
-6.5144166208464327
 31
0.0
 11
-138.34817734808817
 21
-6.5110399448058729
 31
0.0
 11
-138.37208928779503
 21
-6.5076041055907625
 31
0.0
 11
-138.39604115165551
 21
-6.5046386962519289
 31
0.0
 11
-138.44062439120461
 21
-6.5012087795331217
 31
0.0
 11
-138.4963898446446
 21
-6.5000000000001137
 31
0.0
  0
SPLINE
  5
E6
100
AcDbEntity
  8
0
  6
CONTINUOUS
 62
             7
100
AcDbSpline
210
0.0
220
0.0
230
1.0
 70
             0
 71
             3
 72
            38
 73
            34
 74
            63
 42
0.00000000001
 43
0.00000000001
 44
0.00000000001
 40
0.0176755657966696
 40
0.0176755657966696
 40
0.0176755657966696
 40
0.0176755657966696
 40
0.3099417026706105
 40
0.4559778624157637
 40
0.6206665494526895
 40
0.7686189722866
 40
0.8958150558361969
 40
1.0187706422329306
 40
1.1418423439987762
 40
1.2647980437853938
 40
1.3881239232715752
 40
1.5115671505413566
 40
1.6348935022320892
 40
1.8819664778778538
 40
2.1299785406161367
 40
2.3770516281973366
 40
2.4866255390639505
 40
2.6105855942707614
 40
2.7465630879920386
 40
2.8832458980721203
 40
3.0078005595396777
 40
3.1178230532703903
 40
3.2540377400043767
 40
3.3781984911909588
 40
3.4879247520673315
 40
3.6236987700988252
 40
3.7474837244499146
 40
3.8569190995858191
 40
4.0216097117140954
 40
4.16956265939488
 40
4.296757119248535
 40
4.4427920659506768
 40
4.7350560686819856
 40
4.7350560686819856
 40
4.7350560686819856
 40
4.7350560686819856
 10
-137.49636358827749
 20
-9.5
 30
0.0
 10
-137.49636358827749
 20
-9.6460357890711066
 30
0.0
 10
-137.4857000992298
 20
-9.7918768142316139
 30
0.0
 10
-137.46445811179501
 20
-9.9363598164254086
 30
0.0
 10
-137.44050298296401
 20
-10.0992969682375
 30
0.0
 10
-137.4056566481126
 20
-10.24308727517732
 30
0.0
 10
-137.3689858647667
 20
-10.36488258427892
 30
0.0
 10
-137.33353762183259
 20
-10.482617448694899
 30
0.0
 10
-137.2908846761471
 20
-10.5980616776537
 30
0.0
 10
-137.24126840625419
 20
-10.710562032639499
 30
0.0
 10
-137.1915027578786
 20
-10.823401089675601
 30
0.0
 10
-137.13482629355099
 20
-10.933064250080999
 30
0.0
 10
-137.0715616260423
 20
-11.038927231648501
 30
0.0
 10
-136.94481669731991
 20
-11.25101395527261
 30
0.0
 10
-136.79235694903011
 20
-11.446630949460509
 30
0.0
 10
-136.61764638750591
 20
-11.621334499220691
 30
0.0
 10
-136.54016437729061
 20
-11.69881339980401
 30
0.0
 10
-136.44836801910779
 20
-11.782117204706591
 30
0.0
 10
-136.34113810738131
 20
-11.86573314116521
 30
0.0
 10
-136.23335199323611
 20
-11.94978279416191
 30
0.0
 10
-136.12966284533061
 20
-12.018793114404099
 30
0.0
 10
-136.0352177791772
 20
-12.075229615057509
 30
0.0
 10
-135.91828891614719
 20
-12.14510151121431
 30
0.0
 10
-135.807246806546
 20
-12.200649166705199
 30
0.0
 10
-135.70684961563711
 20
-12.2449239494095
 30
0.0
 10
-135.58261928189651
 20
-12.299709058254111
 30
0.0
 10
-135.46595417418311
 20
-12.34108498804332
 30
0.0
 10
-135.36116471674941
 20
-12.372632903059809
 30
0.0
 10
-135.2034658020437
 20
-12.42010973976809
 30
0.0
 10
-135.05848123176389
 20
-12.44959785785341
 30
0.0
 10
-134.9326393027317
 20
-12.468097574470701
 30
0.0
 10
-134.7881572284318
 20
-12.489337533611319
 30
0.0
 10
-134.64231723013131
 20
-12.50000000000011
 30
0.0
 10
-134.49628247650489
 20
-12.50000000000011
 30
0.0
 11
-137.49636358827749
 21
-9.5
 31
0.0
 11
-137.49165398509044
 21
-9.686293110291043
 31
0.0
 11
-137.48001845627388
 21
-9.8223836066434131
 31
0.0
 11
-137.47261984899015
 21
-9.8798282989261494
 31
0.0
 11
-137.46394848420553
 21
-9.9398261834194575
 31
0.0
 11
-137.45205233588098
 21
-10.018442521703699
 31
0.0
 11
-137.43728667916685
 21
-10.102785793989973
 31
0.0
 11
-137.42123016812985
 21
-10.176864165132219
 31
0.0
 11
-137.40298688681182
 21
-10.248203875372873
 31
0.0
 11
-137.38605209235428
 21
-10.307731410886648
 31
0.0
 11
-137.36840995580741
 21
-10.366795360699527
 31
0.0
 11
-137.35088587138529
 21
-10.424452591611947
 31
0.0
 11
-137.33228173981828
 21
-10.482422113127775
 31
0.0
 11
-137.31190830096975
 21
-10.540255919104968
 31
0.0
 11
-137.28971773467833
 21
-10.597587967095532
 31
0.0
 11
-137.26594762919669
 21
-10.654214195873625
 31
0.0
 11
-137.24130161845747
 21
-10.710486727005613
 31
0.0
 11
-137.21627349379136
 21
-10.766843407290629
 31
0.0
 11
-137.1903759731502
 21
-10.822817540764117
 31
0.0
 11
-137.16321469484404
 21
-10.877531484037918
 31
0.0
 11
-137.13635421437291
 21
-10.928038732026881
 31
0.0
 11
-137.11091130694012
 21
-10.972773434548918
 31
0.0
 11
-137.08425898933953
 21
-11.017680289403701
 31
0.0
 11
-137.0193760581945
 21
-11.125015517629979
 31
0.0
 11
-136.94495058072505
 21
-11.240904719474401
 31
0.0
 11
-136.86728248562315
 21
-11.347983419548511
 31
0.0
 11
-136.78178829622604
 21
-11.450028011225692
 31
0.0
 11
-136.68644700840488
 21
-11.551640243678325
 31
0.0
 11
-136.59977897598569
 21
-11.639201193657403
 31
0.0
 11
-136.56895845088195
 21
-11.669872844482699
 31
0.0
 11
-136.53800006471891
 21
-11.6997965267957
 31
0.0
 11
-136.4966665256371
 21
-11.737909300953811
 31
0.0
 11
-136.45005691940759
 21
-11.77854358313817
 31
0.0
 11
-136.39626946509335
 21
-11.822460629356103
 31
0.0
 11
-136.34126128531477
 21
-11.865637089251212
 31
0.0
 11
-136.28561576912679
 21
-11.908743254909792
 31
0.0
 11
-136.22949348060729
 21
-11.950510019306439
 31
0.0
 11
-136.17792872068293
 21
-11.986296488630977
 31
0.0
 11
-136.12722963811848
 21
-12.019267193663289
 31
0.0
 11
-136.0837091493363
 21
-12.046130671488715
 31
0.0
 11
-136.03889184415999
 21
-12.07303414440724
 31
0.0
 11
-135.97855009185554
 21
-12.10883181212872
 31
0.0
 11
-135.9155991211172
 21
-12.144628099939615
 31
0.0
 11
-135.85914433375572
 21
-12.174328036337945
 31
0.0
 11
-135.80479045477207
 21
-12.200817408556425
 31
0.0
 11
-135.75841091038774
 21
-12.222071237802357
 31
0.0
 11
-135.71074533065305
 21
-12.243205953773883
 31
0.0
 11
-135.6466704672149
 21
-12.271220376468866
 31
0.0
 11
-135.58002336336148
 21
-12.298915044334484
 31
0.0
 11
-135.52070611132118
 21
-12.321336659887644
 31
0.0
 11
-135.46488766044462
 21
-12.340535912677648
 31
0.0
 11
-135.41868251503396
 21
-12.35520782418031
 31
0.0
 11
-135.37089839208406
 21
-12.369702482674258
 31
0.0
 11
-135.28862399511277
 21
-12.394122875102275
 31
0.0
 11
-135.20102871793489
 21
-12.418050342099724
 31
0.0
 11
-135.12548536488558
 21
-12.435483115735334
 31
0.0
 11
-135.05409286510636
 21
-12.449150212542399
 31
0.0
 11
-134.99582084760107
 21
-12.458672812821089
 31
0.0
 11
-134.94083150776538
 21
-12.46689325828801
 31
0.0
 11
-134.88143819308112
 21
-12.47547497571261
 31
0.0
 11
-134.82175994513892
 21
-12.483201282629061
 31
0.0
 11
-134.68296129839374
 21
-12.495233953471111
 31
0.0
 11
-134.49628247650489
 21
-12.50000000000011
 31
0.0
  0
SPLINE
  5
E5
100
AcDbEntity
  8
0
  6
CONTINUOUS
 62
             7
100
AcDbSpline
210
0.0
220
0.0
230
1.0
 70
             0
 71
             3
 72
            11
 73
             7
 74
             9
 42
0.00000000001
 43
0.00000000001
 44
0.00000000001
 40
355.39824309165402
 40
355.39824309165402
 40
355.39824309165402
 40
355.39824309165402
 40
359.07909622990337
 40
360.89918273501581
 40
362.74639694973763
 40
366.40012237971411
 40
366.40012237971411
 40
366.40012237971411
 40
366.40012237971411
 10
110.68962220091269
 20
-12.50000000000011
 30
0.0
 10
110.722334754811
 20
-14.3469468948675
 30
0.0
 10
110.75481405828
 20
-16.180275784099621
 30
0.0
 10
110.78706175510909
 20
-18.000076589721399
 30
0.0
 10
110.8197900918158
 20
-19.847000846708308
 30
0.0
 10
110.85228593519081
 20
-21.68033322606431
 30
0.0
 10
110.8845507395736
 20
-23.50015230484502
 30
0.0
 11
110.68962220091269
 21
-12.50000000000011
 31
0.0
 11
110.73136210330939
 21
-14.856429651776319
 31
0.0
 11
110.76206730129815
 21
-16.58954037299085
 31
0.0
 11
110.77485655679573
 21
-17.311307032658565
 31
0.0
 11
110.7870166973845
 21
-17.997533893914596
 31
0.0
 11
110.79944825802758
 21
-18.69906460267514
 31
0.0
 11
110.81260544104954
 21
-19.441503703456249
 31
0.0
 11
110.84326506886273
 21
-21.171319493480038
 31
0.0
 11
110.8845507395736
 21
-23.50015230484502
 31
0.0
  0
SPLINE
  5
E4
100
AcDbEntity
  8
0
  6
CONTINUOUS
 62
             7
100
AcDbSpline
210
0.0
220
0.0
230
1.0
 70
             0
 71
             3
 72
            29
 73
            25
 74
            45
 42
0.00000000001
 43
0.00000000001
 44
0.00000000001
 40
0.0058768336014734
 40
0.0058768336014734
 40
0.0058768336014734
 40
0.0058768336014734
 40
0.0972993088080371
 40
0.1519859430222662
 40
0.2068826243607496
 40
0.2562005146008526
 40
0.2985995451092465
 40
0.3618590491785834
 40
0.4463795592032019
 40
0.5455288473674013
 40
0.6088696243507591
 40
0.6935956662436882
 40
0.7930191628434621
 40
0.8563785109010169
 40
0.9411013535760104
 40
1.0405107160991673
 40
1.1037593410862616
 40
1.1882819081800962
 40
1.2874396672965929
 40
1.3423368927265913
 40
1.3916549316954889
 40
1.4340534969341525
 40
1.4763278687575156
 40
1.5801617221713538
 40
1.5801617221713538
 40
1.5801617221713538
 40
1.5801617221713538
 10
102.9951455166706
 20
-13.50000000000011
 30
0.0
 10
102.9951455166706
 20
-13.457722420273109
 30
0.0
 10
102.9978262727652
 20
-13.408650694213611
 30
0.0
 10
103.0057810453453
 20
-13.354545707799421
 30
0.0
 10
103.01376637159051
 20
-13.300232908325111
 30
0.0
 10
103.0253822271216
 20
-13.25230247751111
 30
0.0
 10
103.0376062337003
 20
-13.21170381434081
 30
0.0
 10
103.055844494921
 20
-13.15113046473272
 30
0.0
 10
103.0858877998497
 20
-13.072129727750189
 30
0.0
 10
103.1367510718753
 20
-12.98702092149421
 30
0.0
 10
103.16924469063621
 20
-12.9326498007712
 30
0.0
 10
103.21775503922549
 20
-12.86318579387131
 30
0.0
 10
103.28806051158431
 20
-12.79288520900511
 30
0.0
 10
103.33286389354009
 20
-12.748084941688919
 30
0.0
 10
103.396872355832
 20
-12.69257929489549
 30
0.0
 10
103.4822075991718
 20
-12.641587946596021
 30
0.0
 10
103.53650164821499
 20
-12.609144999731511
 30
0.0
 10
103.6119470615495
 20
-12.571039173996891
 30
0.0
 10
103.7068954587813
 20
-12.54245485913512
 30
0.0
 10
103.7594622333181
 20
-12.526629576366419
 30
0.0
 10
103.80779085969441
 20
-12.5168003932713
 30
0.0
 10
103.8497386024878
 20
-12.51063393490071
 30
0.0
 10
103.8915634724101
 20
-12.50448553925281
 30
0.0
 10
103.9405033074954
 20
-12.50000000000011
 30
0.0
 10
103.99519219656329
 20
-12.50000000000011
 30
0.0
 11
102.9951455166706
 21
-13.50000000000011
 31
0.0
 11
102.99634566881225
 21
-13.444293421598118
 31
0.0
 11
102.99971457615341
 21
-13.400127408755957
 31
0.0
 11
103.00261714980886
 21
-13.376605201293719
 31
0.0
 11
103.00606416032969
 21
-13.352620079853549
 31
0.0
 11
103.01005004979407
 21
-13.326275913001767
 31
0.0
 11
103.01488459426059
 21
-13.298756523091095
 31
0.0
 11
103.02015274385532
 21
-13.274483576734674
 31
0.0
 11
103.02592108080837
 21
-13.251763004516363
 31
0.0
 11
103.0309797426016
 21
-13.233868147745664
 31
0.0
 11
103.03625047697109
 21
-13.216206586033305
 31
0.0
 11
103.04487344515599
 21
-13.187852626776822
 31
0.0
 11
103.05450330843058
 21
-13.157863637616284
 31
0.0
 11
103.06924812850644
 21
-13.117242927433018
 31
0.0
 11
103.08738471107333
 21
-13.075852267145743
 31
0.0
 11
103.11350047191419
 21
-13.026704239823829
 31
0.0
 11
103.13961875187096
 21
-12.982222472408402
 31
0.0
 11
103.15393460179348
 21
-12.958428185260527
 31
0.0
 11
103.16818348209661
 21
-12.935707310964382
 31
0.0
 11
103.19078391859711
 21
-12.902597067952881
 31
0.0
 11
103.21830629892355
 21
-12.867180044317697
 31
0.0
 11
103.25575108195369
 21
-12.82576057652804
 31
0.0
 11
103.29204792769386
 21
-12.788898070092625
 31
0.0
 11
103.31173813490604
 21
-12.769325591678415
 31
0.0
 11
103.3311006164458
 21
-12.750778976004234
 31
0.0
 11
103.36109723210612
 21
-12.724200918623332
 31
0.0
 11
103.39643921647352
 21
-12.696580540052228
 31
0.0
 11
103.44287134668332
 21
-12.665560792749911
 31
0.0
 11
103.48706877854205
 21
-12.63868319024083
 31
0.0
 11
103.51089500280686
 21
-12.624541631673285
 31
0.0
 11
103.53415369609333
 21
-12.611312790035237
 31
0.0
 11
103.56970703628636
 21
-12.592891186826867
 31
0.0
 11
103.61107094642296
 21
-12.574639799731338
 31
0.0
 11
103.66482197419302
 21
-12.555538234721295
 31
0.0
 11
103.71560666526673
 21
-12.53983234125946
 31
0.0
 11
103.739536088145
 21
-12.532744739751877
 31
0.0
 11
103.76296204838445
 21
-12.526506964727346
 31
0.0
 11
103.78583919614958
 21
-12.52139712885069
 31
0.0
 11
103.80963236249008
 21
-12.516893936794839
 31
0.0
 11
103.82958470033527
 21
-12.513642157190514
 31
0.0
 11
103.84784149909309
 21
-12.510912815439427
 31
0.0
 11
103.86376788436307
 21
-12.508599929384406
 31
0.0
 11
103.8792881422488
 21
-12.506516820224491
 31
0.0
 11
103.92664510615985
 21
-12.502009994226221
 31
0.0
 11
103.99519219656329
 21
-12.50000000000011
 31
0.0
  0
SPLINE
  5
E3
100
AcDbEntity
  8
0
  6
CONTINUOUS
 62
             7
100
AcDbSpline
210
0.0
220
0.0
230
1.0
 70
             0
 71
             3
 72
            11
 73
             7
 74
             9
 42
0.00000000001
 43
0.00000000001
 44
0.00000000001
 40
3.6867870706126231
 40
3.6867870706126231
 40
3.6867870706126231
 40
3.6867870706126231
 40
4.1782472354201134
 40
4.4070574604619255
 40
4.6599270425508017
 40
5.1273277322523541
 40
5.1273277322523541
 40
5.1273277322523541
 40
5.1273277322523541
 10
110.8845507395736
 20
-23.50015230484502
 30
0.0
 10
111.065405085785
 20
-23.675124621733321
 30
0.0
 10
111.237891716313
 20
-23.841741548177911
 30
0.0
 10
111.40259694732811
 20
-24.000569461215719
 30
0.0
 10
111.5846209059472
 20
-24.176098102851309
 30
0.0
 10
111.7573808557225
 20
-24.34234487758312
 30
0.0
 10
111.9215940384989
 20
-24.50000000000011
 30
0.0
 11
110.8845507395736
 21
-23.50015230484502
 31
0.0
 11
111.11341244042772
 21
-23.721452503133996
 31
0.0
 11
111.27724124808725
 21
-23.879658147146081
 31
0.0
 11
111.34010339358181
 21
-23.940302319814336
 31
0.0
 11
111.40097459187497
 21
-23.999004997663246
 31
0.0
 11
111.47163669066146
 21
-24.067140231948315
 31
0.0
 11
111.54774302604817
 21
-24.140493222004686
 31
0.0
 11
111.70966224359707
 21
-24.296364738106327
 31
0.0
 11
111.9215940384989
 21
-24.50000000000011
 31
0.0
  0
SPLINE
  5
E2
100
AcDbEntity
  8
0
  6
CONTINUOUS
 62
             7
100
AcDbSpline
210
0.0
220
0.0
230
1.0
 70
             0
 71
             3
 72
            32
 73
            28
 74
            51
 42
0.00000000001
 43
0.00000000001
 44
0.00000000001
 40
0.0353537550791581
 40
0.0353537550791581
 40
0.0353537550791581
 40
0.0353537550791581
 40
0.6198968855205762
 40
0.9119747399995209
 40
1.1663655652610472
 40
1.4622763529342511
 40
1.7916653339472235
 40
2.2846969240570862
 40
2.7795969538484546
 40
3.2726348781421088
 40
3.5200572641990107
 40
3.7677167717044924
 40
4.0151405716334736
 40
4.2613959684063873
 40
4.5078850572790001
 40
4.7541416532987828
 40
5.2482901248987606
 40
5.7443212923631988
 40
6.2384788730058283
 40
6.4579231826336168
 40
6.7062471074923335
 40
6.97868744649017
 40
7.2502368942916124
 40
7.4978087875522617
 40
7.7166820179525919
 40
8.3026257617609414
 40
9.4776390471449901
 40
9.4776390471449901
 40
9.4776390471449901
 40
9.4776390471449901
 10
102.9951455166706
 20
-27.50000000000011
 30
0.0
 10
102.9951455166706
 20
-27.79207697452301
 30
0.0
 10
102.9738173093161
 20
-28.083764409851991
 30
0.0
 10
102.9313308875155
 20
-28.372735648973819
 30
0.0
 10
102.89432652125321
 20
-28.62442070783661
 30
0.0
 10
102.8353424261405
 20
-28.914393242372402
 30
0.0
 10
102.7403757195472
 20
-29.229795248471898
 30
0.0
 10
102.5982289294049
 20
-29.701891042668901
 30
0.0
 10
102.3984324866307
 20
-30.15466849456141
 30
0.0
 10
102.1455043988028
 20
-30.577886850944399
 30
0.0
 10
102.0185768990962
 20
-30.7902715183296
 30
0.0
 10
101.8786332629616
 20
-30.994602158134999
 30
0.0
 10
101.7264750817462
 20
-31.18970834630062
 30
0.0
 10
101.57503543326369
 20
-31.383893189445701
 30
0.0
 10
101.4117843555093
 20
-31.568571170118219
 30
0.0
 10
101.2376481938133
 20
-31.742694426098101
 30
0.0
 10
100.88821951030521
 20
-32.092097212472787
 30
0.0
 10
100.4969630891933
 20
-32.396999380446118
 30
0.0
 10
100.0727666075998
 20
-32.650473362365908
 30
0.0
 10
99.884390454533843
 20
-32.76303547848002
 30
0.0
 10
99.665299538491922
 20
-32.879928344665899
 30
0.0
 10
99.416021129551211
 20
-32.989855653144019
 30
0.0
 10
99.16755787133593
 20
-33.099423494768807
 30
0.0
 10
98.934224998337129
 20
-33.182173798156697
 30
0.0
 10
98.724643188042137
 20
-33.245268613944923
 30
0.0
 10
98.16357342937971
 20
-33.414179231795401
 30
0.0
 10
97.580788310739024
 20
-33.500000000000107
 30
0.0
 10
96.994845223857908
 20
-33.500000000000107
 30
0.0
 11
102.9951455166706
 21
-27.50000000000011
 31
0.0
 11
102.98561195767006
 21
-27.873367170061929
 31
0.0
 11
102.96154288534827
 21
-28.150971731823496
 31
0.0
 11
102.94608784677276
 21
-28.270331604878855
 31
0.0
 11
102.92892178010175
 21
-28.389121184046754
 31
0.0
 11
102.91247879674204
 21
-28.499099771001884
 31
0.0
 11
102.89343124387831
 21
-28.615643510155618
 31
0.0
 11
102.86657616597961
 21
-28.756826558051063
 31
0.0
 11
102.83508514770317
 21
-28.896692061595289
 31
0.0
 11
102.79546204290914
 21
-29.04452391865302
 31
0.0
 11
102.75123931643689
 21
-29.193715232902413
 31
0.0
 11
102.67655232255143
 21
-29.437387090957383
 31
0.0
 11
102.59178641392491
 21
-29.688268073566277
 31
0.0
 11
102.49533027712557
 21
-29.927789501825924
 31
0.0
 11
102.38086899135355
 21
-30.164375139008342
 31
0.0
 11
102.24761686639462
 21
-30.404564327139571
 31
0.0
 11
102.1202612493154
 21
-30.620125592903676
 31
0.0
 11
102.06614144576825
 21
-30.710061894511799
 31
0.0
 11
102.01118561027501
 21
-30.797670890297002
 31
0.0
 11
101.94741596817478
 21
-30.893183737530496
 31
0.0
 11
101.87651084951187
 21
-30.993179147806352
 31
0.0
 11
101.8021608393117
 21
-31.092141545283933
 31
0.0
 11
101.72631540301991
 21
-31.189913095774926
 31
0.0
 11
101.65041871023587
 21
-31.286719128418017
 31
0.0
 11
101.57307646409529
 21
-31.382299653577775
 31
0.0
 11
101.49384394343555
 21
-31.474907809467656
 31
0.0
 11
101.4172149223013
 21
-31.559570642554924
 31
0.0
 11
101.34616292960919
 21
-31.6337414372259
 31
0.0
 11
101.27269336025358
 21
-31.70765185695274
 31
0.0
 11
101.09443804938148
 21
-31.884101221272569
 31
0.0
 11
100.89344188745324
 21
-32.07253333793372
 31
0.0
 11
100.69047813538758
 21
-32.242278596690369
 31
0.0
 11
100.47482819399474
 21
-32.398411270179963
 31
0.0
 11
100.2403067221819
 21
-32.548884771900653
 31
0.0
 11
100.02941855048869
 21
-32.676375521203141
 31
0.0
 11
99.954524834691512
 21
-32.720883663349206
 31
0.0
 11
99.879735457663855
 21
-32.763866772707551
 31
0.0
 11
99.780761820895137
 21
-32.817687523774211
 31
0.0
 11
99.670230980715132
 21
-32.873849159683537
 31
0.0
 11
99.543994405952844
 21
-32.932933669543637
 31
0.0
 11
99.415840561862993
 21
-32.989935280256709
 31
0.0
 11
99.287858395961138
 21
-33.045888435344182
 31
0.0
 11
99.159707468924069
 21
-33.099007899869264
 31
0.0
 11
99.044452532800321
 21
-33.142506898411078
 31
0.0
 11
98.94052834525489
 21
-33.178535875980359
 31
0.0
 11
98.864002757268509
 21
-33.203096738143415
 31
0.0
 11
98.792730273565539
 21
-33.224770928040741
 31
0.0
 11
98.573938716810574
 21
-33.28939793930536
 31
0.0
 11
98.321239815756485
 21
-33.356790342821945
 31
0.0
 11
97.745927452211589
 21
-33.460624558715367
 31
0.0
 11
96.994845223857908
 21
-33.500000000000107
 31
0.0
  0
SPLINE
  5
E1
100
AcDbEntity
  8
0
  6
CONTINUOUS
 62
             7
100
AcDbSpline
210
0.0
220
0.0
230
1.0
 70
             0
 71
             3
 72
            35
 73
            31
 74
           303
 42
0.00000000001
 43
0.00000000001
 44
0.00000000001
 40
0.0884379710559152
 40
0.0884379710559152
 40
0.0884379710559152
 40
0.0884379710559152
 40
0.1789327345921719
 40
0.2231288388379839
 40
0.3461367633409956
 40
0.4552474540717999
 40
0.5442104321772112
 40
0.5952479960234223
 40
0.639628707305656
 40
0.6760814100585646
 40
0.7115856889966089
 40
0.7334186051603666
 40
0.7457799735870564
 40
0.7572278704052632
 40
0.7706533515417918
 40
0.7800153218775646
 40
0.7843542941280095
 40
0.787076612158817
 40
0.7887836360443311
 40
0.789805920178264
 40
0.7904996641752425
 40
0.7909419270819421
 40
0.7911760054245354
 40
0.791347052377095
 40
0.7914554184195254
 40
0.7915105941850997
 40
0.7915487869836665
 40
0.7915721828472191
 40
0.7915960144593297
 40
0.7916223541749773
 40
0.7916223541749773
 40
0.7916223541749773
 40
0.7916223541749773
 10
93.994680700559513
 20
-54.798212518254807
 30
0.0
 10
93.994680700559513
 20
-54.843706161058208
 30
0.0
 10
93.994713728730744
 20
-54.888707269670697
 30
0.0
 10
93.99477779019935
 20
-54.932903327488503
 30
0.0
 10
93.994956088002539
 20
-55.055911122771697
 30
0.0
 10
93.995363628130747
 20
-55.16502105239681
 30
0.0
 10
93.995866046743913
 20
-55.253982611785801
 30
0.0
 10
93.99615428149724
 20
-55.305019361722323
 30
0.0
 10
93.996473617544609
 20
-55.349398924117708
 30
0.0
 10
93.99679810097706
 20
-55.38585018264871
 30
0.0
 10
93.997114142022724
 20
-55.421353054940511
 30
0.0
 10
93.997380234680634
 20
-55.443184349517587
 30
0.0
 10
93.997547057056124
 20
-55.455544592220519
 30
0.0
 10
93.997701551710406
 20
-55.466991446502902
 30
0.0
 10
93.997907469804659
 20
-55.480415348375523
 30
0.0
 10
93.998135405042433
 20
-55.489774543538317
 30
0.0
 10
93.998241045696716
 20
-55.494112229585312
 30
0.0
 10
93.998333316297362
 20
-55.496832983450901
 30
0.0
 10
93.998412006311526
 20
-55.498538192654308
 30
0.0
 10
93.998459131342315
 20
-55.499559390030903
 30
0.0
 10
93.998503020212354
 20
-55.50025174434802
 30
0.0
 10
93.998543717974428
 20
-55.500692130736098
 30
0.0
 10
93.998565258249641
 20
-55.500925215885808
 30
0.0
 10
93.998586571159251
 20
-55.501094929821193
 30
0.0
 10
93.998607652019928
 20
-55.501201225618217
 30
0.0
 10
93.998618385572627
 20
-55.501255347295512
 30
0.0
 10
93.998628869567256
 20
-55.50129207297752
 30
0.0
 10
93.99863910465973
 20
-55.501313111259613
 30
0.0
 10
93.998649530381158
 20
-55.501334541380203
 30
0.0
 10
93.998659896967752
 20
-55.501340103030117
 30
0.0
 10
93.998670203365123
 20
-55.501329796635702
 30
0.0
 11
93.994680700559513
 21
-54.798212518254807
 31
0.0
 11
93.994680733193277
 21
-54.801222881182987
 31
0.0
 11
93.994680830129468
 21
-54.804188386748791
 31
0.0
 11
93.994680989920525
 21
-54.807109388684857
 31
0.0
 11
93.994681211118831
 21
-54.809986240723759
 31
0.0
 11
93.994681492276811
 21
-54.812819296598121
 31
0.0
 11
93.994681831946806
 21
-54.815608910040538
 31
0.0
 11
93.994682228681285
 21
-54.818355434783641
 31
0.0
 11
93.994682681032629
 21
-54.821059224560003
 31
0.0
 11
93.994683187553221
 21
-54.823720633102248
 31
0.0
 11
93.994683746795488
 21
-54.826340014142986
 31
0.0
 11
93.994684357311826
 21
-54.828917721414811
 31
0.0
 11
93.994685017654646
 21
-54.831454108650341
 31
0.0
 11
93.994685726376332
 21
-54.833949529582178
 31
0.0
 11
93.994686482029309
 21
-54.836404337942923
 31
0.0
 11
93.994687283165973
 21
-54.838818887465195
 31
0.0
 11
93.994688128338666
 21
-54.841193531881572
 31
0.0
 11
93.994689016099898
 21
-54.843528624924701
 31
0.0
 11
93.994689945002008
 21
-54.845824520327163
 31
0.0
 11
93.994690913597424
 21
-54.84808157182156
 31
0.0
 11
93.994691920438498
 21
-54.850300133140514
 31
0.0
 11
93.9946929640777
 21
-54.85248055801663
 31
0.0
 11
93.994694043067369
 21
-54.854623200182502
 31
0.0
 11
93.994695155959988
 21
-54.85672841337076
 31
0.0
 11
93.994696301307869
 21
-54.858796551313972
 31
0.0
 11
93.994697477663451
 21
-54.860827967744761
 31
0.0
 11
93.994698683579188
 21
-54.862823016395758
 31
0.0
 11
93.99469991760742
 21
-54.864782050999544
 31
0.0
 11
93.994701178300531
 21
-54.866705425288721
 31
0.0
 11
93.994702464210988
 21
-54.868593492995906
 31
0.0
 11
93.994703773891189
 21
-54.870446607853722
 31
0.0
 11
93.994705105893459
 21
-54.872265123594744
 31
0.0
 11
93.994706458770281
 21
-54.874049393951594
 31
0.0
 11
93.994707831074038
 21
-54.875799772656876
 31
0.0
 11
93.994709221357141
 21
-54.87751661344322
 31
0.0
 11
93.99471062817193
 21
-54.879200270043157
 31
0.0
 11
93.994712050070873
 21
-54.880851096189367
 31
0.0
 11
93.994713485606383
 21
-54.882469445614447
 31
0.0
 11
93.994714933330812
 21
-54.884055672050991
 31
0.0
 11
93.994716391796572
 21
-54.885610129231594
 31
0.0
 11
93.99471785955609
 21
-54.887133170888887
 31
0.0
 11
93.994719335161761
 21
-54.888625150755459
 31
0.0
 11
93.994720817165984
 21
-54.890086422563904
 31
0.0
 11
93.994722304121169
 21
-54.89151734004686
 31
0.0
 11
93.994723794579699
 21
-54.892918256936916
 31
0.0
 11
93.994725287093999
 21
-54.894289526966688
 31
0.0
 11
93.994726850461305
 21
-54.895693777616188
 31
0.0
 11
93.994728417465282
 21
-54.897069544442225
 31
0.0
 11
93.994729991076525
 21
-54.898420426495079
 31
0.0
 11
93.994731574265614
 21
-54.899750022825046
 31
0.0
 11
93.99473317000313
 21
-54.901061932482378
 31
0.0
 11
93.994734781259695
 21
-54.902359754517363
 31
0.0
 11
93.994736411005874
 21
-54.903647087980282
 31
0.0
 11
93.994738062212264
 21
-54.904927531921437
 31
0.0
 11
93.994739737849414
 21
-54.906204685391067
 31
0.0
 11
93.994741440888006
 21
-54.907482147439488
 31
0.0
 11
93.99474317429852
 21
-54.908763517116952
 31
0.0
 11
93.994744941051636
 21
-54.910052393473748
 31
0.0
 11
93.994746744117904
 21
-54.911352375560178
 31
0.0
 11
93.994748586467892
 21
-54.912667062426479
 31
0.0
 11
93.994750471072223
 21
-54.914000053122962
 31
0.0
 11
93.99475240090149
 21
-54.915354946699914
 31
0.0
 11
93.99475437892626
 21
-54.916735342207573
 31
0.0
 11
93.994756408117127
 21
-54.91814483869625
 31
0.0
 11
93.994758491444713
 21
-54.919587035216239
 31
0.0
 11
93.994760631879544
 21
-54.921065530817771
 31
0.0
 11
93.994762832392254
 21
-54.922583924551169
 31
0.0
 11
93.994765153788308
 21
-54.924185268903315
 31
0.0
 11
93.994767541631248
 21
-54.925831323337867
 31
0.0
 11
93.994769996075973
 21
-54.927521062987772
 31
0.0
 11
93.994772517277255
 21
-54.929253462985876
 31
0.0
 11
93.994775105389962
 21
-54.93102749846512
 31
0.0
 11
93.994777760568965
 21
-54.932842144558371
 31
0.0
 11
93.994780482969048
 21
-54.934696376398527
 31
0.0
 11
93.994783272745082
 21
-54.936589169118506
 31
0.0
 11
93.994786130051921
 21
-54.938519497851203
 31
0.0
 11
93.994789055044379
 21
-54.940486337729496
 31
0.0
 11
93.994792047877311
 21
-54.942488663886316
 31
0.0
 11
93.994795108705532
 21
-54.94452545145451
 31
0.0
 11
93.994798237683938
 21
-54.946595675567046
 31
0.0
 11
93.9948014349673
 21
-54.948698311356765
 31
0.0
 11
93.994804700710503
 21
-54.950832333956569
 31
0.0
 11
93.994808035068388
 21
-54.952996718499378
 31
0.0
 11
93.994811438195754
 21
-54.955190440118081
 31
0.0
 11
93.994814910247513
 21
-54.957412473945588
 31
0.0
 11
93.994818451378407
 21
-54.959661795114769
 31
0.0
 11
93.994822061743378
 21
-54.961937378758542
 31
0.0
 11
93.994825741497195
 21
-54.96423820000981
 31
0.0
 11
93.994829490794729
 21
-54.966563234001455
 31
0.0
 11
93.99483330979082
 21
-54.968911455866383
 31
0.0
 11
93.994837198640312
 21
-54.971281840737504
 31
0.0
 11
93.994841157498016
 21
-54.973673363747686
 31
0.0
 11
93.994845186518802
 21
-54.976085000029848
 31
0.0
 11
93.994849285857455
 21
-54.978515724716864
 31
0.0
 11
93.994853455668931
 21
-54.980964512941689
 31
0.0
 11
93.994857696107957
 21
-54.983430339837163
 31
0.0
 11
93.994862007329417
 21
-54.985912180536204
 31
0.0
 11
93.994866389488152
 21
-54.988409010171715
 31
0.0
 11
93.994870842739005
 21
-54.990919803876579
 31
0.0
 11
93.994875367236816
 21
-54.993443536783722
 31
0.0
 11
93.994879963136412
 21
-54.995979184026012
 31
0.0
 11
93.994884630592622
 21
-54.998525720736353
 31
0.0
 11
93.994889369760344
 21
-55.001082122047663
 31
0.0
 11
93.994894180794347
 21
-55.003647363092803
 31
0.0
 11
93.994899063849516
 21
-55.006220419004705
 31
0.0
 11
93.994904019080678
 21
-55.008800264916268
 31
0.0
 11
93.994909046642675
 21
-55.011385875960357
 31
0.0
 11
93.994914146690334
 21
-55.0139762272699
 31
0.0
 11
93.994919319378511
 21
-55.016570293977786
 31
0.0
 11
93.994924564862032
 21
-55.019167051216904
 31
0.0
 11
93.994929883295782
 21
-55.021765474120173
 31
0.0
 11
93.994935274834532
 21
-55.024364537820468
 31
0.0
 11
93.994940739633151
 21
-55.026963217450671
 31
0.0
 11
93.994946277846509
 21
-55.029560488143744
 31
0.0
 11
93.994951889629419
 21
-55.032155325032534
 31
0.0
 11
93.994957575136709
 21
-55.034746703249951
 31
0.0
 11
93.994963334523234
 21
-55.037333597928885
 31
0.0
 11
93.994969167943864
 21
-55.039914984202255
 31
0.0
 11
93.994975075553384
 21
-55.042489837202943
 31
0.0
 11
93.994981057506664
 21
-55.045057132063839
 31
0.0
 11
93.994987113958558
 21
-55.04761584391786
 31
0.0
 11
93.994993245063867
 21
-55.050164947897898
 31
0.0
 11
93.994999450977446
 21
-55.052703419136833
 31
0.0
 11
93.99500573185415
 21
-55.055230232767585
 31
0.0
 11
93.995017696078747
 21
-55.059928483279506
 31
0.0
 11
93.995029927655509
 21
-55.064584225007174
 31
0.0
 11
93.995042430525316
 21
-55.069199421983107
 31
0.0
 11
93.995055208629012
 21
-55.073776038239757
 31
0.0
 11
93.995068265907506
 21
-55.078316037809593
 31
0.0
 11
93.995081606301653
 21
-55.082821384725079
 31
0.0
 11
93.995095233752352
 21
-55.087294043018758
 31
0.0
 11
93.995109152200428
 21
-55.091735976723022
 31
0.0
 11
93.995123365586835
 21
-55.096149149870406
 31
0.0
 11
93.9951378778524
 21
-55.100535526493374
 31
0.0
 11
93.995152692937978
 21
-55.104897070624389
 31
0.0
 11
93.995167814784494
 21
-55.109235746295944
 31
0.0
 11
93.99518324733279
 21
-55.113553517540495
 31
0.0
 11
93.995198994523747
 21
-55.117852348390528
 31
0.0
 11
93.99521506029825
 21
-55.122134202878527
 31
0.0
 11
93.995231448597153
 21
-55.126401045036971
 31
0.0
 11
93.995248163361396
 21
-55.130654838898337
 31
0.0
 11
93.995265208531777
 21
-55.134897548495076
 31
0.0
 11
93.995282588049221
 21
-55.1391311378597
 31
0.0
 11
93.995300305854556
 21
-55.143357571024666
 31
0.0
 11
93.995318365888693
 21
-55.147578812022431
 31
0.0
 11
93.9953367720925
 21
-55.151796824885523
 31
0.0
 11
93.995355528406876
 21
-55.156013573646391
 31
0.0
 11
93.995374638772645
 21
-55.160231022337499
 31
0.0
 11
93.995394107130721
 21
-55.164451134991339
 31
0.0
 11
93.995413937421972
 21
-55.168675875640375
 31
0.0
 11
93.995434133587267
 21
-55.172907208317092
 31
0.0
 11
93.995452219874039
 21
-55.176639670333628
 31
0.0
 11
93.99547057160224
 21
-55.180376757933857
 31
0.0
 11
93.995489167454949
 21
-55.18411646224488
 31
0.0
 11
93.995507986115285
 21
-55.187856774393829
 31
0.0
 11
93.995527006266386
 21
-55.191595685507771
 31
0.0
 11
93.995546206591399
 21
-55.195331186713879
 31
0.0
 11
93.99556556577339
 21
-55.1990612691392
 31
0.0
 11
93.995585062495522
 21
-55.202783923910893
 31
0.0
 11
93.995604675440916
 21
-55.206497142156053
 31
0.0
 11
93.995624383292679
 21
-55.210198915001797
 31
0.0
 11
93.99564416473396
 21
-55.213887233575228
 31
0.0
 11
93.995663998447824
 21
-55.217560089003456
 31
0.0
 11
93.995683863117463
 21
-55.221215472413611
 31
0.0
 11
93.995703737425956
 21
-55.22485137493279
 31
0.0
 11
93.995723600056408
 21
-55.228465787688087
 31
0.0
 11
93.995743429691998
 21
-55.232056701806634
 31
0.0
 11
93.99576320501582
 21
-55.235622108415555
 31
0.0
 11
93.995782904710978
 21
-55.239159998641938
 31
0.0
 11
93.995802507460638
 21
-55.242668363612914
 31
0.0
 11
93.995821991947864
 21
-55.246145194455565
 31
0.0
 11
93.995841336855818
 21
-55.249588482297028
 31
0.0
 11
93.995860520867637
 21
-55.252996218264421
 31
0.0
 11
93.995879522666399
 21
-55.256366393484825
 31
0.0
 11
93.995898320935254
 21
-55.259696999085371
 31
0.0
 11
93.995916894357336
 21
-55.26298602619319
 31
0.0
 11
93.995934436100313
 21
-55.26609133699197
 31
0.0
 11
93.995951809450858
 21
-55.269162354396087
 31
0.0
 11
93.995969071068416
 21
-55.272204634188903
 31
0.0
 11
93.995986277612531
 21
-55.275223732153798
 31
0.0
 11
93.996003485742591
 21
-55.278225204074083
 31
0.0
 11
93.996020752118127
 21
-55.281214605733147
 31
0.0
 11
93.996038133398599
 21
-55.28419749291438
 31
0.0
 11
93.996055686243494
 21
-55.287179421401099
 31
0.0
 11
93.996073467312272
 21
-55.2901659469767
 31
0.0
 11
93.996091533264376
 21
-55.293162625424529
 31
0.0
 11
93.996109940759325
 21
-55.296175012527968
 31
0.0
 11
93.996128746456606
 21
-55.299208664070356
 31
0.0
 11
93.99614800701562
 21
-55.302269135835076
 31
0.0
 11
93.996167779095913
 21
-55.305361983605472
 31
0.0
 11
93.99618811935693
 21
-55.308492763164914
 31
0.0
 11
93.996209142267546
 21
-55.311675987693363
 31
0.0
 11
93.996230770284242
 21
-55.314898079111664
 31
0.0
 11
93.996252979480175
 21
-55.318154124928093
 31
0.0
 11
93.996275745928401
 21
-55.321439212650901
 31
0.0
 11
93.996299045702045
 21
-55.324748429788343
 31
0.0
 11
93.996322854874222
 21
-55.328076863848693
 31
0.0
 11
93.996347149518058
 21
-55.331419602340226
 31
0.0
 11
93.996371905706624
 21
-55.334771732771188
 31
0.0
 11
93.996397099513061
 21
-55.338128342649838
 31
0.0
 11
93.996422707010481
 21
-55.341484519484489
 31
0.0
 11
93.99644870427197
 21
-55.344835350783342
 31
0.0
 11
93.996475067370639
 21
-55.348175924054694
 31
0.0
 11
93.996501772379617
 21
-55.351501326806812
 31
0.0
 11
93.996523950159613
 21
-55.354219063953124
 31
0.0
 11
93.996546355238394
 21
-55.356927583396462
 31
0.0
 11
93.996569000390934
 21
-55.359631216200867
 31
0.0
 11
93.99659189839231
 21
-55.362334293430472
 31
0.0
 11
93.996615062017497
 21
-55.365041146149359
 31
0.0
 11
93.996638504041542
 21
-55.367756105421648
 31
0.0
 11
93.996662237239434
 21
-55.370483502311409
 31
0.0
 11
93.996686274386136
 21
-55.37322766788273
 31
0.0
 11
93.996710628256764
 21
-55.375992933199747
 31
0.0
 11
93.996735311626296
 21
-55.378783629326541
 31
0.0
 11
93.996760337269706
 21
-55.381604087327197
 31
0.0
 11
93.996785717962013
 21
-55.384458638265819
 31
0.0
 11
93.996811466478292
 21
-55.387351613206505
 31
0.0
 11
93.996835079468397
 21
-55.390003281864878
 31
0.0
 11
93.996859003077532
 21
-55.392684284832825
 31
0.0
 11
93.996883236609634
 21
-55.395388984446342
 31
0.0
 11
93.996907779368669
 21
-55.398111743041419
 31
0.0
 11
93.996932630658591
 21
-55.400846922954059
 31
0.0
 11
93.996957789783323
 21
-55.403588886520268
 31
0.0
 11
93.99698325604686
 21
-55.406331996076041
 31
0.0
 11
93.997009028753126
 21
-55.409070613957383
 31
0.0
 11
93.997035107206059
 21
-55.411799102500268
 31
0.0
 11
93.997061490709655
 21
-55.414511824040744
 31
0.0
 11
93.99708817856785
 21
-55.417203140914772
 31
0.0
 11
93.997115170084555
 21
-55.419867415458349
 31
0.0
 11
93.997142464563794
 21
-55.422499010007499
 31
0.0
 11
93.997170061309461
 21
-55.425092286898206
 31
0.0
 11
93.997196733614913
 21
-55.427532635971851
 31
0.0
 11
93.997223632530307
 21
-55.429932367033615
 31
0.0
 11
93.997250708721054
 21
-55.432291082308453
 31
0.0
 11
93.997277912852553
 21
-55.434608384021267
 31
0.0
 11
93.997305195590116
 21
-55.436883874396969
 31
0.0
 11
93.997332507599211
 21
-55.43911715566054
 31
0.0
 11
93.997359799545166
 21
-55.441307830036827
 31
0.0
 11
93.997387022093392
 21
-55.443455499750819
 31
0.0
 11
93.997414125909216
 21
-55.445559767027405
 31
0.0
 11
93.997437037438615
 21
-55.447314486246547
 31
0.0
 11
93.997459936054
 21
-55.449049407057217
 31
0.0
 11
93.997482930061366
 21
-55.450776322412374
 31
0.0
 11
93.99750612776684
 21
-55.452507025265014
 31
0.0
 11
93.99752963747639
 21
-55.454253308568077
 31
0.0
 11
93.997553567496141
 21
-55.456026965274546
 31
0.0
 11
93.997570501179993
 21
-55.457281068776638
 31
0.0
 11
93.997587773198802
 21
-55.458556934348323
 31
0.0
 11
93.997605466863362
 21
-55.459857428749757
 31
0.0
 11
93.997623665484468
 21
-55.461185418741046
 31
0.0
 11
93.997642452372943
 21
-55.462543771082323
 31
0.0
 11
93.997661910839511
 21
-55.46393535253371
 31
0.0
 11
93.99768212419508
 21
-55.46536302985534
 31
0.0
 11
93.997703175750388
 21
-55.466829669807332
 31
0.0
 11
93.997726094658432
 21
-55.468401235227056
 31
0.0
 11
93.997750059147677
 21
-55.470010140093258
 31
0.0
 11
93.99777511340848
 21
-55.471648268524376
 31
0.0
 11
93.997801301631341
 21
-55.473307504638854
 31
0.0
 11
93.997828668006633
 21
-55.474979732555141
 31
0.0
 11
93.997857256724799
 21
-55.476656836391697
 31
0.0
 11
93.997887111976269
 21
-55.478330700266952
 31
0.0
 11
93.997918277951484
 21
-55.479993208299369
 31
0.0
 11
93.997950798840861
 21
-55.481636244607401
 31
0.0
 11
93.997974269545423
 21
-55.482766136059212
 31
0.0
 11
93.997998241255573
 21
-55.483879843487578
 31
0.0
 11
93.998022534638508
 21
-55.484974597811629
 31
0.0
 11
93.998046970361344
 21
-55.486047629950455
 31
0.0
 11
93.998071369091292
 21
-55.487096170823193
 31
0.0
 11
93.998095551495567
 21
-55.488117451348984
 31
0.0
 11
93.998119338241253
 21
-55.489108702446913
 31
0.0
 11
93.99814254999562
 21
-55.490067155036151
 31
0.0
 11
93.998165007425797
 21
-55.490990040035783
 31
0.0
 11
93.998187675528186
 21
-55.49191573573485
 31
0.0
 11
93.998210604675776
 21
-55.492821706634956
 31
0.0
 11
93.998235071207233
 21
-55.493729916665878
 31
0.0
 11
93.998262351461349
 21
-55.494662329757432
 31
0.0
 11
93.998288219994123
 21
-55.495473099779936
 31
0.0
 11
93.998317450890937
 21
-55.496306336388074
 31
0.0
 11
93.998350544241447
 21
-55.497152197949021
 31
0.0
 11
93.998385163212376
 21
-55.497949739568426
 31
0.0
 11
93.998421177599511
 21
-55.498736934067267
 31
0.0
 11
93.998443011777326
 21
-55.499200954575329
 31
0.0
 11
93.998467654297116
 21
-55.499671080649961
 31
0.0
 11
93.998487699594392
 21
-55.499999420510271
 31
0.0
 11
93.998512103581419
 21
-55.500332688382883
 31
0.0
 11
93.99853024292868
 21
-55.500544150348283
 31
0.0
 11
93.998548662806897
 21
-55.500745638270487
 31
0.0
 11
93.998558163777304
 21
-55.50084644189586
 31
0.0
 11
93.998569036130263
 21
-55.500950052600281
 31
0.0
 11
93.998578950215375
 21
-55.501031180174103
 31
0.0
 11
93.998591423967326
 21
-55.501114304218198
 31
0.0
 11
93.998600786833066
 21
-55.501165972502292
 31
0.0
 11
93.998610299667803
 21
-55.501214575824676
 31
0.0
 11
93.998615011920066
 21
-55.501237773068603
 31
0.0
 11
93.998620481938403
 21
-55.501261411418575
 31
0.0
 11
93.998625214642075
 21
-55.501278596266424
 31
0.0
 11
93.998630909457589
 21
-55.501295110886552
 31
0.0
 11
93.998634912582247
 21
-55.501304350037131
 31
0.0
 11
93.998639306229563
 21
-55.501313525587349
 31
0.0
 11
93.998644233682896
 21
-55.501323209870471
 31
0.0
 11
93.998649909692546
 21
-55.501331768089081
 31
0.0
 11
93.99865789595421
 21
-55.501336677922964
 31
0.0
 11
93.998670203365123
 21
-55.501329796635702
 31
0.0
  0
SPLINE
  5
E0
100
AcDbEntity
  8
0
  6
CONTINUOUS
 62
             7
100
AcDbSpline
210
0.0
220
0.0
230
1.0
 70
             0
 71
             3
 72
            29
 73
            25
 74
            45
 42
0.00000000001
 43
0.00000000001
 44
0.00000000001
 40
0.0058844152650976
 40
0.0058844152650976
 40
0.0058844152650976
 40
0.0058844152650976
 40
0.097307512167277
 40
0.1519945951228137
 40
0.2068916616120324
 40
0.2562098878321482
 40
0.2986091728850896
 40
0.3618688074994582
 40
0.4463895907842461
 40
0.5455393499392601
 40
0.6278978584410399
 40
0.7105696733951216
 40
0.7929287744429665
 40
0.892351852988993
 40
0.9770791278399028
 40
1.0404214700842322
 40
1.122594014677607
 40
1.2050777611410302
 40
1.2872508118100967
 40
1.342148391659534
 40
1.3914667751695551
 40
1.4338656561862215
 40
1.4885519217121694
 40
1.5799747920641087
 40
1.5799747920641087
 40
1.5799747920641087
 40
1.5799747920641087
 10
93.994680700559513
 20
-34.500000000000107
 30
0.0
 10
93.994680700559513
 20
-34.457722162250803
 30
0.0
 10
93.997361514715863
 20
-34.408650075147619
 30
0.0
 10
94.005316483276943
 20
-34.35454466398221
 30
0.0
 10
94.01330199675516
 20
-34.300231502744708
 30
0.0
 10
94.024918118089147
 20
-34.252300790642209
 30
0.0
 10
94.037142383415357
 20
-34.211701939547197
 30
0.0
 10
94.055380958829915
 20
-34.15112854820751
 30
0.0
 10
94.085424766168956
 20
-34.0721277099357
 30
0.0
 10
94.136288839721544
 20
-33.987018834005312
 30
0.0
 10
94.178538959841148
 20
-33.916323351317118
 30
0.0
 10
94.229360939808657
 20
-33.851117865811801
 30
0.0
 10
94.287600047106821
 20
-33.792883615524516
 30
0.0
 10
94.357905711759429
 20
-33.7225838142067
 30
0.0
 10
94.427374199405733
 20
-33.674077728734908
 30
0.0
 10
94.481748888801746
 20
-33.641587030464713
 30
0.0
 10
94.552287906318838
 20
-33.59943760469551
 30
0.0
 10
94.62775316928213
 20
-33.566142522227921
 30
0.0
 10
94.706437955320212
 20
-33.542454662417413
 30
0.0
 10
94.759005120458824
 20
-33.526629447644297
 30
0.0
 10
94.807334106918461
 20
-33.516800306286797
 30
0.0
 10
94.849282172852156
 20
-33.510633874912997
 30
0.0
 10
94.903386975076728
 20
-33.50268038426961
 30
0.0
 10
94.952458710953408
 20
-33.500000000000107
 30
0.0
 10
94.99473669630413
 20
-33.500000000000107
 30
0.0
 11
93.994680700559513
 21
-34.500000000000107
 31
0.0
 11
93.995880878850514
 21
-34.444293066624304
 31
0.0
 11
93.999249862894075
 21
-34.400126746373772
 31
0.0
 11
94.002152509314769
 21
-34.376604335376776
 31
0.0
 11
94.005599606470582
 21
-34.352619012524976
 31
0.0
 11
94.009585589463839
 21
-34.326274669904734
 31
0.0
 11
94.014420246169763
 21
-34.298755105600378
 31
0.0
 11
94.019688517136601
 21
-34.274482011824709
 31
0.0
 11
94.025456987504597
 21
-34.251761298532507
 31
0.0
 11
94.030515762341523
 21
-34.233866341093389
 31
0.0
 11
94.035786612014419
 21
-34.216204685500124
 31
0.0
 11
94.044409724471137
 21
-34.187850718972307
 31
0.0
 11
94.054039739235861
 21
-34.15786174338556
 31
0.0
 11
94.068713233954554
 21
-34.117360753279073
 31
0.0
 11
94.086349130091648
 21
-34.076808322274992
 31
0.0
 11
94.111316997245751
 21
-34.029581661063894
 31
0.0
 11
94.137805765992496
 21
-33.984480620276663
 31
0.0
 11
94.158819273895659
 21
-33.949731413718411
 31
0.0
 11
94.180359111152853
 21
-33.916572794129223
 31
0.0
 11
94.204262022283942
 21
-33.883966054572021
 31
0.0
 11
94.230037733355033
 21
-33.852831522520546
 31
0.0
 11
94.256915227212673
 21
-33.823864675600063
 31
0.0
 11
94.285468212671844
 21
-33.795015272169287
 31
0.0
 11
94.322850035182952
 21
-33.758204726998656
 31
0.0
 11
94.362688977485163
 21
-33.722346225637125
 31
0.0
 11
94.397516139883223
 21
-33.695457924517086
 31
0.0
 11
94.431218006161544
 21
-33.67254692872244
 31
0.0
 11
94.454964756670037
 21
-33.657687196994999
 31
0.0
 11
94.479320783965903
 21
-33.643037904436895
 31
0.0
 11
94.514463402327593
 21
-33.62228402887537
 31
0.0
 11
94.552042153781969
 21
-33.601544578552904
 31
0.0
 11
94.590273546272471
 21
-33.583187678452518
 31
0.0
 11
94.630023453775706
 21
-33.567216263501699
 31
0.0
 11
94.671838474378745
 21
-33.553090400996574
 31
0.0
 11
94.712451641395973
 21
-33.540644257129721
 31
0.0
 11
94.737316752338032
 21
-33.533275052943424
 31
0.0
 11
94.761955212579892
 21
-33.52667233638477
 31
0.0
 11
94.785225574113824
 21
-33.521430644494927
 31
0.0
 11
94.808471774156644
 21
-33.516997317110473
 31
0.0
 11
94.827434650278576
 21
-33.513891026150908
 31
0.0
 11
94.845770663338271
 21
-33.511150072309796
 31
0.0
 11
94.869426097180963
 21
-33.507752068177837
 31
0.0
 11
94.893842666782234
 21
-33.504718465990706
 31
0.0
 11
94.938902083914016
 21
-33.5012187433137
 31
0.0
 11
94.99473669630413
 21
-33.500000000000107
 31
0.0
  0
SPLINE
  5
DF
100
AcDbEntity
  8
0
  6
CONTINUOUS
 62
             7
100
AcDbSpline
210
0.0
220
0.0
230
1.0
 70
             0
 71
             3
 72
            35
 73
            31
 74
           376
 42
0.00000000001
 43
0.00000000001
 44
0.00000000001
 40
0.0073578512609386
 40
0.0073578512609386
 40
0.0073578512609386
 40
0.0073578512609386
 40
0.007384179282901
 40
0.0074079928109645
 40
0.0074313625879455
 40
0.0074695162579159
 40
0.0075246697571017
 40
0.0076342001659989
 40
0.0078065836007805
 40
0.0080377757406363
 40
0.0085156180153457
 40
0.009246446537968
 40
0.0101946292938755
 40
0.0121582660739985
 40
0.0151178537491109
 40
0.0189587225326921
 40
0.0267880083975768
 40
0.0383992435914993
 40
0.0531794520756249
 40
0.0768956091120732
 40
0.1042579301845988
 40
0.1228661523380275
 40
0.1737183254293727
 40
0.2255283400172401
 40
0.2547728078384139
 40
0.310176525115177
 40
0.42184860440922
 40
0.5757845022131429
 40
0.6151071809045812
 40
0.7105423447148795
 40
0.7105423447148795
 40
0.7105423447148795
 40
0.7105423447148795
 10
-93.998670203362053
 20
-55.501329796634202
 30
0.0
 10
-93.998659900522455
 20
-55.501340099473794
 30
0.0
 10
-93.998649537533652
 20
-55.501334545216586
 30
0.0
 10
-93.998639115450487
 20
-55.501313133437087
 30
0.0
 10
-93.998628887576672
 20
-55.501292120653517
 30
0.0
 10
-93.998618407231675
 20
-55.501255434622102
 30
0.0
 10
-93.998607673837341
 20
-55.501201335613622
 30
0.0
 10
-93.99858635818066
 20
-55.501093899338308
 30
0.0
 10
-93.998565046427075
 20
-55.500922838361618
 30
0.0
 10
-93.998543763902376
 20
-55.500692627893407
 30
0.0
 10
-93.998499775858477
 20
-55.500216814598623
 30
0.0
 10
-93.99845581910165
 20
-55.499487309195622
 30
0.0
 10
-93.998412095960759
 20
-55.498540135069312
 30
0.0
 10
-93.998321547627938
 20
-55.496578587108218
 30
0.0
 10
-93.99822909053654
 20
-55.493620443958719
 30
0.0
 10
-93.998135555341094
 20
-55.489780714257307
 30
0.0
 10
-93.997944891763268
 20
-55.481953750315
 30
0.0
 10
-93.997746841544085
 20
-55.4703442042929
 30
0.0
 10
-93.997547337139451
 20
-55.455565342333102
 30
0.0
 10
-93.997227214605971
 20
-55.431851345914509
 30
0.0
 10
-93.99696405540044
 20
-55.404490290348093
 30
0.0
 10
-93.996798391400546
 20
-55.385882805640307
 30
0.0
 10
-93.996345668172353
 20
-55.3350326478255
 30
0.0
 10
-93.996031186295568
 20
-55.283223587684013
 30
0.0
 10
-93.995866029655247
 20
-55.253979586223409
 30
0.0
 10
-93.99555313998809
 20
-55.198576752467908
 30
0.0
 10
-93.995001127959085
 20
-55.0869060375218
 30
0.0
 10
-93.994777887300245
 20
-54.932970301591808
 30
0.0
 10
-93.994720860831364
 20
-54.893647664250807
 30
0.0
 10
-93.994680700558092
 20
-54.848379331370012
 30
0.0
 10
-93.994680700558092
 20
-54.798212518254807
 30
0.0
 11
-93.998670203362053
 21
-55.501329796634202
 31
0.0
 11
-93.998657899690301
 21
-55.50133667696339
 31
0.0
 11
-93.998649915032104
 21
-55.501331771417547
 31
0.0
 11
-93.998644241473087
 21
-55.5013232209891
 31
0.0
 11
-93.99863931601756
 21
-55.501313545494654
 31
0.0
 11
-93.998634925906799
 21
-55.501304382052432
 31
0.0
 11
-93.998630926037677
 21
-55.501295155602406
 31
0.0
 11
-93.998625235658281
 21
-55.501278665784987
 31
0.0
 11
-93.99862051001719
 21
-55.501261524155986
 31
0.0
 11
-93.998615055596588
 21
-55.50123797790846
 31
0.0
 11
-93.998610360590447
 21
-55.5012148775253
 31
0.0
 11
-93.998600744191265
 21
-55.501165748647452
 31
0.0
 11
-93.998591256525259
 21
-55.501113309783676
 31
0.0
 11
-93.998578674919557
 21
-55.501029120423183
 31
0.0
 11
-93.99856876942151
 21
-55.500947760526337
 31
0.0
 11
-93.998558320464369
 21
-55.500848165818958
 31
0.0
 11
-93.998549236676041
 21
-55.500751826216991
 31
0.0
 11
-93.998529384220987
 21
-55.500534303410461
 31
0.0
 11
-93.998509425894113
 21
-55.500298948041213
 31
0.0
 11
-93.99848348512694
 21
-55.499934283239966
 31
0.0
 11
-93.998462913570776
 21
-55.499585701406446
 31
0.0
 11
-93.998448336832666
 21
-55.499308837077649
 31
0.0
 11
-93.998435519093874
 21
-55.499045502283607
 31
0.0
 11
-93.998423228993701
 21
-55.498781309892038
 31
0.0
 11
-93.998403193636193
 21
-55.498345950237635
 31
0.0
 11
-93.998382242755113
 21
-55.497882754615659
 31
0.0
 11
-93.99836115853104
 21
-55.497400664411721
 31
0.0
 11
-93.998340723144466
 21
-55.496908621011421
 31
0.0
 11
-93.998312378493367
 21
-55.496164463384126
 31
0.0
 11
-93.998286973765317
 21
-55.495427646702581
 31
0.0
 11
-93.99826419812112
 21
-55.494707810385549
 31
0.0
 11
-93.998243740721477
 21
-55.494014593851773
 31
0.0
 11
-93.998224588941227
 21
-55.493329532383598
 31
0.0
 11
-93.99820705920115
 21
-55.492671264146622
 31
0.0
 11
-93.998190609769125
 21
-55.492027498756165
 31
0.0
 11
-93.998174698912948
 21
-55.49138594582751
 31
0.0
 11
-93.998158784900582
 21
-55.490734314975953
 31
0.0
 11
-93.998137869242285
 21
-55.489875076475009
 31
0.0
 11
-93.99811626848448
 21
-55.488983956960702
 31
0.0
 11
-93.998094181936295
 21
-55.48806538142955
 31
0.0
 11
-93.998071808906801
 21
-55.487123774878008
 31
0.0
 11
-93.998049348705038
 21
-55.486163562302579
 31
0.0
 11
-93.998027000640107
 21
-55.485189168699762
 31
0.0
 11
-93.998004964021092
 21
-55.484205019066025
 31
0.0
 11
-93.997983438157021
 21
-55.483215538397843
 31
0.0
 11
-93.997942863027035
 21
-55.481255958092078
 31
0.0
 11
-93.997904857857449
 21
-55.479299713559612
 31
0.0
 11
-93.997869216173527
 21
-55.477353683290303
 31
0.0
 11
-93.997835731500544
 21
-55.475424745773999
 31
0.0
 11
-93.997804197363649
 21
-55.473519779500513
 31
0.0
 11
-93.997774407288205
 21
-55.471645662959688
 31
0.0
 11
-93.997743637466641
 21
-55.469640498959627
 31
0.0
 11
-93.997714349297723
 21
-55.467667366952469
 31
0.0
 11
-93.997686194016012
 21
-55.465713385416485
 31
0.0
 11
-93.997658822856025
 21
-55.463765672829922
 31
0.0
 11
-93.997631887052322
 21
-55.461811347671059
 31
0.0
 11
-93.997605037839492
 21
-55.459837528418134
 31
0.0
 11
-93.997577926452095
 21
-55.457831333549407
 31
0.0
 11
-93.997552065121397
 21
-55.455914861802825
 31
0.0
 11
-93.997525754604354
 21
-55.453960799050634
 31
0.0
 11
-93.997499080968367
 21
-55.451971204743046
 31
0.0
 11
-93.99747213028084
 21
-55.449948138330285
 31
0.0
 11
-93.997444988609089
 21
-55.447893659262526
 31
0.0
 11
-93.997417742020517
 21
-55.445809826990008
 31
0.0
 11
-93.997390476582495
 21
-55.443698700962941
 31
0.0
 11
-93.997363278362414
 21
-55.441562340631528
 31
0.0
 11
-93.997336233427617
 21
-55.439402805445972
 31
0.0
 11
-93.997309427845522
 21
-55.437222154856507
 31
0.0
 11
-93.997282947683459
 21
-55.435022448313305
 31
0.0
 11
-93.997256879008845
 21
-55.432805745266606
 31
0.0
 11
-93.997239957030899
 21
-55.431336322716305
 31
0.0
 11
-93.99722326281011
 21
-55.429862831975534
 31
0.0
 11
-93.997206807840641
 21
-55.428387697265784
 31
0.0
 11
-93.997190603616744
 21
-55.426913342808582
 31
0.0
 11
-93.997174661632627
 21
-55.425442192825365
 31
0.0
 11
-93.997158993382484
 21
-55.423976671537638
 31
0.0
 11
-93.997143610360524
 21
-55.422519203166893
 31
0.0
 11
-93.997128524060983
 21
-55.421072211934614
 31
0.0
 11
-93.997113745978083
 21
-55.419638122062288
 31
0.0
 11
-93.997099287605991
 21
-55.418219357771378
 31
0.0
 11
-93.997085160438971
 21
-55.416818343283403
 31
0.0
 11
-93.997071375971231
 21
-55.415437502819842
 31
0.0
 11
-93.997057945696923
 21
-55.414079260602158
 31
0.0
 11
-93.997044881110341
 21
-55.412746040851864
 31
0.0
 11
-93.997032193705664
 21
-55.411440267790432
 31
0.0
 11
-93.997019894977058
 21
-55.410164365639346
 31
0.0
 11
-93.997007996418816
 21
-55.408920758620113
 31
0.0
 11
-93.996996509525104
 21
-55.407711870954188
 31
0.0
 11
-93.996985445790159
 21
-55.406540126863085
 31
0.0
 11
-93.99697481670816
 21
-55.405407950568275
 31
0.0
 11
-93.996964633773345
 21
-55.404317766291229
 31
0.0
 11
-93.99695470638575
 21
-55.403250057540177
 31
0.0
 11
-93.996945199164372
 21
-55.402222791383331
 31
0.0
 11
-93.996936056050728
 21
-55.401230190600472
 31
0.0
 11
-93.996927220986606
 21
-55.400266477971421
 31
0.0
 11
-93.996918637913609
 21
-55.399325876275967
 31
0.0
 11
-93.996910250773425
 21
-55.398402608293893
 31
0.0
 11
-93.996902003507728
 21
-55.397490896805024
 31
0.0
 11
-93.996893840058149
 21
-55.396584964589138
 31
0.0
 11
-93.996885704366406
 21
-55.395679034426045
 31
0.0
 11
-93.996877540374143
 21
-55.394767329095529
 31
0.0
 11
-93.996869292022993
 21
-55.393844071377401
 31
0.0
 11
-93.996860903254685
 21
-55.392903484051466
 31
0.0
 11
-93.996852318010852
 21
-55.391939789897506
 31
0.0
 11
-93.996843480233196
 21
-55.390947211695327
 31
0.0
 11
-93.996832861652734
 21
-55.389754438454254
 31
0.0
 11
-93.996821846530565
 21
-55.388516599775187
 31
0.0
 11
-93.996810453109305
 21
-55.387235219061701
 31
0.0
 11
-93.996798699631583
 21
-55.385911819717364
 31
0.0
 11
-93.996786604340102
 21
-55.384547925145746
 31
0.0
 11
-93.996774185477449
 21
-55.383145058750436
 31
0.0
 11
-93.996761461286312
 21
-55.381704743935018
 31
0.0
 11
-93.996748450009306
 21
-55.380228504103023
 31
0.0
 11
-93.996735169889092
 21
-55.378717862658071
 31
0.0
 11
-93.996721639168314
 21
-55.377174343003709
 31
0.0
 11
-93.996707876089602
 21
-55.375599468543534
 31
0.0
 11
-93.996693898895586
 21
-55.3739947626811
 31
0.0
 11
-93.996679725828969
 21
-55.372361748820005
 31
0.0
 11
-93.996665375132338
 21
-55.370701950363802
 31
0.0
 11
-93.99665086504838
 21
-55.36901689071609
 31
0.0
 11
-93.996636213819713
 21
-55.367308093280414
 31
0.0
 11
-93.99662143968898
 21
-55.36557708146038
 31
0.0
 11
-93.99660656089884
 21
-55.363825378659548
 31
0.0
 11
-93.996591595691953
 21
-55.362054508281481
 31
0.0
 11
-93.996576562310906
 21
-55.360265993729769
 31
0.0
 11
-93.996561478998402
 21
-55.358461358407993
 31
0.0
 11
-93.996546363997069
 21
-55.356642125719723
 31
0.0
 11
-93.99653123554954
 21
-55.354809819068521
 31
0.0
 11
-93.996516111898444
 21
-55.35296596185799
 31
0.0
 11
-93.996501011286512
 21
-55.351112077491678
 31
0.0
 11
-93.996485951956274
 21
-55.34924968937316
 31
0.0
 11
-93.996470952150446
 21
-55.347380320906026
 31
0.0
 11
-93.996456030111631
 21
-55.34550549549386
 31
0.0
 11
-93.996441204082487
 21
-55.343626736540202
 31
0.0
 11
-93.996426492305702
 21
-55.341745567448655
 31
0.0
 11
-93.996411913023863
 21
-55.339863511622788
 31
0.0
 11
-93.996397484479672
 21
-55.337982092466191
 31
0.0
 11
-93.996383224915689
 21
-55.336102833382398
 31
0.0
 11
-93.996366346340864
 21
-55.333851073768002
 31
0.0
 11
-93.996349738697447
 21
-55.331606050882279
 31
0.0
 11
-93.996333402969398
 21
-55.329369190431827
 31
0.0
 11
-93.99631734014072
 21
-55.327141918123246
 31
0.0
 11
-93.996301551195373
 21
-55.324925659663172
 31
0.0
 11
-93.996286037117315
 21
-55.322721840758213
 31
0.0
 11
-93.996270798890578
 21
-55.32053188711496
 31
0.0
 11
-93.99625583749912
 21
-55.318357224440042
 31
0.0
 11
-93.996241153926903
 21
-55.316199278440045
 31
0.0
 11
-93.996226749157913
 21
-55.314059474821605
 31
0.0
 11
-93.996212624176124
 21
-55.311939239291306
 31
0.0
 11
-93.996198779965539
 21
-55.309839997555784
 31
0.0
 11
-93.996185217510074
 21
-55.307763175321611
 31
0.0
 11
-93.996171937793775
 21
-55.305710198295429
 31
0.0
 11
-93.996158941800616
 21
-55.303682492183839
 31
0.0
 11
-93.996146230514526
 21
-55.301681482693439
 31
0.0
 11
-93.996133804919538
 21
-55.299708595530859
 31
0.0
 11
-93.996121665999596
 21
-55.297765256402698
 31
0.0
 11
-93.996109814738674
 21
-55.295852891015549
 31
0.0
 11
-93.996098252120788
 21
-55.293972925076055
 31
0.0
 11
-93.996086979129856
 21
-55.292126784290794
 31
0.0
 11
-93.996075996749923
 21
-55.290315894366387
 31
0.0
 11
-93.996065305964933
 21
-55.288541681009441
 31
0.0
 11
-93.996054907758861
 21
-55.286805569926585
 31
0.0
 11
-93.996044803115694
 21
-55.285108986824383
 31
0.0
 11
-93.996034993019407
 21
-55.283453357409499
 31
0.0
 11
-93.996025478453959
 21
-55.281840107388511
 31
0.0
 11
-93.99601626040338
 21
-55.28027066246802
 31
0.0
 11
-93.996007442777341
 21
-55.278763912593782
 31
0.0
 11
-93.995998891616239
 21
-55.277297533170291
 31
0.0
 11
-93.995990583102142
 21
-55.275867760936848
 31
0.0
 11
-93.995982493417173
 21
-55.274470832632794
 31
0.0
 11
-93.995974598743345
 21
-55.273102984997386
 31
0.0
 11
-93.995966875262852
 21
-55.271760454769968
 31
0.0
 11
-93.995959299157718
 21
-55.270439478689845
 31
0.0
 11
-93.995951846610012
 21
-55.26913629349631
 31
0.0
 11
-93.995944493801915
 21
-55.267847135928676
 31
0.0
 11
-93.995937216915422
 21
-55.266568242726272
 31
0.0
 11
-93.995929992132687
 21
-55.265295850628391
 31
0.0
 11
-93.995922795635735
 21
-55.264026196374324
 31
0.0
 11
-93.995915603606733
 21
-55.2627555167034
 31
0.0
 11
-93.995908392227719
 21
-55.261480048354926
 31
0.0
 11
-93.995901137680818
 21
-55.260196028068229
 31
0.0
 11
-93.995893816148055
 21
-55.258899692582574
 31
0.0
 11
-93.995881290133184
 21
-55.256681596059813
 31
0.0
 11
-93.995868518538927
 21
-55.254419195181605
 31
0.0
 11
-93.995855513292796
 21
-55.252113781908811
 31
0.0
 11
-93.995842286322414
 21
-55.249766648202339
 31
0.0
 11
-93.995828849555338
 21
-55.247379086023059
 31
0.0
 11
-93.995815214919133
 21
-55.244952387331871
 31
0.0
 11
-93.995801394341356
 21
-55.242487844089617
 31
0.0
 11
-93.995787399749602
 21
-55.239986748257245
 31
0.0
 11
-93.99577324307144
 21
-55.237450391795583
 31
0.0
 11
-93.995758936234424
 21
-55.234880066665546
 31
0.0
 11
-93.995744491166121
 21
-55.232277064828018
 31
0.0
 11
-93.995729919794115
 21
-55.229642678243877
 31
0.0
 11
-93.995715234045974
 21
-55.226978198874015
 31
0.0
 11
-93.995700445849266
 21
-55.224284918679295
 31
0.0
 11
-93.995685567131559
 21
-55.22156412962061
 31
0.0
 11
-93.995670609820408
 21
-55.218817123658845
 31
0.0
 11
-93.995655585843423
 21
-55.216045192754905
 31
0.0
 11
-93.995640507128115
 21
-55.21324962886964
 31
0.0
 11
-93.995622804896996
 21
-55.209949126237781
 31
0.0
 11
-93.995605055256462
 21
-55.206617525556027
 31
0.0
 11
-93.995587269436115
 21
-55.20325432980313
 31
0.0
 11
-93.9955694586654
 21
-55.199859041957779
 31
0.0
 11
-93.995551634173836
 21
-55.196431164998693
 31
0.0
 11
-93.995533807190924
 21
-55.192970201904593
 31
0.0
 11
-93.995515988946167
 21
-55.189475655654171
 31
0.0
 11
-93.995498190669068
 21
-55.185947029226149
 31
0.0
 11
-93.995480423589129
 21
-55.182383825599224
 31
0.0
 11
-93.995462698935853
 21
-55.178785547752135
 31
0.0
 11
-93.995445027938743
 21
-55.175151698663576
 31
0.0
 11
-93.995427421827301
 21
-55.171481781312266
 31
0.0
 11
-93.995409891831059
 21
-55.167775298676908
 31
0.0
 11
-93.995392449179462
 21
-55.164031753736211
 31
0.0
 11
-93.995375105102056
 21
-55.1602506494689
 31
0.0
 11
-93.995357870828329
 21
-55.156431488853684
 31
0.0
 11
-93.995340757587797
 21
-55.152573774869268
 31
0.0
 11
-93.995323776609922
 21
-55.148677010494346
 31
0.0
 11
-93.995306939124276
 21
-55.144740698707672
 31
0.0
 11
-93.99529025636032
 21
-55.140764342487934
 31
0.0
 11
-93.995273739547557
 21
-55.136747444813842
 31
0.0
 11
-93.995257399915502
 21
-55.132689508664107
 31
0.0
 11
-93.995241248693645
 21
-55.128590037017453
 31
0.0
 11
-93.995225297111475
 21
-55.124448532852568
 31
0.0
 11
-93.995209556398535
 21
-55.120264499148178
 31
0.0
 11
-93.995194037784302
 21
-55.116037438882998
 31
0.0
 11
-93.995178752498305
 21
-55.111766855035746
 31
0.0
 11
-93.995163711770033
 21
-55.107452250585126
 31
0.0
 11
-93.995148926828932
 21
-55.103093128509826
 31
0.0
 11
-93.995134408904605
 21
-55.098688991788592
 31
0.0
 11
-93.995120169226482
 21
-55.094239343400119
 31
0.0
 11
-93.99511228874637
 21
-55.091717422377585
 31
0.0
 11
-93.995104499474394
 21
-55.089181765072652
 31
0.0
 11
-93.995096801102292
 21
-55.086633180636454
 31
0.0
 11
-93.995089193321803
 21
-55.084072478220115
 31
0.0
 11
-93.99508167582465
 21
-55.081500466974767
 31
0.0
 11
-93.995074248302515
 21
-55.078917956051505
 31
0.0
 11
-93.995066910447221
 21
-55.076325754601498
 31
0.0
 11
-93.995059661950421
 21
-55.073724671775828
 31
0.0
 11
-93.995052502503881
 21
-55.071115516725641
 31
0.0
 11
-93.995045431799326
 21
-55.068499098602061
 31
0.0
 11
-93.995038449528479
 21
-55.065876226556213
 31
0.0
 11
-93.995031555383065
 21
-55.063247709739223
 31
0.0
 11
-93.995024749054835
 21
-55.060614357302228
 31
0.0
 11
-93.995018030235485
 21
-55.057976978396312
 31
0.0
 11
-93.995011398616796
 21
-55.055336382172648
 31
0.0
 11
-93.995004853890435
 21
-55.05269337778234
 31
0.0
 11
-93.994998395748198
 21
-55.050048774376513
 31
0.0
 11
-93.994992023881764
 21
-55.047403381106299
 31
0.0
 11
-93.994985737982887
 21
-55.044758007122802
 31
0.0
 11
-93.994979537743291
 21
-55.042113461577173
 31
0.0
 11
-93.994973422854713
 21
-55.039470553620532
 31
0.0
 11
-93.994967393008849
 21
-55.036830092403996
 31
0.0
 11
-93.994961447897481
 21
-55.034192887078689
 31
0.0
 11
-93.994955587212317
 21
-55.031559746795743
 31
0.0
 11
-93.994949810645082
 21
-55.028931480706298
 31
0.0
 11
-93.994944117887499
 21
-55.026308897961435
 31
0.0
 11
-93.994938508631321
 21
-55.023692807712322
 31
0.0
 11
-93.994932982568272
 21
-55.021084019110063
 31
0.0
 11
-93.99492753939009
 21
-55.018483341305803
 31
0.0
 11
-93.994922178788443
 21
-55.015891583450632
 31
0.0
 11
-93.994916900455138
 21
-55.013309554695709
 31
0.0
 11
-93.994911704081858
 21
-55.010738064192154
 31
0.0
 11
-93.994906589360383
 21
-55.008177921091061
 31
0.0
 11
-93.994901555982381
 21
-55.005629934543592
 31
0.0
 11
-93.994896603639617
 21
-55.003094913700863
 31
0.0
 11
-93.994891732023831
 21
-55.000573667713986
 31
0.0
 11
-93.99488694082676
 21
-54.998067005734107
 31
0.0
 11
-93.994882229740057
 21
-54.995575736912336
 31
0.0
 11
-93.994877598455531
 21
-54.993100670399791
 31
0.0
 11
-93.994873046664907
 21
-54.990642615347618
 31
0.0
 11
-93.994868574059893
 21
-54.988202380906941
 31
0.0
 11
-93.994864180332215
 21
-54.985780776228864
 31
0.0
 11
-93.994859865173595
 21
-54.983378610464513
 31
0.0
 11
-93.994855628275786
 21
-54.980996692765046
 31
0.0
 11
-93.994851469330513
 21
-54.978635832281547
 31
0.0
 11
-93.994847388029513
 21
-54.976296838165176
 31
0.0
 11
-93.994843384064495
 21
-54.973980519567036
 31
0.0
 11
-93.994839457127227
 21
-54.971687685638258
 31
0.0
 11
-93.994835606909376
 21
-54.969419145529969
 31
0.0
 11
-93.994831833102737
 21
-54.967175708393299
 31
0.0
 11
-93.994828135399004
 21
-54.964958183379359
 31
0.0
 11
-93.994824513489903
 21
-54.962767379639281
 31
0.0
 11
-93.994820967067199
 21
-54.960604106324212
 31
0.0
 11
-93.994817495822602
 21
-54.958469172585254
 31
0.0
 11
-93.994814099447836
 21
-54.956363387573525
 31
0.0
 11
-93.994810777634598
 21
-54.95428756044015
 31
0.0
 11
-93.994807530074709
 21
-54.952242500336283
 31
0.0
 11
-93.994804356459824
 21
-54.950229016413019
 31
0.0
 11
-93.994801256481708
 21
-54.948247917821512
 31
0.0
 11
-93.994798229832043
 21
-54.94630001371285
 31
0.0
 11
-93.994795276202638
 21
-54.944386113238195
 31
0.0
 11
-93.994792395285145
 21
-54.942507025548636
 31
0.0
 11
-93.994789586771333
 21
-54.940663559795333
 31
0.0
 11
-93.994786850352924
 21
-54.938856525129395
 31
0.0
 11
-93.994784185721656
 21
-54.937086730701942
 31
0.0
 11
-93.99478159256924
 21
-54.935354985664112
 31
0.0
 11
-93.994779070587455
 21
-54.933662099167016
 31
0.0
 11
-93.99477661946797
 21
-54.932008880361792
 31
0.0
 11
-93.994774238902551
 21
-54.930396138399558
 31
0.0
 11
-93.994771928582907
 21
-54.92882468243144
 31
0.0
 11
-93.99476968820079
 21
-54.927295321608568
 31
0.0
 11
-93.994767517447912
 21
-54.925808865082061
 31
0.0
 11
-93.994765416016023
 21
-54.92436612200305
 31
0.0
 11
-93.994763383596833
 21
-54.922967901522647
 31
0.0
 11
-93.994761419882082
 21
-54.921615012792003
 31
0.0
 11
-93.994759524563506
 21
-54.920308264962223
 31
0.0
 11
-93.994757749266483
 21
-54.919083920723608
 31
0.0
 11
-93.994756034053779
 21
-54.91789988524161
 31
0.0
 11
-93.994754374852789
 21
-54.916752227830671
 31
0.0
 11
-93.994752767590867
 21
-54.915637017805253
 31
0.0
 11
-93.994751208195453
 21
-54.914550324479762
 31
0.0
 11
-93.994749692593928
 21
-54.913488217168698
 31
0.0
 11
-93.99474821671366
 21
-54.912446765186459
 31
0.0
 11
-93.994746776482089
 21
-54.911422037847537
 31
0.0
 11
-93.994745367826553
 21
-54.910410104466337
 31
0.0
 11
-93.994743986674465
 21
-54.909407034357329
 31
0.0
 11
-93.994742628953261
 21
-54.908408896834963
 31
0.0
 11
-93.994741290590284
 21
-54.907411761213687
 31
0.0
 11
-93.994739967512956
 21
-54.906411696807936
 31
0.0
 11
-93.994738655648632
 21
-54.905404772932165
 31
0.0
 11
-93.994737350924751
 21
-54.904387058900831
 31
0.0
 11
-93.994736049268681
 21
-54.903354624028367
 31
0.0
 11
-93.994734746607804
 21
-54.902303537629209
 31
0.0
 11
-93.994733438869531
 21
-54.901229869017811
 31
0.0
 11
-93.994732121981286
 21
-54.900129687508645
 31
0.0
 11
-93.994730791870396
 21
-54.898999062416145
 31
0.0
 11
-93.994729458179449
 21
-54.897845781382365
 31
0.0
 11
-93.994728109313698
 21
-54.89665853404037
 31
0.0
 11
-93.994726747069961
 21
-54.895437085294901
 31
0.0
 11
-93.994725373245089
 21
-54.894181200050703
 31
0.0
 11
-93.994723989635972
 21
-54.892890643212525
 31
0.0
 11
-93.994722598039417
 21
-54.891565179685088
 31
0.0
 11
-93.994721200252258
 21
-54.890204574373143
 31
0.0
 11
-93.994719798071415
 21
-54.888808592181448
 31
0.0
 11
-93.994718393293638
 21
-54.887376998014702
 31
0.0
 11
-93.994716987715876
 21
-54.885909556777698
 31
0.0
 11
-93.994715583134891
 21
-54.884406033375129
 31
0.0
 11
-93.994714181347604
 21
-54.882866192711781
 31
0.0
 11
-93.994712784150778
 21
-54.881289799692354
 31
0.0
 11
-93.994711393341348
 21
-54.879676619221613
 31
0.0
 11
-93.994710010716133
 21
-54.8780264162043
 31
0.0
 11
-93.994708638071955
 21
-54.876338955545151
 31
0.0
 11
-93.994707277205677
 21
-54.874614002148924
 31
0.0
 11
-93.994705929914176
 21
-54.872851320920333
 31
0.0
 11
-93.994704597994229
 21
-54.871050676764106
 31
0.0
 11
-93.994703283242771
 21
-54.869211834585037
 31
0.0
 11
-93.99470198745658
 21
-54.867334559287826
 31
0.0
 11
-93.994700712432547
 21
-54.865418615777237
 31
0.0
 11
-93.994699459967507
 21
-54.863463768957978
 31
0.0
 11
-93.994698231858308
 21
-54.861469783734826
 31
0.0
 11
-93.994697029901829
 21
-54.859436425012525
 31
0.0
 11
-93.994695855894847
 21
-54.857363457695769
 31
0.0
 11
-93.994694711634267
 21
-54.855250646689356
 31
0.0
 11
-93.994693598916939
 21
-54.853097756898002
 31
0.0
 11
-93.994692519539655
 21
-54.850904553226428
 31
0.0
 11
-93.994691475299334
 21
-54.848670800579406
 31
0.0
 11
-93.994690467992783
 21
-54.846396263861678
 31
0.0
 11
-93.994689499416836
 21
-54.844080707977959
 31
0.0
 11
-93.994688571368386
 21
-54.841723897833006
 31
0.0
 11
-93.994687685644266
 21
-54.839325598331584
 31
0.0
 11
-93.994686844041311
 21
-54.836885574378378
 31
0.0
 11
-93.994686048356385
 21
-54.834403590878189
 31
0.0
 11
-93.994685300386323
 21
-54.831879412735717
 31
0.0
 11
-93.994684601927972
 21
-54.829312804855704
 31
0.0
 11
-93.994683954778196
 21
-54.826703532142922
 31
0.0
 11
-93.994683360733802
 21
-54.824051359502072
 31
0.0
 11
-93.994682821591709
 21
-54.821356051837938
 31
0.0
 11
-93.994682339148724
 21
-54.818617374055236
 31
0.0
 11
-93.994681915201681
 21
-54.815835091058716
 31
0.0
 11
-93.994681551547473
 21
-54.813008967753106
 31
0.0
 11
-93.994681249982904
 21
-54.810138769043171
 31
0.0
 11
-93.99468101230481
 21
-54.807224259833617
 31
0.0
 11
-93.994680840310096
 21
-54.804265205029225
 31
0.0
 11
-93.994680735795583
 21
-54.801261369534714
 31
0.0
 11
-93.994680700558092
 21
-54.798212518254807
 31
0.0
  0
SPLINE
  5
DE
100
AcDbEntity
  8
0
  6
CONTINUOUS
 62
             7
100
AcDbSpline
210
0.0
220
0.0
230
1.0
 70
             0
 71
             3
 72
            20
 73
            16
 74
            27
 42
0.00000000001
 43
0.00000000001
 44
0.00000000001
 40
0.0057791848762928
 40
0.0057791848762928
 40
0.0057791848762928
 40
0.0057791848762928
 40
0.2016140130423865
 40
0.2992709773064096
 40
0.3984290603190911
 40
0.4829518521311476
 40
0.5462007166141057
 40
0.6095430588514732
 40
0.6942703337037823
 40
0.7936934122552553
 40
0.9588569182007898
 40
1.1265131329785025
 40
1.2916709150057615
 40
1.3893287236753635
 40
1.585163734523781
 40
1.585163734523781
 40
1.585163734523781
 40
1.585163734523781
 10
-94.994736696302539
 20
-33.500000000000107
 30
0.0
 10
-94.897079892983072
 20
-33.500000000000107
 30
0.0
 10
-94.799949359309153
 20
-33.514303286021317
 30
0.0
 10
-94.706437955318677
 20
-33.542454662417413
 30
0.0
 10
-94.611489155410766
 20
-33.571038763291803
 30
0.0
 10
-94.536043334490842
 20
-33.609144280496309
 30
0.0
 10
-94.481748888800041
 20
-33.641587030464713
 30
0.0
 10
-94.427374199410053
 20
-33.674077728731419
 30
0.0
 10
-94.357905711761759
 20
-33.722583814202807
 30
0.0
 10
-94.287600047105343
 20
-33.792883615524516
 30
0.0
 10
-94.170806942006664
 20
-33.909666980340013
 30
0.0
 10
-94.084759520015552
 20
-34.053557381417619
 30
0.0
 10
-94.037142383413652
 20
-34.211701939547197
 30
0.0
 10
-94.008986367036073
 20
-34.305212828409907
 30
0.0
 10
-93.994680700558092
 20
-34.402343244488407
 30
0.0
 10
-93.994680700558092
 20
-34.500000000000107
 30
0.0
 11
-94.994736696302539
 21
-33.500000000000107
 31
0.0
 11
-94.870295714541882
 21
-33.506340037395212
 31
0.0
 11
-94.779583120196634
 21
-33.522088341139444
 31
0.0
 11
-94.741456880772461
 21
-33.532119032870732
 31
0.0
 11
-94.701982038946682
 21
-33.543796104996872
 31
0.0
 11
-94.656340725883055
 21
-33.557953413643602
 31
0.0
 11
-94.608260404479992
 21
-33.57534760655215
 31
0.0
 11
-94.568728047339349
 21
-33.593114636658832
 31
0.0
 11
-94.531881136175997
 21
-33.612396120278476
 31
0.0
 11
-94.506335623938924
 21
-33.626991231011061
 31
0.0
 11
-94.481768793936865
 21
-33.641575136478735
 31
0.0
 11
-94.457245164706521
 21
-33.656324576806746
 31
0.0
 11
-94.432243328871692
 21
-33.671934264057278
 31
0.0
 11
-94.397949024029515
 21
-33.695076648039446
 31
0.0
 11
-94.36512672791406
 21
-33.719908678510436
 31
0.0
 11
-94.331058473042958
 21
-33.749996973702544
 31
0.0
 11
-94.298256087438446
 21
-33.782228463881239
 31
0.0
 11
-94.238531471479845
 21
-33.843138309922963
 31
0.0
 11
-94.179464415558755
 21
-33.910531916659131
 31
0.0
 11
-94.129467500333789
 21
-33.982639108457128
 31
0.0
 11
-94.089579168217512
 21
-34.060902903953242
 31
0.0
 11
-94.058355126955817
 21
-34.144169881804601
 31
0.0
 11
-94.034785001075136
 21
-34.219531204699919
 31
0.0
 11
-94.024280656142665
 21
-34.255104623585808
 31
0.0
 11
-94.015424280652994
 21
-34.289325141987121
 31
0.0
 11
-94.000853229277226
 21
-34.376118985663261
 31
0.0
 11
-93.994680700558092
 21
-34.500000000000107
 31
0.0
  0
SPLINE
  5
DD
100
AcDbEntity
  8
0
  6
CONTINUOUS
 62
             7
100
AcDbSpline
210
0.0
220
0.0
230
1.0
 70
             0
 71
             3
 72
            32
 73
            28
 74
            51
 42
0.00000000001
 43
0.00000000001
 44
0.00000000001
 40
0.1303745175844839
 40
0.1303745175844839
 40
0.1303745175844839
 40
0.1303745175844839
 40
0.1541177265985187
 40
0.1662938567003836
 40
0.1981902164656074
 40
0.2386811076131076
 40
0.2876533329547852
 40
0.3279811010589578
 40
0.3698883470160006
 40
0.4130219154003758
 40
0.4612064072948712
 40
0.5051351197501443
 40
0.5421012670753014
 40
0.5916831529849381
 40
0.6363180784338833
 40
0.6737284985509053
 40
0.7176324626317185
 40
0.7571100346124795
 40
0.7908608105497488
 40
0.8361568624042809
 40
0.8763760210959665
 40
0.9103886907492279
 40
0.994629917183027
 40
1.0765801522627039
 40
1.1537630976683342
 40
1.1928587383357359
 40
1.2670138724974109
 40
1.2670138724974109
 40
1.2670138724974109
 40
1.2670138724974109
 10
-57.749999999277179
 20
-55.098317268992901
 30
0.0
 10
-57.740148710722167
 20
-55.091880910805003
 30
0.0
 10
-57.730299461784568
 20
-55.085068469569109
 30
0.0
 10
-57.720465241350148
 20
-55.077888897666497
 30
0.0
 10
-57.694703703787582
 20
-55.059081427111288
 30
0.0
 10
-57.663279396205382
 20
-55.033546643797187
 30
0.0
 10
-57.628281554088687
 20
-54.999291280682911
 30
0.0
 10
-57.599461445319378
 20
-54.971082590341297
 30
0.0
 10
-57.571338053196143
 20
-54.940013440382103
 30
0.0
 10
-57.544247897875039
 20
-54.906448157629711
 30
0.0
 10
-57.513985496261171
 20
-54.868952393766421
 30
0.0
 10
-57.488761439616951
 20
-54.83298742825292
 30
0.0
 10
-57.468602397086777
 20
-54.802001801708798
 30
0.0
 10
-57.441563513700089
 20
-54.760441457682823
 30
0.0
 10
-57.419576707494969
 20
-54.721597450130417
 30
0.0
 10
-57.402230059433343
 20
-54.688451811890097
 30
0.0
 10
-57.381872452888672
 20
-54.649552892653418
 30
0.0
 10
-57.365384324457352
 20
-54.613683402688707
 30
0.0
 10
-57.352217876256589
 20
-54.582606731082109
 30
0.0
 10
-57.334547523386789
 20
-54.540899526152202
 30
0.0
 10
-57.320851704612487
 20
-54.503084115616701
 30
0.0
 10
-57.310277713648652
 20
-54.470756845208598
 30
0.0
 10
-57.284088473692577
 20
-54.390689948543411
 30
0.0
 10
-57.266078408537282
 20
-54.310743225141408
 30
0.0
 10
-57.256947344491373
 20
-54.234102304407912
 30
0.0
 10
-57.252322167297393
 20
-54.195281216644702
 30
0.0
 10
-57.249999999998352
 20
-54.157516323492018
 30
0.0
 10
-57.249999999999801
 20
-54.121197410280622
 30
0.0
 11
-57.749999999277179
 21
-55.098317268992901
 31
0.0
 11
-57.737564510398379
 21
-55.090035385943963
 31
0.0
 11
-57.729155312798554
 21
-55.084189723901559
 31
0.0
 11
-57.725973043826976
 21
-55.081904493446061
 31
0.0
 11
-57.722787967323967
 21
-55.079584627211126
 31
0.0
 11
-57.711517089766105
 21
-55.07131867014521
 31
0.0
 11
-57.697964339134657
 21
-55.061161573841694
 31
0.0
 11
-57.681307187490816
 21
-55.048021840326875
 31
0.0
 11
-57.665279204388881
 21
-55.034350333316851
 31
0.0
 11
-57.645890420980848
 21
-55.016382363980476
 31
0.0
 11
-57.627293269943962
 21
-54.998323962980102
 31
0.0
 11
-57.613197838648027
 21
-54.984457715603646
 31
0.0
 11
-57.599715980037722
 21
-54.970772920566795
 31
0.0
 11
-57.585756153703457
 21
-54.955797409202184
 31
0.0
 11
-57.572046514901793
 21
-54.940232239934247
 31
0.0
 11
-57.558436579307269
 21
-54.923945862906237
 31
0.0
 11
-57.544859003594453
 21
-54.907205330706795
 31
0.0
 11
-57.529230068018613
 21
-54.88772573502299
 31
0.0
 11
-57.513747601175616
 21
-54.867737558968813
 31
0.0
 11
-57.500473563452935
 21
-54.849526106179674
 31
0.0
 11
-57.488376801172095
 21
-54.832029018446249
 31
0.0
 11
-57.479103158012407
 21
-54.818096185203409
 31
0.0
 11
-57.469736656835344
 21
-54.803745225233037
 31
0.0
 11
-57.455817482137661
 21
-54.782225531550878
 31
0.0
 11
-57.441563498380717
 21
-54.759440564700157
 31
0.0
 11
-57.429745818130392
 21
-54.739377837194603
 31
0.0
 11
-57.419081690719338
 21
-54.720241033211607
 31
0.0
 11
-57.410849266403616
 21
-54.704869906622278
 31
0.0
 11
-57.402594159552365
 21
-54.689147527326554
 31
0.0
 11
-57.392214408072199
 21
-54.669206432205634
 31
0.0
 11
-57.381768409118763
 21
-54.648492747281793
 31
0.0
 11
-57.373057615778315
 21
-54.630217602715419
 31
0.0
 11
-57.36520982527523
 21
-54.612866836969452
 31
0.0
 11
-57.359115205750562
 21
-54.59883586048209
 31
0.0
 11
-57.352966156739953
 21
-54.584372892046432
 31
0.0
 11
-57.343842291380405
 21
-54.562700167911252
 31
0.0
 11
-57.334600924175305
 21
-54.539923717178894
 31
0.0
 11
-57.327262924687503
 21
-54.520591849938896
 31
0.0
 11
-57.321183428123057
 21
-54.503569434127826
 31
0.0
 11
-57.317048237940845
 21
-54.49138988481355
 31
0.0
 11
-57.313002206227814
 21
-54.47908628379362
 31
0.0
 11
-57.30014099827509
 21
-54.43922064598793
 31
0.0
 11
-57.286214693004631
 21
-54.392824023881694
 31
0.0
 11
-57.275256632382295
 21
-54.349611435366825
 31
0.0
 11
-57.266904688991026
 21
-54.306723720015952
 31
0.0
 11
-57.260796052026315
 21
-54.265036796927738
 31
0.0
 11
-57.256308534016313
 21
-54.228740495232685
 31
0.0
 11
-57.254640148574879
 21
-54.214464805635828
 31
0.0
 11
-57.25322473398186
 21
-54.200679100655407
 31
0.0
 11
-57.250973288598985
 21
-54.167644791778713
 31
0.0
 11
-57.249999999999801
 21
-54.121197410280622
 31
0.0
  0
SPLINE
  5
DC
100
AcDbEntity
  8
0
  6
CONTINUOUS
 62
             7
100
AcDbSpline
210
0.0
220
0.0
230
1.0
 70
             0
 71
             3
 72
             8
 73
             4
 74
             3
 42
0.00000000001
 43
0.00000000001
 44
0.00000000001
 40
0.0
 40
0.0
 40
0.0
 40
0.0
 40
1.1995801046561019
 40
1.1995801046561019
 40
1.1995801046561019
 40
1.1995801046561019
 10
-58.749999999999147
 20
-55.760852502478201
 30
0.0
 10
-58.418454263817686
 20
-55.538114316637603
 30
0.0
 10
-58.085113274786693
 20
-55.317264166798111
 30
0.0
 10
-57.749999999277179
 20
-55.098317268992901
 30
0.0
 11
-58.749999999999147
 21
-55.760852502478201
 31
0.0
 11
-58.251337826886171
 21
-55.428163152722263
 31
0.0
 11
-57.749999999277179
 21
-55.098317268992901
 31
0.0
  0
SPLINE
  5
DB
100
AcDbEntity
  8
0
  6
CONTINUOUS
 62
             7
100
AcDbSpline
210
0.0
220
0.0
230
1.0
 70
             0
 71
             3
 72
            29
 73
            25
 74
            45
 42
0.00000000001
 43
0.00000000001
 44
0.00000000001
 40
0.22269161944678
 40
0.22269161944678
 40
0.22269161944678
 40
0.22269161944678
 40
0.3191047192102527
 40
0.3761781121456195
 40
0.3989990042675266
 40
0.4243561230421876
 40
0.4508294020734431
 40
0.4791880247785686
 40
0.5031076044112766
 40
0.5229401889730591
 40
0.5674800387853186
 40
0.6090279895162899
 40
0.6489581891933124
 40
0.6668794261219226
 40
0.6878073432797738
 40
0.7115768804350378
 40
0.7335929427515261
 40
0.754153511466594
 40
0.7724838429104497
 40
0.8261857089531605
 40
0.8867330550384975
 40
0.9543819691093303
 40
0.9727209355116633
 40
1.0111311861504886
 40
1.0111311861504886
 40
1.0111311861504886
 40
1.0111311861504886
 10
-59.249999999999147
 20
-55.446416137238508
 30
0.0
 10
-59.249999999999147
 20
-55.488498057778202
 30
0.0
 10
-59.246888577583888
 20
-55.542740071811608
 30
0.0
 10
-59.234211892505243
 20
-55.598387837593997
 30
0.0
 10
-59.229143098663492
 20
-55.620638690301917
 30
0.0
 10
-59.22211423908584
 20
-55.64500215897101
 30
0.0
 10
-59.212229690025481
 20
-55.669560868068601
 30
0.0
 10
-59.201641194468039
 20
-55.695868571190722
 30
0.0
 10
-59.190036164495893
 20
-55.716784344404999
 30
0.0
 10
-59.179042341982672
 20
-55.733290927241796
 30
0.0
 10
-59.154352508841043
 20
-55.770361270654519
 30
0.0
 10
-59.123840238349089
 20
-55.798561156458703
 30
0.0
 10
-59.08844587446174
 20
-55.817045199611023
 30
0.0
 10
-59.072560384624637
 20
-55.825341098940612
 30
0.0
 10
-59.053097960230048
 20
-55.833034716636519
 30
0.0
 10
-59.029809899904883
 20
-55.837794668618102
 30
0.0
 10
-59.008239795952079
 20
-55.842203479726408
 30
0.0
 10
-58.98770403538316
 20
-55.843213194410403
 30
0.0
 10
-58.969387297773949
 20
-55.842507379847717
 30
0.0
 10
-58.915725257213353
 20
-55.840439574406624
 30
0.0
 10
-58.857819958176549
 20
-55.822748970645421
 30
0.0
 10
-58.798436662886843
 20
-55.790345270000302
 30
0.0
 10
-58.782338425802948
 20
-55.781560940117117
 30
0.0
 10
-58.766173726564553
 20
-55.771718292987117
 30
0.0
 10
-58.749999999999147
 20
-55.760852502478201
 30
0.0
 11
-59.249999999999147
 21
-55.446416137238508
 31
0.0
 11
-59.248387618846628
 21
-55.504247087274315
 31
0.0
 11
-59.242964304767824
 21
-55.554355257893789
 31
0.0
 11
-59.237888592261513
 21
-55.581546526528143
 31
0.0
 11
-59.232717092792385
 21
-55.604949668529976
 31
0.0
 11
-59.230870978216991
 21
-55.612936190561882
 31
0.0
 11
-59.228768023881216
 21
-55.621345173026356
 31
0.0
 11
-59.225678741157928
 21
-55.632385024119692
 31
0.0
 11
-59.221858210776738
 21
-55.644388491259008
 31
0.0
 11
-59.21728987766609
 21
-55.656832328845617
 31
0.0
 11
-59.212319076519577
 21
-55.669338782377835
 31
0.0
 11
-59.206692334265689
 21
-55.683107604305789
 31
0.0
 11
-59.200637013691065
 21
-55.696674469456184
 31
0.0
 11
-59.195175921348948
 21
-55.707334219464755
 31
0.0
 11
-59.18985465166088
 21
-55.71662159338257
 31
0.0
 11
-59.185781027183872
 21
-55.723118774479374
 31
0.0
 11
-59.181455347786837
 21
-55.729667939864669
 31
0.0
 11
-59.168784048045715
 21
-55.748290574711696
 31
0.0
 11
-59.15344705686082
 21
-55.768500096837016
 31
0.0
 11
-59.138213895175376
 21
-55.78456048606828
 31
0.0
 11
-59.121034215386999
 21
-55.798121914188371
 31
0.0
 11
-59.102189829765962
 21
-55.80962959715675
 31
0.0
 11
-59.084865249101583
 21
-55.818915114094587
 31
0.0
 11
-59.078581632885601
 21
-55.82215584827982
 31
0.0
 11
-59.072264202072184
 21
-55.825169641837185
 31
0.0
 11
-59.063537316719831
 21
-55.828790279923794
 31
0.0
 11
-59.05360619204756
 21
-55.832180797253748
 31
0.0
 11
-59.041620348680048
 21
-55.835286922626523
 31
0.0
 11
-59.029493482241101
 21
-55.837859342655563
 31
0.0
 11
-59.018517764761278
 21
-55.840028241521026
 31
0.0
 11
-59.00762939517341
 21
-55.841732420915882
 31
0.0
 11
-58.997524939514925
 21
-55.84264410732731
 31
0.0
 11
-58.988466737010746
 21
-55.842987109323602
 31
0.0
 11
-58.981853507426479
 21
-55.842955816632617
 31
0.0
 11
-58.975419249318371
 21
-55.84273981421088
 31
0.0
 11
-58.950337080461253
 21
-55.841505139721079
 31
0.0
 11
-58.92067727011171
 21
-55.838485100476916
 31
0.0
 11
-58.889028490080669
 21
-55.831502149243185
 31
0.0
 11
-58.857595329165122
 21
-55.819897174497477
 31
0.0
 11
-58.821023103806603
 21
-55.802328867180989
 31
0.0
 11
-58.793134384727779
 21
-55.787451974278611
 31
0.0
 11
-58.788515384115989
 21
-55.784918181082332
 31
0.0
 11
-58.784014660249923
 21
-55.782368877554667
 31
0.0
 11
-58.770484982403175
 21
-55.774189610917702
 31
0.0
 11
-58.749999999999147
 21
-55.760852502478201
 31
0.0
  0
SPLINE
  5
DA
100
AcDbEntity
  8
0
  6
CONTINUOUS
 62
             7
100
AcDbSpline
210
0.0
220
0.0
230
1.0
 70
             0
 71
             3
 72
             8
 73
             4
 74
             3
 42
0.00000000001
 43
0.00000000001
 44
0.00000000001
 40
0.0
 40
0.0
 40
0.0
 40
0.0
 40
1.1995801037936866
 40
1.1995801037936866
 40
1.1995801037936866
 40
1.1995801037936866
 10
57.750000000000632
 20
-55.098317269464623
 30
0.0
 10
58.085113274788057
 20
-55.317264166797912
 30
0.0
 10
58.418454263819513
 20
-55.538114316637923
 30
0.0
 10
58.750000000000632
 20
-55.760852502478201
 30
0.0
 11
57.750000000000632
 21
-55.098317269464623
 31
0.0
 11
58.251337826977995
 21
-55.428163152781295
 31
0.0
 11
58.750000000000632
 21
-55.760852502478201
 31
0.0
  0
SPLINE
  5
D9
100
AcDbEntity
  8
0
  6
CONTINUOUS
 62
             7
100
AcDbSpline
210
0.0
220
0.0
230
1.0
 70
             0
 71
             3
 72
            35
 73
            31
 74
            57
 42
0.00000000001
 43
0.00000000001
 44
0.00000000001
 40
0.0569528191261328
 40
0.0569528191261328
 40
0.0569528191261328
 40
0.0569528191261328
 40
0.131107953492777
 40
0.1702035941654221
 40
0.209739415594957
 40
0.2505431365796225
 40
0.2922978357532693
 40
0.3372491422742648
 40
0.3782536697957943
 40
0.4132861484529139
 40
0.457923817428235
 40
0.4982974161446704
 40
0.5328141523889287
 40
0.571859232645543
 40
0.6109909232427545
 40
0.6499445385373894
 40
0.6873549586721429
 40
0.7319898840972215
 40
0.7815717699603537
 40
0.825477342127252
 40
0.8686258586465955
 40
0.910646331976997
 40
0.9537799005203375
 40
0.9956871464511797
 40
1.0360149143770396
 40
1.0783034190000274
 40
1.1188608795506707
 40
1.1573660947587194
 40
1.169541986615271
 40
1.1932854346868129
 40
1.1932854346868129
 40
1.1932854346868129
 40
1.1932854346868129
 10
57.249999999999183
 20
-54.121197410280018
 30
0.0
 10
57.249999999999943
 20
-54.157516323621593
 30
0.0
 10
57.252322167315363
 20
-54.195281216848201
 30
0.0
 10
57.256947344517641
 20
-54.234102304615703
 30
0.0
 10
57.261624596937622
 20
-54.273360481928307
 30
0.0
 10
57.268640069729258
 20
-54.313556586064209
 30
0.0
 10
57.277923287672309
 20
-54.354266250367708
 30
0.0
 10
57.287917199340257
 20
-54.398092517463112
 30
0.0
 10
57.299386680563941
 20
-54.437460299693299
 30
0.0
 10
57.310277713720843
 20
-54.470756845424603
 30
0.0
 10
57.324154845784967
 20
-54.51318262411192
 30
0.0
 10
57.338752620889352
 20
-54.550824787111907
 30
0.0
 10
57.352217876350153
 20
-54.582606731299308
 30
0.0
 10
57.367449675104808
 20
-54.618558234730223
 30
0.0
 10
57.384167855131928
 20
-54.653938902694193
 30
0.0
 10
57.402230059548458
 20
-54.688451812107019
 30
0.0
 10
57.419576707623953
 20
-54.721597450360093
 30
0.0
 10
57.441563513825827
 20
-54.760441457886913
 30
0.0
 10
57.468602397193138
 20
-54.802001801870013
 30
0.0
 10
57.492545771357527
 20
-54.838804167295713
 30
0.0
 10
57.517856825027543
 20
-54.873749053043611
 30
0.0
 10
57.544247897966727
 20
-54.906448157741288
 30
0.0
 10
57.571338053391628
 20
-54.940013440614187
 30
0.0
 10
57.599461445515438
 20
-54.97108259053752
 30
0.0
 10
57.628281554160253
 20
-54.999291280751407
 30
0.0
 10
57.658502896930827
 20
-55.028871477917619
 30
0.0
 10
57.689365970026422
 20
-55.055184560698109
 30
0.0
 10
57.720465241394443
 20
-55.077888897697818
 30
0.0
 10
57.730299269407233
 20
-55.08506832912002
 30
0.0
 10
57.740148518110473
 20
-55.091880784970023
 30
0.0
 10
57.750000000000632
 20
-55.098317269464623
 30
0.0
 11
57.249999999999183
 21
-54.121197410280018
 31
0.0
 11
57.251009611661232
 21
-54.167949666837131
 31
0.0
 11
57.253515318434637
 21
-54.203118100133338
 31
0.0
 11
57.255196833594368
 21
-54.219137300797506
 31
0.0
 11
57.257106812782084
 21
-54.235440789871497
 31
0.0
 11
57.259319114333678
 21
-54.253637340759376
 31
0.0
 11
57.261930950118142
 21
-54.272953907386388
 31
0.0
 11
57.265154667607341
 21
-54.29306954342043
 31
0.0
 11
57.268894877487284
 21
-54.313042745763731
 31
0.0
 11
57.273184903004896
 21
-54.333283122095835
 31
0.0
 11
57.277800156780025
 21
-54.353726284881439
 31
0.0
 11
57.28301408623463
 21
-54.376325471103975
 31
0.0
 11
57.288614959352607
 21
-54.399028873999775
 31
0.0
 11
57.294149966882905
 21
-54.419209919376001
 31
0.0
 11
57.29985227320379
 21
-54.438309716100321
 31
0.0
 11
57.304707887236049
 21
-54.45365677510712
 31
0.0
 11
57.309801327860093
 21
-54.469300417611933
 31
0.0
 11
57.317005934150814
 21
-54.491155401248548
 31
0.0
 11
57.324800777274689
 21
-54.513787348756011
 31
0.0
 11
57.332076672508556
 21
-54.533407217882363
 31
0.0
 11
57.339382039955652
 21
-54.551886205599217
 31
0.0
 11
57.3455902794406
 21
-54.566910638342854
 31
0.0
 11
57.351957678039767
 21
-54.5819925871264
 31
0.0
 11
57.35958432941073
 21
-54.599908825443251
 31
0.0
 11
57.367585592304465
 21
-54.618199909098934
 31
0.0
 11
57.375867305346368
 21
-54.636212924639707
 31
0.0
 11
57.384461094999445
 21
-54.653929191408949
 31
0.0
 11
57.393334369318211
 21
-54.671382846437226
 31
0.0
 11
57.402212554740203
 21
-54.688418364259334
 31
0.0
 11
57.410516783693616
 21
-54.704234605107196
 31
0.0
 11
57.418944864542937
 21
-54.719979588393805
 31
0.0
 11
57.429701343260355
 21
-54.739303084865682
 31
0.0
 11
57.441344524802012
 21
-54.759103989525627
 31
0.0
 11
57.455180555450895
 21
-54.781246538013349
 31
0.0
 11
57.469173850444733
 21
-54.802880158915436
 31
0.0
 11
57.481142599117334
 21
-54.821191911007155
 31
0.0
 11
57.493140386766704
 21
-54.839038813020039
 31
0.0
 11
57.505468124313673
 21
-54.856492123246845
 31
0.0
 11
57.518287835444468
 21
-54.873707430309928
 31
0.0
 11
57.531098240280656
 21
-54.890083493453893
 31
0.0
 11
57.544174693688788
 21
-54.906357456072854
 31
0.0
 11
57.557855971055105
 21
-54.923226476837158
 31
0.0
 11
57.571842798590616
 21
-54.939979831041555
 31
0.0
 11
57.585762162226914
 21
-54.955796663473876
 31
0.0
 11
57.599967763134266
 21
-54.971019362098929
 31
0.0
 11
57.613879208371173
 21
-54.985124630074779
 31
0.0
 11
57.628101623884334
 21
-54.999115167695216
 31
0.0
 11
57.643425902657974
 21
-55.014027731106658
 31
0.0
 11
57.659121313096122
 21
-55.028783887343259
 31
0.0
 11
57.674662831277359
 21
-55.042463575763698
 31
0.0
 11
57.691688140404452
 21
-55.056295563630314
 31
0.0
 11
57.709192200400466
 21
-55.069585860198089
 31
0.0
 11
57.72333369032016
 21
-55.079983037792147
 31
0.0
 11
57.726354500216118
 21
-55.082182979957189
 31
0.0
 11
57.729357176749325
 21
-55.084337100115867
 31
0.0
 11
57.737589574555685
 21
-55.090053693066764
 31
0.0
 11
57.750000000000632
 21
-55.098317269464623
 31
0.0
  0
SPLINE
  5
D8
100
AcDbEntity
  8
0
  6
CONTINUOUS
 62
             7
100
AcDbSpline
210
0.0
220
0.0
230
1.0
 70
             0
 71
             3
 72
            29
 73
            25
 74
            45
 42
0.00000000001
 43
0.00000000001
 44
0.00000000001
 40
0.3378974183529878
 40
0.3378974183529878
 40
0.3378974183529878
 40
0.3378974183529878
 40
0.3747640047209929
 40
0.3946037957916834
 40
0.4622598251438059
 40
0.522813313093713
 40
0.5765198424794502
 40
0.5999575319820001
 40
0.6202195649611267
 40
0.6374432710291577
 40
0.6612170543337421
 40
0.682148324699362
 40
0.7000719577772808
 40
0.7223712829114298
 40
0.7427659580647155
 40
0.7607041383552053
 40
0.778718341094652
 40
0.8001158253881009
 40
0.8251171980313009
 40
0.8695654382071136
 40
0.9186392462226626
 40
0.9724414284108802
 40
1.0084173287544844
 40
1.1259388723809596
 40
1.1259388723809596
 40
1.1259388723809596
 40
1.1259388723809596
 10
58.750000000000632
 20
-55.760852502478201
 30
0.0
 10
58.764767822256033
 20
-55.770773782045502
 30
0.0
 10
58.780983627761657
 20
-55.780819921426712
 30
0.0
 10
58.798398579426248
 20
-55.790324487079523
 30
0.0
 10
58.857785620186348
 20
-55.822736177832297
 30
0.0
 10
58.915695282587137
 20
-55.840433519540198
 30
0.0
 10
58.969361794324932
 20
-55.84250639593742
 30
0.0
 10
58.992782020006644
 20
-55.8434110053756
 30
0.0
 10
59.012927916446422
 20
-55.841244709669809
 30
0.0
 10
59.029802845020811
 20
-55.837796110486487
 30
0.0
 10
59.053095212739038
 20
-55.833036028691787
 30
0.0
 10
59.072560747102727
 20
-55.825341156954408
 30
0.0
 10
59.088448259414243
 20
-55.817043954096619
 30
0.0
 10
59.108214386128907
 20
-55.806721157182103
 30
0.0
 10
59.124471087101028
 20
-55.79440602632161
 30
0.0
 10
59.137650683033037
 20
-55.78223735493961
 30
0.0
 10
59.150886134416623
 20
-55.770017112429308
 30
0.0
 10
59.165184346907317
 20
-55.754098147209817
 30
0.0
 10
59.179043275495417
 20
-55.733289525620819
 30
0.0
 10
59.203682122140151
 20
-55.69629529241152
 30
0.0
 10
59.222253378211533
 20
-55.650871212001697
 30
0.0
 10
59.234206039693561
 20
-55.598413527229013
 30
0.0
 10
59.242198424775957
 20
-55.563336651851813
 30
0.0
 10
59.250000000000753
 20
-55.513003524176007
 30
0.0
 10
59.250000000000753
 20
-55.446416137238508
 30
0.0
 11
58.750000000000632
 21
-55.760852502478201
 31
0.0
 11
58.769073645941035
 21
-55.773313888659253
 31
0.0
 11
58.782355029722588
 21
-55.781421987954531
 31
0.0
 11
58.787555529209968
 21
-55.784388370390253
 31
0.0
 11
58.792877278862868
 21
-55.78731112449865
 31
0.0
 11
58.821264249975229
 21
-55.802462702839037
 31
0.0
 11
58.857678595685073
 21
-55.819948238377719
 31
0.0
 11
58.888951189074717
 21
-55.831498658642424
 31
0.0
 11
58.920166500335732
 21
-55.838460790352642
 31
0.0
 11
58.94928885947359
 21
-55.841462897244419
 31
0.0
 11
58.975576443084591
 21
-55.842746437600525
 31
0.0
 11
58.985101477978731
 21
-55.843038402022607
 31
0.0
 11
58.994679891132279
 21
-55.842876780022692
 31
0.0
 11
59.003912761777769
 21
-55.842136327118482
 31
0.0
 11
59.013327954053011
 21
-55.840909556270702
 31
0.0
 11
59.020918118356626
 21
-55.839580138546033
 31
0.0
 11
59.02872681407775
 21
-55.838016010642789
 31
0.0
 11
59.040822029974841
 21
-55.835450415555798
 31
0.0
 11
59.053338669870939
 21
-55.832235963469088
 31
0.0
 11
59.063585212655461
 21
-55.828754793357803
 31
0.0
 11
59.072920320865897
 21
-55.824827162056351
 31
0.0
 11
59.080340248904164
 21
-55.821237560760252
 31
0.0
 11
59.087840888793053
 21
-55.817361151474941
 31
0.0
 11
59.097946495483463
 21
-55.811991682717839
 31
0.0
 11
59.108160401941085
 21
-55.80601456824634
 31
0.0
 11
59.116810395423016
 21
-55.800063299331001
 31
0.0
 11
59.124758411132333
 21
-55.793767680041597
 31
0.0
 11
59.131299889280491
 21
-55.7880543863035
 31
0.0
 11
59.137605012805643
 21
-55.782279522088899
 31
0.0
 11
59.143856651526924
 21
-55.776463985798998
 31
0.0
 11
59.150032806653243
 21
-55.770457612677774
 31
0.0
 11
59.157161322603471
 21
-55.762893885849017
 31
0.0
 11
59.163699301533093
 21
-55.755167293183405
 31
0.0
 11
59.170300928716991
 21
-55.746270732542875
 31
0.0
 11
59.176574594649573
 21
-55.736996150214402
 31
0.0
 11
59.188841268211995
 21
-55.718263849556273
 31
0.0
 11
59.200992012330595
 21
-55.69781929814981
 31
0.0
 11
59.211997834620746
 21
-55.674834241832158
 31
0.0
 11
59.220721554244676
 21
-55.650702896549404
 31
0.0
 11
59.228461306778087
 21
-55.622764540538498
 31
0.0
 11
59.234208160309947
 21
-55.598404220295549
 31
0.0
 11
59.236901177394678
 21
-55.5864746359319
 31
0.0
 11
59.239157917424869
 21
-55.575796741914324
 31
0.0
 11
59.246404833089549
 21
-55.526980373612432
 31
0.0
 11
59.250000000000753
 21
-55.446416137238508
 31
0.0
  0
SPLINE
  5
D7
100
AcDbEntity
  8
0
  6
CONTINUOUS
 62
             7
100
AcDbSpline
210
0.0
220
0.0
230
1.0
 70
             0
 71
             3
 72
            38
 73
            34
 74
            63
 42
0.00000000001
 43
0.00000000001
 44
0.00000000001
 40
0.034629594331081
 40
0.034629594331081
 40
0.034629594331081
 40
0.034629594331081
 40
1.2096428797181422
 40
1.7955866235234337
 40
2.0671280660485536
 40
2.3146986633682114
 40
2.5335811809220488
 40
2.7530359644080664
 40
3.0013592223539298
 40
3.2737897425195448
 40
3.5212139108737412
 40
3.7688737439294644
 40
4.0162963721224934
 40
4.2882539188667126
 40
4.5361761021676905
 40
4.7553257666555329
 40
5.0015823626824725
 40
5.2480714515558233
 40
5.4943268483207603
 40
5.7676956147258407
 40
6.0168063348415126
 40
6.2368515984679176
 40
6.5092873005306728
 40
6.7576128669913569
 40
6.9770675033082483
 40
7.2229809036227461
 40
7.4691260719142036
 40
7.7150387944869756
 40
8.0444277755055946
 40
8.3403385631788396
 40
8.5947293884346045
 40
8.8868072429154452
 40
9.4713503733549693
 40
9.4713503733549693
 40
9.4713503733549693
 40
9.4713503733549693
 10
-96.994845223856373
 20
-33.500000000000107
 30
0.0
 10
-97.580788310740274
 20
-33.500000000000107
 30
0.0
 10
-98.163573429381074
 20
-33.414179231794613
 30
0.0
 10
-98.724643188040545
 20
-33.245268613944923
 30
0.0
 10
-98.98465738434237
 20
-33.166991077383408
 30
0.0
 10
-99.215747242351142
 20
-33.0781728462442
 30
0.0
 10
-99.416021129549677
 20
-32.989855653144019
 30
0.0
 10
-99.61681863062114
 20
-32.901307555714709
 30
0.0
 10
-99.838905846051944
 20
-32.790214310289798
 30
0.0
 10
-100.0727666075983
 20
-32.650473362365908
 30
0.0
 10
-100.28516132901601
 20
-32.523559212643903
 30
0.0
 10
-100.4895021247065
 20
-32.383629830004793
 30
0.0
 10
-100.6846185765333
 20
-32.231486715903401
 30
0.0
 10
-100.8990831627184
 20
-32.064256788846109
 30
0.0
 10
-101.0826802375106
 20
-31.897650897292209
 30
0.0
 10
-101.23764819381191
 20
-31.742694426098101
 30
0.0
 10
-101.41178435551291
 20
-31.568571170113099
 30
0.0
 10
-101.5750354332671
 20
-31.383893189439419
 30
0.0
 10
-101.7264750817447
 20
-31.18970834630062
 30
0.0
 10
-101.8945886355307
 20
-30.974143239014499
 30
0.0
 10
-102.0326213425043
 20
-30.766771296162801
 30
0.0
 10
-102.14550439880129
 20
-30.577886850944399
 30
0.0
 10
-102.2852637109831
 20
-30.344031026948301
 30
0.0
 10
-102.39637126932359
 20
-30.121948390441901
 30
0.0
 10
-102.4849304476875
 20
-29.92115593707652
 30
0.0
 10
-102.58416685046311
 20
-29.696154744149911
 30
0.0
 10
-102.66947619734449
 20
-29.465265681594101
 30
0.0
 10
-102.7403757195457
 20
-29.22979524847182
 30
0.0
 10
-102.8353424261406
 20
-28.914393242366909
 30
0.0
 10
-102.8943265212524
 20
-28.62442070783089
 30
0.0
 10
-102.93133088751399
 20
-28.372735648973819
 30
0.0
 10
-102.9738173093149
 20
-28.083764409850119
 30
0.0
 10
-102.9951455166691
 20
-27.79207697452091
 30
0.0
 10
-102.9951455166691
 20
-27.50000000000011
 30
0.0
 11
-96.994845223856373
 21
-33.500000000000107
 31
0.0
 11
-97.74520774797449
 21
-33.460841226403325
 31
0.0
 11
-98.315482181850598
 21
-33.358523684327629
 31
0.0
 11
-98.565432048027688
 21
-33.291958880538679
 31
0.0
 11
-98.795116069680802
 21
-33.22405268170872
 31
0.0
 11
-98.895403000641807
 21
-33.19339811285257
 31
0.0
 11
-99.001353601897563
 21
-33.158259968675651
 31
0.0
 11
-99.109248326748641
 21
-33.118544303118277
 31
0.0
 11
-99.221951517219765
 21
-33.073615315722577
 31
0.0
 11
-99.319723388538662
 21
-33.032093535624917
 31
0.0
 11
-99.415902402106283
 21
-32.98990800981759
 31
0.0
 11
-99.512219236133731
 21
-32.947205266134056
 31
0.0
 11
-99.609159933221036
 21
-32.902854928295625
 31
0.0
 11
-99.720105509228787
 21
-32.848917049315915
 31
0.0
 11
-99.83219416544965
 21
-32.790063483274892
 31
0.0
 11
-99.955557089220235
 21
-32.719990467138395
 31
0.0
 11
-100.07642404255682
 21
-32.648287901988944
 31
0.0
 11
-100.18195995255495
 21
-32.584854951797567
 31
0.0
 11
-100.28490734988173
 21
-32.520742031187545
 31
0.0
 11
-100.38698575033786
 21
-32.453083432929581
 31
0.0
 11
-100.48698702007803
 21
-32.382359175058099
 31
0.0
 11
-100.58401827769327
 21
-32.309526368175632
 31
0.0
 11
-100.68133935225839
 21
-32.234043708859907
 31
0.0
 11
-100.79167574944962
 21
-32.147444147222089
 31
0.0
 11
-100.90138030952815
 21
-32.057952327635114
 31
0.0
 11
-100.99646902474655
 21
-31.97502565457658
 31
0.0
 11
-101.08572450069562
 21
-31.892244685599476
 31
0.0
 11
-101.16029728664536
 21
-31.819744328807495
 31
0.0
 11
-101.23458297054351
 21
-31.745759422194205
 31
0.0
 11
-101.32145359210151
 21
-31.658448943454257
 31
0.0
 11
-101.40881054360568
 21
-31.567974398376766
 31
0.0
 11
-101.49268660061655
 21
-31.47609521840609
 31
0.0
 11
-101.57222210020785
 21
-31.383395169309026
 31
0.0
 11
-101.64804770571246
 21
-31.289759370163196
 31
0.0
 11
-101.72356813295931
 21
-31.193435807368957
 31
0.0
 11
-101.81001116510402
 21
-31.081861996459114
 31
0.0
 11
-101.89520331602708
 21
-30.967503378356511
 31
0.0
 11
-101.9675176121069
 21
-30.863434425149975
 31
0.0
 11
-102.03356969886738
 21
-30.761904901302056
 31
0.0
 11
-102.08730100276109
 21
-30.674867222136132
 31
0.0
 11
-102.14111249400332
 21
-30.585235717359211
 31
0.0
 11
-102.21271598601712
 21
-30.464552833507977
 31
0.0
 11
-102.2843170076314
 21
-30.338650966027359
 31
0.0
 11
-102.34379435577067
 21
-30.225581442754599
 31
0.0
 11
-102.39727527655438
 21
-30.115749119092026
 31
0.0
 11
-102.44066475097993
 21
-30.021001965876263
 31
0.0
 11
-102.48323963419607
 21
-29.924989561048612
 31
0.0
 11
-102.53257054744952
 21
-29.812360430600069
 31
0.0
 11
-102.58120062280267
 21
-29.696640869951882
 31
0.0
 11
-102.62600333239922
 21
-29.581165318693238
 31
0.0
 11
-102.66589665792776
 21
-29.468421038497116
 31
0.0
 11
-102.70118179404658
 21
-29.358873908368334
 31
0.0
 11
-102.73555639878742
 21
-29.245801104520901
 31
0.0
 11
-102.78475910453729
 21
-29.080070357549733
 31
0.0
 11
-102.8317121502478
 21
-28.907894410308558
 31
0.0
 11
-102.86615454129759
 21
-28.758226851633754
 31
0.0
 11
-102.89343124387786
 21
-28.615643510148928
 31
0.0
 11
-102.91247879674087
 21
-28.499099770999226
 31
0.0
 11
-102.92892178010007
 21
-28.389121184047642
 31
0.0
 11
-102.94608784677126
 21
-28.270331604878777
 31
0.0
 11
-102.96154288534697
 21
-28.150971731821684
 31
0.0
 11
-102.98561195766868
 21
-27.87336717005995
 31
0.0
 11
-102.9951455166691
 21
-27.50000000000011
 31
0.0
  0
SPLINE
  5
D6
100
AcDbEntity
  8
0
  6
CONTINUOUS
 62
             7
100
AcDbSpline
210
0.0
220
0.0
230
1.0
 70
             0
 71
             3
 72
            11
 73
             7
 74
             9
 42
0.00000000001
 43
0.00000000001
 44
0.00000000001
 40
355.39824309214322
 40
355.39824309214322
 40
355.39824309214322
 40
355.39824309214322
 40
359.07825541389929
 40
360.89918273550489
 40
362.75153620454773
 40
366.4001223802033
 40
366.4001223802033
 40
366.4001223802033
 40
366.4001223802033
 10
-110.689622200911
 20
-12.50000000000011
 30
0.0
 10
-110.7223195914555
 20
-14.346090773721411
 30
0.0
 10
-110.754799160967
 20
-16.1794350995896
 30
0.0
 10
-110.7870617551074
 20
-18.000076589721321
 30
0.0
 10
-110.8198811474397
 20
-19.852139294319102
 30
0.0
 10
-110.8523754994409
 20
-21.6853848833494
 30
0.0
 10
-110.88455073957201
 20
-23.500152304845098
 30
0.0
 11
-110.689622200911
 21
-12.500000000000112
 31
0.0
 11
-110.73134572169931
 21
-14.855504956323541
 31
0.0
 11
-110.76204158796881
 21
-16.58808922672668
 31
0.0
 11
-110.7748363034373
 21
-17.310164084406718
 31
0.0
 11
-110.78700951628981
 21
-17.997128650746316
 31
0.0
 11
-110.79949747854629
 21
-18.701842138894918
 31
0.0
 11
-110.81271839062909
 21
-19.447877075368655
 31
0.0
 11
-110.84335811640798
 21
-21.176568791557589
 31
0.0
 11
-110.88455073957201
 21
-23.500152304845098
 31
0.0
  0
SPLINE
  5
D5
100
AcDbEntity
  8
0
  6
CONTINUOUS
 62
             7
100
AcDbSpline
210
0.0
220
0.0
230
1.0
 70
             0
 71
             3
 72
            11
 73
             7
 74
             9
 42
0.00000000001
 43
0.00000000001
 44
0.00000000001
 40
3.686787070619054
 40
3.686787070619054
 40
3.686787070619054
 40
3.686787070619054
 40
4.1782472481666018
 40
4.4070574604681481
 40
4.6599270431479693
 40
5.1273277322586583
 40
5.1273277322586583
 40
5.1273277322586583
 40
5.1273277322586583
 10
-110.88455073957201
 20
-23.500152304845098
 30
0.0
 10
-111.0654050958306
 20
-23.675124631454
 30
0.0
 10
-111.2378917254821
 20
-23.841741557021489
 30
0.0
 10
-111.4025969473263
 20
-24.000569461215719
 30
0.0
 10
-111.5846209063708
 20
-24.176098103261491
 30
0.0
 10
-111.757380856103
 20
-24.342344877950101
 30
0.0
 10
-111.9215940384972
 20
-24.50000000000011
 30
0.0
 11
-110.88455073957201
 21
-23.500152304845098
 31
0.0
 11
-111.11341245024953
 21
-23.721452512625447
 31
0.0
 11
-111.27724125903113
 21
-23.879658157707553
 31
0.0
 11
-111.34010339819677
 21
-23.940302324267119
 31
0.0
 11
-111.40097459099906
 21
-23.999004996820311
 31
0.0
 11
-111.47163668953439
 21
-24.067140230863146
 31
0.0
 11
-111.54774302579619
 21
-24.140493221763041
 31
0.0
 11
-111.70966224391435
 21
-24.296364738413011
 31
0.0
 11
-111.9215940384972
 21
-24.50000000000011
 31
0.0
  0
SPLINE
  5
D4
100
AcDbEntity
  8
0
  6
CONTINUOUS
 62
             7
100
AcDbSpline
210
0.0
220
0.0
230
1.0
 70
             0
 71
             3
 72
            26
 73
            22
 74
            39
 42
0.00000000001
 43
0.00000000001
 44
0.00000000001
 40
0.0058768337997108
 40
0.0058768337997108
 40
0.0058768337997108
 40
0.0058768337997108
 40
0.1032995749048605
 40
0.1519786597655161
 40
0.2008255105175834
 40
0.2497378801070198
 40
0.2985848490382037
 40
0.3807570503263232
 40
0.4632406351465923
 40
0.5454138376241882
 40
0.6277722008891835
 40
0.7104437824530291
 40
0.7928025578528295
 40
0.9579620675635787
 40
1.1256181769341296
 40
1.2907789628909749
 40
1.333178196442049
 40
1.3824961053701237
 40
1.4373927907103208
 40
1.4920787338378052
 40
1.5835010087736683
 40
1.5835010087736683
 40
1.5835010087736683
 40
1.5835010087736683
 10
-102.9951455166691
 20
-13.50000000000011
 30
0.0
 10
-102.9951455166691
 20
-13.4513210587711
 30
0.0
 10
-102.9987001369098
 20
-13.402707041231819
 30
0.0
 10
-103.0057810453448
 20
-13.35454570779299
 30
0.0
 10
-103.01288635717439
 20
-13.3062183928231
 30
0.0
 10
-103.0235232308024
 20
-13.25847662056572
 30
0.0
 10
-103.03760623370189
 20
-13.21170381433072
 30
0.0
 10
-103.06129718882811
 20
-13.1330208472429
 30
0.0
 10
-103.09459647825101
 20
-13.05755761719851
 30
0.0
 10
-103.1367510718771
 20
-12.98702092148881
 30
0.0
 10
-103.179000652403
 20
-12.91632528551972
 30
0.0
 10
-103.22982203873281
 20
-12.851119633235699
 30
0.0
 10
-103.2880605115828
 20
-12.79288520900522
 30
0.0
 10
-103.4048499802887
 20
-12.6761038592644
 30
0.0
 10
-103.5487459397448
 20
-12.590065938197711
 30
0.0
 10
-103.70689545877219
 20
-12.54245485913739
 30
0.0
 10
-103.74749479568131
 20
-12.530232386054619
 30
0.0
 10
-103.79542563165769
 20
-12.518618123114489
 30
0.0
 10
-103.8497386024834
 20
-12.51063393490111
 30
0.0
 10
-103.9038430719109
 20
-12.502680397090099
 30
0.0
 10
-103.9529144979474
 20
-12.50000000000011
 30
0.0
 10
-103.9951921965618
 20
-12.50000000000011
 30
0.0
 11
-102.9951455166691
 21
-13.50000000000011
 31
0.0
 11
-102.99672431637758
 21
-13.43784147896004
 31
0.0
 11
-103.00066510285026
 21
-13.392054999656846
 31
0.0
 11
-103.0031841393514
 21
-13.37254786284554
 31
0.0
 11
-103.00607135773625
 21
-13.352571126139473
 31
0.0
 11
-103.00943867069958
 21
-13.330180139135496
 31
0.0
 11
-103.0134697578267
 21
-13.306346720434025
 31
0.0
 11
-103.0182957903949
 21
-13.282561876306195
 31
0.0
 11
-103.02366782712512
 21
-13.260063134395265
 31
0.0
 11
-103.02935499169037
 21
-13.23936638057555
 31
0.0
 11
-103.03559332158534
 21
-13.218389146221055
 31
0.0
 11
-103.04791886176463
 21
-13.178182857895498
 31
0.0
 11
-103.06224458748935
 21
-13.135711049474782
 31
0.0
 11
-103.07825507594369
 21
-13.095717961613413
 31
0.0
 11
-103.09611542402931
 21
-13.058296331824851
 31
0.0
 11
-103.1158690125214
 21
-13.022372624405534
 31
0.0
 11
-103.13672991636474
 21
-12.987056320713625
 31
0.0
 11
-103.15801194008196
 21
-12.951857288032617
 31
0.0
 11
-103.18036596590758
 21
-12.91733578026591
 31
0.0
 11
-103.2044396121829
 21
-12.884289967751464
 31
0.0
 11
-103.2286831121443
 21
-12.854648879593395
 31
0.0
 11
-103.25187686841363
 21
-12.829365136629646
 31
0.0
 11
-103.27633153486707
 21
-12.804613370346486
 31
0.0
 11
-103.33598193256041
 21
-12.746157246485094
 31
0.0
 11
-103.40477543196484
 21
-12.685699418872174
 31
0.0
 11
-103.47827773924278
 21
-12.634714950024803
 31
0.0
 11
-103.56065982823448
 21
-12.593510127429285
 31
0.0
 11
-103.65124792486868
 21
-12.560086467491256
 31
0.0
 11
-103.72401614101364
 21
-12.537300659739426
 31
0.0
 11
-103.73647809149051
 21
-12.533596023813301
 31
0.0
 11
-103.74971122461068
 21
-12.529941506782857
 31
0.0
 11
-103.7700205988298
 21
-12.524899905542965
 31
0.0
 11
-103.79394924477793
 21
-12.519736189558499
 31
0.0
 11
-103.82146882247139
 21
-12.514902316114132
 31
0.0
 11
-103.84781309258564
 21
-12.510916991290721
 31
0.0
 11
-103.87179788190987
 21
-12.507470529355729
 31
0.0
 11
-103.89531970723206
 21
-12.504568418161391
 31
0.0
 11
-103.93948556711051
 21
-12.501199990197957
 31
0.0
 11
-103.9951921965618
 21
-12.50000000000011
 31
0.0
  0
SPLINE
  5
D3
100
AcDbEntity
  8
0
  6
CONTINUOUS
 62
             7
100
AcDbSpline
210
0.0
220
0.0
230
1.0
 70
             0
 71
             3
 72
            11
 73
             7
 74
             9
 42
0.00000000001
 43
0.00000000001
 44
0.00000000001
 40
2.2375700593656549
 40
2.2375700593656549
 40
2.2375700593656549
 40
2.2375700593656549
 40
2.7049707335454372
 40
2.9578403311556825
 40
3.1866505677629866
 40
3.6781107210044555
 40
3.6781107210044555
 40
3.6781107210044555
 40
3.6781107210044555
 10
121.0784059615026
 20
-24.50000000000011
 30
0.0
 10
121.2426191342164
 20
-24.342344887243911
 30
0.0
 10
121.4153790828812
 20
-24.176098113625699
 30
0.0
 10
121.5974030526731
 20
-24.000569461215999
 30
0.0
 10
121.76210829201339
 20
-23.84174154015
 30
0.0
 10
121.9345949234316
 20
-23.67512461281791
 30
0.0
 10
122.1154492604266
 20
-23.50015230484502
 30
0.0
 11
121.0784059615026
 21
-24.50000000000011
 31
0.0
 11
121.29033774535966
 21
-24.296364748731197
 31
0.0
 11
121.45225695930128
 21
-24.140493236123358
 31
0.0
 11
121.52836330225347
 21
-24.067140238780716
 31
0.0
 11
121.59902540843767
 21
-23.999004997363173
 31
0.0
 11
121.65989661213591
 21
-23.940302314301338
 31
0.0
 11
121.72275876279646
 21
-23.879658136646288
 31
0.0
 11
121.88658756865608
 21
-23.721452494358765
 31
0.0
 11
122.1154492604266
 21
-23.50015230484502
 31
0.0
  0
SPLINE
  5
D2
100
AcDbEntity
  8
0
  6
CONTINUOUS
 62
             7
100
AcDbSpline
210
0.0
220
0.0
230
1.0
 70
             0
 71
             3
 72
            11
 73
             7
 74
             9
 42
0.00000000001
 43
0.00000000001
 44
0.00000000001
 40
60.30075123833484
 40
60.30075123833484
 40
60.30075123833484
 40
60.30075123833484
 40
63.953781130889837
 40
65.801690882529655
 40
67.616833772636795
 40
71.302630526394921
 40
71.302630526394921
 40
71.302630526394921
 40
71.302630526394921
 10
122.1154492604266
 20
-23.50015230484502
 30
0.0
 10
122.1477019582495
 20
-21.681016067674111
 30
0.0
 10
122.1801975848813
 20
-19.847696274951119
 30
0.0
 10
122.2129382448836
 20
-18.000076590224811
 30
0.0
 10
122.2450983523604
 20
-16.18521862360771
 30
0.0
 10
122.27757623314019
 20
-14.351972504620621
 30
0.0
 10
122.3103777990888
 20
-12.50000000000011
 30
0.0
 11
122.1154492604266
 21
-23.50015230484502
 31
0.0
 11
122.15672328462048
 21
-21.171976518912079
 31
0.0
 11
122.18738678426749
 21
-19.441942363977244
 31
0.0
 11
122.20055768000097
 21
-18.698729498139727
 31
0.0
 11
122.21299263611265
 21
-17.997007186446435
 31
0.0
 11
122.22510007028423
 21
-17.313754719556751
 31
0.0
 11
122.23782707230932
 21
-16.59550162027589
 31
0.0
 11
122.26854734606628
 21
-14.861541062877617
 31
0.0
 11
122.3103777990888
 21
-12.50000000000011
 31
0.0
  0
SPLINE
  5
D1
100
AcDbEntity
  8
0
  6
CONTINUOUS
 62
             7
100
AcDbSpline
210
0.0
220
0.0
230
1.0
 70
             0
 71
             3
 72
            11
 73
             7
 74
             9
 42
0.00000000001
 43
0.00000000001
 44
0.00000000001
 40
60.300751238285002
 40
60.300751238285002
 40
60.300751238285002
 40
60.300751238285002
 40
63.949229776485879
 40
65.801690882479448
 40
67.622947357222372
 40
71.3026305263447
 40
71.3026305263447
 40
71.3026305263447
 40
71.3026305263447
 10
-122.1154492604276
 20
-23.500152304844701
 30
0.0
 10
-122.14762262208239
 20
-21.68549083424961
 30
0.0
 10
-122.1801169454736
 20
-19.852246914877501
 30
0.0
 10
-122.2129382448822
 20
-18.000076590224811
 30
0.0
 10
-122.2452066708501
 20
-16.179105998623019
 30
0.0
 10
-122.27768634648849
 20
-14.34575551802962
 30
0.0
 10
-122.3103777990875
 20
-12.50000000000011
 30
0.0
 11
-122.1154492604276
 21
-23.500152304844701
 31
0.0
 11
-122.15663987551206
 21
-21.176682078686429
 31
0.0
 11
-122.18727877997341
 21
-19.448036731230133
 31
0.0
 11
-122.20050071317928
 21
-18.701944181721707
 31
0.0
 11
-122.21299011860982
 21
-17.997149253992465
 31
0.0
 11
-122.22516696563184
 21
-17.309979599794751
 31
0.0
 11
-122.23796568036153
 21
-16.587679024164412
 31
0.0
 11
-122.26866034246846
 21
-14.855162645774254
 31
0.0
 11
-122.3103777990875
 21
-12.50000000000011
 31
0.0
  0
SPLINE
  5
D0
100
AcDbEntity
  8
0
  6
CONTINUOUS
 62
             7
100
AcDbSpline
210
0.0
220
0.0
230
1.0
 70
             0
 71
             3
 72
            11
 73
             7
 74
             9
 42
0.00000000001
 43
0.00000000001
 44
0.00000000001
 40
2.2375700593504688
 40
2.2375700593504688
 40
2.2375700593504688
 40
2.2375700593504688
 40
2.7049707423804268
 40
2.9578403311404862
 40
3.1866505657892095
 40
3.6781107209910644
 40
3.6781107209910644
 40
3.6781107209910644
 40
3.6781107209910644
 10
-121.0784059615014
 20
-24.50000000000011
 30
0.0
 10
-121.24261913996349
 20
-24.342344881725211
 30
0.0
 10
-121.41537908925061
 20
-24.176098107482321
 30
0.0
 10
-121.59740305267189
 20
-24.000569461215999
 30
0.0
 10
-121.7621082906024
 20
-23.841741541509609
 30
0.0
 10
-121.93459492180671
 20
-23.67512461438881
 30
0.0
 10
-122.1154492604276
 20
-23.500152304844701
 30
0.0
 11
-121.0784059615014
 21
-24.50000000000011
 31
0.0
 11
-121.29033775162608
 21
-24.29636474270195
 31
0.0
 11
-121.45225696737154
 21
-24.140493228345886
 31
0.0
 11
-121.52836330580227
 21
-24.067140235358096
 31
0.0
 11
-121.59902540795554
 21
-23.99900499782693
 31
0.0
 11
-121.65989661057516
 21
-23.9403023158054
 31
0.0
 11
-121.72275876058289
 21
-23.87965813878079
 31
0.0
 11
-121.88658756703958
 21
-23.721452495919596
 31
0.0
 11
-122.1154492604276
 21
-23.500152304844701
 31
0.0
  0
SPLINE
  5
CF
100
AcDbEntity
  8
0
  6
CONTINUOUS
 62
             7
100
AcDbSpline
210
0.0
220
0.0
230
1.0
 70
             0
 71
             3
 72
            29
 73
            25
 74
            45
 42
0.00000000001
 43
0.00000000001
 44
0.00000000001
 40
0.0058443308168493
 40
0.0058443308168493
 40
0.0058443308168493
 40
0.0058443308168493
 40
0.0972651334121027
 40
0.1519505643919439
 40
0.1943480931979845
 40
0.2436652008642663
 40
0.2985616755904797
 40
0.3618209505919141
 40
0.4463409904150333
 40
0.5454894157252668
 40
0.6088300274471212
 40
0.6935558307607843
 40
0.7929787253567994
 40
0.8753366381195915
 40
0.9580080857098716
 40
1.0403670011972654
 40
1.1225390666766872
 40
1.2050220985662996
 40
1.2871942373534049
 40
1.3420905125726015
 40
1.3914076522109333
 40
1.4338054220581327
 40
1.4884905566206004
 40
1.5799113799604716
 40
1.5799113799604716
 40
1.5799113799604716
 40
1.5799113799604716
 10
137.49636358827911
 20
-7.5000000000001137
 30
0.0
 10
137.49636358827911
 20
-7.4577231142851019
 30
0.0
 10
137.49904420095311
 20
-7.4086523604491958
 30
0.0
 10
137.5069984838033
 20
-7.354548518203103
 30
0.0
 10
137.51316542681241
 20
-7.3126018942295161
 30
0.0
 10
137.5229953802436
 20
-7.2642743749045167
 30
0.0
 10
137.5388219361287
 20
-7.2117087676486156
 30
0.0
 10
137.55705947243791
 20
-7.1511354390040944
 30
0.0
 10
137.58710165479681
 20
-7.0721347781789063
 30
0.0
 10
137.63796321291389
 20
-6.9870259528586018
 30
0.0
 10
137.67045593475169
 20
-6.9326544886437196
 30
0.0
 10
137.71896507636501
 20
-6.8631899298595158
 30
0.0
 10
137.78926905412899
 20
-6.7928887017023101
 30
0.0
 10
137.84750603154851
 20
-6.7346540019462111
 30
0.0
 10
137.91271428253339
 20
-6.6838361679687068
 30
0.0
 10
137.98341250143179
 20
-6.6415898331590029
 30
0.0
 10
138.05395032527539
 20
-6.5994393438076031
 30
0.0
 10
138.12941445369211
 20
-6.5661434600979192
 30
0.0
 10
138.2080981371723
 20
-6.5424551012092991
 30
0.0
 10
138.26066389981821
 20
-6.5266297534913056
 30
0.0
 10
138.30899159901449
 20
-6.5168005239945046
 30
0.0
 10
138.3509385328276
 20
-6.5106340313370197
 30
0.0
 10
138.40504217385211
 20
-6.5026804176925168
 30
0.0
 10
138.45411283593921
 20
-6.5000000000001137
 30
0.0
 10
138.49638984464619
 20
-6.5000000000001137
 30
0.0
 11
137.49636358827911
 21
-7.5000000000001137
 31
0.0
 11
137.49758243677826
 21
-7.4441667675605778
 31
0.0
 11
137.50108248086087
 21
-7.3991083151877657
 31
0.0
 11
137.50411639727636
 21
-7.374692043419758
 31
0.0
 11
137.50751474595114
 21
-7.3510369802896278
 31
0.0
 11
137.51025591528196
 21
-7.3327016720424592
 31
0.0
 11
137.51336244018128
 21
-7.3137395631712847
 31
0.0
 11
137.51782410227349
 21
-7.2904012108724894
 31
0.0
 11
137.52326203756559
 21
-7.2664812085219186
 31
0.0
 11
137.5303347097439
 21
-7.2402844198355218
 31
0.0
 11
137.53791638833127
 21
-7.2147164131665305
 31
0.0
 11
137.54669598859596
 21
-7.1858410996836461
 31
0.0
 11
137.55600421699256
 21
-7.156919148275648
 31
0.0
 11
137.5704983678522
 21
-7.1171291895833244
 31
0.0
 11
137.58859858195061
 21
-7.0758572031861346
 31
0.0
 11
137.61471338666294
 21
-7.0267092958739044
 31
0.0
 11
137.64083076090961
 21
-6.9822275618831995
 31
0.0
 11
137.65514623586589
 21
-6.9584330923501163
 31
0.0
 11
137.6693947641765
 21
-6.9357120174760327
 31
0.0
 11
137.69189599442603
 21
-6.9027001384687718
 31
0.0
 11
137.71872708121828
 21
-6.8679734332355116
 31
0.0
 11
137.7545880406513
 21
-6.828136548488744
 31
0.0
 11
137.79140091635281
 21
-6.7907569228561666
 31
0.0
 11
137.82025156840314
 21
-6.7622061965191902
 31
0.0
 11
137.84921949553461
 21
-6.7353309838284714
 31
0.0
 11
137.88045053148309
 21
-6.7095004592297576
 31
0.0
 11
137.91372460699927
 21
-6.6852015623338765
 31
0.0
 11
137.94824769770142
 21
-6.6628490073963373
 31
0.0
 11
137.98344816302082
 21
-6.6415685232667112
 31
0.0
 11
138.01876489603472
 21
-6.6207097285109269
 31
0.0
 11
138.05468885393211
 21
-6.6009582362248347
 31
0.0
 11
138.0920584972049
 21
-6.5831154838652104
 31
0.0
 11
138.13168485404327
 21
-6.5672171933136489
 31
0.0
 11
138.17349930582299
 21
-6.5530910159881621
 31
0.0
 11
138.21411187913637
 21
-6.5406446155837337
 31
0.0
 11
138.23897624541314
 21
-6.5332753740533418
 31
0.0
 11
138.26361398049022
 21
-6.5266726231286381
 31
0.0
 11
138.28688367831467
 21
-6.5214308980136568
 31
0.0
 11
138.31012923749381
 21
-6.5169975342314492
 31
0.0
 11
138.32909156745973
 21
-6.5138912194303291
 31
0.0
 11
138.34742706362567
 21
-6.5111502418697649
 31
0.0
 11
138.37108200316055
 21
-6.5077521834770087
 31
0.0
 11
138.39549808677273
 21
-6.5047185305845989
 31
0.0
 11
138.44055650802073
 21
-6.501218758827946
 31
0.0
 11
138.49638984464619
 21
-6.5000000000001137
 31
0.0
  0
SPLINE
  5
CE
100
AcDbEntity
  8
0
  6
CONTINUOUS
 62
             7
100
AcDbSpline
210
0.0
220
0.0
230
1.0
 70
             0
 71
             3
 72
            38
 73
            34
 74
            63
 42
0.00000000001
 43
0.00000000001
 44
0.00000000001
 40
0.0176755657966421
 40
0.0176755657966421
 40
0.0176755657966421
 40
0.0176755657966421
 40
0.2919411509547499
 40
0.4559997111935688
 40
0.6025391446363988
 40
0.7492750570283887
 40
0.8958146678237651
 40
1.0315834979797176
 40
1.1553672264532919
 40
1.2648068932347625
 40
1.3881327724149382
 40
1.5115759996844178
 40
1.6349023516816747
 40
1.7586127783352301
 40
1.8824416013883072
 40
2.0061523977630884
 40
2.1292794731864628
 40
2.2525232187328852
 40
2.3756505343893224
 40
2.4852244456763115
 40
2.6091845008400201
 40
2.7451619941834613
 40
2.8688725299494804
 40
2.9927014880083886
 40
3.1164124318512814
 40
3.3629272780172474
 40
3.6103750415450433
 40
3.8568901902738362
 40
4.0215808023563477
 40
4.1695337500300891
 40
4.296728209936437
 40
4.4607847631613691
 40
4.7350490026249998
 40
4.7350490026249998
 40
4.7350490026249998
 40
4.7350490026249998
 10
137.49636358827911
 20
-9.5000000000001137
 30
0.0
 10
137.49636358827911
 20
-9.6268319668741071
 30
0.0
 10
137.48832158424921
 20
-9.7740460897412049
 30
0.0
 10
137.46445811179669
 20
-9.9363598164254938
 30
0.0
 10
137.44314291965989
 20
-10.08134073978411
 30
0.0
 10
137.41123341020429
 20
-10.224565078469309
 30
0.0
 10
137.36898586476821
 20
-10.364882584279121
 30
0.0
 10
137.3298435483002
 20
-10.49488663922909
 30
0.0
 10
137.2854305561475
 20
-10.610428396022311
 30
0.0
 10
137.24126840625581
 20
-10.710562032639499
 30
0.0
 10
137.19150275800371
 20
-10.82340108939562
 30
0.0
 10
137.13482629370981
 20
-10.9330642498181
 30
0.0
 10
137.07156162604369
 20
-11.038927231648611
 30
0.0
 10
137.00809993353189
 20
-11.145119902047011
 30
0.0
 10
136.9381303080315
 20
-11.2472855955358
 30
0.0
 10
136.86205354046581
 20
-11.344839101758989
 30
0.0
 10
136.7863357359368
 20
-11.441932308419499
 30
0.0
 10
136.70471229447409
 20
-11.53427208652241
 30
0.0
 10
136.61764638750751
 20
-11.621334499220691
 30
0.0
 10
136.54016437699491
 20
-11.698813400101219
 30
0.0
 10
136.44836801881141
 20
-11.78211720493891
 30
0.0
 10
136.3411381073829
 20
-11.86573314116521
 30
0.0
 10
136.24358174370241
 20
-11.941805820656301
 30
0.0
 10
136.14141322957221
 20
-12.01177156637792
 30
0.0
 10
136.03521777917871
 20
-12.075229615057509
 30
0.0
 10
135.82360549732181
 20
-12.201680441656411
 30
0.0
 10
135.59721442784669
 20
-12.301567774871501
 30
0.0
 10
135.36116471675101
 20
-12.372632903059809
 30
0.0
 10
135.20346580208911
 20
-12.42010973975491
 30
0.0
 10
135.05848123181761
 20
-12.449597857845699
 30
0.0
 10
134.93263930273329
 20
-12.468097574470701
 30
0.0
 10
134.7703272558725
 20
-12.491958674611
 30
0.0
 10
134.6231142726617
 20
-12.50000000000011
 30
0.0
 10
134.49628247650631
 20
-12.50000000000011
 30
0.0
 11
137.49636358827911
 21
-9.5000000000001137
 31
0.0
 11
137.49273690667272
 21
-9.6672978664688145
 31
0.0
 11
137.4824461206544
 21
-9.8010492864000494
 31
0.0
 11
137.47354888074395
 21
-9.8729065036971626
 31
0.0
 11
137.46324019846966
 21
-9.9446437764099507
 31
0.0
 11
137.45310919903997
 21
-10.012016322403058
 31
0.0
 11
137.44125239564875
 21
-10.081910605751457
 31
0.0
 11
137.42671223186997
 21
-10.153044957563433
 31
0.0
 11
137.40931643111642
 21
-10.224731773258613
 31
0.0
 11
137.38935226098195
 21
-10.296464293960984
 31
0.0
 11
137.36808358292055
 21
-10.367879348637512
 31
0.0
 11
137.34812216158656
 21
-10.433408465977967
 31
0.0
 11
137.32698563645815
 21
-10.498225889495881
 31
0.0
 11
137.30584688779444
 21
-10.556462862718377
 31
0.0
 11
137.28347431974524
 21
-10.612798720415903
 31
0.0
 11
137.26319673707556
 21
-10.660583389823749
 31
0.0
 11
137.24217281712328
 21
-10.708511363698417
 31
0.0
 11
137.21713086830192
 21
-10.764899388994804
 31
0.0
 11
137.19069135716484
 21
-10.82210243638106
 31
0.0
 11
137.16292485404318
 21
-10.877993064594033
 31
0.0
 11
137.13372010281805
 21
-10.932446483032013
 31
0.0
 11
137.10307827267911
 21
-10.985880724830233
 31
0.0
 11
137.07160543520456
 21
-11.038853924247041
 31
0.0
 11
137.03973692724145
 21
-11.091870092254922
 31
0.0
 11
137.00704735882971
 21
-11.144397041384199
 31
0.0
 11
136.97285092352558
 21
-11.196023420886865
 31
0.0
 11
136.93706909564031
 21
-11.246574138197207
 31
0.0
 11
136.89989528890089
 21
-11.296055463130029
 31
0.0
 11
136.86197375657264
 21
-11.344941408925395
 31
0.0
 11
136.82402639294392
 21
-11.39334485257015
 31
0.0
 11
136.7853562301834
 21
-11.441135580059324
 31
0.0
 11
136.74521572977321
 21
-11.487965294037595
 31
0.0
 11
136.70322535756475
 21
-11.533973767522721
 31
0.0
 11
136.65954800950823
 21
-11.579211409353796
 31
0.0
 11
136.61611380048228
 21
-11.622867024737689
 31
0.0
 11
136.57897190706342
 21
-11.659859790176796
 31
0.0
 11
136.54168644312696
 21
-11.696110296320542
 31
0.0
 11
136.49705977210033
 21
-11.737501197099602
 31
0.0
 11
136.44951651507657
 21
-11.778964980637333
 31
0.0
 11
136.39466553217028
 21
-11.823711347104863
 31
0.0
 11
136.33949858624845
 21
-11.867011609950536
 31
0.0
 11
136.29083893992808
 21
-11.904753524968669
 31
0.0
 11
136.24232415774298
 21
-11.94117052026756
 31
0.0
 11
136.19280282009026
 21
-11.97624732570684
 31
0.0
 11
136.14511314624579
 21
-12.00807615500263
 31
0.0
 11
136.10130703562143
 21
-12.035551822507983
 31
0.0
 11
136.05633732267347
 21
-12.062609441460495
 31
0.0
 11
135.94855524297242
 21
-12.126280525621976
 31
0.0
 11
135.82845969751151
 21
-12.192899217266486
 31
0.0
 11
135.71016540152615
 21
-12.250123789981746
 31
0.0
 11
135.5904034616787
 21
-12.298346575447098
 31
0.0
 11
135.46496111172331
 21
-12.34072499581692
 31
0.0
 11
135.34312407284159
 21
-12.378064219480718
 31
0.0
 11
135.26852987940097
 21
-12.400172409763661
 31
0.0
 11
135.19461557284893
 21
-12.419981083621296
 31
0.0
 11
135.12480564162007
 21
-12.435706535278239
 31
0.0
 11
135.05506822367138
 21
-12.449006827445139
 31
0.0
 11
134.99818071203043
 21
-12.458325894877811
 31
0.0
 11
134.94317372061056
 21
-12.466548935261507
 31
0.0
 11
134.8722084109651
 21
-12.476743220766812
 31
0.0
 11
134.79895965724663
 21
-12.485844275082625
 31
0.0
 11
134.66378352904601
 21
-12.496343690295793
 31
0.0
 11
134.49628247650631
 21
-12.50000000000011
 31
0.0
  0
ARC
  5
CD
100
AcDbEntity
  8
0
  6
CONTINUOUS
 62
             7
100
AcDbCircle
 10
-101.4999999999992
 20
0.99999999999989
 40
0.5
100
AcDbArc
 50
90.0
 51
179.99999999998698
  0
ARC
  5
CC
100
AcDbEntity
  8
0
  6
CONTINUOUS
 62
             7
100
AcDbCircle
 10
-100.480097531799
 20
1.0
 40
0.50000000000006
100
AcDbArc
 50
0.0
 51
90.0
  0
ARC
  5
CB
100
AcDbEntity
  8
0
  6
CONTINUOUS
 62
             7
100
AcDbCircle
 10
89.00000000000085
 20
-60.00000000000011
 40
4.99999999999993
100
AcDbArc
 50
-64.15806723683463
 51
0.0
  0
ARC
  5
CA
100
AcDbEntity
  8
0
  6
CONTINUOUS
 62
             7
100
AcDbCircle
 10
-88.99999999999926
 20
-60.00000000000011
 40
5.0
100
AcDbArc
 50
180.0
 51
-115.84193276316596
  0
LINE
  5
C9
100
AcDbEntity
  8
0
  6
CONTINUOUS
 62
             7
100
AcDbLine
 10
-101.4999999999992
 20
1.49999999999989
 11
-101.03112887414861
 21
1.49999999999989
  0
LINE
  5
C8
100
AcDbEntity
  8
0
  6
CONTINUOUS
 62
             7
100
AcDbLine
 10
-101.03112887414861
 20
1.49999999999989
 11
-100.480097531799
 21
1.49999999999989
  0
LINE
  5
C7
100
AcDbEntity
  8
0
  6
CONTINUOUS
 62
             7
100
AcDbLine
 10
-157.5
 20
0.0
 11
157.5
 21
0.0
  0
LINE
  5
C6
100
AcDbEntity
  8
0
  6
CONTINUOUS
 62
             7
100
AcDbLine
 10
157.5
 20
-3.10582854123021
 11
144.8327796662702
 21
-6.50000000000011
  0
LINE
  5
C5
100
AcDbEntity
  8
0
  6
CONTINUOUS
 62
             7
100
AcDbLine
 10
157.5
 20
0.0
 11
157.5
 21
-3.10582854123021
  0
LINE
  5
C4
100
AcDbEntity
  8
0
  6
CONTINUOUS
 62
             7
100
AcDbLine
 10
-99.98009753179895
 20
1.0
 11
-99.98009753179895
 21
0.0
  0
LINE
  5
C3
100
AcDbEntity
  8
0
  6
CONTINUOUS
 62
             7
100
AcDbLine
 10
-101.9999999999992
 20
1.0
 11
-101.9999999999992
 21
0.0
  0
LINE
  5
C2
100
AcDbEntity
  8
0
  6
CONTINUOUS
 62
             7
100
AcDbLine
 10
-101.03112887414849
 20
1.0
 11
-101.03112887414861
 21
0.0
  0
LINE
  5
C1
100
AcDbEntity
  8
0
  6
CONTINUOUS
 62
             7
100
AcDbLine
 10
-101.47903208238731
 20
1.0
 11
-101.47903208238731
 21
0.0
  0
LINE
  5
C0
100
AcDbEntity
  8
0
  6
CONTINUOUS
 62
             7
100
AcDbLine
 10
-100.480097531799
 20
1.0
 11
-100.480097531799
 21
0.0
  0
LINE
  5
BF
100
AcDbEntity
  8
0
  6
CONTINUOUS
 62
             7
100
AcDbLine
 10
-157.5
 20
0.0
 11
-157.5
 21
-3.10582854123021
  0
LINE
  5
BE
100
AcDbEntity
  8
0
  6
CONTINUOUS
 62
             7
100
AcDbLine
 10
-101.9999999999992
 20
1.0
 11
-101.47903208238731
 21
1.0
  0
LINE
  5
BD
100
AcDbEntity
  8
0
  6
CONTINUOUS
 62
             7
100
AcDbLine
 10
-101.03112887414849
 20
1.0
 11
-101.47903208238731
 21
1.0
  0
LINE
  5
BC
100
AcDbEntity
  8
0
  6
CONTINUOUS
 62
             7
100
AcDbLine
 10
-99.98009753179895
 20
1.0
 11
-100.480097531799
 21
1.0
  0
LINE
  5
BB
100
AcDbEntity
  8
0
  6
CONTINUOUS
 62
             7
100
AcDbLine
 10
-157.5
 20
-3.10582854123021
 11
157.5
 21
-3.10582854123021
  0
LINE
  5
BA
100
AcDbEntity
  8
0
  6
CONTINUOUS
 62
             7
100
AcDbLine
 10
-101.03112887414849
 20
1.0
 11
-100.480097531799
 21
1.0
  0
LINE
  5
B9
100
AcDbEntity
  8
0
  6
CONTINUOUS
 62
             7
100
AcDbLine
 10
-100.480097531799
 20
1.49999999999989
 11
-100.480097531799
 21
1.0
  0
LINE
  5
B8
100
AcDbEntity
  8
0
  6
CONTINUOUS
 62
             7
100
AcDbLine
 10
-101.03112887414861
 20
1.49999999999989
 11
-101.03112887414849
 21
1.0
  0
LINE
  5
B7
100
AcDbEntity
  8
0
  6
CONTINUOUS
 62
             7
100
AcDbLine
 10
143.0000000000008
 20
-6.50000000000011
 11
144.8327796662702
 21
-6.50000000000011
  0
LINE
  5
B6
100
AcDbEntity
  8
0
  6
CONTINUOUS
 62
             7
100
AcDbLine
 10
-144.8327796662702
 20
-6.50000000000011
 11
-142.99999999999929
 21
-6.50000000000011
  0
LINE
  5
B5
100
AcDbEntity
  8
0
  6
CONTINUOUS
 62
             7
100
AcDbLine
 10
-137.49636358827749
 20
-7.50000000000011
 11
-137.49636358827749
 21
-9.5
  0
LINE
  5
B4
100
AcDbEntity
  8
0
  6
CONTINUOUS
 62
             7
100
AcDbLine
 10
-142.99999999999929
 20
-6.50000000000011
 11
-142.29289321881259
 21
-6.50000000000011
  0
LINE
  5
B3
100
AcDbEntity
  8
0
  6
CONTINUOUS
 62
             7
100
AcDbLine
 10
-142.29289321881259
 20
-6.50000000000011
 11
-138.4963898446446
 21
-6.50000000000011
  0
LINE
  5
B2
100
AcDbEntity
  8
0
  6
CONTINUOUS
 62
             7
100
AcDbLine
 10
-138.4963898446446
 20
-6.50000000000011
 11
-59.24999999999909
 21
-6.50000000000011
  0
LINE
  5
B1
100
AcDbEntity
  8
0
  6
CONTINUOUS
 62
             7
100
AcDbLine
 10
59.25000000000063
 20
-6.50000000000011
 11
58.75000000000063
 21
-6.50000000000011
  0
LINE
  5
B0
100
AcDbEntity
  8
0
  6
CONTINUOUS
 62
             7
100
AcDbLine
 10
-57.24999999999909
 20
-7.50000000000011
 11
57.25000000000063
 21
-7.50000000000011
  0
LINE
  5
AF
100
AcDbEntity
  8
0
  6
CONTINUOUS
 62
             7
100
AcDbLine
 10
-57.24999999999909
 20
-6.50000000000011
 11
-57.24999999999909
 21
-7.50000000000011
  0
LINE
  5
AE
100
AcDbEntity
  8
0
  6
CONTINUOUS
 62
             7
100
AcDbLine
 10
-59.24999999999909
 20
-6.50000000000011
 11
-59.24999999999909
 21
-7.50000000000011
  0
LINE
  5
AD
100
AcDbEntity
  8
0
  6
CONTINUOUS
 62
             7
100
AcDbLine
 10
-57.74999999999915
 20
-6.50000000000011
 11
-58.74999999999915
 21
-6.50000000000011
  0
LINE
  5
AC
100
AcDbEntity
  8
0
  6
CONTINUOUS
 62
             7
100
AcDbLine
 10
-57.24999999999909
 20
-6.50000000000011
 11
-57.74999999999915
 21
-6.50000000000011
  0
LINE
  5
AB
100
AcDbEntity
  8
0
  6
CONTINUOUS
 62
             7
100
AcDbLine
 10
-58.74999999999915
 20
-6.50000000000011
 11
-59.24999999999909
 21
-6.50000000000011
  0
LINE
  5
AA
100
AcDbEntity
  8
0
  6
CONTINUOUS
 62
             7
100
AcDbLine
 10
57.25000000000063
 20
-6.50000000000011
 11
-57.24999999999909
 21
-6.50000000000011
  0
LINE
  5
A9
100
AcDbEntity
  8
0
  6
CONTINUOUS
 62
             7
100
AcDbLine
 10
57.75000000000063
 20
-6.50000000000011
 11
57.25000000000063
 21
-6.50000000000011
  0
LINE
  5
A8
100
AcDbEntity
  8
0
  6
CONTINUOUS
 62
             7
100
AcDbLine
 10
58.75000000000063
 20
-6.50000000000011
 11
57.75000000000063
 21
-6.50000000000011
  0
LINE
  5
A7
100
AcDbEntity
  8
0
  6
CONTINUOUS
 62
             7
100
AcDbLine
 10
102.9951455166706
 20
-13.50000000000011
 11
102.9951455166706
 21
-27.50000000000011
  0
LINE
  5
A6
100
AcDbEntity
  8
0
  6
CONTINUOUS
 62
             7
100
AcDbLine
 10
94.00000000000085
 20
-60.00000000000011
 11
-93.99999999999926
 21
-60.00000000000011
  0
LINE
  5
A5
100
AcDbEntity
  8
0
  6
CONTINUOUS
 62
             7
100
AcDbLine
 10
94.00000000000085
 20
-55.50000000000011
 11
93.99867020336512
 21
-55.5013297966357
  0
LINE
  5
A4
100
AcDbEntity
  8
0
  6
CONTINUOUS
 62
             7
100
AcDbLine
 10
94.00000000000085
 20
-55.50000000000011
 11
94.00000000000085
 21
-60.00000000000011
  0
LINE
  5
A3
100
AcDbEntity
  8
0
  6
CONTINUOUS
 62
             7
100
AcDbLine
 10
93.99468070055951
 20
-34.50000000000011
 11
93.99468070055951
 21
-54.79821251825481
  0
LINE
  5
A2
100
AcDbEntity
  8
0
  6
CONTINUOUS
 62
             7
100
AcDbLine
 10
94.99473669630413
 20
-33.50000000000011
 11
59.25000000000063
 21
-33.50000000000011
  0
LINE
  5
A1
100
AcDbEntity
  8
0
  6
CONTINUOUS
 62
             7
100
AcDbLine
 10
-94.99473669630254
 20
-33.50000000000011
 11
-96.99484522385637
 21
-33.50000000000011
  0
LINE
  5
A0
100
AcDbEntity
  8
0
  6
CONTINUOUS
 62
             7
100
AcDbLine
 10
58.75000000000063
 20
-6.50000000000011
 11
58.75000000000063
 21
-55.7608525024782
  0
LINE
  5
9F
100
AcDbEntity
  8
0
  6
CONTINUOUS
 62
             7
100
AcDbLine
 10
-58.74999999999915
 20
-6.50000000000011
 11
-58.74999999999915
 21
-55.7608525024782
  0
LINE
  5
9E
100
AcDbEntity
  8
0
  6
CONTINUOUS
 62
             7
100
AcDbLine
 10
59.25000000000063
 20
-24.50000000000011
 11
59.25000000000063
 21
-27.50000000000011
  0
LINE
  5
9D
100
AcDbEntity
  8
0
  6
CONTINUOUS
 62
             7
100
AcDbLine
 10
59.25000000000063
 20
-12.50000000000011
 11
59.25000000000075
 21
-23.50015230484331
  0
LINE
  5
9C
100
AcDbEntity
  8
0
  6
CONTINUOUS
 62
             7
100
AcDbLine
 10
59.25000000000063
 20
-9.50000000000011
 11
59.25000000000063
 21
-12.50000000000011
  0
LINE
  5
9B
100
AcDbEntity
  8
0
  6
CONTINUOUS
 62
             7
100
AcDbLine
 10
59.25000000000063
 20
-6.50000000000011
 11
59.25000000000063
 21
-7.50000000000011
  0
LINE
  5
9A
100
AcDbEntity
  8
0
  6
CONTINUOUS
 62
             7
100
AcDbLine
 10
138.49638984464619
 20
-6.50000000000011
 11
59.25000000000063
 21
-6.50000000000011
  0
LINE
  5
99
100
AcDbEntity
  8
0
  6
CONTINUOUS
 62
             7
100
AcDbLine
 10
-59.24999999999915
 20
-34.50000000000011
 11
-93.99468070055809
 21
-34.50000000000011
  0
LINE
  5
98
100
AcDbEntity
  8
0
  6
CONTINUOUS
 62
             7
100
AcDbLine
 10
-93.99468070055809
 20
-34.50000000000011
 11
-93.99468070055809
 21
-54.79821251825481
  0
LINE
  5
97
100
AcDbEntity
  8
0
  6
CONTINUOUS
 62
             7
100
AcDbLine
 10
-59.24999999999915
 20
-24.50000000000011
 11
-59.24999999999915
 21
-27.50000000000011
  0
LINE
  5
96
100
AcDbEntity
  8
0
  6
CONTINUOUS
 62
             7
100
AcDbLine
 10
-59.24999999999915
 20
-23.50015230484331
 11
-59.24999999999915
 21
-24.50000000000011
  0
LINE
  5
95
100
AcDbEntity
  8
0
  6
CONTINUOUS
 62
             7
100
AcDbLine
 10
-59.24999999999915
 20
-12.50000000000011
 11
-59.24999999999915
 21
-23.50015230484331
  0
LINE
  5
94
100
AcDbEntity
  8
0
  6
CONTINUOUS
 62
             7
100
AcDbLine
 10
-57.74999999999915
 20
-6.50000000000011
 11
-57.74999999927718
 21
-55.0983172689929
  0
LINE
  5
93
100
AcDbEntity
  8
0
  6
CONTINUOUS
 62
             7
100
AcDbLine
 10
57.75000000000063
 20
-6.50000000000011
 11
57.75000000000063
 21
-55.09831726946462
  0
LINE
  5
92
100
AcDbEntity
  8
0
  6
CONTINUOUS
 62
             7
100
AcDbLine
 10
-93.99999999999926
 20
-55.50000000000011
 11
-93.99999999999926
 21
-60.00000000000011
  0
LINE
  5
91
100
AcDbEntity
  8
0
  6
CONTINUOUS
 62
             7
100
AcDbLine
 10
-93.99999999999926
 20
-55.50000000000011
 11
-93.99867020336205
 21
-55.5013297966342
  0
LINE
  5
90
100
AcDbEntity
  8
0
  6
CONTINUOUS
 62
             7
100
AcDbLine
 10
89.50000000000074
 20
-64.5
 11
-89.49999999999915
 21
-64.5
  0
LINE
  5
8F
100
AcDbEntity
  8
0
  6
CONTINUOUS
 62
             7
100
AcDbLine
 10
83.78675958462277
 20
-189.389154572292
 11
80.00000000000085
 21
-193.0019043388711
  0
LINE
  5
8E
100
AcDbEntity
  8
0
  6
CONTINUOUS
 62
             7
100
AcDbLine
 10
-83.78675958462125
 20
-189.389154572292
 11
-79.99999999999915
 21
-193.00190433887121
  0
LINE
  5
8D
100
AcDbEntity
  8
0
  6
CONTINUOUS
 62
             7
100
AcDbLine
 10
89.50000000000074
 20
-64.5
 11
83.78675958462277
 21
-189.389154572292
  0
LINE
  5
8C
100
AcDbEntity
  8
0
  6
CONTINUOUS
 62
             7
100
AcDbLine
 10
-89.49999999999915
 20
-64.5
 11
-83.78675958462125
 21
-189.389154572292
  0
LINE
  5
8B
100
AcDbEntity
  8
0
  6
CONTINUOUS
 62
             7
100
AcDbLine
 10
-59.24999999999915
 20
-33.50000000000011
 11
-59.24999999999915
 21
-34.50000000000011
  0
LINE
  5
8A
100
AcDbEntity
  8
0
  6
CONTINUOUS
 62
             7
100
AcDbLine
 10
-59.24999999999915
 20
-27.50000000000011
 11
-59.24999999999915
 21
-33.50000000000011
  0
LINE
  5
89
100
AcDbEntity
  8
0
  6
CONTINUOUS
 62
             7
100
AcDbLine
 10
-59.24999999999915
 20
-34.50000000000011
 11
-59.24999999999915
 21
-55.44641613723851
  0
LINE
  5
88
100
AcDbEntity
  8
0
  6
CONTINUOUS
 62
             7
100
AcDbLine
 10
-57.24999999999909
 20
-27.50000000000011
 11
-57.24999999999915
 21
-33.50000000000011
  0
LINE
  5
87
100
AcDbEntity
  8
0
  6
CONTINUOUS
 62
             7
100
AcDbLine
 10
-57.24999999999915
 20
-34.50000000000011
 11
-57.2499999999998
 21
-54.12119741028062
  0
LINE
  5
86
100
AcDbEntity
  8
0
  6
CONTINUOUS
 62
             7
100
AcDbLine
 10
-57.24999999999915
 20
-33.50000000000011
 11
-57.24999999999915
 21
-34.50000000000011
  0
LINE
  5
85
100
AcDbEntity
  8
0
  6
CONTINUOUS
 62
             7
100
AcDbLine
 10
57.25000000000063
 20
-34.50000000000011
 11
-57.24999999999915
 21
-34.50000000000011
  0
LINE
  5
84
100
AcDbEntity
  8
0
  6
CONTINUOUS
 62
             7
100
AcDbLine
 10
57.25000000000063
 20
-33.50000000000011
 11
-57.24999999999915
 21
-33.50000000000011
  0
LINE
  5
83
100
AcDbEntity
  8
0
  6
CONTINUOUS
 62
             7
100
AcDbLine
 10
59.25000000000063
 20
-33.50000000000011
 11
59.25000000000063
 21
-34.50000000000011
  0
LINE
  5
82
100
AcDbEntity
  8
0
  6
CONTINUOUS
 62
             7
100
AcDbLine
 10
59.25000000000063
 20
-27.50000000000011
 11
59.25000000000063
 21
-33.50000000000011
  0
LINE
  5
81
100
AcDbEntity
  8
0
  6
CONTINUOUS
 62
             7
100
AcDbLine
 10
57.25000000000063
 20
-27.50000000000011
 11
57.25000000000063
 21
-33.50000000000011
  0
LINE
  5
80
100
AcDbEntity
  8
0
  6
CONTINUOUS
 62
             7
100
AcDbLine
 10
57.25000000000063
 20
-34.50000000000011
 11
57.24999999999918
 21
-54.12119741028002
  0
LINE
  5
7F
100
AcDbEntity
  8
0
  6
CONTINUOUS
 62
             7
100
AcDbLine
 10
57.25000000000063
 20
-33.50000000000011
 11
57.25000000000063
 21
-34.50000000000011
  0
LINE
  5
7E
100
AcDbEntity
  8
0
  6
CONTINUOUS
 62
             7
100
AcDbLine
 10
59.25000000000063
 20
-34.50000000000011
 11
59.25000000000075
 21
-55.44641613723851
  0
LINE
  5
7D
100
AcDbEntity
  8
0
  6
CONTINUOUS
 62
             7
100
AcDbLine
 10
91.17944947177102
 20
-64.50000000000011
 11
89.50000000000074
 21
-64.5
  0
LINE
  5
7C
100
AcDbEntity
  8
0
  6
CONTINUOUS
 62
             7
100
AcDbLine
 10
-89.49999999999915
 20
-64.5
 11
-91.17944947176949
 21
-64.50000000000011
  0
LINE
  5
7B
100
AcDbEntity
  8
0
  6
CONTINUOUS
 62
             7
100
AcDbLine
 10
-79.99999999999915
 20
-260.5
 11
-78.79422863405904
 21
-265.0
  0
LINE
  5
7A
100
AcDbEntity
  8
0
  6
CONTINUOUS
 62
             7
100
AcDbLine
 10
-79.99999999999915
 20
-260.5
 11
-79.99999999999915
 21
-193.00190433887121
  0
LINE
  5
79
100
AcDbEntity
  8
0
  6
CONTINUOUS
 62
             7
100
AcDbLine
 10
-78.79422863405904
 20
-265.0
 11
78.79422863406063
 21
-265.0
  0
LINE
  5
78
100
AcDbEntity
  8
0
  6
CONTINUOUS
 62
             7
100
AcDbLine
 10
80.00000000000085
 20
-260.5
 11
78.79422863406063
 21
-265.0
  0
LINE
  5
77
100
AcDbEntity
  8
0
  6
CONTINUOUS
 62
             7
100
AcDbLine
 10
-79.99999999999915
 20
-260.5
 11
80.00000000000085
 21
-260.5
  0
LINE
  5
76
100
AcDbEntity
  8
0
  6
CONTINUOUS
 62
             7
100
AcDbLine
 10
-59.24999999999915
 20
-33.50000000000011
 11
-94.99473669630254
 21
-33.50000000000011
  0
LINE
  5
75
100
AcDbEntity
  8
0
  6
CONTINUOUS
 62
             7
100
AcDbLine
 10
93.99468070055951
 20
-34.50000000000011
 11
59.25000000000063
 21
-34.50000000000011
  0
LINE
  5
74
100
AcDbEntity
  8
0
  6
CONTINUOUS
 62
             7
100
AcDbLine
 10
59.25000000000063
 20
-7.50000000000011
 11
59.25000000000063
 21
-9.50000000000011
  0
LINE
  5
73
100
AcDbEntity
  8
0
  6
CONTINUOUS
 62
             7
100
AcDbLine
 10
-57.24999999999909
 20
-7.50000000000011
 11
-57.24999999999909
 21
-9.50000000000011
  0
LINE
  5
72
100
AcDbEntity
  8
0
  6
CONTINUOUS
 62
             7
100
AcDbLine
 10
-110.689622200911
 20
-12.50000000000011
 11
-103.9951921965618
 21
-12.50000000000011
  0
LINE
  5
71
100
AcDbEntity
  8
0
  6
CONTINUOUS
 62
             7
100
AcDbLine
 10
-59.24999999999909
 20
-7.50000000000011
 11
-59.24999999999909
 21
-9.50000000000011
  0
LINE
  5
70
100
AcDbEntity
  8
0
  6
CONTINUOUS
 62
             7
100
AcDbLine
 10
57.25000000000063
 20
-7.50000000000011
 11
57.25000000000063
 21
-9.50000000000011
  0
LINE
  5
6F
100
AcDbEntity
  8
0
  6
CONTINUOUS
 62
             7
100
AcDbLine
 10
-59.24999999999915
 20
-27.50000000000011
 11
-102.9951455166691
 21
-27.50000000000011
  0
LINE
  5
6E
100
AcDbEntity
  8
0
  6
CONTINUOUS
 62
             7
100
AcDbLine
 10
-102.9951455166691
 20
-13.50000000000011
 11
-64.12834769365526
 21
-13.50000000000011
  0
LINE
  5
6D
100
AcDbEntity
  8
0
  6
CONTINUOUS
 62
             7
100
AcDbLine
 10
-102.9951455166691
 20
-13.50000000000011
 11
-102.9951455166691
 21
-27.50000000000011
  0
LINE
  5
6C
100
AcDbEntity
  8
0
  6
CONTINUOUS
 62
             7
100
AcDbLine
 10
-64.12834769365526
 20
-13.50000000000011
 11
-63.95379438588208
 21
-23.50015230484351
  0
LINE
  5
6B
100
AcDbEntity
  8
0
  6
CONTINUOUS
 62
             7
100
AcDbLine
 10
-64.14580275858344
 20
-12.50000000000011
 11
-64.12834769365526
 21
-13.50000000000011
  0
LINE
  5
6A
100
AcDbEntity
  8
0
  6
CONTINUOUS
 62
             7
100
AcDbLine
 10
-64.14580275858344
 20
-12.50000000000011
 11
-59.24999999999915
 21
-12.50000000000011
  0
LINE
  5
69
100
AcDbEntity
  8
0
  6
CONTINUOUS
 62
             7
100
AcDbLine
 10
-137.49636358827749
 20
-9.5
 11
-59.24999999999909
 21
-9.50000000000011
  0
LINE
  5
68
100
AcDbEntity
  8
0
  6
CONTINUOUS
 62
             7
100
AcDbLine
 10
-59.24999999999915
 20
-23.50015230484331
 11
-63.95379438588208
 21
-23.50015230484351
  0
LINE
  5
67
100
AcDbEntity
  8
0
  6
CONTINUOUS
 62
             7
100
AcDbLine
 10
-63.95379438588208
 20
-23.50015230484351
 11
-62.93634197944459
 21
-24.50000000000011
  0
LINE
  5
66
100
AcDbEntity
  8
0
  6
CONTINUOUS
 62
             7
100
AcDbLine
 10
-59.24999999999915
 20
-24.50000000000011
 11
-62.93634197944459
 21
-24.50000000000011
  0
LINE
  5
65
100
AcDbEntity
  8
0
  6
CONTINUOUS
 62
             7
100
AcDbLine
 10
-52.54620561411508
 20
-23.50015230484331
 11
-53.56365802055279
 21
-24.50000000000011
  0
LINE
  5
64
100
AcDbEntity
  8
0
  6
CONTINUOUS
 62
             7
100
AcDbLine
 10
-52.54620561411508
 20
-23.50015230484331
 11
-57.24999999999909
 21
-23.50015230484331
  0
LINE
  5
63
100
AcDbEntity
  8
0
  6
CONTINUOUS
 62
             7
100
AcDbLine
 10
64.12834769365793
 20
-13.50000000000011
 11
63.95379438588493
 21
-23.50015230484331
  0
LINE
  5
62
100
AcDbEntity
  8
0
  6
CONTINUOUS
 62
             7
100
AcDbLine
 10
63.95379438588493
 20
-23.50015230484331
 11
62.93634197944721
 21
-24.50000000000011
  0
LINE
  5
61
100
AcDbEntity
  8
0
  6
CONTINUOUS
 62
             7
100
AcDbLine
 10
63.95379438588493
 20
-23.50015230484331
 11
59.25000000000075
 21
-23.50015230484331
  0
LINE
  5
60
100
AcDbEntity
  8
0
  6
CONTINUOUS
 62
             7
100
AcDbLine
 10
62.93634197944721
 20
-24.50000000000011
 11
59.25000000000063
 21
-24.50000000000011
  0
LINE
  5
5F
100
AcDbEntity
  8
0
  6
CONTINUOUS
 62
             7
100
AcDbLine
 10
102.9951455166706
 20
-27.50000000000011
 11
59.25000000000063
 21
-27.50000000000011
  0
LINE
  5
5E
100
AcDbEntity
  8
0
  6
CONTINUOUS
 62
             7
100
AcDbLine
 10
57.25000000000063
 20
-24.50000000000011
 11
57.25000000000063
 21
-27.50000000000011
  0
LINE
  5
5D
100
AcDbEntity
  8
0
  6
CONTINUOUS
 62
             7
100
AcDbLine
 10
57.25000000000063
 20
-24.50000000000011
 11
53.56365802055541
 21
-24.50000000000011
  0
LINE
  5
5C
100
AcDbEntity
  8
0
  6
CONTINUOUS
 62
             7
100
AcDbLine
 10
57.25000000000063
 20
-23.50015230484331
 11
52.54620561411775
 21
-23.50015230484331
  0
LINE
  5
5B
100
AcDbEntity
  8
0
  6
CONTINUOUS
 62
             7
100
AcDbLine
 10
52.54620561411775
 20
-23.50015230484331
 11
53.56365802055541
 21
-24.50000000000011
  0
LINE
  5
5A
100
AcDbEntity
  8
0
  6
CONTINUOUS
 62
             7
100
AcDbLine
 10
59.25000000000075
 20
-23.50015230484331
 11
59.25000000000063
 21
-24.50000000000011
  0
LINE
  5
59
100
AcDbEntity
  8
0
  6
CONTINUOUS
 62
             7
100
AcDbLine
 10
57.25000000000063
 20
-23.50015230484331
 11
57.25000000000063
 21
-24.50000000000011
  0
LINE
  5
58
100
AcDbEntity
  8
0
  6
CONTINUOUS
 62
             7
100
AcDbLine
 10
-52.37165230634167
 20
-13.50000000000011
 11
52.37165230634366
 21
-13.50000000000011
  0
LINE
  5
57
100
AcDbEntity
  8
0
  6
CONTINUOUS
 62
             7
100
AcDbLine
 10
57.25000000000063
 20
-27.50000000000011
 11
-57.24999999999909
 21
-27.50000000000011
  0
LINE
  5
56
100
AcDbEntity
  8
0
  6
CONTINUOUS
 62
             7
100
AcDbLine
 10
64.14580275858612
 20
-12.50000000000011
 11
64.12834769365793
 21
-13.50000000000011
  0
LINE
  5
55
100
AcDbEntity
  8
0
  6
CONTINUOUS
 62
             7
100
AcDbLine
 10
52.35419724141644
 20
-12.50000000000011
 11
57.25000000000063
 21
-12.50000000000011
  0
LINE
  5
54
100
AcDbEntity
  8
0
  6
CONTINUOUS
 62
             7
100
AcDbLine
 10
57.25000000000063
 20
-12.50000000000011
 11
57.25000000000063
 21
-23.50015230484331
  0
LINE
  5
53
100
AcDbEntity
  8
0
  6
CONTINUOUS
 62
             7
100
AcDbLine
 10
-57.24999999999909
 20
-9.50000000000011
 11
57.25000000000063
 21
-9.50000000000011
  0
LINE
  5
52
100
AcDbEntity
  8
0
  6
CONTINUOUS
 62
             7
100
AcDbLine
 10
-52.35419724141389
 20
-12.50000000000011
 11
-52.37165230634167
 21
-13.50000000000011
  0
LINE
  5
51
100
AcDbEntity
  8
0
  6
CONTINUOUS
 62
             7
100
AcDbLine
 10
-52.37165230634167
 20
-13.50000000000011
 11
-52.54620561411508
 21
-23.50015230484331
  0
LINE
  5
50
100
AcDbEntity
  8
0
  6
CONTINUOUS
 62
             7
100
AcDbLine
 10
52.37165230634366
 20
-13.50000000000011
 11
52.54620561411775
 21
-23.50015230484331
  0
LINE
  5
4F
100
AcDbEntity
  8
0
  6
CONTINUOUS
 62
             7
100
AcDbLine
 10
52.35419724141644
 20
-12.50000000000011
 11
52.37165230634366
 21
-13.50000000000011
  0
LINE
  5
4E
100
AcDbEntity
  8
0
  6
CONTINUOUS
 62
             7
100
AcDbLine
 10
-52.35419724141389
 20
-12.50000000000011
 11
52.35419724141644
 21
-12.50000000000011
  0
LINE
  5
4D
100
AcDbEntity
  8
0
  6
CONTINUOUS
 62
             7
100
AcDbLine
 10
-57.24999999999909
 20
-12.50000000000011
 11
-52.35419724141389
 21
-12.50000000000011
  0
LINE
  5
4C
100
AcDbEntity
  8
0
  6
CONTINUOUS
 62
             7
100
AcDbLine
 10
57.25000000000063
 20
-9.50000000000011
 11
57.25000000000063
 21
-12.50000000000011
  0
LINE
  5
4B
100
AcDbEntity
  8
0
  6
CONTINUOUS
 62
             7
100
AcDbLine
 10
-57.24999999999915
 20
-24.50000000000011
 11
-57.24999999999909
 21
-27.50000000000011
  0
LINE
  5
4A
100
AcDbEntity
  8
0
  6
CONTINUOUS
 62
             7
100
AcDbLine
 10
-57.24999999999909
 20
-23.50015230484331
 11
-57.24999999999915
 21
-24.50000000000011
  0
LINE
  5
49
100
AcDbEntity
  8
0
  6
CONTINUOUS
 62
             7
100
AcDbLine
 10
-53.56365802055279
 20
-24.50000000000011
 11
-57.24999999999915
 21
-24.50000000000011
  0
LINE
  5
48
100
AcDbEntity
  8
0
  6
CONTINUOUS
 62
             7
100
AcDbLine
 10
-57.24999999999909
 20
-12.50000000000011
 11
-57.24999999999909
 21
-23.50015230484331
  0
LINE
  5
47
100
AcDbEntity
  8
0
  6
CONTINUOUS
 62
             7
100
AcDbLine
 10
-59.24999999999909
 20
-9.50000000000011
 11
-59.24999999999915
 21
-12.50000000000011
  0
LINE
  5
46
100
AcDbEntity
  8
0
  6
CONTINUOUS
 62
             7
100
AcDbLine
 10
-57.24999999999909
 20
-9.50000000000011
 11
-57.24999999999909
 21
-12.50000000000011
  0
LINE
  5
45
100
AcDbEntity
  8
0
  6
CONTINUOUS
 62
             7
100
AcDbLine
 10
-103.9951921965618
 20
-12.50000000000011
 11
-64.14580275858344
 21
-12.50000000000011
  0
LINE
  5
44
100
AcDbEntity
  8
0
  6
CONTINUOUS
 62
             7
100
AcDbLine
 10
57.25000000000063
 20
-6.50000000000011
 11
57.25000000000063
 21
-7.50000000000011
  0
LINE
  5
43
100
AcDbEntity
  8
0
  6
CONTINUOUS
 62
             7
100
AcDbLine
 10
64.12834769365793
 20
-13.50000000000011
 11
102.9951455166706
 21
-13.50000000000011
  0
LINE
  5
42
100
AcDbEntity
  8
0
  6
CONTINUOUS
 62
             7
100
AcDbLine
 10
-111.9215940384972
 20
-24.50000000000011
 11
-121.0784059615014
 21
-24.50000000000011
  0
LINE
  5
41
100
AcDbEntity
  8
0
  6
CONTINUOUS
 62
             7
100
AcDbLine
 10
-110.88455073957201
 20
-23.5001523048451
 11
-122.1154492604276
 21
-23.5001523048447
  0
LINE
  5
40
100
AcDbEntity
  8
0
  6
CONTINUOUS
 62
             7
100
AcDbLine
 10
-122.3103777990875
 20
-12.50000000000011
 11
-110.689622200911
 21
-12.50000000000011
  0
LINE
  5
3F
100
AcDbEntity
  8
0
  6
CONTINUOUS
 62
             7
100
AcDbLine
 10
-134.49628247650489
 20
-12.50000000000011
 11
-122.3103777990875
 21
-12.50000000000011
  0
LINE
  5
3E
100
AcDbEntity
  8
0
  6
CONTINUOUS
 62
             7
100
AcDbLine
 10
-137.49636358827749
 20
-7.50000000000011
 11
-59.24999999999909
 21
-7.50000000000011
  0
LINE
  5
3D
100
AcDbEntity
  8
0
  6
CONTINUOUS
 62
             7
100
AcDbLine
 10
-142.99999999999929
 20
-6.50000000000011
 11
-93.99999999999926
 21
-55.50000000000011
  0
LINE
  5
3C
100
AcDbEntity
  8
0
  6
CONTINUOUS
 62
             7
100
AcDbLine
 10
138.49638984464619
 20
-6.50000000000011
 11
142.29289321881421
 21
-6.50000000000011
  0
LINE
  5
3B
100
AcDbEntity
  8
0
  6
CONTINUOUS
 62
             7
100
AcDbLine
 10
142.29289321881421
 20
-6.50000000000011
 11
143.0000000000008
 21
-6.50000000000011
  0
LINE
  5
3A
100
AcDbEntity
  8
0
  6
CONTINUOUS
 62
             7
100
AcDbLine
 10
121.0784059615026
 20
-24.50000000000011
 11
111.9215940384989
 21
-24.50000000000011
  0
LINE
  5
39
100
AcDbEntity
  8
0
  6
CONTINUOUS
 62
             7
100
AcDbLine
 10
122.1154492604266
 20
-23.50015230484502
 11
110.8845507395736
 21
-23.50015230484502
  0
LINE
  5
38
100
AcDbEntity
  8
0
  6
CONTINUOUS
 62
             7
100
AcDbLine
 10
59.25000000000063
 20
-9.50000000000011
 11
137.49636358827911
 21
-9.50000000000011
  0
LINE
  5
37
100
AcDbEntity
  8
0
  6
CONTINUOUS
 62
             7
100
AcDbLine
 10
122.3103777990888
 20
-12.50000000000011
 11
134.49628247650631
 21
-12.50000000000011
  0
LINE
  5
36
100
AcDbEntity
  8
0
  6
CONTINUOUS
 62
             7
100
AcDbLine
 10
110.68962220091269
 20
-12.50000000000011
 11
122.3103777990888
 21
-12.50000000000011
  0
LINE
  5
35
100
AcDbEntity
  8
0
  6
CONTINUOUS
 62
             7
100
AcDbLine
 10
103.99519219656329
 20
-12.50000000000011
 11
110.68962220091269
 21
-12.50000000000011
  0
LINE
  5
34
100
AcDbEntity
  8
0
  6
CONTINUOUS
 62
             7
100
AcDbLine
 10
137.49636358827911
 20
-7.50000000000011
 11
137.49636358827911
 21
-9.50000000000011
  0
LINE
  5
33
100
AcDbEntity
  8
0
  6
CONTINUOUS
 62
             7
100
AcDbLine
 10
96.99484522385791
 20
-33.50000000000011
 11
94.99473669630413
 21
-33.50000000000011
  0
LINE
  5
32
100
AcDbEntity
  8
0
  6
CONTINUOUS
 62
             7
100
AcDbLine
 10
143.0000000000008
 20
-6.50000000000011
 11
94.00000000000085
 21
-55.50000000000011
  0
LINE
  5
31
100
AcDbEntity
  8
0
  6
CONTINUOUS
 62
             7
100
AcDbLine
 10
59.25000000000063
 20
-7.50000000000011
 11
137.49636358827911
 21
-7.50000000000011
  0
LINE
  5
30
100
AcDbEntity
  8
0
  6
CONTINUOUS
 62
             7
100
AcDbLine
 10
64.14580275858612
 20
-12.50000000000011
 11
103.99519219656329
 21
-12.50000000000011
  0
LINE
  5
2F
100
AcDbEntity
  8
0
  6
CONTINUOUS
 62
             7
100
AcDbLine
 10
59.25000000000063
 20
-12.50000000000011
 11
64.14580275858612
 21
-12.50000000000011
  0
LINE
  5
2E
100
AcDbEntity
  8
0
  6
CONTINUOUS
 62
             7
100
AcDbLine
 10
-157.5
 20
-3.10582854123021
 11
-144.8327796662702
 21
-6.50000000000011
  0
LINE
  5
2D
100
AcDbEntity
  8
0
  6
CONTINUOUS
 62
             7
100
AcDbLine
 10
80.00000000000085
 20
-260.5
 11
80.00000000000085
 21
-193.0019043388711
  0
LINE
  5
2C
100
AcDbEntity
  8
1
  6
PHANTOM
 62
             2
100
AcDbLine
 10
0.0
 20
4.97769619441665
 11
0.00000000000003
 21
-271.85119569389508
  0
LINE
  5
2B
100
AcDbEntity
  8
1
  6
CONTINUOUS
 62
             7
100
AcDbLine
 10
80.00000000000085
 20
-193.0019043388711
 11
-79.99999999999915
 21
-193.00190433887121
  0
LINE
  5
2A
100
AcDbEntity
  8
1
  6
CONTINUOUS
 62
             7
100
AcDbLine
 10
83.78675958462277
 20
-189.389154572292
 11
-83.78675958462125
 21
-189.389154572292
  0
ENDBLK
  5
E9
100
AcDbEntity
  8
0
100
AcDbBlockEnd
  0
BLOCK
  5
EE
100
AcDbEntity
  8
0
100
AcDbBlockBegin
  2
*D1
 70
             1
 10
0.0
 20
0.0
 30
0.0
  3
*D1
  1

  0
LINE
  5
EF
100
AcDbEntity
  8
0
  6
CONTINUOUS
 62
             4
100
AcDbLine
 10
-98.99999999999997
 20
18.6865511590864
 11
99.0
 21
18.6865511590864
  0
LINE
  5
F0
100
AcDbEntity
  8
0
  6
CONTINUOUS
 62
             4
100
AcDbLine
 10
99.0
 20
3.0
 11
99.0
 21
20.6865511590864
  0
LINE
  5
F1
100
AcDbEntity
  8
0
  6
CONTINUOUS
 62
             4
100
AcDbLine
 10
-98.99999999999997
 20
5.0
 11
-98.99999999999997
 21
20.6865511590864
  0
SOLID
  5
F2
100
AcDbEntity
  8
0
 62
             4
100
AcDbTrace
 10
87.0
 20
17.10672118803765
 11
87.0
 21
20.26638113013515
 12
99.0
 22
18.6865511590864
 13
99.0
 23
18.6865511590864
  0
SOLID
  5
F3
100
AcDbEntity
  8
0
 62
             4
100
AcDbTrace
 10
-86.99999999999997
 20
20.26638113013515
 11
-86.99999999999997
 21
17.10672118803765
 12
-98.99999999999997
 22
18.6865511590864
 13
-98.99999999999997
 23
18.6865511590864
  0
MTEXT
  5
F5
100
AcDbEntity
  8
0
 62
             1
100
AcDbMText
 10
-8.44586808864496
 20
20.68652730625329
 30
0.0
 40
12.0
 41
0.0
 71
             7
 72
             1
  1
\C1;Ø\C1;198
  7
CONVERTER_1
 11
0.99999999999706
 21
0.00000242406841
 31
0.0
  0
ENDBLK
  5
F6
100
AcDbEntity
  8
0
100
AcDbBlockEnd
  0
BLOCK
  5
FA
100
AcDbEntity
  8
0
100
AcDbBlockBegin
  2
*D2
 70
             1
 10
0.0
 20
0.0
 30
0.0
  3
*D2
  1

  0
LINE
  5
FB
100
AcDbEntity
  8
0
  6
CONTINUOUS
 62
             4
100
AcDbLine
 10
-79.99999999999915
 20
-287.0292199978673
 11
80.00000000000088
 21
-287.0292199978673
  0
LINE
  5
FC
100
AcDbEntity
  8
0
  6
CONTINUOUS
 62
             4
100
AcDbLine
 10
80.00000000000088
 20
-260.5
 11
80.00000000000088
 21
-289.0292199978673
  0
LINE
  5
FD
100
AcDbEntity
  8
0
  6
CONTINUOUS
 62
             4
100
AcDbLine
 10
-79.99999999999915
 20
-260.5
 11
-79.99999999999915
 21
-289.0292199978673
  0
SOLID
  5
FE
100
AcDbEntity
  8
0
 62
             4
100
AcDbTrace
 10
-67.99999999999915
 20
-285.44939002681855
 11
-67.99999999999915
 21
-288.60904996891605
 12
-79.99999999999915
 22
-287.0292199978673
 13
-79.99999999999915
 23
-287.0292199978673
  0
SOLID
  5
FF
100
AcDbEntity
  8
0
 62
             4
100
AcDbTrace
 10
68.00000000000088
 20
-288.60904996891605
 11
68.00000000000088
 21
-285.44939002681855
 12
80.00000000000088
 22
-287.0292199978673
 13
80.00000000000088
 23
-287.0292199978673
  0
MTEXT
  5
100
100
AcDbEntity
  8
0
 62
             1
100
AcDbMText
 10
-50.08164048413531
 20
-285.02926770353355
 30
0.0
 40
12.0
 41
0.0
 71
             7
 72
             1
  1
\C1;DN\C1;160
  7
CONVERTER_1
 11
0.99999999999706
 21
0.00000242406841
 31
0.0
  0
ENDBLK
  5
101
100
AcDbEntity
  8
0
100
AcDbBlockEnd
  0
BLOCK
  5
105
100
AcDbEntity
  8
0
100
AcDbBlockBegin
  2
*D3
 70
             1
 10
0.0
 20
0.0
 30
0.0
  3
*D3
  1

  0
LINE
  5
106
100
AcDbEntity
  8
0
  6
CONTINUOUS
 62
             4
100
AcDbLine
 10
-157.5
 20
40.7217090583398
 11
157.5
 21
40.7217090583398
  0
LINE
  5
107
100
AcDbEntity
  8
0
  6
CONTINUOUS
 62
             4
100
AcDbLine
 10
157.5
 20
0.0
 11
157.5
 21
42.7217090583398
  0
LINE
  5
108
100
AcDbEntity
  8
0
  6
CONTINUOUS
 62
             4
100
AcDbLine
 10
-157.5
 20
0.0
 11
-157.5
 21
42.7217090583398
  0
SOLID
  5
109
100
AcDbEntity
  8
0
 62
             4
100
AcDbTrace
 10
145.5
 20
39.14187908729105
 11
145.5
 21
42.30153902938855
 12
157.5
 22
40.7217090583398
 13
157.5
 23
40.7217090583398
  0
SOLID
  5
10A
100
AcDbEntity
  8
0
 62
             4
100
AcDbTrace
 10
-145.5
 20
42.30153902938855
 11
-145.5
 21
39.14187908729105
 12
-157.5
 22
40.7217090583398
 13
-157.5
 23
40.7217090583398
  0
MTEXT
  5
10B
100
AcDbEntity
  8
0
 62
             1
100
AcDbMText
 10
-58.54684761716229
 20
42.72168520550669
 30
0.0
 40
12.0
 41
0.0
 71
             7
 72
             1
  1
\C1;Ø\C1;315
  7
CONVERTER_1
 11
0.99999999999706
 21
0.00000242406841
 31
0.0
  0
ENDBLK
  5
10C
100
AcDbEntity
  8
0
100
AcDbBlockEnd
  0
BLOCK
  5
110
100
AcDbEntity
  8
0
100
AcDbBlockBegin
  2
*D4
 70
             1
 10
0.0
 20
0.0
 30
0.0
  3
*D4
  1

  0
LINE
  5
111
100
AcDbEntity
  8
0
  6
CONTINUOUS
 62
             4
100
AcDbLine
 10
113.0000000000008
 20
-265.0
 11
113.0000000000008
 21
-193.0019043388711
  0
LINE
  5
112
100
AcDbEntity
  8
0
  6
CONTINUOUS
 62
             4
100
AcDbLine
 10
80.00000000000085
 20
-193.0019043388711
 11
115.0000000000008
 21
-193.0019043388711
  0
LINE
  5
113
100
AcDbEntity
  8
0
  6
CONTINUOUS
 62
             4
100
AcDbLine
 10
78.79422863406063
 20
-265.0
 11
115.0000000000008
 21
-265.0
  0
SOLID
  5
114
100
AcDbEntity
  8
0
 62
             4
100
AcDbTrace
 10
111.42017002895204
 20
-253.0
 11
114.57982997104955
 21
-253.0
 12
113.0000000000008
 22
-265.0
 13
113.0000000000008
 23
-265.0
  0
SOLID
  5
115
100
AcDbEntity
  8
0
 62
             4
100
AcDbTrace
 10
114.57982997104955
 20
-205.0019043388711
 11
111.42017002895204
 21
-205.0019043388711
 12
113.0000000000008
 22
-193.0019043388711
 13
113.0000000000008
 23
-193.0019043388711
  0
MTEXT
  5
116
100
AcDbEntity
  8
0
 62
             1
100
AcDbMText
 10
111.0000000000008
 20
-244.80742912691619
 30
0.0
 40
12.0
 41
0.0
 71
             7
 72
             1
  1
72
  7
CONVERTER_1
 11
0.0
 21
1.0
 31
0.0
  0
ENDBLK
  5
117
100
AcDbEntity
  8
0
100
AcDbBlockEnd
  0
BLOCK
  5
11B
100
AcDbEntity
  8
0
100
AcDbBlockBegin
  2
*D5
 70
             1
 10
0.0
 20
0.0
 30
0.0
  3
*D5
  1

  0
LINE
  5
11C
100
AcDbEntity
  8
0
  6
CONTINUOUS
 62
             4
100
AcDbLine
 10
177.89608855879291
 20
-265.0
 11
177.89608855879291
 21
0.0
  0
LINE
  5
11D
100
AcDbEntity
  8
0
  6
CONTINUOUS
 62
             4
100
AcDbLine
 10
157.5
 20
0.0
 11
179.89608855879291
 21
0.0
  0
LINE
  5
11E
100
AcDbEntity
  8
0
  6
CONTINUOUS
 62
             4
100
AcDbLine
 10
78.79422863406063
 20
-265.0
 11
179.89608855879291
 21
-265.0
  0
SOLID
  5
11F
100
AcDbEntity
  8
0
 62
             4
100
AcDbTrace
 10
176.31625858774416
 20
-253.0
 11
179.47591852984166
 21
-253.0
 12
177.89608855879291
 22
-265.0
 13
177.89608855879291
 23
-265.0
  0
SOLID
  5
120
100
AcDbEntity
  8
0
 62
             4
100
AcDbTrace
 10
179.47591852984166
 20
-12.0
 11
176.31625858774416
 21
-12.0
 12
177.89608855879291
 22
0.0
 13
177.89608855879291
 23
0.0
  0
MTEXT
  5
121
100
AcDbEntity
  8
0
 62
             1
100
AcDbMText
 10
175.89608855879291
 20
-147.42456636817801
 30
0.0
 40
12.0
 41
0.0
 71
             7
 72
             1
  1
265
  7
CONVERTER_1
 11
0.0
 21
1.0
 31
0.0
  0
ENDBLK
  5
122
100
AcDbEntity
  8
0
100
AcDbBlockEnd
  0
ENDSEC
  0
SECTION
  2
ENTITIES
  0
DIMENSION
  5
124
100
AcDbEntity
  8
1
100
AcDbDimension
  2
*D5
 10
177.89608855879291
 20
-265.0
 11
169.89608855879291
 21
-133.024566368178
 31
0.0
 53
-90.0
  1
<>
  3
ME10_DIM_4
100
AcDbAlignedDimension
 13
157.5
 23
0.0
 14
78.79422863406063
 24
-265.0
 50
-90.0
100
AcDbRotatedDimension
  0
DIMENSION
  5
119
100
AcDbEntity
  8
1
100
AcDbDimension
  2
*D4
 10
113.0000000000008
 20
-265.0
 11
105.0000000000008
 21
-235.80742912691619
 31
0.0
 53
-90.0
  1
<>
  3
ME10_DIM_3
100
AcDbAlignedDimension
 13
80.00000000000085
 23
-193.0019043388711
 14
78.79422863406063
 24
-265.0
 50
-90.0
100
AcDbRotatedDimension
  0
DIMENSION
  5
10E
100
AcDbEntity
  8
1
100
AcDbDimension
  2
*D3
 10
157.5
 20
40.7217090583398
 11
-43.3068476171912
 21
48.7217090583398
 31
0.0
 53
0.00013888888889
  1
<>
  3
ME10_DIM_2
100
AcDbAlignedDimension
 13
-157.5
 23
0.0
 14
157.5
 24
0.0
100
AcDbRotatedDimension
  0
DIMENSION
  5
103
100
AcDbEntity
  8
1
100
AcDbDimension
  2
*D2
 10
-79.99999999999915
 20
-287.0292199978673
 11
-31.00164048419312
 21
-279.0292199978673
 31
0.0
 53
0.00013888888889
  1
<>
  3
ME10_DIM_1
100
AcDbAlignedDimension
 13
80.00000000000085
 23
-260.5
 14
-79.99999999999915
 24
-260.5
100
AcDbRotatedDimension
  0
DIMENSION
  5
F8
100
AcDbEntity
  8
1
100
AcDbDimension
  2
*D1
 10
99.0
 20
18.6865511590864
 11
6.79413191132613
 21
26.6865511590864
 31
0.0
 53
0.00013888888889
  1
<>
  3
ME10_DIM_0
100
AcDbAlignedDimension
 13
-99.0
 23
5.0
 14
99.0
 24
3.0
100
AcDbRotatedDimension
  0
LINE
  5
EC
100
AcDbEntity
  8
1
  6
CONTINUOUS
 62
             7
100
AcDbLine
 10
-99.0
 20
3.0
 11
-99.0
 21
5.0
  0
LINE
  5
EB
100
AcDbEntity
  8
1
  6
CONTINUOUS
 62
             7
100
AcDbLine
 10
99.0
 20
3.0
 11
99.0
 21
5.0
  0
INSERT
  5
29
100
AcDbEntity
  8
0
100
AcDbBlockReference
  2
HL_616_5_K_RPER
 10
-182.4579727425587
 20
-738.64616558223247
  0
ENDSEC
  0
SECTION
  2
OBJECTS
  0
DICTIONARY
  5
19
100
AcDbDictionary
  3
ACAD_GROUP
350
1A
  3
ACAD_MLINESTYLE
350
1B
  0
DICTIONARY
  5
1A
102
{ACAD_REACTORS
330
19
102
}
100
AcDbDictionary
  0
DICTIONARY
  5
1B
102
{ACAD_REACTORS
330
19
102
}
100
AcDbDictionary
  3
STANDARD
350
1C
  0
MLINESTYLE
  5
1C
102
{ACAD_REACTORS
330
1B
102
}
100
AcDbMlineStyle
  2
STANDARD
 70
             0
  3

 62
             0
 51
90.0
 52
90.0
 71
             2
 49
0.5
 62
           256
  6
BYLAYER
 49
-0.5
 62
           256
  6
BYLAYER
  0
ENDSEC
  0
EOF
