  0
SECTION
  2
HEADER
  9
$ACADVER
  1
AC1014
  9
$ACADMAINTVER
 70
             0
  9
$DWGCODEPAGE
  3
ANSI_1252
  9
$INSBASE
 10
0.0
 20
0.0
 30
0.0
  9
$EXTMIN
 10
-249.7972032859598
 20
-233.62424693647549
 30
0.0
  9
$EXTMAX
 10
249.7971399999999
 20
125.6916554142186
 30
0.0
  9
$LIMMIN
 10
0.0
 20
0.0
  9
$LIMMAX
 10
0.0
 20
0.0
  9
$ORTHOMODE
 70
             0
  9
$REGENMODE
 70
             1
  9
$FILLMODE
 70
             1
  9
$QTEXTMODE
 70
             0
  9
$MIRRTEXT
 70
             1
  9
$DRAGMODE
 70
             2
  9
$LTSCALE
 40
1.0
  9
$OSMODE
 70
             0
  9
$ATTMODE
 70
             1
  9
$TEXTSIZE
 40
0.2
  9
$TRACEWID
 40
0.05
  9
$TEXTSTYLE
  7
STANDARD
  9
$CLAYER
  8
0
  9
$CELTYPE
  6
CONTINUOUS
  9
$CECOLOR
 62
           256
  9
$CELTSCALE
 40
1.0
  9
$DELOBJ
 70
             1
  9
$DISPSILH
 70
             0
  9
$DIMSCALE
 40
1.0
  9
$DIMASZ
 40
0.18
  9
$DIMEXO
 40
0.0625
  9
$DIMDLI
 40
0.38
  9
$DIMRND
 40
0.0
  9
$DIMDLE
 40
0.0
  9
$DIMEXE
 40
0.18
  9
$DIMTP
 40
0.0
  9
$DIMTM
 40
0.0
  9
$DIMTXT
 40
0.18
  9
$DIMCEN
 40
0.09
  9
$DIMTSZ
 40
0.0
  9
$DIMTOL
 70
             0
  9
$DIMLIM
 70
             0
  9
$DIMTIH
 70
             1
  9
$DIMTOH
 70
             1
  9
$DIMSE1
 70
             0
  9
$DIMSE2
 70
             0
  9
$DIMTAD
 70
             0
  9
$DIMZIN
 70
             0
  9
$DIMBLK
  1

  9
$DIMASO
 70
             1
  9
$DIMSHO
 70
             1
  9
$DIMPOST
  1

  9
$DIMAPOST
  1

  9
$DIMALT
 70
             0
  9
$DIMALTD
 70
             2
  9
$DIMALTF
 40
25.4
  9
$DIMLFAC
 40
1.0
  9
$DIMTOFL
 70
             0
  9
$DIMTVP
 40
0.0
  9
$DIMTIX
 70
             0
  9
$DIMSOXD
 70
             0
  9
$DIMSAH
 70
             0
  9
$DIMBLK1
  1

  9
$DIMBLK2
  1

  9
$DIMSTYLE
  2
STANDARD
  9
$DIMCLRD
 70
             0
  9
$DIMCLRE
 70
             0
  9
$DIMCLRT
 70
             0
  9
$DIMTFAC
 40
1.0
  9
$DIMGAP
 40
0.09
  9
$DIMJUST
 70
             0
  9
$DIMSD1
 70
             0
  9
$DIMSD2
 70
             0
  9
$DIMTOLJ
 70
             1
  9
$DIMTZIN
 70
             0
  9
$DIMALTZ
 70
             0
  9
$DIMALTTZ
 70
             0
  9
$DIMFIT
 70
             3
  9
$DIMUPT
 70
             0
  9
$DIMUNIT
 70
             2
  9
$DIMDEC
 70
             4
  9
$DIMTDEC
 70
             4
  9
$DIMALTU
 70
             2
  9
$DIMALTTD
 70
             2
  9
$DIMTXSTY
  7
STANDARD
  9
$DIMAUNIT
 70
             0
  9
$LUNITS
 70
             2
  9
$LUPREC
 70
             4
  9
$SKETCHINC
 40
0.1
  9
$FILLETRAD
 40
0.0
  9
$AUNITS
 70
             0
  9
$AUPREC
 70
             0
  9
$MENU
  1
acad
  9
$ELEVATION
 40
0.0
  9
$PELEVATION
 40
0.0
  9
$THICKNESS
 40
0.0
  9
$LIMCHECK
 70
             0
  9
$BLIPMODE
 70
             1
  9
$CHAMFERA
 40
0.0
  9
$CHAMFERB
 40
0.0
  9
$CHAMFERC
 40
0.0
  9
$CHAMFERD
 40
0.0
  9
$SKPOLY
 70
             0
  9
$TDCREATE
 40
0.000000000
  9
$TDUPDATE
 40
0.000000000
  9
$TDINDWG
 40
0.0000000000
  9
$TDUSRTIMER
 40
0.0000000000
  9
$USRTIMER
 70
             1
  9
$ANGBASE
 50
0.0
  9
$ANGDIR
 70
             0
  9
$PDMODE
 70
             0
  9
$PDSIZE
 40
0.0
  9
$PLINEWID
 40
0.0
  9
$COORDS
 70
             0
  9
$SPLFRAME
 70
             0
  9
$SPLINETYPE
 70
             6
  9
$SPLINESEGS
 70
             8
  9
$ATTDIA
 70
             0
  9
$ATTREQ
 70
             1
  9
$HANDLING
 70
             1
  9
$HANDSEED
  5
188
  9
$SURFTAB1
 70
             6
  9
$SURFTAB2
 70
             6
  9
$SURFTYPE
 70
             6
  9
$SURFU
 70
             6
  9
$SURFV
 70
             6
  9
$UCSNAME
  2

  9
$UCSORG
 10
0.0
 20
0.0
 30
0.0
  9
$UCSXDIR
 10
1.0
 20
0.0
 30
0.0
  9
$UCSYDIR
 10
0.0
 20
1.0
 30
0.0
  9
$PUCSNAME
  2

  9
$PUCSORG
 10
0.0
 20
0.0
 30
0.0
  9
$PUCSXDIR
 10
1.0
 20
0.0
 30
0.0
  9
$PUCSYDIR
 10
0.0
 20
1.0
 30
0.0
  9
$USERI1
 70
             0
  9
$USERI2
 70
             0
  9
$USERI3
 70
             0
  9
$USERI4
 70
             0
  9
$USERI5
 70
             0
  9
$USERR1
 40
12.01
  9
$USERR2
 40
0.0
  9
$USERR3
 40
0.0
  9
$USERR4
 40
0.0
  9
$USERR5
 40
0.0
  9
$WORLDVIEW
 70
             1
  9
$SHADEDGE
 70
             3
  9
$SHADEDIF
 70
            70
  9
$TILEMODE
 70
             1
  9
$MAXACTVP
 70
            16
  9
$PINSBASE
 10
0.0
 20
0.0
 30
0.0
  9
$PLIMCHECK
 70
             0
  9
$PEXTMIN
 10
1.00000000000000E+20
 20
1.00000000000000E+20
 30
1.00000000000000E+20
  9
$PEXTMAX
 10
-1.00000000000000E+20
 20
-1.00000000000000E+20
 30
-1.00000000000000E+20
  9
$PLIMMIN
 10
0.0
 20
0.0
  9
$PLIMMAX
 10
12.0
 20
9.0
  9
$UNITMODE
 70
             0
  9
$VISRETAIN
 70
             0
  9
$PLINEGEN
 70
             1
  9
$PSLTSCALE
 70
             0
  9
$TREEDEPTH
 70
          3020
  9
$PICKSTYLE
 70
             1
  9
$CMLSTYLE
  2
STANDARD
  9
$CMLJUST
 70
             0
  9
$CMLSCALE
 40
1.0
  9
$PROXYGRAPHICS
 70
             0
  9
$MEASUREMENT
 70
             1
  0
ENDSEC
  0
SECTION
  2
CLASSES
  0
CLASS
  1
LWPOLYLINE
  2
AcDbPolyline
  3
"AutoCAD"
 90
        0
280
             0
281
             1
  0
CLASS
  1
IMAGE
  2
AcDbRasterImage
  3
ISM
 90
      127
280
             0
281
             1
  0
CLASS
  1
OLE2FRAME
  2
AcDbOle2Frame
  3
""
 90
        0
280
             0
281
             1
  0
CLASS
  1
HATCH
  2
AcDbHatch
  3
"ACAD_SEDONA"
 90
        0
280
             0
281
             1
  0
CLASS
  1
DICTIONARYVAR
  2
AcDbDictionaryVar
  3
"AutoCAD"
 90
        0
280
             0
281
             0
  0
CLASS
  1
RASTERVARIABLES
  2
AcDbRasterVariables
  3
ISM
 90
        0
280
             0
281
             0
  0
CLASS
  1
IMAGEDEF
  2
AcDbRasterImageDef
  3
ISM
 90
        0
280
             0
281
             0
  0
CLASS
  1
IMAGEDEF_REACTOR
  2
AcDbRasterImageDefReactor
  3
ISM
 90
        1
280
             0
281
             0
  0
CLASS
  1
IDBUFFER
  2
AcDbIdBuffer
  3
"Acad"
 90
        0
280
             0
281
             0
  0
CLASS
  1
SPATIAL_FILTER
  2
AcDbSpatialFilter
  3
"Acad"
 90
        0
280
             0
281
             0
  0
CLASS
  1
XRECORD
  2
AcDbXrecord
  3
"<Built In>"
 90
        0
280
             0
281
             0
  0
CLASS
  1
SORTENTSTABLE
  2
AcDbSortentsTable
  3
"AutoCAD"
 90
        0
280
             0
281
             0
  0
CLASS
  1
LAYER_INDEX
  2
AcDbLayerIndex
  3
"Acad"
 90
        0
280
             0
281
             0
  0
CLASS
  1
SPATIAL_INDEX
  2
AcDbSpatialIndex
  3
"Acad"
 90
        0
280
             0
281
             0
  0
CLASS
  1
OBJECT_PTR
  2
CAseDLPNTableRecord
  3
"ASE-LPNTableRecord"
 90
        1
280
             0
281
             0
  0
CLASS
  1
LAYOUT
  2
AcDbLayout
  3
"AutoCAD 2000"
 90
        0
280
             0
281
             0
  0
CLASS
  1
PLOTSETTINGS
  2
AcDbPlotSettings
  3
"AutoCAD 2000"
 90
        0
280
             0
281
             0
  0
CLASS
  1
ACDBDICTIONARYWDFLT
  2
AcDbDictionaryWithDefault
  3
"AutoCAD 2000"
 90
        0
280
             0
281
             0
  0
CLASS
  1
ACDBPLACEHOLDER
  2
AcDbPlaceHolder
  3
"AutoCAD 2000"
 90
        0
280
             0
281
             0
  0
ENDSEC
  0
SECTION
  2
TABLES
  0
TABLE
  2
VPORT
  5
7
100
AcDbSymbolTable
 70
             1
  0
VPORT
  5
15
100
AcDbSymbolTableRecord
100
AcDbViewportTableRecord
  2
*ACTIVE
 70
             0
 10
0.0
 20
0.0
 11
1.0
 21
1.0
 12
-0.00003164297995
 22
-53.96629576112844
 13
0.0
 23
0.0
 14
1.0
 24
1.0
 15
0.0
 25
0.0
 16
0.0
 26
0.0
 36
1.0
 17
0.0
 27
0.0
 37
0.0
 40
395.24749258576355
 41
1.60267857142857
 42
50.0
 43
0.0
 44
0.0
 50
0.0
 51
0.0
 71
             0
 72
           100
 73
             1
 74
             1
 75
             0
 76
             0
 77
             0
 78
             0
  0
ENDTAB
  0
TABLE
  2
LTYPE
  5
4
100
AcDbSymbolTable
 70
            11
  0
LTYPE
  5
11
100
AcDbSymbolTableRecord
100
AcDbLinetypeTableRecord
  2
BYBLOCK
 70
            64
  3

 72
            65
 73
             0
 40
0.0
  0
LTYPE
  5
12
100
AcDbSymbolTableRecord
100
AcDbLinetypeTableRecord
  2
BYLAYER
 70
            64
  3

 72
            65
 73
             0
 40
0.0
  0
LTYPE
  5
13
100
AcDbSymbolTableRecord
100
AcDbLinetypeTableRecord
  2
CONTINUOUS
 70
            64
  3
Solid line
 72
            65
 73
             0
 40
0.0
  0
LTYPE
  5
1D
100
AcDbSymbolTableRecord
100
AcDbLinetypeTableRecord
  2
DASHED
 70
            64
  3
Dashed
 72
            65
 73
             2
 40
15.0
 49
7.0
 74
             0
 49
-8.0
 74
             0
  0
LTYPE
  5
1E
100
AcDbSymbolTableRecord
100
AcDbLinetypeTableRecord
  2
DOTTED
 70
            64
  3
Dotted
 72
            65
 73
             2
 40
1.0
 49
0.0
 74
             0
 49
-1.0
 74
             0
  0
LTYPE
  5
1F
100
AcDbSymbolTableRecord
100
AcDbLinetypeTableRecord
  2
DOT_CENTER
 70
            64
  3
Dot_Center
 72
            65
 73
             4
 40
14.0
 49
12.0
 74
             0
 49
-1.0
 74
             0
 49
0.0
 74
             0
 49
-1.0
 74
             0
  0
LTYPE
  5
20
100
AcDbSymbolTableRecord
100
AcDbLinetypeTableRecord
  2
LONG_DASHED
 70
            64
  3
Long_Dashed
 72
            65
 73
             2
 40
15.0
 49
10.0
 74
             0
 49
-5.0
 74
             0
  0
LTYPE
  5
21
100
AcDbSymbolTableRecord
100
AcDbLinetypeTableRecord
  2
DASH_CENTER
 70
            64
  3
Dash_Center
 72
            65
 73
             4
 40
14.0
 49
11.0
 74
             0
 49
-1.0
 74
             0
 49
1.0
 74
             0
 49
-1.0
 74
             0
  0
LTYPE
  5
22
100
AcDbSymbolTableRecord
100
AcDbLinetypeTableRecord
  2
PHANTOM
 70
            64
  3
Phantom
 72
            65
 73
             6
 40
13.0
 49
10.0
 74
             0
 49
-1.0
 74
             0
 49
0.0
 74
             0
 49
-1.0
 74
             0
 49
0.0
 74
             0
 49
-1.0
 74
             0
  0
LTYPE
  5
23
100
AcDbSymbolTableRecord
100
AcDbLinetypeTableRecord
  2
CENTER_DASH_DASH
 70
            64
  3
Center_Dash_Dash
 72
            65
 73
             6
 40
14.0
 49
9.0
 74
             0
 49
-1.0
 74
             0
 49
1.0
 74
             0
 49
-1.0
 74
             0
 49
1.0
 74
             0
 49
-1.0
 74
             0
  0
LTYPE
  5
24
100
AcDbSymbolTableRecord
100
AcDbLinetypeTableRecord
  2
DASHDOT
 70
            64
  3
DASHDOT
 72
            65
 73
             4
 40
16.0
 49
10.0
 74
             0
 49
-3.0
 74
             0
 49
0.0
 74
             0
 49
-3.0
 74
             0
  0
ENDTAB
  0
TABLE
  2
LAYER
  5
2
100
AcDbSymbolTable
 70
            11
  0
LAYER
  5
14
100
AcDbSymbolTableRecord
100
AcDbLayerTableRecord
  2
0
 70
             0
 62
             7
  6
CONTINUOUS
  0
LAYER
  5
25
100
AcDbSymbolTableRecord
100
AcDbLayerTableRecord
  2
1
 70
             0
 62
             7
  6
CONTINUOUS
  0
LAYER
  5
26
100
AcDbSymbolTableRecord
100
AcDbLayerTableRecord
  2
LC-001-002-----0
 70
             0
 62
             7
  6
CONTINUOUS
  0
LAYER
  5
27
100
AcDbSymbolTableRecord
100
AcDbLayerTableRecord
  2
LC-002-002-----0
 70
             0
 62
             7
  6
CONTINUOUS
  0
LAYER
  5
28
100
AcDbSymbolTableRecord
100
AcDbLayerTableRecord
  2
LC-002-002-RND-0
 70
             0
 62
             7
  6
CONTINUOUS
  0
LAYER
  5
29
100
AcDbSymbolTableRecord
100
AcDbLayerTableRecord
  2
LC-003-001-----0
 70
             0
 62
             7
  6
CONTINUOUS
  0
LAYER
  5
2A
100
AcDbSymbolTableRecord
100
AcDbLayerTableRecord
  2
LC-003-002-----0
 70
             0
 62
             7
  6
CONTINUOUS
  0
LAYER
  5
2B
100
AcDbSymbolTableRecord
100
AcDbLayerTableRecord
  2
LC-004-001-RND-0
 70
             0
 62
             7
  6
CONTINUOUS
  0
LAYER
  5
2C
100
AcDbSymbolTableRecord
100
AcDbLayerTableRecord
  2
LC-005-002-RND-0
 70
             0
 62
             7
  6
CONTINUOUS
  0
LAYER
  5
2D
100
AcDbSymbolTableRecord
100
AcDbLayerTableRecord
  2
LC-008-003-----0
 70
             0
 62
             7
  6
CONTINUOUS
  0
LAYER
  5
2E
100
AcDbSymbolTableRecord
100
AcDbLayerTableRecord
  2
LC-009-002-RND-0
 70
             0
 62
             7
  6
CONTINUOUS
  0
ENDTAB
  0
TABLE
  2
STYLE
  5
3
100
AcDbSymbolTable
 70
             2
  0
STYLE
  5
17
100
AcDbSymbolTableRecord
100
AcDbTextStyleTableRecord
  2
STANDARD
 70
             0
 40
0.0
 41
1.0
 50
0.0
 71
             0
 42
0.0
  3
txt
  4

  0
STYLE
  5
14B
100
AcDbSymbolTableRecord
100
AcDbTextStyleTableRecord
  2
CONVERTER_1
 70
             0
 40
0.0
 41
0.9
 50
0.0
 71
             0
 42
0.0
  3
txt.shx
  4

  0
ENDTAB
  0
TABLE
  2
VIEW
  5
5
100
AcDbSymbolTable
 70
             0
  0
ENDTAB
  0
TABLE
  2
UCS
  5
6
100
AcDbSymbolTable
 70
             0
  0
ENDTAB
  0
TABLE
  2
APPID
  5
8
100
AcDbSymbolTable
 70
             1
  0
APPID
  5
16
100
AcDbSymbolTableRecord
100
AcDbRegAppTableRecord
  2
ACAD
 70
             0
  0
ENDTAB
  0
TABLE
  2
DIMSTYLE
  5
9
100
AcDbSymbolTable
 70
             7
  0
DIMSTYLE
105
18
100
AcDbSymbolTableRecord
100
AcDbDimStyleTableRecord
  2
STANDARD
 70
             0
  3

  4

  5

  6

  7

 40
1.0
 41
0.18
 42
0.0625
 43
0.38
 44
0.18
 45
0.0
 46
0.0
 47
0.0
 48
0.0
 71
             0
 72
             0
 73
             1
 74
             1
 75
             0
 76
             0
 77
             0
 78
             0
140
0.18
141
0.09
142
0.0
143
25.4
144
1.0
145
0.0
146
1.0
147
0.09
170
             0
171
             2
172
             0
173
             0
174
             0
175
             0
176
             0
177
             0
178
             0
270
             2
271
             4
272
             4
273
             2
274
             2
275
             0
280
             0
281
             0
282
             0
283
             1
284
             0
285
             0
286
             0
287
             3
288
             0
340
17
  0
DIMSTYLE
105
14E
100
AcDbSymbolTableRecord
100
AcDbDimStyleTableRecord
  2
ME10_DIM_0
 70
             0
  3

  4

  5

  6

  7

 40
1.0
 41
10.0
 42
0.0
 43
0.38
 44
2.0
 45
0.0
 46
0.0
 47
0.0
 48
0.0
 71
             0
 72
             0
 73
             0
 74
             0
 75
             0
 76
             0
 77
             1
 78
             8
140
10.0
141
0.09
142
0.0
143
25.4
144
1.0
145
0.0
146
1.0
147
0.625
170
             0
171
             2
172
             1
173
             1
174
             0
175
             0
176
             4
177
             4
178
             1
270
             2
271
             2
272
             4
273
             2
274
             2
275
             0
280
             0
281
             0
282
             0
283
             1
284
             0
285
             0
286
             0
287
             3
288
             0
340
14B
  0
DIMSTYLE
105
159
100
AcDbSymbolTableRecord
100
AcDbDimStyleTableRecord
  2
ME10_DIM_1
 70
             0
  3
Ø<>
  4

  5

  6

  7

 40
1.0
 41
10.0
 42
0.0
 43
0.38
 44
2.0
 45
0.0
 46
0.0
 47
0.0
 48
0.0
 71
             0
 72
             0
 73
             0
 74
             0
 75
             0
 76
             0
 77
             1
 78
             8
140
10.0
141
0.09
142
0.0
143
25.4
144
1.0
145
0.0
146
1.0
147
0.625
170
             0
171
             2
172
             1
173
             1
174
             0
175
             0
176
             4
177
             4
178
             1
270
             2
271
             2
272
             4
273
             2
274
             2
275
             0
280
             0
281
             0
282
             0
283
             1
284
             0
285
             0
286
             0
287
             3
288
             0
340
14B
  0
DIMSTYLE
105
164
100
AcDbSymbolTableRecord
100
AcDbDimStyleTableRecord
  2
ME10_DIM_2
 70
             0
  3
Ø<>
  4

  5

  6

  7

 40
1.0
 41
10.0
 42
0.0
 43
0.38
 44
2.0
 45
0.0
 46
0.0
 47
0.0
 48
0.0
 71
             0
 72
             0
 73
             0
 74
             0
 75
             0
 76
             0
 77
             1
 78
             8
140
10.0
141
0.09
142
0.0
143
25.4
144
1.0
145
0.0
146
1.0
147
0.625
170
             0
171
             2
172
             1
173
             1
174
             0
175
             0
176
             4
177
             4
178
             1
270
             2
271
             2
272
             4
273
             2
274
             2
275
             0
280
             0
281
             0
282
             0
283
             1
284
             0
285
             0
286
             0
287
             3
288
             0
340
14B
  0
DIMSTYLE
105
16F
100
AcDbSymbolTableRecord
100
AcDbDimStyleTableRecord
  2
ME10_DIM_3
 70
             0
  3

  4

  5

  6

  7

 40
1.0
 41
10.0
 42
0.0
 43
0.38
 44
2.0
 45
0.0
 46
0.0
 47
0.0
 48
0.0
 71
             0
 72
             0
 73
             0
 74
             0
 75
             0
 76
             0
 77
             1
 78
             8
140
10.0
141
0.09
142
0.0
143
25.4
144
1.0
145
0.0
146
1.0
147
0.625
170
             0
171
             2
172
             1
173
             1
174
             0
175
             0
176
             4
177
             4
178
             1
270
             2
271
             2
272
             4
273
             2
274
             2
275
             0
280
             0
281
             0
282
             0
283
             1
284
             0
285
             0
286
             0
287
             3
288
             0
340
14B
  0
DIMSTYLE
105
17A
100
AcDbSymbolTableRecord
100
AcDbDimStyleTableRecord
  2
ME10_DIM_4
 70
             0
  3
DN<>
  4

  5

  6

  7

 40
1.0
 41
10.0
 42
0.0
 43
0.38
 44
2.0
 45
0.0
 46
0.0
 47
0.0
 48
0.0
 71
             0
 72
             0
 73
             0
 74
             0
 75
             0
 76
             0
 77
             1
 78
             8
140
10.0
141
0.09
142
0.0
143
25.4
144
1.0
145
0.0
146
1.0
147
0.625
170
             0
171
             2
172
             1
173
             1
174
             0
175
             0
176
             4
177
             4
178
             1
270
             2
271
             2
272
             4
273
             2
274
             2
275
             0
280
             0
281
             0
282
             0
283
             1
284
             0
285
             0
286
             0
287
             3
288
             0
340
14B
  0
DIMSTYLE
105
185
100
AcDbSymbolTableRecord
100
AcDbDimStyleTableRecord
  2
ME10_DIM_5
 70
             0
  3
Ø<>
  4

  5

  6

  7

 40
1.0
 41
10.0
 42
0.0
 43
0.38
 44
2.0
 45
0.0
 46
0.0
 47
0.0
 48
0.0
 71
             0
 72
             0
 73
             0
 74
             0
 75
             0
 76
             0
 77
             1
 78
             8
140
10.0
141
0.09
142
0.0
143
25.4
144
1.0
145
0.0
146
1.0
147
0.625
170
             0
171
             2
172
             1
173
             1
174
             0
175
             0
176
             4
177
             4
178
             1
270
             2
271
             2
272
             4
273
             2
274
             2
275
             0
280
             0
281
             0
282
             0
283
             1
284
             0
285
             0
286
             0
287
             3
288
             0
340
14B
  0
ENDTAB
  0
TABLE
  2
BLOCK_RECORD
  5
1
100
AcDbSymbolTable
 70
             9
  0
BLOCK_RECORD
  5
A
100
AcDbSymbolTableRecord
100
AcDbBlockTableRecord
  2
*MODEL_SPACE
  0
BLOCK_RECORD
  5
B
100
AcDbSymbolTableRecord
100
AcDbBlockTableRecord
  2
*PAPER_SPACE
  0
BLOCK_RECORD
  5
2F
100
AcDbSymbolTableRecord
100
AcDbBlockTableRecord
  2
K_RPER
  0
BLOCK_RECORD
  5
31
100
AcDbSymbolTableRecord
100
AcDbBlockTableRecord
  2
062B_2E_AUFSATZRAHMEN
  0
BLOCK_RECORD
  5
33
100
AcDbSymbolTableRecord
100
AcDbBlockTableRecord
  2
HL_66_0_AUFSATZRAHMEN
  0
BLOCK_RECORD
  5
144
100
AcDbSymbolTableRecord
100
AcDbBlockTableRecord
  2
*D3
  0
BLOCK_RECORD
  5
150
100
AcDbSymbolTableRecord
100
AcDbBlockTableRecord
  2
*D4
  0
BLOCK_RECORD
  5
15B
100
AcDbSymbolTableRecord
100
AcDbBlockTableRecord
  2
*D5
  0
BLOCK_RECORD
  5
166
100
AcDbSymbolTableRecord
100
AcDbBlockTableRecord
  2
*D6
  0
BLOCK_RECORD
  5
171
100
AcDbSymbolTableRecord
100
AcDbBlockTableRecord
  2
*D7
  0
BLOCK_RECORD
  5
17C
100
AcDbSymbolTableRecord
100
AcDbBlockTableRecord
  2
*D8
  0
ENDTAB
  0
ENDSEC
  0
SECTION
  2
BLOCKS
  0
BLOCK
  5
D
100
AcDbEntity
  8
0
100
AcDbBlockBegin
  2
*MODEL_SPACE
 70
             0
 10
0.0
 20
0.0
 30
0.0
  3
*MODEL_SPACE
  1

  0
ENDBLK
  5
E
100
AcDbEntity
  8
0
100
AcDbBlockEnd
  0
BLOCK
  5
F
100
AcDbEntity
 67
             1
  8
0
100
AcDbBlockBegin
  2
*PAPER_SPACE
 70
             0
 10
0.0
 20
0.0
 30
0.0
  3
*PAPER_SPACE
  1

  0
ENDBLK
  5
10
100
AcDbEntity
 67
             1
  8
0
100
AcDbBlockEnd
  0
BLOCK
  5
30
100
AcDbEntity
  8
0
100
AcDbBlockBegin
  2
K_RPER
 70
             0
 10
-380.00555764075602
 20
-870.49194440387498
 30
0.0
  3
K_RPER
  1

  0
ARC
  5
91
100
AcDbEntity
  8
LC-002-002-RND-0
  6
CONTINUOUS
 62
             7
100
AcDbCircle
 10
-84.49914939872349
 20
-26.53413779842788
 40
5.0
100
AcDbArc
 50
180.0
 51
-166.65180831181868
  0
ARC
  5
90
100
AcDbEntity
  8
LC-002-002-RND-0
  6
CONTINUOUS
 62
             7
100
AcDbCircle
 10
-72.24985639872348
 20
-99.0266037984278
 40
8.0
100
AcDbArc
 50
180.0
 51
-90.0
  0
ARC
  5
8F
100
AcDbEntity
  8
LC-002-002-RND-0
  6
CONTINUOUS
 62
             7
100
AcDbCircle
 10
72.25014360127653
 20
-99.0266037984278
 40
8.0
100
AcDbArc
 50
-90.0
 51
0.0
  0
ARC
  5
8E
100
AcDbEntity
  8
LC-002-002-RND-0
  6
CONTINUOUS
 62
             7
100
AcDbCircle
 10
81.75014360127653
 20
-40.1550727984278
 40
1.49999999999998
100
AcDbArc
 50
108.09293600001367
 51
180.0
  0
ARC
  5
8D
100
AcDbEntity
  8
LC-002-002-RND-0
  6
CONTINUOUS
 62
             7
100
AcDbCircle
 10
81.08529260127654
 20
-33.53417179842779
 40
5.00000000000056
100
AcDbArc
 50
-71.90706400000221
 51
-25.99999999999607
  0
ARC
  5
8C
100
AcDbEntity
  8
LC-002-002-RND-0
  6
CONTINUOUS
 62
             7
100
AcDbCircle
 10
-84.49914939872349
 20
-26.53413779842788
 40
4.99999999999978
100
AcDbArc
 50
-166.65180831181868
 51
-154.00000000000412
  0
ARC
  5
8B
100
AcDbEntity
  8
LC-002-002-RND-0
  6
CONTINUOUS
 62
             7
100
AcDbCircle
 10
-81.74985639872348
 20
-40.1550727984278
 40
1.5
100
AcDbArc
 50
0.0
 51
71.90706399998737
  0
ARC
  5
8A
100
AcDbEntity
  8
LC-002-002-RND-0
  6
CONTINUOUS
 62
             7
100
AcDbCircle
 10
-81.08500439872348
 20
-33.53417179842779
 40
5.00000000000002
100
AcDbArc
 50
-154.00000000000392
 51
-108.09293599999826
  0
ARC
  5
89
100
AcDbEntity
  8
LC-005-002-RND-0
  6
CONTINUOUS
 62
             7
100
AcDbCircle
 10
91.49937699999987
 20
-17.20068399999997
 40
2.0
100
AcDbArc
 50
90.0
 51
180.0
  0
ARC
  5
88
100
AcDbEntity
  8
LC-005-002-RND-0
  6
CONTINUOUS
 62
             7
100
AcDbCircle
 10
91.7755810000001
 20
-12.20068399999997
 40
3.0
100
AcDbArc
 50
-90.0
 51
-3.00000000000322
  0
ARC
  5
87
100
AcDbEntity
  8
LC-004-001-RND-0
  6
CONTINUOUS
 62
             7
100
AcDbCircle
 10
96.48563100000001
 20
-7.81053099999997
 40
1.49999999999959
100
AcDbArc
 50
93.99999700001357
 51
177.00000000001648
  0
ARC
  5
86
100
AcDbEntity
  8
LC-005-002-RND-0
  6
CONTINUOUS
 62
             7
100
AcDbCircle
 10
-91.49920900000006
 20
-17.20068399999997
 40
2.0
100
AcDbArc
 50
0.0
 51
90.0
  0
ARC
  5
85
100
AcDbEntity
  8
LC-005-002-RND-0
  6
CONTINUOUS
 62
             7
100
AcDbCircle
 10
-91.77541300000007
 20
-12.20068399999997
 40
3.00000000000017
100
AcDbArc
 50
-176.99999999999679
 51
-90.0
  0
ARC
  5
84
100
AcDbEntity
  8
LC-004-001-RND-0
  6
CONTINUOUS
 62
             7
100
AcDbCircle
 10
-96.48546299999998
 20
-7.81053099999997
 40
1.50000000000006
100
AcDbArc
 50
2.99999999998374
 51
86.00000299998644
  0
LINE
  5
83
100
AcDbEntity
  8
1
  6
CONTINUOUS
 62
             7
100
AcDbLine
 10
89.4994366012765
 20
-27.68847879842787
 11
89.4994366012765
 21
-25.10821799991845
  0
LINE
  5
82
100
AcDbEntity
  8
1
  6
CONTINUOUS
 62
             7
100
AcDbLine
 10
89.4994366012765
 20
-27.68847879842787
 11
-89.36407456317534
 21
-27.68847879842787
  0
LINE
  5
81
100
AcDbEntity
  8
1
  6
CONTINUOUS
 62
             7
100
AcDbLine
 10
-89.49920900000006
 20
-17.20068399999997
 11
-89.49920900000006
 21
-26.53413779842788
  0
LINE
  5
80
100
AcDbEntity
  8
LC-001-002-----0
  6
CONTINUOUS
 62
             7
100
AcDbLine
 10
-62.49985739872349
 20
-158.5266037984278
 11
62.50014260127651
 21
-158.5266037984278
  0
LINE
  5
7F
100
AcDbEntity
  8
LC-001-002-----0
  6
CONTINUOUS
 62
             7
100
AcDbLine
 10
-72.24985639872348
 20
-107.0266037984278
 11
-68.19907839872349
 21
-107.0266037984278
  0
LINE
  5
7E
100
AcDbEntity
  8
LC-001-002-----0
  6
CONTINUOUS
 62
             7
100
AcDbLine
 10
0.00025260127651
 20
-109.0266037984278
 11
-68.19907839872349
 21
-109.0266037984278
  0
LINE
  5
7D
100
AcDbEntity
  8
LC-001-002-----0
  6
CONTINUOUS
 62
             7
100
AcDbLine
 10
70.74273660127653
 20
-109.0266037984278
 11
0.00025260127651
 21
-109.0266037984278
  0
LINE
  5
7C
100
AcDbEntity
  8
LC-001-002-----0
  6
CONTINUOUS
 62
             7
100
AcDbLine
 10
70.74273660127653
 20
-107.0266037984278
 11
70.74273660127653
 21
-109.0266037984278
  0
LINE
  5
7B
100
AcDbEntity
  8
LC-001-002-----0
  6
CONTINUOUS
 62
             7
100
AcDbLine
 10
72.25014360127653
 20
-107.0266037984278
 11
70.74273660127653
 21
-107.0266037984278
  0
LINE
  5
7A
100
AcDbEntity
  8
LC-001-002-----0
  6
CONTINUOUS
 62
             7
100
AcDbLine
 10
-80.24985639872348
 20
-97.0266037984278
 11
0.00023660127652
 21
-97.0266037984278
  0
LINE
  5
79
100
AcDbEntity
  8
LC-001-002-----0
  6
CONTINUOUS
 62
             7
100
AcDbLine
 10
-80.24985639872348
 20
-99.0266037984278
 11
-80.24985639872348
 21
-97.0266037984278
  0
LINE
  5
78
100
AcDbEntity
  8
LC-001-002-----0
  6
CONTINUOUS
 62
             7
100
AcDbLine
 10
80.25014360127653
 20
-99.0266037984278
 11
80.25014360127653
 21
-97.0266037984278
  0
LINE
  5
77
100
AcDbEntity
  8
LC-001-002-----0
  6
CONTINUOUS
 62
             7
100
AcDbLine
 10
80.25014360127653
 20
-97.0266037984278
 11
0.00023660127652
 21
-97.0266037984278
  0
LINE
  5
76
100
AcDbEntity
  8
LC-001-002-----0
  6
CONTINUOUS
 62
             7
100
AcDbLine
 10
62.50014260127651
 20
-109.0266037984278
 11
62.50014260127651
 21
-158.5266037984278
  0
LINE
  5
75
100
AcDbEntity
  8
LC-001-002-----0
  6
CONTINUOUS
 62
             7
100
AcDbLine
 10
62.50014260127651
 20
-158.5266037984278
 11
61.29437060127651
 21
-163.0266037984278
  0
LINE
  5
74
100
AcDbEntity
  8
LC-001-002-----0
  6
CONTINUOUS
 62
             7
100
AcDbLine
 10
61.29437060127651
 20
-163.0266037984278
 11
-59.49985739872349
 21
-163.0266037984278
  0
LINE
  5
73
100
AcDbEntity
  8
LC-001-002-----0
  6
CONTINUOUS
 62
             7
100
AcDbLine
 10
-59.49985739872349
 20
-163.0266037984278
 11
-61.29408639872348
 21
-163.0266037984278
  0
LINE
  5
72
100
AcDbEntity
  8
LC-001-002-----0
  6
CONTINUOUS
 62
             7
100
AcDbLine
 10
-62.49985739872349
 20
-158.5266037984278
 11
-61.29408639872348
 21
-163.0266037984278
  0
LINE
  5
71
100
AcDbEntity
  8
LC-001-002-----0
  6
CONTINUOUS
 62
             7
100
AcDbLine
 10
-62.49985739872349
 20
-109.0266037984278
 11
-62.49985739872349
 21
-158.5266037984278
  0
LINE
  5
70
100
AcDbEntity
  8
LC-001-002-----0
  6
CONTINUOUS
 62
             7
100
AcDbLine
 10
80.25014360127653
 20
-40.1550727984278
 11
80.25014360127653
 21
-97.0266037984278
  0
LINE
  5
6F
100
AcDbEntity
  8
LC-001-002-----0
  6
CONTINUOUS
 62
             7
100
AcDbLine
 10
80.25014360127653
 20
-97.0266037984278
 11
77.49983960127651
 21
-97.0266037984278
  0
LINE
  5
6E
100
AcDbEntity
  8
LC-001-002-----0
  6
CONTINUOUS
 62
             7
100
AcDbLine
 10
-80.24985639872348
 20
-40.1550727984278
 11
-80.24985639872348
 21
-97.0266037984278
  0
LINE
  5
6D
100
AcDbEntity
  8
LC-001-002-----0
  6
CONTINUOUS
 62
             7
100
AcDbLine
 10
-80.24985639872348
 20
-97.0266037984278
 11
-77.50016039872348
 21
-97.0266037984278
  0
LINE
  5
6C
100
AcDbEntity
  8
LC-001-002-----0
  6
DASHDOT
 62
             2
100
AcDbLine
 10
-0.0000013987235
 20
76.76001920157216
 11
0.00032760127652
 21
-163.0266037984278
  0
LINE
  5
6B
100
AcDbEntity
  8
LC-001-002-----0
  6
CONTINUOUS
 62
             7
100
AcDbLine
 10
-81.28401739872349
 20
-38.72924179842778
 11
81.28430460127652
 21
-38.72924179842778
  0
LINE
  5
6A
100
AcDbEntity
  8
LC-001-002-----0
  6
CONTINUOUS
 62
             7
100
AcDbLine
 10
88.99340760127649
 20
-28.72599279842791
 11
85.57926260127653
 21
-35.72602779842794
  0
LINE
  5
69
100
AcDbEntity
  8
LC-001-002-----0
  6
CONTINUOUS
 62
             7
100
AcDbLine
 10
82.63808860127654
 20
-38.28694179842785
 11
81.28430460127652
 21
-38.72924179842778
  0
LINE
  5
68
100
AcDbEntity
  8
LC-008-003-----0
  6
CONTINUOUS
 62
             7
100
AcDbLine
 10
89.4994366012765
 20
-27.68847879842787
 11
88.99340760127649
 21
-28.72599279842791
  0
LINE
  5
67
100
AcDbEntity
  8
LC-001-002-----0
  6
CONTINUOUS
 62
             7
100
AcDbLine
 10
-88.99311939872348
 20
-28.72599279842791
 11
-85.57897439872349
 21
-35.72602779842794
  0
LINE
  5
66
100
AcDbEntity
  8
LC-001-002-----0
  6
CONTINUOUS
 62
             7
100
AcDbLine
 10
-82.63780039872349
 20
-38.28694179842785
 11
-81.28401739872349
 21
-38.72924179842778
  0
LINE
  5
65
100
AcDbEntity
  8
LC-002-002-----0
  6
CONTINUOUS
 62
             7
100
AcDbLine
 10
89.49937699999987
 20
-25.10821800000002
 11
-89.49920900000006
 21
-25.10846299999997
  0
LINE
  5
64
100
AcDbEntity
  8
LC-002-002-----0
  6
CONTINUOUS
 62
             7
100
AcDbLine
 10
91.49937699999987
 20
-15.20068399999997
 11
-91.49920900000006
 21
-15.20093499999996
  0
LINE
  5
63
100
AcDbEntity
  8
LC-002-002-----0
  6
CONTINUOUS
 62
             7
100
AcDbLine
 10
96.3809960000001
 20
-6.31418500000001
 11
-96.38082800000007
 21
-6.31444999999997
  0
LINE
  5
62
100
AcDbEntity
  8
LC-002-002-----0
  6
CONTINUOUS
 62
             7
100
AcDbLine
 10
109.48988900000001
 20
-5.39752299999998
 11
-109.48972000000001
 21
-5.39782299999996
  0
LINE
  5
61
100
AcDbEntity
  8
LC-002-002-----0
  6
CONTINUOUS
 62
             7
100
AcDbLine
 10
111.19651399999999
 20
-3.690898
 11
-111.19634500000009
 21
-3.69120299999997
  0
LINE
  5
60
100
AcDbEntity
  8
LC-002-002-----0
  6
CONTINUOUS
 62
             7
100
AcDbLine
 10
150.75182699999979
 20
-3.00045699999998
 11
-150.75165899999999
 21
-3.00087099999996
  0
LINE
  5
5F
100
AcDbEntity
  8
LC-002-002-----0
  6
DASHDOT
 62
             2
100
AcDbLine
 10
-0.00010100000009
 20
78.18593900000002
 11
0.00022799999988
 21
-161.60068399999989
  0
LINE
  5
5E
100
AcDbEntity
  8
LC-002-002-----0
  6
CONTINUOUS
 62
             7
100
AcDbLine
 10
-85.04272100000003
 20
4.69999999999999
 11
-85.58556700000008
 21
5.01019700000001
  0
LINE
  5
5D
100
AcDbEntity
  8
LC-002-002-----0
  6
CONTINUOUS
 62
             7
100
AcDbLine
 10
85.04231200000004
 20
4.69999999999999
 11
85.58556500000009
 21
5.01043200000004
  0
LINE
  5
5C
100
AcDbEntity
  8
LC-002-002-----0
  6
CONTINUOUS
 62
             7
100
AcDbLine
 10
-150.66967199999999
 20
0.0
 11
249.7971399999999
 21
0.0
  0
LINE
  5
5B
100
AcDbEntity
  8
LC-002-002-----0
  6
CONTINUOUS
 62
             7
100
AcDbLine
 10
249.7971399999999
 20
4.69999999999999
 11
249.7971399999999
 21
0.0
  0
LINE
  5
5A
100
AcDbEntity
  8
LC-002-002-----0
  6
CONTINUOUS
 62
             7
100
AcDbLine
 10
0.0
 20
4.69999999999999
 11
249.7971399999999
 21
4.69999999999999
  0
LINE
  5
59
100
AcDbEntity
  8
LC-002-002-----0
  6
CONTINUOUS
 62
             7
100
AcDbLine
 10
-249.79705100000001
 20
4.69999999999999
 11
-249.79705100000001
 21
0.0
  0
LINE
  5
58
100
AcDbEntity
  8
LC-002-002-----0
  6
CONTINUOUS
 62
             7
100
AcDbLine
 10
-150.66967199999999
 20
0.0
 11
-249.79705100000001
 21
0.0
  0
LINE
  5
57
100
AcDbEntity
  8
LC-002-002-----0
  6
CONTINUOUS
 62
             7
100
AcDbLine
 10
0.0
 20
4.69999999999999
 11
-249.79705100000001
 21
4.69999999999999
  0
LINE
  5
56
100
AcDbEntity
  8
LC-002-002-----0
  6
CONTINUOUS
 62
             7
100
AcDbLine
 10
89.49937699999987
 20
-25.10821800000002
 11
89.49937699999987
 21
-17.20068399999997
  0
LINE
  5
55
100
AcDbEntity
  8
LC-002-002-----0
  6
CONTINUOUS
 62
             7
100
AcDbLine
 10
91.7755810000001
 20
-15.20068399999997
 11
91.49937699999987
 21
-15.20068399999997
  0
LINE
  5
54
100
AcDbEntity
  8
LC-002-002-----0
  6
CONTINUOUS
 62
             7
100
AcDbLine
 10
150.75182699999979
 20
0.0
 11
150.75182699999979
 21
-3.00045699999998
  0
LINE
  5
53
100
AcDbEntity
  8
LC-002-002-----0
  6
CONTINUOUS
 62
             7
100
AcDbLine
 10
95.01381900000001
 20
-7.73339699999997
 11
94.77146999999991
 21
-12.35769199999999
  0
LINE
  5
52
100
AcDbEntity
  8
LC-003-001-----0
  6
CONTINUOUS
 62
             7
100
AcDbLine
 10
109.48988900000001
 20
-5.39752299999998
 11
96.3809960000001
 21
-6.31418500000001
  0
LINE
  5
51
100
AcDbEntity
  8
LC-002-002-----0
  6
CONTINUOUS
 62
             7
100
AcDbLine
 10
111.19651399999999
 20
-3.690898
 11
109.48988900000001
 21
-5.39752299999998
  0
LINE
  5
50
100
AcDbEntity
  8
LC-002-002-----0
  6
CONTINUOUS
 62
             7
100
AcDbLine
 10
150.75182699999979
 20
-3.00045699999998
 11
111.19651399999999
 21
-3.690898
  0
LINE
  5
4F
100
AcDbEntity
  8
LC-002-002-----0
  6
CONTINUOUS
 62
             7
100
AcDbLine
 10
-91.77541300000007
 20
-15.20068399999997
 11
-91.49920900000006
 21
-15.20068399999997
  0
LINE
  5
4E
100
AcDbEntity
  8
LC-002-002-----0
  6
CONTINUOUS
 62
             7
100
AcDbLine
 10
-150.75165899999999
 20
0.0
 11
-150.75165899999999
 21
-3.00045699999998
  0
LINE
  5
4D
100
AcDbEntity
  8
LC-002-002-----0
  6
CONTINUOUS
 62
             7
100
AcDbLine
 10
-95.0136500000001
 20
-7.73339699999997
 11
-94.77130099999999
 21
-12.35769199999999
  0
LINE
  5
4C
100
AcDbEntity
  8
LC-003-001-----0
  6
CONTINUOUS
 62
             7
100
AcDbLine
 10
-109.48972000000001
 20
-5.39752299999998
 11
-96.38082800000007
 21
-6.31418500000001
  0
LINE
  5
4B
100
AcDbEntity
  8
LC-002-002-----0
  6
CONTINUOUS
 62
             7
100
AcDbLine
 10
-111.19634500000009
 20
-3.690898
 11
-109.48972000000001
 21
-5.39752299999998
  0
LINE
  5
4A
100
AcDbEntity
  8
LC-002-002-----0
  6
CONTINUOUS
 62
             7
100
AcDbLine
 10
-150.75165899999999
 20
-3.00045699999998
 11
-111.19634500000009
 21
-3.690898
  0
LINE
  5
49
100
AcDbEntity
  8
1
  6
CONTINUOUS
 62
             7
100
AcDbLine
 10
-68.19907839872349
 20
-109.0266037984278
 11
-68.19907839872349
 21
-107.0266037984278
  0
LINE
  5
48
100
AcDbEntity
  8
LC-001-002-----0
  6
CONTINUOUS
 62
             7
100
AcDbLine
 10
-68.19907839872349
 20
-107.0266037984278
 11
70.74273660127653
 21
-107.0266037984278
  0
POINT
  5
47
100
AcDbEntity
  8
LC-008-003-----0
 62
             7
100
AcDbPoint
 10
-61.29408639872348
 20
-163.0266037984278
  0
POINT
  5
46
100
AcDbEntity
  8
LC-008-003-----0
 62
             7
100
AcDbPoint
 10
-72.50016039872348
 20
-107.0266037984278
  0
POINT
  5
45
100
AcDbEntity
  8
LC-008-003-----0
 62
             7
100
AcDbPoint
 10
62.50014260127651
 20
-158.5266037984278
  0
POINT
  5
44
100
AcDbEntity
  8
LC-008-003-----0
 62
             7
100
AcDbPoint
 10
-62.49985739872349
 20
-158.5266037984278
  0
POINT
  5
43
100
AcDbEntity
  8
LC-008-003-----0
 62
             7
100
AcDbPoint
 10
-72.50016039872348
 20
-107.0266037984278
  0
POINT
  5
42
100
AcDbEntity
  8
LC-008-003-----0
 62
             7
100
AcDbPoint
 10
80.25014360127653
 20
-97.0266037984278
  0
POINT
  5
41
100
AcDbEntity
  8
LC-008-003-----0
 62
             7
100
AcDbPoint
 10
-80.24985639872348
 20
-97.0266037984278
  0
POINT
  5
40
100
AcDbEntity
  8
LC-008-003-----0
 62
             7
100
AcDbPoint
 10
-150.75165899999999
 20
-3.00045699999998
  0
POINT
  5
3F
100
AcDbEntity
  8
LC-008-003-----0
 62
             7
100
AcDbPoint
 10
94.77146999999991
 20
-12.35769199999999
  0
POINT
  5
3E
100
AcDbEntity
  8
LC-008-003-----0
 62
             7
100
AcDbPoint
 10
-94.77130099999999
 20
-12.35769199999999
  0
POINT
  5
3D
100
AcDbEntity
  8
LC-008-003-----0
 62
             7
100
AcDbPoint
 10
150.75182699999979
 20
-3.00045699999998
  0
POINT
  5
3C
100
AcDbEntity
  8
LC-008-003-----0
 62
             7
100
AcDbPoint
 10
-150.75165899999999
 20
-3.00045699999998
  0
POINT
  5
3B
100
AcDbEntity
  8
LC-008-003-----0
 62
             7
100
AcDbPoint
 10
249.7971399999999
 20
4.69999999999999
  0
POINT
  5
3A
100
AcDbEntity
  8
LC-008-003-----0
 62
             7
100
AcDbPoint
 10
-249.79705100000001
 20
4.69999999999999
  0
ENDBLK
  5
92
100
AcDbEntity
  8
0
100
AcDbBlockEnd
  0
BLOCK
  5
32
100
AcDbEntity
  8
0
100
AcDbBlockBegin
  2
062B_2E_AUFSATZRAHMEN
 70
             0
 10
-69.62906273015423
 20
-1383.377514897322
 30
0.0
  3
062B_2E_AUFSATZRAHMEN
  1

  0
ARC
  5
140
100
AcDbEntity
  8
LC-009-002-RND-0
  6
CONTINUOUS
 62
             7
100
AcDbCircle
 10
72.00008993170243
 20
8.19999999999999
 40
0.5
100
AcDbArc
 50
-90.0
 51
0.0
  0
ARC
  5
13F
100
AcDbEntity
  8
LC-009-002-RND-0
  6
CONTINUOUS
 62
             7
100
AcDbCircle
 10
72.00008993170243
 20
17.20000000000005
 40
0.5
100
AcDbArc
 50
-90.0
 51
0.0
  0
ARC
  5
13E
100
AcDbEntity
  8
LC-009-002-RND-0
  6
CONTINUOUS
 62
             7
100
AcDbCircle
 10
72.00008993170243
 20
12.70000000000005
 40
0.5
100
AcDbArc
 50
-90.0
 51
0.0
  0
ARC
  5
13D
100
AcDbEntity
  8
LC-009-002-RND-0
  6
CONTINUOUS
 62
             7
100
AcDbCircle
 10
72.00008993170243
 20
21.70000000000005
 40
0.5
100
AcDbArc
 50
-90.0
 51
0.0
  0
ARC
  5
13C
100
AcDbEntity
  8
LC-009-002-RND-0
  6
CONTINUOUS
 62
             7
100
AcDbCircle
 10
72.00008993170243
 20
26.20000000000005
 40
0.5
100
AcDbArc
 50
-90.0
 51
0.0
  0
ARC
  5
13B
100
AcDbEntity
  8
LC-009-002-RND-0
  6
CONTINUOUS
 62
             7
100
AcDbCircle
 10
72.00008993170243
 20
30.70000000000005
 40
0.5
100
AcDbArc
 50
-90.0
 51
0.0
  0
ARC
  5
13A
100
AcDbEntity
  8
LC-009-002-RND-0
  6
CONTINUOUS
 62
             7
100
AcDbCircle
 10
72.00008993170243
 20
35.20000000000005
 40
0.5
100
AcDbArc
 50
-90.0
 51
0.0
  0
ARC
  5
139
100
AcDbEntity
  8
LC-009-002-RND-0
  6
CONTINUOUS
 62
             7
100
AcDbCircle
 10
72.00008993170243
 20
39.70000000000005
 40
0.5
100
AcDbArc
 50
-90.0
 51
0.0
  0
ARC
  5
138
100
AcDbEntity
  8
LC-009-002-RND-0
  6
CONTINUOUS
 62
             7
100
AcDbCircle
 10
72.00008993170243
 20
44.20000000000005
 40
0.5
100
AcDbArc
 50
-90.0
 51
0.0
  0
ARC
  5
137
100
AcDbEntity
  8
LC-009-002-RND-0
  6
CONTINUOUS
 62
             7
100
AcDbCircle
 10
72.00008993170243
 20
48.70000000000005
 40
0.5
100
AcDbArc
 50
-90.0
 51
0.0
  0
ARC
  5
136
100
AcDbEntity
  8
LC-009-002-RND-0
  6
CONTINUOUS
 62
             7
100
AcDbCircle
 10
72.00008993170243
 20
45.20000000000005
 40
0.5
100
AcDbArc
 50
0.0
 51
90.0
  0
ARC
  5
135
100
AcDbEntity
  8
LC-009-002-RND-0
  6
CONTINUOUS
 62
             7
100
AcDbCircle
 10
72.00008993170243
 20
40.70000000000005
 40
0.5
100
AcDbArc
 50
0.0
 51
90.0
  0
ARC
  5
134
100
AcDbEntity
  8
LC-009-002-RND-0
  6
CONTINUOUS
 62
             7
100
AcDbCircle
 10
72.00008993170243
 20
36.20000000000005
 40
0.5
100
AcDbArc
 50
0.0
 51
90.0
  0
ARC
  5
133
100
AcDbEntity
  8
LC-009-002-RND-0
  6
CONTINUOUS
 62
             7
100
AcDbCircle
 10
72.00008993170243
 20
31.70000000000005
 40
0.5
100
AcDbArc
 50
0.0
 51
90.0
  0
ARC
  5
132
100
AcDbEntity
  8
LC-009-002-RND-0
  6
CONTINUOUS
 62
             7
100
AcDbCircle
 10
72.00008993170243
 20
27.20000000000005
 40
0.5
100
AcDbArc
 50
0.0
 51
90.0
  0
ARC
  5
131
100
AcDbEntity
  8
LC-009-002-RND-0
  6
CONTINUOUS
 62
             7
100
AcDbCircle
 10
72.00008993170243
 20
22.70000000000005
 40
0.5
100
AcDbArc
 50
0.0
 51
90.0
  0
ARC
  5
130
100
AcDbEntity
  8
LC-009-002-RND-0
  6
CONTINUOUS
 62
             7
100
AcDbCircle
 10
72.00008993170243
 20
18.20000000000005
 40
0.5
100
AcDbArc
 50
0.0
 51
90.0
  0
ARC
  5
12F
100
AcDbEntity
  8
LC-009-002-RND-0
  6
CONTINUOUS
 62
             7
100
AcDbCircle
 10
72.00008993170243
 20
13.70000000000005
 40
0.5
100
AcDbArc
 50
0.0
 51
90.0
  0
ARC
  5
12E
100
AcDbEntity
  8
LC-009-002-RND-0
  6
CONTINUOUS
 62
             7
100
AcDbCircle
 10
72.00008993170243
 20
9.19999999999999
 40
0.5
100
AcDbArc
 50
0.0
 51
90.0
  0
ARC
  5
12D
100
AcDbEntity
  8
LC-003-002-----0
  6
CONTINUOUS
 62
             7
100
AcDbCircle
 10
72.00008993170243
 20
46.95000000000005
 40
1.25
100
AcDbArc
 50
90.0
 51
-90.0
  0
ARC
  5
12C
100
AcDbEntity
  8
LC-003-002-----0
  6
CONTINUOUS
 62
             7
100
AcDbCircle
 10
72.00008993170243
 20
42.45000000000005
 40
1.25
100
AcDbArc
 50
90.0
 51
-90.0
  0
ARC
  5
12B
100
AcDbEntity
  8
LC-003-002-----0
  6
CONTINUOUS
 62
             7
100
AcDbCircle
 10
72.00008993170243
 20
37.95000000000005
 40
1.25
100
AcDbArc
 50
90.0
 51
-90.0
  0
ARC
  5
12A
100
AcDbEntity
  8
LC-003-002-----0
  6
CONTINUOUS
 62
             7
100
AcDbCircle
 10
72.00008993170243
 20
33.45000000000005
 40
1.25
100
AcDbArc
 50
90.0
 51
-90.0
  0
ARC
  5
129
100
AcDbEntity
  8
LC-003-002-----0
  6
CONTINUOUS
 62
             7
100
AcDbCircle
 10
72.00008993170243
 20
28.95000000000005
 40
1.25
100
AcDbArc
 50
90.0
 51
-90.0
  0
ARC
  5
128
100
AcDbEntity
  8
LC-003-002-----0
  6
CONTINUOUS
 62
             7
100
AcDbCircle
 10
72.00008993170243
 20
24.45000000000005
 40
1.25
100
AcDbArc
 50
90.0
 51
-90.0
  0
ARC
  5
127
100
AcDbEntity
  8
LC-003-002-----0
  6
CONTINUOUS
 62
             7
100
AcDbCircle
 10
72.00008993170243
 20
19.95000000000005
 40
1.25
100
AcDbArc
 50
90.0
 51
-90.0
  0
ARC
  5
126
100
AcDbEntity
  8
LC-003-002-----0
  6
CONTINUOUS
 62
             7
100
AcDbCircle
 10
72.00008993170243
 20
15.45000000000005
 40
1.25
100
AcDbArc
 50
90.0
 51
-90.0
  0
ARC
  5
125
100
AcDbEntity
  8
LC-003-002-----0
  6
CONTINUOUS
 62
             7
100
AcDbCircle
 10
72.00008993170243
 20
10.94999999999999
 40
1.25000000000006
100
AcDbArc
 50
90.0
 51
-90.0
  0
ARC
  5
124
100
AcDbEntity
  8
LC-009-002-RND-0
  6
CONTINUOUS
 62
             7
100
AcDbCircle
 10
-71.99991006829755
 20
8.19999999999999
 40
0.5
100
AcDbArc
 50
180.0
 51
-90.0
  0
ARC
  5
123
100
AcDbEntity
  8
LC-009-002-RND-0
  6
CONTINUOUS
 62
             7
100
AcDbCircle
 10
-71.99991006829755
 20
17.20000000000005
 40
0.5
100
AcDbArc
 50
180.0
 51
-90.0
  0
ARC
  5
122
100
AcDbEntity
  8
LC-009-002-RND-0
  6
CONTINUOUS
 62
             7
100
AcDbCircle
 10
-71.99991006829755
 20
12.70000000000005
 40
0.5
100
AcDbArc
 50
180.0
 51
-90.0
  0
ARC
  5
121
100
AcDbEntity
  8
LC-009-002-RND-0
  6
CONTINUOUS
 62
             7
100
AcDbCircle
 10
-71.99991006829755
 20
21.70000000000005
 40
0.5
100
AcDbArc
 50
180.0
 51
-90.0
  0
ARC
  5
120
100
AcDbEntity
  8
LC-009-002-RND-0
  6
CONTINUOUS
 62
             7
100
AcDbCircle
 10
-71.99991006829755
 20
26.20000000000005
 40
0.5
100
AcDbArc
 50
180.0
 51
-90.0
  0
ARC
  5
11F
100
AcDbEntity
  8
LC-009-002-RND-0
  6
CONTINUOUS
 62
             7
100
AcDbCircle
 10
-71.99991006829755
 20
30.70000000000005
 40
0.5
100
AcDbArc
 50
180.0
 51
-90.0
  0
ARC
  5
11E
100
AcDbEntity
  8
LC-009-002-RND-0
  6
CONTINUOUS
 62
             7
100
AcDbCircle
 10
-71.99991006829755
 20
35.20000000000005
 40
0.5
100
AcDbArc
 50
180.0
 51
-90.0
  0
ARC
  5
11D
100
AcDbEntity
  8
LC-009-002-RND-0
  6
CONTINUOUS
 62
             7
100
AcDbCircle
 10
-71.99991006829755
 20
39.70000000000005
 40
0.5
100
AcDbArc
 50
180.0
 51
-90.0
  0
ARC
  5
11C
100
AcDbEntity
  8
LC-009-002-RND-0
  6
CONTINUOUS
 62
             7
100
AcDbCircle
 10
-71.99991006829755
 20
44.20000000000005
 40
0.5
100
AcDbArc
 50
180.0
 51
-90.0
  0
ARC
  5
11B
100
AcDbEntity
  8
LC-009-002-RND-0
  6
CONTINUOUS
 62
             7
100
AcDbCircle
 10
-71.99991006829755
 20
48.70000000000005
 40
0.5
100
AcDbArc
 50
180.0
 51
-90.0
  0
ARC
  5
11A
100
AcDbEntity
  8
LC-009-002-RND-0
  6
CONTINUOUS
 62
             7
100
AcDbCircle
 10
-71.99991006829755
 20
45.20000000000005
 40
0.5
100
AcDbArc
 50
90.0
 51
180.0
  0
ARC
  5
119
100
AcDbEntity
  8
LC-009-002-RND-0
  6
CONTINUOUS
 62
             7
100
AcDbCircle
 10
-71.99991006829755
 20
40.70000000000005
 40
0.5
100
AcDbArc
 50
90.0
 51
180.0
  0
ARC
  5
118
100
AcDbEntity
  8
LC-009-002-RND-0
  6
CONTINUOUS
 62
             7
100
AcDbCircle
 10
-71.99991006829755
 20
36.20000000000005
 40
0.5
100
AcDbArc
 50
90.0
 51
180.0
  0
ARC
  5
117
100
AcDbEntity
  8
LC-009-002-RND-0
  6
CONTINUOUS
 62
             7
100
AcDbCircle
 10
-71.99991006829755
 20
31.70000000000005
 40
0.5
100
AcDbArc
 50
90.0
 51
180.0
  0
ARC
  5
116
100
AcDbEntity
  8
LC-009-002-RND-0
  6
CONTINUOUS
 62
             7
100
AcDbCircle
 10
-71.99991006829755
 20
27.20000000000005
 40
0.5
100
AcDbArc
 50
90.0
 51
180.0
  0
ARC
  5
115
100
AcDbEntity
  8
LC-009-002-RND-0
  6
CONTINUOUS
 62
             7
100
AcDbCircle
 10
-71.99991006829755
 20
22.70000000000005
 40
0.5
100
AcDbArc
 50
90.0
 51
180.0
  0
ARC
  5
114
100
AcDbEntity
  8
LC-009-002-RND-0
  6
CONTINUOUS
 62
             7
100
AcDbCircle
 10
-71.99991006829755
 20
18.20000000000005
 40
0.5
100
AcDbArc
 50
90.0
 51
180.0
  0
ARC
  5
113
100
AcDbEntity
  8
LC-009-002-RND-0
  6
CONTINUOUS
 62
             7
100
AcDbCircle
 10
-71.99991006829755
 20
13.70000000000005
 40
0.5
100
AcDbArc
 50
90.0
 51
180.0
  0
ARC
  5
112
100
AcDbEntity
  8
LC-009-002-RND-0
  6
CONTINUOUS
 62
             7
100
AcDbCircle
 10
-71.99991006829755
 20
9.19999999999999
 40
0.5
100
AcDbArc
 50
90.0
 51
180.0
  0
ARC
  5
111
100
AcDbEntity
  8
LC-003-002-----0
  6
CONTINUOUS
 62
             7
100
AcDbCircle
 10
-71.99991006829755
 20
46.95000000000005
 40
1.25
100
AcDbArc
 50
-90.0
 51
90.0
  0
ARC
  5
110
100
AcDbEntity
  8
LC-003-002-----0
  6
CONTINUOUS
 62
             7
100
AcDbCircle
 10
-71.99991006829755
 20
42.45000000000005
 40
1.25
100
AcDbArc
 50
-90.0
 51
90.0
  0
ARC
  5
10F
100
AcDbEntity
  8
LC-003-002-----0
  6
CONTINUOUS
 62
             7
100
AcDbCircle
 10
-71.99991006829755
 20
37.95000000000005
 40
1.25
100
AcDbArc
 50
-90.0
 51
90.0
  0
ARC
  5
10E
100
AcDbEntity
  8
LC-003-002-----0
  6
CONTINUOUS
 62
             7
100
AcDbCircle
 10
-71.99991006829755
 20
33.45000000000005
 40
1.25
100
AcDbArc
 50
-90.0
 51
90.0
  0
ARC
  5
10D
100
AcDbEntity
  8
LC-003-002-----0
  6
CONTINUOUS
 62
             7
100
AcDbCircle
 10
-71.99991006829755
 20
28.95000000000005
 40
1.25
100
AcDbArc
 50
-90.0
 51
90.0
  0
ARC
  5
10C
100
AcDbEntity
  8
LC-003-002-----0
  6
CONTINUOUS
 62
             7
100
AcDbCircle
 10
-71.99991006829755
 20
24.45000000000005
 40
1.25
100
AcDbArc
 50
-90.0
 51
90.0
  0
ARC
  5
10B
100
AcDbEntity
  8
LC-003-002-----0
  6
CONTINUOUS
 62
             7
100
AcDbCircle
 10
-71.99991006829755
 20
19.95000000000005
 40
1.25
100
AcDbArc
 50
-90.0
 51
90.0
  0
ARC
  5
10A
100
AcDbEntity
  8
LC-003-002-----0
  6
CONTINUOUS
 62
             7
100
AcDbCircle
 10
-71.99991006829755
 20
15.45000000000005
 40
1.25
100
AcDbArc
 50
-90.0
 51
90.0
  0
ARC
  5
109
100
AcDbEntity
  8
LC-003-002-----0
  6
CONTINUOUS
 62
             7
100
AcDbCircle
 10
-71.99991006829755
 20
10.94999999999999
 40
1.25
100
AcDbArc
 50
-90.0
 51
90.0
  0
ARC
  5
108
100
AcDbEntity
  8
LC-009-002-RND-0
  6
CONTINUOUS
 62
             7
100
AcDbCircle
 10
-71.99991006829755
 20
4.69999999999999
 40
0.5
100
AcDbArc
 50
90.0
 51
180.0
  0
ARC
  5
107
100
AcDbEntity
  8
LC-003-002-----0
  6
CONTINUOUS
 62
             7
100
AcDbCircle
 10
-71.99991006829755
 20
6.44999999999999
 40
1.25
100
AcDbArc
 50
-90.0
 51
90.0
  0
ARC
  5
106
100
AcDbEntity
  8
LC-009-002-RND-0
  6
CONTINUOUS
 62
             7
100
AcDbCircle
 10
72.00008993170243
 20
4.69999999999999
 40
0.5
100
AcDbArc
 50
0.0
 51
90.0
  0
ARC
  5
105
100
AcDbEntity
  8
LC-003-002-----0
  6
CONTINUOUS
 62
             7
100
AcDbCircle
 10
72.00008993170243
 20
6.44999999999999
 40
1.25
100
AcDbArc
 50
90.0
 51
-90.0
  0
LINE
  5
104
100
AcDbEntity
  8
1
  6
CONTINUOUS
 62
             7
100
AcDbLine
 10
-63.49991006829755
 20
53.20000000000005
 11
-63.49991006829755
 21
55.70000000000005
  0
LINE
  5
103
100
AcDbEntity
  8
1
  6
CONTINUOUS
 62
             7
100
AcDbLine
 10
-63.49991006829755
 20
51.20000000000005
 11
-63.49991006829755
 21
53.20000000000005
  0
LINE
  5
102
100
AcDbEntity
  8
1
  6
CONTINUOUS
 62
             7
100
AcDbLine
 10
-63.49991006829755
 20
55.70000000000005
 11
-34.99991006829756
 21
51.20000000000005
  0
LINE
  5
101
100
AcDbEntity
  8
1
  6
CONTINUOUS
 62
             7
100
AcDbLine
 10
63.50008993170244
 20
53.20000000000005
 11
63.50008993170244
 21
51.20000000000005
  0
LINE
  5
100
100
AcDbEntity
  8
1
  6
CONTINUOUS
 62
             7
100
AcDbLine
 10
72.50008993170243
 20
53.20000000000005
 11
63.50008993170244
 21
53.20000000000005
  0
LINE
  5
FF
100
AcDbEntity
  8
1
  6
CONTINUOUS
 62
             7
100
AcDbLine
 10
63.50008993170244
 20
51.20000000000005
 11
72.50008993170243
 21
51.20000000000005
  0
LINE
  5
FE
100
AcDbEntity
  8
1
  6
CONTINUOUS
 62
             7
100
AcDbLine
 10
63.50008993170244
 20
55.70000000000005
 11
63.50008993170244
 21
53.20000000000005
  0
LINE
  5
FD
100
AcDbEntity
  8
1
  6
CONTINUOUS
 62
             7
100
AcDbLine
 10
63.50008993170244
 20
55.70000000000005
 11
72.50008993170243
 21
55.70000000000005
  0
LINE
  5
FC
100
AcDbEntity
  8
1
  6
CONTINUOUS
 62
             7
100
AcDbLine
 10
35.00008993170244
 20
51.20000000000005
 11
63.50008993170244
 21
55.70000000000005
  0
LINE
  5
FB
100
AcDbEntity
  8
1
  6
CONTINUOUS
 62
             7
100
AcDbLine
 10
35.00008993170244
 20
51.20000000000005
 11
63.50008993170244
 21
51.20000000000005
  0
LINE
  5
FA
100
AcDbEntity
  8
1
  6
CONTINUOUS
 62
             7
100
AcDbLine
 10
35.00008993170244
 20
51.20000000000005
 11
35.00008993170244
 21
53.20000000000005
  0
LINE
  5
F9
100
AcDbEntity
  8
1
  6
CONTINUOUS
 62
             7
100
AcDbLine
 10
-34.99991006829756
 20
53.20000000000005
 11
35.00008993170244
 21
53.20000000000005
  0
LINE
  5
F8
100
AcDbEntity
  8
1
  6
CONTINUOUS
 62
             7
100
AcDbLine
 10
-34.99991006829756
 20
51.20000000000005
 11
35.00008993170244
 21
51.20000000000005
  0
LINE
  5
F7
100
AcDbEntity
  8
1
  6
CONTINUOUS
 62
             7
100
AcDbLine
 10
-34.99991006829756
 20
53.20000000000005
 11
-34.99991006829756
 21
51.20000000000005
  0
LINE
  5
F6
100
AcDbEntity
  8
LC-003-002-----0
  6
CONTINUOUS
 62
             7
100
AcDbLine
 10
72.50008993170243
 20
55.70000000000005
 11
72.50008993170243
 21
53.20000000000005
  0
LINE
  5
F5
100
AcDbEntity
  8
LC-003-002-----0
  6
CONTINUOUS
 62
             7
100
AcDbLine
 10
72.50008993170243
 20
45.20000000000005
 11
72.50008993170243
 21
44.20000000000005
  0
LINE
  5
F4
100
AcDbEntity
  8
LC-003-002-----0
  6
CONTINUOUS
 62
             7
100
AcDbLine
 10
72.50008993170243
 20
40.70000000000005
 11
72.50008993170243
 21
39.70000000000005
  0
LINE
  5
F3
100
AcDbEntity
  8
LC-003-002-----0
  6
CONTINUOUS
 62
             7
100
AcDbLine
 10
72.50008993170243
 20
36.20000000000005
 11
72.50008993170243
 21
35.20000000000005
  0
LINE
  5
F2
100
AcDbEntity
  8
LC-003-002-----0
  6
CONTINUOUS
 62
             7
100
AcDbLine
 10
72.50008993170243
 20
31.70000000000005
 11
72.50008993170243
 21
30.70000000000005
  0
LINE
  5
F1
100
AcDbEntity
  8
LC-003-002-----0
  6
CONTINUOUS
 62
             7
100
AcDbLine
 10
72.50008993170243
 20
27.20000000000005
 11
72.50008993170243
 21
26.20000000000005
  0
LINE
  5
F0
100
AcDbEntity
  8
LC-003-002-----0
  6
CONTINUOUS
 62
             7
100
AcDbLine
 10
72.50008993170243
 20
22.70000000000005
 11
72.50008993170243
 21
21.70000000000005
  0
LINE
  5
EF
100
AcDbEntity
  8
LC-003-002-----0
  6
CONTINUOUS
 62
             7
100
AcDbLine
 10
72.50008993170243
 20
18.20000000000005
 11
72.50008993170243
 21
17.20000000000005
  0
LINE
  5
EE
100
AcDbEntity
  8
LC-003-002-----0
  6
CONTINUOUS
 62
             7
100
AcDbLine
 10
72.50008993170243
 20
13.70000000000005
 11
72.50008993170243
 21
12.70000000000005
  0
LINE
  5
ED
100
AcDbEntity
  8
LC-003-002-----0
  6
CONTINUOUS
 62
             7
100
AcDbLine
 10
72.50008993170243
 20
9.19999999999999
 11
72.50008993170243
 21
8.19999999999999
  0
LINE
  5
EC
100
AcDbEntity
  8
LC-003-002-----0
  6
CONTINUOUS
 62
             7
100
AcDbLine
 10
72.00008993170243
 20
45.70000000000005
 11
72.00008993170243
 21
45.70000000000005
  0
LINE
  5
EB
100
AcDbEntity
  8
LC-003-002-----0
  6
CONTINUOUS
 62
             7
100
AcDbLine
 10
72.00008993170243
 20
41.20000000000005
 11
72.00008993170243
 21
41.20000000000005
  0
LINE
  5
EA
100
AcDbEntity
  8
LC-003-002-----0
  6
CONTINUOUS
 62
             7
100
AcDbLine
 10
72.00008993170243
 20
36.70000000000005
 11
72.00008993170243
 21
36.70000000000005
  0
LINE
  5
E9
100
AcDbEntity
  8
LC-003-002-----0
  6
CONTINUOUS
 62
             7
100
AcDbLine
 10
72.00008993170243
 20
32.20000000000005
 11
72.00008993170243
 21
32.20000000000005
  0
LINE
  5
E8
100
AcDbEntity
  8
LC-003-002-----0
  6
CONTINUOUS
 62
             7
100
AcDbLine
 10
72.00008993170243
 20
27.70000000000005
 11
72.00008993170243
 21
27.70000000000005
  0
LINE
  5
E7
100
AcDbEntity
  8
LC-003-002-----0
  6
CONTINUOUS
 62
             7
100
AcDbLine
 10
72.00008993170243
 20
23.20000000000005
 11
72.00008993170243
 21
23.20000000000005
  0
LINE
  5
E6
100
AcDbEntity
  8
LC-003-002-----0
  6
CONTINUOUS
 62
             7
100
AcDbLine
 10
72.00008993170243
 20
18.70000000000005
 11
72.00008993170243
 21
18.70000000000005
  0
LINE
  5
E5
100
AcDbEntity
  8
LC-003-002-----0
  6
CONTINUOUS
 62
             7
100
AcDbLine
 10
72.00008993170243
 20
14.20000000000005
 11
72.00008993170243
 21
14.20000000000005
  0
LINE
  5
E4
100
AcDbEntity
  8
LC-003-002-----0
  6
CONTINUOUS
 62
             7
100
AcDbLine
 10
72.00008993170243
 20
9.69999999999999
 11
72.00008993170243
 21
9.69999999999999
  0
LINE
  5
E3
100
AcDbEntity
  8
LC-003-002-----0
  6
CONTINUOUS
 62
             7
100
AcDbLine
 10
72.00008993170243
 20
48.20000000000005
 11
72.00008993170243
 21
48.20000000000005
  0
LINE
  5
E2
100
AcDbEntity
  8
LC-003-002-----0
  6
CONTINUOUS
 62
             7
100
AcDbLine
 10
72.00008993170243
 20
43.70000000000005
 11
72.00008993170243
 21
43.70000000000005
  0
LINE
  5
E1
100
AcDbEntity
  8
LC-003-002-----0
  6
CONTINUOUS
 62
             7
100
AcDbLine
 10
72.00008993170243
 20
39.20000000000005
 11
72.00008993170243
 21
39.20000000000005
  0
LINE
  5
E0
100
AcDbEntity
  8
LC-003-002-----0
  6
CONTINUOUS
 62
             7
100
AcDbLine
 10
72.00008993170243
 20
34.70000000000005
 11
72.00008993170243
 21
34.70000000000005
  0
LINE
  5
DF
100
AcDbEntity
  8
LC-003-002-----0
  6
CONTINUOUS
 62
             7
100
AcDbLine
 10
72.00008993170243
 20
30.20000000000005
 11
72.00008993170243
 21
30.20000000000005
  0
LINE
  5
DE
100
AcDbEntity
  8
LC-003-002-----0
  6
CONTINUOUS
 62
             7
100
AcDbLine
 10
72.00008993170243
 20
25.70000000000005
 11
72.00008993170243
 21
25.70000000000005
  0
LINE
  5
DD
100
AcDbEntity
  8
LC-003-002-----0
  6
CONTINUOUS
 62
             7
100
AcDbLine
 10
72.00008993170243
 20
21.20000000000005
 11
72.00008993170243
 21
21.20000000000005
  0
LINE
  5
DC
100
AcDbEntity
  8
LC-003-002-----0
  6
CONTINUOUS
 62
             7
100
AcDbLine
 10
72.00008993170243
 20
16.70000000000005
 11
72.00008993170243
 21
16.70000000000005
  0
LINE
  5
DB
100
AcDbEntity
  8
LC-003-002-----0
  6
CONTINUOUS
 62
             7
100
AcDbLine
 10
72.00008993170243
 20
12.20000000000005
 11
72.00008993170243
 21
12.20000000000005
  0
LINE
  5
DA
100
AcDbEntity
  8
LC-003-002-----0
  6
CONTINUOUS
 62
             7
100
AcDbLine
 10
72.00008993170243
 20
7.69999999999999
 11
72.00008993170243
 21
7.69999999999999
  0
LINE
  5
D9
100
AcDbEntity
  8
LC-003-002-----0
  6
CONTINUOUS
 62
             7
100
AcDbLine
 10
72.50008993170243
 20
51.20000000000005
 11
72.50008993170243
 21
48.70000000000005
  0
LINE
  5
D8
100
AcDbEntity
  8
LC-003-002-----0
  6
CONTINUOUS
 62
             7
100
AcDbLine
 10
73.00008993170243
 20
53.20000000000005
 11
73.00008993170243
 21
51.20000000000005
  0
LINE
  5
D7
100
AcDbEntity
  8
LC-003-002-----0
  6
CONTINUOUS
 62
             7
100
AcDbLine
 10
73.00008993170243
 20
51.20000000000005
 11
72.50008993170243
 21
51.20000000000005
  0
LINE
  5
D6
100
AcDbEntity
  8
LC-003-002-----0
  6
CONTINUOUS
 62
             7
100
AcDbLine
 10
72.50008993170243
 20
55.70000000000005
 11
73.50008993170243
 21
55.70000000000005
  0
LINE
  5
D5
100
AcDbEntity
  8
LC-003-002-----0
  6
CONTINUOUS
 62
             7
100
AcDbLine
 10
73.00008993170243
 20
53.20000000000005
 11
72.50008993170243
 21
53.20000000000005
  0
LINE
  5
D4
100
AcDbEntity
  8
LC-003-002-----0
  6
CONTINUOUS
 62
             7
100
AcDbLine
 10
73.50008993170243
 20
69.70000000000005
 11
73.50008993170243
 21
55.70000000000005
  0
LINE
  5
D3
100
AcDbEntity
  8
LC-003-002-----0
  6
CONTINUOUS
 62
             7
100
AcDbLine
 10
73.50008993170243
 20
69.70000000000005
 11
-73.49991006829755
 21
69.70000000000005
  0
LINE
  5
D2
100
AcDbEntity
  8
LC-003-002-----0
  6
CONTINUOUS
 62
             7
100
AcDbLine
 10
-72.49991006829755
 20
55.70000000000005
 11
-72.49991006829755
 21
53.20000000000005
  0
LINE
  5
D1
100
AcDbEntity
  8
LC-003-002-----0
  6
CONTINUOUS
 62
             7
100
AcDbLine
 10
-72.49991006829755
 20
45.20000000000005
 11
-72.49991006829755
 21
44.20000000000005
  0
LINE
  5
D0
100
AcDbEntity
  8
LC-003-002-----0
  6
CONTINUOUS
 62
             7
100
AcDbLine
 10
-72.49991006829755
 20
40.70000000000005
 11
-72.49991006829755
 21
39.70000000000005
  0
LINE
  5
CF
100
AcDbEntity
  8
LC-003-002-----0
  6
CONTINUOUS
 62
             7
100
AcDbLine
 10
-72.49991006829755
 20
36.20000000000005
 11
-72.49991006829755
 21
35.20000000000005
  0
LINE
  5
CE
100
AcDbEntity
  8
LC-003-002-----0
  6
CONTINUOUS
 62
             7
100
AcDbLine
 10
-72.49991006829755
 20
31.70000000000005
 11
-72.49991006829755
 21
30.70000000000005
  0
LINE
  5
CD
100
AcDbEntity
  8
LC-003-002-----0
  6
CONTINUOUS
 62
             7
100
AcDbLine
 10
-72.49991006829755
 20
27.20000000000005
 11
-72.49991006829755
 21
26.20000000000005
  0
LINE
  5
CC
100
AcDbEntity
  8
LC-003-002-----0
  6
CONTINUOUS
 62
             7
100
AcDbLine
 10
-72.49991006829755
 20
22.70000000000005
 11
-72.49991006829755
 21
21.70000000000005
  0
LINE
  5
CB
100
AcDbEntity
  8
LC-003-002-----0
  6
CONTINUOUS
 62
             7
100
AcDbLine
 10
-72.49991006829755
 20
18.20000000000005
 11
-72.49991006829755
 21
17.20000000000005
  0
LINE
  5
CA
100
AcDbEntity
  8
LC-003-002-----0
  6
CONTINUOUS
 62
             7
100
AcDbLine
 10
-72.49991006829755
 20
13.70000000000005
 11
-72.49991006829755
 21
12.70000000000005
  0
LINE
  5
C9
100
AcDbEntity
  8
LC-003-002-----0
  6
CONTINUOUS
 62
             7
100
AcDbLine
 10
-72.49991006829755
 20
9.19999999999999
 11
-72.49991006829755
 21
8.19999999999999
  0
LINE
  5
C8
100
AcDbEntity
  8
LC-003-002-----0
  6
CONTINUOUS
 62
             7
100
AcDbLine
 10
-71.99991006829755
 20
45.70000000000005
 11
-71.99991006829755
 21
45.70000000000005
  0
LINE
  5
C7
100
AcDbEntity
  8
LC-003-002-----0
  6
CONTINUOUS
 62
             7
100
AcDbLine
 10
-71.99991006829755
 20
41.20000000000005
 11
-71.99991006829755
 21
41.20000000000005
  0
LINE
  5
C6
100
AcDbEntity
  8
LC-003-002-----0
  6
CONTINUOUS
 62
             7
100
AcDbLine
 10
-71.99991006829755
 20
36.70000000000005
 11
-71.99991006829755
 21
36.70000000000005
  0
LINE
  5
C5
100
AcDbEntity
  8
LC-003-002-----0
  6
CONTINUOUS
 62
             7
100
AcDbLine
 10
-71.99991006829755
 20
32.20000000000005
 11
-71.99991006829755
 21
32.20000000000005
  0
LINE
  5
C4
100
AcDbEntity
  8
LC-003-002-----0
  6
CONTINUOUS
 62
             7
100
AcDbLine
 10
-71.99991006829755
 20
27.70000000000005
 11
-71.99991006829755
 21
27.70000000000005
  0
LINE
  5
C3
100
AcDbEntity
  8
LC-003-002-----0
  6
CONTINUOUS
 62
             7
100
AcDbLine
 10
-71.99991006829755
 20
23.20000000000005
 11
-71.99991006829755
 21
23.20000000000005
  0
LINE
  5
C2
100
AcDbEntity
  8
LC-003-002-----0
  6
CONTINUOUS
 62
             7
100
AcDbLine
 10
-71.99991006829755
 20
18.70000000000005
 11
-71.99991006829755
 21
18.70000000000005
  0
LINE
  5
C1
100
AcDbEntity
  8
LC-003-002-----0
  6
CONTINUOUS
 62
             7
100
AcDbLine
 10
-71.99991006829755
 20
14.20000000000005
 11
-71.99991006829755
 21
14.20000000000005
  0
LINE
  5
C0
100
AcDbEntity
  8
LC-003-002-----0
  6
CONTINUOUS
 62
             7
100
AcDbLine
 10
-71.99991006829755
 20
9.69999999999999
 11
-71.99991006829755
 21
9.69999999999999
  0
LINE
  5
BF
100
AcDbEntity
  8
LC-003-002-----0
  6
CONTINUOUS
 62
             7
100
AcDbLine
 10
-71.99991006829755
 20
48.20000000000005
 11
-71.99991006829755
 21
48.20000000000005
  0
LINE
  5
BE
100
AcDbEntity
  8
LC-003-002-----0
  6
CONTINUOUS
 62
             7
100
AcDbLine
 10
-71.99991006829755
 20
43.70000000000005
 11
-71.99991006829755
 21
43.70000000000005
  0
LINE
  5
BD
100
AcDbEntity
  8
LC-003-002-----0
  6
CONTINUOUS
 62
             7
100
AcDbLine
 10
-71.99991006829755
 20
39.20000000000005
 11
-71.99991006829755
 21
39.20000000000005
  0
LINE
  5
BC
100
AcDbEntity
  8
LC-003-002-----0
  6
CONTINUOUS
 62
             7
100
AcDbLine
 10
-71.99991006829755
 20
34.70000000000005
 11
-71.99991006829755
 21
34.70000000000005
  0
LINE
  5
BB
100
AcDbEntity
  8
LC-003-002-----0
  6
CONTINUOUS
 62
             7
100
AcDbLine
 10
-71.99991006829755
 20
30.20000000000005
 11
-71.99991006829755
 21
30.20000000000005
  0
LINE
  5
BA
100
AcDbEntity
  8
LC-003-002-----0
  6
CONTINUOUS
 62
             7
100
AcDbLine
 10
-71.99991006829755
 20
25.70000000000005
 11
-71.99991006829755
 21
25.70000000000005
  0
LINE
  5
B9
100
AcDbEntity
  8
LC-003-002-----0
  6
CONTINUOUS
 62
             7
100
AcDbLine
 10
-71.99991006829755
 20
21.20000000000005
 11
-71.99991006829755
 21
21.20000000000005
  0
LINE
  5
B8
100
AcDbEntity
  8
LC-003-002-----0
  6
CONTINUOUS
 62
             7
100
AcDbLine
 10
-71.99991006829755
 20
16.70000000000005
 11
-71.99991006829755
 21
16.70000000000005
  0
LINE
  5
B7
100
AcDbEntity
  8
LC-003-002-----0
  6
CONTINUOUS
 62
             7
100
AcDbLine
 10
-71.99991006829755
 20
12.20000000000005
 11
-71.99991006829755
 21
12.20000000000005
  0
LINE
  5
B6
100
AcDbEntity
  8
LC-003-002-----0
  6
CONTINUOUS
 62
             7
100
AcDbLine
 10
-71.99991006829755
 20
7.69999999999999
 11
-71.99991006829755
 21
7.69999999999999
  0
LINE
  5
B5
100
AcDbEntity
  8
LC-003-002-----0
  6
CONTINUOUS
 62
             7
100
AcDbLine
 10
-72.49991006829755
 20
51.20000000000005
 11
-72.49991006829755
 21
48.70000000000005
  0
LINE
  5
B4
100
AcDbEntity
  8
LC-003-002-----0
  6
CONTINUOUS
 62
             7
100
AcDbLine
 10
-72.99991006829755
 20
53.20000000000005
 11
-72.99991006829755
 21
51.20000000000005
  0
LINE
  5
B3
100
AcDbEntity
  8
LC-003-002-----0
  6
CONTINUOUS
 62
             7
100
AcDbLine
 10
-72.99991006829755
 20
51.20000000000005
 11
-72.49991006829755
 21
51.20000000000005
  0
LINE
  5
B2
100
AcDbEntity
  8
LC-003-002-----0
  6
CONTINUOUS
 62
             7
100
AcDbLine
 10
-72.49991006829755
 20
55.70000000000005
 11
-73.49991006829755
 21
55.70000000000005
  0
LINE
  5
B1
100
AcDbEntity
  8
LC-003-002-----0
  6
CONTINUOUS
 62
             7
100
AcDbLine
 10
-72.99991006829755
 20
53.20000000000005
 11
-72.49991006829755
 21
53.20000000000005
  0
LINE
  5
B0
100
AcDbEntity
  8
LC-003-002-----0
  6
CONTINUOUS
 62
             7
100
AcDbLine
 10
-73.49991006829755
 20
69.70000000000005
 11
-73.49991006829755
 21
55.70000000000005
  0
LINE
  5
AF
100
AcDbEntity
  8
1
  6
CONTINUOUS
 62
             7
100
AcDbLine
 10
-72.49991006829755
 20
55.70000000000005
 11
63.50008993170244
 21
55.70000000000005
  0
LINE
  5
AE
100
AcDbEntity
  8
1
  6
CONTINUOUS
 62
             7
100
AcDbLine
 10
-72.49991006829755
 20
53.20000000000005
 11
-63.49991006829755
 21
53.20000000000005
  0
LINE
  5
AD
100
AcDbEntity
  8
1
  6
CONTINUOUS
 62
             7
100
AcDbLine
 10
-72.49991006829755
 20
51.20000000000005
 11
-34.99991006829756
 21
51.20000000000005
  0
LINE
  5
AC
100
AcDbEntity
  8
1
  6
CONTINUOUS
 62
             7
100
AcDbLine
 10
72.00008993170243
 20
48.20000000000005
 11
-71.99991006829755
 21
48.20000000000005
  0
LINE
  5
AB
100
AcDbEntity
  8
1
  6
CONTINUOUS
 62
             7
100
AcDbLine
 10
-71.99991006829755
 20
45.70000000000005
 11
72.00008993170243
 21
45.70000000000005
  0
LINE
  5
AA
100
AcDbEntity
  8
1
  6
CONTINUOUS
 62
             7
100
AcDbLine
 10
-71.99991006829755
 20
43.70000000000005
 11
72.00008993170243
 21
43.70000000000005
  0
LINE
  5
A9
100
AcDbEntity
  8
1
  6
CONTINUOUS
 62
             7
100
AcDbLine
 10
-71.99991006829755
 20
41.20000000000005
 11
72.00008993170243
 21
41.20000000000005
  0
LINE
  5
A8
100
AcDbEntity
  8
1
  6
CONTINUOUS
 62
             7
100
AcDbLine
 10
-71.99991006829755
 20
39.20000000000005
 11
72.00008993170243
 21
39.20000000000005
  0
LINE
  5
A7
100
AcDbEntity
  8
1
  6
CONTINUOUS
 62
             7
100
AcDbLine
 10
-71.99991006829755
 20
36.70000000000005
 11
72.00008993170243
 21
36.70000000000005
  0
LINE
  5
A6
100
AcDbEntity
  8
1
  6
CONTINUOUS
 62
             7
100
AcDbLine
 10
-71.99991006829755
 20
34.70000000000005
 11
72.00008993170243
 21
34.70000000000005
  0
LINE
  5
A5
100
AcDbEntity
  8
1
  6
CONTINUOUS
 62
             7
100
AcDbLine
 10
-71.99991006829755
 20
32.20000000000005
 11
72.00008993170243
 21
32.20000000000005
  0
LINE
  5
A4
100
AcDbEntity
  8
1
  6
CONTINUOUS
 62
             7
100
AcDbLine
 10
-71.99991006829755
 20
30.20000000000005
 11
72.00008993170243
 21
30.20000000000005
  0
LINE
  5
A3
100
AcDbEntity
  8
1
  6
CONTINUOUS
 62
             7
100
AcDbLine
 10
-71.99991006829755
 20
27.70000000000005
 11
72.00008993170243
 21
27.70000000000005
  0
LINE
  5
A2
100
AcDbEntity
  8
1
  6
CONTINUOUS
 62
             7
100
AcDbLine
 10
-71.99991006829755
 20
25.70000000000005
 11
72.00008993170243
 21
25.70000000000005
  0
LINE
  5
A1
100
AcDbEntity
  8
1
  6
CONTINUOUS
 62
             7
100
AcDbLine
 10
-71.99991006829755
 20
23.20000000000005
 11
72.00008993170243
 21
23.20000000000005
  0
LINE
  5
A0
100
AcDbEntity
  8
1
  6
CONTINUOUS
 62
             7
100
AcDbLine
 10
-71.99991006829755
 20
21.20000000000005
 11
72.00008993170243
 21
21.20000000000005
  0
LINE
  5
9F
100
AcDbEntity
  8
1
  6
CONTINUOUS
 62
             7
100
AcDbLine
 10
-71.99991006829755
 20
18.70000000000005
 11
72.00008993170243
 21
18.70000000000005
  0
LINE
  5
9E
100
AcDbEntity
  8
1
  6
CONTINUOUS
 62
             7
100
AcDbLine
 10
-71.99991006829755
 20
16.70000000000005
 11
72.00008993170243
 21
16.70000000000005
  0
LINE
  5
9D
100
AcDbEntity
  8
1
  6
CONTINUOUS
 62
             7
100
AcDbLine
 10
-71.99991006829755
 20
14.20000000000005
 11
72.00008993170243
 21
14.20000000000005
  0
LINE
  5
9C
100
AcDbEntity
  8
1
  6
CONTINUOUS
 62
             7
100
AcDbLine
 10
-71.99991006829755
 20
12.20000000000005
 11
72.00008993170243
 21
12.20000000000005
  0
LINE
  5
9B
100
AcDbEntity
  8
1
  6
CONTINUOUS
 62
             7
100
AcDbLine
 10
-71.99991006829755
 20
9.69999999999999
 11
72.00008993170243
 21
9.69999999999999
  0
LINE
  5
9A
100
AcDbEntity
  8
1
  6
CONTINUOUS
 62
             7
100
AcDbLine
 10
-71.99991006829755
 20
7.69999999999999
 11
72.00008993170243
 21
7.69999999999999
  0
LINE
  5
99
100
AcDbEntity
  8
LC-003-002-----0
  6
CONTINUOUS
 62
             7
100
AcDbLine
 10
-71.99991006829755
 20
5.19999999999999
 11
-71.99991006829755
 21
5.19999999999999
  0
LINE
  5
98
100
AcDbEntity
  8
LC-003-002-----0
  6
CONTINUOUS
 62
             7
100
AcDbLine
 10
72.00008993170243
 20
5.19999999999999
 11
72.00008993170243
 21
5.19999999999999
  0
LINE
  5
97
100
AcDbEntity
  8
1
  6
CONTINUOUS
 62
             7
100
AcDbLine
 10
-71.99991006829755
 20
5.19999999999999
 11
72.00008993170243
 21
5.19999999999999
  0
LINE
  5
96
100
AcDbEntity
  8
1
  6
PHANTOM
 62
             2
100
AcDbLine
 10
0.00008993170243
 20
72.35862692968414
 11
0.00008993170243
 21
-23.53482445343974
  0
POINT
  5
95
100
AcDbEntity
  8
0
 62
             7
100
AcDbPoint
 10
73.50008993170243
 20
69.70000000000005
  0
POINT
  5
94
100
AcDbEntity
  8
0
 62
             7
100
AcDbPoint
 10
73.50008993170243
 20
69.70000000000005
  0
POINT
  5
93
100
AcDbEntity
  8
0
 62
             7
100
AcDbPoint
 10
-73.49991006829755
 20
69.70000000000005
  0
ENDBLK
  5
141
100
AcDbEntity
  8
0
100
AcDbBlockEnd
  0
BLOCK
  5
34
100
AcDbEntity
  8
0
100
AcDbBlockBegin
  2
HL_66_0_AUFSATZRAHMEN
 70
             0
 10
-3.92514290157587
 20
-1307.9304405303701
 30
0.0
  3
HL_66_0_AUFSATZRAHMEN
  1

  0
INSERT
  5
35
100
AcDbEntity
  8
1
100
AcDbBlockReference
  2
062B_2E_AUFSATZRAHMEN
 10
-69.62906273015423
 20
-1383.377514897322
  0
ENDBLK
  5
142
100
AcDbEntity
  8
0
100
AcDbBlockEnd
  0
BLOCK
  5
145
100
AcDbEntity
  8
0
100
AcDbBlockBegin
  2
*D3
 70
             1
 10
0.0
 20
0.0
 30
0.0
  3
*D3
  1

  0
LINE
  5
146
100
AcDbEntity
  8
0
  6
CONTINUOUS
 62
             4
100
AcDbLine
 10
-160.75165899999999
 20
-107.0266037984278
 11
-160.75165899999999
 21
-3.00045699999999
  0
LINE
  5
147
100
AcDbEntity
  8
0
  6
CONTINUOUS
 62
             4
100
AcDbLine
 10
-150.75165899999999
 20
-3.00045699999999
 11
-162.75165899999999
 21
-3.00045699999999
  0
LINE
  5
148
100
AcDbEntity
  8
0
  6
CONTINUOUS
 62
             4
100
AcDbLine
 10
-72.24985639872348
 20
-107.0266037984278
 11
-162.75165899999999
 21
-107.0266037984278
  0
SOLID
  5
149
100
AcDbEntity
  8
0
 62
             4
100
AcDbTrace
 10
-162.06818397587395
 20
-97.0266037984278
 11
-159.43513402412603
 21
-97.0266037984278
 12
-160.75165899999999
 22
-107.0266037984278
 13
-160.75165899999999
 23
-107.0266037984278
  0
SOLID
  5
14A
100
AcDbEntity
  8
0
 62
             4
100
AcDbTrace
 10
-159.43513402412603
 20
-13.00045699999999
 11
-162.06818397587395
 21
-13.00045699999999
 12
-160.75165899999999
 22
-3.00045699999999
 13
-160.75165899999999
 23
-3.00045699999999
  0
MTEXT
  5
14C
100
AcDbEntity
  8
0
 62
             1
100
AcDbMText
 10
-162.75165899999999
 20
-66.2883860010749
 30
0.0
 40
10.0
 41
0.0
 71
             7
 72
             1
  1
103
  7
CONVERTER_1
 11
0.0
 21
1.0
 31
0.0
  0
ENDBLK
  5
14D
100
AcDbEntity
  8
0
100
AcDbBlockEnd
  0
BLOCK
  5
151
100
AcDbEntity
  8
0
100
AcDbBlockBegin
  2
*D4
 70
             1
 10
0.0
 20
0.0
 30
0.0
  3
*D4
  1

  0
LINE
  5
152
100
AcDbEntity
  8
0
  6
CONTINUOUS
 62
             4
100
AcDbLine
 10
-94.77100015462479
 20
-231.62424693647739
 11
94.7717708450183
 21
-231.62398687371459
  0
LINE
  5
153
100
AcDbEntity
  8
0
  6
CONTINUOUS
 62
             4
100
AcDbLine
 10
-94.77130099999999
 20
-12.35769200000001
 11
-94.77099741051842
 21
-233.62424693647552
  0
LINE
  5
154
100
AcDbEntity
  8
0
  6
CONTINUOUS
 62
             4
100
AcDbLine
 10
94.77146999999991
 20
-12.35769200000001
 11
94.77177358912466
 21
-233.62398687371271
  0
SOLID
  5
155
100
AcDbEntity
  8
0
 62
             4
100
AcDbTrace
 10
-84.77100196097649
 20
-230.30770824007277
 11
-84.77099834829191
 21
-232.94075819181819
 12
-94.77100015462479
 22
-231.62424693647739
 13
-94.77100015462479
 23
-231.62424693647739
  0
SOLID
  5
156
100
AcDbEntity
  8
0
 62
             4
100
AcDbTrace
 10
84.77177265137
 20
-232.94052557011921
 11
84.77176903868542
 21
-230.30747561837379
 12
94.7717708450183
 22
-231.62398687371459
 13
94.7717708450183
 23
-231.62398687371459
  0
MTEXT
  5
157
100
AcDbEntity
  8
0
 62
             1
100
AcDbMText
 10
-14.34253362614786
 20
-229.62414521086657
 30
0.0
 40
10.0
 41
0.0
 71
             7
 72
             1
  1
\C1;Ø\C1;190
  7
CONVERTER_1
 11
0.99999999999706
 21
0.00000242406841
 31
0.0
  0
ENDBLK
  5
158
100
AcDbEntity
  8
0
100
AcDbBlockEnd
  0
BLOCK
  5
15C
100
AcDbEntity
  8
0
100
AcDbBlockBegin
  2
*D5
 70
             1
 10
0.0
 20
0.0
 30
0.0
  3
*D5
  1

  0
LINE
  5
15D
100
AcDbEntity
  8
0
  6
CONTINUOUS
 62
             4
100
AcDbLine
 10
-249.7972005418535
 20
113.69129498378443
 11
249.79699045720599
 21
113.69198045358577
  0
LINE
  5
15E
100
AcDbEntity
  8
0
  6
CONTINUOUS
 62
             4
100
AcDbLine
 10
-249.79705100000001
 20
4.69999999999999
 11
-249.7972032859598
 21
115.69129498378256
  0
LINE
  5
15F
100
AcDbEntity
  8
0
  6
CONTINUOUS
 62
             4
100
AcDbLine
 10
249.7971399999999
 20
4.69999999999999
 11
249.79698771309958
 21
115.69198045358389
  0
SOLID
  5
160
100
AcDbEntity
  8
0
 62
             4
100
AcDbTrace
 10
-239.79720234820522
 20
115.00783368018907
 11
-239.79719873552062
 21
112.37478372844362
 12
-249.7972005418535
 22
113.69129498378443
 13
-249.7972005418535
 23
113.69129498378443
  0
SOLID
  5
161
100
AcDbEntity
  8
0
 62
             4
100
AcDbTrace
 10
239.79699226355771
 20
112.37544175718115
 11
239.79698865087312
 21
115.00849170892658
 12
249.79699045720599
 22
113.69198045358577
 13
249.79699045720599
 23
113.69198045358577
  0
MTEXT
  5
162
100
AcDbEntity
  8
0
 62
             1
100
AcDbMText
 10
-19.30298031890506
 20
115.69160260759065
 30
0.0
 40
10.0
 41
0.0
 71
             7
 72
             1
  1
\C1;Ø\C1;500
  7
CONVERTER_1
 11
0.99999999999706
 21
0.00000242406841
 31
0.0
  0
ENDBLK
  5
163
100
AcDbEntity
  8
0
100
AcDbBlockEnd
  0
BLOCK
  5
167
100
AcDbEntity
  8
0
100
AcDbBlockBegin
  2
*D6
 70
             1
 10
0.0
 20
0.0
 30
0.0
  3
*D6
  1

  0
LINE
  5
168
100
AcDbEntity
  8
0
  6
CONTINUOUS
 62
             4
100
AcDbLine
 10
-73.49993293045884
 20
86.36273693514124
 11
73.5000670692644
 21
86.36293862695953
  0
LINE
  5
169
100
AcDbEntity
  8
0
  6
CONTINUOUS
 62
             4
100
AcDbLine
 10
-73.49991006829755
 20
69.69999999999993
 11
-73.49993567456521
 21
88.36273693513937
  0
LINE
  5
16A
100
AcDbEntity
  8
0
  6
CONTINUOUS
 62
             4
100
AcDbLine
 10
73.50008993170243
 20
69.69999999999993
 11
73.50006432515804
 21
88.36293862695766
  0
SOLID
  5
16B
100
AcDbEntity
  8
0
 62
             4
100
AcDbTrace
 10
-63.49993473681055
 20
87.67927563154588
 11
-63.49993112412596
 21
85.04622567980043
 12
-73.49993293045884
 22
86.36273693514124
 13
-73.49993293045884
 23
86.36273693514124
  0
SOLID
  5
16C
100
AcDbEntity
  8
0
 62
             4
100
AcDbTrace
 10
63.50006887561611
 20
85.04639993055491
 11
63.50006526293152
 21
87.67944988230035
 12
73.5000670692644
 22
86.36293862695953
 13
73.5000670692644
 23
86.36293862695953
  0
MTEXT
  5
16D
100
AcDbEntity
  8
0
 62
             1
100
AcDbMText
 10
-30.11543143084766
 20
88.36279646098662
 30
0.0
 40
10.0
 41
0.0
 71
             7
 72
             1
  1
150x150
  7
CONVERTER_1
 11
0.99999999999706
 21
0.00000242406841
 31
0.0
  0
ENDBLK
  5
16E
100
AcDbEntity
  8
0
100
AcDbBlockEnd
  0
BLOCK
  5
172
100
AcDbEntity
  8
0
100
AcDbBlockBegin
  2
*D7
 70
             1
 10
0.0
 20
0.0
 30
0.0
  3
*D7
  1

  0
LINE
  5
173
100
AcDbEntity
  8
0
  6
CONTINUOUS
 62
             4
100
AcDbLine
 10
-62.49981398278559
 20
-190.16964676409873
 11
62.5001860169791
 21
-190.1694752574505
  0
LINE
  5
174
100
AcDbEntity
  8
0
  6
CONTINUOUS
 62
             4
100
AcDbLine
 10
-62.4998573987235
 20
-158.5266037984278
 11
-62.49981123867921
 21
-192.16964676409685
  0
LINE
  5
175
100
AcDbEntity
  8
0
  6
CONTINUOUS
 62
             4
100
AcDbLine
 10
62.5001426012765
 20
-158.5266037984278
 11
62.50018876108548
 21
-192.16947525744862
  0
SOLID
  5
176
100
AcDbEntity
  8
0
 62
             4
100
AcDbTrace
 10
-52.49981578913729
 20
-188.85310806769411
 11
-52.49981217645271
 21
-191.48615801943953
 12
-62.49981398278559
 22
-190.16964676409873
 13
-62.49981398278559
 23
-190.16964676409873
  0
SOLID
  5
177
100
AcDbEntity
  8
0
 62
             4
100
AcDbTrace
 10
52.50018782333081
 20
-191.48601395385512
 11
52.50018421064622
 21
-188.8529640021097
 12
62.5001860169791
 22
-190.1694752574505
 13
62.5001860169791
 23
-190.1694752574505
  0
MTEXT
  5
178
100
AcDbEntity
  8
0
 62
             1
100
AcDbMText
 10
-13.90367383188032
 20
-188.16959734065756
 30
0.0
 40
10.0
 41
0.0
 71
             7
 72
             1
  1
\C1;DN\C1;125
  7
CONVERTER_1
 11
0.99999999999706
 21
0.00000242406841
 31
0.0
  0
ENDBLK
  5
179
100
AcDbEntity
  8
0
100
AcDbBlockEnd
  0
BLOCK
  5
17D
100
AcDbEntity
  8
0
100
AcDbBlockBegin
  2
*D8
 70
             1
 10
0.0
 20
0.0
 30
0.0
  3
*D8
  1

  0
LINE
  5
17E
100
AcDbEntity
  8
0
  6
CONTINUOUS
 62
             4
100
AcDbLine
 10
-80.24969641274733
 20
-213.62993800765119
 11
80.25030358695055
 21
-213.62971779311488
  0
LINE
  5
17F
100
AcDbEntity
  8
0
  6
CONTINUOUS
 62
             4
100
AcDbLine
 10
-80.24985639872348
 20
-97.0266037984278
 11
-80.24969366864096
 21
-215.62993800764932
  0
LINE
  5
180
100
AcDbEntity
  8
0
  6
CONTINUOUS
 62
             4
100
AcDbLine
 10
80.25014360127653
 20
-97.0266037984278
 11
80.25030633105692
 21
-215.629717793113
  0
SOLID
  5
181
100
AcDbEntity
  8
0
 62
             4
100
AcDbTrace
 10
-70.24969821909903
 20
-212.31339931124657
 11
-70.24969460641445
 21
-214.94644926299199
 12
-80.24969641274733
 22
-213.62993800765119
 13
-80.24969641274733
 23
-213.62993800765119
  0
SOLID
  5
182
100
AcDbEntity
  8
0
 62
             4
100
AcDbTrace
 10
70.25030539330226
 20
-214.9462564895195
 11
70.25030178061768
 21
-212.31320653777408
 12
80.25030358695055
 22
-213.62971779311488
 13
80.25030358695055
 23
-213.62971779311488
  0
MTEXT
  5
183
100
AcDbEntity
  8
0
 62
             1
100
AcDbMText
 10
-13.16204630451393
 20
-211.62985458635006
 30
0.0
 40
10.0
 41
0.0
 71
             7
 72
             1
  1
\C1;Ø\C1;160
  7
CONVERTER_1
 11
0.99999999999706
 21
0.00000242406841
 31
0.0
  0
ENDBLK
  5
184
100
AcDbEntity
  8
0
100
AcDbBlockEnd
  0
ENDSEC
  0
SECTION
  2
ENTITIES
  0
DIMENSION
  5
186
100
AcDbEntity
  8
1
100
AcDbDimension
  2
*D8
 10
-80.24969641274733
 20
-213.62993800765119
 11
-0.46205316480819
 21
-206.62982853475449
 31
0.0
 53
0.00013888888889
  1
Ø160
  3
ME10_DIM_5
100
AcDbAlignedDimension
 13
80.25014360127653
 23
-97.0266037984278
 14
-80.24985639872348
 24
-97.0266037984278
 50
0.0000786128568
100
AcDbRotatedDimension
  0
DIMENSION
  5
17B
100
AcDbEntity
  8
1
100
AcDbDimension
  2
*D7
 10
-62.49981398278559
 20
-190.16964676409873
 11
1.99631930780604
 21
-183.16955827196699
 31
0.0
 53
0.00013888888889
  1
<>
  3
ME10_DIM_4
100
AcDbAlignedDimension
 13
62.50014260127651
 23
-158.5266037984278
 14
-62.49985739872349
 24
-158.5266037984278
 50
0.00007861285683
100
AcDbRotatedDimension
  0
DIMENSION
  5
170
100
AcDbEntity
  8
1
100
AcDbDimension
  2
*D6
 10
-73.49993293045884
 20
86.36273693514124
 11
-3.115438291139
 21
93.36283350641793
 31
0.0
 53
0.00013888888889
  1
150x150
  3
ME10_DIM_3
100
AcDbAlignedDimension
 13
73.50008993170243
 23
69.70000000000005
 14
-73.49991006829755
 24
69.70000000000005
 50
0.0000786128568
100
AcDbRotatedDimension
  0
DIMENSION
  5
165
100
AcDbEntity
  8
1
100
AcDbDimension
  2
*D5
 10
-249.7972005418535
 20
113.69129498378443
 11
-5.10298717920072
 21
120.69163071726599
 31
0.0
 53
0.00013888888889
  1
Ø500
  3
ME10_DIM_2
100
AcDbAlignedDimension
 13
249.7971399999999
 23
4.69999999999999
 14
-249.79705100000001
 24
4.69999999999999
 50
0.0000786128568
100
AcDbRotatedDimension
  0
DIMENSION
  5
15A
100
AcDbEntity
  8
1
100
AcDbDimension
  2
*D4
 10
-94.77100015462479
 20
-231.62424693647739
 11
-1.64254048644212
 21
-224.624119159271
 31
0.0
 53
0.00013888888889
  1
Ø190
  3
ME10_DIM_1
100
AcDbAlignedDimension
 13
94.77146999999991
 23
-12.35769199999999
 14
-94.77130099999999
 24
-12.35769199999999
 50
0.0000786128568
100
AcDbRotatedDimension
  0
DIMENSION
  5
14F
100
AcDbEntity
  8
1
100
AcDbDimension
  2
*D3
 10
-160.75165899999999
 20
-107.0266037984278
 11
-167.75165899999999
 21
-55.7883860010749
 31
0.0
 53
90.0
  1
103
  3
ME10_DIM_0
100
AcDbAlignedDimension
 13
-150.75165899999999
 23
-3.00045699999998
 14
-72.24985639872348
 24
-107.0266037984278
 50
90.0
100
AcDbRotatedDimension
  0
INSERT
  5
38
100
AcDbEntity
  8
0
100
AcDbBlockReference
  2
K_RPER
 10
-380.00555764075602
 20
-870.49194440387498
  0
INSERT
  5
39
100
AcDbEntity
  8
0
100
AcDbBlockReference
  2
HL_66_0_AUFSATZRAHMEN
 10
-3.92514290157587
 20
-1307.9304405303701
  0
ENDSEC
  0
SECTION
  2
OBJECTS
  0
DICTIONARY
  5
19
100
AcDbDictionary
  3
ACAD_GROUP
350
1A
  3
ACAD_MLINESTYLE
350
1B
  0
DICTIONARY
  5
1A
102
{ACAD_REACTORS
330
19
102
}
100
AcDbDictionary
  0
DICTIONARY
  5
1B
102
{ACAD_REACTORS
330
19
102
}
100
AcDbDictionary
  3
STANDARD
350
1C
  0
MLINESTYLE
  5
1C
102
{ACAD_REACTORS
330
1B
102
}
100
AcDbMlineStyle
  2
STANDARD
 70
             0
  3

 62
             0
 51
90.0
 52
90.0
 71
             2
 49
0.5
 62
           256
  6
BYLAYER
 49
-0.5
 62
           256
  6
BYLAYER
  0
ENDSEC
  0
EOF
