  0
SECTION
  2
HEADER
  9
$ACADVER
  1
AC1015
  9
$ACADMAINTVER
 70
     6
  9
$DWGCODEPAGE
  3
ANSI_1252
  9
$INSBASE
 10
0.0
 20
0.0
 30
0.0
  9
$EXTMIN
 10
-250.463614682173
 20
-55.8641438136975
 30
0.0
  9
$EXTMAX
 10
160.389721901201
 20
288.4052793004094
 30
0.0
  9
$LIMMIN
 10
0.0
 20
0.0
  9
$LIMMAX
 10
12.0
 20
9.0
  9
$ORTHOMODE
 70
     0
  9
$REGENMODE
 70
     1
  9
$FILLMODE
 70
     1
  9
$QTEXTMODE
 70
     0
  9
$MIRRTEXT
 70
     1
  9
$LTSCALE
 40
1.0
  9
$ATTMODE
 70
     1
  9
$TEXTSIZE
 40
0.2
  9
$TRACEWID
 40
0.05
  9
$TEXTSTYLE
  7
Standard
  9
$CLAYER
  8
0
  9
$CELTYPE
  6
ByLayer
  9
$CECOLOR
 62
   256
  9
$CELTSCALE
 40
1.0
  9
$DISPSILH
 70
     0
  9
$DIMSCALE
 40
1.0
  9
$DIMASZ
 40
0.18
  9
$DIMEXO
 40
0.0625
  9
$DIMDLI
 40
0.38
  9
$DIMRND
 40
0.0
  9
$DIMDLE
 40
0.0
  9
$DIMEXE
 40
0.18
  9
$DIMTP
 40
0.0
  9
$DIMTM
 40
0.0
  9
$DIMTXT
 40
0.18
  9
$DIMCEN
 40
0.09
  9
$DIMTSZ
 40
0.0
  9
$DIMTOL
 70
     0
  9
$DIMLIM
 70
     0
  9
$DIMTIH
 70
     1
  9
$DIMTOH
 70
     1
  9
$DIMSE1
 70
     0
  9
$DIMSE2
 70
     0
  9
$DIMTAD
 70
     0
  9
$DIMZIN
 70
     0
  9
$DIMBLK
  1

  9
$DIMASO
 70
     1
  9
$DIMSHO
 70
     1
  9
$DIMPOST
  1

  9
$DIMAPOST
  1

  9
$DIMALT
 70
     0
  9
$DIMALTD
 70
     2
  9
$DIMALTF
 40
25.4
  9
$DIMLFAC
 40
1.0
  9
$DIMTOFL
 70
     0
  9
$DIMTVP
 40
0.0
  9
$DIMTIX
 70
     0
  9
$DIMSOXD
 70
     0
  9
$DIMSAH
 70
     0
  9
$DIMBLK1
  1

  9
$DIMBLK2
  1

  9
$DIMSTYLE
  2
Standard
  9
$DIMCLRD
 70
     0
  9
$DIMCLRE
 70
     0
  9
$DIMCLRT
 70
     0
  9
$DIMTFAC
 40
1.0
  9
$DIMGAP
 40
0.09
  9
$DIMJUST
 70
     0
  9
$DIMSD1
 70
     0
  9
$DIMSD2
 70
     0
  9
$DIMTOLJ
 70
     1
  9
$DIMTZIN
 70
     0
  9
$DIMALTZ
 70
     0
  9
$DIMALTTZ
 70
     0
  9
$DIMUPT
 70
     0
  9
$DIMDEC
 70
     4
  9
$DIMTDEC
 70
     4
  9
$DIMALTU
 70
     2
  9
$DIMALTTD
 70
     2
  9
$DIMTXSTY
  7
Standard
  9
$DIMAUNIT
 70
     0
  9
$DIMADEC
 70
     0
  9
$DIMALTRND
 40
0.0
  9
$DIMAZIN
 70
     0
  9
$DIMDSEP
 70
    46
  9
$DIMATFIT
 70
     3
  9
$DIMFRAC
 70
     0
  9
$DIMLDRBLK
  1

  9
$DIMLUNIT
 70
     2
  9
$DIMLWD
 70
    -2
  9
$DIMLWE
 70
    -2
  9
$DIMTMOVE
 70
     0
  9
$LUNITS
 70
     2
  9
$LUPREC
 70
     4
  9
$SKETCHINC
 40
0.1
  9
$FILLETRAD
 40
0.5
  9
$AUNITS
 70
     0
  9
$AUPREC
 70
     0
  9
$MENU
  1
.
  9
$ELEVATION
 40
0.0
  9
$PELEVATION
 40
0.0
  9
$THICKNESS
 40
0.0
  9
$LIMCHECK
 70
     0
  9
$CHAMFERA
 40
0.5
  9
$CHAMFERB
 40
0.5
  9
$CHAMFERC
 40
1.0
  9
$CHAMFERD
 40
0.0
  9
$SKPOLY
 70
     0
  9
$TDCREATE
 40
2455386.301461122
  9
$TDUCREATE
 40
2455386.218127789
  9
$TDUPDATE
 40
2455386.301461134
  9
$TDUUPDATE
 40
2455386.218127801
  9
$TDINDWG
 40
0.0000000116
  9
$TDUSRTIMER
 40
0.0000000116
  9
$USRTIMER
 70
     1
  9
$ANGBASE
 50
0.0
  9
$ANGDIR
 70
     0
  9
$PDMODE
 70
     0
  9
$PDSIZE
 40
0.0
  9
$PLINEWID
 40
0.0
  9
$SPLFRAME
 70
     0
  9
$SPLINETYPE
 70
     6
  9
$SPLINESEGS
 70
     8
  9
$HANDSEED
  5
34C
  9
$SURFTAB1
 70
     6
  9
$SURFTAB2
 70
     6
  9
$SURFTYPE
 70
     6
  9
$SURFU
 70
     6
  9
$SURFV
 70
     6
  9
$UCSBASE
  2

  9
$UCSNAME
  2

  9
$UCSORG
 10
0.0
 20
0.0
 30
0.0
  9
$UCSXDIR
 10
1.0
 20
0.0
 30
0.0
  9
$UCSYDIR
 10
0.0
 20
1.0
 30
0.0
  9
$UCSORTHOREF
  2

  9
$UCSORTHOVIEW
 70
     0
  9
$UCSORGTOP
 10
0.0
 20
0.0
 30
0.0
  9
$UCSORGBOTTOM
 10
0.0
 20
0.0
 30
0.0
  9
$UCSORGLEFT
 10
0.0
 20
0.0
 30
0.0
  9
$UCSORGRIGHT
 10
0.0
 20
0.0
 30
0.0
  9
$UCSORGFRONT
 10
0.0
 20
0.0
 30
0.0
  9
$UCSORGBACK
 10
0.0
 20
0.0
 30
0.0
  9
$PUCSBASE
  2

  9
$PUCSNAME
  2

  9
$PUCSORG
 10
0.0
 20
0.0
 30
0.0
  9
$PUCSXDIR
 10
1.0
 20
0.0
 30
0.0
  9
$PUCSYDIR
 10
0.0
 20
1.0
 30
0.0
  9
$PUCSORTHOREF
  2

  9
$PUCSORTHOVIEW
 70
     0
  9
$PUCSORGTOP
 10
0.0
 20
0.0
 30
0.0
  9
$PUCSORGBOTTOM
 10
0.0
 20
0.0
 30
0.0
  9
$PUCSORGLEFT
 10
0.0
 20
0.0
 30
0.0
  9
$PUCSORGRIGHT
 10
0.0
 20
0.0
 30
0.0
  9
$PUCSORGFRONT
 10
0.0
 20
0.0
 30
0.0
  9
$PUCSORGBACK
 10
0.0
 20
0.0
 30
0.0
  9
$USERI1
 70
     0
  9
$USERI2
 70
     0
  9
$USERI3
 70
     0
  9
$USERI4
 70
     0
  9
$USERI5
 70
     0
  9
$USERR1
 40
16.5
  9
$USERR2
 40
0.0
  9
$USERR3
 40
0.0
  9
$USERR4
 40
0.0
  9
$USERR5
 40
0.0
  9
$WORLDVIEW
 70
     1
  9
$SHADEDGE
 70
     3
  9
$SHADEDIF
 70
    70
  9
$TILEMODE
 70
     1
  9
$MAXACTVP
 70
    64
  9
$PINSBASE
 10
0.0
 20
0.0
 30
0.0
  9
$PLIMCHECK
 70
     0
  9
$PEXTMIN
 10
1.00000000000000E+20
 20
1.00000000000000E+20
 30
1.00000000000000E+20
  9
$PEXTMAX
 10
-1.00000000000000E+20
 20
-1.00000000000000E+20
 30
-1.00000000000000E+20
  9
$PLIMMIN
 10
0.0
 20
0.0
  9
$PLIMMAX
 10
12.0
 20
9.0
  9
$UNITMODE
 70
     0
  9
$VISRETAIN
 70
     1
  9
$PLINEGEN
 70
     0
  9
$PSLTSCALE
 70
     1
  9
$TREEDEPTH
 70
  3020
  9
$CMLSTYLE
  2
Standard
  9
$CMLJUST
 70
     0
  9
$CMLSCALE
 40
1.0
  9
$PROXYGRAPHICS
 70
     1
  9
$MEASUREMENT
 70
     1
  9
$CELWEIGHT
370
    -1
  9
$ENDCAPS
280
     0
  9
$JOINSTYLE
280
     0
  9
$LWDISPLAY
290
     0
  9
$INSUNITS
 70
     1
  9
$HYPERLINKBASE
  1

  9
$STYLESHEET
  1

  9
$XEDIT
290
     1
  9
$CEPSNTYPE
380
     0
  9
$PSTYLEMODE
290
     1
  9
$FINGERPRINTGUID
  2
{21FBE433-BF52-42E4-AC56-1A36637BDC84}
  9
$VERSIONGUID
  2
{FAEB1C32-E019-11D5-929B-00C0DF256EC4}
  9
$EXTNAMES
290
     1
  9
$PSVPSCALE
 40
0.0
  9
$OLESTARTUP
290
     0
  0
ENDSEC
  0
SECTION
  2
CLASSES
  0
CLASS
  1
ACDBDICTIONARYWDFLT
  2
AcDbDictionaryWithDefault
  3
ObjectDBX Classes
 90
        0
280
     0
281
     0
  0
CLASS
  1
VISUALSTYLE
  2
AcDbVisualStyle
  3
ObjectDBX Classes
 90
     4095
280
     0
281
     0
  0
CLASS
  1
SCALE
  2
AcDbScale
  3
ObjectDBX Classes
 90
     1153
280
     0
281
     0
  0
CLASS
  1

  2
exOdDbPolyline
  3

 90
        0
280
     0
281
     1
  0
CLASS
  1
DICTIONARYVAR
  2
AcDbDictionaryVar
  3
ObjectDBX Classes
 90
        0
280
     0
281
     0
  0
CLASS
  1
ACDBPLACEHOLDER
  2
AcDbPlaceHolder
  3
ObjectDBX Classes
 90
        0
280
     0
281
     0
  0
CLASS
  1
LAYOUT
  2
AcDbLayout
  3
ObjectDBX Classes
 90
        0
280
     0
281
     0
  0
ENDSEC
  0
SECTION
  2
TABLES
  0
TABLE
  2
VPORT
  5
8
330
0
100
AcDbSymbolTable
 70
     1
  0
VPORT
  5
29
330
8
100
AcDbSymbolTableRecord
100
AcDbViewportTableRecord
  2
*Active
 70
     0
 10
0.0
 20
0.0
 11
1.0
 21
1.0
 12
-45.03694639048599
 22
116.270567743356
 13
0.0
 23
0.0
 14
0.5
 24
0.5
 15
0.5
 25
0.5
 16
0.0
 26
0.0
 36
1.0
 17
0.0
 27
0.0
 37
0.0
 40
378.6963654255176
 41
1.60267857142857
 42
50.0
 43
0.0
 44
0.0
 50
0.0
 51
0.0
 71
     0
 72
   100
 73
     1
 74
     3
 75
     0
 76
     0
 77
     0
 78
     0
281
     0
 65
     1
110
0.0
120
0.0
130
0.0
111
1.0
121
0.0
131
0.0
112
0.0
122
1.0
132
0.0
 79
     0
146
0.0
  0
ENDTAB
  0
TABLE
  2
LTYPE
  5
5
330
0
100
AcDbSymbolTable
 70
     9
  0
LTYPE
  5
14
330
5
100
AcDbSymbolTableRecord
100
AcDbLinetypeTableRecord
  2
ByBlock
 70
     0
  3

 72
    65
 73
     0
 40
0.0
  0
LTYPE
  5
15
330
5
100
AcDbSymbolTableRecord
100
AcDbLinetypeTableRecord
  2
ByLayer
 70
     0
  3

 72
    65
 73
     0
 40
0.0
  0
LTYPE
  5
16
330
5
100
AcDbSymbolTableRecord
100
AcDbLinetypeTableRecord
  2
Continuous
 70
     0
  3
Solid line
 72
    65
 73
     0
 40
0.0
  0
LTYPE
  5
3B
330
5
100
AcDbSymbolTableRecord
100
AcDbLinetypeTableRecord
  2
DASHED
 70
     0
  3
Dashed
 72
    65
 73
     2
 40
15.0
 49
7.0
 74
     0
 49
-8.0
 74
     0
  0
LTYPE
  5
3C
330
5
100
AcDbSymbolTableRecord
100
AcDbLinetypeTableRecord
  2
DOTTED
 70
     0
  3
Dotted
 72
    65
 73
     2
 40
1.0
 49
0.0
 74
     0
 49
-1.0
 74
     0
  0
LTYPE
  5
3D
330
5
100
AcDbSymbolTableRecord
100
AcDbLinetypeTableRecord
  2
DOT_CENTER
 70
     0
  3
Dot_Center
 72
    65
 73
     4
 40
14.0
 49
12.0
 74
     0
 49
-1.0
 74
     0
 49
0.0
 74
     0
 49
-1.0
 74
     0
  0
LTYPE
  5
3E
330
5
100
AcDbSymbolTableRecord
100
AcDbLinetypeTableRecord
  2
LONG_DASHED
 70
     0
  3
Long_Dashed
 72
    65
 73
     2
 40
15.0
 49
10.0
 74
     0
 49
-5.0
 74
     0
  0
LTYPE
  5
3F
330
5
100
AcDbSymbolTableRecord
100
AcDbLinetypeTableRecord
  2
DASH_CENTER
 70
     0
  3
Dash_Center
 72
    65
 73
     4
 40
14.0
 49
11.0
 74
     0
 49
-1.0
 74
     0
 49
1.0
 74
     0
 49
-1.0
 74
     0
  0
LTYPE
  5
40
330
5
100
AcDbSymbolTableRecord
100
AcDbLinetypeTableRecord
  2
PHANTOM
 70
     0
  3
Phantom
 72
    65
 73
     6
 40
13.0
 49
10.0
 74
     0
 49
-1.0
 74
     0
 49
0.0
 74
     0
 49
-1.0
 74
     0
 49
0.0
 74
     0
 49
-1.0
 74
     0
  0
LTYPE
  5
41
330
5
100
AcDbSymbolTableRecord
100
AcDbLinetypeTableRecord
  2
CENTER_DASH_DASH
 70
     0
  3
Center_Dash_Dash
 72
    65
 73
     6
 40
14.0
 49
9.0
 74
     0
 49
-1.0
 74
     0
 49
1.0
 74
     0
 49
-1.0
 74
     0
 49
1.0
 74
     0
 49
-1.0
 74
     0
  0
LTYPE
  5
42
330
5
100
AcDbSymbolTableRecord
100
AcDbLinetypeTableRecord
  2
CENTERX2
 70
     0
  3
CENTERX2
 72
    65
 73
     4
 40
22.0
 49
13.0
 74
     0
 49
-3.0
 74
     0
 49
3.0
 74
     0
 49
-3.0
 74
     0
  0
ENDTAB
  0
TABLE
  2
LAYER
  5
2
330
0
100
AcDbSymbolTable
 70
     2
  0
LAYER
  5
10
330
2
100
AcDbSymbolTableRecord
100
AcDbLayerTableRecord
  2
0
 70
     0
 62
     7
  6
Continuous
370
    -3
390
F
  0
LAYER
  5
43
330
2
100
AcDbSymbolTableRecord
100
AcDbLayerTableRecord
  2
1
 70
     0
 62
     7
  6
Continuous
370
    -3
390
F
  0
ENDTAB
  0
TABLE
  2
STYLE
  5
3
330
0
100
AcDbSymbolTable
 70
     2
  0
STYLE
  5
11
330
3
100
AcDbSymbolTableRecord
100
AcDbTextStyleTableRecord
  2
Standard
 70
     0
 40
0.0
 41
1.0
 50
0.0
 71
     0
 42
0.2
  3
txt
  4

  0
STYLE
  5
2F8
330
3
100
AcDbSymbolTableRecord
100
AcDbTextStyleTableRecord
  2
CONVERTER_11
 70
     0
 40
0.0
 41
0.9
 50
0.0
 71
     0
 42
0.2
  3
txt.shx
  4

  0
ENDTAB
  0
TABLE
  2
VIEW
  5
6
330
0
100
AcDbSymbolTable
 70
     0
  0
ENDTAB
  0
TABLE
  2
UCS
  5
7
330
0
100
AcDbSymbolTable
 70
     0
  0
ENDTAB
  0
TABLE
  2
APPID
  5
9
330
0
100
AcDbSymbolTable
 70
     1
  0
APPID
  5
12
330
9
100
AcDbSymbolTableRecord
100
AcDbRegAppTableRecord
  2
ACAD
 70
     0
  0
ENDTAB
  0
TABLE
  2
DIMSTYLE
  5
A
330
0
100
AcDbSymbolTable
 70
     7
100
AcDbDimStyleTable
  0
DIMSTYLE
105
27
330
A
100
AcDbSymbolTableRecord
100
AcDbDimStyleTableRecord
  2
Standard
 70
     0
340
11
  0
DIMSTYLE
105
2FC
102
{ACAD_REACTORS
330
2FD
102
}
330
A
100
AcDbSymbolTableRecord
100
AcDbDimStyleTableRecord
  2
ME10_DIM_10
 70
     0
  3
Ø<>
 41
10.0
 42
0.0
 44
2.0
 73
     0
 74
     0
 77
     1
 78
     8
140
10.0
147
2.0
172
     1
173
     1
176
     4
177
     4
178
     1
271
     2
340
2F8
  0
DIMSTYLE
105
307
102
{ACAD_REACTORS
330
308
102
}
330
A
100
AcDbSymbolTableRecord
100
AcDbDimStyleTableRecord
  2
ME10_DIM_11
 70
     0
  3
x150
 41
10.0
 42
0.0
 44
2.0
 73
     0
 74
     0
 77
     1
 78
     8
140
10.0
147
2.0
172
     1
173
     1
176
     4
177
     4
178
     1
271
     2
340
2F8
  0
DIMSTYLE
105
312
102
{ACAD_REACTORS
330
313
102
}
330
A
100
AcDbSymbolTableRecord
100
AcDbDimStyleTableRecord
  2
ME10_DIM_12
 70
     0
  3
DN<>
 41
10.0
 42
0.0
 44
2.0
 73
     0
 74
     0
 77
     1
 78
     8
140
10.0
147
2.0
172
     1
173
     1
176
     4
177
     4
178
     1
271
     2
340
2F8
  0
DIMSTYLE
105
31D
102
{ACAD_REACTORS
330
31E
102
}
330
A
100
AcDbSymbolTableRecord
100
AcDbDimStyleTableRecord
  2
ME10_DIM_13
 70
     0
  3
Ø<>
 41
10.0
 42
0.0
 44
2.0
 73
     0
 74
     0
 77
     1
 78
     8
140
10.0
147
2.0
172
     1
173
     1
176
     4
177
     4
178
     1
271
     0
340
2F8
  0
DIMSTYLE
105
328
102
{ACAD_REACTORS
330
329
102
}
330
A
100
AcDbSymbolTableRecord
100
AcDbDimStyleTableRecord
  2
ME10_DIM_14
 70
     0
 41
10.0
 42
0.0
 44
2.0
 73
     0
 74
     0
 77
     1
 78
     8
140
10.0
147
2.0
172
     1
173
     1
176
     4
177
     4
178
     1
271
     2
340
2F8
  0
DIMSTYLE
105
333
102
{ACAD_REACTORS
330
334
102
}
330
A
100
AcDbSymbolTableRecord
100
AcDbDimStyleTableRecord
  2
ME10_DIM_15
 70
     0
 41
10.0
 42
0.0
 44
2.0
 73
     0
 74
     0
 77
     1
 78
     8
140
10.0
147
2.0
172
     1
173
     1
176
     4
177
     4
178
     1
271
     2
340
2F8
  0
ENDTAB
  0
TABLE
  2
BLOCK_RECORD
  5
1
330
0
100
AcDbSymbolTable
 70
     9
  0
BLOCK_RECORD
  5
1F
330
1
100
AcDbSymbolTableRecord
100
AcDbBlockTableRecord
  2
*Model_Space
340
22
  0
BLOCK_RECORD
  5
1B
330
1
100
AcDbSymbolTableRecord
100
AcDbBlockTableRecord
  2
*Paper_Space
340
1E
  0
BLOCK_RECORD
  5
23
330
1
100
AcDbSymbolTableRecord
100
AcDbBlockTableRecord
  2
*Paper_Space0
340
26
  0
BLOCK_RECORD
  5
44
330
1
100
AcDbSymbolTableRecord
100
AcDbBlockTableRecord
  2
HL62BP_7
340
0
102
{BLKREFS
331
6A
102
}
  0
BLOCK_RECORD
  5
47
330
1
100
AcDbSymbolTableRecord
100
AcDbBlockTableRecord
  2
HL_62BP_7_DN75_Dachablauf
340
0
102
{BLKREFS
331
6D
102
}
  0
BLOCK_RECORD
  5
2F2
330
1
100
AcDbSymbolTableRecord
100
AcDbBlockTableRecord
  2
*D3
340
0
  0
BLOCK_RECORD
  5
2FE
330
1
100
AcDbSymbolTableRecord
100
AcDbBlockTableRecord
  2
*D4
340
0
  0
BLOCK_RECORD
  5
309
330
1
100
AcDbSymbolTableRecord
100
AcDbBlockTableRecord
  2
*D5
340
0
  0
BLOCK_RECORD
  5
314
330
1
100
AcDbSymbolTableRecord
100
AcDbBlockTableRecord
  2
*D6
340
0
  0
BLOCK_RECORD
  5
31F
330
1
100
AcDbSymbolTableRecord
100
AcDbBlockTableRecord
  2
*D7
340
0
  0
BLOCK_RECORD
  5
32A
330
1
100
AcDbSymbolTableRecord
100
AcDbBlockTableRecord
  2
*D8
340
0
  0
ENDTAB
  0
ENDSEC
  0
SECTION
  2
BLOCKS
  0
BLOCK
  5
20
330
1F
100
AcDbEntity
  8
0
100
AcDbBlockBegin
  2
*Model_Space
 70
     0
 10
0.0
 20
0.0
 30
0.0
  3
*Model_Space
  1

  0
ENDBLK
  5
21
330
1F
100
AcDbEntity
  8
0
100
AcDbBlockEnd
  0
BLOCK
  5
1C
330
1B
100
AcDbEntity
 67
     1
  8
0
100
AcDbBlockBegin
  2
*Paper_Space
 70
     0
 10
0.0
 20
0.0
 30
0.0
  3
*Paper_Space
  1

  0
ENDBLK
  5
1D
330
1B
100
AcDbEntity
 67
     1
  8
0
100
AcDbBlockEnd
  0
BLOCK
  5
24
330
23
100
AcDbEntity
  8
0
100
AcDbBlockBegin
  2
*Paper_Space0
 70
     0
 10
0.0
 20
0.0
 30
0.0
  3
*Paper_Space0
  1

  0
ENDBLK
  5
25
330
23
100
AcDbEntity
  8
0
100
AcDbBlockEnd
  0
BLOCK
  5
45
330
44
100
AcDbEntity
  8
0
100
AcDbBlockBegin
  2
HL62BP_7
 70
     0
 10
-45.03694639048599
 20
116.270567743356
 30
0.0
  3
HL62BP_7
  1

  0
POINT
  5
6E
330
44
100
AcDbEntity
  8
0
 62
     7
100
AcDbPoint
 10
-181.685283035399
 20
159.9999198868
 30
0.0
  0
POINT
  5
6F
330
44
100
AcDbEntity
  8
0
 62
     7
100
AcDbPoint
 10
-55.84553707319898
 20
-0.00000022649999
 30
0.0
  0
POINT
  5
70
330
44
100
AcDbEntity
  8
0
 62
     7
100
AcDbPoint
 10
-93.68528303539898
 20
232.9999198868
 30
0.0
  0
POINT
  5
71
330
44
100
AcDbEntity
  8
0
 62
     7
100
AcDbPoint
 10
-99.435280037799
 20
159.9999198868
 30
0.0
  0
POINT
  5
72
330
44
100
AcDbEntity
  8
0
 62
     7
100
AcDbPoint
 10
-93.68528303539898
 20
232.9999198868
 30
0.0
  0
POINT
  5
73
330
44
100
AcDbEntity
  8
0
 62
     7
100
AcDbPoint
 10
54.31471696460102
 20
232.9999198868
 30
0.0
  0
POINT
  5
74
330
44
100
AcDbEntity
  8
0
 62
     7
100
AcDbPoint
 10
-57.18528303539898
 20
4.99999977350001
 30
0.0
  0
POINT
  5
75
330
44
100
AcDbEntity
  8
0
 62
     7
100
AcDbPoint
 10
17.81471696460102
 20
4.99999977350001
 30
0.0
  0
POINT
  5
76
330
44
100
AcDbEntity
  8
0
 62
     7
100
AcDbPoint
 10
-199.685283035399
 20
156.4999897735
 30
0.0
  0
POINT
  5
77
330
44
100
AcDbEntity
  8
0
 62
     7
100
AcDbPoint
 10
160.314716964601
 20
156.4999897735
 30
0.0
  0
POINT
  5
78
330
44
100
AcDbEntity
  8
0
 62
     7
100
AcDbPoint
 10
-99.785283035399
 20
74.00000177350002
 30
0.0
  0
POINT
  5
79
330
44
100
AcDbEntity
  8
0
 62
     7
100
AcDbPoint
 10
60.41471696460098
 20
74.00000177350002
 30
0.0
  0
LWPOLYLINE
  5
7A
330
44
100
AcDbEntity
  8
0
  6
Continuous
 62
     7
100
AcDbPolyline
 90
        2
 70
     0
 43
0.15
 10
-5.93528346329899
 20
228.4999266266
 10
-5.93528346329899
 20
229.9999222159
  0
LWPOLYLINE
  5
7B
330
44
100
AcDbEntity
  8
0
  6
Continuous
 62
     7
100
AcDbPolyline
 90
        2
 70
     0
 43
0.15
 10
-33.43528331419898
 20
229.9999222159
 10
-33.43528331419898
 20
228.4999266266
  0
LWPOLYLINE
  5
7C
330
44
100
AcDbEntity
  8
0
  6
Continuous
 62
     7
100
AcDbPolyline
 90
        2
 70
     0
 43
0.15
 10
10.06471729670102
 20
228.4999266266
 10
10.06471729670102
 20
229.9999222159
  0
LWPOLYLINE
  5
7D
330
44
100
AcDbEntity
  8
0
  6
Continuous
 62
     7
100
AcDbPolyline
 90
        2
 70
     0
 43
0.15
 10
-49.435282211599
 20
229.9999222159
 10
-49.435282211599
 20
228.4999266266
  0
LWPOLYLINE
  5
7E
330
44
100
AcDbEntity
  8
0
  6
Continuous
 62
     7
100
AcDbPolyline
 90
        2
 70
     0
 43
0.15
 10
26.064718056701
 20
228.4999266266
 10
26.064718056701
 20
229.9999222159
  0
LWPOLYLINE
  5
7F
330
44
100
AcDbEntity
  8
0
  6
Continuous
 62
     7
100
AcDbPolyline
 90
        2
 70
     0
 43
0.15
 10
-65.435284834199
 20
229.9999222159
 10
-65.435284834199
 20
228.4999266266
  0
LWPOLYLINE
  5
80
330
44
100
AcDbEntity
  8
0
  6
Continuous
 62
     7
100
AcDbPolyline
 90
        2
 70
     0
 43
0.15
 10
36.80252089000101
 20
142.4999199807
 10
36.80252089000101
 20
139.9999186396
  0
LWPOLYLINE
  5
81
330
44
100
AcDbEntity
  8
0
  6
Continuous
 62
     7
100
AcDbPolyline
 90
        2
 70
     0
 43
0.15
 10
-76.173087667499
 20
139.9999186396
 10
-76.173087667499
 20
142.4999199807
  0
LWPOLYLINE
  5
82
330
44
100
AcDbEntity
  8
0
  6
Continuous
 62
     7
100
AcDbPolyline
 90
        2
 70
     0
 43
0.15
 10
8.98458986380101
 20
142.4999199807
 10
8.98458986380101
 20
139.9999186396
  0
LWPOLYLINE
  5
83
330
44
100
AcDbEntity
  8
0
  6
Continuous
 62
     7
100
AcDbPolyline
 90
        2
 70
     0
 43
0.15
 10
-48.355156641299
 20
139.9999186396
 10
-48.355156641299
 20
142.4999199807
  0
LWPOLYLINE
  5
84
330
44
100
AcDbEntity
  8
0
  6
Continuous
 62
     7
100
AcDbPolyline
 90
        2
 70
     0
 43
0.15
 10
47.81471743080101
 20
227.4999246001
 10
47.81471743080101
 20
229.9999222159
  0
LWPOLYLINE
  5
85
330
44
100
AcDbEntity
  8
0
  6
Continuous
 62
     7
100
AcDbPolyline
 90
        2
 70
     0
 43
0.15
 10
46.81471540430101
 20
230.9999242425
 10
42.56471796730102
 20
230.9999242425
  0
LWPOLYLINE
  5
86
330
44
100
AcDbEntity
  8
0
  6
Continuous
 62
     7
100
AcDbPolyline
 90
        2
 70
     0
 43
0.15
 10
41.56471594070104
 20
228.4999266266
 10
41.56471594070104
 20
229.9999222159
  0
LWPOLYLINE
  5
87
330
44
100
AcDbEntity
  8
0
  6
Continuous
 62
     7
100
AcDbPolyline
 90
        2
 70
     0
 43
0.15
 10
40.06471662620101
 20
228.4999266266
 10
41.56471594070104
 20
228.4999266266
  0
LWPOLYLINE
  5
88
330
44
100
AcDbEntity
  8
0
  6
Continuous
 62
     7
100
AcDbPolyline
 90
        2
 70
     0
 43
0.15
 10
40.06471662620101
 20
228.4999266266
 10
40.06471662620101
 20
229.9999222159
  0
LWPOLYLINE
  5
89
330
44
100
AcDbEntity
  8
0
  6
Continuous
 62
     7
100
AcDbPolyline
 90
        2
 70
     0
 43
0.15
 10
46.81471540430101
 20
232.4999198317
 10
42.56471796730102
 20
232.4999198317
  0
LWPOLYLINE
  5
8A
330
44
100
AcDbEntity
  8
0
  6
Continuous
 62
     7
100
AcDbPolyline
 90
        2
 70
     0
 43
0.15
 10
49.31472047070099
 20
227.4999246001
 10
49.31472047070099
 20
229.9999222159
  0
LWPOLYLINE
  5
8B
330
44
100
AcDbEntity
  8
0
  6
Continuous
 62
     7
100
AcDbPolyline
 90
        2
 70
     0
 43
0.15
 10
49.31472047070099
 20
227.4999246001
 10
47.81471743080101
 20
227.4999246001
  0
LWPOLYLINE
  5
8C
330
44
100
AcDbEntity
  8
0
  6
Continuous
 62
     7
100
AcDbPolyline
 90
        2
 70
     0
 43
0.15
 10
-19.825198190999
 20
232.4999198317
 10
-21.94651818539899
 20
232.4999198317
  0
LWPOLYLINE
  5
8D
330
44
100
AcDbEntity
  8
0
  6
Continuous
 62
     7
100
AcDbPolyline
 90
        2
 70
     0
 43
0.15
 10
-19.825198190999
 20
232.3999181389
 10
-19.825198190999
 20
232.4999198317
  0
LWPOLYLINE
  5
8E
330
44
100
AcDbEntity
  8
0
  6
Continuous
 62
     7
100
AcDbPolyline
 90
        2
 70
     0
 43
0.15
 10
-47.43528374639899
 20
229.9999222159
 10
-47.43528374639899
 20
228.4999266266
  0
LWPOLYLINE
  5
8F
330
44
100
AcDbEntity
  8
0
  6
Continuous
 62
     7
100
AcDbPolyline
 90
        2
 70
     0
 43
0.15
 10
-55.93528420829898
 20
228.4999266266
 10
-55.93528420829898
 20
229.9999222159
  0
LWPOLYLINE
  5
90
330
44
100
AcDbEntity
  8
0
  6
Continuous
 62
     7
100
AcDbPolyline
 90
        2
 70
     0
 43
0.15
 10
-48.935283060899
 20
229.9999222159
 10
-48.935283060899
 20
228.4999266266
  0
LWPOLYLINE
  5
91
330
44
100
AcDbEntity
  8
0
  6
Continuous
 62
     7
100
AcDbPolyline
 90
        2
 70
     0
 43
0.15
 10
-48.935283060899
 20
228.4999266266
 10
-47.43528374639899
 20
228.4999266266
  0
LWPOLYLINE
  5
92
330
44
100
AcDbEntity
  8
0
  6
Continuous
 62
     7
100
AcDbPolyline
 90
        2
 70
     0
 43
0.15
 10
-54.43528489379898
 20
228.4999266266
 10
-54.43528489379898
 20
229.9999222159
  0
LWPOLYLINE
  5
93
330
44
100
AcDbEntity
  8
0
  6
Continuous
 62
     7
100
AcDbPolyline
 90
        2
 70
     0
 43
0.15
 10
-55.93528420829898
 20
228.4999266266
 10
-54.43528489379898
 20
228.4999266266
  0
LWPOLYLINE
  5
94
330
44
100
AcDbEntity
  8
0
  6
Continuous
 62
     7
100
AcDbPolyline
 90
        2
 70
     0
 43
0.15
 10
-49.93528322479898
 20
230.9999242425
 10
-53.43528286719899
 20
230.9999242425
  0
LWPOLYLINE
  5
95
330
44
100
AcDbEntity
  8
0
  6
Continuous
 62
     7
100
AcDbPolyline
 90
        2
 70
     0
 43
0.15
 10
-49.93528322479898
 20
232.4999198317
 10
-53.43528286719899
 20
232.4999198317
  0
LWPOLYLINE
  5
96
330
44
100
AcDbEntity
  8
0
  6
Continuous
 62
     7
100
AcDbPolyline
 90
        2
 70
     0
 43
0.15
 10
-63.43528450629898
 20
229.9999222159
 10
-63.43528450629898
 20
228.4999266266
  0
LWPOLYLINE
  5
97
330
44
100
AcDbEntity
  8
0
  6
Continuous
 62
     7
100
AcDbPolyline
 90
        2
 70
     0
 43
0.15
 10
-71.93528310559898
 20
228.4999266266
 10
-71.93528310559898
 20
229.9999222159
  0
LWPOLYLINE
  5
98
330
44
100
AcDbEntity
  8
0
  6
Continuous
 62
     7
100
AcDbPolyline
 90
        2
 70
     0
 43
0.15
 10
-64.935283820899
 20
229.9999222159
 10
-64.935283820899
 20
228.4999266266
  0
LWPOLYLINE
  5
99
330
44
100
AcDbEntity
  8
0
  6
Continuous
 62
     7
100
AcDbPolyline
 90
        2
 70
     0
 43
0.15
 10
-64.935283820899
 20
228.4999266266
 10
-63.43528450629898
 20
228.4999266266
  0
LWPOLYLINE
  5
9A
330
44
100
AcDbEntity
  8
0
  6
Continuous
 62
     7
100
AcDbPolyline
 90
        2
 70
     0
 43
0.15
 10
-70.43528379109898
 20
228.4999266266
 10
-70.43528379109898
 20
229.9999222159
  0
LWPOLYLINE
  5
9B
330
44
100
AcDbEntity
  8
0
  6
Continuous
 62
     7
100
AcDbPolyline
 90
        2
 70
     0
 43
0.15
 10
-71.93528310559898
 20
228.4999266266
 10
-70.43528379109898
 20
228.4999266266
  0
LWPOLYLINE
  5
9C
330
44
100
AcDbEntity
  8
0
  6
Continuous
 62
     7
100
AcDbPolyline
 90
        2
 70
     0
 43
0.15
 10
-65.93528212209898
 20
230.9999242425
 10
-69.435281764499
 20
230.9999242425
  0
LWPOLYLINE
  5
9D
330
44
100
AcDbEntity
  8
0
  6
Continuous
 62
     7
100
AcDbPolyline
 90
        2
 70
     0
 43
0.15
 10
-65.93528212209898
 20
232.4999198317
 10
-69.435281764499
 20
232.4999198317
  0
LWPOLYLINE
  5
9E
330
44
100
AcDbEntity
  8
0
  6
Continuous
 62
     7
100
AcDbPolyline
 90
        2
 70
     0
 43
0.15
 10
-79.43528340359899
 20
229.9999222159
 10
-79.43528340359899
 20
228.4999266266
  0
LWPOLYLINE
  5
9F
330
44
100
AcDbEntity
  8
0
  6
Continuous
 62
     7
100
AcDbPolyline
 90
        2
 70
     0
 43
0.15
 10
-80.935282718199
 20
229.9999222159
 10
-80.935282718199
 20
228.4999266266
  0
LWPOLYLINE
  5
A0
330
44
100
AcDbEntity
  8
0
  6
Continuous
 62
     7
100
AcDbPolyline
 90
        2
 70
     0
 43
0.15
 10
-80.935282718199
 20
228.4999266266
 10
-79.43528340359899
 20
228.4999266266
  0
LWPOLYLINE
  5
A1
330
44
100
AcDbEntity
  8
0
  6
Continuous
 62
     7
100
AcDbPolyline
 90
        2
 70
     0
 43
0.15
 10
-88.685283522899
 20
229.9999222159
 10
-88.685283522899
 20
227.4999246001
  0
LWPOLYLINE
  5
A2
330
44
100
AcDbEntity
  8
0
  6
Continuous
 62
     7
100
AcDbPolyline
 90
        2
 70
     0
 43
0.15
 10
-87.18528048299899
 20
227.4999246001
 10
-88.685283522899
 20
227.4999246001
  0
LWPOLYLINE
  5
A3
330
44
100
AcDbEntity
  8
0
  6
Continuous
 62
     7
100
AcDbPolyline
 90
        2
 70
     0
 43
0.15
 10
-87.18528048299899
 20
229.9999222159
 10
-87.18528048299899
 20
227.4999246001
  0
LWPOLYLINE
  5
A4
330
44
100
AcDbEntity
  8
0
  6
Continuous
 62
     7
100
AcDbPolyline
 90
        2
 70
     0
 43
0.15
 10
-81.935284744699
 20
230.9999242425
 10
-86.18528590699898
 20
230.9999242425
  0
LWPOLYLINE
  5
A5
330
44
100
AcDbEntity
  8
0
  6
Continuous
 62
     7
100
AcDbPolyline
 90
        2
 70
     0
 43
0.15
 10
-81.935284744699
 20
232.4999198317
 10
-86.18528590699898
 20
232.4999198317
  0
LWPOLYLINE
  5
A6
330
44
100
AcDbEntity
  8
0
  6
Continuous
 62
     7
100
AcDbPolyline
 90
        2
 70
     0
 43
0.15
 10
8.064716968901
 20
228.4999266266
 10
8.064716968901
 20
229.9999222159
  0
LWPOLYLINE
  5
A7
330
44
100
AcDbEntity
  8
0
  6
Continuous
 62
     7
100
AcDbPolyline
 90
        2
 70
     0
 43
0.15
 10
16.56471743080101
 20
229.9999222159
 10
16.56471743080101
 20
228.4999266266
  0
LWPOLYLINE
  5
A8
330
44
100
AcDbEntity
  8
0
  6
Continuous
 62
     7
100
AcDbPolyline
 90
        2
 70
     0
 43
0.15
 10
9.564716283401
 20
228.4999266266
 10
9.564716283401
 20
229.9999222159
  0
LWPOLYLINE
  5
A9
330
44
100
AcDbEntity
  8
0
  6
Continuous
 62
     7
100
AcDbPolyline
 90
        2
 70
     0
 43
0.15
 10
15.06471811630101
 20
229.9999222159
 10
15.06471811630101
 20
228.4999266266
  0
LWPOLYLINE
  5
AA
330
44
100
AcDbEntity
  8
0
  6
Continuous
 62
     7
100
AcDbPolyline
 90
        2
 70
     0
 43
0.15
 10
14.06471608970099
 20
230.9999242425
 10
10.56471644730101
 20
230.9999242425
  0
LWPOLYLINE
  5
AB
330
44
100
AcDbEntity
  8
0
  6
Continuous
 62
     7
100
AcDbPolyline
 90
        2
 70
     0
 43
0.15
 10
14.06471608970099
 20
232.4999198317
 10
10.56471644730101
 20
232.4999198317
  0
LWPOLYLINE
  5
AC
330
44
100
AcDbEntity
  8
0
  6
Continuous
 62
     7
100
AcDbPolyline
 90
        2
 70
     0
 43
0.15
 10
15.06471811630101
 20
228.4999266266
 10
16.56471743080101
 20
228.4999266266
  0
LWPOLYLINE
  5
AD
330
44
100
AcDbEntity
  8
0
  6
Continuous
 62
     7
100
AcDbPolyline
 90
        2
 70
     0
 43
0.15
 10
8.064716968901
 20
228.4999266266
 10
9.564716283401
 20
228.4999266266
  0
LWPOLYLINE
  5
AE
330
44
100
AcDbEntity
  8
0
  6
Continuous
 62
     7
100
AcDbPolyline
 90
        2
 70
     0
 43
0.15
 10
24.06471772880099
 20
228.4999266266
 10
24.06471772880099
 20
229.9999222159
  0
LWPOLYLINE
  5
AF
330
44
100
AcDbEntity
  8
0
  6
Continuous
 62
     7
100
AcDbPolyline
 90
        2
 70
     0
 43
0.15
 10
32.56471632810099
 20
229.9999222159
 10
32.56471632810099
 20
228.4999266266
  0
LWPOLYLINE
  5
B0
330
44
100
AcDbEntity
  8
0
  6
Continuous
 62
     7
100
AcDbPolyline
 90
        2
 70
     0
 43
0.15
 10
25.564717043401
 20
228.4999266266
 10
25.564717043401
 20
229.9999222159
  0
LWPOLYLINE
  5
B1
330
44
100
AcDbEntity
  8
0
  6
Continuous
 62
     7
100
AcDbPolyline
 90
        2
 70
     0
 43
0.15
 10
31.06471701360101
 20
229.9999222159
 10
31.06471701360101
 20
228.4999266266
  0
LWPOLYLINE
  5
B2
330
44
100
AcDbEntity
  8
0
  6
Continuous
 62
     7
100
AcDbPolyline
 90
        2
 70
     0
 43
0.15
 10
30.06471871230099
 20
230.9999242425
 10
26.56471534470103
 20
230.9999242425
  0
LWPOLYLINE
  5
B3
330
44
100
AcDbEntity
  8
0
  6
Continuous
 62
     7
100
AcDbPolyline
 90
        2
 70
     0
 43
0.15
 10
30.06471871230099
 20
232.4999198317
 10
26.56471534470103
 20
232.4999198317
  0
LWPOLYLINE
  5
B4
330
44
100
AcDbEntity
  8
0
  6
Continuous
 62
     7
100
AcDbPolyline
 90
        2
 70
     0
 43
0.15
 10
31.06471701360101
 20
228.4999266266
 10
32.56471632810099
 20
228.4999266266
  0
LWPOLYLINE
  5
B5
330
44
100
AcDbEntity
  8
0
  6
Continuous
 62
     7
100
AcDbPolyline
 90
        2
 70
     0
 43
0.15
 10
24.06471772880099
 20
228.4999266266
 10
25.564717043401
 20
228.4999266266
  0
LWPOLYLINE
  5
B6
330
44
100
AcDbEntity
  8
0
  6
Continuous
 62
     7
100
AcDbPolyline
 90
        2
 70
     0
 43
0.15
 10
-39.935283448299
 20
228.4999266266
 10
-39.935283448299
 20
229.9999222159
  0
LWPOLYLINE
  5
B7
330
44
100
AcDbEntity
  8
0
  6
Continuous
 62
     7
100
AcDbPolyline
 90
        2
 70
     0
 43
0.15
 10
0.56471667090102
 20
229.9999222159
 10
0.56471667090102
 20
228.4999266266
  0
LWPOLYLINE
  5
B8
330
44
100
AcDbEntity
  8
0
  6
Continuous
 62
     7
100
AcDbPolyline
 90
        2
 70
     0
 43
0.15
 10
-38.43528227119899
 20
228.4999266266
 10
-38.43528227119899
 20
229.9999222159
  0
LWPOLYLINE
  5
B9
330
44
100
AcDbEntity
  8
0
  6
Continuous
 62
     7
100
AcDbPolyline
 90
        2
 70
     0
 43
0.15
 10
-39.935283448299
 20
228.4999266266
 10
-38.43528227119899
 20
228.4999266266
  0
LWPOLYLINE
  5
BA
330
44
100
AcDbEntity
  8
0
  6
Continuous
 62
     7
100
AcDbPolyline
 90
        2
 70
     0
 43
0.15
 10
-0.935282643699
 20
229.9999222159
 10
-0.935282643699
 20
228.4999266266
  0
LWPOLYLINE
  5
BB
330
44
100
AcDbEntity
  8
0
  6
Continuous
 62
     7
100
AcDbPolyline
 90
        2
 70
     0
 43
0.15
 10
-1.93528280759898
 20
230.9999242425
 10
-37.43528210719899
 20
230.9999242425
  0
LWPOLYLINE
  5
BC
330
44
100
AcDbEntity
  8
0
  6
Continuous
 62
     7
100
AcDbPolyline
 90
        2
 70
     0
 43
0.15
 10
-1.93528280759898
 20
232.4999198317
 10
-14.08700793219899
 20
232.4999198317
  0
LWPOLYLINE
  5
BD
330
44
100
AcDbEntity
  8
0
  6
Continuous
 62
     7
100
AcDbPolyline
 90
        2
 70
     0
 43
0.15
 10
-17.70387854589899
 20
232.4999198317
 10
-19.825198190999
 20
232.4999198317
  0
LWPOLYLINE
  5
BE
330
44
100
AcDbEntity
  8
0
  6
Continuous
 62
     7
100
AcDbPolyline
 90
        2
 70
     0
 43
0.15
 10
-21.94651818539899
 20
232.4999198317
 10
-37.43528210719899
 20
232.4999198317
  0
LWPOLYLINE
  5
BF
330
44
100
AcDbEntity
  8
0
  6
Continuous
 62
     7
100
AcDbPolyline
 90
        2
 70
     0
 43
0.15
 10
-21.94651818539899
 20
232.4999198317
 10
-21.94651818539899
 20
232.3999181389
  0
LWPOLYLINE
  5
C0
330
44
100
AcDbEntity
  8
0
  6
Continuous
 62
     7
100
AcDbPolyline
 90
        2
 70
     0
 43
0.15
 10
-19.825198190999
 20
232.3999181389
 10
-21.94651818539899
 20
232.3999181389
  0
LWPOLYLINE
  5
C1
330
44
100
AcDbEntity
  8
0
  6
Continuous
 62
     7
100
AcDbPolyline
 90
        2
 70
     0
 43
0.15
 10
-14.08700793219899
 20
232.3999181389
 10
-14.08700793219899
 20
232.4999198317
  0
LWPOLYLINE
  5
C2
330
44
100
AcDbEntity
  8
0
  6
Continuous
 62
     7
100
AcDbPolyline
 90
        2
 70
     0
 43
0.15
 10
-17.70387854589899
 20
232.4999198317
 10
-17.70387854589899
 20
232.3999181389
  0
LWPOLYLINE
  5
C3
330
44
100
AcDbEntity
  8
0
  6
Continuous
 62
     7
100
AcDbPolyline
 90
        2
 70
     0
 43
0.15
 10
-14.08700793219899
 20
232.3999181389
 10
-17.70387854589899
 20
232.3999181389
  0
LWPOLYLINE
  5
C4
330
44
100
AcDbEntity
  8
0
  6
Continuous
 62
     7
100
AcDbPolyline
 90
        2
 70
     0
 43
0.15
 10
-0.935282643699
 20
228.4999266266
 10
0.56471667090102
 20
228.4999266266
  0
LWPOLYLINE
  5
C5
330
44
100
AcDbEntity
  8
0
  6
Continuous
 62
     7
100
AcDbPolyline
 90
        2
 70
     0
 43
0.15
 10
-15.71866645639901
 20
232.3999181389
 10
-15.71866645639901
 20
232.4999198317
  0
LWPOLYLINE
  5
C6
330
44
100
AcDbEntity
  8
0
  6
Continuous
 62
     7
100
AcDbPolyline
 90
        2
 70
     0
 43
0.15
 10
-14.08700793219899
 20
232.4999198317
 10
-15.71866645639901
 20
232.4999198317
  0
LWPOLYLINE
  5
C7
330
44
100
AcDbEntity
  8
0
  6
Continuous
 62
     7
100
AcDbPolyline
 90
        2
 70
     0
 43
0.15
 10
-15.71866645639901
 20
232.4999198317
 10
-17.70387854589899
 20
232.4999198317
  0
LWPOLYLINE
  5
C8
330
44
100
AcDbEntity
  8
0
  6
Continuous
 62
     7
100
AcDbPolyline
 90
        2
 70
     0
 43
0.15
 10
8.064716968901
 20
229.9999222159
 10
0.56471667090102
 20
229.9999222159
  0
LWPOLYLINE
  5
C9
330
44
100
AcDbEntity
  8
0
  6
Continuous
 62
     7
100
AcDbPolyline
 90
        2
 70
     0
 43
0.15
 10
-1.93528280759898
 20
232.4999198317
 10
10.56471644730101
 20
232.4999198317
  0
LWPOLYLINE
  5
CA
330
44
100
AcDbEntity
  8
0
  6
Continuous
 62
     7
100
AcDbPolyline
 90
        2
 70
     0
 43
0.15
 10
8.064716968901
 20
228.4999266266
 10
0.56471667090102
 20
228.4999266266
  0
LWPOLYLINE
  5
CB
330
44
100
AcDbEntity
  8
0
  6
Continuous
 62
     7
100
AcDbPolyline
 90
        2
 70
     0
 43
0.15
 10
-39.935283448299
 20
229.9999222159
 10
-47.43528374639899
 20
229.9999222159
  0
LWPOLYLINE
  5
CC
330
44
100
AcDbEntity
  8
0
  6
Continuous
 62
     7
100
AcDbPolyline
 90
        2
 70
     0
 43
0.15
 10
-49.93528322479898
 20
232.4999198317
 10
-37.43528210719899
 20
232.4999198317
  0
LWPOLYLINE
  5
CD
330
44
100
AcDbEntity
  8
0
  6
Continuous
 62
     7
100
AcDbPolyline
 90
        2
 70
     0
 43
0.15
 10
-39.935283448299
 20
228.4999266266
 10
-47.43528374639899
 20
228.4999266266
  0
LWPOLYLINE
  5
CE
330
44
100
AcDbEntity
  8
0
  6
Continuous
 62
     7
100
AcDbPolyline
 90
        2
 70
     0
 43
0.15
 10
-11.18528292679901
 20
230.9999242425
 10
-11.18528292679901
 20
229.9999222159
  0
LWPOLYLINE
  5
CF
330
44
100
AcDbEntity
  8
0
  6
Continuous
 62
     7
100
AcDbPolyline
 90
        2
 70
     0
 43
0.15
 10
-28.18528291939899
 20
229.9999222159
 10
-11.18528292679901
 20
229.9999222159
  0
LWPOLYLINE
  5
D0
330
44
100
AcDbEntity
  8
0
  6
Continuous
 62
     7
100
AcDbPolyline
 90
        2
 70
     0
 43
0.15
 10
-28.18528291939899
 20
229.9999222159
 10
-28.18528291939899
 20
230.9999242425
  0
LWPOLYLINE
  5
D1
330
44
100
AcDbEntity
  8
0
  6
Continuous
 62
     7
100
AcDbPolyline
 90
        2
 70
     0
 43
0.15
 10
-11.18528292679901
 20
228.4999266266
 10
-11.18528292679901
 20
229.9999222159
  0
LWPOLYLINE
  5
D2
330
44
100
AcDbEntity
  8
0
  6
Continuous
 62
     7
100
AcDbPolyline
 90
        2
 70
     0
 43
0.15
 10
-28.18528291939899
 20
228.4999266266
 10
-28.18528291939899
 20
229.9999222159
  0
LWPOLYLINE
  5
D3
330
44
100
AcDbEntity
  8
0
  6
Continuous
 62
     7
100
AcDbPolyline
 90
        2
 70
     0
 43
0.15
 10
-28.18528291939899
 20
228.4999266266
 10
-11.18528292679901
 20
228.4999266266
  0
LWPOLYLINE
  5
D4
330
44
100
AcDbEntity
  8
0
  6
Continuous
 62
     7
100
AcDbPolyline
 90
        2
 70
     0
 43
0.15
 10
-11.18528292679901
 20
228.4999266266
 10
-5.93528346329899
 20
228.4999266266
  0
LWPOLYLINE
  5
D5
330
44
100
AcDbEntity
  8
0
  6
Continuous
 62
     7
100
AcDbPolyline
 90
        2
 70
     0
 43
0.15
 10
-33.43528331419898
 20
228.4999266266
 10
-28.18528291939899
 20
228.4999266266
  0
LWPOLYLINE
  5
D6
330
44
100
AcDbEntity
  8
0
  6
Continuous
 62
     7
100
AcDbPolyline
 90
        2
 70
     0
 43
0.15
 10
24.06471772880099
 20
229.9999222159
 10
16.56471743080101
 20
229.9999222159
  0
LWPOLYLINE
  5
D7
330
44
100
AcDbEntity
  8
0
  6
Continuous
 62
     7
100
AcDbPolyline
 90
        2
 70
     0
 43
0.15
 10
14.06471608970099
 20
232.4999198317
 10
26.56471534470103
 20
232.4999198317
  0
LWPOLYLINE
  5
D8
330
44
100
AcDbEntity
  8
0
  6
Continuous
 62
     7
100
AcDbPolyline
 90
        2
 70
     0
 43
0.15
 10
24.06471772880099
 20
228.4999266266
 10
16.56471743080101
 20
228.4999266266
  0
LWPOLYLINE
  5
D9
330
44
100
AcDbEntity
  8
0
  6
Continuous
 62
     7
100
AcDbPolyline
 90
        2
 70
     0
 43
0.15
 10
-55.93528420829898
 20
229.9999222159
 10
-63.43528450629898
 20
229.9999222159
  0
LWPOLYLINE
  5
DA
330
44
100
AcDbEntity
  8
0
  6
Continuous
 62
     7
100
AcDbPolyline
 90
        2
 70
     0
 43
0.15
 10
-55.93528420829898
 20
228.4999266266
 10
-63.43528450629898
 20
228.4999266266
  0
LWPOLYLINE
  5
DB
330
44
100
AcDbEntity
  8
0
  6
Continuous
 62
     7
100
AcDbPolyline
 90
        2
 70
     0
 43
0.15
 10
-65.93528212209898
 20
232.4999198317
 10
-53.43528286719899
 20
232.4999198317
  0
LWPOLYLINE
  5
DC
330
44
100
AcDbEntity
  8
0
  6
Continuous
 62
     7
100
AcDbPolyline
 90
        2
 70
     0
 43
0.15
 10
9.564716283401
 20
228.4999266266
 10
10.06471729670102
 20
228.4999266266
  0
LWPOLYLINE
  5
DD
330
44
100
AcDbEntity
  8
0
  6
Continuous
 62
     7
100
AcDbPolyline
 90
        2
 70
     0
 43
0.15
 10
-38.43528227119899
 20
228.4999266266
 10
-33.43528331419898
 20
228.4999266266
  0
LWPOLYLINE
  5
DE
330
44
100
AcDbEntity
  8
0
  6
Continuous
 62
     7
100
AcDbPolyline
 90
        2
 70
     0
 43
0.15
 10
-5.93528346329899
 20
228.4999266266
 10
-0.935282643699
 20
228.4999266266
  0
LWPOLYLINE
  5
DF
330
44
100
AcDbEntity
  8
0
  6
Continuous
 62
     7
100
AcDbPolyline
 90
        2
 70
     0
 43
0.15
 10
-49.435282211599
 20
228.4999266266
 10
-48.935283060899
 20
228.4999266266
  0
LWPOLYLINE
  5
E0
330
44
100
AcDbEntity
  8
0
  6
Continuous
 62
     7
100
AcDbPolyline
 90
        2
 70
     0
 43
0.15
 10
40.06471662620101
 20
229.9999222159
 10
32.56471632810099
 20
229.9999222159
  0
LWPOLYLINE
  5
E1
330
44
100
AcDbEntity
  8
0
  6
Continuous
 62
     7
100
AcDbPolyline
 90
        2
 70
     0
 43
0.15
 10
30.06471871230099
 20
232.4999198317
 10
42.56471796730102
 20
232.4999198317
  0
LWPOLYLINE
  5
E2
330
44
100
AcDbEntity
  8
0
  6
Continuous
 62
     7
100
AcDbPolyline
 90
        2
 70
     0
 43
0.15
 10
40.06471662620101
 20
228.4999266266
 10
32.56471632810099
 20
228.4999266266
  0
LWPOLYLINE
  5
E3
330
44
100
AcDbEntity
  8
0
  6
Continuous
 62
     7
100
AcDbPolyline
 90
        2
 70
     0
 43
0.15
 10
-71.93528310559898
 20
229.9999222159
 10
-79.43528340359899
 20
229.9999222159
  0
LWPOLYLINE
  5
E4
330
44
100
AcDbEntity
  8
0
  6
Continuous
 62
     7
100
AcDbPolyline
 90
        2
 70
     0
 43
0.15
 10
-81.935284744699
 20
232.4999198317
 10
-69.435281764499
 20
232.4999198317
  0
LWPOLYLINE
  5
E5
330
44
100
AcDbEntity
  8
0
  6
Continuous
 62
     7
100
AcDbPolyline
 90
        2
 70
     0
 43
0.15
 10
-71.93528310559898
 20
228.4999266266
 10
-79.43528340359899
 20
228.4999266266
  0
LWPOLYLINE
  5
E6
330
44
100
AcDbEntity
  8
0
  6
Continuous
 62
     7
100
AcDbPolyline
 90
        2
 70
     0
 43
0.15
 10
25.564717043401
 20
228.4999266266
 10
26.064718056701
 20
228.4999266266
  0
LWPOLYLINE
  5
E7
330
44
100
AcDbEntity
  8
0
  6
Continuous
 62
     7
100
AcDbPolyline
 90
        2
 70
     0
 43
0.15
 10
-54.43528489379898
 20
228.4999266266
 10
-49.435282211599
 20
228.4999266266
  0
LWPOLYLINE
  5
E8
330
44
100
AcDbEntity
  8
0
  6
Continuous
 62
     7
100
AcDbPolyline
 90
        2
 70
     0
 43
0.15
 10
10.06471729670102
 20
228.4999266266
 10
15.06471811630101
 20
228.4999266266
  0
LWPOLYLINE
  5
E9
330
44
100
AcDbEntity
  8
0
  6
Continuous
 62
     7
100
AcDbPolyline
 90
        2
 70
     0
 43
0.15
 10
-65.435284834199
 20
228.4999266266
 10
-64.935283820899
 20
228.4999266266
  0
LWPOLYLINE
  5
EA
330
44
100
AcDbEntity
  8
0
  6
Continuous
 62
     7
100
AcDbPolyline
 90
        2
 70
     0
 43
0.15
 10
-87.18528048299899
 20
229.9999222159
 10
-85.68528489379898
 20
229.9999222159
  0
LWPOLYLINE
  5
EB
330
44
100
AcDbEntity
  8
0
  6
Continuous
 62
     7
100
AcDbPolyline
 90
        2
 70
     0
 43
0.15
 10
-85.68528489379898
 20
230.9999242425
 10
-85.68528489379898
 20
229.9999222159
  0
LWPOLYLINE
  5
EC
330
44
100
AcDbEntity
  8
0
  6
Continuous
 62
     7
100
AcDbPolyline
 90
        2
 70
     0
 43
0.15
 10
46.31471439100102
 20
229.9999222159
 10
46.31471439100102
 20
227.4999246001
  0
LWPOLYLINE
  5
ED
330
44
100
AcDbEntity
  8
0
  6
Continuous
 62
     7
100
AcDbPolyline
 90
        2
 70
     0
 43
0.15
 10
46.31471439100102
 20
229.9999222159
 10
47.81471743080101
 20
229.9999222159
  0
LWPOLYLINE
  5
EE
330
44
100
AcDbEntity
  8
0
  6
Continuous
 62
     7
100
AcDbPolyline
 90
        2
 70
     0
 43
0.15
 10
-85.68528489379898
 20
227.4999246001
 10
-85.68528489379898
 20
229.9999222159
  0
LWPOLYLINE
  5
EF
330
44
100
AcDbEntity
  8
0
  6
Continuous
 62
     7
100
AcDbPolyline
 90
        2
 70
     0
 43
0.15
 10
46.31471439100102
 20
230.9999242425
 10
46.31471439100102
 20
229.9999222159
  0
LWPOLYLINE
  5
F0
330
44
100
AcDbEntity
  8
0
  6
Continuous
 62
     7
100
AcDbPolyline
 90
        2
 70
     0
 43
0.15
 10
45.31471981500101
 20
227.4999246001
 10
37.31471850370099
 20
227.4999246001
  0
LWPOLYLINE
  5
F1
330
44
100
AcDbEntity
  8
0
  6
Continuous
 62
     7
100
AcDbPolyline
 90
        2
 70
     0
 43
0.15
 10
33.81471513600098
 20
227.4999246001
 10
9.81471679010102
 20
227.4999246001
  0
LWPOLYLINE
  5
F2
330
44
100
AcDbEntity
  8
0
  6
Continuous
 62
     7
100
AcDbPolyline
 90
        2
 70
     0
 43
0.15
 10
6.314717147701
 20
227.4999246001
 10
-45.685283925199
 20
227.4999246001
  0
LWPOLYLINE
  5
F3
330
44
100
AcDbEntity
  8
0
  6
Continuous
 62
     7
100
AcDbPolyline
 90
        2
 70
     0
 43
0.15
 10
-49.18528356759899
 20
227.4999246001
 10
-73.18528191349898
 20
227.4999246001
  0
LWPOLYLINE
  5
F4
330
44
100
AcDbEntity
  8
0
  6
Continuous
 62
     7
100
AcDbPolyline
 90
        2
 70
     0
 43
0.15
 10
-76.685281555899
 20
227.4999246001
 10
-84.68528286719899
 20
227.4999246001
  0
LWPOLYLINE
  5
F5
330
44
100
AcDbEntity
  8
0
  6
Continuous
 62
     7
100
AcDbPolyline
 90
        2
 70
     0
 43
0.15
 10
-98.18528042339898
 20
159.9999219179
 10
-98.18528042339898
 20
142.4999199807
  0
LWPOLYLINE
  5
F6
330
44
100
AcDbEntity
  8
0
  6
Continuous
 62
     7
100
AcDbPolyline
 90
        2
 70
     0
 43
0.15
 10
58.81471737120103
 20
142.4999199807
 10
58.81471737120103
 20
159.9999219179
  0
LWPOLYLINE
  5
F7
330
44
100
AcDbEntity
  8
0
  6
Continuous
 62
     7
100
AcDbPolyline
 90
        2
 70
     0
 43
0.15
 10
-76.173087667499
 20
139.9999186396
 10
-64.89981533189899
 20
139.9999186396
  0
LWPOLYLINE
  5
F8
330
44
100
AcDbEntity
  8
0
  6
Continuous
 62
     7
100
AcDbPolyline
 90
        2
 70
     0
 43
0.15
 10
-48.355156641299
 20
139.9999186396
 10
-28.29861649479901
 20
139.9999186396
  0
LWPOLYLINE
  5
F9
330
44
100
AcDbEntity
  8
0
  6
Continuous
 62
     7
100
AcDbPolyline
 90
        2
 70
     0
 43
0.15
 10
-11.07194935139899
 20
139.9999186396
 10
8.98458986380101
 20
139.9999186396
  0
LWPOLYLINE
  5
FA
330
44
100
AcDbEntity
  8
0
  6
Continuous
 62
     7
100
AcDbPolyline
 90
        2
 70
     0
 43
0.15
 10
25.52924855450101
 20
139.9999186396
 10
36.80252089000101
 20
139.9999186396
  0
LWPOLYLINE
  5
FB
330
44
100
AcDbEntity
  8
0
  6
Continuous
 62
     7
100
AcDbPolyline
 90
        2
 70
     0
 43
0.15
 10
56.31471975540103
 20
139.9999186396
 10
58.81471737120103
 20
142.4999199807
  0
LWPOLYLINE
  5
FC
330
44
100
AcDbEntity
  8
0
  6
Continuous
 62
     7
100
AcDbPolyline
 90
        2
 70
     0
 43
0.15
 10
-98.18528042339898
 20
142.4999199807
 10
-95.68528280759898
 20
139.9999186396
  0
LWPOLYLINE
  5
FD
330
44
100
AcDbEntity
  8
0
  6
Continuous
 62
     7
100
AcDbPolyline
 90
        2
 70
     0
 43
0.15
 10
-93.14415053629898
 20
158.9999198913
 10
-95.68528280759898
 20
158.9999198913
  0
LWPOLYLINE
  5
FE
330
44
100
AcDbEntity
  8
0
  6
Continuous
 62
     7
100
AcDbPolyline
 90
        2
 70
     0
 43
0.15
 10
-92.144155960299
 20
157.9999178648
 10
-92.144155960299
 20
142.4999199807
  0
LWPOLYLINE
  5
FF
330
44
100
AcDbEntity
  8
0
  6
Continuous
 62
     7
100
AcDbPolyline
 90
        2
 70
     0
 43
0.15
 10
-88.185282509599
 20
139.9999186396
 10
-95.68528280759898
 20
139.9999186396
  0
LWPOLYLINE
  5
100
330
44
100
AcDbEntity
  8
0
  6
Continuous
 62
     7
100
AcDbPolyline
 90
        2
 70
     0
 43
0.15
 10
-88.185282509599
 20
142.4999199807
 10
-88.185282509599
 20
139.9999186396
  0
LWPOLYLINE
  5
101
330
44
100
AcDbEntity
  8
0
  6
Continuous
 62
     7
100
AcDbPolyline
 90
        2
 70
     0
 43
0.15
 10
-96.685284834199
 20
159.9999219179
 10
-98.18528042339898
 20
159.9999219179
  0
LWPOLYLINE
  5
102
330
44
100
AcDbEntity
  8
0
  6
Continuous
 62
     7
100
AcDbPolyline
 90
        2
 70
     0
 43
0.15
 10
-88.185282509599
 20
142.4999199807
 10
-92.144155960299
 20
142.4999199807
  0
LWPOLYLINE
  5
103
330
44
100
AcDbEntity
  8
0
  6
Continuous
 62
     7
100
AcDbPolyline
 90
        2
 70
     0
 43
0.15
 10
48.814719457401
 20
139.9999186396
 10
48.814719457401
 20
142.4999199807
  0
LWPOLYLINE
  5
104
330
44
100
AcDbEntity
  8
0
  6
Continuous
 62
     7
100
AcDbPolyline
 90
        2
 70
     0
 43
0.15
 10
56.31471975540103
 20
158.9999198913
 10
53.77358748410103
 20
158.9999198913
  0
LWPOLYLINE
  5
105
330
44
100
AcDbEntity
  8
0
  6
Continuous
 62
     7
100
AcDbPolyline
 90
        2
 70
     0
 43
0.15
 10
52.77358545760103
 20
142.4999199807
 10
52.77358545760103
 20
157.9999178648
  0
LWPOLYLINE
  5
106
330
44
100
AcDbEntity
  8
0
  6
Continuous
 62
     7
100
AcDbPolyline
 90
        2
 70
     0
 43
0.15
 10
56.31471975540103
 20
139.9999186396
 10
48.814719457401
 20
139.9999186396
  0
LWPOLYLINE
  5
107
330
44
100
AcDbEntity
  8
0
  6
Continuous
 62
     7
100
AcDbPolyline
 90
        2
 70
     0
 43
0.15
 10
58.81471737120103
 20
159.9999219179
 10
57.31471433140104
 20
159.9999219179
  0
LWPOLYLINE
  5
108
330
44
100
AcDbEntity
  8
0
  6
Continuous
 62
     7
100
AcDbPolyline
 90
        2
 70
     0
 43
0.15
 10
52.77358545760103
 20
142.4999199807
 10
48.814719457401
 20
142.4999199807
  0
LWPOLYLINE
  5
109
330
44
100
AcDbEntity
  8
0
  6
Continuous
 62
     7
100
AcDbPolyline
 90
        2
 70
     0
 43
0.15
 10
-96.685284834199
 20
159.9999219179
 10
-90.460540812299
 20
159.9999219179
  0
LWPOLYLINE
  5
10A
330
44
100
AcDbEntity
  8
0
  6
Continuous
 62
     7
100
AcDbPolyline
 90
        2
 70
     0
 43
0.15
 10
51.08997030950098
 20
159.9999219179
 10
57.31471433140104
 20
159.9999219179
  0
LWPOLYLINE
  5
10B
330
44
100
AcDbEntity
  8
0
  6
Continuous
 62
     7
100
AcDbPolyline
 90
        2
 70
     0
 43
0.15
 10
42.13745697240103
 20
142.4999199807
 10
42.13745697240103
 20
139.9999186396
  0
LWPOLYLINE
  5
10C
330
44
100
AcDbEntity
  8
0
  6
Continuous
 62
     7
100
AcDbPolyline
 90
        2
 70
     0
 43
0.15
 10
42.13745697240103
 20
142.4999199807
 10
42.86767347550102
 20
142.4999199807
  0
LWPOLYLINE
  5
10D
330
44
100
AcDbEntity
  8
0
  6
Continuous
 62
     7
100
AcDbPolyline
 90
        2
 70
     0
 43
0.15
 10
45.55251999590098
 20
142.4999199807
 10
45.55251999590098
 20
139.9999186396
  0
LWPOLYLINE
  5
10E
330
44
100
AcDbEntity
  8
0
  6
Continuous
 62
     7
100
AcDbPolyline
 90
        2
 70
     0
 43
0.15
 10
42.13745697240103
 20
139.9999186396
 10
45.55251999590098
 20
139.9999186396
  0
LWPOLYLINE
  5
10F
330
44
100
AcDbEntity
  8
0
  6
Continuous
 62
     7
100
AcDbPolyline
 90
        2
 70
     0
 43
0.15
 10
-84.92308304809899
 20
142.4999199807
 10
-84.92308304809899
 20
139.9999186396
  0
LWPOLYLINE
  5
110
330
44
100
AcDbEntity
  8
0
  6
Continuous
 62
     7
100
AcDbPolyline
 90
        2
 70
     0
 43
0.15
 10
-81.50802374979898
 20
142.4999199807
 10
-81.50802374979898
 20
139.9999186396
  0
LWPOLYLINE
  5
111
330
44
100
AcDbEntity
  8
0
  6
Continuous
 62
     7
100
AcDbPolyline
 90
        2
 70
     0
 43
0.15
 10
-84.92308304809899
 20
139.9999186396
 10
-81.50802374979898
 20
139.9999186396
  0
LWPOLYLINE
  5
112
330
44
100
AcDbEntity
  8
0
  6
Continuous
 62
     7
100
AcDbPolyline
 90
        2
 70
     0
 43
0.15
 10
-82.23824025299899
 20
142.4999199807
 10
-81.50802374979898
 20
142.4999199807
  0
LWPOLYLINE
  5
113
330
44
100
AcDbEntity
  8
0
  6
Continuous
 62
     7
100
AcDbPolyline
 90
        2
 70
     0
 43
0.15
 10
48.598138530001
 20
139.9999186396
 10
48.598138530001
 20
142.4999199807
  0
LWPOLYLINE
  5
114
330
44
100
AcDbEntity
  8
0
  6
Continuous
 62
     7
100
AcDbPolyline
 90
        2
 70
     0
 43
0.15
 10
45.55251999590098
 20
139.9999186396
 10
48.598138530001
 20
139.9999186396
  0
LWPOLYLINE
  5
115
330
44
100
AcDbEntity
  8
0
  6
Continuous
 62
     7
100
AcDbPolyline
 90
        2
 70
     0
 43
0.15
 10
-87.968701582199
 20
142.4999199807
 10
-87.968701582199
 20
139.9999186396
  0
LWPOLYLINE
  5
116
330
44
100
AcDbEntity
  8
0
  6
Continuous
 62
     7
100
AcDbPolyline
 90
        2
 70
     0
 43
0.15
 10
-87.968701582199
 20
139.9999186396
 10
-84.92308304809899
 20
139.9999186396
  0
LWPOLYLINE
  5
117
330
44
100
AcDbEntity
  8
0
  6
Continuous
 62
     7
100
AcDbPolyline
 90
        2
 70
     0
 43
0.15
 10
37.13745801540102
 20
142.4999199807
 10
37.13745801540102
 20
139.9999186396
  0
LWPOLYLINE
  5
118
330
44
100
AcDbEntity
  8
0
  6
Continuous
 62
     7
100
AcDbPolyline
 90
        2
 70
     0
 43
0.15
 10
37.13745801540102
 20
142.4999199807
 10
42.13745697240103
 20
142.4999199807
  0
LWPOLYLINE
  5
119
330
44
100
AcDbEntity
  8
0
  6
Continuous
 62
     7
100
AcDbPolyline
 90
        2
 70
     0
 43
0.15
 10
37.13745801540102
 20
139.9999186396
 10
42.13745697240103
 20
139.9999186396
  0
LWPOLYLINE
  5
11A
330
44
100
AcDbEntity
  8
0
  6
Continuous
 62
     7
100
AcDbPolyline
 90
        2
 70
     0
 43
0.15
 10
-76.508024792899
 20
142.4999199807
 10
-76.508024792899
 20
139.9999186396
  0
LWPOLYLINE
  5
11B
330
44
100
AcDbEntity
  8
0
  6
Continuous
 62
     7
100
AcDbPolyline
 90
        2
 70
     0
 43
0.15
 10
-81.50802374979898
 20
139.9999186396
 10
-76.508024792899
 20
139.9999186396
  0
LWPOLYLINE
  5
11C
330
44
100
AcDbEntity
  8
0
  6
Continuous
 62
     7
100
AcDbPolyline
 90
        2
 70
     0
 43
0.15
 10
-81.50802374979898
 20
142.4999199807
 10
-76.508024792899
 20
142.4999199807
  0
LWPOLYLINE
  5
11D
330
44
100
AcDbEntity
  8
0
  6
Continuous
 62
     7
100
AcDbPolyline
 90
        2
 70
     0
 43
0.15
 10
48.814719457401
 20
139.9999186396
 10
48.598138530001
 20
139.9999186396
  0
LWPOLYLINE
  5
11E
330
44
100
AcDbEntity
  8
0
  6
Continuous
 62
     7
100
AcDbPolyline
 90
        2
 70
     0
 43
0.15
 10
-87.968701582199
 20
139.9999186396
 10
-88.185282509599
 20
139.9999186396
  0
LWPOLYLINE
  5
11F
330
44
100
AcDbEntity
  8
0
  6
Continuous
 62
     7
100
AcDbPolyline
 90
        2
 70
     0
 43
0.15
 10
36.81213213900099
 20
142.4999199807
 10
37.13745801540102
 20
142.4999199807
  0
LWPOLYLINE
  5
120
330
44
100
AcDbEntity
  8
0
  6
Continuous
 62
     7
100
AcDbPolyline
 90
        2
 70
     0
 43
0.15
 10
36.80252089000101
 20
139.9999186396
 10
37.13745801540102
 20
139.9999186396
  0
LWPOLYLINE
  5
121
330
44
100
AcDbEntity
  8
0
  6
Continuous
 62
     7
100
AcDbPolyline
 90
        2
 70
     0
 43
0.15
 10
-76.508024792899
 20
139.9999186396
 10
-76.173087667499
 20
139.9999186396
  0
LWPOLYLINE
  5
122
330
44
100
AcDbEntity
  8
0
  6
Continuous
 62
     7
100
AcDbPolyline
 90
        2
 70
     0
 43
0.15
 10
-76.508024792899
 20
142.4999199807
 10
-76.182695191199
 20
142.4999199807
  0
LWPOLYLINE
  5
123
330
44
100
AcDbEntity
  8
0
  6
Continuous
 62
     7
100
AcDbPolyline
 90
        2
 70
     0
 43
0.15
 10
25.52924855450101
 20
142.4999199807
 10
25.52924855450101
 20
139.9999186396
  0
LWPOLYLINE
  5
124
330
44
100
AcDbEntity
  8
0
  6
Continuous
 62
     7
100
AcDbPolyline
 90
        2
 70
     0
 43
0.15
 10
-64.89981533189899
 20
139.9999186396
 10
-64.89981533189899
 20
142.4999199807
  0
LWPOLYLINE
  5
125
330
44
100
AcDbEntity
  8
0
  6
Continuous
 62
     7
100
AcDbPolyline
 90
        2
 70
     0
 43
0.15
 10
18.894845534301
 20
142.4999199807
 10
18.894845534301
 20
139.9999186396
  0
LWPOLYLINE
  5
126
330
44
100
AcDbEntity
  8
0
  6
Continuous
 62
     7
100
AcDbPolyline
 90
        2
 70
     0
 43
0.15
 10
18.894845534301
 20
142.4999199807
 10
19.92585687730099
 20
142.4999199807
  0
LWPOLYLINE
  5
127
330
44
100
AcDbEntity
  8
0
  6
Continuous
 62
     7
100
AcDbPolyline
 90
        2
 70
     0
 43
0.15
 10
22.309908557901
 20
142.4999199807
 10
22.309908557901
 20
139.9999186396
  0
LWPOLYLINE
  5
128
330
44
100
AcDbEntity
  8
0
  6
Continuous
 62
     7
100
AcDbPolyline
 90
        2
 70
     0
 43
0.15
 10
18.894845534301
 20
139.9999186396
 10
22.309908557901
 20
139.9999186396
  0
LWPOLYLINE
  5
129
330
44
100
AcDbEntity
  8
0
  6
Continuous
 62
     7
100
AcDbPolyline
 90
        2
 70
     0
 43
0.15
 10
-61.680475335399
 20
142.4999199807
 10
-61.680475335399
 20
139.9999186396
  0
LWPOLYLINE
  5
12A
330
44
100
AcDbEntity
  8
0
  6
Continuous
 62
     7
100
AcDbPolyline
 90
        2
 70
     0
 43
0.15
 10
-58.26540858649898
 20
142.4999199807
 10
-58.26540858649898
 20
139.9999186396
  0
LWPOLYLINE
  5
12B
330
44
100
AcDbEntity
  8
0
  6
Continuous
 62
     7
100
AcDbPolyline
 90
        2
 70
     0
 43
0.15
 10
-61.680475335399
 20
139.9999186396
 10
-58.26540858649898
 20
139.9999186396
  0
LWPOLYLINE
  5
12C
330
44
100
AcDbEntity
  8
0
  6
Continuous
 62
     7
100
AcDbPolyline
 90
        2
 70
     0
 43
0.15
 10
-59.296419929499
 20
142.4999199807
 10
-58.26540858649898
 20
142.4999199807
  0
LWPOLYLINE
  5
12D
330
44
100
AcDbEntity
  8
0
  6
Continuous
 62
     7
100
AcDbPolyline
 90
        2
 70
     0
 43
0.15
 10
10.23458867170101
 20
142.4999199807
 10
10.23458867170101
 20
139.9999186396
  0
LWPOLYLINE
  5
12E
330
44
100
AcDbEntity
  8
0
  6
Continuous
 62
     7
100
AcDbPolyline
 90
        2
 70
     0
 43
0.15
 10
10.23458867170101
 20
142.4999199807
 10
18.894845534301
 20
142.4999199807
  0
LWPOLYLINE
  5
12F
330
44
100
AcDbEntity
  8
0
  6
Continuous
 62
     7
100
AcDbPolyline
 90
        2
 70
     0
 43
0.15
 10
10.23458867170101
 20
139.9999186396
 10
18.894845534301
 20
139.9999186396
  0
LWPOLYLINE
  5
130
330
44
100
AcDbEntity
  8
0
  6
Continuous
 62
     7
100
AcDbPolyline
 90
        2
 70
     0
 43
0.15
 10
-49.605155449199
 20
142.4999199807
 10
-49.605155449199
 20
139.9999186396
  0
LWPOLYLINE
  5
131
330
44
100
AcDbEntity
  8
0
  6
Continuous
 62
     7
100
AcDbPolyline
 90
        2
 70
     0
 43
0.15
 10
-58.26540858649898
 20
139.9999186396
 10
-49.605155449199
 20
139.9999186396
  0
LWPOLYLINE
  5
132
330
44
100
AcDbEntity
  8
0
  6
Continuous
 62
     7
100
AcDbPolyline
 90
        2
 70
     0
 43
0.15
 10
-58.26540858649898
 20
142.4999199807
 10
-49.605155449199
 20
142.4999199807
  0
LWPOLYLINE
  5
133
330
44
100
AcDbEntity
  8
0
  6
Continuous
 62
     7
100
AcDbPolyline
 90
        2
 70
     0
 43
0.15
 10
24.06829400750098
 20
139.9999186396
 10
24.06829400750098
 20
142.4999199807
  0
LWPOLYLINE
  5
134
330
44
100
AcDbEntity
  8
0
  6
Continuous
 62
     7
100
AcDbPolyline
 90
        2
 70
     0
 43
0.15
 10
22.309908557901
 20
139.9999186396
 10
24.06829400750098
 20
139.9999186396
  0
LWPOLYLINE
  5
135
330
44
100
AcDbEntity
  8
0
  6
Continuous
 62
     7
100
AcDbPolyline
 90
        2
 70
     0
 43
0.15
 10
-63.43886078499898
 20
142.4999199807
 10
-63.43886078499898
 20
139.9999186396
  0
LWPOLYLINE
  5
136
330
44
100
AcDbEntity
  8
0
  6
Continuous
 62
     7
100
AcDbPolyline
 90
        2
 70
     0
 43
0.15
 10
-63.43886078499898
 20
139.9999186396
 10
-61.680475335399
 20
139.9999186396
  0
LWPOLYLINE
  5
137
330
44
100
AcDbEntity
  8
0
  6
Continuous
 62
     7
100
AcDbPolyline
 90
        2
 70
     0
 43
0.15
 10
25.52924855450101
 20
139.9999186396
 10
24.06829400750098
 20
139.9999186396
  0
LWPOLYLINE
  5
138
330
44
100
AcDbEntity
  8
0
  6
Continuous
 62
     7
100
AcDbPolyline
 90
        2
 70
     0
 43
0.15
 10
-63.43886078499898
 20
139.9999186396
 10
-64.89981533189899
 20
139.9999186396
  0
LWPOLYLINE
  5
139
330
44
100
AcDbEntity
  8
0
  6
Continuous
 62
     7
100
AcDbPolyline
 90
        2
 70
     0
 43
0.15
 10
9.43734302020101
 20
142.4999199807
 10
10.23458867170101
 20
142.4999199807
  0
LWPOLYLINE
  5
13A
330
44
100
AcDbEntity
  8
0
  6
Continuous
 62
     7
100
AcDbPolyline
 90
        2
 70
     0
 43
0.15
 10
8.98458986380101
 20
139.9999186396
 10
10.23458867170101
 20
139.9999186396
  0
LWPOLYLINE
  5
13B
330
44
100
AcDbEntity
  8
0
  6
Continuous
 62
     7
100
AcDbPolyline
 90
        2
 70
     0
 43
0.15
 10
-49.605155449199
 20
139.9999186396
 10
-48.355156641299
 20
139.9999186396
  0
LWPOLYLINE
  5
13C
330
44
100
AcDbEntity
  8
0
  6
Continuous
 62
     7
100
AcDbPolyline
 90
        2
 70
     0
 43
0.15
 10
-49.605155449199
 20
142.4999199807
 10
-48.80790979769898
 20
142.4999199807
  0
LWPOLYLINE
  5
13D
330
44
100
AcDbEntity
  8
0
  6
Continuous
 62
     7
100
AcDbPolyline
 90
        2
 70
     0
 43
0.15
 10
-11.07194935139899
 20
142.4999199807
 10
-11.07194935139899
 20
139.9999186396
  0
LWPOLYLINE
  5
13E
330
44
100
AcDbEntity
  8
0
  6
Continuous
 62
     7
100
AcDbPolyline
 90
        2
 70
     0
 43
0.15
 10
-28.29861649479901
 20
139.9999186396
 10
-28.29861649479901
 20
142.4999199807
  0
LWPOLYLINE
  5
13F
330
44
100
AcDbEntity
  8
0
  6
Continuous
 62
     7
100
AcDbPolyline
 90
        2
 70
     0
 43
0.15
 10
-24.685283044199
 20
142.4999199807
 10
-24.685283044199
 20
139.9999186396
  0
LWPOLYLINE
  5
140
330
44
100
AcDbEntity
  8
0
  6
Continuous
 62
     7
100
AcDbPolyline
 90
        2
 70
     0
 43
0.15
 10
-14.685283034799
 20
142.4999199807
 10
-14.685283034799
 20
139.9999186396
  0
LWPOLYLINE
  5
141
330
44
100
AcDbEntity
  8
0
  6
Continuous
 62
     7
100
AcDbPolyline
 90
        2
 70
     0
 43
0.15
 10
-24.685283044199
 20
139.9999186396
 10
-14.685283034799
 20
139.9999186396
  0
LWPOLYLINE
  5
142
330
44
100
AcDbEntity
  8
0
  6
Continuous
 62
     7
100
AcDbPolyline
 90
        2
 70
     0
 43
0.15
 10
-24.685283044199
 20
142.4999199807
 10
-14.685283034799
 20
142.4999199807
  0
LWPOLYLINE
  5
143
330
44
100
AcDbEntity
  8
0
  6
Continuous
 62
     7
100
AcDbPolyline
 90
        2
 70
     0
 43
0.15
 10
-12.18528309069899
 20
142.4999199807
 10
-12.18528309069899
 20
139.9999186396
  0
LWPOLYLINE
  5
144
330
44
100
AcDbEntity
  8
0
  6
Continuous
 62
     7
100
AcDbPolyline
 90
        2
 70
     0
 43
0.15
 10
-14.685283034799
 20
139.9999186396
 10
-12.18528309069899
 20
139.9999186396
  0
LWPOLYLINE
  5
145
330
44
100
AcDbEntity
  8
0
  6
Continuous
 62
     7
100
AcDbPolyline
 90
        2
 70
     0
 43
0.15
 10
-14.685283034799
 20
142.4999199807
 10
-13.62973739559899
 20
142.4999199807
  0
LWPOLYLINE
  5
146
330
44
100
AcDbEntity
  8
0
  6
Continuous
 62
     7
100
AcDbPolyline
 90
        2
 70
     0
 43
0.15
 10
-27.18528322109899
 20
142.4999199807
 10
-27.18528322109899
 20
139.9999186396
  0
LWPOLYLINE
  5
147
330
44
100
AcDbEntity
  8
0
  6
Continuous
 62
     7
100
AcDbPolyline
 90
        2
 70
     0
 43
0.15
 10
-27.18528322109899
 20
139.9999186396
 10
-24.685283044199
 20
139.9999186396
  0
LWPOLYLINE
  5
148
330
44
100
AcDbEntity
  8
0
  6
Continuous
 62
     7
100
AcDbPolyline
 90
        2
 70
     0
 43
0.15
 10
-25.740828450599
 20
142.4999199807
 10
-24.685283044199
 20
142.4999199807
  0
LWPOLYLINE
  5
149
330
44
100
AcDbEntity
  8
0
  6
Continuous
 62
     7
100
AcDbPolyline
 90
        2
 70
     0
 43
0.15
 10
-11.07194935139899
 20
139.9999186396
 10
-12.18528309069899
 20
139.9999186396
  0
LWPOLYLINE
  5
14A
330
44
100
AcDbEntity
  8
0
  6
Continuous
 62
     7
100
AcDbPolyline
 90
        2
 70
     0
 43
0.15
 10
-27.18528322109899
 20
139.9999186396
 10
-28.29861649479901
 20
139.9999186396
  0
LWPOLYLINE
  5
14B
330
44
100
AcDbEntity
  8
0
  6
Continuous
 62
     7
100
AcDbPolyline
 90
        2
 70
     0
 43
0.15
 10
52.81472011300099
 20
170.9999218583
 10
52.81472011300099
 20
171.9999164342
  0
LWPOLYLINE
  5
14C
330
44
100
AcDbEntity
  8
0
  6
Continuous
 62
     7
100
AcDbPolyline
 90
        2
 70
     0
 43
0.15
 10
-92.185283165199
 20
171.9999164342
 10
-92.185283165199
 20
170.9999218583
  0
LWPOLYLINE
  5
14D
330
44
100
AcDbEntity
  8
0
  6
Continuous
 62
     7
100
AcDbPolyline
 90
        2
 70
     0
 43
0.15
 10
52.81472011300099
 20
193.4999227523
 10
52.81472011300099
 20
194.4999173283
  0
LWPOLYLINE
  5
14E
330
44
100
AcDbEntity
  8
0
  6
Continuous
 62
     7
100
AcDbPolyline
 90
        2
 70
     0
 43
0.15
 10
-92.185283165199
 20
194.4999173283
 10
-92.185283165199
 20
193.4999227523
  0
LWPOLYLINE
  5
14F
330
44
100
AcDbEntity
  8
0
  6
Continuous
 62
     7
100
AcDbPolyline
 90
        2
 70
     0
 43
0.15
 10
52.81472011300099
 20
175.4999235272
 10
52.81472011300099
 20
176.4999181032
  0
LWPOLYLINE
  5
150
330
44
100
AcDbEntity
  8
0
  6
Continuous
 62
     7
100
AcDbPolyline
 90
        2
 70
     0
 43
0.15
 10
-92.185283165199
 20
176.4999181032
 10
-92.185283165199
 20
175.4999235272
  0
LWPOLYLINE
  5
151
330
44
100
AcDbEntity
  8
0
  6
Continuous
 62
     7
100
AcDbPolyline
 90
        2
 70
     0
 43
0.15
 10
52.81472011300099
 20
197.9999169707
 10
52.81472011300099
 20
198.9999189972
  0
LWPOLYLINE
  5
152
330
44
100
AcDbEntity
  8
0
  6
Continuous
 62
     7
100
AcDbPolyline
 90
        2
 70
     0
 43
0.15
 10
-92.185283165199
 20
198.9999189972
 10
-92.185283165199
 20
197.9999169707
  0
LWPOLYLINE
  5
153
330
44
100
AcDbEntity
  8
0
  6
Continuous
 62
     7
100
AcDbPolyline
 90
        2
 70
     0
 43
0.15
 10
52.81472011300099
 20
202.4999186396
 10
52.81472011300099
 20
203.4999206662
  0
LWPOLYLINE
  5
154
330
44
100
AcDbEntity
  8
0
  6
Continuous
 62
     7
100
AcDbPolyline
 90
        2
 70
     0
 43
0.15
 10
-92.185283165199
 20
203.4999206662
 10
-92.185283165199
 20
202.4999186396
  0
LWPOLYLINE
  5
155
330
44
100
AcDbEntity
  8
0
  6
Continuous
 62
     7
100
AcDbPolyline
 90
        2
 70
     0
 43
0.15
 10
-88.685283522899
 20
221.9999209046
 10
-88.685283522899
 20
142.4999199807
  0
LWPOLYLINE
  5
156
330
44
100
AcDbEntity
  8
0
  6
Continuous
 62
     7
100
AcDbPolyline
 90
        2
 70
     0
 43
0.15
 10
-80.685282211599
 20
221.9999209046
 10
-88.685283522899
 20
221.9999209046
  0
LWPOLYLINE
  5
157
330
44
100
AcDbEntity
  8
0
  6
Continuous
 62
     7
100
AcDbPolyline
 90
        2
 70
     0
 43
0.15
 10
-80.685282211599
 20
215.6960368156
 10
-80.685282211599
 20
221.9999209046
  0
LWPOLYLINE
  5
158
330
44
100
AcDbEntity
  8
0
  6
Continuous
 62
     7
100
AcDbPolyline
 90
        2
 70
     0
 43
0.15
 10
-51.93431311449899
 20
215.6960368156
 10
-80.685282211599
 20
215.6960368156
  0
LWPOLYLINE
  5
159
330
44
100
AcDbEntity
  8
0
  6
Continuous
 62
     7
100
AcDbPolyline
 90
        2
 70
     0
 43
0.15
 10
-51.93431311449899
 20
221.9999209046
 10
-51.93431311449899
 20
215.6960368156
  0
LWPOLYLINE
  5
15A
330
44
100
AcDbEntity
  8
0
  6
Continuous
 62
     7
100
AcDbPolyline
 90
        2
 70
     0
 43
0.15
 10
12.563748199701
 20
221.9999209046
 10
-51.93431311449899
 20
221.9999209046
  0
LWPOLYLINE
  5
15B
330
44
100
AcDbEntity
  8
0
  6
Continuous
 62
     7
100
AcDbPolyline
 90
        2
 70
     0
 43
0.15
 10
12.563748199701
 20
215.6960368156
 10
12.563748199701
 20
221.9999209046
  0
LWPOLYLINE
  5
15C
330
44
100
AcDbEntity
  8
0
  6
Continuous
 62
     7
100
AcDbPolyline
 90
        2
 70
     0
 43
0.15
 10
41.314715434101
 20
215.6960368156
 10
12.563748199701
 20
215.6960368156
  0
LWPOLYLINE
  5
15D
330
44
100
AcDbEntity
  8
0
  6
Continuous
 62
     7
100
AcDbPolyline
 90
        2
 70
     0
 43
0.15
 10
41.314715434101
 20
221.9999209046
 10
41.314715434101
 20
215.6960368156
  0
LWPOLYLINE
  5
15E
330
44
100
AcDbEntity
  8
0
  6
Continuous
 62
     7
100
AcDbPolyline
 90
        2
 70
     0
 43
0.15
 10
49.31472047070099
 20
221.9999209046
 10
41.314715434101
 20
221.9999209046
  0
LWPOLYLINE
  5
15F
330
44
100
AcDbEntity
  8
0
  6
Continuous
 62
     7
100
AcDbPolyline
 90
        2
 70
     0
 43
0.15
 10
49.31472047070099
 20
142.4999199807
 10
49.31472047070099
 20
221.9999209046
  0
LWPOLYLINE
  5
160
330
44
100
AcDbEntity
  8
0
  6
Continuous
 62
     7
100
AcDbPolyline
 90
        2
 70
     0
 43
0.15
 10
48.814719457401
 20
142.4999199807
 10
42.86767347550102
 20
142.4999199807
  0
LWPOLYLINE
  5
161
330
44
100
AcDbEntity
  8
0
  6
Continuous
 62
     7
100
AcDbPolyline
 90
        2
 70
     0
 43
0.15
 10
36.81213213900099
 20
142.4999199807
 10
19.93892519570102
 20
142.4999199807
  0
LWPOLYLINE
  5
162
330
44
100
AcDbEntity
  8
0
  6
Continuous
 62
     7
100
AcDbPolyline
 90
        2
 70
     0
 43
0.15
 10
9.43734302020101
 20
142.4999199807
 10
-13.62973739559899
 20
142.4999199807
  0
LWPOLYLINE
  5
163
330
44
100
AcDbEntity
  8
0
  6
Continuous
 62
     7
100
AcDbPolyline
 90
        2
 70
     0
 43
0.15
 10
-25.740828450599
 20
142.4999199807
 10
-48.80790979769898
 20
142.4999199807
  0
LWPOLYLINE
  5
164
330
44
100
AcDbEntity
  8
0
  6
Continuous
 62
     7
100
AcDbPolyline
 90
        2
 70
     0
 43
0.15
 10
-59.30949197319899
 20
142.4999199807
 10
-76.173087667499
 20
142.4999199807
  0
LWPOLYLINE
  5
165
330
44
100
AcDbEntity
  8
0
  6
Continuous
 62
     7
100
AcDbPolyline
 90
        2
 70
     0
 43
0.15
 10
-82.23824025299899
 20
142.4999199807
 10
-88.185282509599
 20
142.4999199807
  0
LWPOLYLINE
  5
166
330
44
100
AcDbEntity
  8
0
  6
Continuous
 62
     7
100
AcDbPolyline
 90
        2
 70
     0
 43
0.15
 10
52.81472011300099
 20
213.9999195933
 10
52.81472011300099
 20
206.9999203085
  0
LWPOLYLINE
  5
167
330
44
100
AcDbEntity
  8
0
  6
Continuous
 62
     7
100
AcDbPolyline
 90
        2
 70
     0
 43
0.15
 10
52.81472011300099
 20
218.9999222755
 10
52.81472011300099
 20
215.9999161958
  0
LWPOLYLINE
  5
168
330
44
100
AcDbEntity
  8
0
  6
Continuous
 62
     7
100
AcDbPolyline
 90
        2
 70
     0
 43
0.15
 10
-92.185283165199
 20
215.9999161958
 10
-92.185283165199
 20
218.9999222755
  0
LWPOLYLINE
  5
169
330
44
100
AcDbEntity
  8
0
  6
Continuous
 62
     7
100
AcDbPolyline
 90
        2
 70
     0
 43
0.15
 10
-92.185283165199
 20
206.9999203085
 10
-92.185283165199
 20
213.9999195933
  0
LWPOLYLINE
  5
16A
330
44
100
AcDbEntity
  8
0
  6
Continuous
 62
     7
100
AcDbPolyline
 90
        2
 70
     0
 43
0.15
 10
52.81472011300099
 20
179.9999177455
 10
52.81472011300099
 20
180.9999197721
  0
LWPOLYLINE
  5
16B
330
44
100
AcDbEntity
  8
0
  6
Continuous
 62
     7
100
AcDbPolyline
 90
        2
 70
     0
 43
0.15
 10
-92.185283165199
 20
180.9999197721
 10
-92.185283165199
 20
179.9999177455
  0
LWPOLYLINE
  5
16C
330
44
100
AcDbEntity
  8
0
  6
Continuous
 62
     7
100
AcDbPolyline
 90
        2
 70
     0
 43
0.15
 10
52.81472011300099
 20
188.9999210834
 10
52.81472011300099
 20
189.99992311
  0
LWPOLYLINE
  5
16D
330
44
100
AcDbEntity
  8
0
  6
Continuous
 62
     7
100
AcDbPolyline
 90
        2
 70
     0
 43
0.15
 10
52.81472011300099
 20
184.4999194145
 10
52.81472011300099
 20
185.499921441
  0
LWPOLYLINE
  5
16E
330
44
100
AcDbEntity
  8
0
  6
Continuous
 62
     7
100
AcDbPolyline
 90
        2
 70
     0
 43
0.15
 10
52.81472011300099
 20
166.4999201893
 10
52.81472011300099
 20
167.4999222159
  0
LWPOLYLINE
  5
16F
330
44
100
AcDbEntity
  8
0
  6
Continuous
 62
     7
100
AcDbPolyline
 90
        2
 70
     0
 43
0.15
 10
52.81472011300099
 20
161.9999185204
 10
52.81472011300099
 20
162.999920547
  0
LWPOLYLINE
  5
170
330
44
100
AcDbEntity
  8
0
  6
Continuous
 62
     7
100
AcDbPolyline
 90
        2
 70
     0
 43
0.15
 10
52.81472011300099
 20
157.4999168515
 10
52.81472011300099
 20
158.499918878
  0
LWPOLYLINE
  5
171
330
44
100
AcDbEntity
  8
0
  6
Continuous
 62
     7
100
AcDbPolyline
 90
        2
 70
     0
 43
0.15
 10
52.81472011300099
 20
152.9999189078
 10
52.81472011300099
 20
153.9999209344
  0
LWPOLYLINE
  5
172
330
44
100
AcDbEntity
  8
0
  6
Continuous
 62
     7
100
AcDbPolyline
 90
        2
 70
     0
 43
0.15
 10
52.81472011300099
 20
148.4999209642
 10
52.81472011300099
 20
149.4999192655
  0
LWPOLYLINE
  5
173
330
44
100
AcDbEntity
  8
0
  6
Continuous
 62
     7
100
AcDbPolyline
 90
        2
 70
     0
 43
0.15
 10
52.81472011300099
 20
142.999920994
 10
52.81472011300099
 20
144.9999213218
  0
LWPOLYLINE
  5
174
330
44
100
AcDbEntity
  8
0
  6
Continuous
 62
     7
100
AcDbPolyline
 90
        2
 70
     0
 43
0.15
 10
49.31472047070099
 20
142.4999199807
 10
52.31471909970099
 20
142.4999199807
  0
LWPOLYLINE
  5
175
330
44
100
AcDbEntity
  8
0
  6
Continuous
 62
     7
100
AcDbPolyline
 90
        2
 70
     0
 43
0.15
 10
54.31471570230099
 20
232.9999133944
 10
50.31471504660101
 20
232.9999133944
  0
LWPOLYLINE
  5
176
330
44
100
AcDbEntity
  8
0
  6
Continuous
 62
     7
100
AcDbPolyline
 90
        2
 70
     0
 43
0.15
 10
54.31471570230099
 20
232.9999133944
 10
54.31471570230099
 20
218.9999222755
  0
LWPOLYLINE
  5
177
330
44
100
AcDbEntity
  8
0
  6
Continuous
 62
     7
100
AcDbPolyline
 90
        2
 70
     0
 43
0.15
 10
53.314713675701
 20
215.9999161958
 10
52.81472011300099
 20
215.9999161958
  0
LWPOLYLINE
  5
178
330
44
100
AcDbEntity
  8
0
  6
Continuous
 62
     7
100
AcDbPolyline
 90
        2
 70
     0
 43
0.15
 10
53.314713675701
 20
215.9999161958
 10
53.314713675701
 20
213.9999195933
  0
LWPOLYLINE
  5
179
330
44
100
AcDbEntity
  8
0
  6
Continuous
 62
     7
100
AcDbPolyline
 90
        2
 70
     0
 43
0.15
 10
52.81472011300099
 20
213.9999195933
 10
53.314713675701
 20
213.9999195933
  0
LWPOLYLINE
  5
17A
330
44
100
AcDbEntity
  8
0
  6
Continuous
 62
     7
100
AcDbPolyline
 90
        2
 70
     0
 43
0.15
 10
50.31471504660101
 20
221.9999209046
 10
49.31472047070099
 20
221.9999209046
  0
LWPOLYLINE
  5
17B
330
44
100
AcDbEntity
  8
0
  6
Continuous
 62
     7
100
AcDbPolyline
 90
        2
 70
     0
 43
0.15
 10
50.31471504660101
 20
221.9999209046
 10
50.31471504660101
 20
232.9999133944
  0
LWPOLYLINE
  5
17C
330
44
100
AcDbEntity
  8
0
  6
Continuous
 62
     7
100
AcDbPolyline
 90
        2
 70
     0
 43
0.15
 10
54.31471570230099
 20
218.9999222755
 10
52.81472011300099
 20
218.9999222755
  0
LWPOLYLINE
  5
17D
330
44
100
AcDbEntity
  8
0
  6
Continuous
 62
     7
100
AcDbPolyline
 90
        2
 70
     0
 43
0.15
 10
-92.185283165199
 20
185.499921441
 10
-92.185283165199
 20
184.4999194145
  0
LWPOLYLINE
  5
17E
330
44
100
AcDbEntity
  8
0
  6
Continuous
 62
     7
100
AcDbPolyline
 90
        2
 70
     0
 43
0.15
 10
-92.185283165199
 20
189.99992311
 10
-92.185283165199
 20
188.9999210834
  0
LWPOLYLINE
  5
17F
330
44
100
AcDbEntity
  8
0
  6
Continuous
 62
     7
100
AcDbPolyline
 90
        2
 70
     0
 43
0.15
 10
-92.185283165199
 20
144.9999213218
 10
-92.185283165199
 20
142.999920994
  0
LWPOLYLINE
  5
180
330
44
100
AcDbEntity
  8
0
  6
Continuous
 62
     7
100
AcDbPolyline
 90
        2
 70
     0
 43
0.15
 10
-92.68528417849899
 20
213.9999195933
 10
-92.185283165199
 20
213.9999195933
  0
LWPOLYLINE
  5
181
330
44
100
AcDbEntity
  8
0
  6
Continuous
 62
     7
100
AcDbPolyline
 90
        2
 70
     0
 43
0.15
 10
-92.185283165199
 20
149.4999192655
 10
-92.185283165199
 20
148.4999209642
  0
LWPOLYLINE
  5
182
330
44
100
AcDbEntity
  8
0
  6
Continuous
 62
     7
100
AcDbPolyline
 90
        2
 70
     0
 43
0.15
 10
-92.185283165199
 20
153.9999209344
 10
-92.185283165199
 20
152.9999189078
  0
LWPOLYLINE
  5
183
330
44
100
AcDbEntity
  8
0
  6
Continuous
 62
     7
100
AcDbPolyline
 90
        2
 70
     0
 43
0.15
 10
-92.185283165199
 20
158.499918878
 10
-92.185283165199
 20
157.4999168515
  0
LWPOLYLINE
  5
184
330
44
100
AcDbEntity
  8
0
  6
Continuous
 62
     7
100
AcDbPolyline
 90
        2
 70
     0
 43
0.15
 10
-92.185283165199
 20
162.999920547
 10
-92.185283165199
 20
161.9999185204
  0
LWPOLYLINE
  5
185
330
44
100
AcDbEntity
  8
0
  6
Continuous
 62
     7
100
AcDbPolyline
 90
        2
 70
     0
 43
0.15
 10
-92.185283165199
 20
167.4999222159
 10
-92.185283165199
 20
166.4999201893
  0
LWPOLYLINE
  5
186
330
44
100
AcDbEntity
  8
0
  6
Continuous
 62
     7
100
AcDbPolyline
 90
        2
 70
     0
 43
0.15
 10
-93.685286205099
 20
218.9999222755
 10
-93.685286205099
 20
232.9999133944
  0
LWPOLYLINE
  5
187
330
44
100
AcDbEntity
  8
0
  6
Continuous
 62
     7
100
AcDbPolyline
 90
        2
 70
     0
 43
0.15
 10
-89.685285549399
 20
232.9999133944
 10
-93.685286205099
 20
232.9999133944
  0
LWPOLYLINE
  5
188
330
44
100
AcDbEntity
  8
0
  6
Continuous
 62
     7
100
AcDbPolyline
 90
        2
 70
     0
 43
0.15
 10
-91.685282151899
 20
142.4999199807
 10
-88.685283522899
 20
142.4999199807
  0
LWPOLYLINE
  5
189
330
44
100
AcDbEntity
  8
0
  6
Continuous
 62
     7
100
AcDbPolyline
 90
        2
 70
     0
 43
0.15
 10
-92.185283165199
 20
215.9999161958
 10
-92.68528417849899
 20
215.9999161958
  0
LWPOLYLINE
  5
18A
330
44
100
AcDbEntity
  8
0
  6
Continuous
 62
     7
100
AcDbPolyline
 90
        2
 70
     0
 43
0.15
 10
-92.68528417849899
 20
213.9999195933
 10
-92.68528417849899
 20
215.9999161958
  0
LWPOLYLINE
  5
18B
330
44
100
AcDbEntity
  8
0
  6
Continuous
 62
     7
100
AcDbPolyline
 90
        2
 70
     0
 43
0.15
 10
-88.685283522899
 20
221.9999209046
 10
-89.685285549399
 20
221.9999209046
  0
LWPOLYLINE
  5
18C
330
44
100
AcDbEntity
  8
0
  6
Continuous
 62
     7
100
AcDbPolyline
 90
        2
 70
     0
 43
0.15
 10
-89.685285549399
 20
232.9999133944
 10
-89.685285549399
 20
221.9999209046
  0
LWPOLYLINE
  5
18D
330
44
100
AcDbEntity
  8
0
  6
Continuous
 62
     7
100
AcDbPolyline
 90
        2
 70
     0
 43
0.15
 10
-92.185283165199
 20
218.9999222755
 10
-93.685286205099
 20
218.9999222755
  0
LWPOLYLINE
  5
18E
330
44
100
AcDbEntity
  8
0
  6
Continuous
 62
     7
100
AcDbPolyline
 90
        2
 70
     0
 43
0.15
 10
48.814719457401
 20
227.4999246001
 10
48.814719457401
 20
221.9999209046
  0
LWPOLYLINE
  5
18F
330
44
100
AcDbEntity
  8
0
  6
Continuous
 62
     7
100
AcDbPolyline
 90
        2
 70
     0
 43
0.15
 10
49.31472047070099
 20
227.4999246001
 10
50.31471504660101
 20
227.4999246001
  0
LWPOLYLINE
  5
190
330
44
100
AcDbEntity
  8
0
  6
Continuous
 62
     7
100
AcDbPolyline
 90
        2
 70
     0
 43
0.15
 10
-89.685285549399
 20
227.4999246001
 10
-88.685283522899
 20
227.4999246001
  0
LWPOLYLINE
  5
191
330
44
100
AcDbEntity
  8
0
  6
Continuous
 62
     7
100
AcDbPolyline
 90
        2
 70
     0
 43
0.15
 10
-88.185282509599
 20
227.4999246001
 10
-88.185282509599
 20
221.9999209046
  0
LWPOLYLINE
  5
192
330
44
100
AcDbEntity
  8
0
  6
Continuous
 62
     7
100
AcDbPolyline
 90
        2
 70
     0
 43
0.15
 10
45.31471981500101
 20
227.4999246001
 10
45.31471981500101
 20
221.9999209046
  0
LWPOLYLINE
  5
193
330
44
100
AcDbEntity
  8
0
  6
Continuous
 62
     7
100
AcDbPolyline
 90
        2
 70
     0
 43
0.15
 10
45.31471981500101
 20
227.4999246001
 10
47.81471743080101
 20
227.4999246001
  0
LWPOLYLINE
  5
194
330
44
100
AcDbEntity
  8
0
  6
Continuous
 62
     7
100
AcDbPolyline
 90
        2
 70
     0
 43
0.15
 10
-84.68528286719899
 20
227.4999246001
 10
-84.68528286719899
 20
221.9999209046
  0
LWPOLYLINE
  5
195
330
44
100
AcDbEntity
  8
0
  6
Continuous
 62
     7
100
AcDbPolyline
 90
        2
 70
     0
 43
0.15
 10
-87.18528048299899
 20
227.4999246001
 10
-84.68528286719899
 20
227.4999246001
  0
LWPOLYLINE
  5
196
330
44
100
AcDbEntity
  8
0
  6
Continuous
 62
     7
100
AcDbPolyline
 90
        2
 70
     0
 43
0.15
 10
12.563748199701
 20
215.6960368156
 10
14.571925539701
 20
217.4322232604
  0
LWPOLYLINE
  5
197
330
44
100
AcDbEntity
  8
0
  6
Continuous
 62
     7
100
AcDbPolyline
 90
        2
 70
     0
 43
0.15
 10
14.571925539701
 20
217.4322232604
 10
41.314715434101
 20
217.4322232604
  0
LWPOLYLINE
  5
198
330
44
100
AcDbEntity
  8
0
  6
Continuous
 62
     7
100
AcDbPolyline
 90
        2
 70
     0
 43
0.15
 10
-80.685282211599
 20
217.4322232604
 10
-53.942492317199
 20
217.4322232604
  0
LWPOLYLINE
  5
199
330
44
100
AcDbEntity
  8
0
  6
Continuous
 62
     7
100
AcDbPolyline
 90
        2
 70
     0
 43
0.15
 10
-53.942492317199
 20
217.4322232604
 10
-51.93431311449899
 20
215.6960368156
  0
LWPOLYLINE
  5
19A
330
44
100
AcDbEntity
  8
0
  6
Continuous
 62
     7
100
AcDbPolyline
 90
        2
 70
     0
 43
0.15
 10
41.314715434101
 20
221.9999209046
 10
40.73301135400101
 20
221.9999209046
  0
LWPOLYLINE
  5
19B
330
44
100
AcDbEntity
  8
0
  6
Continuous
 62
     7
100
AcDbPolyline
 90
        2
 70
     0
 43
0.15
 10
-80.10357813139899
 20
221.9999209046
 10
-80.685282211599
 20
221.9999209046
  0
LWPOLYLINE
  5
19C
330
44
100
AcDbEntity
  8
0
  6
Continuous
 62
     7
100
AcDbPolyline
 90
        2
 70
     0
 43
0.15
 10
40.73301135400101
 20
221.9999209046
 10
12.563748199701
 20
221.9999209046
  0
LWPOLYLINE
  5
19D
330
44
100
AcDbEntity
  8
0
  6
Continuous
 62
     7
100
AcDbPolyline
 90
        2
 70
     0
 43
0.15
 10
-51.93431311449899
 20
221.9999209046
 10
-80.10357813139899
 20
221.9999209046
  0
LWPOLYLINE
  5
19E
330
44
100
AcDbEntity
  8
0
  6
Continuous
 62
     7
100
AcDbPolyline
 90
        2
 70
     0
 43
0.15
 10
33.81471513600098
 20
227.4999246001
 10
33.81471513600098
 20
221.9999209046
  0
LWPOLYLINE
  5
19F
330
44
100
AcDbEntity
  8
0
  6
Continuous
 62
     7
100
AcDbPolyline
 90
        2
 70
     0
 43
0.15
 10
37.31471850370099
 20
227.4999246001
 10
37.31471850370099
 20
221.9999209046
  0
LWPOLYLINE
  5
1A0
330
44
100
AcDbEntity
  8
0
  6
Continuous
 62
     7
100
AcDbPolyline
 90
        2
 70
     0
 43
0.15
 10
33.81471513600098
 20
227.4999246001
 10
37.31471850370099
 20
227.4999246001
  0
LWPOLYLINE
  5
1A1
330
44
100
AcDbEntity
  8
0
  6
Continuous
 62
     7
100
AcDbPolyline
 90
        2
 70
     0
 43
0.15
 10
6.314717147701
 20
227.4999246001
 10
6.314717147701
 20
221.9999209046
  0
LWPOLYLINE
  5
1A2
330
44
100
AcDbEntity
  8
0
  6
Continuous
 62
     7
100
AcDbPolyline
 90
        2
 70
     0
 43
0.15
 10
9.81471679010102
 20
227.4999246001
 10
9.81471679010102
 20
221.9999209046
  0
LWPOLYLINE
  5
1A3
330
44
100
AcDbEntity
  8
0
  6
Continuous
 62
     7
100
AcDbPolyline
 90
        2
 70
     0
 43
0.15
 10
6.314717147701
 20
227.4999246001
 10
9.81471679010102
 20
227.4999246001
  0
LWPOLYLINE
  5
1A4
330
44
100
AcDbEntity
  8
0
  6
Continuous
 62
     7
100
AcDbPolyline
 90
        2
 70
     0
 43
0.15
 10
-49.18528356759899
 20
227.4999246001
 10
-49.18528356759899
 20
221.9999209046
  0
LWPOLYLINE
  5
1A5
330
44
100
AcDbEntity
  8
0
  6
Continuous
 62
     7
100
AcDbPolyline
 90
        2
 70
     0
 43
0.15
 10
-45.685283925199
 20
227.4999246001
 10
-45.685283925199
 20
221.9999209046
  0
LWPOLYLINE
  5
1A6
330
44
100
AcDbEntity
  8
0
  6
Continuous
 62
     7
100
AcDbPolyline
 90
        2
 70
     0
 43
0.15
 10
-49.18528356759899
 20
227.4999246001
 10
-45.685283925199
 20
227.4999246001
  0
LWPOLYLINE
  5
1A7
330
44
100
AcDbEntity
  8
0
  6
Continuous
 62
     7
100
AcDbPolyline
 90
        2
 70
     0
 43
0.15
 10
-76.685281555899
 20
227.4999246001
 10
-76.685281555899
 20
221.9999209046
  0
LWPOLYLINE
  5
1A8
330
44
100
AcDbEntity
  8
0
  6
Continuous
 62
     7
100
AcDbPolyline
 90
        2
 70
     0
 43
0.15
 10
-73.18528191349898
 20
227.4999246001
 10
-73.18528191349898
 20
221.9999209046
  0
LWPOLYLINE
  5
1A9
330
44
100
AcDbEntity
  8
0
  6
Continuous
 62
     7
100
AcDbPolyline
 90
        2
 70
     0
 43
0.15
 10
-76.685281555899
 20
227.4999246001
 10
-73.18528191349898
 20
227.4999246001
  0
LWPOLYLINE
  5
1AA
330
44
100
AcDbEntity
  8
0
  6
Continuous
 62
     7
100
AcDbPolyline
 90
        2
 70
     0
 43
0.15
 10
-5.685282956599
 20
227.4999246001
 10
-5.685282956599
 20
221.9999209046
  0
LWPOLYLINE
  5
1AB
330
44
100
AcDbEntity
  8
0
  6
Continuous
 62
     7
100
AcDbPolyline
 90
        2
 70
     0
 43
0.15
 10
-33.68528288959899
 20
227.4999246001
 10
-33.68528288959899
 20
221.9999209046
  0
LWPOLYLINE
  5
1AC
330
44
100
AcDbEntity
  8
0
  6
Continuous
 62
     7
100
AcDbPolyline
 90
        2
 70
     0
 43
0.15
 10
50.31471504660101
 20
232.9999133944
 10
-89.685285549399
 20
232.9999133944
  0
LWPOLYLINE
  5
1AD
330
44
100
AcDbEntity
  8
0
  6
Continuous
 62
     7
100
AcDbPolyline
 90
        2
 70
     0
 43
0.15
 10
-99.68528346329899
 20
74.00000095360004
 10
-99.68528346329899
 20
72.00000248850002
  0
LWPOLYLINE
  5
1AE
330
44
100
AcDbEntity
  8
0
  6
Continuous
 62
     7
100
AcDbPolyline
 90
        2
 70
     0
 43
0.15
 10
60.31472041110101
 20
72.00000248850002
 10
60.31472041110101
 20
74.00000095360004
  0
LWPOLYLINE
  5
1AF
330
44
100
AcDbEntity
  8
0
  6
Continuous
 62
     7
100
AcDbPolyline
 90
        2
 70
     0
 43
0.15
 10
-96.685284834199
 20
78.00000160930001
 10
-96.685284834199
 20
74.00000095360004
  0
LWPOLYLINE
  5
1B0
330
44
100
AcDbEntity
  8
0
  6
Continuous
 62
     7
100
AcDbPolyline
 90
        2
 70
     0
 43
0.15
 10
57.31471433140104
 20
74.00000095360004
 10
57.31471433140104
 20
78.00000160930001
  0
LWPOLYLINE
  5
1B1
330
44
100
AcDbEntity
  8
0
  6
Continuous
 62
     7
100
AcDbPolyline
 90
        2
 70
     0
 43
0.15
 10
-95.95734075809898
 20
80.00000193710004
 10
-96.685284834199
 20
78.00000160930001
  0
LWPOLYLINE
  5
1B2
330
44
100
AcDbEntity
  8
0
  6
Continuous
 62
     7
100
AcDbPolyline
 90
        2
 70
     0
 43
0.15
 10
57.31471433140104
 20
78.00000160930001
 10
56.586777705901
 20
80.00000193710004
  0
LWPOLYLINE
  5
1B3
330
44
100
AcDbEntity
  8
0
  6
Continuous
 62
     7
100
AcDbPolyline
 90
        2
 70
     0
 43
0.15
 10
-94.685280780999
 20
69.00000199670002
 10
-94.685280780999
 20
80.00000193710004
  0
LWPOLYLINE
  5
1B4
330
44
100
AcDbEntity
  8
0
  6
Continuous
 62
     7
100
AcDbPolyline
 90
        2
 70
     0
 43
0.15
 10
55.31471772880099
 20
80.00000193710004
 10
55.31471772880099
 20
69.00000199670002
  0
LWPOLYLINE
  5
1B5
330
44
100
AcDbEntity
  8
0
  6
Continuous
 62
     7
100
AcDbPolyline
 90
        2
 70
     0
 43
0.15
 10
-94.685280780999
 20
80.00000193710004
 10
-86.685279469699
 20
80.00000193710004
  0
LWPOLYLINE
  5
1B6
330
44
100
AcDbEntity
  8
0
  6
Continuous
 62
     7
100
AcDbPolyline
 90
        2
 70
     0
 43
0.15
 10
47.31471641750102
 20
80.00000193710004
 10
55.31471772880099
 20
80.00000193710004
  0
LWPOLYLINE
  5
1B7
330
44
100
AcDbEntity
  8
0
  6
Continuous
 62
     7
100
AcDbPolyline
 90
        2
 70
     0
 43
0.15
 10
51.064720291801
 20
61.50000169870005
 10
51.064720291801
 20
64.0000011771
  0
LWPOLYLINE
  5
1B8
330
44
100
AcDbEntity
  8
0
  6
Continuous
 62
     7
100
AcDbPolyline
 90
        2
 70
     0
 43
0.15
 10
51.064720291801
 20
61.50000169870005
 10
37.06471799710101
 20
61.50000169870005
  0
LWPOLYLINE
  5
1B9
330
44
100
AcDbEntity
  8
0
  6
Continuous
 62
     7
100
AcDbPolyline
 90
        2
 70
     0
 43
0.15
 10
37.06471799710101
 20
64.0000011771
 10
37.06471799710101
 20
61.50000169870005
  0
LWPOLYLINE
  5
1BA
330
44
100
AcDbEntity
  8
0
  6
Continuous
 62
     7
100
AcDbPolyline
 90
        2
 70
     0
 43
0.15
 10
18.314717252001
 20
66.50000251830001
 10
18.314717252001
 20
64.0000011771
  0
LWPOLYLINE
  5
1BB
330
44
100
AcDbEntity
  8
0
  6
Continuous
 62
     7
100
AcDbPolyline
 90
        2
 70
     0
 43
0.15
 10
18.314717252001
 20
64.0000011771
 10
37.06471799710101
 20
64.0000011771
  0
LWPOLYLINE
  5
1BC
330
44
100
AcDbEntity
  8
0
  6
Continuous
 62
     7
100
AcDbPolyline
 90
        2
 70
     0
 43
0.15
 10
51.064720291801
 20
64.0000011771
 10
52.31471909970099
 20
64.0000011771
  0
LWPOLYLINE
  5
1BD
330
44
100
AcDbEntity
  8
0
  6
Continuous
 62
     7
100
AcDbPolyline
 90
        2
 70
     0
 43
0.15
 10
52.81472011300099
 20
66.50000251830001
 10
18.314717252001
 20
66.50000251830001
  0
LWPOLYLINE
  5
1BE
330
44
100
AcDbEntity
  8
0
  6
Continuous
 62
     7
100
AcDbPolyline
 90
        2
 70
     0
 43
0.15
 10
56.586777705901
 20
80.00000193710004
 10
55.31471772880099
 20
80.00000193710004
  0
LWPOLYLINE
  5
1BF
330
44
100
AcDbEntity
  8
0
  6
Continuous
 62
     7
100
AcDbPolyline
 90
        2
 70
     0
 43
0.15
 10
60.31472041110101
 20
74.00000095360004
 10
57.31471433140104
 20
74.00000095360004
  0
LWPOLYLINE
  5
1C0
330
44
100
AcDbEntity
  8
0
  6
Continuous
 62
     7
100
AcDbPolyline
 90
        2
 70
     0
 43
0.15
 10
-57.685284029499
 20
64.0000011771
 10
-57.685284029499
 20
66.50000251830001
  0
LWPOLYLINE
  5
1C1
330
44
100
AcDbEntity
  8
0
  6
Continuous
 62
     7
100
AcDbPolyline
 90
        2
 70
     0
 43
0.15
 10
-57.685284029499
 20
64.0000011771
 10
-57.18528301619898
 20
64.0000011771
  0
LWPOLYLINE
  5
1C2
330
44
100
AcDbEntity
  8
0
  6
Continuous
 62
     7
100
AcDbPolyline
 90
        2
 70
     0
 43
0.15
 10
17.81471623870101
 20
64.0000011771
 10
18.314717252001
 20
64.0000011771
  0
LWPOLYLINE
  5
1C3
330
44
100
AcDbEntity
  8
0
  6
Continuous
 62
     7
100
AcDbPolyline
 90
        2
 70
     0
 43
0.15
 10
-57.685284029499
 20
66.50000251830001
 10
-57.18528301619898
 20
66.50000251830001
  0
LWPOLYLINE
  5
1C4
330
44
100
AcDbEntity
  8
0
  6
Continuous
 62
     7
100
AcDbPolyline
 90
        2
 70
     0
 43
0.15
 10
17.81471623870101
 20
66.50000251830001
 10
18.314717252001
 20
66.50000251830001
  0
LWPOLYLINE
  5
1C5
330
44
100
AcDbEntity
  8
0
  6
Continuous
 62
     7
100
AcDbPolyline
 90
        2
 70
     0
 43
0.15
 10
-76.43528477459898
 20
61.50000169870005
 10
-90.435283343999
 20
61.50000169870005
  0
LWPOLYLINE
  5
1C6
330
44
100
AcDbEntity
  8
0
  6
Continuous
 62
     7
100
AcDbPolyline
 90
        2
 70
     0
 43
0.15
 10
-90.435283343999
 20
61.50000169870005
 10
-90.435283343999
 20
64.0000011771
  0
LWPOLYLINE
  5
1C7
330
44
100
AcDbEntity
  8
0
  6
Continuous
 62
     7
100
AcDbPolyline
 90
        2
 70
     0
 43
0.15
 10
-76.43528477459898
 20
61.50000169870005
 10
-76.43528477459898
 20
64.0000011771
  0
LWPOLYLINE
  5
1C8
330
44
100
AcDbEntity
  8
0
  6
Continuous
 62
     7
100
AcDbPolyline
 90
        2
 70
     0
 43
0.15
 10
-76.43528477459898
 20
64.0000011771
 10
-57.685284029499
 20
64.0000011771
  0
LWPOLYLINE
  5
1C9
330
44
100
AcDbEntity
  8
0
  6
Continuous
 62
     7
100
AcDbPolyline
 90
        2
 70
     0
 43
0.15
 10
-91.685282151899
 20
64.0000011771
 10
-90.435283343999
 20
64.0000011771
  0
LWPOLYLINE
  5
1CA
330
44
100
AcDbEntity
  8
0
  6
Continuous
 62
     7
100
AcDbPolyline
 90
        2
 70
     0
 43
0.15
 10
-57.685284029499
 20
66.50000251830001
 10
-92.185283165199
 20
66.50000251830001
  0
LWPOLYLINE
  5
1CB
330
44
100
AcDbEntity
  8
0
  6
Continuous
 62
     7
100
AcDbPolyline
 90
        2
 70
     0
 43
0.15
 10
-94.685280780999
 20
80.00000193710004
 10
-95.95734075809898
 20
80.00000193710004
  0
LWPOLYLINE
  5
1CC
330
44
100
AcDbEntity
  8
0
  6
Continuous
 62
     7
100
AcDbPolyline
 90
        2
 70
     0
 43
0.15
 10
-96.685284834199
 20
74.00000095360004
 10
-99.68528346329899
 20
74.00000095360004
  0
LWPOLYLINE
  5
1CD
330
44
100
AcDbEntity
  8
0
  6
Continuous
 62
     7
100
AcDbPolyline
 90
        2
 70
     0
 43
0.15
 10
45.06471558310102
 20
127.2014901042
 10
45.06471558310102
 20
127.7014911174
  0
LWPOLYLINE
  5
1CE
330
44
100
AcDbEntity
  8
0
  6
Continuous
 62
     7
100
AcDbPolyline
 90
        2
 70
     0
 43
0.15
 10
47.06471963620101
 20
129.7014914453
 10
57.56471856330103
 20
129.7014914453
  0
LWPOLYLINE
  5
1CF
330
44
100
AcDbEntity
  8
0
  6
Continuous
 62
     7
100
AcDbPolyline
 90
        2
 70
     0
 43
0.15
 10
57.56471856330103
 20
129.7014914453
 10
57.56471856330103
 20
127.2014901042
  0
LWPOLYLINE
  5
1D0
330
44
100
AcDbEntity
  8
0
  6
Continuous
 62
     7
100
AcDbPolyline
 90
        2
 70
     0
 43
0.15
 10
57.56471856330103
 20
127.2014901042
 10
56.41002013180099
 20
125.2014897763001
  0
LWPOLYLINE
  5
1D1
330
44
100
AcDbEntity
  8
0
  6
Continuous
 62
     7
100
AcDbPolyline
 90
        2
 70
     0
 43
0.15
 10
56.41002013180099
 20
125.2014897763001
 10
49.564717252001
 20
125.2014897763001
  0
LWPOLYLINE
  5
1D2
330
44
100
AcDbEntity
  8
0
  6
Continuous
 62
     7
100
AcDbPolyline
 90
        2
 70
     0
 43
0.15
 10
47.564720649501
 20
127.2014901042
 10
45.06471558310102
 20
127.2014901042
  0
LWPOLYLINE
  5
1D3
330
44
100
AcDbEntity
  8
0
  6
Continuous
 62
     7
100
AcDbPolyline
 90
        2
 70
     0
 43
0.15
 10
-88.93528030419898
 20
125.2014897763001
 10
49.564717252001
 20
125.2014897763001
  0
LWPOLYLINE
  5
1D4
330
44
100
AcDbEntity
  8
0
  6
Continuous
 62
     7
100
AcDbPolyline
 90
        2
 70
     0
 43
0.15
 10
-95.780583183999
 20
125.2014897763001
 10
-96.93528161549898
 20
127.2014901042
  0
LWPOLYLINE
  5
1D5
330
44
100
AcDbEntity
  8
0
  6
Continuous
 62
     7
100
AcDbPolyline
 90
        2
 70
     0
 43
0.15
 10
-96.93528161549898
 20
127.2014901042
 10
-96.93528161549898
 20
129.7014914453
  0
LWPOLYLINE
  5
1D6
330
44
100
AcDbEntity
  8
0
  6
Continuous
 62
     7
100
AcDbPolyline
 90
        2
 70
     0
 43
0.15
 10
-84.43528608589898
 20
127.7014911174
 10
45.06471558310102
 20
127.7014911174
  0
LWPOLYLINE
  5
1D7
330
44
100
AcDbEntity
  8
0
  6
Continuous
 62
     7
100
AcDbPolyline
 90
        2
 70
     0
 43
0.15
 10
-86.43528268839898
 20
129.7014914453
 10
47.06471963620101
 20
129.7014914453
  0
LWPOLYLINE
  5
1D8
330
44
100
AcDbEntity
  8
0
  6
Continuous
 62
     7
100
AcDbPolyline
 90
        2
 70
     0
 43
0.15
 10
-84.43528608589898
 20
127.7014911174
 10
-84.43528608589898
 20
127.2014901042
  0
LWPOLYLINE
  5
1D9
330
44
100
AcDbEntity
  8
0
  6
Continuous
 62
     7
100
AcDbPolyline
 90
        2
 70
     0
 43
0.15
 10
-84.43528608589898
 20
127.2014901042
 10
45.06471558310102
 20
127.2014901042
  0
LWPOLYLINE
  5
1DA
330
44
100
AcDbEntity
  8
0
  6
Continuous
 62
     7
100
AcDbPolyline
 90
        2
 70
     0
 43
0.15
 10
-88.93528030419898
 20
125.2014897763001
 10
-95.780583183999
 20
125.2014897763001
  0
LWPOLYLINE
  5
1DB
330
44
100
AcDbEntity
  8
0
  6
Continuous
 62
     7
100
AcDbPolyline
 90
        2
 70
     0
 43
0.15
 10
-84.43528608589898
 20
127.2014901042
 10
-86.93528370169898
 20
127.2014901042
  0
LWPOLYLINE
  5
1DC
330
44
100
AcDbEntity
  8
0
  6
Continuous
 62
     7
100
AcDbPolyline
 90
        2
 70
     0
 43
0.15
 10
-96.93528161549898
 20
129.7014914453
 10
-86.43528268839898
 20
129.7014914453
  0
LWPOLYLINE
  5
1DD
330
44
100
AcDbEntity
  8
0
  6
Continuous
 62
     7
100
AcDbPolyline
 90
        2
 70
     0
 43
0.15
 10
-96.93528161549898
 20
74.00000095360004
 10
-96.28528551359898
 20
121.7019408941
  0
LWPOLYLINE
  5
1DE
330
44
100
AcDbEntity
  8
0
  6
Continuous
 62
     7
100
AcDbPolyline
 90
        2
 70
     0
 43
0.15
 10
56.91471501090103
 20
121.7019408941
 10
57.56471856330103
 20
74.00000095360004
  0
LWPOLYLINE
  5
1DF
330
44
100
AcDbEntity
  8
0
  6
Continuous
 62
     7
100
AcDbPolyline
 90
        2
 70
     0
 43
0.15
 10
47.31471641750102
 20
73.0000026524
 10
47.31471641750102
 20
112.4999988824
  0
LWPOLYLINE
  5
1E0
330
44
100
AcDbEntity
  8
0
  6
Continuous
 62
     7
100
AcDbPolyline
 90
        2
 70
     0
 43
0.15
 10
-86.685279469699
 20
112.4999988824
 10
-86.685279469699
 20
73.0000026524
  0
LWPOLYLINE
  5
1E1
330
44
100
AcDbEntity
  8
0
  6
Continuous
 62
     7
100
AcDbPolyline
 90
        2
 70
     0
 43
0.15
 10
17.81471623870101
 20
72.75000028310002
 10
20.73340295650098
 20
73.0000026524
  0
LWPOLYLINE
  5
1E2
330
44
100
AcDbEntity
  8
0
  6
Continuous
 62
     7
100
AcDbPolyline
 90
        2
 70
     0
 43
0.15
 10
-60.10396973399898
 20
73.0000026524
 10
-57.18528301619898
 20
72.75000028310002
  0
LWPOLYLINE
  5
1E3
330
44
100
AcDbEntity
  8
0
  6
Continuous
 62
     7
100
AcDbPolyline
 90
        2
 70
     0
 43
0.15
 10
17.81471623870101
 20
5.00000268220001
 10
17.81471623870101
 20
72.75000028310002
  0
LWPOLYLINE
  5
1E4
330
44
100
AcDbEntity
  8
0
  6
Continuous
 62
     7
100
AcDbPolyline
 90
        2
 70
     0
 43
0.15
 10
-57.18528301619898
 20
72.75000028310002
 10
-57.18528301619898
 20
5.00000268220001
  0
LWPOLYLINE
  5
1E5
330
44
100
AcDbEntity
  8
0
  6
Continuous
 62
     7
100
AcDbPolyline
 90
        2
 70
     0
 43
0.15
 10
49.71471979120099
 20
124.2014914751
 10
-89.085282843399
 20
124.2014914751
  0
LWPOLYLINE
  5
1E6
330
44
100
AcDbEntity
  8
0
  6
Continuous
 62
     7
100
AcDbPolyline
 90
        2
 70
     0
 43
0.15
 10
-89.085282843399
 20
117.0000005513
 10
49.71471979120099
 20
117.0000005513
  0
LWPOLYLINE
  5
1E7
330
44
100
AcDbEntity
  8
0
  6
Continuous
 62
     7
100
AcDbPolyline
 90
        2
 70
     0
 43
0.15
 10
16.47497146220101
 20
0.0
 10
17.81471623870101
 20
5.00000268220001
  0
LWPOLYLINE
  5
1E8
330
44
100
AcDbEntity
  8
0
  6
Continuous
 62
     7
100
AcDbPolyline
 90
        2
 70
     0
 43
0.15
 10
-57.18528301619898
 20
5.00000268220001
 10
-55.84553823969898
 20
0.0
  0
LWPOLYLINE
  5
1E9
330
44
100
AcDbEntity
  8
0
  6
Continuous
 62
     7
100
AcDbPolyline
 90
        2
 70
     0
 43
0.15
 10
-187.685282986399
 20
157.9999178648
 10
-187.685282986399
 20
156.4999893307
  0
LWPOLYLINE
  5
1EA
330
44
100
AcDbEntity
  8
0
  6
Continuous
 62
     7
100
AcDbPolyline
 90
        2
 70
     0
 43
0.15
 10
-183.685289781299
 20
157.9999178648
 10
-187.685282986399
 20
157.9999178648
  0
LWPOLYLINE
  5
1EB
330
44
100
AcDbEntity
  8
0
  6
Continuous
 62
     7
100
AcDbPolyline
 90
        2
 70
     0
 43
0.15
 10
-183.685289781299
 20
156.4999893307
 10
-183.685289781299
 20
157.9999178648
  0
LWPOLYLINE
  5
1EC
330
44
100
AcDbEntity
  8
0
  6
Continuous
 62
     7
100
AcDbPolyline
 90
        2
 70
     0
 43
0.15
 10
-187.685282986399
 20
156.4999893307
 10
-183.685289781299
 20
156.4999893307
  0
LWPOLYLINE
  5
1ED
330
44
100
AcDbEntity
  8
0
  6
Continuous
 62
     7
100
AcDbPolyline
 90
        2
 70
     0
 43
0.15
 10
55.81471874210104
 20
135.0569203496
 10
-95.18528179429899
 20
135.0569203496
  0
LWPOLYLINE
  5
1EE
330
44
100
AcDbEntity
  8
0
  6
Continuous
 62
     7
100
AcDbPolyline
 90
        2
 70
     0
 43
0.15
 10
-95.18528179429899
 20
135.0569203496
 10
-94.435373406699
 20
135.4999989271
  0
LWPOLYLINE
  5
1EF
330
44
100
AcDbEntity
  8
0
  6
Continuous
 62
     7
100
AcDbPolyline
 90
        2
 70
     0
 43
0.15
 10
55.06480290390101
 20
135.4999989271
 10
-94.435373406699
 20
135.4999989271
  0
LWPOLYLINE
  5
1F0
330
44
100
AcDbEntity
  8
0
  6
Continuous
 62
     7
100
AcDbPolyline
 90
        2
 70
     0
 43
0.15
 10
55.06480290390101
 20
135.4999989271
 10
55.81471874210104
 20
135.0569203496
  0
LWPOLYLINE
  5
1F1
330
44
100
AcDbEntity
  8
0
  6
Continuous
 62
     7
100
AcDbPolyline
 90
        2
 70
     0
 43
0.15
 10
144.314719278601
 20
157.9999178648
 10
144.314719278601
 20
156.4999893307
  0
LWPOLYLINE
  5
1F2
330
44
100
AcDbEntity
  8
0
  6
Continuous
 62
     7
100
AcDbPolyline
 90
        2
 70
     0
 43
0.15
 10
148.314712483601
 20
157.9999178648
 10
144.314719278601
 20
157.9999178648
  0
LWPOLYLINE
  5
1F3
330
44
100
AcDbEntity
  8
0
  6
Continuous
 62
     7
100
AcDbPolyline
 90
        2
 70
     0
 43
0.15
 10
148.314712483601
 20
156.4999893307
 10
148.314712483601
 20
157.9999178648
  0
LWPOLYLINE
  5
1F4
330
44
100
AcDbEntity
  8
0
  6
Continuous
 62
     7
100
AcDbPolyline
 90
        2
 70
     0
 43
0.15
 10
144.314719278601
 20
156.4999893307
 10
148.314712483601
 20
156.4999893307
  0
LWPOLYLINE
  5
1F5
330
44
100
AcDbEntity
  8
0
  6
Continuous
 62
     7
100
AcDbPolyline
 90
        2
 70
     0
 43
0.15
 10
57.31471433140104
 20
129.7999992966
 10
-96.685284834199
 20
129.7999992966
  0
LWPOLYLINE
  5
1F6
330
44
100
AcDbEntity
  8
0
  6
Continuous
 62
     7
100
AcDbPolyline
 90
        2
 70
     0
 43
0.15
 10
57.31471433140104
 20
129.7999992966
 10
57.31471433140104
 20
125.2014897763001
  0
LWPOLYLINE
  5
1F7
330
44
100
AcDbEntity
  8
0
  6
Continuous
 62
     7
100
AcDbPolyline
 90
        2
 70
     0
 43
0.15
 10
-96.685284834199
 20
125.2014897763001
 10
-96.685284834199
 20
129.7999992966
  0
LWPOLYLINE
  5
1F8
330
44
100
AcDbEntity
  8
0
  6
Continuous
 62
     7
100
AcDbPolyline
 90
        2
 70
     0
 43
0.15
 10
-96.685284834199
 20
129.7999992966
 10
-95.18528179429899
 20
130.8000013232
  0
LWPOLYLINE
  5
1F9
330
44
100
AcDbEntity
  8
0
  6
Continuous
 62
     7
100
AcDbPolyline
 90
        2
 70
     0
 43
0.15
 10
55.81471874210104
 20
130.8000013232
 10
-95.18528179429899
 20
130.8000013232
  0
LWPOLYLINE
  5
1FA
330
44
100
AcDbEntity
  8
0
  6
Continuous
 62
     7
100
AcDbPolyline
 90
        2
 70
     0
 43
0.15
 10
55.81471874210104
 20
130.8000013232
 10
57.31471433140104
 20
129.7999992966
  0
LWPOLYLINE
  5
1FB
330
44
100
AcDbEntity
  8
0
  6
Continuous
 62
     7
100
AcDbPolyline
 90
        2
 70
     0
 43
0.15
 10
55.81471874210104
 20
135.0569203496
 10
55.81471874210104
 20
130.8000013232
  0
LWPOLYLINE
  5
1FC
330
44
100
AcDbEntity
  8
0
  6
Continuous
 62
     7
100
AcDbPolyline
 90
        2
 70
     0
 43
0.15
 10
-95.18528179429899
 20
130.8000013232
 10
-95.18528179429899
 20
135.0569203496
  0
LWPOLYLINE
  5
1FD
330
44
100
AcDbEntity
  8
0
  6
Continuous
 62
     7
100
AcDbPolyline
 90
        2
 70
     0
 43
0.15
 10
53.21471943350099
 20
115.0000002235
 10
53.21471943350099
 20
121.7019408941
  0
LWPOLYLINE
  5
1FE
330
44
100
AcDbEntity
  8
0
  6
Continuous
 62
     7
100
AcDbPolyline
 90
        2
 70
     0
 43
0.15
 10
-92.585282485699
 20
121.7019408941
 10
-92.585282485699
 20
115.0000002235
  0
LWPOLYLINE
  5
1FF
330
44
100
AcDbEntity
  8
0
  6
Continuous
 62
     7
100
AcDbPolyline
 90
        2
 70
     0
 43
0.15
 10
55.06480290390101
 20
136.3999992609
 10
-94.435373406699
 20
136.3999992609
  0
LWPOLYLINE
  5
200
330
44
100
AcDbEntity
  8
0
  6
Continuous
 62
     7
100
AcDbPolyline
 90
        2
 70
     0
 43
0.15
 10
55.06480290390101
 20
136.3999992609
 10
55.06480290390101
 20
135.4999989271
  0
LWPOLYLINE
  5
201
330
44
100
AcDbEntity
  8
0
  6
Continuous
 62
     7
100
AcDbPolyline
 90
        2
 70
     0
 43
0.15
 10
-94.435373406699
 20
135.4999989271
 10
-94.435373406699
 20
136.3999992609
  0
LWPOLYLINE
  5
202
330
44
100
AcDbEntity
  8
0
  6
Continuous
 62
     7
100
AcDbPolyline
 90
        2
 70
     0
 43
0.15
 10
59.06471415260103
 20
158.9999198913
 10
59.06466944910102
 20
143.3018334209
  0
LWPOLYLINE
  5
203
330
44
100
AcDbEntity
  8
0
  6
Continuous
 62
     7
100
AcDbPolyline
 90
        2
 70
     0
 43
0.15
 10
59.06466944910102
 20
143.3018334209
 10
58.81471737120103
 20
143.3018334209
  0
LWPOLYLINE
  5
204
330
44
100
AcDbEntity
  8
0
  6
Continuous
 62
     7
100
AcDbPolyline
 90
        2
 70
     0
 43
0.15
 10
-98.18528042339898
 20
143.3018334209
 10
-98.435232501299
 20
143.3018334209
  0
LWPOLYLINE
  5
205
330
44
100
AcDbEntity
  8
0
  6
Continuous
 62
     7
100
AcDbPolyline
 90
        2
 70
     0
 43
0.15
 10
-98.435232501299
 20
143.3018334209
 10
-98.43527720479898
 20
158.9999198913
  0
LWPOLYLINE
  5
206
330
44
100
AcDbEntity
  8
0
  6
Continuous
 62
     7
100
AcDbPolyline
 90
        2
 70
     0
 43
0.15
 10
62.56469889380099
 20
142.4000002443
 10
62.56471379490102
 20
156.4999893307
  0
LWPOLYLINE
  5
207
330
44
100
AcDbEntity
  8
0
  6
Continuous
 62
     7
100
AcDbPolyline
 90
        2
 70
     0
 43
0.15
 10
-101.935284297699
 20
156.4999893307
 10
-101.935261945999
 20
142.4000002443
  0
LWPOLYLINE
  5
208
330
44
100
AcDbEntity
  8
0
  6
Continuous
 62
     7
100
AcDbPolyline
 90
        2
 70
     0
 43
0.15
 10
60.41471465320103
 20
138.5999992489
 10
62.56469889380099
 20
142.4000002443
  0
LWPOLYLINE
  5
209
330
44
100
AcDbEntity
  8
0
  6
Continuous
 62
     7
100
AcDbPolyline
 90
        2
 70
     0
 43
0.15
 10
-101.935261945999
 20
142.4000002443
 10
-99.78528515599899
 20
138.5999992489
  0
LWPOLYLINE
  5
20A
330
44
100
AcDbEntity
  8
0
  6
Continuous
 62
     7
100
AcDbPolyline
 90
        2
 70
     0
 43
0.15
 10
60.41471465320103
 20
74.00000095360004
 10
60.41471465320103
 20
138.5999992489
  0
LWPOLYLINE
  5
20B
330
44
100
AcDbEntity
  8
0
  6
Continuous
 62
     7
100
AcDbPolyline
 90
        2
 70
     0
 43
0.15
 10
-99.78528515599899
 20
138.5999992489
 10
-99.78528515599899
 20
74.00000095360004
  0
LWPOLYLINE
  5
20C
330
44
100
AcDbEntity
  8
0
  6
Continuous
 62
     7
100
AcDbPolyline
 90
        2
 70
     0
 43
0.15
 10
-99.435279231299
 20
159.9999219179
 10
-98.18528042339898
 20
159.9999219179
  0
LWPOLYLINE
  5
20D
330
44
100
AcDbEntity
  8
0
  6
Continuous
 62
     7
100
AcDbPolyline
 90
        2
 70
     0
 43
0.15
 10
58.81471737120103
 20
159.9999219179
 10
60.06471617910103
 20
159.9999219179
  0
LWPOLYLINE
  5
20E
330
44
100
AcDbEntity
  8
0
  6
Continuous
 62
     7
100
AcDbPolyline
 90
        2
 70
     0
 43
0.15
 10
43.81471677520102
 20
115.0000002235
 10
-83.18528355269899
 20
115.0000002235
  0
LWPOLYLINE
  5
20F
330
44
100
AcDbEntity
  8
0
  6
Continuous
 62
     7
100
AcDbPolyline
 90
        2
 70
     0
 43
0.15
 10
43.81471677520102
 20
115.0000002235
 10
43.81471677520102
 20
76.49954967200001
  0
LWPOLYLINE
  5
210
330
44
100
AcDbEntity
  8
0
  6
Continuous
 62
     7
100
AcDbPolyline
 90
        2
 70
     0
 43
0.15
 10
-83.18528355269899
 20
76.49954967200001
 10
-83.18528355269899
 20
115.0000002235
  0
LWPOLYLINE
  5
211
330
44
100
AcDbEntity
  8
0
  6
Continuous
 62
     7
100
AcDbPolyline
 90
        2
 70
     0
 43
0.15
 10
-84.185281853899
 20
116.0000003874
 10
44.81471880170102
 20
116.0000003874
  0
LWPOLYLINE
  5
212
330
44
100
AcDbEntity
  8
0
  6
Continuous
 62
     7
100
AcDbPolyline
 90
        2
 70
     0
 43
0.15
 10
-187.685282986399
 20
157.9999178648
 10
-189.685287039499
 20
159.9999219179
  0
LWPOLYLINE
  5
213
330
44
100
AcDbEntity
  8
0
  6
Continuous
 62
     7
100
AcDbPolyline
 90
        2
 70
     0
 43
0.15
 10
-199.685277502799
 20
157.9999178648
 10
-199.685277502799
 20
156.4999893307
  0
LWPOLYLINE
  5
214
330
44
100
AcDbEntity
  8
0
  6
Continuous
 62
     7
100
AcDbPolyline
 90
        2
 70
     0
 43
0.15
 10
-199.685277502799
 20
156.4999893307
 10
-187.685282986399
 20
156.4999893307
  0
LWPOLYLINE
  5
215
330
44
100
AcDbEntity
  8
0
  6
Continuous
 62
     7
100
AcDbPolyline
 90
        2
 70
     0
 43
0.15
 10
-189.685287039499
 20
159.9999219179
 10
-197.685288350799
 20
159.9999219179
  0
LWPOLYLINE
  5
216
330
44
100
AcDbEntity
  8
0
  6
Continuous
 62
     7
100
AcDbPolyline
 90
        2
 70
     0
 43
0.15
 10
160.314721901201
 20
156.4999893307
 10
160.314721901201
 20
157.9999178648
  0
LWPOLYLINE
  5
217
330
44
100
AcDbEntity
  8
0
  6
Continuous
 62
     7
100
AcDbPolyline
 90
        2
 70
     0
 43
0.15
 10
14.31471659640101
 20
76.49954967200001
 10
-53.685283373799
 20
76.49954967200001
  0
LWPOLYLINE
  5
218
330
44
100
AcDbEntity
  8
0
  6
Continuous
 62
     7
100
AcDbPolyline
 90
        2
 70
     0
 43
0.15
 10
14.31471659640101
 20
76.49954967200001
 10
14.31471659640101
 20
0.0
  0
LWPOLYLINE
  5
219
330
44
100
AcDbEntity
  8
0
  6
Continuous
 62
     7
100
AcDbPolyline
 90
        2
 70
     0
 43
0.15
 10
-53.685283373799
 20
0.0
 10
-53.685283373799
 20
76.49954967200001
  0
LWPOLYLINE
  5
21A
330
44
100
AcDbEntity
  8
0
  6
Continuous
 62
     7
100
AcDbPolyline
 90
        2
 70
     0
 43
0.15
 10
14.31471659640101
 20
0.0
 10
-53.685283373799
 20
0.0
  0
LWPOLYLINE
  5
21B
330
44
100
AcDbEntity
  8
0
  6
Continuous
 62
     7
100
AcDbPolyline
 90
        2
 70
     0
 43
0.15
 10
-181.685285728199
 20
159.9999219179
 10
-183.685289781299
 20
157.9999178648
  0
LWPOLYLINE
  5
21C
330
44
100
AcDbEntity
  8
0
  6
Continuous
 62
     7
100
AcDbPolyline
 90
        2
 70
     0
 43
0.15
 10
-189.685287039499
 20
159.9999219179
 10
-181.685285728199
 20
159.9999219179
  0
LWPOLYLINE
  5
21D
330
44
100
AcDbEntity
  8
0
  6
Continuous
 62
     7
100
AcDbPolyline
 90
        2
 70
     0
 43
0.15
 10
150.314716536701
 20
159.9999219179
 10
148.314712483601
 20
157.9999178648
  0
LWPOLYLINE
  5
21E
330
44
100
AcDbEntity
  8
0
  6
Continuous
 62
     7
100
AcDbPolyline
 90
        2
 70
     0
 43
0.15
 10
144.314719278601
 20
157.9999178648
 10
142.314715225401
 20
159.9999219179
  0
LWPOLYLINE
  5
21F
330
44
100
AcDbEntity
  8
0
  6
Continuous
 62
     7
100
AcDbPolyline
 90
        2
 70
     0
 43
0.15
 10
142.314715225401
 20
159.9999219179
 10
150.314716536701
 20
159.9999219179
  0
LWPOLYLINE
  5
220
330
44
100
AcDbEntity
  8
0
  6
Continuous
 62
     7
100
AcDbPolyline
 90
        2
 70
     0
 43
0.15
 10
-94.435373406699
 20
136.3999992609
 10
-98.435232501299
 20
143.3018334209
  0
LWPOLYLINE
  5
221
330
44
100
AcDbEntity
  8
0
  6
Continuous
 62
     7
100
AcDbPolyline
 90
        2
 70
     0
 43
0.15
 10
-90.085284869899
 20
125.2014897763001
 10
-96.685284834199
 20
125.2014897763001
  0
LWPOLYLINE
  5
222
330
44
100
AcDbEntity
  8
0
  6
Continuous
 62
     7
100
AcDbPolyline
 90
        2
 70
     0
 43
0.15
 10
-89.085282843399
 20
117.0000005513
 10
-89.085282843399
 20
124.2014914751
  0
LWPOLYLINE
  5
223
330
44
100
AcDbEntity
  8
0
  6
Continuous
 62
     7
100
AcDbPolyline
 90
        2
 70
     0
 43
0.15
 10
-53.685283373799
 20
76.49954967200001
 10
-83.18528355269899
 20
76.49954967200001
  0
LWPOLYLINE
  5
224
330
44
100
AcDbEntity
  8
0
  6
Continuous
 62
     7
100
AcDbPolyline
 90
        2
 70
     0
 43
0.15
 10
-84.185281853899
 20
116.0000003874
 10
-88.08528081679898
 20
116.0000003874
  0
LWPOLYLINE
  5
225
330
44
100
AcDbEntity
  8
0
  6
Continuous
 62
     7
100
AcDbPolyline
 90
        2
 70
     0
 43
0.15
 10
-55.84553823969898
 20
0.0
 10
-53.685283373799
 20
0.0
  0
LWPOLYLINE
  5
226
330
44
100
AcDbEntity
  8
0
  6
Continuous
 62
     7
100
AcDbPolyline
 90
        2
 70
     0
 43
0.15
 10
-99.78528515599899
 20
74.00000095360004
 10
-96.93528161549898
 20
74.00000095360004
  0
LWPOLYLINE
  5
227
330
44
100
AcDbEntity
  8
0
  6
Continuous
 62
     7
100
AcDbPolyline
 90
        2
 70
     0
 43
0.15
 10
-183.685289781299
 20
156.4999893307
 10
-101.935284297699
 20
156.4999893307
  0
LWPOLYLINE
  5
228
330
44
100
AcDbEntity
  8
0
  6
Continuous
 62
     7
100
AcDbPolyline
 90
        2
 70
     0
 43
0.15
 10
-99.435279231299
 20
159.9999219179
 10
-181.685285728199
 20
159.9999219179
  0
LWPOLYLINE
  5
229
330
44
100
AcDbEntity
  8
0
  6
Continuous
 62
     7
100
AcDbPolyline
 90
        2
 70
     0
 43
0.15
 10
-86.685279469699
 20
73.0000026524
 10
-60.10396973399898
 20
73.0000026524
  0
LWPOLYLINE
  5
22A
330
44
100
AcDbEntity
  8
0
  6
Continuous
 62
     7
100
AcDbPolyline
 90
        2
 70
     0
 43
0.15
 10
-90.085284869899
 20
112.4999988824
 10
-86.685279469699
 20
112.4999988824
  0
LWPOLYLINE
  5
22B
330
44
100
AcDbEntity
  8
0
  6
Continuous
 62
     7
100
AcDbPolyline
 90
        2
 70
     0
 43
0.15
 10
-96.28528551359898
 20
121.7019408941
 10
-92.585282485699
 20
121.7019408941
  0
LWPOLYLINE
  5
22C
330
44
100
AcDbEntity
  8
0
  6
Continuous
 62
     7
100
AcDbPolyline
 90
        2
 70
     0
 43
0.15
 10
59.06466944910102
 20
143.3018334209
 10
55.06480290390101
 20
136.3999992609
  0
LWPOLYLINE
  5
22D
330
44
100
AcDbEntity
  8
0
  6
Continuous
 62
     7
100
AcDbPolyline
 90
        2
 70
     0
 43
0.15
 10
49.71471979120099
 20
124.2014914751
 10
49.71471979120099
 20
117.0000005513
  0
LWPOLYLINE
  5
22E
330
44
100
AcDbEntity
  8
0
  6
Continuous
 62
     7
100
AcDbPolyline
 90
        2
 70
     0
 43
0.15
 10
57.31471433140104
 20
125.2014897763001
 10
50.71471436710101
 20
125.2014897763001
  0
LWPOLYLINE
  5
22F
330
44
100
AcDbEntity
  8
0
  6
Continuous
 62
     7
100
AcDbPolyline
 90
        2
 70
     0
 43
0.15
 10
43.81471677520102
 20
76.49954967200001
 10
14.31471659640101
 20
76.49954967200001
  0
LWPOLYLINE
  5
230
330
44
100
AcDbEntity
  8
0
  6
Continuous
 62
     7
100
AcDbPolyline
 90
        2
 70
     0
 43
0.15
 10
48.71471776460101
 20
116.0000003874
 10
44.81471880170102
 20
116.0000003874
  0
LWPOLYLINE
  5
231
330
44
100
AcDbEntity
  8
0
  6
Continuous
 62
     7
100
AcDbPolyline
 90
        2
 70
     0
 43
0.15
 10
14.31471659640101
 20
0.0
 10
16.47497146220101
 20
0.0
  0
LWPOLYLINE
  5
232
330
44
100
AcDbEntity
  8
0
  6
Continuous
 62
     7
100
AcDbPolyline
 90
        2
 70
     0
 43
0.15
 10
57.56471856330103
 20
74.00000095360004
 10
60.41471465320103
 20
74.00000095360004
  0
LWPOLYLINE
  5
233
330
44
100
AcDbEntity
  8
0
  6
Continuous
 62
     7
100
AcDbPolyline
 90
        2
 70
     0
 43
0.15
 10
62.56471379490102
 20
156.4999893307
 10
144.314719278601
 20
156.4999893307
  0
LWPOLYLINE
  5
234
330
44
100
AcDbEntity
  8
0
  6
Continuous
 62
     7
100
AcDbPolyline
 90
        2
 70
     0
 43
0.15
 10
142.314715225401
 20
159.9999219179
 10
60.06471617910103
 20
159.9999219179
  0
LWPOLYLINE
  5
235
330
44
100
AcDbEntity
  8
0
  6
Continuous
 62
     7
100
AcDbPolyline
 90
        2
 70
     0
 43
0.15
 10
20.73340295650098
 20
73.0000026524
 10
47.31471641750102
 20
73.0000026524
  0
LWPOLYLINE
  5
236
330
44
100
AcDbEntity
  8
0
  6
Continuous
 62
     7
100
AcDbPolyline
 90
        2
 70
     0
 43
0.15
 10
47.31471641750102
 20
112.4999988824
 10
50.71471436710101
 20
112.4999988824
  0
LWPOLYLINE
  5
237
330
44
100
AcDbEntity
  8
0
  6
Continuous
 62
     7
100
AcDbPolyline
 90
        2
 70
     0
 43
0.15
 10
53.21471943350099
 20
121.7019408941
 10
56.91471501090103
 20
121.7019408941
  0
LWPOLYLINE
  5
238
330
44
100
AcDbEntity
  8
0
  6
Continuous
 62
     7
100
AcDbPolyline
 90
        2
 70
     0
 43
0.15
 10
148.314712483601
 20
156.4999893307
 10
160.314721901201
 20
156.4999893307
  0
LWPOLYLINE
  5
239
330
44
100
AcDbEntity
  8
0
  6
Continuous
 62
     7
100
AcDbPolyline
 90
        2
 70
     0
 43
0.15
 10
158.314717848101
 20
159.9999219179
 10
150.314716536701
 20
159.9999219179
  0
LWPOLYLINE
  5
23A
330
44
100
AcDbEntity
  8
0
  6
Continuous
 62
     7
100
AcDbPolyline
 90
        2
 70
     0
 43
0.15
 10
-11.18528292679901
 20
229.9999222159
 10
-5.93528346329899
 20
229.9999222159
  0
LWPOLYLINE
  5
23B
330
44
100
AcDbEntity
  8
0
  6
Continuous
 62
     7
100
AcDbPolyline
 90
        2
 70
     0
 43
0.15
 10
-33.43528331419898
 20
229.9999222159
 10
-28.18528291939899
 20
229.9999222159
  0
LWPOLYLINE
  5
23C
330
44
100
AcDbEntity
  8
0
  6
Continuous
 62
     7
100
AcDbPolyline
 90
        2
 70
     0
 43
0.15
 10
9.564716283401
 20
229.9999222159
 10
10.06471729670102
 20
229.9999222159
  0
LWPOLYLINE
  5
23D
330
44
100
AcDbEntity
  8
0
  6
Continuous
 62
     7
100
AcDbPolyline
 90
        2
 70
     0
 43
0.15
 10
-38.43528227119899
 20
229.9999222159
 10
-33.43528331419898
 20
229.9999222159
  0
LWPOLYLINE
  5
23E
330
44
100
AcDbEntity
  8
0
  6
Continuous
 62
     7
100
AcDbPolyline
 90
        2
 70
     0
 43
0.15
 10
-5.93528346329899
 20
229.9999222159
 10
-0.935282643699
 20
229.9999222159
  0
LWPOLYLINE
  5
23F
330
44
100
AcDbEntity
  8
0
  6
Continuous
 62
     7
100
AcDbPolyline
 90
        2
 70
     0
 43
0.15
 10
-49.435282211599
 20
229.9999222159
 10
-48.935283060899
 20
229.9999222159
  0
LWPOLYLINE
  5
240
330
44
100
AcDbEntity
  8
0
  6
Continuous
 62
     7
100
AcDbPolyline
 90
        2
 70
     0
 43
0.15
 10
-54.43528489379898
 20
229.9999222159
 10
-49.435282211599
 20
229.9999222159
  0
LWPOLYLINE
  5
241
330
44
100
AcDbEntity
  8
0
  6
Continuous
 62
     7
100
AcDbPolyline
 90
        2
 70
     0
 43
0.15
 10
10.06471729670102
 20
229.9999222159
 10
15.06471811630101
 20
229.9999222159
  0
LWPOLYLINE
  5
242
330
44
100
AcDbEntity
  8
0
  6
Continuous
 62
     7
100
AcDbPolyline
 90
        2
 70
     0
 43
0.15
 10
25.564717043401
 20
229.9999222159
 10
26.064718056701
 20
229.9999222159
  0
LWPOLYLINE
  5
243
330
44
100
AcDbEntity
  8
0
  6
Continuous
 62
     7
100
AcDbPolyline
 90
        2
 70
     0
 43
0.15
 10
-65.435284834199
 20
229.9999222159
 10
-64.935283820899
 20
229.9999222159
  0
LWPOLYLINE
  5
244
330
44
100
AcDbEntity
  8
0
  6
Continuous
 62
     7
100
AcDbPolyline
 90
        2
 70
     0
 43
0.15
 10
-85.68528489379898
 20
229.9999222159
 10
-80.935282718199
 20
229.9999222159
  0
LWPOLYLINE
  5
245
330
44
100
AcDbEntity
  8
0
  6
Continuous
 62
     7
100
AcDbPolyline
 90
        2
 70
     0
 43
0.15
 10
-70.43528379109898
 20
229.9999222159
 10
-65.435284834199
 20
229.9999222159
  0
LWPOLYLINE
  5
246
330
44
100
AcDbEntity
  8
0
  6
Continuous
 62
     7
100
AcDbPolyline
 90
        2
 70
     0
 43
0.15
 10
26.064718056701
 20
229.9999222159
 10
31.06471701360101
 20
229.9999222159
  0
LWPOLYLINE
  5
247
330
44
100
AcDbEntity
  8
0
  6
Continuous
 62
     7
100
AcDbPolyline
 90
        2
 70
     0
 43
0.15
 10
41.56471594070104
 20
229.9999222159
 10
46.31471439100102
 20
229.9999222159
  0
LWPOLYLINE
  5
248
330
44
100
AcDbEntity
  8
0
  6
Continuous
 62
     7
100
AcDbPolyline
 90
        2
 70
     0
 43
0.15
 10
53.77358748410103
 20
158.9999198913
 10
52.31471909970099
 20
158.9999198913
  0
LWPOLYLINE
  5
249
330
44
100
AcDbEntity
  8
0
  6
Continuous
 62
     7
100
AcDbPolyline
 90
        2
 70
     0
 43
0.15
 10
-91.685282151899
 20
158.9999198913
 10
-93.14415053629898
 20
158.9999198913
  0
LWPOLYLINE
  5
24A
330
44
100
AcDbEntity
  8
0
  6
Continuous
 62
     7
100
AcDbPolyline
 90
        2
 70
     0
 43
0.15
 10
-94.685280780999
 20
69.00000199670002
 10
-57.18528301619898
 20
69.00000199670002
  0
LWPOLYLINE
  5
24B
330
44
100
AcDbEntity
  8
0
  6
Continuous
 62
     7
100
AcDbPolyline
 90
        2
 70
     0
 43
0.15
 10
17.81471623870101
 20
69.00000199670002
 10
55.31471772880099
 20
69.00000199670002
  0
LWPOLYLINE
  5
24C
330
44
100
AcDbEntity
  8
0
  6
Continuous
 62
     7
100
AcDbPolyline
 90
        2
 70
     0
 43
0.15
 10
59.06471415260103
 20
158.9999198913
 10
58.81471737120103
 20
158.9999198913
  0
LWPOLYLINE
  5
24D
330
44
100
AcDbEntity
  8
0
  6
Continuous
 62
     7
100
AcDbPolyline
 90
        2
 70
     0
 43
0.15
 10
-98.18528042339898
 20
158.9999198913
 10
-98.43527720479898
 20
158.9999198913
  0
LINE
  5
24E
330
44
100
AcDbEntity
  8
0
  6
CENTERX2
 62
     7
100
AcDbLine
 10
-19.68528303539898
 20
-3.63948679079999
 30
0.0
 11
-19.68528303539898
 21
235.9488436472
 31
0.0
  0
LWPOLYLINE
  5
24F
330
44
100
AcDbEntity
  8
0
  6
Continuous
 62
     7
100
AcDbPolyline
 90
        2
 70
     0
 43
0.15
 10
-4.93528303539898
 20
230.9999198868
 42
0.4142135623731
 10
-5.93528303539898
 20
229.9999198868
 42
0.4142135623731
  0
LWPOLYLINE
  5
250
330
44
100
AcDbEntity
  8
0
  6
Continuous
 62
     7
100
AcDbPolyline
 90
        2
 70
     0
 43
0.15
 10
-33.43528303539898
 20
229.9999198868
 42
0.4142135623731
 10
-34.43528303539898
 20
230.9999198868
 42
0.4142135623731
  0
LWPOLYLINE
  5
251
330
44
100
AcDbEntity
  8
0
  6
Continuous
 62
     7
100
AcDbPolyline
 90
        2
 70
     0
 43
0.15
 10
11.06471696460102
 20
230.9999198868
 42
0.4142135623731
 10
10.06471696460102
 20
229.9999198868
 42
0.4142135623731
  0
LWPOLYLINE
  5
252
330
44
100
AcDbEntity
  8
0
  6
Continuous
 62
     7
100
AcDbPolyline
 90
        2
 70
     0
 43
0.15
 10
-49.43528303539898
 20
229.9999198868
 42
0.4142135623731
 10
-50.43528303539898
 20
230.9999198868
 42
0.4142135623731
  0
LWPOLYLINE
  5
253
330
44
100
AcDbEntity
  8
0
  6
Continuous
 62
     7
100
AcDbPolyline
 90
        2
 70
     0
 43
0.15
 10
27.06471696460102
 20
230.9999198868
 42
0.4142135623731
 10
26.06471696460102
 20
229.9999198868
 42
0.4142135623731
  0
LWPOLYLINE
  5
254
330
44
100
AcDbEntity
  8
0
  6
Continuous
 62
     7
100
AcDbPolyline
 90
        2
 70
     0
 43
0.15
 10
-65.43528303539898
 20
229.9999198868
 42
0.4142135623731
 10
-66.43528303539898
 20
230.9999198868
 42
0.4142135623731
  0
LWPOLYLINE
  5
255
330
44
100
AcDbEntity
  8
0
  6
Continuous
 62
     7
100
AcDbPolyline
 90
        2
 70
     0
 43
0.15
 10
47.81471696460102
 20
229.9999198868
 42
0.4142135623731
 10
46.81471696460102
 20
230.9999198868
 42
0.4142135623731
  0
LWPOLYLINE
  5
256
330
44
100
AcDbEntity
  8
0
  6
Continuous
 62
     7
100
AcDbPolyline
 90
        2
 70
     0
 43
0.15
 10
42.56471696460102
 20
230.9999198868
 42
0.4142135623731
 10
41.56471696460102
 20
229.9999198868
 42
0.4142135623731
  0
LWPOLYLINE
  5
257
330
44
100
AcDbEntity
  8
0
  6
Continuous
 62
     7
100
AcDbPolyline
 90
        2
 70
     0
 43
0.15
 10
42.56471696460102
 20
232.4999198868
 42
0.4142135623731
 10
40.06471696460102
 20
229.9999198868
 42
0.4142135623731
  0
LWPOLYLINE
  5
258
330
44
100
AcDbEntity
  8
0
  6
Continuous
 62
     7
100
AcDbPolyline
 90
        2
 70
     0
 43
0.15
 10
49.31471696460102
 20
229.9999198868
 42
0.4142135623731
 10
46.81471696460102
 20
232.4999198868
 42
0.4142135623731
  0
LWPOLYLINE
  5
259
330
44
100
AcDbEntity
  8
0
  6
Continuous
 62
     7
100
AcDbPolyline
 90
        2
 70
     0
 43
0.15
 10
-48.93528303539898
 20
229.9999198868
 42
0.4142135623731
 10
-49.93528303539898
 20
230.9999198868
 42
0.4142135623731
  0
LWPOLYLINE
  5
25A
330
44
100
AcDbEntity
  8
0
  6
Continuous
 62
     7
100
AcDbPolyline
 90
        2
 70
     0
 43
0.15
 10
-53.43528303539898
 20
230.9999198868
 42
0.4142135623731
 10
-54.43528303539898
 20
229.9999198868
 42
0.4142135623731
  0
LWPOLYLINE
  5
25B
330
44
100
AcDbEntity
  8
0
  6
Continuous
 62
     7
100
AcDbPolyline
 90
        2
 70
     0
 43
0.15
 10
-53.43528303539898
 20
232.4999198868
 42
0.4142135623731
 10
-55.93528303539898
 20
229.9999198868
 42
0.4142135623731
  0
LWPOLYLINE
  5
25C
330
44
100
AcDbEntity
  8
0
  6
Continuous
 62
     7
100
AcDbPolyline
 90
        2
 70
     0
 43
0.15
 10
-47.43528303539898
 20
229.9999198868
 42
0.4142135623731
 10
-49.93528303539898
 20
232.4999198868
 42
0.4142135623731
  0
LWPOLYLINE
  5
25D
330
44
100
AcDbEntity
  8
0
  6
Continuous
 62
     7
100
AcDbPolyline
 90
        2
 70
     0
 43
0.15
 10
-64.93528303539898
 20
229.9999198868
 42
0.4142135623731
 10
-65.93528303539898
 20
230.9999198868
 42
0.4142135623731
  0
LWPOLYLINE
  5
25E
330
44
100
AcDbEntity
  8
0
  6
Continuous
 62
     7
100
AcDbPolyline
 90
        2
 70
     0
 43
0.15
 10
-69.43528303539898
 20
230.9999198868
 42
0.4142135623731
 10
-70.43528303539898
 20
229.9999198868
 42
0.4142135623731
  0
LWPOLYLINE
  5
25F
330
44
100
AcDbEntity
  8
0
  6
Continuous
 62
     7
100
AcDbPolyline
 90
        2
 70
     0
 43
0.15
 10
-69.43528303539898
 20
232.4999198868
 42
0.4142135623731
 10
-71.93528303539898
 20
229.9999198868
 42
0.4142135623731
  0
LWPOLYLINE
  5
260
330
44
100
AcDbEntity
  8
0
  6
Continuous
 62
     7
100
AcDbPolyline
 90
        2
 70
     0
 43
0.15
 10
-63.43528303539898
 20
229.9999198868
 42
0.4142135623731
 10
-65.93528303539898
 20
232.4999198868
 42
0.4142135623731
  0
LWPOLYLINE
  5
261
330
44
100
AcDbEntity
  8
0
  6
Continuous
 62
     7
100
AcDbPolyline
 90
        2
 70
     0
 43
0.15
 10
-80.93528303539898
 20
229.9999198868
 42
0.4142135623731
 10
-81.93528303539898
 20
230.9999198868
 42
0.4142135623731
  0
LWPOLYLINE
  5
262
330
44
100
AcDbEntity
  8
0
  6
Continuous
 62
     7
100
AcDbPolyline
 90
        2
 70
     0
 43
0.15
 10
-86.18528303539898
 20
230.9999198868
 42
0.4142135623731
 10
-87.18528303539898
 20
229.9999198868
 42
0.4142135623731
  0
LWPOLYLINE
  5
263
330
44
100
AcDbEntity
  8
0
  6
Continuous
 62
     7
100
AcDbPolyline
 90
        2
 70
     0
 43
0.15
 10
-86.18528303539898
 20
232.4999198868
 42
0.4142135623731
 10
-88.68528303539898
 20
229.9999198868
 42
0.4142135623731
  0
LWPOLYLINE
  5
264
330
44
100
AcDbEntity
  8
0
  6
Continuous
 62
     7
100
AcDbPolyline
 90
        2
 70
     0
 43
0.15
 10
-79.43528303539898
 20
229.9999198868
 42
0.4142135623731
 10
-81.93528303539898
 20
232.4999198868
 42
0.4142135623731
  0
LWPOLYLINE
  5
265
330
44
100
AcDbEntity
  8
0
  6
Continuous
 62
     7
100
AcDbPolyline
 90
        2
 70
     0
 43
0.15
 10
15.06471696460102
 20
229.9999198868
 42
0.4142135623731
 10
14.06471696460102
 20
230.9999198868
 42
0.4142135623731
  0
LWPOLYLINE
  5
266
330
44
100
AcDbEntity
  8
0
  6
Continuous
 62
     7
100
AcDbPolyline
 90
        2
 70
     0
 43
0.15
 10
10.56471696460102
 20
230.9999198868
 42
0.4142135623731
 10
9.56471696460102
 20
229.9999198868
 42
0.4142135623731
  0
LWPOLYLINE
  5
267
330
44
100
AcDbEntity
  8
0
  6
Continuous
 62
     7
100
AcDbPolyline
 90
        2
 70
     0
 43
0.15
 10
10.56471696460102
 20
232.4999198868
 42
0.4142135623731
 10
8.06471696460102
 20
229.9999198868
 42
0.4142135623731
  0
LWPOLYLINE
  5
268
330
44
100
AcDbEntity
  8
0
  6
Continuous
 62
     7
100
AcDbPolyline
 90
        2
 70
     0
 43
0.15
 10
16.56471696460102
 20
229.9999198868
 42
0.4142135623731
 10
14.06471696460102
 20
232.4999198868
 42
0.4142135623731
  0
LWPOLYLINE
  5
269
330
44
100
AcDbEntity
  8
0
  6
Continuous
 62
     7
100
AcDbPolyline
 90
        2
 70
     0
 43
0.15
 10
31.06471696460102
 20
229.9999198868
 42
0.4142135623731
 10
30.06471696460102
 20
230.9999198868
 42
0.4142135623731
  0
LWPOLYLINE
  5
26A
330
44
100
AcDbEntity
  8
0
  6
Continuous
 62
     7
100
AcDbPolyline
 90
        2
 70
     0
 43
0.15
 10
26.56471696460102
 20
230.9999198868
 42
0.4142135623731
 10
25.56471696460102
 20
229.9999198868
 42
0.4142135623731
  0
LWPOLYLINE
  5
26B
330
44
100
AcDbEntity
  8
0
  6
Continuous
 62
     7
100
AcDbPolyline
 90
        2
 70
     0
 43
0.15
 10
26.56471696460102
 20
232.4999198868
 42
0.4142135623731
 10
24.06471696460102
 20
229.9999198868
 42
0.4142135623731
  0
LWPOLYLINE
  5
26C
330
44
100
AcDbEntity
  8
0
  6
Continuous
 62
     7
100
AcDbPolyline
 90
        2
 70
     0
 43
0.15
 10
32.56471696460102
 20
229.9999198868
 42
0.4142135623731
 10
30.06471696460102
 20
232.4999198868
 42
0.4142135623731
  0
LWPOLYLINE
  5
26D
330
44
100
AcDbEntity
  8
0
  6
Continuous
 62
     7
100
AcDbPolyline
 90
        2
 70
     0
 43
0.15
 10
-0.93528303539898
 20
229.9999198868
 42
0.4142135623731
 10
-1.93528303539898
 20
230.9999198868
 42
0.4142135623731
  0
LWPOLYLINE
  5
26E
330
44
100
AcDbEntity
  8
0
  6
Continuous
 62
     7
100
AcDbPolyline
 90
        2
 70
     0
 43
0.15
 10
-37.43528303539898
 20
230.9999198868
 42
0.4142135623731
 10
-38.43528303539898
 20
229.9999198868
 42
0.4142135623731
  0
LWPOLYLINE
  5
26F
330
44
100
AcDbEntity
  8
0
  6
Continuous
 62
     7
100
AcDbPolyline
 90
        2
 70
     0
 43
0.15
 10
-37.43528303539898
 20
232.4999198868
 42
0.4142135623731
 10
-39.93528303539898
 20
229.9999198868
 42
0.4142135623731
  0
LWPOLYLINE
  5
270
330
44
100
AcDbEntity
  8
0
  6
Continuous
 62
     7
100
AcDbPolyline
 90
        2
 70
     0
 43
0.15
 10
0.56471696460102
 20
229.9999198868
 42
0.4142135623731
 10
-1.93528303539898
 20
232.4999198868
 42
0.4142135623731
  0
LWPOLYLINE
  5
271
330
44
100
AcDbEntity
  8
0
  6
Continuous
 62
     7
100
AcDbPolyline
 90
        2
 70
     0
 43
0.15
 10
-95.68528303539898
 20
158.9999198868
 42
0.4142135623731
 10
-96.68528303539898
 20
159.9999198868
 42
0.4142135623731
  0
LWPOLYLINE
  5
272
330
44
100
AcDbEntity
  8
0
  6
Continuous
 62
     7
100
AcDbPolyline
 90
        2
 70
     0
 43
0.15
 10
-92.144153485099
 20
157.9999198868
 42
0.4142135623731
 10
-93.144153485099
 20
158.9999198868
 42
0.4142135623731
  0
LWPOLYLINE
  5
273
330
44
100
AcDbEntity
  8
0
  6
Continuous
 62
     7
100
AcDbPolyline
 90
        2
 70
     0
 43
0.15
 10
53.77358741440099
 20
158.9999198868
 42
0.4142135623731
 10
52.77358741440099
 20
157.9999198868
 42
0.4142135623731
  0
LWPOLYLINE
  5
274
330
44
100
AcDbEntity
  8
0
  6
Continuous
 62
     7
100
AcDbPolyline
 90
        2
 70
     0
 43
0.15
 10
57.31471696460102
 20
159.9999198868
 42
0.4142135623731
 10
56.31471696460102
 20
158.9999198868
 42
0.4142135623731
  0
LWPOLYLINE
  5
275
330
44
100
AcDbEntity
  8
0
  6
Continuous
 62
     7
100
AcDbPolyline
 90
        2
 70
     0
 43
0.15
 10
52.31471696460102
 20
179.4999198868
 42
0.4142135623731
 10
52.81471696460102
 20
179.9999198868
 42
0.4142135623731
  0
LWPOLYLINE
  5
276
330
44
100
AcDbEntity
  8
0
  6
Continuous
 62
     7
100
AcDbPolyline
 90
        2
 70
     0
 43
0.15
 10
-92.18528303539898
 20
179.9999198868
 42
0.4142135623731
 10
-91.68528303539898
 20
179.4999198868
 42
0.4142135623731
  0
LWPOLYLINE
  5
277
330
44
100
AcDbEntity
  8
0
  6
Continuous
 62
     7
100
AcDbPolyline
 90
        2
 70
     0
 43
0.15
 10
52.81471696460102
 20
171.9999198868
 42
0.4142135623731
 10
52.31471696460102
 20
172.4999198868
 42
0.4142135623731
  0
LWPOLYLINE
  5
278
330
44
100
AcDbEntity
  8
0
  6
Continuous
 62
     7
100
AcDbPolyline
 90
        2
 70
     0
 43
0.15
 10
-91.68528303539898
 20
172.4999198868
 42
0.4142135623731
 10
-92.18528303539898
 20
171.9999198868
 42
0.4142135623731
  0
LWPOLYLINE
  5
279
330
44
100
AcDbEntity
  8
0
  6
Continuous
 62
     7
100
AcDbPolyline
 90
        2
 70
     0
 43
0.15
 10
52.81471696460102
 20
176.4999198868
 42
0.4142135623731
 10
52.31471696460102
 20
176.9999198868
 42
0.4142135623731
  0
LWPOLYLINE
  5
27A
330
44
100
AcDbEntity
  8
0
  6
Continuous
 62
     7
100
AcDbPolyline
 90
        2
 70
     0
 43
0.15
 10
-91.68528303539898
 20
176.9999198868
 42
0.4142135623731
 10
-92.18528303539898
 20
176.4999198868
 42
0.4142135623731
  0
LWPOLYLINE
  5
27B
330
44
100
AcDbEntity
  8
0
  6
Continuous
 62
     7
100
AcDbPolyline
 90
        2
 70
     0
 43
0.15
 10
52.31471696460102
 20
179.4999198868
 42
1.0
 10
52.31471696460102
 20
176.9999198868
 42
1.0
  0
LWPOLYLINE
  5
27C
330
44
100
AcDbEntity
  8
0
  6
Continuous
 62
     7
100
AcDbPolyline
 90
        2
 70
     0
 43
0.15
 10
-91.68528303539898
 20
176.9999198868
 42
1.0
 10
-91.68528303539898
 20
179.4999198868
 42
1.0
  0
LWPOLYLINE
  5
27D
330
44
100
AcDbEntity
  8
0
  6
Continuous
 62
     7
100
AcDbPolyline
 90
        2
 70
     0
 43
0.15
 10
52.81471696460102
 20
194.4999198868
 42
0.4142135623731
 10
52.31471696460102
 20
194.9999198868
 42
0.4142135623731
  0
LWPOLYLINE
  5
27E
330
44
100
AcDbEntity
  8
0
  6
Continuous
 62
     7
100
AcDbPolyline
 90
        2
 70
     0
 43
0.15
 10
-91.68528303539898
 20
194.9999198868
 42
0.4142135623731
 10
-92.18528303539898
 20
194.4999198868
 42
0.4142135623731
  0
LWPOLYLINE
  5
27F
330
44
100
AcDbEntity
  8
0
  6
Continuous
 62
     7
100
AcDbPolyline
 90
        2
 70
     0
 43
0.15
 10
52.31471696460102
 20
174.9999198868
 42
0.4142135623731
 10
52.81471696460102
 20
175.4999198868
 42
0.4142135623731
  0
LWPOLYLINE
  5
280
330
44
100
AcDbEntity
  8
0
  6
Continuous
 62
     7
100
AcDbPolyline
 90
        2
 70
     0
 43
0.15
 10
-92.18528303539898
 20
175.4999198868
 42
0.4142135623731
 10
-91.68528303539898
 20
174.9999198868
 42
0.4142135623731
  0
LWPOLYLINE
  5
281
330
44
100
AcDbEntity
  8
0
  6
Continuous
 62
     7
100
AcDbPolyline
 90
        2
 70
     0
 43
0.15
 10
52.31471696460102
 20
201.9999198868
 42
1.0
 10
52.31471696460102
 20
199.4999198868
 42
1.0
  0
LWPOLYLINE
  5
282
330
44
100
AcDbEntity
  8
0
  6
Continuous
 62
     7
100
AcDbPolyline
 90
        2
 70
     0
 43
0.15
 10
-91.68528303539898
 20
199.4999198868
 42
1.0
 10
-91.68528303539898
 20
201.9999198868
 42
1.0
  0
LWPOLYLINE
  5
283
330
44
100
AcDbEntity
  8
0
  6
Continuous
 62
     7
100
AcDbPolyline
 90
        2
 70
     0
 43
0.15
 10
52.31471696460102
 20
201.9999198868
 42
0.4142135623731
 10
52.81471696460102
 20
202.4999198868
 42
0.4142135623731
  0
LWPOLYLINE
  5
284
330
44
100
AcDbEntity
  8
0
  6
Continuous
 62
     7
100
AcDbPolyline
 90
        2
 70
     0
 43
0.15
 10
-92.18528303539898
 20
202.4999198868
 42
0.4142135623731
 10
-91.68528303539898
 20
201.9999198868
 42
0.4142135623731
  0
LWPOLYLINE
  5
285
330
44
100
AcDbEntity
  8
0
  6
Continuous
 62
     7
100
AcDbPolyline
 90
        2
 70
     0
 43
0.15
 10
52.31471696460102
 20
174.9999198868
 42
1.0
 10
52.31471696460102
 20
172.4999198868
 42
1.0
  0
LWPOLYLINE
  5
286
330
44
100
AcDbEntity
  8
0
  6
Continuous
 62
     7
100
AcDbPolyline
 90
        2
 70
     0
 43
0.15
 10
-91.68528303539898
 20
172.4999198868
 42
1.0
 10
-91.68528303539898
 20
174.9999198868
 42
1.0
  0
LWPOLYLINE
  5
287
330
44
100
AcDbEntity
  8
0
  6
Continuous
 62
     7
100
AcDbPolyline
 90
        2
 70
     0
 43
0.15
 10
52.31471696460102
 20
206.4999198868
 42
1.0
 10
52.31471696460102
 20
203.9999198868
 42
1.0
  0
LWPOLYLINE
  5
288
330
44
100
AcDbEntity
  8
0
  6
Continuous
 62
     7
100
AcDbPolyline
 90
        2
 70
     0
 43
0.15
 10
-91.68528303539898
 20
203.9999198868
 42
1.0
 10
-91.68528303539898
 20
206.4999198868
 42
1.0
  0
LWPOLYLINE
  5
289
330
44
100
AcDbEntity
  8
0
  6
Continuous
 62
     7
100
AcDbPolyline
 90
        2
 70
     0
 43
0.15
 10
52.31471696460102
 20
206.4999198868
 42
0.4142135623731
 10
52.81471696460102
 20
206.9999198868
 42
0.4142135623731
  0
LWPOLYLINE
  5
28A
330
44
100
AcDbEntity
  8
0
  6
Continuous
 62
     7
100
AcDbPolyline
 90
        2
 70
     0
 43
0.15
 10
-92.18528303539898
 20
206.9999198868
 42
0.4142135623731
 10
-91.68528303539898
 20
206.4999198868
 42
0.4142135623731
  0
LWPOLYLINE
  5
28B
330
44
100
AcDbEntity
  8
0
  6
Continuous
 62
     7
100
AcDbPolyline
 90
        2
 70
     0
 43
0.15
 10
52.81471696460102
 20
198.9999198868
 42
0.4142135623731
 10
52.31471696460102
 20
199.4999198868
 42
0.4142135623731
  0
LWPOLYLINE
  5
28C
330
44
100
AcDbEntity
  8
0
  6
Continuous
 62
     7
100
AcDbPolyline
 90
        2
 70
     0
 43
0.15
 10
-91.68528303539898
 20
199.4999198868
 42
0.4142135623731
 10
-92.18528303539898
 20
198.9999198868
 42
0.4142135623731
  0
LWPOLYLINE
  5
28D
330
44
100
AcDbEntity
  8
0
  6
Continuous
 62
     7
100
AcDbPolyline
 90
        2
 70
     0
 43
0.15
 10
52.31471696460102
 20
197.4999198868
 42
1.0
 10
52.31471696460102
 20
194.9999198868
 42
1.0
  0
LWPOLYLINE
  5
28E
330
44
100
AcDbEntity
  8
0
  6
Continuous
 62
     7
100
AcDbPolyline
 90
        2
 70
     0
 43
0.15
 10
-91.68528303539898
 20
194.9999198868
 42
1.0
 10
-91.68528303539898
 20
197.4999198868
 42
1.0
  0
LWPOLYLINE
  5
28F
330
44
100
AcDbEntity
  8
0
  6
Continuous
 62
     7
100
AcDbPolyline
 90
        2
 70
     0
 43
0.15
 10
52.31471696460102
 20
197.4999198868
 42
0.4142135623731
 10
52.81471696460102
 20
197.9999198868
 42
0.4142135623731
  0
LWPOLYLINE
  5
290
330
44
100
AcDbEntity
  8
0
  6
Continuous
 62
     7
100
AcDbPolyline
 90
        2
 70
     0
 43
0.15
 10
-92.18528303539898
 20
197.9999198868
 42
0.4142135623731
 10
-91.68528303539898
 20
197.4999198868
 42
0.4142135623731
  0
LWPOLYLINE
  5
291
330
44
100
AcDbEntity
  8
0
  6
Continuous
 62
     7
100
AcDbPolyline
 90
        2
 70
     0
 43
0.15
 10
52.31471696460102
 20
192.9999198868
 42
0.4142135623731
 10
52.81471696460102
 20
193.4999198868
 42
0.4142135623731
  0
LWPOLYLINE
  5
292
330
44
100
AcDbEntity
  8
0
  6
Continuous
 62
     7
100
AcDbPolyline
 90
        2
 70
     0
 43
0.15
 10
52.31471696460102
 20
192.9999198868
 42
1.0
 10
52.31471696460102
 20
190.4999198868
 42
1.0
  0
LWPOLYLINE
  5
293
330
44
100
AcDbEntity
  8
0
  6
Continuous
 62
     7
100
AcDbPolyline
 90
        2
 70
     0
 43
0.15
 10
52.81471696460102
 20
189.9999198868
 42
0.4142135623731
 10
52.31471696460102
 20
190.4999198868
 42
0.4142135623731
  0
LWPOLYLINE
  5
294
330
44
100
AcDbEntity
  8
0
  6
Continuous
 62
     7
100
AcDbPolyline
 90
        2
 70
     0
 43
0.15
 10
52.31471696460102
 20
188.4999198868
 42
0.4142135623731
 10
52.81471696460102
 20
188.9999198868
 42
0.4142135623731
  0
LWPOLYLINE
  5
295
330
44
100
AcDbEntity
  8
0
  6
Continuous
 62
     7
100
AcDbPolyline
 90
        2
 70
     0
 43
0.15
 10
52.31471696460102
 20
188.4999198868
 42
1.0
 10
52.31471696460102
 20
185.9999198868
 42
1.0
  0
LWPOLYLINE
  5
296
330
44
100
AcDbEntity
  8
0
  6
Continuous
 62
     7
100
AcDbPolyline
 90
        2
 70
     0
 43
0.15
 10
52.81471696460102
 20
185.4999198868
 42
0.4142135623731
 10
52.31471696460102
 20
185.9999198868
 42
0.4142135623731
  0
LWPOLYLINE
  5
297
330
44
100
AcDbEntity
  8
0
  6
Continuous
 62
     7
100
AcDbPolyline
 90
        2
 70
     0
 43
0.15
 10
52.31471696460102
 20
183.9999198868
 42
0.4142135623731
 10
52.81471696460102
 20
184.4999198868
 42
0.4142135623731
  0
LWPOLYLINE
  5
298
330
44
100
AcDbEntity
  8
0
  6
Continuous
 62
     7
100
AcDbPolyline
 90
        2
 70
     0
 43
0.15
 10
52.31471696460102
 20
183.9999198868
 42
1.0
 10
52.31471696460102
 20
181.4999198868
 42
1.0
  0
LWPOLYLINE
  5
299
330
44
100
AcDbEntity
  8
0
  6
Continuous
 62
     7
100
AcDbPolyline
 90
        2
 70
     0
 43
0.15
 10
52.81471696460102
 20
180.9999198868
 42
0.4142135623731
 10
52.31471696460102
 20
181.4999198868
 42
0.4142135623731
  0
LWPOLYLINE
  5
29A
330
44
100
AcDbEntity
  8
0
  6
Continuous
 62
     7
100
AcDbPolyline
 90
        2
 70
     0
 43
0.15
 10
52.31471696460102
 20
170.4999198868
 42
0.4142135623731
 10
52.81471696460102
 20
170.9999198868
 42
0.4142135623731
  0
LWPOLYLINE
  5
29B
330
44
100
AcDbEntity
  8
0
  6
Continuous
 62
     7
100
AcDbPolyline
 90
        2
 70
     0
 43
0.15
 10
52.31471696460102
 20
170.4999198868
 42
1.0
 10
52.31471696460102
 20
167.9999198868
 42
1.0
  0
LWPOLYLINE
  5
29C
330
44
100
AcDbEntity
  8
0
  6
Continuous
 62
     7
100
AcDbPolyline
 90
        2
 70
     0
 43
0.15
 10
52.81471696460102
 20
167.4999198868
 42
0.4142135623731
 10
52.31471696460102
 20
167.9999198868
 42
0.4142135623731
  0
LWPOLYLINE
  5
29D
330
44
100
AcDbEntity
  8
0
  6
Continuous
 62
     7
100
AcDbPolyline
 90
        2
 70
     0
 43
0.15
 10
52.31471696460102
 20
165.9999198868
 42
0.4142135623731
 10
52.81471696460102
 20
166.4999198868
 42
0.4142135623731
  0
LWPOLYLINE
  5
29E
330
44
100
AcDbEntity
  8
0
  6
Continuous
 62
     7
100
AcDbPolyline
 90
        2
 70
     0
 43
0.15
 10
52.31471696460102
 20
165.9999198868
 42
1.0
 10
52.31471696460102
 20
163.4999198868
 42
1.0
  0
LWPOLYLINE
  5
29F
330
44
100
AcDbEntity
  8
0
  6
Continuous
 62
     7
100
AcDbPolyline
 90
        2
 70
     0
 43
0.15
 10
52.81471696460102
 20
162.9999198868
 42
0.4142135623731
 10
52.31471696460102
 20
163.4999198868
 42
0.4142135623731
  0
LWPOLYLINE
  5
2A0
330
44
100
AcDbEntity
  8
0
  6
Continuous
 62
     7
100
AcDbPolyline
 90
        2
 70
     0
 43
0.15
 10
52.31471696460102
 20
161.4999198868
 42
0.4142135623731
 10
52.81471696460102
 20
161.9999198868
 42
0.4142135623731
  0
LWPOLYLINE
  5
2A1
330
44
100
AcDbEntity
  8
0
  6
Continuous
 62
     7
100
AcDbPolyline
 90
        2
 70
     0
 43
0.15
 10
52.31471696460102
 20
161.4999198868
 42
1.0
 10
52.31471696460102
 20
158.9999198868
 42
1.0
  0
LWPOLYLINE
  5
2A2
330
44
100
AcDbEntity
  8
0
  6
Continuous
 62
     7
100
AcDbPolyline
 90
        2
 70
     0
 43
0.15
 10
52.81471696460102
 20
158.4999198868
 42
0.4142135623731
 10
52.31471696460102
 20
158.9999198868
 42
0.4142135623731
  0
LWPOLYLINE
  5
2A3
330
44
100
AcDbEntity
  8
0
  6
Continuous
 62
     7
100
AcDbPolyline
 90
        2
 70
     0
 43
0.15
 10
52.31471696460102
 20
156.9999198868
 42
0.4142135623731
 10
52.81471696460102
 20
157.4999198868
 42
0.4142135623731
  0
LWPOLYLINE
  5
2A4
330
44
100
AcDbEntity
  8
0
  6
Continuous
 62
     7
100
AcDbPolyline
 90
        2
 70
     0
 43
0.15
 10
52.31471696460102
 20
156.9999198868
 42
1.0
 10
52.31471696460102
 20
154.4999198868
 42
1.0
  0
LWPOLYLINE
  5
2A5
330
44
100
AcDbEntity
  8
0
  6
Continuous
 62
     7
100
AcDbPolyline
 90
        2
 70
     0
 43
0.15
 10
52.81471696460102
 20
153.9999198868
 42
0.4142135623731
 10
52.31471696460102
 20
154.4999198868
 42
0.4142135623731
  0
LWPOLYLINE
  5
2A6
330
44
100
AcDbEntity
  8
0
  6
Continuous
 62
     7
100
AcDbPolyline
 90
        2
 70
     0
 43
0.15
 10
52.31471696460102
 20
152.4999198868
 42
0.4142135623731
 10
52.81471696460102
 20
152.9999198868
 42
0.4142135623731
  0
LWPOLYLINE
  5
2A7
330
44
100
AcDbEntity
  8
0
  6
Continuous
 62
     7
100
AcDbPolyline
 90
        2
 70
     0
 43
0.15
 10
52.31471696460102
 20
152.4999198868
 42
1.0
 10
52.31471696460102
 20
149.9999198868
 42
1.0
  0
LWPOLYLINE
  5
2A8
330
44
100
AcDbEntity
  8
0
  6
Continuous
 62
     7
100
AcDbPolyline
 90
        2
 70
     0
 43
0.15
 10
52.81471696460102
 20
149.4999198868
 42
0.4142135623731
 10
52.31471696460102
 20
149.9999198868
 42
0.4142135623731
  0
LWPOLYLINE
  5
2A9
330
44
100
AcDbEntity
  8
0
  6
Continuous
 62
     7
100
AcDbPolyline
 90
        2
 70
     0
 43
0.15
 10
52.31471696460102
 20
147.9999198868
 42
0.4142135623731
 10
52.81471696460102
 20
148.4999198868
 42
0.4142135623731
  0
LWPOLYLINE
  5
2AA
330
44
100
AcDbEntity
  8
0
  6
Continuous
 62
     7
100
AcDbPolyline
 90
        2
 70
     0
 43
0.15
 10
52.31471696460102
 20
147.9999198868
 42
1.0
 10
52.31471696460102
 20
145.4999198868
 42
1.0
  0
LWPOLYLINE
  5
2AB
330
44
100
AcDbEntity
  8
0
  6
Continuous
 62
     7
100
AcDbPolyline
 90
        2
 70
     0
 43
0.15
 10
52.81471696460102
 20
144.9999198868
 42
0.4142135623731
 10
52.31471696460102
 20
145.4999198868
 42
0.4142135623731
  0
LWPOLYLINE
  5
2AC
330
44
100
AcDbEntity
  8
0
  6
Continuous
 62
     7
100
AcDbPolyline
 90
        2
 70
     0
 43
0.15
 10
52.31471696460102
 20
142.4999198868
 42
0.4142135623731
 10
52.81471696460102
 20
142.9999198868
 42
0.4142135623731
  0
LWPOLYLINE
  5
2AD
330
44
100
AcDbEntity
  8
0
  6
Continuous
 62
     7
100
AcDbPolyline
 90
        2
 70
     0
 43
0.15
 10
52.81471696460102
 20
203.4999198868
 42
0.4142135623731
 10
52.31471696460102
 20
203.9999198868
 42
0.4142135623731
  0
LWPOLYLINE
  5
2AE
330
44
100
AcDbEntity
  8
0
  6
Continuous
 62
     7
100
AcDbPolyline
 90
        2
 70
     0
 43
0.15
 10
-91.68528303539898
 20
181.4999198868
 42
0.4142135623731
 10
-92.18528303539898
 20
180.9999198868
 42
0.4142135623731
  0
LWPOLYLINE
  5
2AF
330
44
100
AcDbEntity
  8
0
  6
Continuous
 62
     7
100
AcDbPolyline
 90
        2
 70
     0
 43
0.15
 10
-91.68528303539898
 20
181.4999198868
 42
1.0
 10
-91.68528303539898
 20
183.9999198868
 42
1.0
  0
LWPOLYLINE
  5
2B0
330
44
100
AcDbEntity
  8
0
  6
Continuous
 62
     7
100
AcDbPolyline
 90
        2
 70
     0
 43
0.15
 10
-92.18528303539898
 20
184.4999198868
 42
0.4142135623731
 10
-91.68528303539898
 20
183.9999198868
 42
0.4142135623731
  0
LWPOLYLINE
  5
2B1
330
44
100
AcDbEntity
  8
0
  6
Continuous
 62
     7
100
AcDbPolyline
 90
        2
 70
     0
 43
0.15
 10
-91.68528303539898
 20
185.9999198868
 42
0.4142135623731
 10
-92.18528303539898
 20
185.4999198868
 42
0.4142135623731
  0
LWPOLYLINE
  5
2B2
330
44
100
AcDbEntity
  8
0
  6
Continuous
 62
     7
100
AcDbPolyline
 90
        2
 70
     0
 43
0.15
 10
-91.68528303539898
 20
185.9999198868
 42
1.0
 10
-91.68528303539898
 20
188.4999198868
 42
1.0
  0
LWPOLYLINE
  5
2B3
330
44
100
AcDbEntity
  8
0
  6
Continuous
 62
     7
100
AcDbPolyline
 90
        2
 70
     0
 43
0.15
 10
-92.18528303539898
 20
188.9999198868
 42
0.4142135623731
 10
-91.68528303539898
 20
188.4999198868
 42
0.4142135623731
  0
LWPOLYLINE
  5
2B4
330
44
100
AcDbEntity
  8
0
  6
Continuous
 62
     7
100
AcDbPolyline
 90
        2
 70
     0
 43
0.15
 10
-91.68528303539898
 20
190.4999198868
 42
0.4142135623731
 10
-92.18528303539898
 20
189.9999198868
 42
0.4142135623731
  0
LWPOLYLINE
  5
2B5
330
44
100
AcDbEntity
  8
0
  6
Continuous
 62
     7
100
AcDbPolyline
 90
        2
 70
     0
 43
0.15
 10
-91.68528303539898
 20
190.4999198868
 42
1.0
 10
-91.68528303539898
 20
192.9999198868
 42
1.0
  0
LWPOLYLINE
  5
2B6
330
44
100
AcDbEntity
  8
0
  6
Continuous
 62
     7
100
AcDbPolyline
 90
        2
 70
     0
 43
0.15
 10
-92.18528303539898
 20
193.4999198868
 42
0.4142135623731
 10
-91.68528303539898
 20
192.9999198868
 42
0.4142135623731
  0
LWPOLYLINE
  5
2B7
330
44
100
AcDbEntity
  8
0
  6
Continuous
 62
     7
100
AcDbPolyline
 90
        2
 70
     0
 43
0.15
 10
-91.68528303539898
 20
203.9999198868
 42
0.4142135623731
 10
-92.18528303539898
 20
203.4999198868
 42
0.4142135623731
  0
LWPOLYLINE
  5
2B8
330
44
100
AcDbEntity
  8
0
  6
Continuous
 62
     7
100
AcDbPolyline
 90
        2
 70
     0
 43
0.15
 10
-92.18528303539898
 20
142.9999198868
 42
0.4142135623731
 10
-91.68528303539898
 20
142.4999198868
 42
0.4142135623731
  0
LWPOLYLINE
  5
2B9
330
44
100
AcDbEntity
  8
0
  6
Continuous
 62
     7
100
AcDbPolyline
 90
        2
 70
     0
 43
0.15
 10
-91.68528303539898
 20
145.4999198868
 42
0.4142135623731
 10
-92.18528303539898
 20
144.9999198868
 42
0.4142135623731
  0
LWPOLYLINE
  5
2BA
330
44
100
AcDbEntity
  8
0
  6
Continuous
 62
     7
100
AcDbPolyline
 90
        2
 70
     0
 43
0.15
 10
-91.68528303539898
 20
145.4999198868
 42
1.0
 10
-91.68528303539898
 20
147.9999198868
 42
1.0
  0
LWPOLYLINE
  5
2BB
330
44
100
AcDbEntity
  8
0
  6
Continuous
 62
     7
100
AcDbPolyline
 90
        2
 70
     0
 43
0.15
 10
-92.18528303539898
 20
148.4999198868
 42
0.4142135623731
 10
-91.68528303539898
 20
147.9999198868
 42
0.4142135623731
  0
LWPOLYLINE
  5
2BC
330
44
100
AcDbEntity
  8
0
  6
Continuous
 62
     7
100
AcDbPolyline
 90
        2
 70
     0
 43
0.15
 10
-91.68528303539898
 20
149.9999198868
 42
0.4142135623731
 10
-92.18528303539898
 20
149.4999198868
 42
0.4142135623731
  0
LWPOLYLINE
  5
2BD
330
44
100
AcDbEntity
  8
0
  6
Continuous
 62
     7
100
AcDbPolyline
 90
        2
 70
     0
 43
0.15
 10
-91.68528303539898
 20
149.9999198868
 42
1.0
 10
-91.68528303539898
 20
152.4999198868
 42
1.0
  0
LWPOLYLINE
  5
2BE
330
44
100
AcDbEntity
  8
0
  6
Continuous
 62
     7
100
AcDbPolyline
 90
        2
 70
     0
 43
0.15
 10
-92.18528303539898
 20
152.9999198868
 42
0.4142135623731
 10
-91.68528303539898
 20
152.4999198868
 42
0.4142135623731
  0
LWPOLYLINE
  5
2BF
330
44
100
AcDbEntity
  8
0
  6
Continuous
 62
     7
100
AcDbPolyline
 90
        2
 70
     0
 43
0.15
 10
-91.68528303539898
 20
154.4999198868
 42
0.4142135623731
 10
-92.18528303539898
 20
153.9999198868
 42
0.4142135623731
  0
LWPOLYLINE
  5
2C0
330
44
100
AcDbEntity
  8
0
  6
Continuous
 62
     7
100
AcDbPolyline
 90
        2
 70
     0
 43
0.15
 10
-91.68528303539898
 20
154.4999198868
 42
1.0
 10
-91.68528303539898
 20
156.9999198868
 42
1.0
  0
LWPOLYLINE
  5
2C1
330
44
100
AcDbEntity
  8
0
  6
Continuous
 62
     7
100
AcDbPolyline
 90
        2
 70
     0
 43
0.15
 10
-92.18528303539898
 20
157.4999198868
 42
0.4142135623731
 10
-91.68528303539898
 20
156.9999198868
 42
0.4142135623731
  0
LWPOLYLINE
  5
2C2
330
44
100
AcDbEntity
  8
0
  6
Continuous
 62
     7
100
AcDbPolyline
 90
        2
 70
     0
 43
0.15
 10
-91.68528303539898
 20
158.9999198868
 42
0.4142135623731
 10
-92.18528303539898
 20
158.4999198868
 42
0.4142135623731
  0
LWPOLYLINE
  5
2C3
330
44
100
AcDbEntity
  8
0
  6
Continuous
 62
     7
100
AcDbPolyline
 90
        2
 70
     0
 43
0.15
 10
-91.68528303539898
 20
158.9999198868
 42
1.0
 10
-91.68528303539898
 20
161.4999198868
 42
1.0
  0
LWPOLYLINE
  5
2C4
330
44
100
AcDbEntity
  8
0
  6
Continuous
 62
     7
100
AcDbPolyline
 90
        2
 70
     0
 43
0.15
 10
-92.18528303539898
 20
161.9999198868
 42
0.4142135623731
 10
-91.68528303539898
 20
161.4999198868
 42
0.4142135623731
  0
LWPOLYLINE
  5
2C5
330
44
100
AcDbEntity
  8
0
  6
Continuous
 62
     7
100
AcDbPolyline
 90
        2
 70
     0
 43
0.15
 10
-91.68528303539898
 20
163.4999198868
 42
0.4142135623731
 10
-92.18528303539898
 20
162.9999198868
 42
0.4142135623731
  0
LWPOLYLINE
  5
2C6
330
44
100
AcDbEntity
  8
0
  6
Continuous
 62
     7
100
AcDbPolyline
 90
        2
 70
     0
 43
0.15
 10
-91.68528303539898
 20
163.4999198868
 42
1.0
 10
-91.68528303539898
 20
165.9999198868
 42
1.0
  0
LWPOLYLINE
  5
2C7
330
44
100
AcDbEntity
  8
0
  6
Continuous
 62
     7
100
AcDbPolyline
 90
        2
 70
     0
 43
0.15
 10
-92.18528303539898
 20
166.4999198868
 42
0.4142135623731
 10
-91.68528303539898
 20
165.9999198868
 42
0.4142135623731
  0
LWPOLYLINE
  5
2C8
330
44
100
AcDbEntity
  8
0
  6
Continuous
 62
     7
100
AcDbPolyline
 90
        2
 70
     0
 43
0.15
 10
-91.68528303539898
 20
167.9999198868
 42
0.4142135623731
 10
-92.18528303539898
 20
167.4999198868
 42
0.4142135623731
  0
LWPOLYLINE
  5
2C9
330
44
100
AcDbEntity
  8
0
  6
Continuous
 62
     7
100
AcDbPolyline
 90
        2
 70
     0
 43
0.15
 10
-91.68528303539898
 20
167.9999198868
 42
1.0
 10
-91.68528303539898
 20
170.4999198868
 42
1.0
  0
LWPOLYLINE
  5
2CA
330
44
100
AcDbEntity
  8
0
  6
Continuous
 62
     7
100
AcDbPolyline
 90
        2
 70
     0
 43
0.15
 10
-92.18528303539898
 20
170.9999198868
 42
0.4142135623731
 10
-91.68528303539898
 20
170.4999198868
 42
0.4142135623731
  0
LWPOLYLINE
  5
2CB
330
44
100
AcDbEntity
  8
0
  6
Continuous
 62
     7
100
AcDbPolyline
 90
        2
 70
     0
 43
0.15
 10
-99.68528303539898
 20
72.00000177350002
 42
0.4142135623731
 10
-91.68528303539898
 20
64.00000177350002
 42
0.4142135623731
  0
LWPOLYLINE
  5
2CC
330
44
100
AcDbEntity
  8
0
  6
Continuous
 62
     7
100
AcDbPolyline
 90
        2
 70
     0
 43
0.15
 10
52.31471696460102
 20
64.00000177350002
 42
0.4142135623731
 10
60.31471696460102
 20
72.00000177350002
 42
0.4142135623731
  0
LWPOLYLINE
  5
2CD
330
44
100
AcDbEntity
  8
0
  6
Continuous
 62
     7
100
AcDbPolyline
 90
        2
 70
     0
 43
0.15
 10
-94.68528303539898
 20
69.00000177350002
 42
0.4142135623731
 10
-92.18528303539898
 20
66.50000177350002
 42
0.4142135623731
  0
LWPOLYLINE
  5
2CE
330
44
100
AcDbEntity
  8
0
  6
Continuous
 62
     7
100
AcDbPolyline
 90
        2
 70
     0
 43
0.15
 10
52.81471696460102
 20
66.50000177350002
 42
0.4142135623731
 10
55.31471696460102
 20
69.00000177350002
 42
0.4142135623731
  0
LWPOLYLINE
  5
2CF
330
44
100
AcDbEntity
  8
0
  6
Continuous
 62
     7
100
AcDbPolyline
 90
        2
 70
     0
 43
0.15
 10
47.06471696460102
 20
129.7014906452
 42
0.4142135623731
 10
45.06471696460102
 20
127.7014906452
 42
0.4142135623731
  0
LWPOLYLINE
  5
2D0
330
44
100
AcDbEntity
  8
0
  6
Continuous
 62
     7
100
AcDbPolyline
 90
        2
 70
     0
 43
0.15
 10
49.56471696460102
 20
125.2014906452
 42
0.4142135623731
 10
47.56471696460102
 20
127.2014906452
 42
0.4142135623731
  0
LWPOLYLINE
  5
2D1
330
44
100
AcDbEntity
  8
0
  6
Continuous
 62
     7
100
AcDbPolyline
 90
        2
 70
     0
 43
0.15
 10
-86.93528303539898
 20
127.2014906452
 42
0.4142135623731
 10
-88.93528303539898
 20
125.2014906452
 42
0.4142135623731
  0
LWPOLYLINE
  5
2D2
330
44
100
AcDbEntity
  8
0
  6
Continuous
 62
     7
100
AcDbPolyline
 90
        2
 70
     0
 43
0.15
 10
-84.43528303539898
 20
127.7014906452
 42
0.4142135623731
 10
-86.43528303539898
 20
129.7014906452
 42
0.4142135623731
  0
LWPOLYLINE
  5
2D3
330
44
100
AcDbEntity
  8
0
  6
Continuous
 62
     7
100
AcDbPolyline
 90
        2
 70
     0
 43
0.15
 10
50.714716964601
 20
125.2014906452
 42
0.4142135623731
 10
49.714716964601
 20
124.2014906452
 42
0.4142135623731
  0
LWPOLYLINE
  5
2D4
330
44
100
AcDbEntity
  8
0
  6
Continuous
 62
     7
100
AcDbPolyline
 90
        2
 70
     0
 43
0.15
 10
-89.08528303539899
 20
124.2014906452
 42
0.4142135623731
 10
-90.08528303539899
 20
125.2014906452
 42
0.4142135623731
  0
LWPOLYLINE
  5
2D5
330
44
100
AcDbEntity
  8
0
  6
Continuous
 62
     7
100
AcDbPolyline
 90
        2
 70
     0
 43
0.15
 10
48.714716964601
 20
115.9999997735
 42
0.4142135623731
 10
49.714716964601
 20
116.9999997735
 42
0.4142135623731
  0
LWPOLYLINE
  5
2D6
330
44
100
AcDbEntity
  8
0
  6
Continuous
 62
     7
100
AcDbPolyline
 90
        2
 70
     0
 43
0.15
 10
-89.08528303539899
 20
116.9999997735
 42
0.4142135623731
 10
-88.08528303539899
 20
115.9999997735
 42
0.4142135623731
  0
LWPOLYLINE
  5
2D7
330
44
100
AcDbEntity
  8
0
  6
Continuous
 62
     7
100
AcDbPolyline
 90
        2
 70
     0
 43
0.15
 10
-92.58528303539899
 20
114.9999997735
 42
0.4142135623731
 10
-90.08528303539899
 20
112.4999997735
 42
0.4142135623731
  0
LWPOLYLINE
  5
2D8
330
44
100
AcDbEntity
  8
0
  6
Continuous
 62
     7
100
AcDbPolyline
 90
        2
 70
     0
 43
0.15
 10
50.714716964601
 20
112.4999997735
 42
0.4142135623731
 10
53.214716964601
 20
114.9999997735
 42
0.4142135623731
  0
LWPOLYLINE
  5
2D9
330
44
100
AcDbEntity
  8
0
  6
Continuous
 62
     7
100
AcDbPolyline
 90
        2
 70
     0
 43
0.15
 10
160.314716964601
 20
157.9999198868
 42
0.4142135623731
 10
158.314716964601
 20
159.9999198868
 42
0.4142135623731
  0
LWPOLYLINE
  5
2DA
330
44
100
AcDbEntity
  8
0
  6
Continuous
 62
     7
100
AcDbPolyline
 90
        2
 70
     0
 43
0.15
 10
-197.685283035399
 20
159.9999198868
 42
0.4142135623731
 10
-199.685283035399
 20
157.9999198868
 42
0.4142135623731
  0
LWPOLYLINE
  5
2DB
330
44
100
AcDbEntity
  8
0
  6
Continuous
 62
     7
100
AcDbPolyline
 90
        2
 70
     0
 43
0.15
 10
60.06471396700101
 20
159.9999198868
 42
0.41421268438055
 10
59.06471396700499
 20
158.999922884455
 42
0.41421268438055
  0
LWPOLYLINE
  5
2DC
330
44
100
AcDbEntity
  8
0
  6
Continuous
 62
     7
100
AcDbPolyline
 90
        2
 70
     0
 43
0.15
 10
-98.43528003780298
 20
158.999922884455
 42
0.41421268438055
 10
-99.435280037799
 20
159.9999198868
 42
0.41421268438055
  0
LWPOLYLINE
  5
2DD
330
44
100
AcDbEntity
  8
0
  6
Continuous
 62
     7
100
AcDbPolyline
 90
        2
 70
     0
 43
0.15
 10
44.81471696460102
 20
115.9999997735
 42
0.4142135623731
 10
43.81471696460102
 20
114.9999997735
 42
0.4142135623731
  0
LWPOLYLINE
  5
2DE
330
44
100
AcDbEntity
  8
0
  6
Continuous
 62
     7
100
AcDbPolyline
 90
        2
 70
     0
 43
0.15
 10
-83.18528303539898
 20
114.9999997735
 42
0.4142135623731
 10
-84.18528303539898
 20
115.9999997735
 42
0.4142135623731
  0
DIMENSION
  5
2FD
330
44
100
AcDbEntity
  8
1
100
AcDbDimension
  2
*D3
 10
-199.6852781678424
 20
276.4052782054686
 30
0.0
 11
-22.74032048099882
 21
283.4052791993094
 31
0.0
 70
    33
  1
<>
 71
     5
 42
-1.0
 53
0.00013888888889
  3
ME10_DIM_10
100
AcDbAlignedDimension
 13
160.314716964601
 23
157.9999198868
 33
0.0
 14
-199.685277502799
 24
157.9999178648
 34
0.0
  0
DIMENSION
  5
308
330
44
100
AcDbEntity
  8
1
100
AcDbDimension
  2
*D4
 10
-93.685286205099
 20
249.240997379213
 30
0.0
 11
-20.4173576981018
 21
256.240997379213
 31
0.0
 70
    33
  1
150
 71
     5
 42
-1.0
 53
0.00013888888889
  3
ME10_DIM_11
100
AcDbAlignedDimension
 13
54.31471570230099
 23
232.9999133944
 33
0.0
 14
-93.685286205099
 24
232.9999133944
 34
0.0
  0
DIMENSION
  5
313
330
44
100
AcDbEntity
  8
1
100
AcDbDimension
  2
*D5
 10
-57.18528301619898
 20
-28.0618451396581
 30
0.0
 11
-19.1891668334443
 21
-21.0618451396581
 31
0.0
 70
    33
  1
<>
 71
     5
 42
-1.0
 53
0.00013888888889
  3
ME10_DIM_12
100
AcDbAlignedDimension
 13
17.81471623870101
 23
5.00000268220001
 33
0.0
 14
-57.18528301619898
 24
5.00000268220001
 34
0.0
  0
DIMENSION
  5
31E
330
44
100
AcDbEntity
  8
1
100
AcDbDimension
  2
*D6
 10
-99.78528515599899
 20
-53.8641438136975
 30
0.0
 11
-19.4282625166297
 21
-46.8641438136975
 31
0.0
 70
    33
  1
<>
 71
     5
 42
-1.0
 53
0.00013888888889
  3
ME10_DIM_13
100
AcDbAlignedDimension
 13
60.41471465320103
 23
74.00000095360004
 33
0.0
 14
-99.78528515599899
 24
74.00000095360004
 34
0.0
  0
DIMENSION
  5
329
330
44
100
AcDbEntity
  8
1
100
AcDbDimension
  2
*D7
 10
-213.050162826026
 20
159.9999219179
 30
0.0
 11
-220.050162826026
 21
114.930064794157
 31
0.0
 70
    32
  1
<>
 71
     5
 42
-1.0
 53
90.0
  3
ME10_DIM_14
100
AcDbAlignedDimension
 13
-91.685282151899
 23
64.0000011771
 33
0.0
 14
-197.685288350799
 24
159.9999219179
 34
0.0
 50
90.0
100
AcDbRotatedDimension
  0
DIMENSION
  5
334
330
44
100
AcDbEntity
  8
1
100
AcDbDimension
  2
*D8
 10
-238.463614682173
 20
159.9999219179
 30
0.0
 11
-245.463614682173
 21
82.9132902781349
 31
0.0
 70
    32
  1
<>
 71
     5
 42
-1.0
 53
90.0
  3
ME10_DIM_15
100
AcDbAlignedDimension
 13
-53.685283373799
 23
0.0
 33
0.0
 14
-197.685288350799
 24
159.9999219179
 34
0.0
 50
90.0
100
AcDbRotatedDimension
  0
HATCH
  5
335
330
44
100
AcDbEntity
  8
0
  6
Continuous
 62
     7
100
AcDbHatch
 10
0.0
 20
0.0
 30
0.0
210
0.0
220
0.0
230
1.0
  2
CUSTOM0
 70
     0
 71
     0
 91
        1
 92
        1
 93
       13
 72
     1
 10
160.314716964601
 20
156.4999897735
 11
160.314716964601
 21
157.9999198868
 72
     1
 10
160.314716964601
 20
157.9999198868
 11
160.274850120313
 21
158.397258548426
 72
     1
 10
160.274850120313
 20
158.397258548426
 11
160.156838952636
 21
158.778756571454
 72
     1
 10
160.156838952636
 20
158.778756571454
 11
159.965388194449
 21
159.129204833626
 72
     1
 10
159.965388194449
 20
159.129204833626
 11
159.708130383324
 21
159.434632068635
 72
     1
 10
159.708130383324
 20
159.434632068635
 11
159.395321576366
 21
159.682861856452
 72
     1
 10
159.395321576366
 20
159.682861856452
 11
159.039432473583
 21
159.863998058771
 72
     1
 10
159.039432473583
 20
159.863998058771
 11
158.654651250431
 21
159.970819346813
 72
     1
 10
158.654651250431
 20
159.970819346813
 11
158.314716964601
 21
159.9999198868
 72
     1
 10
158.314716964601
 20
159.9999198868
 11
150.31471696463
 21
159.999919886836
 72
     1
 10
150.31471696463
 20
159.999919886836
 11
148.31471696463
 21
157.999919886836
 72
     1
 10
148.31471696463
 20
157.999919886836
 11
148.31471696463
 21
156.499989773523
 72
     1
 10
148.31471696463
 20
156.499989773523
 11
160.314716964601
 21
156.4999897735
 97
        0
 75
     1
 76
     2
 52
0.0
 41
1.0
 77
     0
 78
     1
 53
44.99999999999998
 43
0.0
 44
0.0
 45
-4.490128060534577
 46
0.0000000000000018
 79
     0
 98
        1
 10
0.0
 20
0.0
  0
HATCH
  5
336
330
44
100
AcDbEntity
  8
0
  6
Continuous
 62
     7
100
AcDbHatch
 10
0.0
 20
0.0
 30
0.0
210
0.0
220
0.0
230
1.0
  2
CUSTOM1
 70
     0
 71
     0
 91
        1
 92
        1
 93
       71
 72
     1
 10
47.31471696463001
 20
112.499999773523
 11
50.714716964601
 21
112.4999997735
 72
     1
 10
50.714716964601
 20
112.4999997735
 11
51.21139029161799
 21
112.54983332892
 72
     1
 10
51.21139029161799
 20
112.54983332892
 11
51.68826282040203
 21
112.697347288516
 72
     1
 10
51.68826282040203
 20
112.697347288516
 11
52.12632314811799
 21
112.936660736249
 72
     1
 10
52.12632314811799
 20
112.936660736249
 11
52.50810719187899
 21
113.258233000156
 72
     1
 10
52.50810719187899
 20
113.258233000156
 11
52.81839442665
 21
113.6492440088531
 72
     1
 10
52.81839442665
 20
113.6492440088531
 11
53.04481467954798
 21
114.0941053873321
 72
     1
 10
53.04481467954798
 20
114.0941053873321
 11
53.17834128960101
 21
114.575081916273
 72
     1
 10
53.17834128960101
 20
114.575081916273
 11
53.214716964601
 21
114.9999997735
 72
     1
 10
53.214716964601
 20
114.9999997735
 11
53.21471696462999
 21
121.701941773524
 72
     1
 10
53.21471696462999
 20
121.701941773524
 11
56.91471696463003
 21
121.701941773524
 72
     1
 10
56.91471696463003
 20
121.701941773524
 11
57.56471696463001
 21
74.000001773524
 72
     1
 10
57.56471696463001
 20
74.000001773524
 11
60.41471696460098
 21
74.00000177350002
 72
     1
 10
60.41471696460098
 20
74.00000177350002
 11
60.41471696463003
 21
138.599999773524
 72
     1
 10
60.41471696463003
 20
138.599999773524
 11
62.56469796463
 21
142.399999773524
 72
     1
 10
62.56469796463
 20
142.399999773524
 11
62.56471696463001
 21
156.499989773523
 72
     1
 10
62.56471696463001
 20
156.499989773523
 11
144.31471696463
 21
156.499989773523
 72
     1
 10
144.31471696463
 20
156.499989773523
 11
144.31471696463
 21
157.999919886836
 72
     1
 10
144.31471696463
 20
157.999919886836
 11
142.31471696463
 21
159.999919886836
 72
     1
 10
142.31471696463
 20
159.999919886836
 11
60.06471396700101
 21
159.9999198868
 72
     1
 10
60.06471396700101
 20
159.9999198868
 11
59.86604463625599
 21
159.979986464678
 72
     1
 10
59.86604463625599
 20
159.979986464678
 11
59.67529562474203
 21
159.920980880839
 72
     1
 10
59.67529562474203
 20
159.920980880839
 11
59.50007149365598
 21
159.825255501746
 72
     1
 10
59.50007149365598
 20
159.825255501746
 11
59.34735787615102
 21
159.696626596183
 72
     1
 10
59.34735787615102
 20
159.696626596183
 11
59.22324298224299
 21
159.540222192704
 72
     1
 10
59.22324298224299
 20
159.540222192704
 11
59.13267488108301
 21
159.362277641313
 72
     1
 10
59.13267488108301
 20
159.362277641313
 11
59.07926423706203
 21
159.169887029737
 72
     1
 10
59.07926423706203
 20
159.169887029737
 11
59.06471396700499
 21
158.999922884455
 72
     1
 10
59.06471396700499
 20
158.999922884455
 11
59.06466691070904
 21
143.301832206798
 72
     1
 10
59.06466691070904
 20
143.301832206798
 11
55.064805328484
 21
136.399999773524
 72
     1
 10
55.064805328484
 20
136.399999773524
 11
55.064805328484
 21
135.499999773523
 72
     1
 10
55.064805328484
 20
135.499999773523
 11
55.81471696463001
 21
135.056918645181
 72
     1
 10
55.81471696463001
 20
135.056918645181
 11
55.81471696463001
 21
130.799999773523
 72
     1
 10
55.81471696463001
 20
130.799999773523
 11
57.31471696463001
 21
129.799999773523
 72
     1
 10
57.31471696463001
 20
129.799999773523
 11
57.31471696463001
 21
125.201490645181
 72
     1
 10
57.31471696463001
 20
125.201490645181
 11
50.714716964601
 21
125.2014906452
 72
     1
 10
50.714716964601
 20
125.2014906452
 11
50.516047633835
 21
125.181557223023
 72
     1
 10
50.516047633835
 20
125.181557223023
 11
50.32529862232099
 21
125.122551639184
 72
     1
 10
50.32529862232099
 20
125.122551639184
 11
50.15007449123499
 21
125.026826260091
 72
     1
 10
50.15007449123499
 20
125.026826260091
 11
49.997360873731
 21
124.898197354528
 72
     1
 10
49.997360873731
 20
124.898197354528
 11
49.873245979822
 21
124.7417929510491
 72
     1
 10
49.873245979822
 20
124.7417929510491
 11
49.78267787866298
 21
124.563848399658
 72
     1
 10
49.78267787866298
 20
124.563848399658
 11
49.72926723464201
 21
124.371457788082
 72
     1
 10
49.72926723464201
 20
124.371457788082
 11
49.714716964601
 21
124.2014906452
 72
     1
 10
49.714716964601
 20
124.2014906452
 11
49.714716964601
 21
116.9999997735
 72
     1
 10
49.714716964601
 20
116.9999997735
 11
49.69478354247099
 21
116.801330442728
 72
     1
 10
49.69478354247099
 20
116.801330442728
 11
49.63577795863301
 21
116.610581431215
 72
     1
 10
49.63577795863301
 20
116.610581431215
 11
49.54005257954003
 21
116.4353573001281
 72
     1
 10
49.54005257954003
 20
116.4353573001281
 11
49.41142367397703
 21
116.282643682624
 72
     1
 10
49.41142367397703
 20
116.282643682624
 11
49.255019270498
 21
116.158528788716
 72
     1
 10
49.255019270498
 20
116.158528788716
 11
49.07707471910703
 21
116.067960687556
 72
     1
 10
49.07707471910703
 20
116.067960687556
 11
48.88468410753001
 21
116.014550043535
 72
     1
 10
48.88468410753001
 20
116.014550043535
 11
48.714716964601
 21
115.9999997735
 72
     1
 10
48.714716964601
 20
115.9999997735
 11
44.81471696460102
 21
115.9999997735
 72
     1
 10
44.81471696460102
 20
115.9999997735
 11
44.61604763383502
 21
115.980066351365
 72
     1
 10
44.61604763383502
 20
115.980066351365
 11
44.42529862232101
 21
115.921060767526
 72
     1
 10
44.42529862232101
 20
115.921060767526
 11
44.25007449123501
 21
115.825335388433
 72
     1
 10
44.25007449123501
 20
115.825335388433
 11
44.09736087373102
 21
115.6967064828711
 72
     1
 10
44.09736087373102
 20
115.6967064828711
 11
43.97324597982203
 21
115.540302079392
 72
     1
 10
43.97324597982203
 20
115.540302079392
 11
43.882677878663
 21
115.362357528
 72
     1
 10
43.882677878663
 20
115.362357528
 11
43.82926723464203
 21
115.169966916424
 72
     1
 10
43.82926723464203
 20
115.169966916424
 11
43.81471696460102
 21
114.9999997735
 72
     1
 10
43.81471696460102
 20
114.9999997735
 11
43.81471696463001
 21
76.49955021597005
 72
     1
 10
43.81471696463001
 20
76.49955021597005
 11
14.31471696463001
 21
76.49955021597005
 72
     1
 10
14.31471696463001
 20
76.49955021597005
 11
14.31471696463001
 21
-0.0000002264760042
 72
     1
 10
14.31471696463001
 20
-0.0000002264760042
 11
16.474971002475
 21
-0.0000002264760042
 72
     1
 10
16.474971002475
 20
-0.0000002264760042
 11
17.81471696460102
 21
4.999999773500008
 72
     1
 10
17.81471696460102
 20
4.999999773500008
 11
17.81471696463001
 21
72.74999977352304
 72
     1
 10
17.81471696463001
 20
72.74999977352304
 11
20.73340360479199
 21
73.000001773524
 72
     1
 10
20.73340360479199
 20
73.000001773524
 11
47.31471696463001
 21
73.000001773524
 72
     1
 10
47.31471696463001
 20
73.000001773524
 11
47.31471696463001
 21
112.499999773523
 97
        0
 75
     1
 76
     2
 52
0.0
 41
1.0
 77
     0
 78
     1
 53
44.99999999999998
 43
0.0
 44
0.0
 45
-4.490128060534577
 46
0.0000000000000018
 79
     0
 98
        1
 10
0.0
 20
0.0
  0
HATCH
  5
337
330
44
100
AcDbEntity
  8
0
  6
Continuous
 62
     7
100
AcDbHatch
 10
0.0
 20
0.0
 30
0.0
210
0.0
220
0.0
230
1.0
  2
CUSTOM2
 70
     0
 71
     0
 91
        1
 92
        1
 93
       71
 72
     1
 10
-92.58528303537
 20
121.701941773524
 11
-92.58528303539899
 21
114.9999997735
 72
     1
 10
-92.58528303539899
 20
114.9999997735
 11
-92.53544947997298
 21
114.503326446536
 72
     1
 10
-92.53544947997298
 20
114.503326446536
 11
-92.387935520377
 21
114.026453917752
 72
     1
 10
-92.387935520377
 20
114.026453917752
 11
-92.148622072644
 21
113.588393590036
 72
     1
 10
-92.148622072644
 20
113.588393590036
 11
-91.827049808738
 21
113.206609546275
 72
     1
 10
-91.827049808738
 20
113.206609546275
 11
-91.43603880004
 21
112.896322311504
 72
     1
 10
-91.43603880004
 20
112.896322311504
 11
-90.99117742156199
 21
112.6699020586051
 72
     1
 10
-90.99117742156199
 20
112.6699020586051
 11
-90.51020089261999
 21
112.536375448552
 72
     1
 10
-90.51020089261999
 20
112.536375448552
 11
-90.08528303539899
 21
112.4999997735
 72
     1
 10
-90.08528303539899
 20
112.4999997735
 11
-86.68528303536999
 21
112.499999773523
 72
     1
 10
-86.68528303536999
 20
112.499999773523
 11
-86.68528303536999
 21
73.000001773524
 72
     1
 10
-86.68528303536999
 20
73.000001773524
 11
-60.103969675532
 21
73.000001773524
 72
     1
 10
-60.103969675532
 20
73.000001773524
 11
-57.18528303536999
 21
72.74999977352304
 72
     1
 10
-57.18528303536999
 20
72.74999977352304
 11
-57.18528303539898
 21
4.999999773500008
 72
     1
 10
-57.18528303539898
 20
4.999999773500008
 11
-55.84553707319898
 21
-0.0000002264999921
 72
     1
 10
-55.84553707319898
 20
-0.0000002264999921
 11
-53.68528303536999
 21
-0.0000002264760042
 72
     1
 10
-53.68528303536999
 20
-0.0000002264760042
 11
-53.68528303536999
 21
76.49955021597005
 72
     1
 10
-53.68528303536999
 20
76.49955021597005
 11
-83.18528303536999
 21
76.49955021597005
 72
     1
 10
-83.18528303536999
 20
76.49955021597005
 11
-83.18528303539898
 21
114.9999997735
 72
     1
 10
-83.18528303539898
 20
114.9999997735
 11
-83.20521645752899
 21
115.198669104319
 72
     1
 10
-83.20521645752899
 20
115.198669104319
 11
-83.26422204136699
 21
115.389418115832
 72
     1
 10
-83.26422204136699
 20
115.389418115832
 11
-83.35994742046
 21
115.564642246919
 72
     1
 10
-83.35994742046
 20
115.564642246919
 11
-83.48857632602298
 21
115.717355864423
 72
     1
 10
-83.48857632602298
 20
115.717355864423
 11
-83.64498072950198
 21
115.841470758331
 72
     1
 10
-83.64498072950198
 20
115.841470758331
 11
-83.822925280893
 21
115.932038859491
 72
     1
 10
-83.822925280893
 20
115.932038859491
 11
-84.01531589247
 21
115.985449503512
 72
     1
 10
-84.01531589247
 20
115.985449503512
 11
-84.18528303539898
 21
115.9999997735
 72
     1
 10
-84.18528303539898
 20
115.9999997735
 11
-88.08528303539899
 21
115.9999997735
 72
     1
 10
-88.08528303539899
 20
115.9999997735
 11
-88.28395236616498
 21
116.019933195682
 72
     1
 10
-88.28395236616498
 20
116.019933195682
 11
-88.474701377679
 21
116.078938779521
 72
     1
 10
-88.474701377679
 20
116.078938779521
 11
-88.649925508765
 21
116.174664158614
 72
     1
 10
-88.649925508765
 20
116.174664158614
 11
-88.80263912626899
 21
116.303293064176
 72
     1
 10
-88.80263912626899
 20
116.303293064176
 11
-88.92675402017798
 21
116.459697467655
 72
     1
 10
-88.92675402017798
 20
116.459697467655
 11
-89.017322121337
 21
116.637642019047
 72
     1
 10
-89.017322121337
 20
116.637642019047
 11
-89.070732765358
 21
116.830032630623
 72
     1
 10
-89.070732765358
 20
116.830032630623
 11
-89.08528303539899
 21
116.9999997735
 72
     1
 10
-89.08528303539899
 20
116.9999997735
 11
-89.08528303539899
 21
124.2014906452
 72
     1
 10
-89.08528303539899
 20
124.2014906452
 11
-89.105216457529
 21
124.400159975976
 72
     1
 10
-89.105216457529
 20
124.400159975976
 11
-89.164222041367
 21
124.59090898749
 72
     1
 10
-89.164222041367
 20
124.59090898749
 11
-89.25994742045998
 21
124.766133118576
 72
     1
 10
-89.25994742045998
 20
124.766133118576
 11
-89.38857632602299
 21
124.918846736081
 72
     1
 10
-89.38857632602299
 20
124.918846736081
 11
-89.54498072950199
 21
125.042961629989
 72
     1
 10
-89.54498072950199
 20
125.042961629989
 11
-89.72292528089298
 21
125.133529731149
 72
     1
 10
-89.72292528089298
 20
125.133529731149
 11
-89.91531589247
 21
125.18694037517
 72
     1
 10
-89.91531589247
 20
125.18694037517
 11
-90.08528303539899
 21
125.2014906452
 72
     1
 10
-90.08528303539899
 20
125.2014906452
 11
-96.68528303536999
 21
125.201490645181
 72
     1
 10
-96.68528303536999
 20
125.201490645181
 11
-96.68528303536999
 21
129.799999773523
 72
     1
 10
-96.68528303536999
 20
129.799999773523
 11
-95.18528303536999
 21
130.799999773523
 72
     1
 10
-95.18528303536999
 20
130.799999773523
 11
-95.18528303536999
 21
135.056918645181
 72
     1
 10
-95.18528303536999
 20
135.056918645181
 11
-94.43537139922398
 21
135.499999773523
 72
     1
 10
-94.43537139922398
 20
135.499999773523
 11
-94.43537139922398
 21
136.399999773524
 72
     1
 10
-94.43537139922398
 20
136.399999773524
 11
-98.43523298144899
 21
143.301832206798
 72
     1
 10
-98.43523298144899
 20
143.301832206798
 11
-98.43528003780298
 21
158.999922884455
 72
     1
 10
-98.43528003780298
 20
158.999922884455
 11
-98.45521405549599
 21
159.198592155533
 72
     1
 10
-98.45521405549599
 20
159.198592155533
 11
-98.51422021113399
 21
159.389340990167
 72
     1
 10
-98.51422021113399
 20
159.389340990167
 11
-98.60994611548799
 21
159.564564834301
 72
     1
 10
-98.60994611548799
 20
159.564564834301
 11
-98.73857547883298
 21
159.71727806622
 72
     1
 10
-98.73857547883298
 20
159.71727806622
 11
-98.89498025436498
 21
159.841392491281
 72
     1
 10
-98.89498025436498
 20
159.841392491281
 11
-99.07292507724799
 21
159.931960059023
 72
     1
 10
-99.07292507724799
 20
159.931960059023
 11
-99.26531584892999
 21
159.985370126323
 72
     1
 10
-99.26531584892999
 20
159.985370126323
 11
-99.435280037799
 21
159.9999198868
 72
     1
 10
-99.435280037799
 20
159.9999198868
 11
-181.685283035399
 21
159.9999198868
 72
     1
 10
-181.685283035399
 20
159.9999198868
 11
-183.6852830353699
 21
157.999919886836
 72
     1
 10
-183.6852830353699
 20
157.999919886836
 11
-183.6852830353699
 21
156.499989773523
 72
     1
 10
-183.6852830353699
 20
156.499989773523
 11
-101.93528303537
 21
156.499989773523
 72
     1
 10
-101.93528303537
 20
156.499989773523
 11
-101.93526403537
 21
142.399999773524
 72
     1
 10
-101.93526403537
 20
142.399999773524
 11
-99.78528303536999
 21
138.599999773524
 72
     1
 10
-99.78528303536999
 20
138.599999773524
 11
-99.785283035399
 21
74.00000177350002
 72
     1
 10
-99.785283035399
 20
74.00000177350002
 11
-96.93528303536999
 21
74.000001773524
 72
     1
 10
-96.93528303536999
 20
74.000001773524
 11
-96.28528303536999
 21
121.701941773524
 72
     1
 10
-96.28528303536999
 20
121.701941773524
 11
-92.58528303537
 21
121.701941773524
 97
        0
 75
     1
 76
     2
 52
0.0
 41
1.0
 77
     0
 78
     1
 53
44.99999999999998
 43
0.0
 44
0.0
 45
-4.490128060534577
 46
0.0000000000000018
 79
     0
 98
        1
 10
0.0
 20
0.0
  0
HATCH
  5
338
330
44
100
AcDbEntity
  8
0
  6
Continuous
 62
     7
100
AcDbHatch
 10
0.0
 20
0.0
 30
0.0
210
0.0
220
0.0
230
1.0
  2
CUSTOM3
 70
     0
 71
     0
 91
        1
 92
        1
 93
       13
 72
     1
 10
-189.6852830353699
 20
159.999919886836
 11
-197.685283035399
 21
159.9999198868
 72
     1
 10
-197.685283035399
 20
159.9999198868
 11
-198.08262169696
 21
159.960053042519
 72
     1
 10
-198.08262169696
 20
159.960053042519
 11
-198.4641197199872
 21
159.842041874842
 72
     1
 10
-198.4641197199872
 20
159.842041874842
 11
-198.81456798216
 21
159.650591116656
 72
     1
 10
-198.81456798216
 20
159.650591116656
 11
-199.1199952171689
 21
159.393333305531
 72
     1
 10
-199.1199952171689
 20
159.393333305531
 11
-199.3682250049857
 21
159.080524498573
 72
     1
 10
-199.3682250049857
 20
159.080524498573
 11
-199.5493612073043
 21
158.72463539579
 72
     1
 10
-199.5493612073043
 20
158.72463539579
 11
-199.6561824953468
 21
158.339854172637
 72
     1
 10
-199.6561824953468
 20
158.339854172637
 11
-199.685283035399
 21
157.9999198868
 72
     1
 10
-199.685283035399
 20
157.9999198868
 11
-199.685283035399
 21
156.4999897735
 72
     1
 10
-199.685283035399
 20
156.4999897735
 11
-187.6852830353699
 21
156.499989773523
 72
     1
 10
-187.6852830353699
 20
156.499989773523
 11
-187.6852830353699
 21
157.999919886836
 72
     1
 10
-187.6852830353699
 20
157.999919886836
 11
-189.6852830353699
 21
159.999919886836
 97
        0
 75
     1
 76
     2
 52
0.0
 41
1.0
 77
     0
 78
     1
 53
44.99999999999998
 43
0.0
 44
0.0
 45
-4.490128060534577
 46
0.0000000000000018
 79
     0
 98
        1
 10
0.0
 20
0.0
  0
HATCH
  5
339
330
44
100
AcDbEntity
  8
0
  6
Continuous
 62
     7
100
AcDbHatch
 10
0.0
 20
0.0
 30
0.0
210
0.0
220
0.0
230
1.0
  2
CUSTOM4
 70
     0
 71
     0
 91
        1
 92
        1
 93
       22
 72
     1
 10
45.06471696463001
 20
127.201490645181
 11
47.56471696460102
 21
127.2014906452
 72
     1
 10
47.56471696460102
 20
127.2014906452
 11
47.96205562622004
 21
127.161623800864
 72
     1
 10
47.96205562622004
 20
127.161623800864
 11
48.34355364924699
 21
127.043612633187
 72
     1
 10
48.34355364924699
 20
127.043612633187
 11
48.69400191142
 21
126.852161875001
 72
     1
 10
48.69400191142
 20
126.852161875001
 11
48.99942914642901
 21
126.594904063876
 72
     1
 10
48.99942914642901
 20
126.594904063876
 11
49.24765893424603
 21
126.282095256918
 72
     1
 10
49.24765893424603
 20
126.282095256918
 11
49.42879513656499
 21
125.926206154135
 72
     1
 10
49.42879513656499
 20
125.926206154135
 11
49.53561642460699
 21
125.5414249309821
 72
     1
 10
49.53561642460699
 20
125.5414249309821
 11
49.56471696460102
 21
125.2014906452
 72
     1
 10
49.56471696460102
 20
125.2014906452
 11
56.41001696463002
 21
125.201490645181
 72
     1
 10
56.41001696463002
 20
125.201490645181
 11
57.56471696463001
 21
127.201490645181
 72
     1
 10
57.56471696463001
 20
127.201490645181
 11
57.56471696463001
 21
129.701490645181
 72
     1
 10
57.56471696463001
 20
129.701490645181
 11
47.06471696460102
 21
129.7014906452
 72
     1
 10
47.06471696460102
 20
129.7014906452
 11
46.66737830303998
 21
129.661623800864
 72
     1
 10
46.66737830303998
 20
129.661623800864
 11
46.28588028001303
 21
129.543612633187
 72
     1
 10
46.28588028001303
 20
129.543612633187
 11
45.93543201784001
 21
129.352161875001
 72
     1
 10
45.93543201784001
 20
129.352161875001
 11
45.63000478283101
 21
129.094904063876
 72
     1
 10
45.63000478283101
 20
129.094904063876
 11
45.38177499501398
 21
128.782095256918
 72
     1
 10
45.38177499501398
 20
128.782095256918
 11
45.200638792696
 21
128.426206154135
 72
     1
 10
45.200638792696
 20
128.426206154135
 11
45.09381750465303
 21
128.041424930982
 72
     1
 10
45.09381750465303
 20
128.041424930982
 11
45.06471696460102
 21
127.7014906452
 72
     1
 10
45.06471696460102
 20
127.7014906452
 11
45.06471696463001
 21
127.201490645181
 97
        0
 75
     1
 76
     2
 52
0.0
 41
1.0
 77
     0
 78
     1
 53
44.99999999999998
 43
0.0
 44
0.0
 45
-4.490128060534577
 46
0.0000000000000018
 79
     0
 98
        1
 10
0.0
 20
0.0
  0
HATCH
  5
33A
330
44
100
AcDbEntity
  8
0
  6
Continuous
 62
     7
100
AcDbHatch
 10
0.0
 20
0.0
 30
0.0
210
0.0
220
0.0
230
1.0
  2
CUSTOM5
 70
     0
 71
     0
 91
        1
 92
        1
 93
       22
 72
     1
 10
-86.93528303539898
 20
127.2014906452
 11
-84.43528303536999
 21
127.201490645181
 72
     1
 10
-84.43528303536999
 20
127.201490645181
 11
-84.43528303539898
 21
127.7014906452
 72
     1
 10
-84.43528303539898
 20
127.7014906452
 11
-84.475149879687
 21
128.098829306771
 72
     1
 10
-84.475149879687
 20
128.098829306771
 11
-84.59316104736399
 21
128.480327329799
 72
     1
 10
-84.59316104736399
 20
128.480327329799
 11
-84.78461180555098
 21
128.830775591971
 72
     1
 10
-84.78461180555098
 20
128.830775591971
 11
-85.041869616676
 21
129.13620282698
 72
     1
 10
-85.041869616676
 20
129.13620282698
 11
-85.354678423634
 21
129.384432614797
 72
     1
 10
-85.354678423634
 20
129.384432614797
 11
-85.71056752641698
 21
129.565568817116
 72
     1
 10
-85.71056752641698
 20
129.565568817116
 11
-86.09534874956898
 21
129.672390105158
 72
     1
 10
-86.09534874956898
 20
129.672390105158
 11
-86.43528303539898
 21
129.7014906452
 72
     1
 10
-86.43528303539898
 20
129.7014906452
 11
-96.93528303536999
 21
129.701490645181
 72
     1
 10
-96.93528303536999
 20
129.701490645181
 11
-96.93528303536999
 21
127.201490645181
 72
     1
 10
-96.93528303536999
 20
127.201490645181
 11
-95.78058303537
 21
125.201490645181
 72
     1
 10
-95.78058303537
 20
125.201490645181
 11
-88.93528303539898
 21
125.2014906452
 72
     1
 10
-88.93528303539898
 20
125.2014906452
 11
-88.89541619105199
 21
125.598829306771
 72
     1
 10
-88.89541619105199
 20
125.598829306771
 11
-88.77740502337599
 21
125.980327329799
 72
     1
 10
-88.77740502337599
 20
125.980327329799
 11
-88.585954265189
 21
126.330775591971
 72
     1
 10
-88.585954265189
 20
126.330775591971
 11
-88.32869645406399
 21
126.63620282698
 72
     1
 10
-88.32869645406399
 20
126.63620282698
 11
-88.01588764710598
 21
126.884432614797
 72
     1
 10
-88.01588764710598
 20
126.884432614797
 11
-87.659998544323
 21
127.065568817116
 72
     1
 10
-87.659998544323
 20
127.065568817116
 11
-87.27521732117
 21
127.172390105158
 72
     1
 10
-87.27521732117
 20
127.172390105158
 11
-86.93528303539898
 21
127.2014906452
 97
        0
 75
     1
 76
     2
 52
0.0
 41
1.0
 77
     0
 78
     1
 53
44.99999999999998
 43
0.0
 44
0.0
 45
-4.490128060534577
 46
0.0000000000000018
 79
     0
 98
        1
 10
0.0
 20
0.0
  0
HATCH
  5
33B
330
44
100
AcDbEntity
  8
0
  6
Continuous
 62
     7
100
AcDbHatch
 10
0.0
 20
0.0
 30
0.0
210
0.0
220
0.0
230
1.0
  2
CUSTOM6
 70
     0
 71
     0
 91
        1
 92
        1
 93
       29
 72
     1
 10
18.31471696463001
 20
66.500001773524
 11
18.31471696463001
 21
64.000001773524
 72
     1
 10
18.31471696463001
 20
64.000001773524
 11
37.06471696463001
 21
64.000001773524
 72
     1
 10
37.06471696463001
 20
64.000001773524
 11
37.06471696463001
 21
61.50000177352401
 72
     1
 10
37.06471696463001
 20
61.50000177352401
 11
51.06471696463001
 21
61.50000177352401
 72
     1
 10
51.06471696463001
 20
61.50000177352401
 11
51.06471696463001
 21
64.000001773524
 72
     1
 10
51.06471696463001
 20
64.000001773524
 11
52.31471696460102
 21
64.00000177350002
 72
     1
 10
52.31471696460102
 20
64.00000177350002
 11
53.90407161099103
 21
64.15946915079401
 72
     1
 10
53.90407161099103
 20
64.15946915079401
 11
55.430063703099
 21
64.63151382150103
 72
     1
 10
55.430063703099
 20
64.63151382150103
 11
56.83185675178999
 21
65.39731685424603
 72
     1
 10
56.83185675178999
 20
65.39731685424603
 11
58.05356569182601
 21
66.42634809874603
 72
     1
 10
58.05356569182601
 20
66.42634809874603
 11
59.04648484309303
 21
67.67758332657804
 72
     1
 10
59.04648484309303
 20
67.67758332657804
 11
59.77102965236799
 21
69.10113973771003
 72
     1
 10
59.77102965236799
 20
69.10113973771003
 11
60.19831480453803
 21
70.64026463032202
 72
     1
 10
60.19831480453803
 20
70.64026463032202
 11
60.31471696460102
 21
72.00000177350002
 72
     1
 10
60.31471696460102
 20
72.00000177350002
 11
60.31471696463001
 21
74.000001773524
 72
     1
 10
60.31471696463001
 20
74.000001773524
 11
57.31471696463001
 21
74.000001773524
 72
     1
 10
57.31471696463001
 20
74.000001773524
 11
57.31471696463001
 21
78.00000177352304
 72
     1
 10
57.31471696463001
 20
78.00000177352304
 11
56.58677649609803
 21
80.000001773524
 72
     1
 10
56.58677649609803
 20
80.000001773524
 11
55.31471696463001
 21
80.000001773524
 72
     1
 10
55.31471696463001
 20
80.000001773524
 11
55.31471696460102
 21
69.00000177350002
 72
     1
 10
55.31471696460102
 20
69.00000177350002
 11
55.26488340923299
 21
68.503328446536
 72
     1
 10
55.26488340923299
 20
68.503328446536
 11
55.11736944963701
 21
68.02645591775202
 72
     1
 10
55.11736944963701
 20
68.02645591775202
 11
54.87805600190399
 21
67.588395590036
 72
     1
 10
54.87805600190399
 20
67.588395590036
 11
54.55648373799801
 21
67.206611546275
 72
     1
 10
54.55648373799801
 20
67.206611546275
 11
54.16547272930103
 21
66.89632431150405
 72
     1
 10
54.16547272930103
 20
66.89632431150405
 11
53.72061135082203
 21
66.66990405860504
 72
     1
 10
53.72061135082203
 20
66.66990405860504
 11
53.239634821881
 21
66.53637744855202
 72
     1
 10
53.239634821881
 20
66.53637744855202
 11
52.81471696460102
 21
66.50000177350002
 72
     1
 10
52.81471696460102
 20
66.50000177350002
 11
18.31471696463001
 21
66.500001773524
 97
        0
 75
     1
 76
     2
 52
0.0
 41
1.0
 77
     0
 78
     1
 53
44.99999999999998
 43
0.0
 44
0.0
 45
-4.490128060534577
 46
0.0000000000000018
 79
     0
 98
        1
 10
0.0
 20
0.0
  0
HATCH
  5
33C
330
44
100
AcDbEntity
  8
0
  6
Continuous
 62
     7
100
AcDbHatch
 10
0.0
 20
0.0
 30
0.0
210
0.0
220
0.0
230
1.0
  2
CUSTOM7
 70
     0
 71
     0
 91
        1
 92
        1
 93
       29
 72
     1
 10
-76.43528303536999
 20
61.50000177352401
 11
-76.43528303536999
 21
64.000001773524
 72
     1
 10
-76.43528303536999
 20
64.000001773524
 11
-57.68528303536999
 21
64.000001773524
 72
     1
 10
-57.68528303536999
 20
64.000001773524
 11
-57.68528303536999
 21
66.500001773524
 72
     1
 10
-57.68528303536999
 20
66.500001773524
 11
-92.18528303539898
 21
66.50000177350002
 72
     1
 10
-92.18528303539898
 20
66.50000177350002
 11
-92.681956362358
 21
66.54983532892
 72
     1
 10
-92.681956362358
 20
66.54983532892
 11
-93.15882889114198
 21
66.69734928851604
 72
     1
 10
-93.15882889114198
 20
66.69734928851604
 11
-93.596889218857
 21
66.936662736249
 72
     1
 10
-93.596889218857
 20
66.936662736249
 11
-93.978673262619
 21
67.258235000156
 72
     1
 10
-93.978673262619
 20
67.258235000156
 11
-94.28896049738998
 21
67.64924600885304
 72
     1
 10
-94.28896049738998
 20
67.64924600885304
 11
-94.51538075028799
 21
68.09410738733204
 72
     1
 10
-94.51538075028799
 20
68.09410738733204
 11
-94.64890736034098
 21
68.57508391627302
 72
     1
 10
-94.64890736034098
 20
68.57508391627302
 11
-94.68528303539898
 21
69.00000177350002
 72
     1
 10
-94.68528303539898
 20
69.00000177350002
 11
-94.68528303536999
 21
80.000001773524
 72
     1
 10
-94.68528303536999
 20
80.000001773524
 11
-95.95734256683699
 21
80.000001773524
 72
     1
 10
-95.95734256683699
 20
80.000001773524
 11
-96.68528303536999
 21
78.00000177352304
 72
     1
 10
-96.68528303536999
 20
78.00000177352304
 11
-96.68528303536999
 21
74.000001773524
 72
     1
 10
-96.68528303536999
 20
74.000001773524
 11
-99.68528303536999
 21
74.000001773524
 72
     1
 10
-99.68528303536999
 20
74.000001773524
 11
-99.68528303539898
 21
72.00000177350002
 72
     1
 10
-99.68528303539898
 20
72.00000177350002
 11
-99.52581565809999
 21
70.41064712716305
 72
     1
 10
-99.52581565809999
 20
70.41064712716305
 11
-99.053770987393
 21
68.884655035054
 72
     1
 10
-99.053770987393
 20
68.884655035054
 11
-98.287967954647
 21
67.482861986363
 72
     1
 10
-98.287967954647
 20
67.482861986363
 11
-97.258936710147
 21
66.26115304632704
 72
     1
 10
-97.258936710147
 20
66.26115304632704
 11
-96.00770148231499
 21
65.26823389506002
 72
     1
 10
-96.00770148231499
 20
65.26823389506002
 11
-94.584145071183
 21
64.54368908578603
 72
     1
 10
-94.584145071183
 20
64.54368908578603
 11
-93.045020178572
 21
64.11640393361604
 72
     1
 10
-93.045020178572
 20
64.11640393361604
 11
-91.68528303539898
 21
64.00000177350002
 72
     1
 10
-91.68528303539898
 20
64.00000177350002
 11
-90.43528303536999
 21
64.000001773524
 72
     1
 10
-90.43528303536999
 20
64.000001773524
 11
-90.43528303536999
 21
61.50000177352401
 72
     1
 10
-90.43528303536999
 20
61.50000177352401
 11
-76.43528303536999
 21
61.50000177352401
 97
        0
 75
     1
 76
     2
 52
0.0
 41
1.0
 77
     0
 78
     1
 53
44.99999999999998
 43
0.0
 44
0.0
 45
-4.490128060534577
 46
0.0000000000000018
 79
     0
 98
        1
 10
0.0
 20
0.0
  0
HATCH
  5
33D
330
44
100
AcDbEntity
  8
0
  6
Continuous
 62
     7
100
AcDbHatch
 10
0.0
 20
0.0
 30
0.0
210
0.0
220
0.0
230
1.0
  2
CUSTOM8
 70
     0
 71
     0
 91
        1
 92
        1
 93
      482
 72
     1
 10
-92.18528303539898
 20
203.4999198868
 11
-92.18528303539898
 21
202.4999198868
 72
     1
 10
-92.18528303539898
 20
202.4999198868
 11
-92.175316324291
 21
202.400585221439
 72
     1
 10
-92.175316324291
 20
202.400585221439
 11
-92.145813532371
 21
202.305210715682
 72
     1
 10
-92.145813532371
 20
202.305210715682
 11
-92.09795084282499
 21
202.217598650139
 72
     1
 10
-92.09795084282499
 20
202.217598650139
 11
-92.033636390044
 21
202.141241841387
 72
     1
 10
-92.033636390044
 20
202.141241841387
 11
-91.955434188304
 21
202.079184394432
 72
     1
 10
-91.955434188304
 20
202.079184394432
 11
-91.866461912608
 21
202.033900343853
 72
     1
 10
-91.866461912608
 20
202.033900343853
 11
-91.77026660682
 21
202.007195021842
 72
     1
 10
-91.77026660682
 20
202.007195021842
 11
-91.68528303539898
 21
201.9999198868
 72
     1
 10
-91.68528303539898
 20
201.9999198868
 11
-91.43694637187599
 21
201.975003109138
 72
     1
 10
-91.43694637187599
 20
201.975003109138
 11
-91.198510107484
 21
201.90124612934
 72
     1
 10
-91.198510107484
 20
201.90124612934
 11
-90.97947994362599
 21
201.781589405473
 72
     1
 10
-90.97947994362599
 20
201.781589405473
 11
-90.788587921746
 21
201.62080327352
 72
     1
 10
-90.788587921746
 20
201.62080327352
 11
-90.63344430435998
 21
201.425297769171
 72
     1
 10
-90.63344430435998
 20
201.425297769171
 11
-90.520234177911
 21
201.202867079932
 72
     1
 10
-90.520234177911
 20
201.202867079932
 11
-90.453470872884
 21
200.962378815462
 72
     1
 10
-90.453470872884
 20
200.962378815462
 11
-90.43581603156798
 21
200.71342048396
 72
     1
 10
-90.43581603156798
 20
200.71342048396
 11
-90.467973496772
 21
200.46591726847
 72
     1
 10
-90.467973496772
 20
200.46591726847
 11
-90.54866125183798
 21
200.229736341152
 72
     1
 10
-90.54866125183798
 20
200.229736341152
 11
-90.67466253059598
 21
200.014293490267
 72
     1
 10
-90.67466253059598
 20
200.014293490267
 11
-90.840954059681
 21
199.82817774241
 72
     1
 10
-90.840954059681
 20
199.82817774241
 11
-91.040906320593
 21
199.678808945125
 72
     1
 10
-91.040906320593
 20
199.678808945125
 11
-91.26654784767499
 21
199.572141961001
 72
     1
 10
-91.26654784767499
 20
199.572141961001
 11
-91.508883025295
 21
199.512429266086
 72
     1
 10
-91.508883025295
 20
199.512429266086
 11
-91.68528303539898
 21
199.4999198868
 72
     1
 10
-91.68528303539898
 20
199.4999198868
 11
-91.784617700768
 21
199.489953175757
 72
     1
 10
-91.784617700768
 20
199.489953175757
 11
-91.87999220652398
 21
199.460450383838
 72
     1
 10
-91.87999220652398
 20
199.460450383838
 11
-91.967604272068
 21
199.412587694291
 72
     1
 10
-91.967604272068
 20
199.412587694291
 11
-92.04396108082
 21
199.34827324151
 72
     1
 10
-92.04396108082
 20
199.34827324151
 11
-92.10601852777398
 21
199.27007103977
 72
     1
 10
-92.10601852777398
 20
199.27007103977
 11
-92.151302578354
 21
199.181098764075
 72
     1
 10
-92.151302578354
 20
199.181098764075
 11
-92.17800790036398
 21
199.084903458286
 72
     1
 10
-92.17800790036398
 20
199.084903458286
 11
-92.18528303539898
 21
198.9999198868
 72
     1
 10
-92.18528303539898
 20
198.9999198868
 11
-92.18528303539898
 21
197.9999198868
 72
     1
 10
-92.18528303539898
 20
197.9999198868
 11
-92.175316324291
 21
197.900585221439
 72
     1
 10
-92.175316324291
 20
197.900585221439
 11
-92.145813532371
 21
197.805210715682
 72
     1
 10
-92.145813532371
 20
197.805210715682
 11
-92.09795084282499
 21
197.717598650139
 72
     1
 10
-92.09795084282499
 20
197.717598650139
 11
-92.033636390044
 21
197.641241841387
 72
     1
 10
-92.033636390044
 20
197.641241841387
 11
-91.955434188304
 21
197.579184394432
 72
     1
 10
-91.955434188304
 20
197.579184394432
 11
-91.866461912608
 21
197.533900343853
 72
     1
 10
-91.866461912608
 20
197.533900343853
 11
-91.77026660682
 21
197.507195021842
 72
     1
 10
-91.77026660682
 20
197.507195021842
 11
-91.68528303539898
 21
197.4999198868
 72
     1
 10
-91.68528303539898
 20
197.4999198868
 11
-91.43694637187599
 21
197.475003109138
 72
     1
 10
-91.43694637187599
 20
197.475003109138
 11
-91.198510107484
 21
197.40124612934
 72
     1
 10
-91.198510107484
 20
197.40124612934
 11
-90.97947994362599
 21
197.281589405473
 72
     1
 10
-90.97947994362599
 20
197.281589405473
 11
-90.788587921746
 21
197.12080327352
 72
     1
 10
-90.788587921746
 20
197.12080327352
 11
-90.63344430435998
 21
196.925297769171
 72
     1
 10
-90.63344430435998
 20
196.925297769171
 11
-90.520234177911
 21
196.702867079932
 72
     1
 10
-90.520234177911
 20
196.702867079932
 11
-90.453470872884
 21
196.462378815462
 72
     1
 10
-90.453470872884
 20
196.462378815462
 11
-90.43581603156798
 21
196.21342048396
 72
     1
 10
-90.43581603156798
 20
196.21342048396
 11
-90.467973496772
 21
195.96591726847
 72
     1
 10
-90.467973496772
 20
195.96591726847
 11
-90.54866125183798
 21
195.729736341152
 72
     1
 10
-90.54866125183798
 20
195.729736341152
 11
-90.67466253059598
 21
195.514293490267
 72
     1
 10
-90.67466253059598
 20
195.514293490267
 11
-90.840954059681
 21
195.32817774241
 72
     1
 10
-90.840954059681
 20
195.32817774241
 11
-91.040906320593
 21
195.178808945125
 72
     1
 10
-91.040906320593
 20
195.178808945125
 11
-91.26654784767499
 21
195.072141961001
 72
     1
 10
-91.26654784767499
 20
195.072141961001
 11
-91.508883025295
 21
195.012429266086
 72
     1
 10
-91.508883025295
 20
195.012429266086
 11
-91.68528303539898
 21
194.9999198868
 72
     1
 10
-91.68528303539898
 20
194.9999198868
 11
-91.784617700768
 21
194.989953175757
 72
     1
 10
-91.784617700768
 20
194.989953175757
 11
-91.87999220652398
 21
194.960450383838
 72
     1
 10
-91.87999220652398
 20
194.960450383838
 11
-91.967604272068
 21
194.912587694291
 72
     1
 10
-91.967604272068
 20
194.912587694291
 11
-92.04396108082
 21
194.84827324151
 72
     1
 10
-92.04396108082
 20
194.84827324151
 11
-92.10601852777398
 21
194.77007103977
 72
     1
 10
-92.10601852777398
 20
194.77007103977
 11
-92.151302578354
 21
194.681098764075
 72
     1
 10
-92.151302578354
 20
194.681098764075
 11
-92.17800790036398
 21
194.584903458286
 72
     1
 10
-92.17800790036398
 20
194.584903458286
 11
-92.18528303539898
 21
194.4999198868
 72
     1
 10
-92.18528303539898
 20
194.4999198868
 11
-92.18528303539898
 21
193.4999198868
 72
     1
 10
-92.18528303539898
 20
193.4999198868
 11
-92.175316324291
 21
193.400585221439
 72
     1
 10
-92.175316324291
 20
193.400585221439
 11
-92.145813532371
 21
193.305210715682
 72
     1
 10
-92.145813532371
 20
193.305210715682
 11
-92.09795084282499
 21
193.217598650139
 72
     1
 10
-92.09795084282499
 20
193.217598650139
 11
-92.033636390044
 21
193.141241841387
 72
     1
 10
-92.033636390044
 20
193.141241841387
 11
-91.955434188304
 21
193.079184394432
 72
     1
 10
-91.955434188304
 20
193.079184394432
 11
-91.866461912608
 21
193.033900343853
 72
     1
 10
-91.866461912608
 20
193.033900343853
 11
-91.77026660682
 21
193.007195021842
 72
     1
 10
-91.77026660682
 20
193.007195021842
 11
-91.68528303539898
 21
192.9999198868
 72
     1
 10
-91.68528303539898
 20
192.9999198868
 11
-91.43694637187599
 21
192.975003109138
 72
     1
 10
-91.43694637187599
 20
192.975003109138
 11
-91.198510107484
 21
192.90124612934
 72
     1
 10
-91.198510107484
 20
192.90124612934
 11
-90.97947994362599
 21
192.781589405473
 72
     1
 10
-90.97947994362599
 20
192.781589405473
 11
-90.788587921746
 21
192.62080327352
 72
     1
 10
-90.788587921746
 20
192.62080327352
 11
-90.63344430435998
 21
192.425297769171
 72
     1
 10
-90.63344430435998
 20
192.425297769171
 11
-90.520234177911
 21
192.202867079932
 72
     1
 10
-90.520234177911
 20
192.202867079932
 11
-90.453470872884
 21
191.962378815462
 72
     1
 10
-90.453470872884
 20
191.962378815462
 11
-90.43581603156798
 21
191.71342048396
 72
     1
 10
-90.43581603156798
 20
191.71342048396
 11
-90.467973496772
 21
191.46591726847
 72
     1
 10
-90.467973496772
 20
191.46591726847
 11
-90.54866125183798
 21
191.229736341152
 72
     1
 10
-90.54866125183798
 20
191.229736341152
 11
-90.67466253059598
 21
191.014293490267
 72
     1
 10
-90.67466253059598
 20
191.014293490267
 11
-90.840954059681
 21
190.82817774241
 72
     1
 10
-90.840954059681
 20
190.82817774241
 11
-91.040906320593
 21
190.678808945125
 72
     1
 10
-91.040906320593
 20
190.678808945125
 11
-91.26654784767499
 21
190.572141961001
 72
     1
 10
-91.26654784767499
 20
190.572141961001
 11
-91.508883025295
 21
190.512429266086
 72
     1
 10
-91.508883025295
 20
190.512429266086
 11
-91.68528303539898
 21
190.4999198868
 72
     1
 10
-91.68528303539898
 20
190.4999198868
 11
-91.784617700767
 21
190.489953175757
 72
     1
 10
-91.784617700767
 20
190.489953175757
 11
-91.87999220652398
 21
190.460450383838
 72
     1
 10
-91.87999220652398
 20
190.460450383838
 11
-91.96760427206698
 21
190.412587694291
 72
     1
 10
-91.96760427206698
 20
190.412587694291
 11
-92.04396108082
 21
190.34827324151
 72
     1
 10
-92.04396108082
 20
190.34827324151
 11
-92.10601852777398
 21
190.27007103977
 72
     1
 10
-92.10601852777398
 20
190.27007103977
 11
-92.151302578354
 21
190.181098764075
 72
     1
 10
-92.151302578354
 20
190.181098764075
 11
-92.17800790036398
 21
190.084903458286
 72
     1
 10
-92.17800790036398
 20
190.084903458286
 11
-92.18528303539898
 21
189.9999198868
 72
     1
 10
-92.18528303539898
 20
189.9999198868
 11
-92.18528303539898
 21
188.9999198868
 72
     1
 10
-92.18528303539898
 20
188.9999198868
 11
-92.175316324291
 21
188.900585221439
 72
     1
 10
-92.175316324291
 20
188.900585221439
 11
-92.145813532371
 21
188.805210715682
 72
     1
 10
-92.145813532371
 20
188.805210715682
 11
-92.09795084282499
 21
188.717598650139
 72
     1
 10
-92.09795084282499
 20
188.717598650139
 11
-92.033636390044
 21
188.641241841387
 72
     1
 10
-92.033636390044
 20
188.641241841387
 11
-91.955434188304
 21
188.579184394432
 72
     1
 10
-91.955434188304
 20
188.579184394432
 11
-91.866461912608
 21
188.533900343853
 72
     1
 10
-91.866461912608
 20
188.533900343853
 11
-91.77026660682
 21
188.507195021842
 72
     1
 10
-91.77026660682
 20
188.507195021842
 11
-91.68528303539898
 21
188.4999198868
 72
     1
 10
-91.68528303539898
 20
188.4999198868
 11
-91.43694637187599
 21
188.475003109138
 72
     1
 10
-91.43694637187599
 20
188.475003109138
 11
-91.198510107484
 21
188.40124612934
 72
     1
 10
-91.198510107484
 20
188.40124612934
 11
-90.97947994362599
 21
188.281589405473
 72
     1
 10
-90.97947994362599
 20
188.281589405473
 11
-90.788587921746
 21
188.12080327352
 72
     1
 10
-90.788587921746
 20
188.12080327352
 11
-90.63344430435998
 21
187.925297769171
 72
     1
 10
-90.63344430435998
 20
187.925297769171
 11
-90.520234177911
 21
187.702867079932
 72
     1
 10
-90.520234177911
 20
187.702867079932
 11
-90.453470872884
 21
187.462378815462
 72
     1
 10
-90.453470872884
 20
187.462378815462
 11
-90.43581603156798
 21
187.21342048396
 72
     1
 10
-90.43581603156798
 20
187.21342048396
 11
-90.467973496772
 21
186.96591726847
 72
     1
 10
-90.467973496772
 20
186.96591726847
 11
-90.54866125183798
 21
186.729736341152
 72
     1
 10
-90.54866125183798
 20
186.729736341152
 11
-90.67466253059598
 21
186.514293490267
 72
     1
 10
-90.67466253059598
 20
186.514293490267
 11
-90.840954059681
 21
186.32817774241
 72
     1
 10
-90.840954059681
 20
186.32817774241
 11
-91.040906320593
 21
186.178808945125
 72
     1
 10
-91.040906320593
 20
186.178808945125
 11
-91.26654784767499
 21
186.072141961001
 72
     1
 10
-91.26654784767499
 20
186.072141961001
 11
-91.508883025295
 21
186.012429266086
 72
     1
 10
-91.508883025295
 20
186.012429266086
 11
-91.68528303539898
 21
185.9999198868
 72
     1
 10
-91.68528303539898
 20
185.9999198868
 11
-91.784617700768
 21
185.989953175757
 72
     1
 10
-91.784617700768
 20
185.989953175757
 11
-91.87999220652398
 21
185.960450383838
 72
     1
 10
-91.87999220652398
 20
185.960450383838
 11
-91.967604272068
 21
185.912587694291
 72
     1
 10
-91.967604272068
 20
185.912587694291
 11
-92.04396108082
 21
185.84827324151
 72
     1
 10
-92.04396108082
 20
185.84827324151
 11
-92.10601852777398
 21
185.77007103977
 72
     1
 10
-92.10601852777398
 20
185.77007103977
 11
-92.151302578354
 21
185.681098764075
 72
     1
 10
-92.151302578354
 20
185.681098764075
 11
-92.17800790036398
 21
185.584903458286
 72
     1
 10
-92.17800790036398
 20
185.584903458286
 11
-92.18528303539898
 21
185.4999198868
 72
     1
 10
-92.18528303539898
 20
185.4999198868
 11
-92.18528303539898
 21
184.4999198868
 72
     1
 10
-92.18528303539898
 20
184.4999198868
 11
-92.175316324291
 21
184.400585221439
 72
     1
 10
-92.175316324291
 20
184.400585221439
 11
-92.145813532371
 21
184.305210715682
 72
     1
 10
-92.145813532371
 20
184.305210715682
 11
-92.09795084282499
 21
184.217598650139
 72
     1
 10
-92.09795084282499
 20
184.217598650139
 11
-92.033636390044
 21
184.141241841387
 72
     1
 10
-92.033636390044
 20
184.141241841387
 11
-91.955434188304
 21
184.079184394432
 72
     1
 10
-91.955434188304
 20
184.079184394432
 11
-91.866461912608
 21
184.033900343853
 72
     1
 10
-91.866461912608
 20
184.033900343853
 11
-91.77026660682
 21
184.007195021842
 72
     1
 10
-91.77026660682
 20
184.007195021842
 11
-91.68528303539898
 21
183.9999198868
 72
     1
 10
-91.68528303539898
 20
183.9999198868
 11
-91.43694637187599
 21
183.975003109138
 72
     1
 10
-91.43694637187599
 20
183.975003109138
 11
-91.198510107484
 21
183.90124612934
 72
     1
 10
-91.198510107484
 20
183.90124612934
 11
-90.97947994362599
 21
183.781589405473
 72
     1
 10
-90.97947994362599
 20
183.781589405473
 11
-90.788587921746
 21
183.62080327352
 72
     1
 10
-90.788587921746
 20
183.62080327352
 11
-90.63344430435998
 21
183.425297769171
 72
     1
 10
-90.63344430435998
 20
183.425297769171
 11
-90.520234177911
 21
183.202867079932
 72
     1
 10
-90.520234177911
 20
183.202867079932
 11
-90.453470872884
 21
182.962378815462
 72
     1
 10
-90.453470872884
 20
182.962378815462
 11
-90.43581603156798
 21
182.71342048396
 72
     1
 10
-90.43581603156798
 20
182.71342048396
 11
-90.467973496772
 21
182.46591726847
 72
     1
 10
-90.467973496772
 20
182.46591726847
 11
-90.54866125183798
 21
182.229736341152
 72
     1
 10
-90.54866125183798
 20
182.229736341152
 11
-90.67466253059598
 21
182.014293490267
 72
     1
 10
-90.67466253059598
 20
182.014293490267
 11
-90.840954059681
 21
181.82817774241
 72
     1
 10
-90.840954059681
 20
181.82817774241
 11
-91.040906320593
 21
181.678808945125
 72
     1
 10
-91.040906320593
 20
181.678808945125
 11
-91.26654784767499
 21
181.572141961001
 72
     1
 10
-91.26654784767499
 20
181.572141961001
 11
-91.508883025295
 21
181.512429266086
 72
     1
 10
-91.508883025295
 20
181.512429266086
 11
-91.68528303539898
 21
181.4999198868
 72
     1
 10
-91.68528303539898
 20
181.4999198868
 11
-91.784617700768
 21
181.489953175757
 72
     1
 10
-91.784617700768
 20
181.489953175757
 11
-91.87999220652398
 21
181.460450383838
 72
     1
 10
-91.87999220652398
 20
181.460450383838
 11
-91.967604272068
 21
181.412587694291
 72
     1
 10
-91.967604272068
 20
181.412587694291
 11
-92.04396108082
 21
181.34827324151
 72
     1
 10
-92.04396108082
 20
181.34827324151
 11
-92.10601852777398
 21
181.27007103977
 72
     1
 10
-92.10601852777398
 20
181.27007103977
 11
-92.151302578354
 21
181.181098764075
 72
     1
 10
-92.151302578354
 20
181.181098764075
 11
-92.17800790036398
 21
181.084903458286
 72
     1
 10
-92.17800790036398
 20
181.084903458286
 11
-92.18528303539898
 21
180.9999198868
 72
     1
 10
-92.18528303539898
 20
180.9999198868
 11
-92.18528303539898
 21
179.9999198868
 72
     1
 10
-92.18528303539898
 20
179.9999198868
 11
-92.175316324291
 21
179.900585221439
 72
     1
 10
-92.175316324291
 20
179.900585221439
 11
-92.14581353237199
 21
179.805210715682
 72
     1
 10
-92.14581353237199
 20
179.805210715682
 11
-92.09795084282499
 21
179.717598650139
 72
     1
 10
-92.09795084282499
 20
179.717598650139
 11
-92.033636390044
 21
179.641241841387
 72
     1
 10
-92.033636390044
 20
179.641241841387
 11
-91.955434188304
 21
179.579184394432
 72
     1
 10
-91.955434188304
 20
179.579184394432
 11
-91.866461912608
 21
179.533900343853
 72
     1
 10
-91.866461912608
 20
179.533900343853
 11
-91.77026660682
 21
179.507195021842
 72
     1
 10
-91.77026660682
 20
179.507195021842
 11
-91.68528303539898
 21
179.4999198868
 72
     1
 10
-91.68528303539898
 20
179.4999198868
 11
-91.43694637187599
 21
179.475003109138
 72
     1
 10
-91.43694637187599
 20
179.475003109138
 11
-91.198510107484
 21
179.40124612934
 72
     1
 10
-91.198510107484
 20
179.40124612934
 11
-90.97947994362599
 21
179.281589405473
 72
     1
 10
-90.97947994362599
 20
179.281589405473
 11
-90.788587921746
 21
179.12080327352
 72
     1
 10
-90.788587921746
 20
179.12080327352
 11
-90.63344430435998
 21
178.925297769171
 72
     1
 10
-90.63344430435998
 20
178.925297769171
 11
-90.520234177911
 21
178.702867079932
 72
     1
 10
-90.520234177911
 20
178.702867079932
 11
-90.453470872884
 21
178.462378815462
 72
     1
 10
-90.453470872884
 20
178.462378815462
 11
-90.43581603156798
 21
178.21342048396
 72
     1
 10
-90.43581603156798
 20
178.21342048396
 11
-90.467973496772
 21
177.96591726847
 72
     1
 10
-90.467973496772
 20
177.96591726847
 11
-90.54866125183798
 21
177.729736341152
 72
     1
 10
-90.54866125183798
 20
177.729736341152
 11
-90.67466253059598
 21
177.514293490267
 72
     1
 10
-90.67466253059598
 20
177.514293490267
 11
-90.840954059681
 21
177.32817774241
 72
     1
 10
-90.840954059681
 20
177.32817774241
 11
-91.040906320593
 21
177.178808945125
 72
     1
 10
-91.040906320593
 20
177.178808945125
 11
-91.26654784767499
 21
177.072141961001
 72
     1
 10
-91.26654784767499
 20
177.072141961001
 11
-91.508883025295
 21
177.012429266086
 72
     1
 10
-91.508883025295
 20
177.012429266086
 11
-91.68528303539898
 21
176.9999198868
 72
     1
 10
-91.68528303539898
 20
176.9999198868
 11
-91.784617700768
 21
176.989953175757
 72
     1
 10
-91.784617700768
 20
176.989953175757
 11
-91.87999220652398
 21
176.960450383838
 72
     1
 10
-91.87999220652398
 20
176.960450383838
 11
-91.967604272068
 21
176.912587694291
 72
     1
 10
-91.967604272068
 20
176.912587694291
 11
-92.04396108082
 21
176.84827324151
 72
     1
 10
-92.04396108082
 20
176.84827324151
 11
-92.10601852777398
 21
176.77007103977
 72
     1
 10
-92.10601852777398
 20
176.77007103977
 11
-92.151302578354
 21
176.681098764075
 72
     1
 10
-92.151302578354
 20
176.681098764075
 11
-92.17800790036398
 21
176.584903458286
 72
     1
 10
-92.17800790036398
 20
176.584903458286
 11
-92.18528303539898
 21
176.4999198868
 72
     1
 10
-92.18528303539898
 20
176.4999198868
 11
-92.18528303539898
 21
175.4999198868
 72
     1
 10
-92.18528303539898
 20
175.4999198868
 11
-92.175316324291
 21
175.400585221439
 72
     1
 10
-92.175316324291
 20
175.400585221439
 11
-92.14581353237199
 21
175.305210715682
 72
     1
 10
-92.14581353237199
 20
175.305210715682
 11
-92.09795084282499
 21
175.217598650139
 72
     1
 10
-92.09795084282499
 20
175.217598650139
 11
-92.033636390044
 21
175.141241841386
 72
     1
 10
-92.033636390044
 20
175.141241841386
 11
-91.955434188304
 21
175.079184394432
 72
     1
 10
-91.955434188304
 20
175.079184394432
 11
-91.866461912608
 21
175.033900343853
 72
     1
 10
-91.866461912608
 20
175.033900343853
 11
-91.77026660682
 21
175.007195021842
 72
     1
 10
-91.77026660682
 20
175.007195021842
 11
-91.68528303539898
 21
174.9999198868
 72
     1
 10
-91.68528303539898
 20
174.9999198868
 11
-91.43694637187599
 21
174.975003109138
 72
     1
 10
-91.43694637187599
 20
174.975003109138
 11
-91.198510107484
 21
174.90124612934
 72
     1
 10
-91.198510107484
 20
174.90124612934
 11
-90.97947994362599
 21
174.781589405473
 72
     1
 10
-90.97947994362599
 20
174.781589405473
 11
-90.788587921746
 21
174.62080327352
 72
     1
 10
-90.788587921746
 20
174.62080327352
 11
-90.63344430435998
 21
174.425297769171
 72
     1
 10
-90.63344430435998
 20
174.425297769171
 11
-90.520234177911
 21
174.202867079932
 72
     1
 10
-90.520234177911
 20
174.202867079932
 11
-90.45347087288499
 21
173.962378815462
 72
     1
 10
-90.45347087288499
 20
173.962378815462
 11
-90.43581603156798
 21
173.71342048396
 72
     1
 10
-90.43581603156798
 20
173.71342048396
 11
-90.467973496772
 21
173.46591726847
 72
     1
 10
-90.467973496772
 20
173.46591726847
 11
-90.54866125183798
 21
173.229736341152
 72
     1
 10
-90.54866125183798
 20
173.229736341152
 11
-90.67466253059598
 21
173.014293490267
 72
     1
 10
-90.67466253059598
 20
173.014293490267
 11
-90.840954059681
 21
172.82817774241
 72
     1
 10
-90.840954059681
 20
172.82817774241
 11
-91.040906320593
 21
172.678808945125
 72
     1
 10
-91.040906320593
 20
172.678808945125
 11
-91.26654784767499
 21
172.572141961001
 72
     1
 10
-91.26654784767499
 20
172.572141961001
 11
-91.508883025295
 21
172.512429266086
 72
     1
 10
-91.508883025295
 20
172.512429266086
 11
-91.68528303539898
 21
172.4999198868
 72
     1
 10
-91.68528303539898
 20
172.4999198868
 11
-91.784617700768
 21
172.489953175757
 72
     1
 10
-91.784617700768
 20
172.489953175757
 11
-91.87999220652398
 21
172.460450383838
 72
     1
 10
-91.87999220652398
 20
172.460450383838
 11
-91.967604272068
 21
172.412587694291
 72
     1
 10
-91.967604272068
 20
172.412587694291
 11
-92.04396108082
 21
172.34827324151
 72
     1
 10
-92.04396108082
 20
172.34827324151
 11
-92.10601852777398
 21
172.27007103977
 72
     1
 10
-92.10601852777398
 20
172.27007103977
 11
-92.151302578354
 21
172.181098764075
 72
     1
 10
-92.151302578354
 20
172.181098764075
 11
-92.17800790036398
 21
172.084903458286
 72
     1
 10
-92.17800790036398
 20
172.084903458286
 11
-92.18528303539898
 21
171.9999198868
 72
     1
 10
-92.18528303539898
 20
171.9999198868
 11
-92.18528303539898
 21
170.9999198868
 72
     1
 10
-92.18528303539898
 20
170.9999198868
 11
-92.175316324291
 21
170.900585221439
 72
     1
 10
-92.175316324291
 20
170.900585221439
 11
-92.14581353237199
 21
170.805210715682
 72
     1
 10
-92.14581353237199
 20
170.805210715682
 11
-92.09795084282499
 21
170.717598650139
 72
     1
 10
-92.09795084282499
 20
170.717598650139
 11
-92.033636390044
 21
170.641241841387
 72
     1
 10
-92.033636390044
 20
170.641241841387
 11
-91.955434188304
 21
170.579184394432
 72
     1
 10
-91.955434188304
 20
170.579184394432
 11
-91.866461912608
 21
170.533900343853
 72
     1
 10
-91.866461912608
 20
170.533900343853
 11
-91.77026660682
 21
170.507195021842
 72
     1
 10
-91.77026660682
 20
170.507195021842
 11
-91.68528303539898
 21
170.4999198868
 72
     1
 10
-91.68528303539898
 20
170.4999198868
 11
-91.43694637187599
 21
170.475003109138
 72
     1
 10
-91.43694637187599
 20
170.475003109138
 11
-91.198510107484
 21
170.40124612934
 72
     1
 10
-91.198510107484
 20
170.40124612934
 11
-90.97947994362599
 21
170.281589405473
 72
     1
 10
-90.97947994362599
 20
170.281589405473
 11
-90.788587921746
 21
170.12080327352
 72
     1
 10
-90.788587921746
 20
170.12080327352
 11
-90.63344430435998
 21
169.925297769171
 72
     1
 10
-90.63344430435998
 20
169.925297769171
 11
-90.520234177911
 21
169.702867079932
 72
     1
 10
-90.520234177911
 20
169.702867079932
 11
-90.45347087288499
 21
169.462378815462
 72
     1
 10
-90.45347087288499
 20
169.462378815462
 11
-90.43581603156798
 21
169.21342048396
 72
     1
 10
-90.43581603156798
 20
169.21342048396
 11
-90.467973496772
 21
168.96591726847
 72
     1
 10
-90.467973496772
 20
168.96591726847
 11
-90.54866125183798
 21
168.729736341152
 72
     1
 10
-90.54866125183798
 20
168.729736341152
 11
-90.67466253059598
 21
168.514293490267
 72
     1
 10
-90.67466253059598
 20
168.514293490267
 11
-90.840954059681
 21
168.32817774241
 72
     1
 10
-90.840954059681
 20
168.32817774241
 11
-91.040906320593
 21
168.178808945125
 72
     1
 10
-91.040906320593
 20
168.178808945125
 11
-91.26654784767499
 21
168.072141961
 72
     1
 10
-91.26654784767499
 20
168.072141961
 11
-91.508883025295
 21
168.012429266086
 72
     1
 10
-91.508883025295
 20
168.012429266086
 11
-91.68528303539898
 21
167.9999198868
 72
     1
 10
-91.68528303539898
 20
167.9999198868
 11
-91.784617700768
 21
167.989953175757
 72
     1
 10
-91.784617700768
 20
167.989953175757
 11
-91.87999220652398
 21
167.960450383838
 72
     1
 10
-91.87999220652398
 20
167.960450383838
 11
-91.967604272068
 21
167.912587694291
 72
     1
 10
-91.967604272068
 20
167.912587694291
 11
-92.04396108082
 21
167.84827324151
 72
     1
 10
-92.04396108082
 20
167.84827324151
 11
-92.10601852777398
 21
167.77007103977
 72
     1
 10
-92.10601852777398
 20
167.77007103977
 11
-92.151302578354
 21
167.681098764075
 72
     1
 10
-92.151302578354
 20
167.681098764075
 11
-92.17800790036398
 21
167.584903458286
 72
     1
 10
-92.17800790036398
 20
167.584903458286
 11
-92.18528303539898
 21
167.4999198868
 72
     1
 10
-92.18528303539898
 20
167.4999198868
 11
-92.18528303539898
 21
166.4999198868
 72
     1
 10
-92.18528303539898
 20
166.4999198868
 11
-92.175316324291
 21
166.400585221439
 72
     1
 10
-92.175316324291
 20
166.400585221439
 11
-92.14581353237199
 21
166.305210715682
 72
     1
 10
-92.14581353237199
 20
166.305210715682
 11
-92.09795084282499
 21
166.217598650139
 72
     1
 10
-92.09795084282499
 20
166.217598650139
 11
-92.033636390044
 21
166.141241841387
 72
     1
 10
-92.033636390044
 20
166.141241841387
 11
-91.955434188304
 21
166.079184394432
 72
     1
 10
-91.955434188304
 20
166.079184394432
 11
-91.866461912608
 21
166.033900343853
 72
     1
 10
-91.866461912608
 20
166.033900343853
 11
-91.77026660682
 21
166.007195021842
 72
     1
 10
-91.77026660682
 20
166.007195021842
 11
-91.68528303539898
 21
165.9999198868
 72
     1
 10
-91.68528303539898
 20
165.9999198868
 11
-91.43694637187599
 21
165.975003109138
 72
     1
 10
-91.43694637187599
 20
165.975003109138
 11
-91.198510107484
 21
165.90124612934
 72
     1
 10
-91.198510107484
 20
165.90124612934
 11
-90.97947994362599
 21
165.781589405473
 72
     1
 10
-90.97947994362599
 20
165.781589405473
 11
-90.788587921746
 21
165.62080327352
 72
     1
 10
-90.788587921746
 20
165.62080327352
 11
-90.63344430435998
 21
165.425297769171
 72
     1
 10
-90.63344430435998
 20
165.425297769171
 11
-90.520234177911
 21
165.202867079932
 72
     1
 10
-90.520234177911
 20
165.202867079932
 11
-90.45347087288499
 21
164.962378815462
 72
     1
 10
-90.45347087288499
 20
164.962378815462
 11
-90.43581603156798
 21
164.71342048396
 72
     1
 10
-90.43581603156798
 20
164.71342048396
 11
-90.467973496772
 21
164.46591726847
 72
     1
 10
-90.467973496772
 20
164.46591726847
 11
-90.54866125183798
 21
164.229736341152
 72
     1
 10
-90.54866125183798
 20
164.229736341152
 11
-90.67466253059598
 21
164.014293490267
 72
     1
 10
-90.67466253059598
 20
164.014293490267
 11
-90.840954059681
 21
163.82817774241
 72
     1
 10
-90.840954059681
 20
163.82817774241
 11
-91.040906320593
 21
163.678808945125
 72
     1
 10
-91.040906320593
 20
163.678808945125
 11
-91.26654784767499
 21
163.572141961001
 72
     1
 10
-91.26654784767499
 20
163.572141961001
 11
-91.508883025295
 21
163.512429266086
 72
     1
 10
-91.508883025295
 20
163.512429266086
 11
-91.68528303539898
 21
163.4999198868
 72
     1
 10
-91.68528303539898
 20
163.4999198868
 11
-91.784617700768
 21
163.489953175757
 72
     1
 10
-91.784617700768
 20
163.489953175757
 11
-91.87999220652398
 21
163.460450383838
 72
     1
 10
-91.87999220652398
 20
163.460450383838
 11
-91.967604272068
 21
163.412587694291
 72
     1
 10
-91.967604272068
 20
163.412587694291
 11
-92.04396108082
 21
163.34827324151
 72
     1
 10
-92.04396108082
 20
163.34827324151
 11
-92.10601852777398
 21
163.27007103977
 72
     1
 10
-92.10601852777398
 20
163.27007103977
 11
-92.151302578354
 21
163.181098764075
 72
     1
 10
-92.151302578354
 20
163.181098764075
 11
-92.17800790036398
 21
163.084903458286
 72
     1
 10
-92.17800790036398
 20
163.084903458286
 11
-92.18528303539898
 21
162.9999198868
 72
     1
 10
-92.18528303539898
 20
162.9999198868
 11
-92.18528303539898
 21
161.9999198868
 72
     1
 10
-92.18528303539898
 20
161.9999198868
 11
-92.175316324291
 21
161.900585221439
 72
     1
 10
-92.175316324291
 20
161.900585221439
 11
-92.14581353237199
 21
161.805210715682
 72
     1
 10
-92.14581353237199
 20
161.805210715682
 11
-92.09795084282499
 21
161.717598650139
 72
     1
 10
-92.09795084282499
 20
161.717598650139
 11
-92.033636390044
 21
161.641241841387
 72
     1
 10
-92.033636390044
 20
161.641241841387
 11
-91.955434188304
 21
161.579184394432
 72
     1
 10
-91.955434188304
 20
161.579184394432
 11
-91.866461912608
 21
161.533900343853
 72
     1
 10
-91.866461912608
 20
161.533900343853
 11
-91.77026660682
 21
161.507195021842
 72
     1
 10
-91.77026660682
 20
161.507195021842
 11
-91.68528303539898
 21
161.4999198868
 72
     1
 10
-91.68528303539898
 20
161.4999198868
 11
-91.43694637187599
 21
161.475003109138
 72
     1
 10
-91.43694637187599
 20
161.475003109138
 11
-91.198510107484
 21
161.40124612934
 72
     1
 10
-91.198510107484
 20
161.40124612934
 11
-90.97947994362599
 21
161.281589405473
 72
     1
 10
-90.97947994362599
 20
161.281589405473
 11
-90.788587921746
 21
161.12080327352
 72
     1
 10
-90.788587921746
 20
161.12080327352
 11
-90.63344430435998
 21
160.925297769171
 72
     1
 10
-90.63344430435998
 20
160.925297769171
 11
-90.520234177911
 21
160.702867079932
 72
     1
 10
-90.520234177911
 20
160.702867079932
 11
-90.45347087288499
 21
160.462378815462
 72
     1
 10
-90.45347087288499
 20
160.462378815462
 11
-90.43581603156798
 21
160.21342048396
 72
     1
 10
-90.43581603156798
 20
160.21342048396
 11
-90.467973496772
 21
159.96591726847
 72
     1
 10
-90.467973496772
 20
159.96591726847
 11
-90.54866125183798
 21
159.729736341152
 72
     1
 10
-90.54866125183798
 20
159.729736341152
 11
-90.67466253059598
 21
159.514293490267
 72
     1
 10
-90.67466253059598
 20
159.514293490267
 11
-90.840954059681
 21
159.32817774241
 72
     1
 10
-90.840954059681
 20
159.32817774241
 11
-91.040906320593
 21
159.178808945125
 72
     1
 10
-91.040906320593
 20
159.178808945125
 11
-91.26654784767499
 21
159.072141961001
 72
     1
 10
-91.26654784767499
 20
159.072141961001
 11
-91.508883025295
 21
159.012429266086
 72
     1
 10
-91.508883025295
 20
159.012429266086
 11
-91.68528303539898
 21
158.9999198868
 72
     1
 10
-91.68528303539898
 20
158.9999198868
 11
-91.784617700768
 21
158.989953175757
 72
     1
 10
-91.784617700768
 20
158.989953175757
 11
-91.87999220652398
 21
158.960450383838
 72
     1
 10
-91.87999220652398
 20
158.960450383838
 11
-91.967604272068
 21
158.912587694291
 72
     1
 10
-91.967604272068
 20
158.912587694291
 11
-92.04396108082
 21
158.84827324151
 72
     1
 10
-92.04396108082
 20
158.84827324151
 11
-92.10601852777398
 21
158.77007103977
 72
     1
 10
-92.10601852777398
 20
158.77007103977
 11
-92.151302578354
 21
158.681098764075
 72
     1
 10
-92.151302578354
 20
158.681098764075
 11
-92.17800790036398
 21
158.584903458286
 72
     1
 10
-92.17800790036398
 20
158.584903458286
 11
-92.18528303539898
 21
158.4999198868
 72
     1
 10
-92.18528303539898
 20
158.4999198868
 11
-92.18528303539898
 21
157.4999198868
 72
     1
 10
-92.18528303539898
 20
157.4999198868
 11
-92.175316324291
 21
157.400585221439
 72
     1
 10
-92.175316324291
 20
157.400585221439
 11
-92.14581353237199
 21
157.305210715682
 72
     1
 10
-92.14581353237199
 20
157.305210715682
 11
-92.09795084282499
 21
157.217598650139
 72
     1
 10
-92.09795084282499
 20
157.217598650139
 11
-92.033636390044
 21
157.141241841387
 72
     1
 10
-92.033636390044
 20
157.141241841387
 11
-91.955434188304
 21
157.079184394432
 72
     1
 10
-91.955434188304
 20
157.079184394432
 11
-91.866461912608
 21
157.033900343853
 72
     1
 10
-91.866461912608
 20
157.033900343853
 11
-91.77026660682
 21
157.007195021842
 72
     1
 10
-91.77026660682
 20
157.007195021842
 11
-91.68528303539898
 21
156.9999198868
 72
     1
 10
-91.68528303539898
 20
156.9999198868
 11
-91.43694637187599
 21
156.975003109138
 72
     1
 10
-91.43694637187599
 20
156.975003109138
 11
-91.198510107484
 21
156.90124612934
 72
     1
 10
-91.198510107484
 20
156.90124612934
 11
-90.97947994362599
 21
156.781589405473
 72
     1
 10
-90.97947994362599
 20
156.781589405473
 11
-90.788587921746
 21
156.62080327352
 72
     1
 10
-90.788587921746
 20
156.62080327352
 11
-90.63344430435998
 21
156.425297769171
 72
     1
 10
-90.63344430435998
 20
156.425297769171
 11
-90.520234177911
 21
156.202867079932
 72
     1
 10
-90.520234177911
 20
156.202867079932
 11
-90.45347087288499
 21
155.962378815462
 72
     1
 10
-90.45347087288499
 20
155.962378815462
 11
-90.43581603156798
 21
155.71342048396
 72
     1
 10
-90.43581603156798
 20
155.71342048396
 11
-90.467973496772
 21
155.46591726847
 72
     1
 10
-90.467973496772
 20
155.46591726847
 11
-90.54866125183798
 21
155.229736341152
 72
     1
 10
-90.54866125183798
 20
155.229736341152
 11
-90.67466253059598
 21
155.014293490267
 72
     1
 10
-90.67466253059598
 20
155.014293490267
 11
-90.840954059681
 21
154.82817774241
 72
     1
 10
-90.840954059681
 20
154.82817774241
 11
-91.040906320593
 21
154.678808945125
 72
     1
 10
-91.040906320593
 20
154.678808945125
 11
-91.26654784767499
 21
154.572141961001
 72
     1
 10
-91.26654784767499
 20
154.572141961001
 11
-91.508883025295
 21
154.512429266086
 72
     1
 10
-91.508883025295
 20
154.512429266086
 11
-91.68528303539898
 21
154.4999198868
 72
     1
 10
-91.68528303539898
 20
154.4999198868
 11
-91.784617700768
 21
154.489953175757
 72
     1
 10
-91.784617700768
 20
154.489953175757
 11
-91.87999220652398
 21
154.460450383838
 72
     1
 10
-91.87999220652398
 20
154.460450383838
 11
-91.967604272068
 21
154.412587694291
 72
     1
 10
-91.967604272068
 20
154.412587694291
 11
-92.04396108082
 21
154.34827324151
 72
     1
 10
-92.04396108082
 20
154.34827324151
 11
-92.10601852777398
 21
154.27007103977
 72
     1
 10
-92.10601852777398
 20
154.27007103977
 11
-92.151302578354
 21
154.181098764075
 72
     1
 10
-92.151302578354
 20
154.181098764075
 11
-92.17800790036398
 21
154.084903458286
 72
     1
 10
-92.17800790036398
 20
154.084903458286
 11
-92.18528303539898
 21
153.9999198868
 72
     1
 10
-92.18528303539898
 20
153.9999198868
 11
-92.18528303539898
 21
152.9999198868
 72
     1
 10
-92.18528303539898
 20
152.9999198868
 11
-92.175316324291
 21
152.900585221439
 72
     1
 10
-92.175316324291
 20
152.900585221439
 11
-92.14581353237199
 21
152.805210715682
 72
     1
 10
-92.14581353237199
 20
152.805210715682
 11
-92.09795084282499
 21
152.717598650139
 72
     1
 10
-92.09795084282499
 20
152.717598650139
 11
-92.033636390044
 21
152.641241841387
 72
     1
 10
-92.033636390044
 20
152.641241841387
 11
-91.955434188304
 21
152.579184394432
 72
     1
 10
-91.955434188304
 20
152.579184394432
 11
-91.866461912608
 21
152.533900343853
 72
     1
 10
-91.866461912608
 20
152.533900343853
 11
-91.77026660682
 21
152.507195021842
 72
     1
 10
-91.77026660682
 20
152.507195021842
 11
-91.68528303539898
 21
152.4999198868
 72
     1
 10
-91.68528303539898
 20
152.4999198868
 11
-91.43694637187599
 21
152.475003109138
 72
     1
 10
-91.43694637187599
 20
152.475003109138
 11
-91.198510107484
 21
152.40124612934
 72
     1
 10
-91.198510107484
 20
152.40124612934
 11
-90.97947994362599
 21
152.281589405473
 72
     1
 10
-90.97947994362599
 20
152.281589405473
 11
-90.788587921746
 21
152.12080327352
 72
     1
 10
-90.788587921746
 20
152.12080327352
 11
-90.63344430435998
 21
151.925297769171
 72
     1
 10
-90.63344430435998
 20
151.925297769171
 11
-90.520234177911
 21
151.702867079932
 72
     1
 10
-90.520234177911
 20
151.702867079932
 11
-90.45347087288499
 21
151.462378815462
 72
     1
 10
-90.45347087288499
 20
151.462378815462
 11
-90.43581603156798
 21
151.21342048396
 72
     1
 10
-90.43581603156798
 20
151.21342048396
 11
-90.467973496772
 21
150.96591726847
 72
     1
 10
-90.467973496772
 20
150.96591726847
 11
-90.54866125183798
 21
150.729736341152
 72
     1
 10
-90.54866125183798
 20
150.729736341152
 11
-90.67466253059598
 21
150.514293490267
 72
     1
 10
-90.67466253059598
 20
150.514293490267
 11
-90.840954059681
 21
150.32817774241
 72
     1
 10
-90.840954059681
 20
150.32817774241
 11
-91.040906320593
 21
150.178808945125
 72
     1
 10
-91.040906320593
 20
150.178808945125
 11
-91.26654784767499
 21
150.072141961001
 72
     1
 10
-91.26654784767499
 20
150.072141961001
 11
-91.508883025295
 21
150.012429266086
 72
     1
 10
-91.508883025295
 20
150.012429266086
 11
-91.68528303539898
 21
149.9999198868
 72
     1
 10
-91.68528303539898
 20
149.9999198868
 11
-91.784617700768
 21
149.989953175757
 72
     1
 10
-91.784617700768
 20
149.989953175757
 11
-91.87999220652398
 21
149.960450383838
 72
     1
 10
-91.87999220652398
 20
149.960450383838
 11
-91.967604272068
 21
149.912587694291
 72
     1
 10
-91.967604272068
 20
149.912587694291
 11
-92.04396108082
 21
149.84827324151
 72
     1
 10
-92.04396108082
 20
149.84827324151
 11
-92.10601852777398
 21
149.77007103977
 72
     1
 10
-92.10601852777398
 20
149.77007103977
 11
-92.151302578354
 21
149.681098764075
 72
     1
 10
-92.151302578354
 20
149.681098764075
 11
-92.17800790036398
 21
149.584903458286
 72
     1
 10
-92.17800790036398
 20
149.584903458286
 11
-92.18528303539898
 21
149.4999198868
 72
     1
 10
-92.18528303539898
 20
149.4999198868
 11
-92.18528303539898
 21
148.4999198868
 72
     1
 10
-92.18528303539898
 20
148.4999198868
 11
-92.175316324291
 21
148.400585221439
 72
     1
 10
-92.175316324291
 20
148.400585221439
 11
-92.14581353237199
 21
148.305210715682
 72
     1
 10
-92.14581353237199
 20
148.305210715682
 11
-92.09795084282499
 21
148.217598650139
 72
     1
 10
-92.09795084282499
 20
148.217598650139
 11
-92.033636390044
 21
148.141241841387
 72
     1
 10
-92.033636390044
 20
148.141241841387
 11
-91.955434188304
 21
148.079184394432
 72
     1
 10
-91.955434188304
 20
148.079184394432
 11
-91.866461912608
 21
148.033900343853
 72
     1
 10
-91.866461912608
 20
148.033900343853
 11
-91.77026660682
 21
148.007195021842
 72
     1
 10
-91.77026660682
 20
148.007195021842
 11
-91.68528303539898
 21
147.9999198868
 72
     1
 10
-91.68528303539898
 20
147.9999198868
 11
-91.43694637187599
 21
147.975003109138
 72
     1
 10
-91.43694637187599
 20
147.975003109138
 11
-91.198510107484
 21
147.90124612934
 72
     1
 10
-91.198510107484
 20
147.90124612934
 11
-90.97947994362599
 21
147.781589405473
 72
     1
 10
-90.97947994362599
 20
147.781589405473
 11
-90.788587921746
 21
147.62080327352
 72
     1
 10
-90.788587921746
 20
147.62080327352
 11
-90.63344430435998
 21
147.425297769171
 72
     1
 10
-90.63344430435998
 20
147.425297769171
 11
-90.520234177911
 21
147.202867079932
 72
     1
 10
-90.520234177911
 20
147.202867079932
 11
-90.45347087288499
 21
146.962378815462
 72
     1
 10
-90.45347087288499
 20
146.962378815462
 11
-90.43581603156798
 21
146.71342048396
 72
     1
 10
-90.43581603156798
 20
146.71342048396
 11
-90.467973496772
 21
146.46591726847
 72
     1
 10
-90.467973496772
 20
146.46591726847
 11
-90.54866125183798
 21
146.229736341152
 72
     1
 10
-90.54866125183798
 20
146.229736341152
 11
-90.67466253059598
 21
146.014293490267
 72
     1
 10
-90.67466253059598
 20
146.014293490267
 11
-90.840954059681
 21
145.82817774241
 72
     1
 10
-90.840954059681
 20
145.82817774241
 11
-91.040906320593
 21
145.678808945125
 72
     1
 10
-91.040906320593
 20
145.678808945125
 11
-91.26654784767499
 21
145.572141961001
 72
     1
 10
-91.26654784767499
 20
145.572141961001
 11
-91.508883025295
 21
145.512429266086
 72
     1
 10
-91.508883025295
 20
145.512429266086
 11
-91.68528303539898
 21
145.4999198868
 72
     1
 10
-91.68528303539898
 20
145.4999198868
 11
-91.784617700768
 21
145.489953175757
 72
     1
 10
-91.784617700768
 20
145.489953175757
 11
-91.87999220652398
 21
145.460450383838
 72
     1
 10
-91.87999220652398
 20
145.460450383838
 11
-91.967604272068
 21
145.412587694291
 72
     1
 10
-91.967604272068
 20
145.412587694291
 11
-92.04396108082
 21
145.34827324151
 72
     1
 10
-92.04396108082
 20
145.34827324151
 11
-92.10601852777398
 21
145.27007103977
 72
     1
 10
-92.10601852777398
 20
145.27007103977
 11
-92.151302578354
 21
145.181098764075
 72
     1
 10
-92.151302578354
 20
145.181098764075
 11
-92.17800790036398
 21
145.084903458286
 72
     1
 10
-92.17800790036398
 20
145.084903458286
 11
-92.18528303539898
 21
144.9999198868
 72
     1
 10
-92.18528303539898
 20
144.9999198868
 11
-92.18528303539898
 21
142.9999198868
 72
     1
 10
-92.18528303539898
 20
142.9999198868
 11
-92.175316324291
 21
142.900585221439
 72
     1
 10
-92.175316324291
 20
142.900585221439
 11
-92.14581353237199
 21
142.805210715682
 72
     1
 10
-92.14581353237199
 20
142.805210715682
 11
-92.09795084282499
 21
142.717598650139
 72
     1
 10
-92.09795084282499
 20
142.717598650139
 11
-92.033636390044
 21
142.641241841387
 72
     1
 10
-92.033636390044
 20
142.641241841387
 11
-91.955434188304
 21
142.579184394432
 72
     1
 10
-91.955434188304
 20
142.579184394432
 11
-91.866461912609
 21
142.533900343853
 72
     1
 10
-91.866461912609
 20
142.533900343853
 11
-91.77026660682
 21
142.507195021842
 72
     1
 10
-91.77026660682
 20
142.507195021842
 11
-91.68528303539898
 21
142.4999198868
 72
     1
 10
-91.68528303539898
 20
142.4999198868
 11
-88.68528303536999
 21
142.499919886836
 72
     1
 10
-88.68528303536999
 20
142.499919886836
 11
-88.68528303536999
 21
221.999919886836
 72
     1
 10
-88.68528303536999
 20
221.999919886836
 11
-89.68528303536999
 21
221.999919886836
 72
     1
 10
-89.68528303536999
 20
221.999919886836
 11
-89.68528303536999
 21
232.999919886836
 72
     1
 10
-89.68528303536999
 20
232.999919886836
 11
-93.68528303539898
 21
232.9999198868
 72
     1
 10
-93.68528303539898
 20
232.9999198868
 11
-93.68528303536999
 21
218.999919886836
 72
     1
 10
-93.68528303536999
 20
218.999919886836
 11
-92.18528303536999
 21
218.999919886836
 72
     1
 10
-92.18528303536999
 20
218.999919886836
 11
-92.18528303536999
 21
215.999919886836
 72
     1
 10
-92.18528303536999
 20
215.999919886836
 11
-92.68528303536999
 21
215.999919886836
 72
     1
 10
-92.68528303536999
 20
215.999919886836
 11
-92.68528303536999
 21
213.999919886836
 72
     1
 10
-92.68528303536999
 20
213.999919886836
 11
-92.18528303536999
 21
213.999919886836
 72
     1
 10
-92.18528303536999
 20
213.999919886836
 11
-92.18528303539898
 21
206.9999198868
 72
     1
 10
-92.18528303539898
 20
206.9999198868
 11
-92.175316324291
 21
206.900585221439
 72
     1
 10
-92.175316324291
 20
206.900585221439
 11
-92.145813532371
 21
206.805210715682
 72
     1
 10
-92.145813532371
 20
206.805210715682
 11
-92.09795084282499
 21
206.717598650139
 72
     1
 10
-92.09795084282499
 20
206.717598650139
 11
-92.033636390043
 21
206.641241841387
 72
     1
 10
-92.033636390043
 20
206.641241841387
 11
-91.955434188304
 21
206.579184394432
 72
     1
 10
-91.955434188304
 20
206.579184394432
 11
-91.866461912608
 21
206.533900343853
 72
     1
 10
-91.866461912608
 20
206.533900343853
 11
-91.77026660682
 21
206.507195021842
 72
     1
 10
-91.77026660682
 20
206.507195021842
 11
-91.68528303539898
 21
206.4999198868
 72
     1
 10
-91.68528303539898
 20
206.4999198868
 11
-91.43694637187599
 21
206.475003109138
 72
     1
 10
-91.43694637187599
 20
206.475003109138
 11
-91.198510107484
 21
206.40124612934
 72
     1
 10
-91.198510107484
 20
206.40124612934
 11
-90.97947994362599
 21
206.281589405473
 72
     1
 10
-90.97947994362599
 20
206.281589405473
 11
-90.788587921746
 21
206.12080327352
 72
     1
 10
-90.788587921746
 20
206.12080327352
 11
-90.63344430435998
 21
205.925297769171
 72
     1
 10
-90.63344430435998
 20
205.925297769171
 11
-90.520234177911
 21
205.702867079932
 72
     1
 10
-90.520234177911
 20
205.702867079932
 11
-90.453470872884
 21
205.462378815462
 72
     1
 10
-90.453470872884
 20
205.462378815462
 11
-90.43581603156798
 21
205.21342048396
 72
     1
 10
-90.43581603156798
 20
205.21342048396
 11
-90.467973496772
 21
204.96591726847
 72
     1
 10
-90.467973496772
 20
204.96591726847
 11
-90.54866125183798
 21
204.729736341152
 72
     1
 10
-90.54866125183798
 20
204.729736341152
 11
-90.67466253059598
 21
204.514293490267
 72
     1
 10
-90.67466253059598
 20
204.514293490267
 11
-90.840954059681
 21
204.32817774241
 72
     1
 10
-90.840954059681
 20
204.32817774241
 11
-91.040906320593
 21
204.178808945125
 72
     1
 10
-91.040906320593
 20
204.178808945125
 11
-91.26654784767499
 21
204.072141961001
 72
     1
 10
-91.26654784767499
 20
204.072141961001
 11
-91.508883025295
 21
204.012429266086
 72
     1
 10
-91.508883025295
 20
204.012429266086
 11
-91.68528303539898
 21
203.9999198868
 72
     1
 10
-91.68528303539898
 20
203.9999198868
 11
-91.784617700768
 21
203.989953175757
 72
     1
 10
-91.784617700768
 20
203.989953175757
 11
-91.87999220652398
 21
203.960450383838
 72
     1
 10
-91.87999220652398
 20
203.960450383838
 11
-91.967604272068
 21
203.912587694291
 72
     1
 10
-91.967604272068
 20
203.912587694291
 11
-92.04396108082
 21
203.84827324151
 72
     1
 10
-92.04396108082
 20
203.84827324151
 11
-92.10601852777398
 21
203.77007103977
 72
     1
 10
-92.10601852777398
 20
203.77007103977
 11
-92.151302578354
 21
203.681098764075
 72
     1
 10
-92.151302578354
 20
203.681098764075
 11
-92.17800790036398
 21
203.584903458286
 72
     1
 10
-92.17800790036398
 20
203.584903458286
 11
-92.18528303539898
 21
203.4999198868
 97
        0
 75
     1
 76
     2
 52
0.0
 41
1.0
 77
     0
 78
     1
 53
44.99999999999998
 43
0.0
 44
0.0
 45
-4.490128060534577
 46
0.0000000000000018
 79
     0
 98
        1
 10
0.0
 20
0.0
  0
HATCH
  5
33E
330
44
100
AcDbEntity
  8
0
  6
Continuous
 62
     7
100
AcDbHatch
 10
0.0
 20
0.0
 30
0.0
210
0.0
220
0.0
230
1.0
  2
CUSTOM9
 70
     0
 71
     0
 91
        1
 92
        1
 93
      482
 72
     1
 10
52.31471696460102
 20
199.4999198868
 11
52.06638030113601
 21
199.524836664535
 72
     1
 10
52.06638030113601
 20
199.524836664535
 11
51.82794403674399
 21
199.598593644333
 72
     1
 10
51.82794403674399
 20
199.598593644333
 11
51.60891387288604
 21
199.718250368199
 72
     1
 10
51.60891387288604
 20
199.718250368199
 11
51.41802185100602
 21
199.879036500152
 72
     1
 10
51.41802185100602
 20
199.879036500152
 11
51.26287823362003
 21
200.074542004501
 72
     1
 10
51.26287823362003
 20
200.074542004501
 11
51.14966810717101
 21
200.29697269374
 72
     1
 10
51.14966810717101
 20
200.29697269374
 11
51.08290480214498
 21
200.537460958211
 72
     1
 10
51.08290480214498
 20
200.537460958211
 11
51.065249960828
 21
200.786419289713
 72
     1
 10
51.065249960828
 20
200.786419289713
 11
51.09740742603299
 21
201.033922505203
 72
     1
 10
51.09740742603299
 20
201.033922505203
 11
51.178095181098
 21
201.27010343252
 72
     1
 10
51.178095181098
 20
201.27010343252
 11
51.304096459856
 21
201.485546283405
 72
     1
 10
51.304096459856
 20
201.485546283405
 11
51.47038798894101
 21
201.671662031263
 72
     1
 10
51.47038798894101
 20
201.671662031263
 11
51.67034024985298
 21
201.821030828548
 72
     1
 10
51.67034024985298
 20
201.821030828548
 11
51.895981776935
 21
201.927697812672
 72
     1
 10
51.895981776935
 20
201.927697812672
 11
52.13831695455502
 21
201.987410507587
 72
     1
 10
52.13831695455502
 20
201.987410507587
 11
52.31471696460102
 21
201.9999198868
 72
     1
 10
52.31471696460102
 20
201.9999198868
 11
52.41405163002798
 21
202.009886597916
 72
     1
 10
52.41405163002798
 20
202.009886597916
 11
52.50942613578502
 21
202.039389389835
 72
     1
 10
52.50942613578502
 20
202.039389389835
 11
52.59703820132802
 21
202.087252079381
 72
     1
 10
52.59703820132802
 20
202.087252079381
 11
52.67339501008001
 21
202.151566532163
 72
     1
 10
52.67339501008001
 20
202.151566532163
 11
52.735452457034
 21
202.229768733902
 72
     1
 10
52.735452457034
 20
202.229768733902
 11
52.78073650761399
 21
202.318741009598
 72
     1
 10
52.78073650761399
 20
202.318741009598
 11
52.807441829624
 21
202.414936315386
 72
     1
 10
52.807441829624
 20
202.414936315386
 11
52.81471696460102
 21
202.4999198868
 72
     1
 10
52.81471696460102
 20
202.4999198868
 11
52.81471696460102
 21
203.4999198868
 72
     1
 10
52.81471696460102
 20
203.4999198868
 11
52.80475025355099
 21
203.599254552234
 72
     1
 10
52.80475025355099
 20
203.599254552234
 11
52.77524746163203
 21
203.694629057991
 72
     1
 10
52.77524746163203
 20
203.694629057991
 11
52.72738477208503
 21
203.782241123534
 72
     1
 10
52.72738477208503
 20
203.782241123534
 11
52.66307031930398
 21
203.858597932286
 72
     1
 10
52.66307031930398
 20
203.858597932286
 11
52.58486811756399
 21
203.92065537924
 72
     1
 10
52.58486811756399
 20
203.92065537924
 11
52.49589584186901
 21
203.96593942982
 72
     1
 10
52.49589584186901
 20
203.96593942982
 11
52.39970053607999
 21
203.992644751831
 72
     1
 10
52.39970053607999
 20
203.992644751831
 11
52.31471696460102
 21
203.9999198868
 72
     1
 10
52.31471696460102
 20
203.9999198868
 11
52.06638030113601
 21
204.024836664535
 72
     1
 10
52.06638030113601
 20
204.024836664535
 11
51.82794403674399
 21
204.098593644333
 72
     1
 10
51.82794403674399
 20
204.098593644333
 11
51.60891387288604
 21
204.218250368199
 72
     1
 10
51.60891387288604
 20
204.218250368199
 11
51.41802185100602
 21
204.379036500152
 72
     1
 10
51.41802185100602
 20
204.379036500152
 11
51.26287823362003
 21
204.574542004501
 72
     1
 10
51.26287823362003
 20
204.574542004501
 11
51.14966810717101
 21
204.79697269374
 72
     1
 10
51.14966810717101
 20
204.79697269374
 11
51.08290480214498
 21
205.037460958211
 72
     1
 10
51.08290480214498
 20
205.037460958211
 11
51.065249960828
 21
205.286419289713
 72
     1
 10
51.065249960828
 20
205.286419289713
 11
51.09740742603202
 21
205.533922505203
 72
     1
 10
51.09740742603202
 20
205.533922505203
 11
51.178095181098
 21
205.77010343252
 72
     1
 10
51.178095181098
 20
205.77010343252
 11
51.304096459856
 21
205.985546283405
 72
     1
 10
51.304096459856
 20
205.985546283405
 11
51.47038798894101
 21
206.171662031263
 72
     1
 10
51.47038798894101
 20
206.171662031263
 11
51.67034024985298
 21
206.321030828548
 72
     1
 10
51.67034024985298
 20
206.321030828548
 11
51.895981776935
 21
206.427697812672
 72
     1
 10
51.895981776935
 20
206.427697812672
 11
52.13831695455502
 21
206.487410507587
 72
     1
 10
52.13831695455502
 20
206.487410507587
 11
52.31471696460102
 21
206.4999198868
 72
     1
 10
52.31471696460102
 20
206.4999198868
 11
52.41405163002798
 21
206.509886597916
 72
     1
 10
52.41405163002798
 20
206.509886597916
 11
52.50942613578502
 21
206.539389389835
 72
     1
 10
52.50942613578502
 20
206.539389389835
 11
52.59703820132802
 21
206.587252079382
 72
     1
 10
52.59703820132802
 20
206.587252079382
 11
52.67339501008001
 21
206.651566532163
 72
     1
 10
52.67339501008001
 20
206.651566532163
 11
52.735452457034
 21
206.729768733902
 72
     1
 10
52.735452457034
 20
206.729768733902
 11
52.78073650761399
 21
206.818741009598
 72
     1
 10
52.78073650761399
 20
206.818741009598
 11
52.807441829624
 21
206.914936315386
 72
     1
 10
52.807441829624
 20
206.914936315386
 11
52.81471696460102
 21
206.9999198868
 72
     1
 10
52.81471696460102
 20
206.9999198868
 11
52.81471696463001
 21
213.999919886836
 72
     1
 10
52.81471696463001
 20
213.999919886836
 11
53.31471696463001
 21
213.999919886836
 72
     1
 10
53.31471696463001
 20
213.999919886836
 11
53.31471696463001
 21
215.999919886836
 72
     1
 10
53.31471696463001
 20
215.999919886836
 11
52.81471696463001
 21
215.999919886836
 72
     1
 10
52.81471696463001
 20
215.999919886836
 11
52.81471696463001
 21
218.999919886836
 72
     1
 10
52.81471696463001
 20
218.999919886836
 11
54.31471696463001
 21
218.999919886836
 72
     1
 10
54.31471696463001
 20
218.999919886836
 11
54.31471696460102
 21
232.9999198868
 72
     1
 10
54.31471696460102
 20
232.9999198868
 11
50.31471696463001
 21
232.999919886836
 72
     1
 10
50.31471696463001
 20
232.999919886836
 11
50.31471696463001
 21
221.999919886836
 72
     1
 10
50.31471696463001
 20
221.999919886836
 11
49.31471696463001
 21
221.999919886836
 72
     1
 10
49.31471696463001
 20
221.999919886836
 11
49.31471696463001
 21
142.499919886836
 72
     1
 10
49.31471696463001
 20
142.499919886836
 11
52.31471696460102
 21
142.4999198868
 72
     1
 10
52.31471696460102
 20
142.4999198868
 11
52.41405163002798
 21
142.509886597916
 72
     1
 10
52.41405163002798
 20
142.509886597916
 11
52.50942613578502
 21
142.539389389835
 72
     1
 10
52.50942613578502
 20
142.539389389835
 11
52.59703820132802
 21
142.587252079381
 72
     1
 10
52.59703820132802
 20
142.587252079381
 11
52.67339501008001
 21
142.651566532163
 72
     1
 10
52.67339501008001
 20
142.651566532163
 11
52.735452457034
 21
142.729768733902
 72
     1
 10
52.735452457034
 20
142.729768733902
 11
52.78073650761399
 21
142.818741009598
 72
     1
 10
52.78073650761399
 20
142.818741009598
 11
52.80744182962502
 21
142.914936315386
 72
     1
 10
52.80744182962502
 20
142.914936315386
 11
52.81471696460102
 21
142.9999198868
 72
     1
 10
52.81471696460102
 20
142.9999198868
 11
52.81471696460102
 21
144.9999198868
 72
     1
 10
52.81471696460102
 20
144.9999198868
 11
52.80475025355099
 21
145.099254552234
 72
     1
 10
52.80475025355099
 20
145.099254552234
 11
52.77524746163203
 21
145.194629057991
 72
     1
 10
52.77524746163203
 20
145.194629057991
 11
52.72738477208503
 21
145.282241123534
 72
     1
 10
52.72738477208503
 20
145.282241123534
 11
52.66307031930398
 21
145.358597932286
 72
     1
 10
52.66307031930398
 20
145.358597932286
 11
52.58486811756399
 21
145.42065537924
 72
     1
 10
52.58486811756399
 20
145.42065537924
 11
52.49589584186901
 21
145.46593942982
 72
     1
 10
52.49589584186901
 20
145.46593942982
 11
52.39970053607999
 21
145.492644751831
 72
     1
 10
52.39970053607999
 20
145.492644751831
 11
52.31471696460102
 21
145.4999198868
 72
     1
 10
52.31471696460102
 20
145.4999198868
 11
52.06638030113601
 21
145.524836664535
 72
     1
 10
52.06638030113601
 20
145.524836664535
 11
51.82794403674399
 21
145.598593644333
 72
     1
 10
51.82794403674399
 20
145.598593644333
 11
51.60891387288604
 21
145.718250368199
 72
     1
 10
51.60891387288604
 20
145.718250368199
 11
51.41802185100602
 21
145.879036500152
 72
     1
 10
51.41802185100602
 20
145.879036500152
 11
51.26287823362003
 21
146.074542004501
 72
     1
 10
51.26287823362003
 20
146.074542004501
 11
51.14966810717101
 21
146.29697269374
 72
     1
 10
51.14966810717101
 20
146.29697269374
 11
51.08290480214498
 21
146.537460958211
 72
     1
 10
51.08290480214498
 20
146.537460958211
 11
51.065249960828
 21
146.786419289713
 72
     1
 10
51.065249960828
 20
146.786419289713
 11
51.09740742603299
 21
147.033922505203
 72
     1
 10
51.09740742603299
 20
147.033922505203
 11
51.178095181098
 21
147.27010343252
 72
     1
 10
51.178095181098
 20
147.27010343252
 11
51.304096459856
 21
147.485546283405
 72
     1
 10
51.304096459856
 20
147.485546283405
 11
51.47038798894101
 21
147.671662031263
 72
     1
 10
51.47038798894101
 20
147.671662031263
 11
51.67034024985298
 21
147.821030828548
 72
     1
 10
51.67034024985298
 20
147.821030828548
 11
51.895981776935
 21
147.927697812672
 72
     1
 10
51.895981776935
 20
147.927697812672
 11
52.13831695455502
 21
147.987410507587
 72
     1
 10
52.13831695455502
 20
147.987410507587
 11
52.31471696460102
 21
147.9999198868
 72
     1
 10
52.31471696460102
 20
147.9999198868
 11
52.41405163002798
 21
148.009886597916
 72
     1
 10
52.41405163002798
 20
148.009886597916
 11
52.50942613578502
 21
148.039389389835
 72
     1
 10
52.50942613578502
 20
148.039389389835
 11
52.59703820132802
 21
148.087252079382
 72
     1
 10
52.59703820132802
 20
148.087252079382
 11
52.67339501008001
 21
148.151566532163
 72
     1
 10
52.67339501008001
 20
148.151566532163
 11
52.735452457034
 21
148.229768733902
 72
     1
 10
52.735452457034
 20
148.229768733902
 11
52.78073650761399
 21
148.318741009598
 72
     1
 10
52.78073650761399
 20
148.318741009598
 11
52.80744182962502
 21
148.414936315386
 72
     1
 10
52.80744182962502
 20
148.414936315386
 11
52.81471696460102
 21
148.4999198868
 72
     1
 10
52.81471696460102
 20
148.4999198868
 11
52.81471696460102
 21
149.4999198868
 72
     1
 10
52.81471696460102
 20
149.4999198868
 11
52.80475025355099
 21
149.599254552234
 72
     1
 10
52.80475025355099
 20
149.599254552234
 11
52.77524746163203
 21
149.694629057991
 72
     1
 10
52.77524746163203
 20
149.694629057991
 11
52.72738477208503
 21
149.782241123534
 72
     1
 10
52.72738477208503
 20
149.782241123534
 11
52.66307031930398
 21
149.858597932286
 72
     1
 10
52.66307031930398
 20
149.858597932286
 11
52.58486811756399
 21
149.92065537924
 72
     1
 10
52.58486811756399
 20
149.92065537924
 11
52.49589584186901
 21
149.96593942982
 72
     1
 10
52.49589584186901
 20
149.96593942982
 11
52.39970053607999
 21
149.992644751831
 72
     1
 10
52.39970053607999
 20
149.992644751831
 11
52.31471696460102
 21
149.9999198868
 72
     1
 10
52.31471696460102
 20
149.9999198868
 11
52.06638030113703
 21
150.024836664535
 72
     1
 10
52.06638030113703
 20
150.024836664535
 11
51.82794403674501
 21
150.098593644333
 72
     1
 10
51.82794403674501
 20
150.098593644333
 11
51.608913872887
 21
150.218250368199
 72
     1
 10
51.608913872887
 20
150.218250368199
 11
51.41802185100602
 21
150.379036500152
 72
     1
 10
51.41802185100602
 20
150.379036500152
 11
51.262878233621
 21
150.574542004501
 72
     1
 10
51.262878233621
 20
150.574542004501
 11
51.14966810717101
 21
150.796972693741
 72
     1
 10
51.14966810717101
 20
150.796972693741
 11
51.08290480214498
 21
151.037460958211
 72
     1
 10
51.08290480214498
 20
151.037460958211
 11
51.06524996082902
 21
151.286419289713
 72
     1
 10
51.06524996082902
 20
151.286419289713
 11
51.09740742603299
 21
151.533922505203
 72
     1
 10
51.09740742603299
 20
151.533922505203
 11
51.178095181098
 21
151.77010343252
 72
     1
 10
51.178095181098
 20
151.77010343252
 11
51.304096459856
 21
151.985546283406
 72
     1
 10
51.304096459856
 20
151.985546283406
 11
51.47038798894198
 21
152.171662031263
 72
     1
 10
51.47038798894198
 20
152.171662031263
 11
51.67034024985401
 21
152.321030828548
 72
     1
 10
51.67034024985401
 20
152.321030828548
 11
51.89598177693603
 21
152.427697812672
 72
     1
 10
51.89598177693603
 20
152.427697812672
 11
52.13831695455599
 21
152.487410507587
 72
     1
 10
52.13831695455599
 20
152.487410507587
 11
52.31471696460102
 21
152.4999198868
 72
     1
 10
52.31471696460102
 20
152.4999198868
 11
52.41405163002798
 21
152.509886597916
 72
     1
 10
52.41405163002798
 20
152.509886597916
 11
52.50942613578502
 21
152.539389389835
 72
     1
 10
52.50942613578502
 20
152.539389389835
 11
52.59703820132802
 21
152.587252079381
 72
     1
 10
52.59703820132802
 20
152.587252079381
 11
52.67339501008001
 21
152.651566532163
 72
     1
 10
52.67339501008001
 20
152.651566532163
 11
52.735452457034
 21
152.729768733902
 72
     1
 10
52.735452457034
 20
152.729768733902
 11
52.78073650761399
 21
152.818741009598
 72
     1
 10
52.78073650761399
 20
152.818741009598
 11
52.80744182962502
 21
152.914936315386
 72
     1
 10
52.80744182962502
 20
152.914936315386
 11
52.81471696460102
 21
152.9999198868
 72
     1
 10
52.81471696460102
 20
152.9999198868
 11
52.81471696460102
 21
153.9999198868
 72
     1
 10
52.81471696460102
 20
153.9999198868
 11
52.80475025355099
 21
154.099254552234
 72
     1
 10
52.80475025355099
 20
154.099254552234
 11
52.77524746163203
 21
154.194629057991
 72
     1
 10
52.77524746163203
 20
154.194629057991
 11
52.72738477208503
 21
154.282241123534
 72
     1
 10
52.72738477208503
 20
154.282241123534
 11
52.66307031930398
 21
154.358597932286
 72
     1
 10
52.66307031930398
 20
154.358597932286
 11
52.58486811756399
 21
154.42065537924
 72
     1
 10
52.58486811756399
 20
154.42065537924
 11
52.49589584186901
 21
154.46593942982
 72
     1
 10
52.49589584186901
 20
154.46593942982
 11
52.39970053607999
 21
154.492644751831
 72
     1
 10
52.39970053607999
 20
154.492644751831
 11
52.31471696460102
 21
154.4999198868
 72
     1
 10
52.31471696460102
 20
154.4999198868
 11
52.06638030113601
 21
154.524836664535
 72
     1
 10
52.06638030113601
 20
154.524836664535
 11
51.82794403674399
 21
154.598593644333
 72
     1
 10
51.82794403674399
 20
154.598593644333
 11
51.60891387288604
 21
154.718250368199
 72
     1
 10
51.60891387288604
 20
154.718250368199
 11
51.41802185100602
 21
154.879036500152
 72
     1
 10
51.41802185100602
 20
154.879036500152
 11
51.26287823362003
 21
155.074542004501
 72
     1
 10
51.26287823362003
 20
155.074542004501
 11
51.14966810717101
 21
155.29697269374
 72
     1
 10
51.14966810717101
 20
155.29697269374
 11
51.08290480214498
 21
155.537460958211
 72
     1
 10
51.08290480214498
 20
155.537460958211
 11
51.065249960828
 21
155.786419289713
 72
     1
 10
51.065249960828
 20
155.786419289713
 11
51.09740742603299
 21
156.033922505203
 72
     1
 10
51.09740742603299
 20
156.033922505203
 11
51.178095181098
 21
156.27010343252
 72
     1
 10
51.178095181098
 20
156.27010343252
 11
51.304096459856
 21
156.485546283405
 72
     1
 10
51.304096459856
 20
156.485546283405
 11
51.47038798894101
 21
156.671662031263
 72
     1
 10
51.47038798894101
 20
156.671662031263
 11
51.67034024985298
 21
156.821030828548
 72
     1
 10
51.67034024985298
 20
156.821030828548
 11
51.895981776935
 21
156.927697812672
 72
     1
 10
51.895981776935
 20
156.927697812672
 11
52.13831695455502
 21
156.987410507587
 72
     1
 10
52.13831695455502
 20
156.987410507587
 11
52.31471696460102
 21
156.9999198868
 72
     1
 10
52.31471696460102
 20
156.9999198868
 11
52.41405163002798
 21
157.009886597916
 72
     1
 10
52.41405163002798
 20
157.009886597916
 11
52.50942613578502
 21
157.039389389835
 72
     1
 10
52.50942613578502
 20
157.039389389835
 11
52.59703820132802
 21
157.087252079381
 72
     1
 10
52.59703820132802
 20
157.087252079381
 11
52.67339501008001
 21
157.151566532163
 72
     1
 10
52.67339501008001
 20
157.151566532163
 11
52.735452457034
 21
157.229768733902
 72
     1
 10
52.735452457034
 20
157.229768733902
 11
52.78073650761399
 21
157.318741009598
 72
     1
 10
52.78073650761399
 20
157.318741009598
 11
52.80744182962502
 21
157.414936315386
 72
     1
 10
52.80744182962502
 20
157.414936315386
 11
52.81471696460102
 21
157.4999198868
 72
     1
 10
52.81471696460102
 20
157.4999198868
 11
52.81471696460102
 21
158.4999198868
 72
     1
 10
52.81471696460102
 20
158.4999198868
 11
52.80475025355099
 21
158.599254552234
 72
     1
 10
52.80475025355099
 20
158.599254552234
 11
52.77524746163203
 21
158.694629057991
 72
     1
 10
52.77524746163203
 20
158.694629057991
 11
52.72738477208503
 21
158.782241123534
 72
     1
 10
52.72738477208503
 20
158.782241123534
 11
52.66307031930398
 21
158.858597932286
 72
     1
 10
52.66307031930398
 20
158.858597932286
 11
52.58486811756399
 21
158.92065537924
 72
     1
 10
52.58486811756399
 20
158.92065537924
 11
52.49589584186901
 21
158.96593942982
 72
     1
 10
52.49589584186901
 20
158.96593942982
 11
52.39970053607999
 21
158.992644751831
 72
     1
 10
52.39970053607999
 20
158.992644751831
 11
52.31471696460102
 21
158.9999198868
 72
     1
 10
52.31471696460102
 20
158.9999198868
 11
52.06638030113703
 21
159.024836664535
 72
     1
 10
52.06638030113703
 20
159.024836664535
 11
51.82794403674501
 21
159.098593644333
 72
     1
 10
51.82794403674501
 20
159.098593644333
 11
51.608913872887
 21
159.218250368199
 72
     1
 10
51.608913872887
 20
159.218250368199
 11
51.41802185100602
 21
159.379036500152
 72
     1
 10
51.41802185100602
 20
159.379036500152
 11
51.26287823362003
 21
159.574542004501
 72
     1
 10
51.26287823362003
 20
159.574542004501
 11
51.14966810717101
 21
159.79697269374
 72
     1
 10
51.14966810717101
 20
159.79697269374
 11
51.08290480214498
 21
160.037460958211
 72
     1
 10
51.08290480214498
 20
160.037460958211
 11
51.065249960828
 21
160.286419289713
 72
     1
 10
51.065249960828
 20
160.286419289713
 11
51.09740742603299
 21
160.533922505203
 72
     1
 10
51.09740742603299
 20
160.533922505203
 11
51.178095181098
 21
160.77010343252
 72
     1
 10
51.178095181098
 20
160.77010343252
 11
51.304096459856
 21
160.985546283405
 72
     1
 10
51.304096459856
 20
160.985546283405
 11
51.47038798894101
 21
161.171662031263
 72
     1
 10
51.47038798894101
 20
161.171662031263
 11
51.67034024985298
 21
161.321030828547
 72
     1
 10
51.67034024985298
 20
161.321030828547
 11
51.895981776935
 21
161.427697812672
 72
     1
 10
51.895981776935
 20
161.427697812672
 11
52.13831695455502
 21
161.487410507587
 72
     1
 10
52.13831695455502
 20
161.487410507587
 11
52.31471696460102
 21
161.4999198868
 72
     1
 10
52.31471696460102
 20
161.4999198868
 11
52.41405163002798
 21
161.509886597916
 72
     1
 10
52.41405163002798
 20
161.509886597916
 11
52.50942613578502
 21
161.539389389835
 72
     1
 10
52.50942613578502
 20
161.539389389835
 11
52.59703820132802
 21
161.587252079381
 72
     1
 10
52.59703820132802
 20
161.587252079381
 11
52.67339501008001
 21
161.651566532163
 72
     1
 10
52.67339501008001
 20
161.651566532163
 11
52.735452457034
 21
161.729768733902
 72
     1
 10
52.735452457034
 20
161.729768733902
 11
52.78073650761399
 21
161.818741009598
 72
     1
 10
52.78073650761399
 20
161.818741009598
 11
52.80744182962502
 21
161.914936315386
 72
     1
 10
52.80744182962502
 20
161.914936315386
 11
52.81471696460102
 21
161.9999198868
 72
     1
 10
52.81471696460102
 20
161.9999198868
 11
52.81471696460102
 21
162.9999198868
 72
     1
 10
52.81471696460102
 20
162.9999198868
 11
52.80475025355099
 21
163.099254552234
 72
     1
 10
52.80475025355099
 20
163.099254552234
 11
52.77524746163203
 21
163.194629057991
 72
     1
 10
52.77524746163203
 20
163.194629057991
 11
52.72738477208503
 21
163.282241123534
 72
     1
 10
52.72738477208503
 20
163.282241123534
 11
52.66307031930398
 21
163.358597932286
 72
     1
 10
52.66307031930398
 20
163.358597932286
 11
52.58486811756399
 21
163.42065537924
 72
     1
 10
52.58486811756399
 20
163.42065537924
 11
52.49589584186901
 21
163.46593942982
 72
     1
 10
52.49589584186901
 20
163.46593942982
 11
52.39970053607999
 21
163.492644751831
 72
     1
 10
52.39970053607999
 20
163.492644751831
 11
52.31471696460102
 21
163.4999198868
 72
     1
 10
52.31471696460102
 20
163.4999198868
 11
52.06638030113601
 21
163.524836664535
 72
     1
 10
52.06638030113601
 20
163.524836664535
 11
51.82794403674399
 21
163.598593644333
 72
     1
 10
51.82794403674399
 20
163.598593644333
 11
51.60891387288604
 21
163.718250368199
 72
     1
 10
51.60891387288604
 20
163.718250368199
 11
51.41802185100602
 21
163.879036500152
 72
     1
 10
51.41802185100602
 20
163.879036500152
 11
51.26287823362003
 21
164.074542004501
 72
     1
 10
51.26287823362003
 20
164.074542004501
 11
51.14966810717101
 21
164.29697269374
 72
     1
 10
51.14966810717101
 20
164.29697269374
 11
51.08290480214498
 21
164.537460958211
 72
     1
 10
51.08290480214498
 20
164.537460958211
 11
51.065249960828
 21
164.786419289713
 72
     1
 10
51.065249960828
 20
164.786419289713
 11
51.09740742603299
 21
165.033922505203
 72
     1
 10
51.09740742603299
 20
165.033922505203
 11
51.178095181098
 21
165.27010343252
 72
     1
 10
51.178095181098
 20
165.27010343252
 11
51.304096459856
 21
165.485546283405
 72
     1
 10
51.304096459856
 20
165.485546283405
 11
51.47038798894101
 21
165.671662031263
 72
     1
 10
51.47038798894101
 20
165.671662031263
 11
51.67034024985298
 21
165.821030828548
 72
     1
 10
51.67034024985298
 20
165.821030828548
 11
51.895981776935
 21
165.927697812672
 72
     1
 10
51.895981776935
 20
165.927697812672
 11
52.13831695455502
 21
165.987410507587
 72
     1
 10
52.13831695455502
 20
165.987410507587
 11
52.31471696460102
 21
165.9999198868
 72
     1
 10
52.31471696460102
 20
165.9999198868
 11
52.41405163002798
 21
166.009886597916
 72
     1
 10
52.41405163002798
 20
166.009886597916
 11
52.50942613578502
 21
166.039389389835
 72
     1
 10
52.50942613578502
 20
166.039389389835
 11
52.59703820132802
 21
166.087252079381
 72
     1
 10
52.59703820132802
 20
166.087252079381
 11
52.67339501008001
 21
166.151566532163
 72
     1
 10
52.67339501008001
 20
166.151566532163
 11
52.735452457034
 21
166.229768733902
 72
     1
 10
52.735452457034
 20
166.229768733902
 11
52.78073650761399
 21
166.318741009598
 72
     1
 10
52.78073650761399
 20
166.318741009598
 11
52.80744182962502
 21
166.414936315386
 72
     1
 10
52.80744182962502
 20
166.414936315386
 11
52.81471696460102
 21
166.4999198868
 72
     1
 10
52.81471696460102
 20
166.4999198868
 11
52.81471696460102
 21
167.4999198868
 72
     1
 10
52.81471696460102
 20
167.4999198868
 11
52.80475025355099
 21
167.599254552234
 72
     1
 10
52.80475025355099
 20
167.599254552234
 11
52.77524746163203
 21
167.694629057991
 72
     1
 10
52.77524746163203
 20
167.694629057991
 11
52.72738477208503
 21
167.782241123534
 72
     1
 10
52.72738477208503
 20
167.782241123534
 11
52.66307031930398
 21
167.858597932286
 72
     1
 10
52.66307031930398
 20
167.858597932286
 11
52.58486811756399
 21
167.92065537924
 72
     1
 10
52.58486811756399
 20
167.92065537924
 11
52.49589584186901
 21
167.96593942982
 72
     1
 10
52.49589584186901
 20
167.96593942982
 11
52.39970053607999
 21
167.992644751831
 72
     1
 10
52.39970053607999
 20
167.992644751831
 11
52.31471696460102
 21
167.9999198868
 72
     1
 10
52.31471696460102
 20
167.9999198868
 11
52.06638030113601
 21
168.024836664535
 72
     1
 10
52.06638030113601
 20
168.024836664535
 11
51.82794403674399
 21
168.098593644333
 72
     1
 10
51.82794403674399
 20
168.098593644333
 11
51.60891387288604
 21
168.218250368199
 72
     1
 10
51.60891387288604
 20
168.218250368199
 11
51.41802185100602
 21
168.379036500152
 72
     1
 10
51.41802185100602
 20
168.379036500152
 11
51.26287823362003
 21
168.574542004501
 72
     1
 10
51.26287823362003
 20
168.574542004501
 11
51.14966810717101
 21
168.79697269374
 72
     1
 10
51.14966810717101
 20
168.79697269374
 11
51.08290480214498
 21
169.037460958211
 72
     1
 10
51.08290480214498
 20
169.037460958211
 11
51.065249960828
 21
169.286419289713
 72
     1
 10
51.065249960828
 20
169.286419289713
 11
51.09740742603299
 21
169.533922505203
 72
     1
 10
51.09740742603299
 20
169.533922505203
 11
51.178095181098
 21
169.77010343252
 72
     1
 10
51.178095181098
 20
169.77010343252
 11
51.304096459856
 21
169.985546283405
 72
     1
 10
51.304096459856
 20
169.985546283405
 11
51.47038798894101
 21
170.171662031263
 72
     1
 10
51.47038798894101
 20
170.171662031263
 11
51.67034024985298
 21
170.321030828548
 72
     1
 10
51.67034024985298
 20
170.321030828548
 11
51.895981776935
 21
170.427697812672
 72
     1
 10
51.895981776935
 20
170.427697812672
 11
52.13831695455502
 21
170.487410507587
 72
     1
 10
52.13831695455502
 20
170.487410507587
 11
52.31471696460102
 21
170.4999198868
 72
     1
 10
52.31471696460102
 20
170.4999198868
 11
52.41405163002798
 21
170.509886597916
 72
     1
 10
52.41405163002798
 20
170.509886597916
 11
52.50942613578502
 21
170.539389389835
 72
     1
 10
52.50942613578502
 20
170.539389389835
 11
52.59703820132802
 21
170.587252079381
 72
     1
 10
52.59703820132802
 20
170.587252079381
 11
52.67339501008001
 21
170.651566532163
 72
     1
 10
52.67339501008001
 20
170.651566532163
 11
52.735452457034
 21
170.729768733902
 72
     1
 10
52.735452457034
 20
170.729768733902
 11
52.78073650761399
 21
170.818741009598
 72
     1
 10
52.78073650761399
 20
170.818741009598
 11
52.80744182962502
 21
170.914936315386
 72
     1
 10
52.80744182962502
 20
170.914936315386
 11
52.81471696460102
 21
170.9999198868
 72
     1
 10
52.81471696460102
 20
170.9999198868
 11
52.81471696460102
 21
171.9999198868
 72
     1
 10
52.81471696460102
 20
171.9999198868
 11
52.80475025355099
 21
172.099254552234
 72
     1
 10
52.80475025355099
 20
172.099254552234
 11
52.77524746163203
 21
172.194629057991
 72
     1
 10
52.77524746163203
 20
172.194629057991
 11
52.72738477208503
 21
172.282241123534
 72
     1
 10
52.72738477208503
 20
172.282241123534
 11
52.66307031930398
 21
172.358597932286
 72
     1
 10
52.66307031930398
 20
172.358597932286
 11
52.58486811756399
 21
172.42065537924
 72
     1
 10
52.58486811756399
 20
172.42065537924
 11
52.49589584186901
 21
172.46593942982
 72
     1
 10
52.49589584186901
 20
172.46593942982
 11
52.39970053607999
 21
172.492644751831
 72
     1
 10
52.39970053607999
 20
172.492644751831
 11
52.31471696460102
 21
172.4999198868
 72
     1
 10
52.31471696460102
 20
172.4999198868
 11
52.06638030113601
 21
172.524836664535
 72
     1
 10
52.06638030113601
 20
172.524836664535
 11
51.82794403674399
 21
172.598593644333
 72
     1
 10
51.82794403674399
 20
172.598593644333
 11
51.60891387288604
 21
172.718250368199
 72
     1
 10
51.60891387288604
 20
172.718250368199
 11
51.41802185100602
 21
172.879036500152
 72
     1
 10
51.41802185100602
 20
172.879036500152
 11
51.26287823362003
 21
173.074542004501
 72
     1
 10
51.26287823362003
 20
173.074542004501
 11
51.14966810717101
 21
173.29697269374
 72
     1
 10
51.14966810717101
 20
173.29697269374
 11
51.08290480214498
 21
173.537460958211
 72
     1
 10
51.08290480214498
 20
173.537460958211
 11
51.065249960828
 21
173.786419289713
 72
     1
 10
51.065249960828
 20
173.786419289713
 11
51.09740742603299
 21
174.033922505203
 72
     1
 10
51.09740742603299
 20
174.033922505203
 11
51.178095181098
 21
174.27010343252
 72
     1
 10
51.178095181098
 20
174.27010343252
 11
51.304096459856
 21
174.485546283406
 72
     1
 10
51.304096459856
 20
174.485546283406
 11
51.47038798894101
 21
174.671662031263
 72
     1
 10
51.47038798894101
 20
174.671662031263
 11
51.67034024985298
 21
174.821030828548
 72
     1
 10
51.67034024985298
 20
174.821030828548
 11
51.895981776935
 21
174.927697812672
 72
     1
 10
51.895981776935
 20
174.927697812672
 11
52.13831695455502
 21
174.987410507587
 72
     1
 10
52.13831695455502
 20
174.987410507587
 11
52.31471696460102
 21
174.9999198868
 72
     1
 10
52.31471696460102
 20
174.9999198868
 11
52.41405163002798
 21
175.009886597916
 72
     1
 10
52.41405163002798
 20
175.009886597916
 11
52.50942613578502
 21
175.039389389835
 72
     1
 10
52.50942613578502
 20
175.039389389835
 11
52.59703820132802
 21
175.087252079381
 72
     1
 10
52.59703820132802
 20
175.087252079381
 11
52.67339501008001
 21
175.151566532163
 72
     1
 10
52.67339501008001
 20
175.151566532163
 11
52.735452457034
 21
175.229768733902
 72
     1
 10
52.735452457034
 20
175.229768733902
 11
52.78073650761399
 21
175.318741009598
 72
     1
 10
52.78073650761399
 20
175.318741009598
 11
52.80744182962502
 21
175.414936315386
 72
     1
 10
52.80744182962502
 20
175.414936315386
 11
52.81471696460102
 21
175.4999198868
 72
     1
 10
52.81471696460102
 20
175.4999198868
 11
52.81471696460102
 21
176.4999198868
 72
     1
 10
52.81471696460102
 20
176.4999198868
 11
52.80475025355099
 21
176.599254552234
 72
     1
 10
52.80475025355099
 20
176.599254552234
 11
52.77524746163203
 21
176.694629057991
 72
     1
 10
52.77524746163203
 20
176.694629057991
 11
52.72738477208503
 21
176.782241123534
 72
     1
 10
52.72738477208503
 20
176.782241123534
 11
52.66307031930398
 21
176.858597932286
 72
     1
 10
52.66307031930398
 20
176.858597932286
 11
52.58486811756399
 21
176.92065537924
 72
     1
 10
52.58486811756399
 20
176.92065537924
 11
52.49589584186901
 21
176.96593942982
 72
     1
 10
52.49589584186901
 20
176.96593942982
 11
52.39970053607999
 21
176.992644751831
 72
     1
 10
52.39970053607999
 20
176.992644751831
 11
52.31471696460102
 21
176.9999198868
 72
     1
 10
52.31471696460102
 20
176.9999198868
 11
52.06638030113601
 21
177.024836664535
 72
     1
 10
52.06638030113601
 20
177.024836664535
 11
51.82794403674399
 21
177.098593644333
 72
     1
 10
51.82794403674399
 20
177.098593644333
 11
51.60891387288604
 21
177.218250368199
 72
     1
 10
51.60891387288604
 20
177.218250368199
 11
51.41802185100602
 21
177.379036500152
 72
     1
 10
51.41802185100602
 20
177.379036500152
 11
51.26287823362003
 21
177.574542004501
 72
     1
 10
51.26287823362003
 20
177.574542004501
 11
51.14966810717101
 21
177.79697269374
 72
     1
 10
51.14966810717101
 20
177.79697269374
 11
51.08290480214498
 21
178.037460958211
 72
     1
 10
51.08290480214498
 20
178.037460958211
 11
51.065249960828
 21
178.286419289713
 72
     1
 10
51.065249960828
 20
178.286419289713
 11
51.09740742603202
 21
178.533922505203
 72
     1
 10
51.09740742603202
 20
178.533922505203
 11
51.178095181098
 21
178.77010343252
 72
     1
 10
51.178095181098
 20
178.77010343252
 11
51.304096459856
 21
178.985546283405
 72
     1
 10
51.304096459856
 20
178.985546283405
 11
51.47038798894101
 21
179.171662031263
 72
     1
 10
51.47038798894101
 20
179.171662031263
 11
51.67034024985298
 21
179.321030828547
 72
     1
 10
51.67034024985298
 20
179.321030828547
 11
51.895981776935
 21
179.427697812672
 72
     1
 10
51.895981776935
 20
179.427697812672
 11
52.13831695455502
 21
179.487410507587
 72
     1
 10
52.13831695455502
 20
179.487410507587
 11
52.31471696460102
 21
179.4999198868
 72
     1
 10
52.31471696460102
 20
179.4999198868
 11
52.41405163002798
 21
179.509886597916
 72
     1
 10
52.41405163002798
 20
179.509886597916
 11
52.50942613578502
 21
179.539389389835
 72
     1
 10
52.50942613578502
 20
179.539389389835
 11
52.59703820132802
 21
179.587252079381
 72
     1
 10
52.59703820132802
 20
179.587252079381
 11
52.67339501008001
 21
179.651566532163
 72
     1
 10
52.67339501008001
 20
179.651566532163
 11
52.735452457034
 21
179.729768733902
 72
     1
 10
52.735452457034
 20
179.729768733902
 11
52.78073650761399
 21
179.818741009598
 72
     1
 10
52.78073650761399
 20
179.818741009598
 11
52.80744182962502
 21
179.914936315386
 72
     1
 10
52.80744182962502
 20
179.914936315386
 11
52.81471696460102
 21
179.9999198868
 72
     1
 10
52.81471696460102
 20
179.9999198868
 11
52.81471696460102
 21
180.9999198868
 72
     1
 10
52.81471696460102
 20
180.9999198868
 11
52.80475025355099
 21
181.099254552234
 72
     1
 10
52.80475025355099
 20
181.099254552234
 11
52.77524746163203
 21
181.194629057991
 72
     1
 10
52.77524746163203
 20
181.194629057991
 11
52.72738477208503
 21
181.282241123534
 72
     1
 10
52.72738477208503
 20
181.282241123534
 11
52.66307031930398
 21
181.358597932286
 72
     1
 10
52.66307031930398
 20
181.358597932286
 11
52.58486811756399
 21
181.42065537924
 72
     1
 10
52.58486811756399
 20
181.42065537924
 11
52.49589584186901
 21
181.46593942982
 72
     1
 10
52.49589584186901
 20
181.46593942982
 11
52.39970053607999
 21
181.492644751831
 72
     1
 10
52.39970053607999
 20
181.492644751831
 11
52.31471696460102
 21
181.4999198868
 72
     1
 10
52.31471696460102
 20
181.4999198868
 11
52.06638030113601
 21
181.524836664535
 72
     1
 10
52.06638030113601
 20
181.524836664535
 11
51.82794403674399
 21
181.598593644333
 72
     1
 10
51.82794403674399
 20
181.598593644333
 11
51.60891387288604
 21
181.718250368199
 72
     1
 10
51.60891387288604
 20
181.718250368199
 11
51.41802185100602
 21
181.879036500152
 72
     1
 10
51.41802185100602
 20
181.879036500152
 11
51.26287823362003
 21
182.074542004501
 72
     1
 10
51.26287823362003
 20
182.074542004501
 11
51.14966810717101
 21
182.29697269374
 72
     1
 10
51.14966810717101
 20
182.29697269374
 11
51.08290480214498
 21
182.537460958211
 72
     1
 10
51.08290480214498
 20
182.537460958211
 11
51.065249960828
 21
182.786419289713
 72
     1
 10
51.065249960828
 20
182.786419289713
 11
51.09740742603202
 21
183.033922505203
 72
     1
 10
51.09740742603202
 20
183.033922505203
 11
51.178095181098
 21
183.27010343252
 72
     1
 10
51.178095181098
 20
183.27010343252
 11
51.304096459856
 21
183.485546283406
 72
     1
 10
51.304096459856
 20
183.485546283406
 11
51.47038798894101
 21
183.671662031263
 72
     1
 10
51.47038798894101
 20
183.671662031263
 11
51.67034024985298
 21
183.821030828548
 72
     1
 10
51.67034024985298
 20
183.821030828548
 11
51.895981776935
 21
183.927697812672
 72
     1
 10
51.895981776935
 20
183.927697812672
 11
52.13831695455502
 21
183.987410507587
 72
     1
 10
52.13831695455502
 20
183.987410507587
 11
52.31471696460102
 21
183.9999198868
 72
     1
 10
52.31471696460102
 20
183.9999198868
 11
52.41405163002798
 21
184.009886597916
 72
     1
 10
52.41405163002798
 20
184.009886597916
 11
52.50942613578502
 21
184.039389389835
 72
     1
 10
52.50942613578502
 20
184.039389389835
 11
52.59703820132802
 21
184.087252079381
 72
     1
 10
52.59703820132802
 20
184.087252079381
 11
52.67339501008001
 21
184.151566532163
 72
     1
 10
52.67339501008001
 20
184.151566532163
 11
52.735452457034
 21
184.229768733902
 72
     1
 10
52.735452457034
 20
184.229768733902
 11
52.78073650761399
 21
184.318741009598
 72
     1
 10
52.78073650761399
 20
184.318741009598
 11
52.807441829624
 21
184.414936315386
 72
     1
 10
52.807441829624
 20
184.414936315386
 11
52.81471696460102
 21
184.4999198868
 72
     1
 10
52.81471696460102
 20
184.4999198868
 11
52.81471696460102
 21
185.4999198868
 72
     1
 10
52.81471696460102
 20
185.4999198868
 11
52.80475025355099
 21
185.599254552234
 72
     1
 10
52.80475025355099
 20
185.599254552234
 11
52.77524746163203
 21
185.694629057991
 72
     1
 10
52.77524746163203
 20
185.694629057991
 11
52.72738477208503
 21
185.782241123534
 72
     1
 10
52.72738477208503
 20
185.782241123534
 11
52.66307031930398
 21
185.858597932286
 72
     1
 10
52.66307031930398
 20
185.858597932286
 11
52.58486811756399
 21
185.92065537924
 72
     1
 10
52.58486811756399
 20
185.92065537924
 11
52.49589584186901
 21
185.96593942982
 72
     1
 10
52.49589584186901
 20
185.96593942982
 11
52.39970053607999
 21
185.992644751831
 72
     1
 10
52.39970053607999
 20
185.992644751831
 11
52.31471696460102
 21
185.9999198868
 72
     1
 10
52.31471696460102
 20
185.9999198868
 11
52.06638030113601
 21
186.024836664535
 72
     1
 10
52.06638030113601
 20
186.024836664535
 11
51.82794403674399
 21
186.098593644333
 72
     1
 10
51.82794403674399
 20
186.098593644333
 11
51.60891387288604
 21
186.218250368199
 72
     1
 10
51.60891387288604
 20
186.218250368199
 11
51.41802185100602
 21
186.379036500152
 72
     1
 10
51.41802185100602
 20
186.379036500152
 11
51.26287823362003
 21
186.574542004501
 72
     1
 10
51.26287823362003
 20
186.574542004501
 11
51.14966810717101
 21
186.79697269374
 72
     1
 10
51.14966810717101
 20
186.79697269374
 11
51.08290480214498
 21
187.037460958211
 72
     1
 10
51.08290480214498
 20
187.037460958211
 11
51.065249960828
 21
187.286419289713
 72
     1
 10
51.065249960828
 20
187.286419289713
 11
51.09740742603202
 21
187.533922505203
 72
     1
 10
51.09740742603202
 20
187.533922505203
 11
51.178095181098
 21
187.77010343252
 72
     1
 10
51.178095181098
 20
187.77010343252
 11
51.304096459856
 21
187.985546283405
 72
     1
 10
51.304096459856
 20
187.985546283405
 11
51.47038798894101
 21
188.171662031263
 72
     1
 10
51.47038798894101
 20
188.171662031263
 11
51.67034024985298
 21
188.321030828547
 72
     1
 10
51.67034024985298
 20
188.321030828547
 11
51.895981776935
 21
188.427697812672
 72
     1
 10
51.895981776935
 20
188.427697812672
 11
52.13831695455502
 21
188.487410507587
 72
     1
 10
52.13831695455502
 20
188.487410507587
 11
52.31471696460102
 21
188.4999198868
 72
     1
 10
52.31471696460102
 20
188.4999198868
 11
52.41405163002798
 21
188.509886597916
 72
     1
 10
52.41405163002798
 20
188.509886597916
 11
52.50942613578502
 21
188.539389389835
 72
     1
 10
52.50942613578502
 20
188.539389389835
 11
52.59703820132802
 21
188.587252079381
 72
     1
 10
52.59703820132802
 20
188.587252079381
 11
52.67339501008001
 21
188.651566532163
 72
     1
 10
52.67339501008001
 20
188.651566532163
 11
52.735452457034
 21
188.729768733902
 72
     1
 10
52.735452457034
 20
188.729768733902
 11
52.78073650761399
 21
188.818741009598
 72
     1
 10
52.78073650761399
 20
188.818741009598
 11
52.807441829624
 21
188.914936315386
 72
     1
 10
52.807441829624
 20
188.914936315386
 11
52.81471696460102
 21
188.9999198868
 72
     1
 10
52.81471696460102
 20
188.9999198868
 11
52.81471696460102
 21
189.9999198868
 72
     1
 10
52.81471696460102
 20
189.9999198868
 11
52.80475025355099
 21
190.099254552234
 72
     1
 10
52.80475025355099
 20
190.099254552234
 11
52.77524746163203
 21
190.194629057991
 72
     1
 10
52.77524746163203
 20
190.194629057991
 11
52.72738477208503
 21
190.282241123534
 72
     1
 10
52.72738477208503
 20
190.282241123534
 11
52.66307031930398
 21
190.358597932286
 72
     1
 10
52.66307031930398
 20
190.358597932286
 11
52.58486811756399
 21
190.42065537924
 72
     1
 10
52.58486811756399
 20
190.42065537924
 11
52.49589584186901
 21
190.46593942982
 72
     1
 10
52.49589584186901
 20
190.46593942982
 11
52.39970053607999
 21
190.492644751831
 72
     1
 10
52.39970053607999
 20
190.492644751831
 11
52.31471696460102
 21
190.4999198868
 72
     1
 10
52.31471696460102
 20
190.4999198868
 11
52.06638030113601
 21
190.524836664535
 72
     1
 10
52.06638030113601
 20
190.524836664535
 11
51.82794403674399
 21
190.598593644333
 72
     1
 10
51.82794403674399
 20
190.598593644333
 11
51.60891387288604
 21
190.718250368199
 72
     1
 10
51.60891387288604
 20
190.718250368199
 11
51.41802185100602
 21
190.879036500152
 72
     1
 10
51.41802185100602
 20
190.879036500152
 11
51.26287823362003
 21
191.074542004501
 72
     1
 10
51.26287823362003
 20
191.074542004501
 11
51.14966810717101
 21
191.29697269374
 72
     1
 10
51.14966810717101
 20
191.29697269374
 11
51.08290480214498
 21
191.537460958211
 72
     1
 10
51.08290480214498
 20
191.537460958211
 11
51.065249960828
 21
191.786419289713
 72
     1
 10
51.065249960828
 20
191.786419289713
 11
51.09740742603202
 21
192.033922505203
 72
     1
 10
51.09740742603202
 20
192.033922505203
 11
51.178095181098
 21
192.27010343252
 72
     1
 10
51.178095181098
 20
192.27010343252
 11
51.304096459856
 21
192.485546283405
 72
     1
 10
51.304096459856
 20
192.485546283405
 11
51.47038798894101
 21
192.671662031263
 72
     1
 10
51.47038798894101
 20
192.671662031263
 11
51.67034024985298
 21
192.821030828548
 72
     1
 10
51.67034024985298
 20
192.821030828548
 11
51.895981776935
 21
192.927697812672
 72
     1
 10
51.895981776935
 20
192.927697812672
 11
52.13831695455502
 21
192.987410507587
 72
     1
 10
52.13831695455502
 20
192.987410507587
 11
52.31471696460102
 21
192.9999198868
 72
     1
 10
52.31471696460102
 20
192.9999198868
 11
52.41405163002798
 21
193.009886597916
 72
     1
 10
52.41405163002798
 20
193.009886597916
 11
52.50942613578502
 21
193.039389389835
 72
     1
 10
52.50942613578502
 20
193.039389389835
 11
52.59703820132802
 21
193.087252079381
 72
     1
 10
52.59703820132802
 20
193.087252079381
 11
52.67339501008001
 21
193.151566532163
 72
     1
 10
52.67339501008001
 20
193.151566532163
 11
52.735452457034
 21
193.229768733902
 72
     1
 10
52.735452457034
 20
193.229768733902
 11
52.78073650761399
 21
193.318741009598
 72
     1
 10
52.78073650761399
 20
193.318741009598
 11
52.807441829624
 21
193.414936315386
 72
     1
 10
52.807441829624
 20
193.414936315386
 11
52.81471696460102
 21
193.4999198868
 72
     1
 10
52.81471696460102
 20
193.4999198868
 11
52.81471696460102
 21
194.4999198868
 72
     1
 10
52.81471696460102
 20
194.4999198868
 11
52.80475025355099
 21
194.599254552234
 72
     1
 10
52.80475025355099
 20
194.599254552234
 11
52.77524746163203
 21
194.694629057991
 72
     1
 10
52.77524746163203
 20
194.694629057991
 11
52.72738477208503
 21
194.782241123534
 72
     1
 10
52.72738477208503
 20
194.782241123534
 11
52.66307031930398
 21
194.858597932286
 72
     1
 10
52.66307031930398
 20
194.858597932286
 11
52.58486811756399
 21
194.92065537924
 72
     1
 10
52.58486811756399
 20
194.92065537924
 11
52.49589584186901
 21
194.96593942982
 72
     1
 10
52.49589584186901
 20
194.96593942982
 11
52.39970053607999
 21
194.992644751831
 72
     1
 10
52.39970053607999
 20
194.992644751831
 11
52.31471696460102
 21
194.9999198868
 72
     1
 10
52.31471696460102
 20
194.9999198868
 11
52.06638030113601
 21
195.024836664535
 72
     1
 10
52.06638030113601
 20
195.024836664535
 11
51.82794403674399
 21
195.098593644333
 72
     1
 10
51.82794403674399
 20
195.098593644333
 11
51.60891387288604
 21
195.218250368199
 72
     1
 10
51.60891387288604
 20
195.218250368199
 11
51.41802185100602
 21
195.379036500152
 72
     1
 10
51.41802185100602
 20
195.379036500152
 11
51.26287823362003
 21
195.574542004501
 72
     1
 10
51.26287823362003
 20
195.574542004501
 11
51.14966810717101
 21
195.79697269374
 72
     1
 10
51.14966810717101
 20
195.79697269374
 11
51.08290480214498
 21
196.037460958211
 72
     1
 10
51.08290480214498
 20
196.037460958211
 11
51.065249960828
 21
196.286419289713
 72
     1
 10
51.065249960828
 20
196.286419289713
 11
51.09740742603202
 21
196.533922505203
 72
     1
 10
51.09740742603202
 20
196.533922505203
 11
51.178095181098
 21
196.77010343252
 72
     1
 10
51.178095181098
 20
196.77010343252
 11
51.304096459856
 21
196.985546283405
 72
     1
 10
51.304096459856
 20
196.985546283405
 11
51.47038798894101
 21
197.171662031263
 72
     1
 10
51.47038798894101
 20
197.171662031263
 11
51.67034024985298
 21
197.321030828548
 72
     1
 10
51.67034024985298
 20
197.321030828548
 11
51.895981776935
 21
197.427697812672
 72
     1
 10
51.895981776935
 20
197.427697812672
 11
52.13831695455502
 21
197.487410507587
 72
     1
 10
52.13831695455502
 20
197.487410507587
 11
52.31471696460102
 21
197.4999198868
 72
     1
 10
52.31471696460102
 20
197.4999198868
 11
52.41405163002798
 21
197.509886597916
 72
     1
 10
52.41405163002798
 20
197.509886597916
 11
52.50942613578502
 21
197.539389389835
 72
     1
 10
52.50942613578502
 20
197.539389389835
 11
52.59703820132802
 21
197.587252079381
 72
     1
 10
52.59703820132802
 20
197.587252079381
 11
52.67339501008001
 21
197.651566532163
 72
     1
 10
52.67339501008001
 20
197.651566532163
 11
52.735452457034
 21
197.729768733902
 72
     1
 10
52.735452457034
 20
197.729768733902
 11
52.78073650761399
 21
197.818741009598
 72
     1
 10
52.78073650761399
 20
197.818741009598
 11
52.807441829624
 21
197.914936315386
 72
     1
 10
52.807441829624
 20
197.914936315386
 11
52.81471696460102
 21
197.9999198868
 72
     1
 10
52.81471696460102
 20
197.9999198868
 11
52.81471696460102
 21
198.9999198868
 72
     1
 10
52.81471696460102
 20
198.9999198868
 11
52.80475025355099
 21
199.099254552234
 72
     1
 10
52.80475025355099
 20
199.099254552234
 11
52.77524746163203
 21
199.194629057991
 72
     1
 10
52.77524746163203
 20
199.194629057991
 11
52.72738477208503
 21
199.282241123534
 72
     1
 10
52.72738477208503
 20
199.282241123534
 11
52.66307031930398
 21
199.358597932286
 72
     1
 10
52.66307031930398
 20
199.358597932286
 11
52.58486811756399
 21
199.42065537924
 72
     1
 10
52.58486811756399
 20
199.42065537924
 11
52.49589584186901
 21
199.46593942982
 72
     1
 10
52.49589584186901
 20
199.46593942982
 11
52.39970053607999
 21
199.492644751831
 72
     1
 10
52.39970053607999
 20
199.492644751831
 11
52.31471696460102
 21
199.4999198868
 97
        0
 75
     1
 76
     2
 52
0.0
 41
1.0
 77
     0
 78
     1
 53
44.99999999999998
 43
0.0
 44
0.0
 45
-4.490128060534577
 46
0.0000000000000018
 79
     0
 98
        1
 10
0.0
 20
0.0
  0
HATCH
  5
33F
330
44
100
AcDbEntity
  8
0
  6
Continuous
 62
     7
100
AcDbHatch
 10
0.0
 20
0.0
 30
0.0
210
0.0
220
0.0
230
1.0
  2
CUSTOM10
 70
     0
 71
     0
 91
        1
 92
        1
 93
       24
 72
     1
 10
48.81471696463001
 20
139.999919886836
 11
56.31471696463001
 21
139.999919886836
 72
     1
 10
56.31471696463001
 20
139.999919886836
 11
58.81471696463001
 21
142.499919886836
 72
     1
 10
58.81471696463001
 20
142.499919886836
 11
58.81471696463001
 21
159.999919886836
 72
     1
 10
58.81471696463001
 20
159.999919886836
 11
57.31471696460102
 21
159.9999198868
 72
     1
 10
57.31471696460102
 20
159.9999198868
 11
57.11604763383502
 21
159.979986464678
 72
     1
 10
57.11604763383502
 20
159.979986464678
 11
56.92529862232101
 21
159.920980880839
 72
     1
 10
56.92529862232101
 20
159.920980880839
 11
56.75007449123501
 21
159.825255501746
 72
     1
 10
56.75007449123501
 20
159.825255501746
 11
56.59736087373102
 21
159.696626596183
 72
     1
 10
56.59736087373102
 20
159.696626596183
 11
56.47324597982203
 21
159.540222192704
 72
     1
 10
56.47324597982203
 20
159.540222192704
 11
56.382677878663
 21
159.362277641313
 72
     1
 10
56.382677878663
 20
159.362277641313
 11
56.32926723464203
 21
159.169887029737
 72
     1
 10
56.32926723464203
 20
159.169887029737
 11
56.31471696460102
 21
158.9999198868
 72
     1
 10
56.31471696460102
 20
158.9999198868
 11
53.77358741440099
 21
158.9999198868
 72
     1
 10
53.77358741440099
 20
158.9999198868
 11
53.57491808357298
 21
158.979986464678
 72
     1
 10
53.57491808357298
 20
158.979986464678
 11
53.38416907205902
 21
158.920980880839
 72
     1
 10
53.38416907205902
 20
158.920980880839
 11
53.20894494097303
 21
158.825255501746
 72
     1
 10
53.20894494097303
 20
158.825255501746
 11
53.05623132346801
 21
158.696626596183
 72
     1
 10
53.05623132346801
 20
158.696626596183
 11
52.93211642955998
 21
158.540222192704
 72
     1
 10
52.93211642955998
 20
158.540222192704
 11
52.8415483284
 21
158.362277641313
 72
     1
 10
52.8415483284
 20
158.362277641313
 11
52.78813768437902
 21
158.169887029737
 72
     1
 10
52.78813768437902
 20
158.169887029737
 11
52.77358741440099
 21
157.9999198868
 72
     1
 10
52.77358741440099
 20
157.9999198868
 11
52.77358741436802
 21
142.499919886836
 72
     1
 10
52.77358741436802
 20
142.499919886836
 11
48.81471696463001
 21
142.499919886836
 72
     1
 10
48.81471696463001
 20
142.499919886836
 11
48.81471696463001
 21
139.999919886836
 97
        0
 75
     1
 76
     2
 52
0.0
 41
1.0
 77
     0
 78
     1
 53
44.99999999999998
 43
0.0
 44
0.0
 45
-4.490128060534577
 46
0.0000000000000018
 79
     0
 98
        1
 10
0.0
 20
0.0
  0
HATCH
  5
340
330
44
100
AcDbEntity
  8
0
  6
Continuous
 62
     7
100
AcDbHatch
 10
0.0
 20
0.0
 30
0.0
210
0.0
220
0.0
230
1.0
  2
CUSTOM11
 70
     0
 71
     0
 91
        1
 92
        1
 93
       24
 72
     1
 10
-95.68528303536999
 20
139.999919886836
 11
-88.18528303536999
 21
139.999919886836
 72
     1
 10
-88.18528303536999
 20
139.999919886836
 11
-88.18528303536999
 21
142.499919886836
 72
     1
 10
-88.18528303536999
 20
142.499919886836
 11
-92.14415348510698
 21
142.499919886836
 72
     1
 10
-92.14415348510698
 20
142.499919886836
 11
-92.144153485099
 21
157.9999198868
 72
     1
 10
-92.144153485099
 20
157.9999198868
 11
-92.16408690726598
 21
158.198589217631
 72
     1
 10
-92.16408690726598
 20
158.198589217631
 11
-92.22309249110398
 21
158.389338229145
 72
     1
 10
-92.22309249110398
 20
158.389338229145
 11
-92.31881787019799
 21
158.564562360231
 72
     1
 10
-92.31881787019799
 20
158.564562360231
 11
-92.44744677576
 21
158.717275977736
 72
     1
 10
-92.44744677576
 20
158.717275977736
 11
-92.603851179239
 21
158.841390871644
 72
     1
 10
-92.603851179239
 20
158.841390871644
 11
-92.78179573063099
 21
158.931958972804
 72
     1
 10
-92.78179573063099
 20
158.931958972804
 11
-92.97418634220699
 21
158.985369616825
 72
     1
 10
-92.97418634220699
 20
158.985369616825
 11
-93.144153485099
 21
158.9999198868
 72
     1
 10
-93.144153485099
 20
158.9999198868
 11
-95.68528303539898
 21
158.9999198868
 72
     1
 10
-95.68528303539898
 20
158.9999198868
 11
-95.70521645752899
 21
159.198589217631
 72
     1
 10
-95.70521645752899
 20
159.198589217631
 11
-95.76422204136699
 21
159.389338229145
 72
     1
 10
-95.76422204136699
 20
159.389338229145
 11
-95.85994742046
 21
159.564562360231
 72
     1
 10
-95.85994742046
 20
159.564562360231
 11
-95.98857632602298
 21
159.717275977736
 72
     1
 10
-95.98857632602298
 20
159.717275977736
 11
-96.14498072950198
 21
159.841390871644
 72
     1
 10
-96.14498072950198
 20
159.841390871644
 11
-96.322925280893
 21
159.931958972804
 72
     1
 10
-96.322925280893
 20
159.931958972804
 11
-96.51531589247
 21
159.985369616825
 72
     1
 10
-96.51531589247
 20
159.985369616825
 11
-96.68528303539898
 21
159.9999198868
 72
     1
 10
-96.68528303539898
 20
159.9999198868
 11
-98.18528303536999
 21
159.999919886836
 72
     1
 10
-98.18528303536999
 20
159.999919886836
 11
-98.18528303536999
 21
142.499919886836
 72
     1
 10
-98.18528303536999
 20
142.499919886836
 11
-95.68528303536999
 21
139.999919886836
 97
        0
 75
     1
 76
     2
 52
0.0
 41
1.0
 77
     0
 78
     1
 53
44.99999999999998
 43
0.0
 44
0.0
 45
-4.490128060534577
 46
0.0000000000000018
 79
     0
 98
        1
 10
0.0
 20
0.0
  0
HATCH
  5
341
330
44
100
AcDbEntity
  8
0
  6
Continuous
 62
     7
100
AcDbHatch
 10
0.0
 20
0.0
 30
0.0
210
0.0
220
0.0
230
1.0
  2
CUSTOM12
 70
     0
 71
     0
 91
        1
 92
        1
 93
       40
 72
     1
 10
47.81471696463001
 20
227.499919886836
 11
49.31471696463001
 21
227.499919886836
 72
     1
 10
49.31471696463001
 20
227.499919886836
 11
49.31471696460102
 21
229.9999198868
 72
     1
 10
49.31471696460102
 20
229.9999198868
 11
49.26488340923299
 21
230.496593213824
 72
     1
 10
49.26488340923299
 20
230.496593213824
 11
49.11736944963701
 21
230.973465742608
 72
     1
 10
49.11736944963701
 20
230.973465742608
 11
48.87805600190399
 21
231.411526070324
 72
     1
 10
48.87805600190399
 20
231.411526070324
 11
48.55648373799801
 21
231.793310114085
 72
     1
 10
48.55648373799801
 20
231.793310114085
 11
48.16547272930001
 21
232.103597348856
 72
     1
 10
48.16547272930001
 20
232.103597348856
 11
47.72061135082203
 21
232.330017601754
 72
     1
 10
47.72061135082203
 20
232.330017601754
 11
47.239634821881
 21
232.463544211807
 72
     1
 10
47.239634821881
 20
232.463544211807
 11
46.81471696460102
 21
232.4999198868
 72
     1
 10
46.81471696460102
 20
232.4999198868
 11
42.56471696460102
 21
232.4999198868
 72
     1
 10
42.56471696460102
 20
232.4999198868
 11
42.06804363764201
 21
232.450086331439
 72
     1
 10
42.06804363764201
 20
232.450086331439
 11
41.59117110885802
 21
232.302572371844
 72
     1
 10
41.59117110885802
 20
232.302572371844
 11
41.15311078114303
 21
232.063258924111
 72
     1
 10
41.15311078114303
 20
232.063258924111
 11
40.771326737381
 21
231.741686660204
 72
     1
 10
40.771326737381
 20
231.741686660204
 11
40.46103950260999
 21
231.350675651507
 72
     1
 10
40.46103950260999
 20
231.350675651507
 11
40.23461924971201
 21
230.905814273028
 72
     1
 10
40.23461924971201
 20
230.905814273028
 11
40.10109263965899
 21
230.424837744087
 72
     1
 10
40.10109263965899
 20
230.424837744087
 11
40.06471696460102
 21
229.9999198868
 72
     1
 10
40.06471696460102
 20
229.9999198868
 11
40.06471696463001
 21
228.499919886836
 72
     1
 10
40.06471696463001
 20
228.499919886836
 11
41.56471696463001
 21
228.499919886836
 72
     1
 10
41.56471696463001
 20
228.499919886836
 11
41.56471696460102
 21
229.9999198868
 72
     1
 10
41.56471696460102
 20
229.9999198868
 11
41.58465038678901
 21
230.198589217631
 72
     1
 10
41.58465038678901
 20
230.198589217631
 11
41.64365597062698
 21
230.389338229145
 72
     1
 10
41.64365597062698
 20
230.389338229145
 11
41.73938134972002
 21
230.564562360231
 72
     1
 10
41.73938134972002
 20
230.564562360231
 11
41.86801025528303
 21
230.717275977736
 72
     1
 10
41.86801025528303
 20
230.717275977736
 11
42.024414658762
 21
230.841390871644
 72
     1
 10
42.024414658762
 20
230.841390871644
 11
42.20235921015302
 21
230.931958972804
 72
     1
 10
42.20235921015302
 20
230.931958972804
 11
42.39474982172999
 21
230.985369616825
 72
     1
 10
42.39474982172999
 20
230.985369616825
 11
42.56471696460102
 21
230.9999198868
 72
     1
 10
42.56471696460102
 20
230.9999198868
 11
46.81471696460102
 21
230.9999198868
 72
     1
 10
46.81471696460102
 20
230.9999198868
 11
47.01338629542499
 21
230.979986464678
 72
     1
 10
47.01338629542499
 20
230.979986464678
 11
47.20413530693901
 21
230.920980880839
 72
     1
 10
47.20413530693901
 20
230.920980880839
 11
47.37935943802501
 21
230.825255501746
 72
     1
 10
47.37935943802501
 20
230.825255501746
 11
47.53207305553002
 21
230.696626596183
 72
     1
 10
47.53207305553002
 20
230.696626596183
 11
47.65618794943799
 21
230.540222192704
 72
     1
 10
47.65618794943799
 20
230.540222192704
 11
47.74675605059701
 21
230.362277641313
 72
     1
 10
47.74675605059701
 20
230.362277641313
 11
47.80016669461901
 21
230.169887029737
 72
     1
 10
47.80016669461901
 20
230.169887029737
 11
47.81471696460102
 21
229.9999198868
 72
     1
 10
47.81471696460102
 20
229.9999198868
 11
47.81471696463001
 21
227.499919886836
 97
        0
 75
     1
 76
     2
 52
0.0
 41
1.0
 77
     0
 78
     1
 53
44.99999999999998
 43
0.0
 44
0.0
 45
-4.490128060534577
 46
0.0000000000000018
 79
     0
 98
        1
 10
0.0
 20
0.0
  0
HATCH
  5
342
330
44
100
AcDbEntity
  8
0
  6
Continuous
 62
     7
100
AcDbHatch
 10
0.0
 20
0.0
 30
0.0
210
0.0
220
0.0
230
1.0
  2
CUSTOM13
 70
     0
 71
     0
 91
        1
 92
        1
 93
       40
 72
     1
 10
-55.93528303539898
 20
229.9999198868
 11
-55.93528303536999
 21
228.499919886836
 72
     1
 10
-55.93528303536999
 20
228.499919886836
 11
-54.43528303536999
 21
228.499919886836
 72
     1
 10
-54.43528303536999
 20
228.499919886836
 11
-54.43528303539898
 21
229.9999198868
 72
     1
 10
-54.43528303539898
 20
229.9999198868
 11
-54.41534961321099
 21
230.198589217631
 72
     1
 10
-54.41534961321099
 20
230.198589217631
 11
-54.35634402937299
 21
230.389338229145
 72
     1
 10
-54.35634402937299
 20
230.389338229145
 11
-54.26061865027998
 21
230.564562360231
 72
     1
 10
-54.26061865027998
 20
230.564562360231
 11
-54.131989744717
 21
230.717275977736
 72
     1
 10
-54.131989744717
 20
230.717275977736
 11
-53.975585341238
 21
230.841390871644
 72
     1
 10
-53.975585341238
 20
230.841390871644
 11
-53.79764078984698
 21
230.931958972804
 72
     1
 10
-53.79764078984698
 20
230.931958972804
 11
-53.60525017826998
 21
230.985369616825
 72
     1
 10
-53.60525017826998
 20
230.985369616825
 11
-53.43528303539898
 21
230.9999198868
 72
     1
 10
-53.43528303539898
 20
230.9999198868
 11
-49.93528303539898
 21
230.9999198868
 72
     1
 10
-49.93528303539898
 20
230.9999198868
 11
-49.73661370457498
 21
230.979986464678
 72
     1
 10
-49.73661370457498
 20
230.979986464678
 11
-49.54586469306099
 21
230.920980880839
 72
     1
 10
-49.54586469306099
 20
230.920980880839
 11
-49.37064056197499
 21
230.825255501746
 72
     1
 10
-49.37064056197499
 20
230.825255501746
 11
-49.21792694446998
 21
230.696626596183
 72
     1
 10
-49.21792694446998
 20
230.696626596183
 11
-49.09381205056198
 21
230.540222192704
 72
     1
 10
-49.09381205056198
 20
230.540222192704
 11
-49.00324394940299
 21
230.362277641313
 72
     1
 10
-49.00324394940299
 20
230.362277641313
 11
-48.94983330538099
 21
230.169887029737
 72
     1
 10
-48.94983330538099
 20
230.169887029737
 11
-48.93528303539898
 21
229.9999198868
 72
     1
 10
-48.93528303539898
 20
229.9999198868
 11
-48.93528303536999
 21
228.499919886836
 72
     1
 10
-48.93528303536999
 20
228.499919886836
 11
-47.43528303536999
 21
228.499919886836
 72
     1
 10
-47.43528303536999
 20
228.499919886836
 11
-47.43528303539898
 21
229.9999198868
 72
     1
 10
-47.43528303539898
 20
229.9999198868
 11
-47.48511659076698
 21
230.496593213824
 72
     1
 10
-47.48511659076698
 20
230.496593213824
 11
-47.63263055036299
 21
230.973465742608
 72
     1
 10
-47.63263055036299
 20
230.973465742608
 11
-47.87194399809599
 21
231.411526070324
 72
     1
 10
-47.87194399809599
 20
231.411526070324
 11
-48.19351626200199
 21
231.793310114085
 72
     1
 10
-48.19351626200199
 20
231.793310114085
 11
-48.58452727069999
 21
232.103597348856
 72
     1
 10
-48.58452727069999
 20
232.103597348856
 11
-49.029388649178
 21
232.330017601754
 72
     1
 10
-49.029388649178
 20
232.330017601754
 11
-49.510365178119
 21
232.463544211807
 72
     1
 10
-49.510365178119
 20
232.463544211807
 11
-49.93528303539898
 21
232.4999198868
 72
     1
 10
-49.93528303539898
 20
232.4999198868
 11
-53.43528303539898
 21
232.4999198868
 72
     1
 10
-53.43528303539898
 20
232.4999198868
 11
-53.93195636235799
 21
232.450086331439
 72
     1
 10
-53.93195636235799
 20
232.450086331439
 11
-54.40882889114198
 21
232.302572371844
 72
     1
 10
-54.40882889114198
 20
232.302572371844
 11
-54.846889218857
 21
232.063258924111
 72
     1
 10
-54.846889218857
 20
232.063258924111
 11
-55.228673262619
 21
231.741686660204
 72
     1
 10
-55.228673262619
 20
231.741686660204
 11
-55.53896049738998
 21
231.350675651507
 72
     1
 10
-55.53896049738998
 20
231.350675651507
 11
-55.76538075028799
 21
230.905814273028
 72
     1
 10
-55.76538075028799
 20
230.905814273028
 11
-55.89890736034099
 21
230.424837744087
 72
     1
 10
-55.89890736034099
 20
230.424837744087
 11
-55.93528303539898
 21
229.9999198868
 97
        0
 75
     1
 76
     2
 52
0.0
 41
1.0
 77
     0
 78
     1
 53
44.99999999999998
 43
0.0
 44
0.0
 45
-4.490128060534577
 46
0.0000000000000018
 79
     0
 98
        1
 10
0.0
 20
0.0
  0
HATCH
  5
343
330
44
100
AcDbEntity
  8
0
  6
Continuous
 62
     7
100
AcDbHatch
 10
0.0
 20
0.0
 30
0.0
210
0.0
220
0.0
230
1.0
  2
CUSTOM14
 70
     0
 71
     0
 91
        1
 92
        1
 93
       40
 72
     1
 10
-71.93528303539898
 20
229.9999198868
 11
-71.93528303536999
 21
228.499919886836
 72
     1
 10
-71.93528303536999
 20
228.499919886836
 11
-70.43528303536999
 21
228.499919886836
 72
     1
 10
-70.43528303536999
 20
228.499919886836
 11
-70.43528303539898
 21
229.9999198868
 72
     1
 10
-70.43528303539898
 20
229.9999198868
 11
-70.41534961321099
 21
230.198589217631
 72
     1
 10
-70.41534961321099
 20
230.198589217631
 11
-70.35634402937299
 21
230.389338229145
 72
     1
 10
-70.35634402937299
 20
230.389338229145
 11
-70.26061865027998
 21
230.564562360231
 72
     1
 10
-70.26061865027998
 20
230.564562360231
 11
-70.131989744717
 21
230.717275977736
 72
     1
 10
-70.131989744717
 20
230.717275977736
 11
-69.975585341238
 21
230.841390871644
 72
     1
 10
-69.975585341238
 20
230.841390871644
 11
-69.79764078984698
 21
230.931958972804
 72
     1
 10
-69.79764078984698
 20
230.931958972804
 11
-69.60525017826998
 21
230.985369616825
 72
     1
 10
-69.60525017826998
 20
230.985369616825
 11
-69.43528303539898
 21
230.9999198868
 72
     1
 10
-69.43528303539898
 20
230.9999198868
 11
-65.93528303539898
 21
230.9999198868
 72
     1
 10
-65.93528303539898
 20
230.9999198868
 11
-65.73661370457498
 21
230.979986464678
 72
     1
 10
-65.73661370457498
 20
230.979986464678
 11
-65.54586469306099
 21
230.920980880839
 72
     1
 10
-65.54586469306099
 20
230.920980880839
 11
-65.370640561975
 21
230.825255501746
 72
     1
 10
-65.370640561975
 20
230.825255501746
 11
-65.21792694446998
 21
230.696626596183
 72
     1
 10
-65.21792694446998
 20
230.696626596183
 11
-65.09381205056198
 21
230.540222192704
 72
     1
 10
-65.09381205056198
 20
230.540222192704
 11
-65.00324394940299
 21
230.362277641313
 72
     1
 10
-65.00324394940299
 20
230.362277641313
 11
-64.94983330538099
 21
230.169887029737
 72
     1
 10
-64.94983330538099
 20
230.169887029737
 11
-64.93528303539898
 21
229.9999198868
 72
     1
 10
-64.93528303539898
 20
229.9999198868
 11
-64.93528303536999
 21
228.499919886836
 72
     1
 10
-64.93528303536999
 20
228.499919886836
 11
-63.43528303536999
 21
228.499919886836
 72
     1
 10
-63.43528303536999
 20
228.499919886836
 11
-63.43528303539898
 21
229.9999198868
 72
     1
 10
-63.43528303539898
 20
229.9999198868
 11
-63.48511659076698
 21
230.496593213824
 72
     1
 10
-63.48511659076698
 20
230.496593213824
 11
-63.63263055036299
 21
230.973465742608
 72
     1
 10
-63.63263055036299
 20
230.973465742608
 11
-63.87194399809599
 21
231.411526070324
 72
     1
 10
-63.87194399809599
 20
231.411526070324
 11
-64.19351626200199
 21
231.793310114085
 72
     1
 10
-64.19351626200199
 20
231.793310114085
 11
-64.5845272707
 21
232.103597348856
 72
     1
 10
-64.5845272707
 20
232.103597348856
 11
-65.029388649178
 21
232.330017601754
 72
     1
 10
-65.029388649178
 20
232.330017601754
 11
-65.510365178119
 21
232.463544211807
 72
     1
 10
-65.510365178119
 20
232.463544211807
 11
-65.93528303539898
 21
232.4999198868
 72
     1
 10
-65.93528303539898
 20
232.4999198868
 11
-69.43528303539898
 21
232.4999198868
 72
     1
 10
-69.43528303539898
 20
232.4999198868
 11
-69.931956362358
 21
232.450086331439
 72
     1
 10
-69.931956362358
 20
232.450086331439
 11
-70.40882889114198
 21
232.302572371844
 72
     1
 10
-70.40882889114198
 20
232.302572371844
 11
-70.846889218857
 21
232.063258924111
 72
     1
 10
-70.846889218857
 20
232.063258924111
 11
-71.228673262619
 21
231.741686660204
 72
     1
 10
-71.228673262619
 20
231.741686660204
 11
-71.53896049738998
 21
231.350675651507
 72
     1
 10
-71.53896049738998
 20
231.350675651507
 11
-71.76538075028799
 21
230.905814273028
 72
     1
 10
-71.76538075028799
 20
230.905814273028
 11
-71.89890736034098
 21
230.424837744087
 72
     1
 10
-71.89890736034098
 20
230.424837744087
 11
-71.93528303539898
 21
229.9999198868
 97
        0
 75
     1
 76
     2
 52
0.0
 41
1.0
 77
     0
 78
     1
 53
44.99999999999998
 43
0.0
 44
0.0
 45
-4.490128060534577
 46
0.0000000000000018
 79
     0
 98
        1
 10
0.0
 20
0.0
  0
HATCH
  5
344
330
44
100
AcDbEntity
  8
0
  6
Continuous
 62
     7
100
AcDbHatch
 10
0.0
 20
0.0
 30
0.0
210
0.0
220
0.0
230
1.0
  2
CUSTOM15
 70
     0
 71
     0
 91
        1
 92
        1
 93
       40
 72
     1
 10
-86.18528303539898
 20
232.4999198868
 11
-86.681956362358
 21
232.450086331439
 72
     1
 10
-86.681956362358
 20
232.450086331439
 11
-87.15882889114198
 21
232.302572371844
 72
     1
 10
-87.15882889114198
 20
232.302572371844
 11
-87.596889218857
 21
232.063258924111
 72
     1
 10
-87.596889218857
 20
232.063258924111
 11
-87.978673262619
 21
231.741686660204
 72
     1
 10
-87.978673262619
 20
231.741686660204
 11
-88.28896049738998
 21
231.350675651507
 72
     1
 10
-88.28896049738998
 20
231.350675651507
 11
-88.51538075028799
 21
230.905814273028
 72
     1
 10
-88.51538075028799
 20
230.905814273028
 11
-88.64890736034098
 21
230.424837744087
 72
     1
 10
-88.64890736034098
 20
230.424837744087
 11
-88.68528303539898
 21
229.9999198868
 72
     1
 10
-88.68528303539898
 20
229.9999198868
 11
-88.68528303536999
 21
227.499919886836
 72
     1
 10
-88.68528303536999
 20
227.499919886836
 11
-87.18528303536999
 21
227.499919886836
 72
     1
 10
-87.18528303536999
 20
227.499919886836
 11
-87.18528303539898
 21
229.9999198868
 72
     1
 10
-87.18528303539898
 20
229.9999198868
 11
-87.16534961321099
 21
230.198589217631
 72
     1
 10
-87.16534961321099
 20
230.198589217631
 11
-87.10634402937299
 21
230.389338229145
 72
     1
 10
-87.10634402937299
 20
230.389338229145
 11
-87.01061865027998
 21
230.564562360231
 72
     1
 10
-87.01061865027998
 20
230.564562360231
 11
-86.881989744717
 21
230.717275977736
 72
     1
 10
-86.881989744717
 20
230.717275977736
 11
-86.725585341238
 21
230.841390871644
 72
     1
 10
-86.725585341238
 20
230.841390871644
 11
-86.54764078984698
 21
230.931958972804
 72
     1
 10
-86.54764078984698
 20
230.931958972804
 11
-86.35525017826998
 21
230.985369616825
 72
     1
 10
-86.35525017826998
 20
230.985369616825
 11
-86.18528303539898
 21
230.9999198868
 72
     1
 10
-86.18528303539898
 20
230.9999198868
 11
-81.93528303539898
 21
230.9999198868
 72
     1
 10
-81.93528303539898
 20
230.9999198868
 11
-81.73661370457498
 21
230.979986464678
 72
     1
 10
-81.73661370457498
 20
230.979986464678
 11
-81.54586469306099
 21
230.920980880839
 72
     1
 10
-81.54586469306099
 20
230.920980880839
 11
-81.370640561975
 21
230.825255501746
 72
     1
 10
-81.370640561975
 20
230.825255501746
 11
-81.21792694446998
 21
230.696626596183
 72
     1
 10
-81.21792694446998
 20
230.696626596183
 11
-81.09381205056198
 21
230.540222192704
 72
     1
 10
-81.09381205056198
 20
230.540222192704
 11
-81.00324394940299
 21
230.362277641313
 72
     1
 10
-81.00324394940299
 20
230.362277641313
 11
-80.94983330538099
 21
230.169887029737
 72
     1
 10
-80.94983330538099
 20
230.169887029737
 11
-80.93528303539898
 21
229.9999198868
 72
     1
 10
-80.93528303539898
 20
229.9999198868
 11
-80.93528303536999
 21
228.499919886836
 72
     1
 10
-80.93528303536999
 20
228.499919886836
 11
-79.43528303536999
 21
228.499919886836
 72
     1
 10
-79.43528303536999
 20
228.499919886836
 11
-79.43528303539898
 21
229.9999198868
 72
     1
 10
-79.43528303539898
 20
229.9999198868
 11
-79.48511659076698
 21
230.496593213824
 72
     1
 10
-79.48511659076698
 20
230.496593213824
 11
-79.63263055036299
 21
230.973465742608
 72
     1
 10
-79.63263055036299
 20
230.973465742608
 11
-79.87194399809599
 21
231.411526070324
 72
     1
 10
-79.87194399809599
 20
231.411526070324
 11
-80.19351626200199
 21
231.793310114085
 72
     1
 10
-80.19351626200199
 20
231.793310114085
 11
-80.584527270699
 21
232.103597348856
 72
     1
 10
-80.584527270699
 20
232.103597348856
 11
-81.029388649178
 21
232.330017601754
 72
     1
 10
-81.029388649178
 20
232.330017601754
 11
-81.510365178119
 21
232.463544211807
 72
     1
 10
-81.510365178119
 20
232.463544211807
 11
-81.93528303539898
 21
232.4999198868
 72
     1
 10
-81.93528303539898
 20
232.4999198868
 11
-86.18528303539898
 21
232.4999198868
 97
        0
 75
     1
 76
     2
 52
0.0
 41
1.0
 77
     0
 78
     1
 53
44.99999999999998
 43
0.0
 44
0.0
 45
-4.490128060534577
 46
0.0000000000000018
 79
     0
 98
        1
 10
0.0
 20
0.0
  0
HATCH
  5
345
330
44
100
AcDbEntity
  8
0
  6
Continuous
 62
     7
100
AcDbHatch
 10
0.0
 20
0.0
 30
0.0
210
0.0
220
0.0
230
1.0
  2
CUSTOM16
 70
     0
 71
     0
 91
        1
 92
        1
 93
       40
 72
     1
 10
15.06471696460102
 20
229.9999198868
 11
15.06471696463001
 21
228.499919886836
 72
     1
 10
15.06471696463001
 20
228.499919886836
 11
16.56471696463001
 21
228.499919886836
 72
     1
 10
16.56471696463001
 20
228.499919886836
 11
16.56471696460102
 21
229.9999198868
 72
     1
 10
16.56471696460102
 20
229.9999198868
 11
16.51488340923302
 21
230.496593213824
 72
     1
 10
16.51488340923302
 20
230.496593213824
 11
16.36736944963701
 21
230.973465742608
 72
     1
 10
16.36736944963701
 20
230.973465742608
 11
16.12805600190401
 21
231.411526070324
 72
     1
 10
16.12805600190401
 20
231.411526070324
 11
15.80648373799801
 21
231.793310114085
 72
     1
 10
15.80648373799801
 20
231.793310114085
 11
15.41547272930001
 21
232.103597348856
 72
     1
 10
15.41547272930001
 20
232.103597348856
 11
14.970611350822
 21
232.330017601754
 72
     1
 10
14.970611350822
 20
232.330017601754
 11
14.489634821881
 21
232.463544211807
 72
     1
 10
14.489634821881
 20
232.463544211807
 11
14.06471696460102
 21
232.4999198868
 72
     1
 10
14.06471696460102
 20
232.4999198868
 11
10.56471696460102
 21
232.4999198868
 72
     1
 10
10.56471696460102
 20
232.4999198868
 11
10.06804363764201
 21
232.450086331439
 72
     1
 10
10.06804363764201
 20
232.450086331439
 11
9.59117110885802
 21
232.302572371844
 72
     1
 10
9.59117110885802
 20
232.302572371844
 11
9.153110781142999
 21
232.063258924111
 72
     1
 10
9.153110781142999
 20
232.063258924111
 11
8.771326737381003
 21
231.741686660204
 72
     1
 10
8.771326737381003
 20
231.741686660204
 11
8.46103950261002
 21
231.350675651507
 72
     1
 10
8.46103950261002
 20
231.350675651507
 11
8.234619249712011
 21
230.905814273028
 72
     1
 10
8.234619249712011
 20
230.905814273028
 11
8.101092639659015
 21
230.424837744087
 72
     1
 10
8.101092639659015
 20
230.424837744087
 11
8.064716964601018
 21
229.9999198868
 72
     1
 10
8.064716964601018
 20
229.9999198868
 11
8.064716964630009
 21
228.499919886836
 72
     1
 10
8.064716964630009
 20
228.499919886836
 11
9.564716964630009
 21
228.499919886836
 72
     1
 10
9.564716964630009
 20
228.499919886836
 11
9.564716964601018
 21
229.9999198868
 72
     1
 10
9.564716964601018
 20
229.9999198868
 11
9.584650386789008
 21
230.198589217631
 72
     1
 10
9.584650386789008
 20
230.198589217631
 11
9.643655970627009
 21
230.389338229145
 72
     1
 10
9.643655970627009
 20
230.389338229145
 11
9.73938134972002
 21
230.564562360231
 72
     1
 10
9.73938134972002
 20
230.564562360231
 11
9.868010255282996
 21
230.717275977736
 72
     1
 10
9.868010255282996
 20
230.717275977736
 11
10.024414658762
 21
230.841390871644
 72
     1
 10
10.024414658762
 20
230.841390871644
 11
10.20235921015302
 21
230.931958972804
 72
     1
 10
10.20235921015302
 20
230.931958972804
 11
10.39474982173002
 21
230.985369616825
 72
     1
 10
10.39474982173002
 20
230.985369616825
 11
10.56471696460102
 21
230.9999198868
 72
     1
 10
10.56471696460102
 20
230.9999198868
 11
14.06471696460102
 21
230.9999198868
 72
     1
 10
14.06471696460102
 20
230.9999198868
 11
14.26338629542502
 21
230.979986464678
 72
     1
 10
14.26338629542502
 20
230.979986464678
 11
14.45413530693901
 21
230.920980880839
 72
     1
 10
14.45413530693901
 20
230.920980880839
 11
14.62935943802501
 21
230.825255501746
 72
     1
 10
14.62935943802501
 20
230.825255501746
 11
14.78207305553002
 21
230.696626596184
 72
     1
 10
14.78207305553002
 20
230.696626596184
 11
14.90618794943802
 21
230.540222192705
 72
     1
 10
14.90618794943802
 20
230.540222192705
 11
14.99675605059701
 21
230.362277641313
 72
     1
 10
14.99675605059701
 20
230.362277641313
 11
15.05016669461901
 21
230.169887029737
 72
     1
 10
15.05016669461901
 20
230.169887029737
 11
15.06471696460102
 21
229.9999198868
 97
        0
 75
     1
 76
     2
 52
0.0
 41
1.0
 77
     0
 78
     1
 53
44.99999999999998
 43
0.0
 44
0.0
 45
-4.490128060534577
 46
0.0000000000000018
 79
     0
 98
        1
 10
0.0
 20
0.0
  0
HATCH
  5
346
330
44
100
AcDbEntity
  8
0
  6
Continuous
 62
     7
100
AcDbHatch
 10
0.0
 20
0.0
 30
0.0
210
0.0
220
0.0
230
1.0
  2
CUSTOM17
 70
     0
 71
     0
 91
        1
 92
        1
 93
       40
 72
     1
 10
31.06471696460102
 20
229.9999198868
 11
31.06471696463001
 21
228.499919886836
 72
     1
 10
31.06471696463001
 20
228.499919886836
 11
32.56471696463001
 21
228.499919886836
 72
     1
 10
32.56471696463001
 20
228.499919886836
 11
32.56471696460102
 21
229.9999198868
 72
     1
 10
32.56471696460102
 20
229.9999198868
 11
32.51488340923299
 21
230.496593213824
 72
     1
 10
32.51488340923299
 20
230.496593213824
 11
32.36736944963701
 21
230.973465742608
 72
     1
 10
32.36736944963701
 20
230.973465742608
 11
32.12805600190399
 21
231.411526070324
 72
     1
 10
32.12805600190399
 20
231.411526070324
 11
31.80648373799801
 21
231.793310114085
 72
     1
 10
31.80648373799801
 20
231.793310114085
 11
31.41547272930103
 21
232.103597348856
 72
     1
 10
31.41547272930103
 20
232.103597348856
 11
30.97061135082203
 21
232.330017601754
 72
     1
 10
30.97061135082203
 20
232.330017601754
 11
30.489634821881
 21
232.463544211807
 72
     1
 10
30.489634821881
 20
232.463544211807
 11
30.06471696460102
 21
232.4999198868
 72
     1
 10
30.06471696460102
 20
232.4999198868
 11
26.56471696460102
 21
232.4999198868
 72
     1
 10
26.56471696460102
 20
232.4999198868
 11
26.06804363764201
 21
232.450086331439
 72
     1
 10
26.06804363764201
 20
232.450086331439
 11
25.59117110885802
 21
232.302572371844
 72
     1
 10
25.59117110885802
 20
232.302572371844
 11
25.15311078114303
 21
232.063258924111
 72
     1
 10
25.15311078114303
 20
232.063258924111
 11
24.771326737381
 21
231.741686660204
 72
     1
 10
24.771326737381
 20
231.741686660204
 11
24.46103950260999
 21
231.350675651507
 72
     1
 10
24.46103950260999
 20
231.350675651507
 11
24.23461924971201
 21
230.905814273028
 72
     1
 10
24.23461924971201
 20
230.905814273028
 11
24.10109263965899
 21
230.424837744087
 72
     1
 10
24.10109263965899
 20
230.424837744087
 11
24.06471696460102
 21
229.9999198868
 72
     1
 10
24.06471696460102
 20
229.9999198868
 11
24.06471696463001
 21
228.499919886836
 72
     1
 10
24.06471696463001
 20
228.499919886836
 11
25.56471696463001
 21
228.499919886836
 72
     1
 10
25.56471696463001
 20
228.499919886836
 11
25.56471696460102
 21
229.9999198868
 72
     1
 10
25.56471696460102
 20
229.9999198868
 11
25.58465038678901
 21
230.198589217631
 72
     1
 10
25.58465038678901
 20
230.198589217631
 11
25.64365597062698
 21
230.389338229145
 72
     1
 10
25.64365597062698
 20
230.389338229145
 11
25.73938134972002
 21
230.564562360231
 72
     1
 10
25.73938134972002
 20
230.564562360231
 11
25.86801025528303
 21
230.717275977736
 72
     1
 10
25.86801025528303
 20
230.717275977736
 11
26.024414658762
 21
230.841390871644
 72
     1
 10
26.024414658762
 20
230.841390871644
 11
26.20235921015302
 21
230.931958972804
 72
     1
 10
26.20235921015302
 20
230.931958972804
 11
26.39474982172999
 21
230.985369616825
 72
     1
 10
26.39474982172999
 20
230.985369616825
 11
26.56471696460102
 21
230.9999198868
 72
     1
 10
26.56471696460102
 20
230.9999198868
 11
30.06471696460102
 21
230.9999198868
 72
     1
 10
30.06471696460102
 20
230.9999198868
 11
30.26338629542499
 21
230.979986464678
 72
     1
 10
30.26338629542499
 20
230.979986464678
 11
30.45413530693901
 21
230.920980880839
 72
     1
 10
30.45413530693901
 20
230.920980880839
 11
30.62935943802501
 21
230.825255501746
 72
     1
 10
30.62935943802501
 20
230.825255501746
 11
30.78207305553002
 21
230.696626596184
 72
     1
 10
30.78207305553002
 20
230.696626596184
 11
30.90618794943799
 21
230.540222192705
 72
     1
 10
30.90618794943799
 20
230.540222192705
 11
30.99675605059701
 21
230.362277641313
 72
     1
 10
30.99675605059701
 20
230.362277641313
 11
31.05016669461901
 21
230.169887029737
 72
     1
 10
31.05016669461901
 20
230.169887029737
 11
31.06471696460102
 21
229.9999198868
 97
        0
 75
     1
 76
     2
 52
0.0
 41
1.0
 77
     0
 78
     1
 53
44.99999999999998
 43
0.0
 44
0.0
 45
-4.490128060534577
 46
0.0000000000000018
 79
     0
 98
        1
 10
0.0
 20
0.0
  0
HATCH
  5
347
330
44
100
AcDbEntity
  8
0
  6
Continuous
 62
     7
100
AcDbHatch
 10
0.0
 20
0.0
 30
0.0
210
0.0
220
0.0
230
1.0
  2
CUSTOM18
 70
     0
 71
     0
 91
        1
 92
        1
 93
       48
 72
     1
 10
-1.935283035398982
 20
230.9999198868
 11
-1.736613704574978
 21
230.979986464678
 72
     1
 10
-1.736613704574978
 20
230.979986464678
 11
-1.545864693060992
 21
230.920980880839
 72
     1
 10
-1.545864693060992
 20
230.920980880839
 11
-1.370640561974994
 21
230.825255501746
 72
     1
 10
-1.370640561974994
 20
230.825255501746
 11
-1.21792694446998
 21
230.696626596184
 72
     1
 10
-1.21792694446998
 20
230.696626596184
 11
-1.093812050561979
 21
230.540222192705
 72
     1
 10
-1.093812050561979
 20
230.540222192705
 11
-1.003243949402986
 21
230.362277641313
 72
     1
 10
-1.003243949402986
 20
230.362277641313
 11
-0.9498333053809915
 21
230.169887029737
 72
     1
 10
-0.9498333053809915
 20
230.169887029737
 11
-0.9352830353989816
 21
229.9999198868
 72
     1
 10
-0.9352830353989816
 20
229.9999198868
 11
-0.9352830353699915
 21
228.499919886836
 72
     1
 10
-0.9352830353699915
 20
228.499919886836
 11
0.5647169646300085
 21
228.499919886836
 72
     1
 10
0.5647169646300085
 20
228.499919886836
 11
0.5647169646010184
 21
229.9999198868
 72
     1
 10
0.5647169646010184
 20
229.9999198868
 11
0.5148834092330219
 21
230.496593213824
 72
     1
 10
0.5148834092330219
 20
230.496593213824
 11
0.3673694496370104
 21
230.973465742608
 72
     1
 10
0.3673694496370104
 20
230.973465742608
 11
0.1280560019040138
 21
231.411526070324
 72
     1
 10
0.1280560019040138
 20
231.411526070324
 11
-0.1935162620019924
 21
231.793310114085
 72
     1
 10
-0.1935162620019924
 20
231.793310114085
 11
-0.5845272706999936
 21
232.103597348856
 72
     1
 10
-0.5845272706999936
 20
232.103597348856
 11
-1.029388649178003
 21
232.330017601754
 72
     1
 10
-1.029388649178003
 20
232.330017601754
 11
-1.510365178119002
 21
232.463544211807
 72
     1
 10
-1.510365178119002
 20
232.463544211807
 11
-1.935283035398982
 21
232.4999198868
 72
     1
 10
-1.935283035398982
 20
232.4999198868
 11
-14.08700787524799
 21
232.499919886836
 72
     1
 10
-14.08700787524799
 20
232.499919886836
 11
-14.08700787524799
 21
232.399919886836
 72
     1
 10
-14.08700787524799
 20
232.399919886836
 11
-17.70387854108
 21
232.399919886836
 72
     1
 10
-17.70387854108
 20
232.399919886836
 11
-17.70387854108
 21
232.499919886836
 72
     1
 10
-17.70387854108
 20
232.499919886836
 11
-19.82519819752
 21
232.499919886836
 72
     1
 10
-19.82519819752
 20
232.499919886836
 11
-19.82519819752
 21
232.399919886836
 72
     1
 10
-19.82519819752
 20
232.399919886836
 11
-21.94651819751999
 21
232.399919886836
 72
     1
 10
-21.94651819751999
 20
232.399919886836
 11
-21.94651819751999
 21
232.499919886836
 72
     1
 10
-21.94651819751999
 20
232.499919886836
 11
-37.43528303539898
 21
232.4999198868
 72
     1
 10
-37.43528303539898
 20
232.4999198868
 11
-37.93195636235799
 21
232.450086331439
 72
     1
 10
-37.93195636235799
 20
232.450086331439
 11
-38.40882889114198
 21
232.302572371844
 72
     1
 10
-38.40882889114198
 20
232.302572371844
 11
-38.846889218857
 21
232.063258924111
 72
     1
 10
-38.846889218857
 20
232.063258924111
 11
-39.228673262619
 21
231.741686660204
 72
     1
 10
-39.228673262619
 20
231.741686660204
 11
-39.53896049738998
 21
231.350675651507
 72
     1
 10
-39.53896049738998
 20
231.350675651507
 11
-39.76538075028799
 21
230.905814273028
 72
     1
 10
-39.76538075028799
 20
230.905814273028
 11
-39.89890736034099
 21
230.424837744087
 72
     1
 10
-39.89890736034099
 20
230.424837744087
 11
-39.93528303539898
 21
229.9999198868
 72
     1
 10
-39.93528303539898
 20
229.9999198868
 11
-39.93528303536999
 21
228.499919886836
 72
     1
 10
-39.93528303536999
 20
228.499919886836
 11
-38.43528303536999
 21
228.499919886836
 72
     1
 10
-38.43528303536999
 20
228.499919886836
 11
-38.43528303539898
 21
229.9999198868
 72
     1
 10
-38.43528303539898
 20
229.9999198868
 11
-38.41534961321099
 21
230.198589217631
 72
     1
 10
-38.41534961321099
 20
230.198589217631
 11
-38.35634402937299
 21
230.389338229145
 72
     1
 10
-38.35634402937299
 20
230.389338229145
 11
-38.26061865027998
 21
230.564562360231
 72
     1
 10
-38.26061865027998
 20
230.564562360231
 11
-38.131989744717
 21
230.717275977736
 72
     1
 10
-38.131989744717
 20
230.717275977736
 11
-37.975585341238
 21
230.841390871644
 72
     1
 10
-37.975585341238
 20
230.841390871644
 11
-37.79764078984698
 21
230.931958972804
 72
     1
 10
-37.79764078984698
 20
230.931958972804
 11
-37.60525017826998
 21
230.985369616825
 72
     1
 10
-37.60525017826998
 20
230.985369616825
 11
-37.43528303539898
 21
230.9999198868
 72
     1
 10
-37.43528303539898
 20
230.9999198868
 11
-1.935283035398982
 21
230.9999198868
 97
        0
 75
     1
 76
     2
 52
0.0
 41
1.0
 77
     0
 78
     1
 53
44.99999999999998
 43
0.0
 44
0.0
 45
-4.490128060534577
 46
0.0000000000000018
 79
     0
 98
        1
 10
0.0
 20
0.0
  0
ENDBLK
  5
46
330
44
100
AcDbEntity
  8
0
100
AcDbBlockEnd
  0
BLOCK
  5
6B
330
47
100
AcDbEntity
  8
0
100
AcDbBlockBegin
  2
HL_62BP_7_DN75_Dachablauf
 70
     0
 10
-45.03694639048599
 20
116.270567743356
 30
0.0
  3
HL_62BP_7_DN75_Dachablauf
  1

  0
INSERT
  5
6A
330
47
100
AcDbEntity
  8
0
100
AcDbBlockReference
  2
HL62BP_7
 10
-45.03694639048599
 20
116.270567743356
 30
0.0
  0
ENDBLK
  5
6C
330
47
100
AcDbEntity
  8
0
100
AcDbBlockEnd
  0
BLOCK
  5
2FA
330
2F2
100
AcDbEntity
  8
0
100
AcDbBlockBegin
  2
*D3
 70
     1
 10
0.0
 20
0.0
 30
0.0
  3
*D3
  1

  0
LINE
  5
2F3
330
2F2
100
AcDbEntity
  8
1
  6
Continuous
 62
     4
100
AcDbLine
 10
-199.6852781678424
 20
276.4052782054686
 30
0.0
 11
160.3147162995576
 21
276.4052802274686
 31
0.0
  0
LINE
  5
2F4
330
2F2
100
AcDbEntity
  8
1
  6
Continuous
 62
     4
100
AcDbLine
 10
-199.685277502799
 20
157.9999178648
 30
0.0
 11
-199.6852781790757
 21
278.4052782054686
 31
0.0
  0
LINE
  5
2F5
330
2F2
100
AcDbEntity
  8
1
  6
Continuous
 62
     4
100
AcDbLine
 10
160.3147169646011
 20
157.9999198868
 30
0.0
 11
160.3147162883243
 21
278.4052802274686
 31
0.0
  0
SOLID
  5
2F6
330
2F2
100
AcDbEntity
  8
1
 62
     4
100
AcDbTrace
 10
-189.6852781752369
 20
277.7218032375089
 30
0.0
 11
-189.685278160448
 21
275.088753285761
 31
0.0
 12
-199.6852781678424
 22
276.4052782054686
 32
0.0
 13
-199.6852781678424
 23
276.4052782054686
 33
0.0
  0
SOLID
  5
2F7
330
2F2
100
AcDbEntity
  8
1
 62
     4
100
AcDbTrace
 10
150.314716306952
 20
275.0887551954282
 30
0.0
 11
150.3147162921631
 21
277.7218051471761
 31
0.0
 12
160.3147162995576
 22
276.4052802274686
 32
0.0
 13
160.3147162995576
 23
276.4052802274686
 33
0.0
  0
MTEXT
  5
2F9
330
2F2
100
AcDbEntity
  8
1
 62
     1
100
AcDbMText
 10
-45.14032048095063
 20
278.4052394445876
 30
0.0
 40
10.0
 41
0.0
 71
     7
 72
     1
  1
\C1;%%c\C1;360
  7
CONVERTER_11
 11
0.9999999999970619
 21
2.424068405545306E-6
 31
0.0
 73
     1
 44
0.60024009603842
  0
ENDBLK
  5
2FB
330
2F2
100
AcDbEntity
  8
0
100
AcDbBlockEnd
  0
BLOCK
  5
305
330
2FE
100
AcDbEntity
  8
0
100
AcDbBlockBegin
  2
*D4
 70
     1
 10
0.0
 20
0.0
 30
0.0
  3
*D4
  1

  0
LINE
  5
2FF
330
2FE
100
AcDbEntity
  8
1
  6
Continuous
 62
     4
100
AcDbLine
 10
-93.685286205099
 20
249.240997379213
 30
0.0
 11
54.31471570230099
 21
249.240997379213
 31
0.0
  0
LINE
  5
300
330
2FE
100
AcDbEntity
  8
1
  6
Continuous
 62
     4
100
AcDbLine
 10
-93.685286205099
 20
232.9999133944
 30
0.0
 11
-93.685286205099
 21
251.240997379213
 31
0.0
  0
LINE
  5
301
330
2FE
100
AcDbEntity
  8
1
  6
Continuous
 62
     4
100
AcDbLine
 10
54.31471570230099
 20
232.9999133944
 30
0.0
 11
54.31471570230099
 21
251.240997379213
 31
0.0
  0
SOLID
  5
302
330
2FE
100
AcDbEntity
  8
1
 62
     4
100
AcDbTrace
 10
-83.685286205099
 20
250.557522355087
 30
0.0
 11
-83.685286205099
 21
247.9244724033391
 31
0.0
 12
-93.685286205099
 22
249.240997379213
 32
0.0
 13
-93.685286205099
 23
249.240997379213
 33
0.0
  0
SOLID
  5
303
330
2FE
100
AcDbEntity
  8
1
 62
     4
100
AcDbTrace
 10
44.31471570230099
 20
247.9244724033391
 30
0.0
 11
44.31471570230099
 21
250.557522355087
 31
0.0
 12
54.31471570230099
 22
249.240997379213
 32
0.0
 13
54.31471570230099
 23
249.240997379213
 33
0.0
  0
MTEXT
  5
304
330
2FE
100
AcDbEntity
  8
1
 62
     1
100
AcDbMText
 10
-48.4173576981018
 20
251.240997379213
 30
0.0
 40
10.0
 41
0.0
 71
     7
 72
     1
  1
\C1;150\C1;x150
  7
CONVERTER_11
 11
0.9999999999970619
 21
2.424068405545306E-6
 31
0.0
 73
     1
 44
0.60024009603842
  0
ENDBLK
  5
306
330
2FE
100
AcDbEntity
  8
0
100
AcDbBlockEnd
  0
BLOCK
  5
310
330
309
100
AcDbEntity
  8
0
100
AcDbBlockBegin
  2
*D5
 70
     1
 10
0.0
 20
0.0
 30
0.0
  3
*D5
  1

  0
LINE
  5
30A
330
309
100
AcDbEntity
  8
1
  6
Continuous
 62
     4
100
AcDbLine
 10
-57.18528301619898
 20
-28.0618451396581
 30
0.0
 11
17.81471623870101
 21
-28.0618451396581
 31
0.0
  0
LINE
  5
30B
330
309
100
AcDbEntity
  8
1
  6
Continuous
 62
     4
100
AcDbLine
 10
-57.18528301619898
 20
5.00000268220001
 30
0.0
 11
-57.18528301619898
 21
-30.0618451396581
 31
0.0
  0
LINE
  5
30C
330
309
100
AcDbEntity
  8
1
  6
Continuous
 62
     4
100
AcDbLine
 10
17.81471623870101
 20
5.00000268220001
 30
0.0
 11
17.81471623870101
 21
-30.0618451396581
 31
0.0
  0
SOLID
  5
30D
330
309
100
AcDbEntity
  8
1
 62
     4
100
AcDbTrace
 10
-47.18528301619898
 20
-26.74532016378414
 30
0.0
 11
-47.18528301619898
 21
-29.37837011553206
 31
0.0
 12
-57.18528301619898
 22
-28.0618451396581
 32
0.0
 13
-57.18528301619898
 23
-28.0618451396581
 33
0.0
  0
SOLID
  5
30E
330
309
100
AcDbEntity
  8
1
 62
     4
100
AcDbTrace
 10
7.81471623870101
 20
-29.37837011553206
 30
0.0
 11
7.81471623870101
 21
-26.74532016378414
 31
0.0
 12
17.81471623870101
 22
-28.0618451396581
 32
0.0
 13
17.81471623870101
 23
-28.0618451396581
 33
0.0
  0
MTEXT
  5
30F
330
309
100
AcDbEntity
  8
1
 62
     1
100
AcDbMText
 10
-32.08916683339611
 20
-26.06188489437995
 30
0.0
 40
10.0
 41
0.0
 71
     7
 72
     1
  1
\C1;DN\C1;75
  7
CONVERTER_11
 11
0.9999999999970619
 21
2.424068405545306E-6
 31
0.0
 73
     1
 44
0.60024009603842
  0
ENDBLK
  5
311
330
309
100
AcDbEntity
  8
0
100
AcDbBlockEnd
  0
BLOCK
  5
31B
330
314
100
AcDbEntity
  8
0
100
AcDbBlockBegin
  2
*D6
 70
     1
 10
0.0
 20
0.0
 30
0.0
  3
*D6
  1

  0
LINE
  5
315
330
314
100
AcDbEntity
  8
1
  6
Continuous
 62
     4
100
AcDbLine
 10
-99.78528515599899
 20
-53.8641438136975
 30
0.0
 11
60.41471465320103
 21
-53.8641438136975
 31
0.0
  0
LINE
  5
316
330
314
100
AcDbEntity
  8
1
  6
Continuous
 62
     4
100
AcDbLine
 10
-99.78528515599899
 20
74.00000095360011
 30
0.0
 11
-99.78528515599899
 21
-55.8641438136975
 31
0.0
  0
LINE
  5
317
330
314
100
AcDbEntity
  8
1
  6
Continuous
 62
     4
100
AcDbLine
 10
60.41471465320103
 20
74.00000095360011
 30
0.0
 11
60.41471465320103
 21
-55.8641438136975
 31
0.0
  0
SOLID
  5
318
330
314
100
AcDbEntity
  8
1
 62
     4
100
AcDbTrace
 10
-89.78528515599899
 20
-52.54761883782354
 30
0.0
 11
-89.78528515599899
 21
-55.18066878957146
 31
0.0
 12
-99.78528515599899
 22
-53.8641438136975
 32
0.0
 13
-99.78528515599899
 23
-53.8641438136975
 33
0.0
  0
SOLID
  5
319
330
314
100
AcDbEntity
  8
1
 62
     4
100
AcDbTrace
 10
50.41471465320103
 20
-55.18066878957146
 30
0.0
 11
50.41471465320103
 21
-52.54761883782354
 31
0.0
 12
60.41471465320103
 22
-53.8641438136975
 32
0.0
 13
60.41471465320103
 23
-53.8641438136975
 33
0.0
  0
MTEXT
  5
31A
330
314
100
AcDbEntity
  8
1
 62
     1
100
AcDbMText
 10
-40.32826251658152
 20
-51.86418356841936
 30
0.0
 40
10.0
 41
0.0
 71
     7
 72
     1
  1
\C1;%%c\C1;160
  7
CONVERTER_11
 11
0.9999999999970619
 21
2.424068405545306E-6
 31
0.0
 73
     1
 44
0.60024009603842
  0
ENDBLK
  5
31C
330
314
100
AcDbEntity
  8
0
100
AcDbBlockEnd
  0
BLOCK
  5
326
330
31F
100
AcDbEntity
  8
0
100
AcDbBlockBegin
  2
*D7
 70
     1
 10
0.0
 20
0.0
 30
0.0
  3
*D7
  1

  0
LINE
  5
320
330
31F
100
AcDbEntity
  8
1
  6
Continuous
 62
     4
100
AcDbLine
 10
-213.050162826026
 20
159.9999219179
 30
0.0
 11
-213.050162826026
 21
64.0000011771
 31
0.0
  0
LINE
  5
321
330
31F
100
AcDbEntity
  8
1
  6
Continuous
 62
     4
100
AcDbLine
 10
-197.685288350799
 20
159.9999219179
 30
0.0
 11
-215.050162826026
 21
159.9999219179
 31
0.0
  0
LINE
  5
322
330
31F
100
AcDbEntity
  8
1
  6
Continuous
 62
     4
100
AcDbLine
 10
-91.685282151899
 20
64.0000011771
 30
0.0
 11
-215.050162826026
 21
64.0000011771
 31
0.0
  0
SOLID
  5
323
330
31F
100
AcDbEntity
  8
1
 62
     4
100
AcDbTrace
 10
-211.733637850152
 20
149.9999219179
 30
0.0
 11
-214.3666878019
 21
149.9999219179
 31
0.0
 12
-213.050162826026
 22
159.9999219179
 32
0.0
 13
-213.050162826026
 23
159.9999219179
 33
0.0
  0
SOLID
  5
324
330
31F
100
AcDbEntity
  8
1
 62
     4
100
AcDbTrace
 10
-214.3666878019
 20
74.0000011771
 30
0.0
 11
-211.733637850152
 21
74.0000011771
 31
0.0
 12
-213.050162826026
 22
64.0000011771
 32
0.0
 13
-213.050162826026
 23
64.0000011771
 33
0.0
  0
MTEXT
  5
325
330
31F
100
AcDbEntity
  8
1
 62
     1
100
AcDbMText
 10
-215.050162826026
 20
107.430064794157
 30
0.0
 40
10.0
 41
0.0
 71
     7
 72
     1
  1
96
  7
CONVERTER_11
 11
0.0
 21
1.0
 31
0.0
 73
     1
 44
0.60024009603842
  0
ENDBLK
  5
327
330
31F
100
AcDbEntity
  8
0
100
AcDbBlockEnd
  0
BLOCK
  5
331
330
32A
100
AcDbEntity
  8
0
100
AcDbBlockBegin
  2
*D8
 70
     1
 10
0.0
 20
0.0
 30
0.0
  3
*D8
  1

  0
LINE
  5
32B
330
32A
100
AcDbEntity
  8
1
  6
Continuous
 62
     4
100
AcDbLine
 10
-238.463614682173
 20
159.9999219179
 30
0.0
 11
-238.463614682173
 21
0.0
 31
0.0
  0
LINE
  5
32C
330
32A
100
AcDbEntity
  8
1
  6
Continuous
 62
     4
100
AcDbLine
 10
-197.685288350799
 20
159.9999219179
 30
0.0
 11
-240.463614682173
 21
159.9999219179
 31
0.0
  0
LINE
  5
32D
330
32A
100
AcDbEntity
  8
1
  6
Continuous
 62
     4
100
AcDbLine
 10
-53.685283373799
 20
0.0
 30
0.0
 11
-240.463614682173
 21
0.0
 31
0.0
  0
SOLID
  5
32E
330
32A
100
AcDbEntity
  8
1
 62
     4
100
AcDbTrace
 10
-237.147089706299
 20
149.9999219179
 30
0.0
 11
-239.7801396580469
 21
149.9999219179
 31
0.0
 12
-238.463614682173
 22
159.9999219179
 32
0.0
 13
-238.463614682173
 23
159.9999219179
 33
0.0
  0
SOLID
  5
32F
330
32A
100
AcDbEntity
  8
1
 62
     4
100
AcDbTrace
 10
-239.7801396580469
 20
10.0
 30
0.0
 11
-237.147089706299
 21
10.0
 31
0.0
 12
-238.463614682173
 22
0.0
 32
0.0
 13
-238.463614682173
 23
0.0
 33
0.0
  0
MTEXT
  5
330
330
32A
100
AcDbEntity
  8
1
 62
     1
100
AcDbMText
 10
-240.463614682173
 20
72.4132902781349
 30
0.0
 40
10.0
 41
0.0
 71
     7
 72
     1
  1
160
  7
CONVERTER_11
 11
0.0
 21
1.0
 31
0.0
 73
     1
 44
0.60024009603842
  0
ENDBLK
  5
332
330
32A
100
AcDbEntity
  8
0
100
AcDbBlockEnd
  0
ENDSEC
  0
SECTION
  2
ENTITIES
  0
INSERT
  5
6D
330
1F
100
AcDbEntity
  8
0
100
AcDbBlockReference
  2
HL_62BP_7_DN75_Dachablauf
 10
-45.03694639048599
 20
116.270567743356
 30
0.0
  0
ENDSEC
  0
SECTION
  2
OBJECTS
  0
DICTIONARY
  5
C
330
0
100
AcDbDictionary
281
     1
  3
ACAD_GROUP
350
D
  3
ACAD_LAYOUT
350
1A
  3
ACAD_MLEADERSTYLE
350
34A
  3
ACAD_MLINESTYLE
350
17
  3
ACAD_PLOTSETTINGS
350
19
  3
ACAD_PLOTSTYLENAME
350
E
  3
ACAD_SCALELIST
350
48
  3
ACAD_VISUALSTYLE
350
2A
  3
AcDbVariableDictionary
350
348
  0
DICTIONARY
  5
D
102
{ACAD_REACTORS
330
C
102
}
330
C
100
AcDbDictionary
281
     1
  0
DICTIONARY
  5
1A
102
{ACAD_REACTORS
330
C
102
}
330
C
100
AcDbDictionary
281
     1
  3
Layout1
350
1E
  3
Layout2
350
26
  3
Model
350
22
  0
DICTIONARY
  5
34A
102
{ACAD_REACTORS
330
C
102
}
330
C
100
AcDbDictionary
281
     1
  0
DICTIONARY
  5
17
102
{ACAD_REACTORS
330
C
102
}
330
C
100
AcDbDictionary
281
     1
  3
Standard
350
18
  0
DICTIONARY
  5
19
102
{ACAD_REACTORS
330
C
102
}
330
C
100
AcDbDictionary
281
     1
  0
ACDBDICTIONARYWDFLT
  5
E
102
{ACAD_REACTORS
330
C
102
}
330
C
100
AcDbDictionary
281
     1
  3
Normal
350
F
100
AcDbDictionaryWithDefault
340
F
  0
DICTIONARY
  5
48
102
{ACAD_REACTORS
330
C
102
}
330
C
100
AcDbDictionary
281
     1
  3
A0
350
49
  3
A1
350
4A
  3
A2
350
4B
  3
A3
350
4C
  3
A4
350
4D
  3
A5
350
4E
  3
A6
350
4F
  3
A7
350
50
  3
A8
350
51
  3
A9
350
52
  3
B0
350
53
  3
B1
350
54
  3
B2
350
55
  3
B3
350
56
  3
B4
350
57
  3
B5
350
58
  3
B6
350
59
  3
B7
350
5A
  3
B8
350
5B
  3
B9
350
5C
  3
C0
350
5D
  3
C1
350
5E
  3
C2
350
5F
  3
C3
350
60
  3
C4
350
61
  3
C5
350
62
  3
C6
350
63
  3
C7
350
64
  3
C8
350
65
  3
C9
350
66
  3
D0
350
67
  3
D1
350
68
  3
D2
350
69
  0
DICTIONARY
  5
2A
102
{ACAD_REACTORS
330
C
102
}
330
C
100
AcDbDictionary
281
     1
  3
2dWireframe
350
2F
  3
3D Hidden
350
31
  3
3dWireframe
350
30
  3
Basic
350
32
  3
Brighten
350
36
  3
ColorChange
350
3A
  3
Conceptual
350
34
  3
Dim
350
35
  3
Facepattern
350
39
  3
Flat
350
2B
  3
FlatWithEdges
350
2C
  3
Gouraud
350
2D
  3
GouraudWithEdges
350
2E
  3
Linepattern
350
38
  3
Realistic
350
33
  3
Thicken
350
37
  0
DICTIONARY
  5
348
102
{ACAD_REACTORS
330
C
102
}
330
C
100
AcDbDictionary
281
     1
  3
CANNOSCALE
350
34B
  0
LAYOUT
  5
1E
102
{ACAD_REACTORS
330
1A
102
}
330
1A
100
AcDbPlotSettings
  1

  2
none_device
  4

  6

 40
0.0
 41
0.0
 42
0.0
 43
0.0
 44
0.0
 45
0.0
 46
0.0
 47
0.0
 48
0.0
 49
0.0
140
0.0
141
0.0
142
1.0
143
1.0
 70
   688
 72
     0
 73
     0
 74
     5
  7

 75
    16
147
1.0
148
0.0
149
0.0
100
AcDbLayout
  1
Layout1
 70
     1
 71
     1
 10
0.0
 20
0.0
 11
12.0
 21
9.0
 12
0.0
 22
0.0
 32
0.0
 14
1.00000000000000E+20
 24
1.00000000000000E+20
 34
1.00000000000000E+20
 15
-1.00000000000000E+20
 25
-1.00000000000000E+20
 35
-1.00000000000000E+20
146
0.0
 13
0.0
 23
0.0
 33
0.0
 16
1.0
 26
0.0
 36
0.0
 17
0.0
 27
1.0
 37
0.0
 76
     0
330
1B
  0
LAYOUT
  5
26
102
{ACAD_REACTORS
330
1A
102
}
330
1A
100
AcDbPlotSettings
  1

  2
none_device
  4

  6

 40
0.0
 41
0.0
 42
0.0
 43
0.0
 44
0.0
 45
0.0
 46
0.0
 47
0.0
 48
0.0
 49
0.0
140
0.0
141
0.0
142
1.0
143
1.0
 70
   688
 72
     0
 73
     0
 74
     5
  7

 75
    16
147
1.0
148
0.0
149
0.0
100
AcDbLayout
  1
Layout2
 70
     1
 71
     2
 10
0.0
 20
0.0
 11
0.0
 21
0.0
 12
0.0
 22
0.0
 32
0.0
 14
0.0
 24
0.0
 34
0.0
 15
0.0
 25
0.0
 35
0.0
146
0.0
 13
0.0
 23
0.0
 33
0.0
 16
1.0
 26
0.0
 36
0.0
 17
0.0
 27
1.0
 37
0.0
 76
     0
330
23
  0
LAYOUT
  5
22
102
{ACAD_REACTORS
330
1A
102
}
330
1A
100
AcDbPlotSettings
  1

  2
none_device
  4

  6

 40
0.0
 41
0.0
 42
0.0
 43
0.0
 44
0.0
 45
0.0
 46
0.0
 47
0.0
 48
0.0
 49
0.0
140
0.0
141
0.0
142
1.0
143
1.0
 70
  1712
 72
     0
 73
     0
 74
     0
  7

 75
     0
147
1.0
148
0.0
149
0.0
100
AcDbLayout
  1
Model
 70
     1
 71
     0
 10
0.0
 20
0.0
 11
12.0
 21
9.0
 12
0.0
 22
0.0
 32
0.0
 14
-250.463614682173
 24
-55.8641438136975
 34
0.0
 15
160.389721901201
 25
288.4052793004094
 35
0.0
146
0.0
 13
0.0
 23
0.0
 33
0.0
 16
1.0
 26
0.0
 36
0.0
 17
0.0
 27
1.0
 37
0.0
 76
     0
330
1F
331
29
  0
MLINESTYLE
  5
18
102
{ACAD_REACTORS
330
17
102
}
330
17
100
AcDbMlineStyle
  2
Standard
 70
     0
  3

 62
   256
 51
90.0
 52
90.0
 71
     2
 49
0.5
 62
   256
  6
BYLAYER
 49
-0.5
 62
   256
  6
BYLAYER
  0
ACDBPLACEHOLDER
  5
F
102
{ACAD_REACTORS
330
E
102
}
330
E
  0
SCALE
  5
49
102
{ACAD_REACTORS
330
48
102
}
330
48
100
AcDbScale
 70
     0
300
1:1
140
1.0
141
1.0
290
     1
  0
SCALE
  5
4A
102
{ACAD_REACTORS
330
48
102
}
330
48
100
AcDbScale
 70
     0
300
1:2
140
1.0
141
2.0
290
     0
  0
SCALE
  5
4B
102
{ACAD_REACTORS
330
48
102
}
330
48
100
AcDbScale
 70
     0
300
1:4
140
1.0
141
4.0
290
     0
  0
SCALE
  5
4C
102
{ACAD_REACTORS
330
48
102
}
330
48
100
AcDbScale
 70
     0
300
1:5
140
1.0
141
5.0
290
     0
  0
SCALE
  5
4D
102
{ACAD_REACTORS
330
48
102
}
330
48
100
AcDbScale
 70
     0
300
1:8
140
1.0
141
8.0
290
     0
  0
SCALE
  5
4E
102
{ACAD_REACTORS
330
48
102
}
330
48
100
AcDbScale
 70
     0
300
1:10
140
1.0
141
10.0
290
     0
  0
SCALE
  5
4F
102
{ACAD_REACTORS
330
48
102
}
330
48
100
AcDbScale
 70
     0
300
1:16
140
1.0
141
16.0
290
     0
  0
SCALE
  5
50
102
{ACAD_REACTORS
330
48
102
}
330
48
100
AcDbScale
 70
     0
300
1:20
140
1.0
141
20.0
290
     0
  0
SCALE
  5
51
102
{ACAD_REACTORS
330
48
102
}
330
48
100
AcDbScale
 70
     0
300
1:30
140
1.0
141
30.0
290
     0
  0
SCALE
  5
52
102
{ACAD_REACTORS
330
48
102
}
330
48
100
AcDbScale
 70
     0
300
1:40
140
1.0
141
40.0
290
     0
  0
SCALE
  5
53
102
{ACAD_REACTORS
330
48
102
}
330
48
100
AcDbScale
 70
     0
300
1:50
140
1.0
141
50.0
290
     0
  0
SCALE
  5
54
102
{ACAD_REACTORS
330
48
102
}
330
48
100
AcDbScale
 70
     0
300
1:100
140
1.0
141
100.0
290
     0
  0
SCALE
  5
55
102
{ACAD_REACTORS
330
48
102
}
330
48
100
AcDbScale
 70
     0
300
2:1
140
2.0
141
1.0
290
     0
  0
SCALE
  5
56
102
{ACAD_REACTORS
330
48
102
}
330
48
100
AcDbScale
 70
     0
300
4:1
140
4.0
141
1.0
290
     0
  0
SCALE
  5
57
102
{ACAD_REACTORS
330
48
102
}
330
48
100
AcDbScale
 70
     0
300
8:1
140
8.0
141
1.0
290
     0
  0
SCALE
  5
58
102
{ACAD_REACTORS
330
48
102
}
330
48
100
AcDbScale
 70
     0
300
10:1
140
10.0
141
1.0
290
     0
  0
SCALE
  5
59
102
{ACAD_REACTORS
330
48
102
}
330
48
100
AcDbScale
 70
     0
300
100:1
140
100.0
141
1.0
290
     0
  0
SCALE
  5
5A
102
{ACAD_REACTORS
330
48
102
}
330
48
100
AcDbScale
 70
     0
300
1/128" = 1'-0"
140
0.0078125
141
12.0
290
     0
  0
SCALE
  5
5B
102
{ACAD_REACTORS
330
48
102
}
330
48
100
AcDbScale
 70
     0
300
1/64" = 1'-0"
140
0.015625
141
12.0
290
     0
  0
SCALE
  5
5C
102
{ACAD_REACTORS
330
48
102
}
330
48
100
AcDbScale
 70
     0
300
1/32" = 1'-0"
140
0.03125
141
12.0
290
     0
  0
SCALE
  5
5D
102
{ACAD_REACTORS
330
48
102
}
330
48
100
AcDbScale
 70
     0
300
1/16" = 1'-0"
140
0.0625
141
12.0
290
     0
  0
SCALE
  5
5E
102
{ACAD_REACTORS
330
48
102
}
330
48
100
AcDbScale
 70
     0
300
3/32" = 1'-0"
140
0.09375
141
12.0
290
     0
  0
SCALE
  5
5F
102
{ACAD_REACTORS
330
48
102
}
330
48
100
AcDbScale
 70
     0
300
1/8" = 1'-0"
140
0.125
141
12.0
290
     0
  0
SCALE
  5
60
102
{ACAD_REACTORS
330
48
102
}
330
48
100
AcDbScale
 70
     0
300
3/16" = 1'-0"
140
0.1875
141
12.0
290
     0
  0
SCALE
  5
61
102
{ACAD_REACTORS
330
48
102
}
330
48
100
AcDbScale
 70
     0
300
1/4" = 1'-0"
140
0.25
141
12.0
290
     0
  0
SCALE
  5
62
102
{ACAD_REACTORS
330
48
102
}
330
48
100
AcDbScale
 70
     0
300
3/8" = 1'-0"
140
0.375
141
12.0
290
     0
  0
SCALE
  5
63
102
{ACAD_REACTORS
330
48
102
}
330
48
100
AcDbScale
 70
     0
300
1/2" = 1'-0"
140
0.5
141
12.0
290
     0
  0
SCALE
  5
64
102
{ACAD_REACTORS
330
48
102
}
330
48
100
AcDbScale
 70
     0
300
3/4" = 1'-0"
140
0.75
141
12.0
290
     0
  0
SCALE
  5
65
102
{ACAD_REACTORS
330
48
102
}
330
48
100
AcDbScale
 70
     0
300
1" = 1'-0"
140
1.0
141
12.0
290
     0
  0
SCALE
  5
66
102
{ACAD_REACTORS
330
48
102
}
330
48
100
AcDbScale
 70
     0
300
1-1/2" = 1'-0"
140
1.5
141
12.0
290
     0
  0
SCALE
  5
67
102
{ACAD_REACTORS
330
48
102
}
330
48
100
AcDbScale
 70
     0
300
3" = 1'-0"
140
3.0
141
12.0
290
     0
  0
SCALE
  5
68
102
{ACAD_REACTORS
330
48
102
}
330
48
100
AcDbScale
 70
     0
300
6" = 1'-0"
140
6.0
141
12.0
290
     0
  0
SCALE
  5
69
102
{ACAD_REACTORS
330
48
102
}
330
48
100
AcDbScale
 70
     0
300
1'-0" = 1'-0"
140
12.0
141
12.0
290
     0
  0
VISUALSTYLE
  5
2F
102
{ACAD_REACTORS
330
2A
102
}
330
2A
100
AcDbVisualStyle
  2
2dWireframe
 70
     4
 71
     0
 72
     2
 73
     0
 90
        0
 40
-0.6
 41
-30.0
 62
     5
 63
     7
 74
     1
 91
        4
 64
     7
 65
   257
 75
     1
175
     1
 42
1.0
 92
        0
 66
   257
 43
1.0
 76
     1
 77
     6
 78
     2
 67
     7
 79
     5
170
     0
171
     0
290
     0
174
     0
 93
        1
 44
0.0
173
     0
291
     0
 45
0.0
1001
ACAD
1000
AcDbSavedByObjectVersion
1070
     0
  0
VISUALSTYLE
  5
31
102
{ACAD_REACTORS
330
2A
102
}
330
2A
100
AcDbVisualStyle
  2
3D Hidden
 70
     6
 71
     1
 72
     2
 73
     2
 90
        0
 40
-0.6
 41
-30.0
 62
     5
 63
     7
 74
     2
 91
        2
 64
     7
 65
   257
 75
     2
175
     1
 42
40.0
 92
        0
 66
   257
 43
1.0
 76
     1
 77
     6
 78
     2
 67
     7
 79
     3
170
     0
171
     0
290
     0
174
     0
 93
        1
 44
0.0
173
     0
291
     0
 45
0.0
1001
ACAD
1000
AcDbSavedByObjectVersion
1070
     0
  0
VISUALSTYLE
  5
30
102
{ACAD_REACTORS
330
2A
102
}
330
2A
100
AcDbVisualStyle
  2
3dWireframe
 70
     5
 71
     0
 72
     2
 73
     0
 90
        0
 40
-0.6
 41
-30.0
 62
     5
 63
     7
 74
     1
 91
        4
 64
     7
 65
   257
 75
     1
175
     1
 42
1.0
 92
        0
 66
   257
 43
1.0
 76
     1
 77
     6
 78
     2
 67
     7
 79
     5
170
     0
171
     0
290
     0
174
     0
 93
        1
 44
0.0
173
     0
291
     0
 45
0.0
1001
ACAD
1000
AcDbSavedByObjectVersion
1070
     0
  0
VISUALSTYLE
  5
32
102
{ACAD_REACTORS
330
2A
102
}
330
2A
100
AcDbVisualStyle
  2
Basic
 70
     7
 71
     1
 72
     0
 73
     1
 90
        0
 40
-0.6
 41
-30.0
 62
     5
 63
     7
 74
     0
 91
        4
 64
     7
 65
   257
 75
     1
175
     1
 42
1.0
 92
        8
 66
     7
 43
1.0
 76
     1
 77
     6
 78
     2
 67
     7
 79
     5
170
     0
171
     0
290
     0
174
     0
 93
        1
 44
0.0
173
     0
291
     1
 45
0.0
1001
ACAD
1000
AcDbSavedByObjectVersion
1070
     0
  0
VISUALSTYLE
  5
36
102
{ACAD_REACTORS
330
2A
102
}
330
2A
100
AcDbVisualStyle
  2
Brighten
 70
    12
 71
     2
 72
     2
 73
     0
 90
        0
 40
-0.6
 41
-30.0
 62
     5
 63
     7
 74
     1
 91
        4
 64
     7
 65
   257
 75
     1
175
     1
 42
1.0
 92
        8
 66
     7
 43
1.0
 76
     1
 77
     6
 78
     2
 67
     7
 79
     5
170
     0
171
     0
290
     0
174
     0
 93
        1
 44
50.0
173
     0
291
     1
 45
0.0
1001
ACAD
1000
AcDbSavedByObjectVersion
1070
     0
  0
VISUALSTYLE
  5
3A
102
{ACAD_REACTORS
330
2A
102
}
330
2A
100
AcDbVisualStyle
  2
ColorChange
 70
    16
 71
     2
 72
     2
 73
     3
 90
        0
 40
-0.6
 41
-30.0
 62
     5
 63
     8
 74
     1
 91
        4
 64
     7
 65
   257
 75
     1
175
     1
 42
1.0
 92
        8
 66
     8
 43
1.0
 76
     1
 77
     6
 78
     2
 67
     7
 79
     5
170
     0
171
     0
290
     0
174
     0
 93
        1
 44
0.0
173
     0
291
     1
 45
0.0
1001
ACAD
1000
AcDbSavedByObjectVersion
1070
     0
  0
VISUALSTYLE
  5
34
102
{ACAD_REACTORS
330
2A
102
}
330
2A
100
AcDbVisualStyle
  2
Conceptual
 70
     9
 71
     3
 72
     2
 73
     0
 90
        0
 40
-0.6
 41
-30.0
 62
     5
 63
     7
 74
     2
 91
        2
 64
     7
 65
   257
 75
     1
175
     1
 42
40.0
 92
        8
 66
     7
 43
1.0
 76
     1
 77
     6
 78
     2
 67
     7
 79
     3
170
     0
171
     0
290
     0
174
     0
 93
        1
 44
0.0
173
     0
291
     0
 45
0.0
1001
ACAD
1000
AcDbSavedByObjectVersion
1070
     0
  0
VISUALSTYLE
  5
35
102
{ACAD_REACTORS
330
2A
102
}
330
2A
100
AcDbVisualStyle
  2
Dim
 70
    11
 71
     2
 72
     2
 73
     0
 90
        0
 40
-0.6
 41
-30.0
 62
     5
 63
     7
 74
     1
 91
        4
 64
     7
 65
   257
 75
     1
175
     1
 42
1.0
 92
        8
 66
     7
 43
1.0
 76
     1
 77
     6
 78
     2
 67
     7
 79
     5
170
     0
171
     0
290
     0
174
     0
 93
        1
 44
-50.0
173
     0
291
     1
 45
0.0
1001
ACAD
1000
AcDbSavedByObjectVersion
1070
     0
  0
VISUALSTYLE
  5
39
102
{ACAD_REACTORS
330
2A
102
}
330
2A
100
AcDbVisualStyle
  2
Facepattern
 70
    15
 71
     2
 72
     2
 73
     0
 90
        0
 40
-0.6
 41
-30.0
 62
     5
 63
     7
 74
     1
 91
        4
 64
     7
 65
   257
 75
     1
175
     1
 42
1.0
 92
        8
 66
     7
 43
1.0
 76
     1
 77
     6
 78
     2
 67
     7
 79
     5
170
     0
171
     0
290
     0
174
     0
 93
        1
 44
0.0
173
     0
291
     1
 45
0.0
1001
ACAD
1000
AcDbSavedByObjectVersion
1070
     0
  0
VISUALSTYLE
  5
2B
102
{ACAD_REACTORS
330
2A
102
}
330
2A
100
AcDbVisualStyle
  2
Flat
 70
     0
 71
     2
 72
     1
 73
     1
 90
        2
 40
-0.6
 41
30.0
 62
     5
 63
     7
 74
     0
 91
        4
 64
     7
 65
   257
 75
     1
175
     1
 42
1.0
 92
        8
 66
     7
 43
1.0
 76
     1
 77
     6
 78
     2
 67
     7
 79
     5
170
     0
171
     0
290
     0
174
     0
 93
       13
 44
0.0
173
     0
291
     1
 45
0.0
1001
ACAD
1000
AcDbSavedByObjectVersion
1070
     0
  0
VISUALSTYLE
  5
2C
102
{ACAD_REACTORS
330
2A
102
}
330
2A
100
AcDbVisualStyle
  2
FlatWithEdges
 70
     1
 71
     2
 72
     1
 73
     1
 90
        2
 40
-0.6
 41
30.0
 62
     5
 63
     7
 74
     1
 91
        4
 64
     7
 65
   257
 75
     1
175
     1
 42
1.0
 92
        0
 66
   257
 43
1.0
 76
     1
 77
     6
 78
     2
 67
     7
 79
     5
170
     0
171
     0
290
     0
174
     0
 93
       13
 44
0.0
173
     0
291
     1
 45
0.0
1001
ACAD
1000
AcDbSavedByObjectVersion
1070
     0
  0
VISUALSTYLE
  5
2D
102
{ACAD_REACTORS
330
2A
102
}
330
2A
100
AcDbVisualStyle
  2
Gouraud
 70
     2
 71
     2
 72
     2
 73
     1
 90
        2
 40
-0.6
 41
30.0
 62
     5
 63
     7
 74
     0
 91
        4
 64
     7
 65
   257
 75
     1
175
     1
 42
1.0
 92
        0
 66
     7
 43
1.0
 76
     1
 77
     6
 78
     2
 67
     7
 79
     5
170
     0
171
     0
290
     0
174
     0
 93
       13
 44
0.0
173
     0
291
     1
 45
0.0
1001
ACAD
1000
AcDbSavedByObjectVersion
1070
     0
  0
VISUALSTYLE
  5
2E
102
{ACAD_REACTORS
330
2A
102
}
330
2A
100
AcDbVisualStyle
  2
GouraudWithEdges
 70
     3
 71
     2
 72
     2
 73
     1
 90
        2
 40
-0.6
 41
30.0
 62
     5
 63
     7
 74
     1
 91
        4
 64
     7
 65
   257
 75
     1
175
     1
 42
1.0
 92
        0
 66
   257
 43
1.0
 76
     1
 77
     6
 78
     2
 67
     7
 79
     5
170
     0
171
     0
290
     0
174
     0
 93
       13
 44
0.0
173
     0
291
     1
 45
0.0
1001
ACAD
1000
AcDbSavedByObjectVersion
1070
     0
  0
VISUALSTYLE
  5
38
102
{ACAD_REACTORS
330
2A
102
}
330
2A
100
AcDbVisualStyle
  2
Linepattern
 70
    14
 71
     2
 72
     2
 73
     0
 90
        0
 40
-0.6
 41
-30.0
 62
     5
 63
     7
 74
     1
 91
        4
 64
     7
 65
   257
 75
     7
175
     7
 42
1.0
 92
        8
 66
     7
 43
1.0
 76
     1
 77
     6
 78
     2
 67
     7
 79
     5
170
     0
171
     0
290
     0
174
     0
 93
        1
 44
0.0
173
     0
291
     1
 45
0.0
1001
ACAD
1000
AcDbSavedByObjectVersion
1070
     0
  0
VISUALSTYLE
  5
33
102
{ACAD_REACTORS
330
2A
102
}
330
2A
100
AcDbVisualStyle
  2
Realistic
 70
     8
 71
     2
 72
     2
 73
     0
 90
        0
 40
-0.6
 41
-30.0
 62
     5
 63
     7
 74
     1
 91
        0
 64
     7
 65
   257
 75
     1
175
     1
 42
1.0
 92
        8
 66
     8
 43
1.0
 76
     1
 77
     6
 78
     2
 67
     7
 79
     5
170
     0
171
     0
290
     0
174
     0
 93
       13
 44
0.0
173
     0
291
     0
 45
0.0
1001
ACAD
1000
AcDbSavedByObjectVersion
1070
     0
  0
VISUALSTYLE
  5
37
102
{ACAD_REACTORS
330
2A
102
}
330
2A
100
AcDbVisualStyle
  2
Thicken
 70
    13
 71
     2
 72
     2
 73
     0
 90
        0
 40
-0.6
 41
-30.0
 62
     5
 63
     7
 74
     1
 91
        4
 64
     7
 65
   257
 75
     1
175
     1
 42
1.0
 92
       12
 66
     7
 43
1.0
 76
     1
 77
     6
 78
     2
 67
     7
 79
     5
170
     0
171
     0
290
     0
174
     0
 93
        1
 44
0.0
173
     0
291
     1
 45
0.0
1001
ACAD
1000
AcDbSavedByObjectVersion
1070
     0
  0
DICTIONARYVAR
  5
34B
102
{ACAD_REACTORS
330
348
102
}
330
348
100
DictionaryVariables
280
     0
  1
1:1
  0
ENDSEC
  0
EOF
