  0
SECTION
  2
HEADER
  9
$ACADVER
  1
AC1015
  9
$ACADMAINTVER
 70
     6
  9
$DWGCODEPAGE
  3
ANSI_1252
  9
$INSBASE
 10
0.0
 20
0.0
 30
0.0
  9
$EXTMIN
 10
263.298174424156
 20
-47.03405335752549
 30
0.0
  9
$EXTMAX
 10
670.283993466991
 20
265.13286309336
 30
0.0
  9
$LIMMIN
 10
0.0
 20
0.0
  9
$LIMMAX
 10
12.0
 20
9.0
  9
$ORTHOMODE
 70
     0
  9
$REGENMODE
 70
     1
  9
$FILLMODE
 70
     1
  9
$QTEXTMODE
 70
     0
  9
$MIRRTEXT
 70
     1
  9
$LTSCALE
 40
1.0
  9
$ATTMODE
 70
     1
  9
$TEXTSIZE
 40
0.2
  9
$TRACEWID
 40
0.05
  9
$TEXTSTYLE
  7
Standard
  9
$CLAYER
  8
0
  9
$CELTYPE
  6
ByLayer
  9
$CECOLOR
 62
   256
  9
$CELTSCALE
 40
1.0
  9
$DISPSILH
 70
     0
  9
$DIMSCALE
 40
1.0
  9
$DIMASZ
 40
0.18
  9
$DIMEXO
 40
0.0625
  9
$DIMDLI
 40
0.38
  9
$DIMRND
 40
0.0
  9
$DIMDLE
 40
0.0
  9
$DIMEXE
 40
0.18
  9
$DIMTP
 40
0.0
  9
$DIMTM
 40
0.0
  9
$DIMTXT
 40
0.18
  9
$DIMCEN
 40
0.09
  9
$DIMTSZ
 40
0.0
  9
$DIMTOL
 70
     0
  9
$DIMLIM
 70
     0
  9
$DIMTIH
 70
     1
  9
$DIMTOH
 70
     1
  9
$DIMSE1
 70
     0
  9
$DIMSE2
 70
     0
  9
$DIMTAD
 70
     0
  9
$DIMZIN
 70
     0
  9
$DIMBLK
  1

  9
$DIMASO
 70
     1
  9
$DIMSHO
 70
     1
  9
$DIMPOST
  1

  9
$DIMAPOST
  1

  9
$DIMALT
 70
     0
  9
$DIMALTD
 70
     2
  9
$DIMALTF
 40
25.4
  9
$DIMLFAC
 40
1.0
  9
$DIMTOFL
 70
     0
  9
$DIMTVP
 40
0.0
  9
$DIMTIX
 70
     0
  9
$DIMSOXD
 70
     0
  9
$DIMSAH
 70
     0
  9
$DIMBLK1
  1

  9
$DIMBLK2
  1

  9
$DIMSTYLE
  2
Standard
  9
$DIMCLRD
 70
     0
  9
$DIMCLRE
 70
     0
  9
$DIMCLRT
 70
     0
  9
$DIMTFAC
 40
1.0
  9
$DIMGAP
 40
0.09
  9
$DIMJUST
 70
     0
  9
$DIMSD1
 70
     0
  9
$DIMSD2
 70
     0
  9
$DIMTOLJ
 70
     1
  9
$DIMTZIN
 70
     0
  9
$DIMALTZ
 70
     0
  9
$DIMALTTZ
 70
     0
  9
$DIMUPT
 70
     0
  9
$DIMDEC
 70
     4
  9
$DIMTDEC
 70
     4
  9
$DIMALTU
 70
     2
  9
$DIMALTTD
 70
     2
  9
$DIMTXSTY
  7
Standard
  9
$DIMAUNIT
 70
     0
  9
$DIMADEC
 70
     0
  9
$DIMALTRND
 40
0.0
  9
$DIMAZIN
 70
     0
  9
$DIMDSEP
 70
    46
  9
$DIMATFIT
 70
     3
  9
$DIMFRAC
 70
     0
  9
$DIMLDRBLK
  1

  9
$DIMLUNIT
 70
     2
  9
$DIMLWD
 70
    -2
  9
$DIMLWE
 70
    -2
  9
$DIMTMOVE
 70
     0
  9
$LUNITS
 70
     2
  9
$LUPREC
 70
     4
  9
$SKETCHINC
 40
0.1
  9
$FILLETRAD
 40
0.5
  9
$AUNITS
 70
     0
  9
$AUPREC
 70
     0
  9
$MENU
  1
.
  9
$ELEVATION
 40
0.0
  9
$PELEVATION
 40
0.0
  9
$THICKNESS
 40
0.0
  9
$LIMCHECK
 70
     0
  9
$CHAMFERA
 40
0.5
  9
$CHAMFERB
 40
0.5
  9
$CHAMFERC
 40
1.0
  9
$CHAMFERD
 40
0.0
  9
$SKPOLY
 70
     0
  9
$TDCREATE
 40
2455386.302228658
  9
$TDUCREATE
 40
2455386.218895324
  9
$TDUPDATE
 40
2455386.302228669
  9
$TDUUPDATE
 40
2455386.218895336
  9
$TDINDWG
 40
0.0000000116
  9
$TDUSRTIMER
 40
0.0000000116
  9
$USRTIMER
 70
     1
  9
$ANGBASE
 50
0.0
  9
$ANGDIR
 70
     0
  9
$PDMODE
 70
     0
  9
$PDSIZE
 40
0.0
  9
$PLINEWID
 40
0.0
  9
$SPLFRAME
 70
     0
  9
$SPLINETYPE
 70
     6
  9
$SPLINESEGS
 70
     8
  9
$HANDSEED
  5
25B
  9
$SURFTAB1
 70
     6
  9
$SURFTAB2
 70
     6
  9
$SURFTYPE
 70
     6
  9
$SURFU
 70
     6
  9
$SURFV
 70
     6
  9
$UCSBASE
  2

  9
$UCSNAME
  2

  9
$UCSORG
 10
0.0
 20
0.0
 30
0.0
  9
$UCSXDIR
 10
1.0
 20
0.0
 30
0.0
  9
$UCSYDIR
 10
0.0
 20
1.0
 30
0.0
  9
$UCSORTHOREF
  2

  9
$UCSORTHOVIEW
 70
     0
  9
$UCSORGTOP
 10
0.0
 20
0.0
 30
0.0
  9
$UCSORGBOTTOM
 10
0.0
 20
0.0
 30
0.0
  9
$UCSORGLEFT
 10
0.0
 20
0.0
 30
0.0
  9
$UCSORGRIGHT
 10
0.0
 20
0.0
 30
0.0
  9
$UCSORGFRONT
 10
0.0
 20
0.0
 30
0.0
  9
$UCSORGBACK
 10
0.0
 20
0.0
 30
0.0
  9
$PUCSBASE
  2

  9
$PUCSNAME
  2

  9
$PUCSORG
 10
0.0
 20
0.0
 30
0.0
  9
$PUCSXDIR
 10
1.0
 20
0.0
 30
0.0
  9
$PUCSYDIR
 10
0.0
 20
1.0
 30
0.0
  9
$PUCSORTHOREF
  2

  9
$PUCSORTHOVIEW
 70
     0
  9
$PUCSORGTOP
 10
0.0
 20
0.0
 30
0.0
  9
$PUCSORGBOTTOM
 10
0.0
 20
0.0
 30
0.0
  9
$PUCSORGLEFT
 10
0.0
 20
0.0
 30
0.0
  9
$PUCSORGRIGHT
 10
0.0
 20
0.0
 30
0.0
  9
$PUCSORGFRONT
 10
0.0
 20
0.0
 30
0.0
  9
$PUCSORGBACK
 10
0.0
 20
0.0
 30
0.0
  9
$USERI1
 70
     0
  9
$USERI2
 70
     0
  9
$USERI3
 70
     0
  9
$USERI4
 70
     0
  9
$USERI5
 70
     0
  9
$USERR1
 40
16.5
  9
$USERR2
 40
0.0
  9
$USERR3
 40
0.0
  9
$USERR4
 40
0.0
  9
$USERR5
 40
0.0
  9
$WORLDVIEW
 70
     1
  9
$SHADEDGE
 70
     3
  9
$SHADEDIF
 70
    70
  9
$TILEMODE
 70
     1
  9
$MAXACTVP
 70
    64
  9
$PINSBASE
 10
0.0
 20
0.0
 30
0.0
  9
$PLIMCHECK
 70
     0
  9
$PEXTMIN
 10
1.00000000000000E+20
 20
1.00000000000000E+20
 30
1.00000000000000E+20
  9
$PEXTMAX
 10
-1.00000000000000E+20
 20
-1.00000000000000E+20
 30
-1.00000000000000E+20
  9
$PLIMMIN
 10
0.0
 20
0.0
  9
$PLIMMAX
 10
12.0
 20
9.0
  9
$UNITMODE
 70
     0
  9
$VISRETAIN
 70
     1
  9
$PLINEGEN
 70
     0
  9
$PSLTSCALE
 70
     1
  9
$TREEDEPTH
 70
  3020
  9
$CMLSTYLE
  2
Standard
  9
$CMLJUST
 70
     0
  9
$CMLSCALE
 40
1.0
  9
$PROXYGRAPHICS
 70
     1
  9
$MEASUREMENT
 70
     1
  9
$CELWEIGHT
370
    -1
  9
$ENDCAPS
280
     0
  9
$JOINSTYLE
280
     0
  9
$LWDISPLAY
290
     0
  9
$INSUNITS
 70
     1
  9
$HYPERLINKBASE
  1

  9
$STYLESHEET
  1

  9
$XEDIT
290
     1
  9
$CEPSNTYPE
380
     0
  9
$PSTYLEMODE
290
     1
  9
$FINGERPRINTGUID
  2
{AF6E24EA-6B40-4514-A230-1EFA836EF8F9}
  9
$VERSIONGUID
  2
{FAEB1C32-E019-11D5-929B-00C0DF256EC4}
  9
$EXTNAMES
290
     1
  9
$PSVPSCALE
 40
0.0
  9
$OLESTARTUP
290
     0
  0
ENDSEC
  0
SECTION
  2
CLASSES
  0
CLASS
  1
ACDBDICTIONARYWDFLT
  2
AcDbDictionaryWithDefault
  3
ObjectDBX Classes
 90
        0
280
     0
281
     0
  0
CLASS
  1
VISUALSTYLE
  2
AcDbVisualStyle
  3
ObjectDBX Classes
 90
     4095
280
     0
281
     0
  0
CLASS
  1
SCALE
  2
AcDbScale
  3
ObjectDBX Classes
 90
     1153
280
     0
281
     0
  0
CLASS
  1

  2
exOdDbPolyline
  3

 90
        0
280
     0
281
     1
  0
CLASS
  1

  2
exOdDbSpline
  3

 90
        0
280
     0
281
     1
  0
CLASS
  1
DICTIONARYVAR
  2
AcDbDictionaryVar
  3
ObjectDBX Classes
 90
        0
280
     0
281
     0
  0
CLASS
  1
ACDBPLACEHOLDER
  2
AcDbPlaceHolder
  3
ObjectDBX Classes
 90
        0
280
     0
281
     0
  0
CLASS
  1
LAYOUT
  2
AcDbLayout
  3
ObjectDBX Classes
 90
        0
280
     0
281
     0
  0
ENDSEC
  0
SECTION
  2
TABLES
  0
TABLE
  2
VPORT
  5
8
330
0
100
AcDbSymbolTable
 70
     1
  0
VPORT
  5
29
330
8
100
AcDbSymbolTableRecord
100
AcDbViewportTableRecord
  2
*Active
 70
     0
 10
0.0
 20
0.0
 11
1.0
 21
1.0
 12
466.7910839455735
 22
109.0494048679173
 13
0.0
 23
0.0
 14
0.5
 24
0.5
 15
0.5
 25
0.5
 16
0.0
 26
0.0
 36
1.0
 17
0.0
 27
0.0
 37
0.0
 40
343.3836080959741
 41
1.60267857142857
 42
50.0
 43
0.0
 44
0.0
 50
0.0
 51
0.0
 71
     0
 72
   100
 73
     1
 74
     3
 75
     0
 76
     0
 77
     0
 78
     0
281
     0
 65
     1
110
0.0
120
0.0
130
0.0
111
1.0
121
0.0
131
0.0
112
0.0
122
1.0
132
0.0
 79
     0
146
0.0
  0
ENDTAB
  0
TABLE
  2
LTYPE
  5
5
330
0
100
AcDbSymbolTable
 70
     9
  0
LTYPE
  5
14
330
5
100
AcDbSymbolTableRecord
100
AcDbLinetypeTableRecord
  2
ByBlock
 70
     0
  3

 72
    65
 73
     0
 40
0.0
  0
LTYPE
  5
15
330
5
100
AcDbSymbolTableRecord
100
AcDbLinetypeTableRecord
  2
ByLayer
 70
     0
  3

 72
    65
 73
     0
 40
0.0
  0
LTYPE
  5
16
330
5
100
AcDbSymbolTableRecord
100
AcDbLinetypeTableRecord
  2
Continuous
 70
     0
  3
Solid line
 72
    65
 73
     0
 40
0.0
  0
LTYPE
  5
3B
330
5
100
AcDbSymbolTableRecord
100
AcDbLinetypeTableRecord
  2
DASHED
 70
     0
  3
Dashed
 72
    65
 73
     2
 40
15.0
 49
7.0
 74
     0
 49
-8.0
 74
     0
  0
LTYPE
  5
3C
330
5
100
AcDbSymbolTableRecord
100
AcDbLinetypeTableRecord
  2
DOTTED
 70
     0
  3
Dotted
 72
    65
 73
     2
 40
1.0
 49
0.0
 74
     0
 49
-1.0
 74
     0
  0
LTYPE
  5
3D
330
5
100
AcDbSymbolTableRecord
100
AcDbLinetypeTableRecord
  2
DOT_CENTER
 70
     0
  3
Dot_Center
 72
    65
 73
     4
 40
14.0
 49
12.0
 74
     0
 49
-1.0
 74
     0
 49
0.0
 74
     0
 49
-1.0
 74
     0
  0
LTYPE
  5
3E
330
5
100
AcDbSymbolTableRecord
100
AcDbLinetypeTableRecord
  2
LONG_DASHED
 70
     0
  3
Long_Dashed
 72
    65
 73
     2
 40
15.0
 49
10.0
 74
     0
 49
-5.0
 74
     0
  0
LTYPE
  5
3F
330
5
100
AcDbSymbolTableRecord
100
AcDbLinetypeTableRecord
  2
DASH_CENTER
 70
     0
  3
Dash_Center
 72
    65
 73
     4
 40
14.0
 49
11.0
 74
     0
 49
-1.0
 74
     0
 49
1.0
 74
     0
 49
-1.0
 74
     0
  0
LTYPE
  5
40
330
5
100
AcDbSymbolTableRecord
100
AcDbLinetypeTableRecord
  2
PHANTOM
 70
     0
  3
Phantom
 72
    65
 73
     6
 40
13.0
 49
10.0
 74
     0
 49
-1.0
 74
     0
 49
0.0
 74
     0
 49
-1.0
 74
     0
 49
0.0
 74
     0
 49
-1.0
 74
     0
  0
LTYPE
  5
41
330
5
100
AcDbSymbolTableRecord
100
AcDbLinetypeTableRecord
  2
CENTER_DASH_DASH
 70
     0
  3
Center_Dash_Dash
 72
    65
 73
     6
 40
14.0
 49
9.0
 74
     0
 49
-1.0
 74
     0
 49
1.0
 74
     0
 49
-1.0
 74
     0
 49
1.0
 74
     0
 49
-1.0
 74
     0
  0
LTYPE
  5
42
330
5
100
AcDbSymbolTableRecord
100
AcDbLinetypeTableRecord
  2
CENTERX2
 70
     0
  3
CENTERX2
 72
    65
 73
     4
 40
22.0
 49
13.0
 74
     0
 49
-3.0
 74
     0
 49
3.0
 74
     0
 49
-3.0
 74
     0
  0
ENDTAB
  0
TABLE
  2
LAYER
  5
2
330
0
100
AcDbSymbolTable
 70
     2
  0
LAYER
  5
10
330
2
100
AcDbSymbolTableRecord
100
AcDbLayerTableRecord
  2
0
 70
     0
 62
     7
  6
Continuous
370
    -3
390
F
  0
LAYER
  5
43
330
2
100
AcDbSymbolTableRecord
100
AcDbLayerTableRecord
  2
1
 70
     0
 62
     7
  6
Continuous
370
    -3
390
F
  0
ENDTAB
  0
TABLE
  2
STYLE
  5
3
330
0
100
AcDbSymbolTable
 70
     2
  0
STYLE
  5
11
330
3
100
AcDbSymbolTableRecord
100
AcDbTextStyleTableRecord
  2
Standard
 70
     0
 40
0.0
 41
1.0
 50
0.0
 71
     0
 42
0.2
  3
txt
  4

  0
STYLE
  5
21C
330
3
100
AcDbSymbolTableRecord
100
AcDbTextStyleTableRecord
  2
CONVERTER_11
 70
     0
 40
0.0
 41
0.9
 50
0.0
 71
     0
 42
0.2
  3
txt.shx
  4

  0
ENDTAB
  0
TABLE
  2
VIEW
  5
6
330
0
100
AcDbSymbolTable
 70
     0
  0
ENDTAB
  0
TABLE
  2
UCS
  5
7
330
0
100
AcDbSymbolTable
 70
     0
  0
ENDTAB
  0
TABLE
  2
APPID
  5
9
330
0
100
AcDbSymbolTable
 70
     1
  0
APPID
  5
12
330
9
100
AcDbSymbolTableRecord
100
AcDbRegAppTableRecord
  2
ACAD
 70
     0
  0
ENDTAB
  0
TABLE
  2
DIMSTYLE
  5
A
330
0
100
AcDbSymbolTable
 70
     6
100
AcDbDimStyleTable
  0
DIMSTYLE
105
27
330
A
100
AcDbSymbolTableRecord
100
AcDbDimStyleTableRecord
  2
Standard
 70
     0
340
11
  0
DIMSTYLE
105
220
102
{ACAD_REACTORS
330
221
102
}
330
A
100
AcDbSymbolTableRecord
100
AcDbDimStyleTableRecord
  2
ME10_DIM_10
 70
     0
  3
Ø<>
 41
10.0
 42
0.0
 44
2.0
 73
     0
 74
     0
 77
     1
 78
     8
140
10.0
147
2.0
172
     1
173
     1
176
     4
177
     4
178
     1
271
     2
340
21C
  0
DIMSTYLE
105
22B
102
{ACAD_REACTORS
330
22C
102
}
330
A
100
AcDbSymbolTableRecord
100
AcDbDimStyleTableRecord
  2
ME10_DIM_11
 70
     0
  3
DN<>
 41
10.0
 42
0.0
 44
2.0
 73
     0
 74
     0
 77
     1
 78
     8
140
10.0
147
2.0
172
     1
173
     1
176
     4
177
     4
178
     1
271
     2
340
21C
  0
DIMSTYLE
105
236
102
{ACAD_REACTORS
330
237
102
}
330
A
100
AcDbSymbolTableRecord
100
AcDbDimStyleTableRecord
  2
ME10_DIM_12
 70
     0
  3
Ø<>
 41
10.0
 42
0.0
 44
2.0
 73
     0
 74
     0
 77
     1
 78
     8
140
10.0
147
2.0
172
     1
173
     1
176
     4
177
     4
178
     1
271
     0
340
21C
  0
DIMSTYLE
105
241
102
{ACAD_REACTORS
330
242
102
}
330
A
100
AcDbSymbolTableRecord
100
AcDbDimStyleTableRecord
  2
ME10_DIM_13
 70
     0
 41
10.0
 42
0.0
 44
2.0
 73
     0
 74
     0
 77
     1
 78
     8
140
10.0
147
2.0
172
     1
173
     1
176
     4
177
     4
178
     1
271
     0
340
21C
  0
DIMSTYLE
105
24C
102
{ACAD_REACTORS
330
24D
102
}
330
A
100
AcDbSymbolTableRecord
100
AcDbDimStyleTableRecord
  2
ME10_DIM_14
 70
     0
 41
10.0
 42
0.0
 44
2.0
 73
     0
 74
     0
 77
     1
 78
     8
140
10.0
147
2.0
172
     1
173
     1
176
     4
177
     4
178
     1
271
     2
340
21C
  0
ENDTAB
  0
TABLE
  2
BLOCK_RECORD
  5
1
330
0
100
AcDbSymbolTable
 70
     8
  0
BLOCK_RECORD
  5
1F
330
1
100
AcDbSymbolTableRecord
100
AcDbBlockTableRecord
  2
*Model_Space
340
22
  0
BLOCK_RECORD
  5
1B
330
1
100
AcDbSymbolTableRecord
100
AcDbBlockTableRecord
  2
*Paper_Space
340
1E
  0
BLOCK_RECORD
  5
23
330
1
100
AcDbSymbolTableRecord
100
AcDbBlockTableRecord
  2
*Paper_Space0
340
26
  0
BLOCK_RECORD
  5
44
330
1
100
AcDbSymbolTableRecord
100
AcDbBlockTableRecord
  2
HL62P_2
340
0
102
{BLKREFS
331
6A
102
}
  0
BLOCK_RECORD
  5
47
330
1
100
AcDbSymbolTableRecord
100
AcDbBlockTableRecord
  2
HL_62P_2_DN125_Dachablauf
340
0
102
{BLKREFS
331
6D
102
}
  0
BLOCK_RECORD
  5
216
330
1
100
AcDbSymbolTableRecord
100
AcDbBlockTableRecord
  2
*D3
340
0
  0
BLOCK_RECORD
  5
222
330
1
100
AcDbSymbolTableRecord
100
AcDbBlockTableRecord
  2
*D4
340
0
  0
BLOCK_RECORD
  5
22D
330
1
100
AcDbSymbolTableRecord
100
AcDbBlockTableRecord
  2
*D5
340
0
  0
BLOCK_RECORD
  5
238
330
1
100
AcDbSymbolTableRecord
100
AcDbBlockTableRecord
  2
*D6
340
0
  0
BLOCK_RECORD
  5
243
330
1
100
AcDbSymbolTableRecord
100
AcDbBlockTableRecord
  2
*D7
340
0
  0
ENDTAB
  0
ENDSEC
  0
SECTION
  2
BLOCKS
  0
BLOCK
  5
20
330
1F
100
AcDbEntity
  8
0
100
AcDbBlockBegin
  2
*Model_Space
 70
     0
 10
0.0
 20
0.0
 30
0.0
  3
*Model_Space
  1

  0
ENDBLK
  5
21
330
1F
100
AcDbEntity
  8
0
100
AcDbBlockEnd
  0
BLOCK
  5
1C
330
1B
100
AcDbEntity
 67
     1
  8
0
100
AcDbBlockBegin
  2
*Paper_Space
 70
     0
 10
0.0
 20
0.0
 30
0.0
  3
*Paper_Space
  1

  0
ENDBLK
  5
1D
330
1B
100
AcDbEntity
 67
     1
  8
0
100
AcDbBlockEnd
  0
BLOCK
  5
24
330
23
100
AcDbEntity
  8
0
100
AcDbBlockBegin
  2
*Paper_Space0
 70
     0
 10
0.0
 20
0.0
 30
0.0
  3
*Paper_Space0
  1

  0
ENDBLK
  5
25
330
23
100
AcDbEntity
  8
0
100
AcDbBlockEnd
  0
BLOCK
  5
45
330
44
100
AcDbEntity
  8
0
100
AcDbBlockBegin
  2
HL62P_2
 70
     0
 10
466.7910839455735
 20
109.0494048679173
 30
0.0
  3
HL62P_2
  1

  0
POINT
  5
6E
330
44
100
AcDbEntity
  8
0
 62
     7
100
AcDbPoint
 10
427.7089934669911
 20
4.99999976840002
 30
0.0
  0
POINT
  5
6F
330
44
100
AcDbEntity
  8
0
 62
     7
100
AcDbPoint
 10
552.7089934669909
 20
4.99999976840002
 30
0.0
  0
POINT
  5
70
330
44
100
AcDbEntity
  8
0
 62
     7
100
AcDbPoint
 10
410.108993466991
 20
74.00000176840001
 30
0.0
  0
POINT
  5
71
330
44
100
AcDbEntity
  8
0
 62
     7
100
AcDbPoint
 10
570.3089934669911
 20
74.00000176840001
 30
0.0
  0
POINT
  5
72
330
44
100
AcDbEntity
  8
0
 62
     7
100
AcDbPoint
 10
328.208993466991
 20
159.9999198817
 30
0.0
  0
POINT
  5
73
330
44
100
AcDbEntity
  8
0
 62
     7
100
AcDbPoint
 10
429.048739429191
 20
-0.00000023159998
 30
0.0
  0
POINT
  5
74
330
44
100
AcDbEntity
  8
0
 62
     7
100
AcDbPoint
 10
410.458996464591
 20
159.9999198817
 30
0.0
  0
POINT
  5
75
330
44
100
AcDbEntity
  8
0
 62
     7
100
AcDbPoint
 10
446.724197273391
 20
234.9999245028
 30
0.0
  0
POINT
  5
76
330
44
100
AcDbEntity
  8
0
 62
     7
100
AcDbPoint
 10
310.208993466991
 20
156.5003407684
 30
0.0
  0
POINT
  5
77
330
44
100
AcDbEntity
  8
0
 62
     7
100
AcDbPoint
 10
670.2089934669909
 20
156.5003407684
 30
0.0
  0
LWPOLYLINE
  5
78
330
44
100
AcDbEntity
  8
0
  6
Continuous
 62
     7
100
AcDbPolyline
 90
        2
 70
     0
 43
0.15
 10
546.408993905691
 20
199.2878317833
 10
538.6575756280911
 20
220.5846905708
  0
LWPOLYLINE
  5
79
330
44
100
AcDbEntity
  8
0
  6
Continuous
 62
     7
100
AcDbPolyline
 90
        2
 70
     0
 43
0.15
 10
538.6575756280911
 20
220.5846905708
 10
538.6575756280911
 20
220.1999276876
  0
LWPOLYLINE
  5
7A
330
44
100
AcDbEntity
  8
0
  6
Continuous
 62
     7
100
AcDbPolyline
 90
        2
 70
     0
 43
0.15
 10
538.6575756280911
 20
220.1999276876
 10
441.760411268391
 20
220.1999276876
  0
LWPOLYLINE
  5
7B
330
44
100
AcDbEntity
  8
0
  6
Continuous
 62
     7
100
AcDbPolyline
 90
        2
 70
     0
 43
0.15
 10
441.760411268391
 20
220.1999276876
 10
441.760411268391
 20
220.5846905708
  0
LWPOLYLINE
  5
7C
330
44
100
AcDbEntity
  8
0
  6
Continuous
 62
     7
100
AcDbPolyline
 90
        2
 70
     0
 43
0.15
 10
441.760411268391
 20
220.5846905708
 10
434.008991128191
 20
199.2878317833
  0
LWPOLYLINE
  5
7D
330
44
100
AcDbEntity
  8
0
  6
Continuous
 62
     7
100
AcDbPolyline
 90
        2
 70
     0
 43
0.15
 10
434.008991128191
 20
199.2878317833
 10
434.008991128191
 20
194.5999860763
  0
LWPOLYLINE
  5
7E
330
44
100
AcDbEntity
  8
0
  6
Continuous
 62
     7
100
AcDbPolyline
 90
        2
 70
     0
 43
0.15
 10
434.008991128191
 20
194.5999860763
 10
432.302756017391
 20
194.5999860763
  0
LWPOLYLINE
  5
7F
330
44
100
AcDbEntity
  8
0
  6
Continuous
 62
     7
100
AcDbPolyline
 90
        2
 70
     0
 43
0.15
 10
432.302756017391
 20
194.5999860763
 10
419.709367459991
 20
159.9999219179
  0
LWPOLYLINE
  5
80
330
44
100
AcDbEntity
  8
0
  6
Continuous
 62
     7
100
AcDbPolyline
 90
        2
 70
     0
 43
0.15
 10
419.709367459991
 20
159.9999219179
 10
419.708994930891
 20
159.9999219179
  0
LWPOLYLINE
  5
81
330
44
100
AcDbEntity
  8
0
  6
Continuous
 62
     7
100
AcDbPolyline
 90
        2
 70
     0
 43
0.15
 10
419.708994930891
 20
152.2999182343
 10
419.708994930891
 20
159.9999219179
  0
LWPOLYLINE
  5
82
330
44
100
AcDbEntity
  8
0
  6
Continuous
 62
     7
100
AcDbPolyline
 90
        2
 70
     0
 43
0.15
 10
419.208993917691
 20
130.9999190271
 10
419.208993917691
 20
152.2999182343
  0
LWPOLYLINE
  5
83
330
44
100
AcDbEntity
  8
0
  6
Continuous
 62
     7
100
AcDbPolyline
 90
        2
 70
     0
 43
0.15
 10
415.808995968091
 20
130.9999190271
 10
419.208993917691
 20
130.9999190271
  0
LWPOLYLINE
  5
84
330
44
100
AcDbEntity
  8
0
  6
Continuous
 62
     7
100
AcDbPolyline
 90
        2
 70
     0
 43
0.15
 10
415.808995968091
 20
132.9999193549
 10
416.308996981291
 20
132.9999193549
  0
LWPOLYLINE
  5
85
330
44
100
AcDbEntity
  8
0
  6
Continuous
 62
     7
100
AcDbPolyline
 90
        2
 70
     0
 43
0.15
 10
416.308996981291
 20
132.9999193549
 10
416.308996981291
 20
159.9999219179
  0
LWPOLYLINE
  5
86
330
44
100
AcDbEntity
  8
0
  6
Continuous
 62
     7
100
AcDbPolyline
 90
        2
 70
     0
 43
0.15
 10
416.308996981291
 20
159.9999219179
 10
407.816095060091
 20
159.9999219179
  0
LWPOLYLINE
  5
87
330
44
100
AcDbEntity
  8
0
  6
Continuous
 62
     7
100
AcDbPolyline
 90
        2
 70
     0
 43
0.15
 10
404.623528724891
 20
161.8242412805
 10
407.816095060091
 20
159.9999219179
  0
LWPOLYLINE
  5
88
330
44
100
AcDbEntity
  8
0
  6
Continuous
 62
     7
100
AcDbPolyline
 90
        2
 70
     0
 43
0.15
 10
427.665022915591
 20
225.1302301884
 10
404.623528724891
 20
161.8242412805
  0
LWPOLYLINE
  5
89
330
44
100
AcDbEntity
  8
0
  6
Continuous
 62
     7
100
AcDbPolyline
 90
        2
 70
     0
 43
0.15
 10
502.011257937491
 20
234.9999248981
 10
502.011257937491
 20
235.0999265909
  0
LWPOLYLINE
  5
8A
330
44
100
AcDbEntity
  8
0
  6
Continuous
 62
     7
100
AcDbPolyline
 90
        2
 70
     0
 43
0.15
 10
502.837311258891
 20
235.0999265909
 10
502.011257937491
 20
235.0999265909
  0
LWPOLYLINE
  5
8B
330
44
100
AcDbEntity
  8
0
  6
Continuous
 62
     7
100
AcDbPolyline
 90
        2
 70
     0
 43
0.15
 10
502.837311258891
 20
234.9999248981
 10
502.837311258891
 20
235.0999265909
  0
LWPOLYLINE
  5
8C
330
44
100
AcDbEntity
  8
0
  6
Continuous
 62
     7
100
AcDbPolyline
 90
        2
 70
     0
 43
0.15
 10
502.837311258891
 20
234.9999248981
 10
503.414934283391
 20
234.9999248981
  0
LWPOLYLINE
  5
8D
330
44
100
AcDbEntity
  8
0
  6
Continuous
 62
     7
100
AcDbPolyline
 90
        2
 70
     0
 43
0.15
 10
504.154035603991
 20
235.0999265909
 10
503.414934283391
 20
235.0999265909
  0
LWPOLYLINE
  5
8E
330
44
100
AcDbEntity
  8
0
  6
Continuous
 62
     7
100
AcDbPolyline
 90
        2
 70
     0
 43
0.15
 10
504.154035603991
 20
235.0999265909
 10
504.154035603991
 20
234.9999248981
  0
LWPOLYLINE
  5
8F
330
44
100
AcDbEntity
  8
0
  6
Continuous
 62
     7
100
AcDbPolyline
 90
        2
 70
     0
 43
0.15
 10
504.532899489991
 20
234.9999248981
 10
504.532899489991
 20
235.0999265909
  0
LWPOLYLINE
  5
90
330
44
100
AcDbEntity
  8
0
  6
Continuous
 62
     7
100
AcDbPolyline
 90
        2
 70
     0
 43
0.15
 10
506.880633315391
 20
235.0999265909
 10
504.532899489991
 20
235.0999265909
  0
LWPOLYLINE
  5
91
330
44
100
AcDbEntity
  8
0
  6
Continuous
 62
     7
100
AcDbPolyline
 90
        2
 70
     0
 43
0.15
 10
506.880633315391
 20
235.0999265909
 10
506.880633315391
 20
234.9999248981
  0
LWPOLYLINE
  5
92
330
44
100
AcDbEntity
  8
0
  6
Continuous
 62
     7
100
AcDbPolyline
 90
        2
 70
     0
 43
0.15
 10
507.315398907591
 20
234.9999248981
 10
507.315398907591
 20
235.0999265909
  0
LWPOLYLINE
  5
93
330
44
100
AcDbEntity
  8
0
  6
Continuous
 62
     7
100
AcDbPolyline
 90
        2
 70
     0
 43
0.15
 10
511.054384304491
 20
234.9999248981
 10
511.054384304491
 20
235.0999265909
  0
LWPOLYLINE
  5
94
330
44
100
AcDbEntity
  8
0
  6
Continuous
 62
     7
100
AcDbPolyline
 90
        2
 70
     0
 43
0.15
 10
511.836961625491
 20
235.0999265909
 10
511.054384304491
 20
235.0999265909
  0
LWPOLYLINE
  5
95
330
44
100
AcDbEntity
  8
0
  6
Continuous
 62
     7
100
AcDbPolyline
 90
        2
 70
     0
 43
0.15
 10
511.836961625491
 20
235.0999265909
 10
511.836961625491
 20
234.9999248981
  0
LWPOLYLINE
  5
96
330
44
100
AcDbEntity
  8
0
  6
Continuous
 62
     7
100
AcDbPolyline
 90
        2
 70
     0
 43
0.15
 10
512.402158012891
 20
234.9999248981
 10
512.402157081591
 20
235.0999265909
  0
LWPOLYLINE
  5
97
330
44
100
AcDbEntity
  8
0
  6
Continuous
 62
     7
100
AcDbPolyline
 90
        2
 70
     0
 43
0.15
 10
513.228212265591
 20
235.0999265909
 10
512.402157081591
 20
235.0999265909
  0
LWPOLYLINE
  5
98
330
44
100
AcDbEntity
  8
0
  6
Continuous
 62
     7
100
AcDbPolyline
 90
        2
 70
     0
 43
0.15
 10
513.228212265591
 20
235.0999265909
 10
513.228212265591
 20
234.9999248981
  0
LWPOLYLINE
  5
99
330
44
100
AcDbEntity
  8
0
  6
Continuous
 62
     7
100
AcDbPolyline
 90
        2
 70
     0
 43
0.15
 10
513.793407721791
 20
234.9999248981
 10
513.793407721791
 20
235.0999265909
  0
LWPOLYLINE
  5
9A
330
44
100
AcDbEntity
  8
0
  6
Continuous
 62
     7
100
AcDbPolyline
 90
        2
 70
     0
 43
0.15
 10
514.575985042691
 20
235.0999265909
 10
513.793407721791
 20
235.0999265909
  0
LWPOLYLINE
  5
9B
330
44
100
AcDbEntity
  8
0
  6
Continuous
 62
     7
100
AcDbPolyline
 90
        2
 70
     0
 43
0.15
 10
514.575985042691
 20
235.0999265909
 10
514.575985042691
 20
234.9999248981
  0
LWPOLYLINE
  5
9C
330
44
100
AcDbEntity
  8
0
  6
Continuous
 62
     7
100
AcDbPolyline
 90
        2
 70
     0
 43
0.15
 10
514.923798634091
 20
235.0999265909
 10
516.836768264291
 20
235.0999265909
  0
LWPOLYLINE
  5
9D
330
44
100
AcDbEntity
  8
0
  6
Continuous
 62
     7
100
AcDbPolyline
 90
        2
 70
     0
 43
0.15
 10
516.836768264291
 20
235.0999265909
 10
516.836768264291
 20
234.9999248981
  0
LWPOLYLINE
  5
9E
330
44
100
AcDbEntity
  8
0
  6
Continuous
 62
     7
100
AcDbPolyline
 90
        2
 70
     0
 43
0.15
 10
517.315008925591
 20
234.9999248981
 10
517.315008925591
 20
235.0999265909
  0
LWPOLYLINE
  5
9F
330
44
100
AcDbEntity
  8
0
  6
Continuous
 62
     7
100
AcDbPolyline
 90
        2
 70
     0
 43
0.15
 10
519.638075508491
 20
235.0999265909
 10
517.315008925591
 20
235.0999265909
  0
LWPOLYLINE
  5
A0
330
44
100
AcDbEntity
  8
0
  6
Continuous
 62
     7
100
AcDbPolyline
 90
        2
 70
     0
 43
0.15
 10
519.638075508491
 20
235.0999265909
 10
519.638075508491
 20
234.9999248981
  0
LWPOLYLINE
  5
A1
330
44
100
AcDbEntity
  8
0
  6
Continuous
 62
     7
100
AcDbPolyline
 90
        2
 70
     0
 43
0.15
 10
575.794460034291
 20
161.8242412805
 10
552.752963980991
 20
225.1302301884
  0
LWPOLYLINE
  5
A2
330
44
100
AcDbEntity
  8
0
  6
Continuous
 62
     7
100
AcDbPolyline
 90
        2
 70
     0
 43
0.15
 10
572.601889973791
 20
159.9999219179
 10
575.794460034291
 20
161.8242412805
  0
LWPOLYLINE
  5
A3
330
44
100
AcDbEntity
  8
0
  6
Continuous
 62
     7
100
AcDbPolyline
 90
        2
 70
     0
 43
0.15
 10
572.601889973791
 20
159.9999219179
 10
564.1089917777911
 20
159.9999219179
  0
LWPOLYLINE
  5
A4
330
44
100
AcDbEntity
  8
0
  6
Continuous
 62
     7
100
AcDbPolyline
 90
        2
 70
     0
 43
0.15
 10
564.1089917777911
 20
159.9999219179
 10
564.1089917777911
 20
132.9999193549
  0
LWPOLYLINE
  5
A5
330
44
100
AcDbEntity
  8
0
  6
Continuous
 62
     7
100
AcDbPolyline
 90
        2
 70
     0
 43
0.15
 10
564.1089917777911
 20
132.9999193549
 10
564.6089927910909
 20
132.9999193549
  0
LWPOLYLINE
  5
A6
330
44
100
AcDbEntity
  8
0
  6
Continuous
 62
     7
100
AcDbPolyline
 90
        2
 70
     0
 43
0.15
 10
561.208994841491
 20
130.9999190271
 10
564.6089927910909
 20
130.9999190271
  0
LWPOLYLINE
  5
A7
330
44
100
AcDbEntity
  8
0
  6
Continuous
 62
     7
100
AcDbPolyline
 90
        2
 70
     0
 43
0.15
 10
561.208994841491
 20
152.2999182343
 10
561.208994841491
 20
130.9999190271
  0
LWPOLYLINE
  5
A8
330
44
100
AcDbEntity
  8
0
  6
Continuous
 62
     7
100
AcDbPolyline
 90
        2
 70
     0
 43
0.15
 10
560.7089938281911
 20
159.9999219179
 10
560.7089938281911
 20
152.2999182343
  0
LWPOLYLINE
  5
A9
330
44
100
AcDbEntity
  8
0
  6
Continuous
 62
     7
100
AcDbPolyline
 90
        2
 70
     0
 43
0.15
 10
560.7089938281911
 20
159.9999219179
 10
560.708621299191
 20
159.9999219179
  0
LWPOLYLINE
  5
AA
330
44
100
AcDbEntity
  8
0
  6
Continuous
 62
     7
100
AcDbPolyline
 90
        2
 70
     0
 43
0.15
 10
560.708621299191
 20
159.9999219179
 10
548.1152308790911
 20
194.5999860763
  0
LWPOLYLINE
  5
AB
330
44
100
AcDbEntity
  8
0
  6
Continuous
 62
     7
100
AcDbPolyline
 90
        2
 70
     0
 43
0.15
 10
548.1152308790911
 20
194.5999860763
 10
546.408993905691
 20
194.5999860763
  0
LWPOLYLINE
  5
AC
330
44
100
AcDbEntity
  8
0
  6
Continuous
 62
     7
100
AcDbPolyline
 90
        2
 70
     0
 43
0.15
 10
546.408993905691
 20
194.5999860763
 10
546.408993905691
 20
199.2878317833
  0
LWPOLYLINE
  5
AD
330
44
100
AcDbEntity
  8
0
  6
Continuous
 62
     7
100
AcDbPolyline
 90
        2
 70
     0
 43
0.15
 10
509.184891140391
 20
235.0999265909
 10
509.967470323991
 20
235.0999265909
  0
LWPOLYLINE
  5
AE
330
44
100
AcDbEntity
  8
0
  6
Continuous
 62
     7
100
AcDbPolyline
 90
        2
 70
     0
 43
0.15
 10
509.967470323991
 20
235.0999265909
 10
509.967470323991
 20
234.9999248981
  0
LWPOLYLINE
  5
AF
330
44
100
AcDbEntity
  8
0
  6
Continuous
 62
     7
100
AcDbPolyline
 90
        2
 70
     0
 43
0.15
 10
509.184891140391
 20
234.9999248981
 10
509.184891140391
 20
235.0999265909
  0
LWPOLYLINE
  5
B0
330
44
100
AcDbEntity
  8
0
  6
Continuous
 62
     7
100
AcDbPolyline
 90
        2
 70
     0
 43
0.15
 10
560.7089938281911
 20
152.2999182343
 10
561.208994841491
 20
152.2999182343
  0
LWPOLYLINE
  5
B1
330
44
100
AcDbEntity
  8
0
  6
Continuous
 62
     7
100
AcDbPolyline
 90
        2
 70
     0
 43
0.15
 10
419.208993917691
 20
152.2999182343
 10
419.708994930891
 20
152.2999182343
  0
LWPOLYLINE
  5
B2
330
44
100
AcDbEntity
  8
0
  6
Continuous
 62
     7
100
AcDbPolyline
 90
        2
 70
     0
 43
0.15
 10
507.315398907591
 20
235.0999265909
 10
508.097977159891
 20
235.0999265909
  0
LWPOLYLINE
  5
B3
330
44
100
AcDbEntity
  8
0
  6
Continuous
 62
     7
100
AcDbPolyline
 90
        2
 70
     0
 43
0.15
 10
508.097977159891
 20
235.0999265909
 10
508.097977159891
 20
234.9999248981
  0
LWPOLYLINE
  5
B4
330
44
100
AcDbEntity
  8
0
  6
Continuous
 62
     7
100
AcDbPolyline
 90
        2
 70
     0
 43
0.15
 10
514.923798634091
 20
234.9999248981
 10
514.923798634091
 20
235.0999265909
  0
LWPOLYLINE
  5
B5
330
44
100
AcDbEntity
  8
0
  6
Continuous
 62
     7
100
AcDbPolyline
 90
        2
 70
     0
 43
0.15
 10
503.414934283391
 20
235.0999265909
 10
503.414934283391
 20
234.9999248981
  0
LWPOLYLINE
  5
B6
330
44
100
AcDbEntity
  8
0
  6
Continuous
 62
     7
100
AcDbPolyline
 90
        2
 70
     0
 43
0.15
 10
511.836961625491
 20
234.9999248981
 10
512.402158012891
 20
234.9999248981
  0
LWPOLYLINE
  5
B7
330
44
100
AcDbEntity
  8
0
  6
Continuous
 62
     7
100
AcDbPolyline
 90
        2
 70
     0
 43
0.15
 10
519.638075508491
 20
234.9999248981
 10
538.6575756280911
 20
234.9999248981
  0
LWPOLYLINE
  5
B8
330
44
100
AcDbEntity
  8
0
  6
Continuous
 62
     7
100
AcDbPolyline
 90
        2
 70
     0
 43
0.15
 10
516.836768264291
 20
234.9999248981
 10
517.315008925591
 20
234.9999248981
  0
LWPOLYLINE
  5
B9
330
44
100
AcDbEntity
  8
0
  6
Continuous
 62
     7
100
AcDbPolyline
 90
        2
 70
     0
 43
0.15
 10
514.575985042691
 20
234.9999248981
 10
514.923798634091
 20
234.9999248981
  0
LWPOLYLINE
  5
BA
330
44
100
AcDbEntity
  8
0
  6
Continuous
 62
     7
100
AcDbPolyline
 90
        2
 70
     0
 43
0.15
 10
509.967470323991
 20
234.9999248981
 10
511.054384304491
 20
234.9999248981
  0
LWPOLYLINE
  5
BB
330
44
100
AcDbEntity
  8
0
  6
Continuous
 62
     7
100
AcDbPolyline
 90
        2
 70
     0
 43
0.15
 10
508.097977159891
 20
234.9999248981
 10
509.184891140391
 20
234.9999248981
  0
LWPOLYLINE
  5
BC
330
44
100
AcDbEntity
  8
0
  6
Continuous
 62
     7
100
AcDbPolyline
 90
        2
 70
     0
 43
0.15
 10
506.880633315391
 20
234.9999248981
 10
507.315398907591
 20
234.9999248981
  0
LWPOLYLINE
  5
BD
330
44
100
AcDbEntity
  8
0
  6
Continuous
 62
     7
100
AcDbPolyline
 90
        2
 70
     0
 43
0.15
 10
504.154035603991
 20
234.9999248981
 10
504.532899489991
 20
234.9999248981
  0
LWPOLYLINE
  5
BE
330
44
100
AcDbEntity
  8
0
  6
Continuous
 62
     7
100
AcDbPolyline
 90
        2
 70
     0
 43
0.15
 10
441.760411268391
 20
234.9999248981
 10
502.011257937491
 20
234.9999248981
  0
LWPOLYLINE
  5
BF
330
44
100
AcDbEntity
  8
0
  6
Continuous
 62
     7
100
AcDbPolyline
 90
        2
 70
     0
 43
0.15
 10
513.228212265591
 20
234.9999248981
 10
513.793407721791
 20
234.9999248981
  0
LWPOLYLINE
  5
C0
330
44
100
AcDbEntity
  8
0
  6
Continuous
 62
     7
100
AcDbPolyline
 90
        2
 70
     0
 43
0.15
 10
420.196441715891
 20
151.2999162078
 10
420.196441715891
 20
130.9999190271
  0
LWPOLYLINE
  5
C1
330
44
100
AcDbEntity
  8
0
  6
Continuous
 62
     7
100
AcDbPolyline
 90
        2
 70
     0
 43
0.15
 10
419.208993917691
 20
130.9999190271
 10
420.196441715891
 20
130.9999190271
  0
LWPOLYLINE
  5
C2
330
44
100
AcDbEntity
  8
0
  6
Continuous
 62
     7
100
AcDbPolyline
 90
        2
 70
     0
 43
0.15
 10
560.221565669691
 20
130.9999190271
 10
561.208994841491
 20
130.9999190271
  0
LWPOLYLINE
  5
C3
330
44
100
AcDbEntity
  8
0
  6
Continuous
 62
     7
100
AcDbPolyline
 90
        2
 70
     0
 43
0.15
 10
560.221565669691
 20
130.9999190271
 10
560.221565669691
 20
151.2999162078
  0
LWPOLYLINE
  5
C4
330
44
100
AcDbEntity
  8
0
  6
Continuous
 62
     7
100
AcDbPolyline
 90
        2
 70
     0
 43
0.15
 10
512.402157081591
 20
235.0999265909
 10
512.402157081591
 20
234.9999248981
  0
LWPOLYLINE
  5
C5
330
44
100
AcDbEntity
  8
0
  6
Continuous
 62
     7
100
AcDbPolyline
 90
        2
 70
     0
 43
0.15
 10
419.709367459991
 20
159.9999219179
 10
422.052321737991
 20
159.9999219179
  0
LWPOLYLINE
  5
C6
330
44
100
AcDbEntity
  8
0
  6
Continuous
 62
     7
100
AcDbPolyline
 90
        2
 70
     0
 43
0.15
 10
422.170838123491
 20
159.9999219179
 10
429.040049916491
 20
159.9999219179
  0
LWPOLYLINE
  5
C7
330
44
100
AcDbEntity
  8
0
  6
Continuous
 62
     7
100
AcDbPolyline
 90
        2
 70
     0
 43
0.15
 10
429.268998807591
 20
159.9999219179
 10
440.196333235491
 20
159.9999219179
  0
LWPOLYLINE
  5
C8
330
44
100
AcDbEntity
  8
0
  6
Continuous
 62
     7
100
AcDbPolyline
 90
        2
 70
     0
 43
0.15
 10
440.520120566991
 20
159.9999219179
 10
454.760899549691
 20
159.9999219179
  0
LWPOLYLINE
  5
C9
330
44
100
AcDbEntity
  8
0
  6
Continuous
 62
     7
100
AcDbPolyline
 90
        2
 70
     0
 43
0.15
 10
455.157456701891
 20
159.9999219179
 10
471.741193687891
 20
159.9999219179
  0
LWPOLYLINE
  5
CA
330
44
100
AcDbEntity
  8
0
  6
Continuous
 62
     7
100
AcDbPolyline
 90
        2
 70
     0
 43
0.15
 10
472.183497404991
 20
159.9999219179
 10
489.980039900491
 20
159.9999219179
  0
LWPOLYLINE
  5
CB
330
44
100
AcDbEntity
  8
0
  6
Continuous
 62
     7
100
AcDbPolyline
 90
        2
 70
     0
 43
0.15
 10
490.437945133391
 20
159.9999219179
 10
508.234487628891
 20
159.9999219179
  0
LWPOLYLINE
  5
CC
330
44
100
AcDbEntity
  8
0
  6
Continuous
 62
     7
100
AcDbPolyline
 90
        2
 70
     0
 43
0.15
 10
508.676792277291
 20
159.9999219179
 10
525.2605280990911
 20
159.9999219179
  0
LWPOLYLINE
  5
CD
330
44
100
AcDbEntity
  8
0
  6
Continuous
 62
     7
100
AcDbPolyline
 90
        2
 70
     0
 43
0.15
 10
525.657087113991
 20
159.9999219179
 10
539.897864466891
 20
159.9999219179
  0
LWPOLYLINE
  5
CE
330
44
100
AcDbEntity
  8
0
  6
Continuous
 62
     7
100
AcDbPolyline
 90
        2
 70
     0
 43
0.15
 10
540.2216536610911
 20
159.9999219179
 10
551.1489862262911
 20
159.9999219179
  0
LWPOLYLINE
  5
CF
330
44
100
AcDbEntity
  8
0
  6
Continuous
 62
     7
100
AcDbPolyline
 90
        2
 70
     0
 43
0.15
 10
551.377938842691
 20
159.9999219179
 10
558.2471469103909
 20
159.9999219179
  0
LWPOLYLINE
  5
D0
330
44
100
AcDbEntity
  8
0
  6
Continuous
 62
     7
100
AcDbPolyline
 90
        2
 70
     0
 43
0.15
 10
558.365663295891
 20
159.9999219179
 10
560.708621299191
 20
159.9999219179
  0
LWPOLYLINE
  5
D1
330
44
100
AcDbEntity
  8
0
  6
Continuous
 62
     7
100
AcDbPolyline
 90
        2
 70
     0
 43
0.15
 10
419.708994930891
 20
152.2999182343
 10
560.7089938281911
 20
152.2999182343
  0
LWPOLYLINE
  5
D2
330
44
100
AcDbEntity
  8
0
  6
Continuous
 62
     7
100
AcDbPolyline
 90
        2
 70
     0
 43
0.15
 10
519.662744846491
 20
235.0999265909
 10
519.662744846491
 20
234.9999248981
  0
LWPOLYLINE
  5
D3
330
44
100
AcDbEntity
  8
0
  6
Continuous
 62
     7
100
AcDbPolyline
 90
        2
 70
     0
 43
0.15
 10
519.638075508491
 20
235.0999265909
 10
519.662744846491
 20
235.0999265909
  0
LWPOLYLINE
  5
D4
330
44
100
AcDbEntity
  8
0
  6
Continuous
 62
     7
100
AcDbPolyline
 90
        2
 70
     0
 43
0.15
 10
435.637688046591
 20
199.9066919088
 10
434.234237080791
 20
199.9066919088
  0
LWPOLYLINE
  5
D5
330
44
100
AcDbEntity
  8
0
  6
Continuous
 62
     7
100
AcDbPolyline
 90
        2
 70
     0
 43
0.15
 10
435.637688046591
 20
199.9066919088
 10
435.637688046591
 20
199.3201673031
  0
LWPOLYLINE
  5
D6
330
44
100
AcDbEntity
  8
0
  6
Continuous
 62
     7
100
AcDbPolyline
 90
        2
 70
     0
 43
0.15
 10
440.973555451591
 20
199.9066919088
 10
436.439176803791
 20
199.9066919088
  0
LWPOLYLINE
  5
D7
330
44
100
AcDbEntity
  8
0
  6
Continuous
 62
     7
100
AcDbPolyline
 90
        2
 70
     0
 43
0.15
 10
440.973555451591
 20
199.9066919088
 10
440.973555451591
 20
199.3201673031
  0
LWPOLYLINE
  5
D8
330
44
100
AcDbEntity
  8
0
  6
Continuous
 62
     7
100
AcDbPolyline
 90
        2
 70
     0
 43
0.15
 10
449.664739674291
 20
199.9066919088
 10
442.308431273691
 20
199.9066919088
  0
LWPOLYLINE
  5
D9
330
44
100
AcDbEntity
  8
0
  6
Continuous
 62
     7
100
AcDbPolyline
 90
        2
 70
     0
 43
0.15
 10
449.664739674291
 20
199.9066919088
 10
449.664739674291
 20
199.3201673031
  0
LWPOLYLINE
  5
DA
330
44
100
AcDbEntity
  8
0
  6
Continuous
 62
     7
100
AcDbPolyline
 90
        2
 70
     0
 43
0.15
 10
461.118949359591
 20
199.9066919088
 10
451.442038422791
 20
199.9066919088
  0
LWPOLYLINE
  5
DB
330
44
100
AcDbEntity
  8
0
  6
Continuous
 62
     7
100
AcDbPolyline
 90
        2
 70
     0
 43
0.15
 10
461.118949359591
 20
199.9066919088
 10
461.118949359591
 20
199.3201673031
  0
LWPOLYLINE
  5
DC
330
44
100
AcDbEntity
  8
0
  6
Continuous
 62
     7
100
AcDbPolyline
 90
        2
 70
     0
 43
0.15
 10
474.555594628991
 20
199.9066919088
 10
463.110806202791
 20
199.9066919088
  0
LWPOLYLINE
  5
DD
330
44
100
AcDbEntity
  8
0
  6
Continuous
 62
     7
100
AcDbPolyline
 90
        2
 70
     0
 43
0.15
 10
474.555594628991
 20
199.9066919088
 10
474.555594628991
 20
199.3201673031
  0
LWPOLYLINE
  5
DE
330
44
100
AcDbEntity
  8
0
  6
Continuous
 62
     7
100
AcDbPolyline
 90
        2
 70
     0
 43
0.15
 10
489.058991676491
 20
199.9066919088
 10
476.777223652591
 20
199.9066919088
  0
LWPOLYLINE
  5
DF
330
44
100
AcDbEntity
  8
0
  6
Continuous
 62
     7
100
AcDbPolyline
 90
        2
 70
     0
 43
0.15
 10
503.6407632439911
 20
199.9066919088
 10
491.358993357391
 20
199.9066919088
  0
LWPOLYLINE
  5
E0
330
44
100
AcDbEntity
  8
0
  6
Continuous
 62
     7
100
AcDbPolyline
 90
        2
 70
     0
 43
0.15
 10
505.862392267491
 20
199.9066919088
 10
505.862392267491
 20
199.3201673031
  0
LWPOLYLINE
  5
E1
330
44
100
AcDbEntity
  8
0
  6
Continuous
 62
     7
100
AcDbPolyline
 90
        2
 70
     0
 43
0.15
 10
517.307180693691
 20
199.9066919088
 10
505.862392267491
 20
199.9066919088
  0
LWPOLYLINE
  5
E2
330
44
100
AcDbEntity
  8
0
  6
Continuous
 62
     7
100
AcDbPolyline
 90
        2
 70
     0
 43
0.15
 10
519.299039166691
 20
199.9066919088
 10
519.299039166691
 20
199.3201673031
  0
LWPOLYLINE
  5
E3
330
44
100
AcDbEntity
  8
0
  6
Continuous
 62
     7
100
AcDbPolyline
 90
        2
 70
     0
 43
0.15
 10
528.975948473791
 20
199.9066919088
 10
519.299039166691
 20
199.9066919088
  0
LWPOLYLINE
  5
E4
330
44
100
AcDbEntity
  8
0
  6
Continuous
 62
     7
100
AcDbPolyline
 90
        2
 70
     0
 43
0.15
 10
530.753246290891
 20
199.9066919088
 10
530.753246290891
 20
199.3201673031
  0
LWPOLYLINE
  5
E5
330
44
100
AcDbEntity
  8
0
  6
Continuous
 62
     7
100
AcDbPolyline
 90
        2
 70
     0
 43
0.15
 10
538.109551897591
 20
199.9066919088
 10
530.753246290891
 20
199.9066919088
  0
LWPOLYLINE
  5
E6
330
44
100
AcDbEntity
  8
0
  6
Continuous
 62
     7
100
AcDbPolyline
 90
        2
 70
     0
 43
0.15
 10
539.444429582291
 20
199.9066919088
 10
539.444429582291
 20
199.3201673031
  0
LWPOLYLINE
  5
E7
330
44
100
AcDbEntity
  8
0
  6
Continuous
 62
     7
100
AcDbPolyline
 90
        2
 70
     0
 43
0.15
 10
543.9788119553909
 20
199.9066919088
 10
539.444429582291
 20
199.9066919088
  0
LWPOLYLINE
  5
E8
330
44
100
AcDbEntity
  8
0
  6
Continuous
 62
     7
100
AcDbPolyline
 90
        2
 70
     0
 43
0.15
 10
544.780300712491
 20
199.9066919088
 10
544.780300712491
 20
199.3201673031
  0
LWPOLYLINE
  5
E9
330
44
100
AcDbEntity
  8
0
  6
Continuous
 62
     7
100
AcDbPolyline
 90
        2
 70
     0
 43
0.15
 10
546.183747953091
 20
199.9066919088
 10
544.780300712491
 20
199.9066919088
  0
LWPOLYLINE
  5
EA
330
44
100
AcDbEntity
  8
0
  6
Continuous
 62
     7
100
AcDbPolyline
 90
        2
 70
     0
 43
0.15
 10
546.408993905691
 20
194.5999860763
 10
434.008991128191
 20
194.5999860763
  0
LWPOLYLINE
  5
EB
330
44
100
AcDbEntity
  8
0
  6
Continuous
 62
     7
100
AcDbPolyline
 90
        2
 70
     0
 43
0.15
 10
503.284504419491
 20
235.0999265909
 10
503.284504419491
 20
234.9999248981
  0
LWPOLYLINE
  5
EC
330
44
100
AcDbEntity
  8
0
  6
Continuous
 62
     7
100
AcDbPolyline
 90
        2
 70
     0
 43
0.15
 10
503.414934283391
 20
235.0999265909
 10
503.284504419491
 20
235.0999265909
  0
LWPOLYLINE
  5
ED
330
44
100
AcDbEntity
  8
0
  6
Continuous
 62
     7
100
AcDbPolyline
 90
        2
 70
     0
 43
0.15
 10
513.315165197791
 20
235.0999265909
 10
513.315165197791
 20
234.9999248981
  0
LWPOLYLINE
  5
EE
330
44
100
AcDbEntity
  8
0
  6
Continuous
 62
     7
100
AcDbPolyline
 90
        2
 70
     0
 43
0.15
 10
513.228212265591
 20
235.0999265909
 10
513.315165197791
 20
235.0999265909
  0
LWPOLYLINE
  5
EF
330
44
100
AcDbEntity
  8
0
  6
Continuous
 62
     7
100
AcDbPolyline
 90
        2
 70
     0
 43
0.15
 10
512.315204149391
 20
235.0999265909
 10
512.315204149391
 20
234.9999248981
  0
LWPOLYLINE
  5
F0
330
44
100
AcDbEntity
  8
0
  6
Continuous
 62
     7
100
AcDbPolyline
 90
        2
 70
     0
 43
0.15
 10
512.315204149391
 20
235.0999265909
 10
512.402157081591
 20
235.0999265909
  0
LWPOLYLINE
  5
F1
330
44
100
AcDbEntity
  8
0
  6
Continuous
 62
     7
100
AcDbPolyline
 90
        2
 70
     0
 43
0.15
 10
511.923915488991
 20
235.0999265909
 10
511.923915488991
 20
234.9999248981
  0
LWPOLYLINE
  5
F2
330
44
100
AcDbEntity
  8
0
  6
Continuous
 62
     7
100
AcDbPolyline
 90
        2
 70
     0
 43
0.15
 10
511.836961625491
 20
235.0999265909
 10
511.923915488991
 20
235.0999265909
  0
LWPOLYLINE
  5
F3
330
44
100
AcDbEntity
  8
0
  6
Continuous
 62
     7
100
AcDbPolyline
 90
        2
 70
     0
 43
0.15
 10
513.706454789591
 20
235.0999265909
 10
513.706454789591
 20
234.9999248981
  0
LWPOLYLINE
  5
F4
330
44
100
AcDbEntity
  8
0
  6
Continuous
 62
     7
100
AcDbPolyline
 90
        2
 70
     0
 43
0.15
 10
513.706454789591
 20
235.0999265909
 10
513.793407721791
 20
235.0999265909
  0
LWPOLYLINE
  5
F5
330
44
100
AcDbEntity
  8
0
  6
Continuous
 62
     7
100
AcDbPolyline
 90
        2
 70
     0
 43
0.15
 10
503.284504419491
 20
235.0999265909
 10
502.837311258891
 20
235.0999265909
  0
LWPOLYLINE
  5
F6
330
44
100
AcDbEntity
  8
0
  6
Continuous
 62
     7
100
AcDbPolyline
 90
        2
 70
     0
 43
0.15
 10
511.923915488991
 20
235.0999265909
 10
512.315204149391
 20
235.0999265909
  0
LWPOLYLINE
  5
F7
330
44
100
AcDbEntity
  8
0
  6
Continuous
 62
     7
100
AcDbPolyline
 90
        2
 70
     0
 43
0.15
 10
513.315165197791
 20
235.0999265909
 10
513.706454789591
 20
235.0999265909
  0
LWPOLYLINE
  5
F8
330
44
100
AcDbEntity
  8
0
  6
Continuous
 62
     7
100
AcDbPolyline
 90
        2
 70
     0
 43
0.15
 10
530.753246290891
 20
199.3201673031
 10
525.379510378791
 20
220.1999276876
  0
LWPOLYLINE
  5
F9
330
44
100
AcDbEntity
  8
0
  6
Continuous
 62
     7
100
AcDbPolyline
 90
        2
 70
     0
 43
0.15
 10
549.282742446591
 20
159.9999219179
 10
550.4030825256909
 20
160.9052941203
  0
LWPOLYLINE
  5
FA
330
44
100
AcDbEntity
  8
0
  6
Continuous
 62
     7
100
AcDbPolyline
 90
        2
 70
     0
 43
0.15
 10
540.872931262791
 20
159.9999219179
 10
531.968058800591
 20
194.5999860763
  0
LWPOLYLINE
  5
FB
330
44
100
AcDbEntity
  8
0
  6
Continuous
 62
     7
100
AcDbPolyline
 90
        2
 70
     0
 43
0.15
 10
431.135242587291
 20
159.9999219179
 10
430.0149062334911
 20
160.9052941203
  0
LWPOLYLINE
  5
FC
330
44
100
AcDbEntity
  8
0
  6
Continuous
 62
     7
100
AcDbPolyline
 90
        2
 70
     0
 43
0.15
 10
449.664739674291
 20
199.3201673031
 10
455.038478380391
 20
220.1999276876
  0
LWPOLYLINE
  5
FD
330
44
100
AcDbEntity
  8
0
  6
Continuous
 62
     7
100
AcDbPolyline
 90
        2
 70
     0
 43
0.15
 10
439.5450556336911
 20
159.9999219179
 10
448.449929958491
 20
194.5999860763
  0
LWPOLYLINE
  5
FE
330
44
100
AcDbEntity
  8
0
  6
Continuous
 62
     7
100
AcDbPolyline
 90
        2
 70
     0
 43
0.15
 10
416.308996981291
 20
143.2999223471
 10
414.190916126891
 20
143.2999223471
  0
LWPOLYLINE
  5
FF
330
44
100
AcDbEntity
  8
0
  6
Continuous
 62
     7
100
AcDbPolyline
 90
        2
 70
     0
 43
0.15
 10
414.190916126891
 20
143.2999223471
 10
414.190916126891
 20
159.9999219179
  0
LWPOLYLINE
  5
100
330
44
100
AcDbEntity
  8
0
  6
Continuous
 62
     7
100
AcDbPolyline
 90
        2
 70
     0
 43
0.15
 10
435.637688046591
 20
199.3201673031
 10
442.978350227991
 20
220.1999276876
  0
LWPOLYLINE
  5
101
330
44
100
AcDbEntity
  8
0
  6
Continuous
 62
     7
100
AcDbPolyline
 90
        2
 70
     0
 43
0.15
 10
421.813940411791
 20
159.9999219179
 10
433.978220230291
 20
194.5999860763
  0
LWPOLYLINE
  5
102
330
44
100
AcDbEntity
  8
0
  6
Continuous
 62
     7
100
AcDbPolyline
 90
        2
 70
     0
 43
0.15
 10
544.780300712491
 20
199.3201673031
 10
537.439640393791
 20
220.1999276876
  0
LWPOLYLINE
  5
103
330
44
100
AcDbEntity
  8
0
  6
Continuous
 62
     7
100
AcDbPolyline
 90
        2
 70
     0
 43
0.15
 10
566.2270726322911
 20
143.2999223471
 10
566.2270726322911
 20
159.9999219179
  0
LWPOLYLINE
  5
104
330
44
100
AcDbEntity
  8
0
  6
Continuous
 62
     7
100
AcDbPolyline
 90
        2
 70
     0
 43
0.15
 10
566.2270726322911
 20
143.2999223471
 10
564.1089917777911
 20
143.2999223471
  0
LWPOLYLINE
  5
105
330
44
100
AcDbEntity
  8
0
  6
Continuous
 62
     7
100
AcDbPolyline
 90
        2
 70
     0
 43
0.15
 10
558.604048347391
 20
159.9999219179
 10
546.4397648035911
 20
194.5999860763
  0
LWPOLYLINE
  5
106
330
44
100
AcDbEntity
  8
0
  6
Continuous
 62
     7
100
AcDbPolyline
 90
        2
 70
     0
 43
0.15
 10
544.1850160865911
 20
199.3201673031
 10
536.8443566991909
 20
220.1999276876
  0
LWPOLYLINE
  5
107
330
44
100
AcDbEntity
  8
0
  6
Continuous
 62
     7
100
AcDbPolyline
 90
        2
 70
     0
 43
0.15
 10
436.232967084591
 20
199.3201673031
 10
443.573629265991
 20
220.1999276876
  0
LWPOLYLINE
  5
108
330
44
100
AcDbEntity
  8
0
  6
Continuous
 62
     7
100
AcDbPolyline
 90
        2
 70
     0
 43
0.15
 10
476.409012234191
 20
151.2999162078
 10
476.409012234191
 20
143.2999223471
  0
LWPOLYLINE
  5
109
330
44
100
AcDbEntity
  8
0
  6
Continuous
 62
     7
100
AcDbPolyline
 90
        2
 70
     0
 43
0.15
 10
420.563047534191
 20
143.2999223471
 10
476.409012234191
 20
143.2999223471
  0
LWPOLYLINE
  5
10A
330
44
100
AcDbEntity
  8
0
  6
Continuous
 62
     7
100
AcDbPolyline
 90
        2
 70
     0
 43
0.15
 10
420.563047534191
 20
143.2999223471
 10
420.563047534191
 20
151.2999162078
  0
LWPOLYLINE
  5
10B
330
44
100
AcDbEntity
  8
0
  6
Continuous
 62
     7
100
AcDbPolyline
 90
        2
 70
     0
 43
0.15
 10
559.854959851491
 20
151.2999162078
 10
559.854959851491
 20
143.2999223471
  0
LWPOLYLINE
  5
10C
330
44
100
AcDbEntity
  8
0
  6
Continuous
 62
     7
100
AcDbPolyline
 90
        2
 70
     0
 43
0.15
 10
504.009090146391
 20
143.2999223471
 10
559.854959851491
 20
143.2999223471
  0
LWPOLYLINE
  5
10D
330
44
100
AcDbEntity
  8
0
  6
Continuous
 62
     7
100
AcDbPolyline
 90
        2
 70
     0
 43
0.15
 10
504.009090146391
 20
143.2999223471
 10
504.009090146391
 20
151.2999162078
  0
LWPOLYLINE
  5
10E
330
44
100
AcDbEntity
  8
0
  6
Continuous
 62
     7
100
AcDbPolyline
 90
        2
 70
     0
 43
0.15
 10
559.854959851491
 20
143.2999223471
 10
560.221565669691
 20
143.2999223471
  0
LWPOLYLINE
  5
10F
330
44
100
AcDbEntity
  8
0
  6
Continuous
 62
     7
100
AcDbPolyline
 90
        2
 70
     0
 43
0.15
 10
420.196441715891
 20
143.2999223471
 10
420.563047534191
 20
143.2999223471
  0
LWPOLYLINE
  5
110
330
44
100
AcDbEntity
  8
0
  6
Continuous
 62
     7
100
AcDbPolyline
 90
        2
 70
     0
 43
0.15
 10
558.2471469103909
 20
159.9999219179
 10
558.365663295891
 20
159.9999219179
  0
LWPOLYLINE
  5
111
330
44
100
AcDbEntity
  8
0
  6
Continuous
 62
     7
100
AcDbPolyline
 90
        2
 70
     0
 43
0.15
 10
558.008761858891
 20
159.9999219179
 10
545.844480177691
 20
194.5999860763
  0
LWPOLYLINE
  5
112
330
44
100
AcDbEntity
  8
0
  6
Continuous
 62
     7
100
AcDbPolyline
 90
        2
 70
     0
 43
0.15
 10
422.052321737991
 20
159.9999219179
 10
422.170838123491
 20
159.9999219179
  0
LWPOLYLINE
  5
113
330
44
100
AcDbEntity
  8
0
  6
Continuous
 62
     7
100
AcDbPolyline
 90
        2
 70
     0
 43
0.15
 10
422.409226900291
 20
159.9999219179
 10
434.573506718791
 20
194.5999860763
  0
LWPOLYLINE
  5
114
330
44
100
AcDbEntity
  8
0
  6
Continuous
 62
     7
100
AcDbPolyline
 90
        2
 70
     0
 43
0.15
 10
539.444429582291
 20
199.3201673031
 10
532.862975044491
 20
220.1999276876
  0
LWPOLYLINE
  5
115
330
44
100
AcDbEntity
  8
0
  6
Continuous
 62
     7
100
AcDbPolyline
 90
        2
 70
     0
 43
0.15
 10
551.8384629546911
 20
159.9999219179
 10
540.932265823991
 20
194.5999860763
  0
LWPOLYLINE
  5
116
330
44
100
AcDbEntity
  8
0
  6
Continuous
 62
     7
100
AcDbPolyline
 90
        2
 70
     0
 43
0.15
 10
440.973555451591
 20
199.3201673031
 10
447.555010920691
 20
220.1999276876
  0
LWPOLYLINE
  5
117
330
44
100
AcDbEntity
  8
0
  6
Continuous
 62
     7
100
AcDbPolyline
 90
        2
 70
     0
 43
0.15
 10
428.579522079191
 20
159.9999219179
 10
439.485719209891
 20
194.5999860763
  0
LWPOLYLINE
  5
118
330
44
100
AcDbEntity
  8
0
  6
Continuous
 62
     7
100
AcDbPolyline
 90
        2
 70
     0
 43
0.15
 10
538.294430604491
 20
199.3201673031
 10
531.712974204091
 20
220.1999276876
  0
LWPOLYLINE
  5
119
330
44
100
AcDbEntity
  8
0
  6
Continuous
 62
     7
100
AcDbPolyline
 90
        2
 70
     0
 43
0.15
 10
442.123560017291
 20
199.3201673031
 10
448.705015486391
 20
220.1999276876
  0
LWPOLYLINE
  5
11A
330
44
100
AcDbEntity
  8
0
  6
Continuous
 62
     7
100
AcDbPolyline
 90
        2
 70
     0
 43
0.15
 10
551.1489862262911
 20
159.9999219179
 10
551.377938842691
 20
159.9999219179
  0
LWPOLYLINE
  5
11B
330
44
100
AcDbEntity
  8
0
  6
Continuous
 62
     7
100
AcDbPolyline
 90
        2
 70
     0
 43
0.15
 10
550.688462114291
 20
159.9999219179
 10
539.782264983591
 20
194.5999860763
  0
LWPOLYLINE
  5
11C
330
44
100
AcDbEntity
  8
0
  6
Continuous
 62
     7
100
AcDbPolyline
 90
        2
 70
     0
 43
0.15
 10
429.040049916491
 20
159.9999219179
 10
429.268998807591
 20
159.9999219179
  0
LWPOLYLINE
  5
11D
330
44
100
AcDbEntity
  8
0
  6
Continuous
 62
     7
100
AcDbPolyline
 90
        2
 70
     0
 43
0.15
 10
429.729526644891
 20
159.9999219179
 10
440.635723775591
 20
194.5999860763
  0
LWPOLYLINE
  5
11E
330
44
100
AcDbEntity
  8
0
  6
Continuous
 62
     7
100
AcDbPolyline
 90
        2
 70
     0
 43
0.15
 10
529.126900961891
 20
199.3201673031
 10
523.753164933391
 20
220.1999276876
  0
LWPOLYLINE
  5
11F
330
44
100
AcDbEntity
  8
0
  6
Continuous
 62
     7
100
AcDbPolyline
 90
        2
 70
     0
 43
0.15
 10
451.291082209291
 20
199.3201673031
 10
456.664820915391
 20
220.1999276876
  0
LWPOLYLINE
  5
120
330
44
100
AcDbEntity
  8
0
  6
Continuous
 62
     7
100
AcDbPolyline
 90
        2
 70
     0
 43
0.15
 10
519.299039166691
 20
199.3201673031
 10
515.4992339818909
 20
220.1999276876
  0
LWPOLYLINE
  5
121
330
44
100
AcDbEntity
  8
0
  6
Continuous
 62
     7
100
AcDbPolyline
 90
        2
 70
     0
 43
0.15
 10
533.997654697291
 20
161.8242412805
 10
528.0329578242911
 20
194.5999860763
  0
LWPOLYLINE
  5
122
330
44
100
AcDbEntity
  8
0
  6
Continuous
 62
     7
100
AcDbPolyline
 90
        2
 70
     0
 43
0.15
 10
527.067216361291
 20
199.9066919088
 10
523.3741498820909
 20
220.1999276876
  0
LWPOLYLINE
  5
123
330
44
100
AcDbEntity
  8
0
  6
Continuous
 62
     7
100
AcDbPolyline
 90
        2
 70
     0
 43
0.15
 10
532.401371529591
 20
159.9999219179
 10
533.997654697291
 20
161.8242412805
  0
LWPOLYLINE
  5
124
330
44
100
AcDbEntity
  8
0
  6
Continuous
 62
     7
100
AcDbPolyline
 90
        2
 70
     0
 43
0.15
 10
526.454736726691
 20
159.9999219179
 10
520.158041050991
 20
194.5999860763
  0
LWPOLYLINE
  5
125
330
44
100
AcDbEntity
  8
0
  6
Continuous
 62
     7
100
AcDbPolyline
 90
        2
 70
     0
 43
0.15
 10
448.016611641591
 20
159.9999219179
 10
446.420332199291
 20
161.8242412805
  0
LWPOLYLINE
  5
126
330
44
100
AcDbEntity
  8
0
  6
Continuous
 62
     7
100
AcDbPolyline
 90
        2
 70
     0
 43
0.15
 10
446.420332199291
 20
161.8242412805
 10
452.3850286065911
 20
194.5999860763
  0
LWPOLYLINE
  5
127
330
44
100
AcDbEntity
  8
0
  6
Continuous
 62
     7
100
AcDbPolyline
 90
        2
 70
     0
 43
0.15
 10
453.350772863591
 20
199.9066919088
 10
457.043839400991
 20
220.1999276876
  0
LWPOLYLINE
  5
128
330
44
100
AcDbEntity
  8
0
  6
Continuous
 62
     7
100
AcDbPolyline
 90
        2
 70
     0
 43
0.15
 10
461.118949359591
 20
199.3201673031
 10
464.918752914591
 20
220.1999276876
  0
LWPOLYLINE
  5
129
330
44
100
AcDbEntity
  8
0
  6
Continuous
 62
     7
100
AcDbPolyline
 90
        2
 70
     0
 43
0.15
 10
453.963247841491
 20
159.9999219179
 10
460.259949570791
 20
194.5999860763
  0
LWPOLYLINE
  5
12A
330
44
100
AcDbEntity
  8
0
  6
Continuous
 62
     7
100
AcDbPolyline
 90
        2
 70
     0
 43
0.15
 10
517.307180693691
 20
199.3201673031
 10
513.507375275991
 20
220.1999276876
  0
LWPOLYLINE
  5
12B
330
44
100
AcDbEntity
  8
0
  6
Continuous
 62
     7
100
AcDbPolyline
 90
        2
 70
     0
 43
0.15
 10
463.110806202791
 20
199.3201673031
 10
466.910609757891
 20
220.1999276876
  0
LWPOLYLINE
  5
12C
330
44
100
AcDbEntity
  8
0
  6
Continuous
 62
     7
100
AcDbPolyline
 90
        2
 70
     0
 43
0.15
 10
539.897864466891
 20
159.9999219179
 10
540.2216536610911
 20
159.9999219179
  0
LWPOLYLINE
  5
12D
330
44
100
AcDbEntity
  8
0
  6
Continuous
 62
     7
100
AcDbPolyline
 90
        2
 70
     0
 43
0.15
 10
539.246585002491
 20
159.9999219179
 10
530.341713005991
 20
194.5999860763
  0
LWPOLYLINE
  5
12E
330
44
100
AcDbEntity
  8
0
  6
Continuous
 62
     7
100
AcDbPolyline
 90
        2
 70
     0
 43
0.15
 10
440.196333235491
 20
159.9999219179
 10
440.520120566991
 20
159.9999219179
  0
LWPOLYLINE
  5
12F
330
44
100
AcDbEntity
  8
0
  6
Continuous
 62
     7
100
AcDbPolyline
 90
        2
 70
     0
 43
0.15
 10
441.171398168791
 20
159.9999219179
 10
450.076272493591
 20
194.5999860763
  0
LWPOLYLINE
  5
130
330
44
100
AcDbEntity
  8
0
  6
Continuous
 62
     7
100
AcDbPolyline
 90
        2
 70
     0
 43
0.15
 10
505.862392267491
 20
199.3201673031
 10
503.895468792291
 20
220.1999276876
  0
LWPOLYLINE
  5
131
330
44
100
AcDbEntity
  8
0
  6
Continuous
 62
     7
100
AcDbPolyline
 90
        2
 70
     0
 43
0.15
 10
513.4709568380911
 20
161.8242412805
 10
510.383401779791
 20
194.5999860763
  0
LWPOLYLINE
  5
132
330
44
100
AcDbEntity
  8
0
  6
Continuous
 62
     7
100
AcDbPolyline
 90
        2
 70
     0
 43
0.15
 10
509.883497624091
 20
199.9066919088
 10
507.9718257917911
 20
220.1999276876
  0
LWPOLYLINE
  5
133
330
44
100
AcDbEntity
  8
0
  6
Continuous
 62
     7
100
AcDbPolyline
 90
        2
 70
     0
 43
0.15
 10
512.644659510191
 20
159.9999219179
 10
513.4709568380911
 20
161.8242412805
  0
LWPOLYLINE
  5
134
330
44
100
AcDbEntity
  8
0
  6
Continuous
 62
     7
100
AcDbPolyline
 90
        2
 70
     0
 43
0.15
 10
509.566454930591
 20
159.9999219179
 10
506.307044780191
 20
194.5999860763
  0
LWPOLYLINE
  5
135
330
44
100
AcDbEntity
  8
0
  6
Continuous
 62
     7
100
AcDbPolyline
 90
        2
 70
     0
 43
0.15
 10
467.773327386291
 20
159.9999219179
 10
466.947031921091
 20
161.8242412805
  0
LWPOLYLINE
  5
136
330
44
100
AcDbEntity
  8
0
  6
Continuous
 62
     7
100
AcDbPolyline
 90
        2
 70
     0
 43
0.15
 10
466.947031921091
 20
161.8242412805
 10
470.034586048091
 20
194.5999860763
  0
LWPOLYLINE
  5
137
330
44
100
AcDbEntity
  8
0
  6
Continuous
 62
     7
100
AcDbPolyline
 90
        2
 70
     0
 43
0.15
 10
470.534490203791
 20
199.9066919088
 10
472.446160173391
 20
220.1999276876
  0
LWPOLYLINE
  5
138
330
44
100
AcDbEntity
  8
0
  6
Continuous
 62
     7
100
AcDbPolyline
 90
        2
 70
     0
 43
0.15
 10
474.555594628991
 20
199.3201673031
 10
476.522518104291
 20
220.1999276876
  0
LWPOLYLINE
  5
139
330
44
100
AcDbEntity
  8
0
  6
Continuous
 62
     7
100
AcDbPolyline
 90
        2
 70
     0
 43
0.15
 10
470.851531034691
 20
159.9999219179
 10
474.110940253691
 20
194.5999860763
  0
LWPOLYLINE
  5
13A
330
44
100
AcDbEntity
  8
0
  6
Continuous
 62
     7
100
AcDbPolyline
 90
        2
 70
     0
 43
0.15
 10
503.6407632439911
 20
199.3201673031
 10
501.673839768691
 20
220.1999276876
  0
LWPOLYLINE
  5
13B
330
44
100
AcDbEntity
  8
0
  6
Continuous
 62
     7
100
AcDbPolyline
 90
        2
 70
     0
 43
0.15
 10
476.777223652591
 20
199.3201673031
 10
478.744147127791
 20
220.1999276876
  0
LWPOLYLINE
  5
13C
330
44
100
AcDbEntity
  8
0
  6
Continuous
 62
     7
100
AcDbPolyline
 90
        2
 70
     0
 43
0.15
 10
489.058991676491
 20
199.3201673031
 10
489.058991676491
 20
220.1999276876
  0
LWPOLYLINE
  5
13D
330
44
100
AcDbEntity
  8
0
  6
Continuous
 62
     7
100
AcDbPolyline
 90
        2
 70
     0
 43
0.15
 10
491.358993357391
 20
199.3201673031
 10
491.358993357391
 20
220.1999276876
  0
LWPOLYLINE
  5
13E
330
44
100
AcDbEntity
  8
0
  6
Continuous
 62
     7
100
AcDbPolyline
 90
        2
 70
     0
 43
0.15
 10
525.2605280990911
 20
159.9999219179
 10
525.657087113991
 20
159.9999219179
  0
LWPOLYLINE
  5
13F
330
44
100
AcDbEntity
  8
0
  6
Continuous
 62
     7
100
AcDbPolyline
 90
        2
 70
     0
 43
0.15
 10
524.462878370091
 20
159.9999219179
 10
518.166182345091
 20
194.5999860763
  0
LWPOLYLINE
  5
140
330
44
100
AcDbEntity
  8
0
  6
Continuous
 62
     7
100
AcDbPolyline
 90
        2
 70
     0
 43
0.15
 10
454.760899549691
 20
159.9999219179
 10
455.157456701891
 20
159.9999219179
  0
LWPOLYLINE
  5
141
330
44
100
AcDbEntity
  8
0
  6
Continuous
 62
     7
100
AcDbPolyline
 90
        2
 70
     0
 43
0.15
 10
455.955108410091
 20
159.9999219179
 10
462.251802688791
 20
194.5999860763
  0
LWPOLYLINE
  5
142
330
44
100
AcDbEntity
  8
0
  6
Continuous
 62
     7
100
AcDbPolyline
 90
        2
 70
     0
 43
0.15
 10
508.234487628891
 20
159.9999219179
 10
508.676792277291
 20
159.9999219179
  0
LWPOLYLINE
  5
143
330
44
100
AcDbEntity
  8
0
  6
Continuous
 62
     7
100
AcDbPolyline
 90
        2
 70
     0
 43
0.15
 10
507.344824975691
 20
159.9999219179
 10
504.085415756691
 20
194.5999860763
  0
LWPOLYLINE
  5
144
330
44
100
AcDbEntity
  8
0
  6
Continuous
 62
     7
100
AcDbPolyline
 90
        2
 70
     0
 43
0.15
 10
471.741193687891
 20
159.9999219179
 10
472.183497404991
 20
159.9999219179
  0
LWPOLYLINE
  5
145
330
44
100
AcDbEntity
  8
0
  6
Continuous
 62
     7
100
AcDbPolyline
 90
        2
 70
     0
 43
0.15
 10
473.073160058191
 20
159.9999219179
 10
476.332573002491
 20
194.5999860763
  0
LWPOLYLINE
  5
146
330
44
100
AcDbEntity
  8
0
  6
Continuous
 62
     7
100
AcDbPolyline
 90
        2
 70
     0
 43
0.15
 10
489.980039900491
 20
159.9999219179
 10
490.437945133391
 20
159.9999219179
  0
LWPOLYLINE
  5
147
330
44
100
AcDbEntity
  8
0
  6
Continuous
 62
     7
100
AcDbPolyline
 90
        2
 70
     0
 43
0.15
 10
489.058991676491
 20
159.9999219179
 10
489.058991676491
 20
194.5999860763
  0
LWPOLYLINE
  5
148
330
44
100
AcDbEntity
  8
0
  6
Continuous
 62
     7
100
AcDbPolyline
 90
        2
 70
     0
 43
0.15
 10
491.358993357391
 20
159.9999219179
 10
491.358993357391
 20
194.5999860763
  0
LWPOLYLINE
  5
149
330
44
100
AcDbEntity
  8
0
  6
Continuous
 62
     7
100
AcDbPolyline
 90
        2
 70
     0
 43
0.15
 10
502.009089818491
 20
151.2999162078
 10
502.009089818491
 20
130.9999190271
  0
LWPOLYLINE
  5
14A
330
44
100
AcDbEntity
  8
0
  6
Continuous
 62
     7
100
AcDbPolyline
 90
        2
 70
     0
 43
0.15
 10
478.409012561991
 20
130.9999190271
 10
502.009089818491
 20
130.9999190271
  0
LWPOLYLINE
  5
14B
330
44
100
AcDbEntity
  8
0
  6
Continuous
 62
     7
100
AcDbPolyline
 90
        2
 70
     0
 43
0.15
 10
478.409012561991
 20
130.9999190271
 10
478.409012561991
 20
151.2999162078
  0
LWPOLYLINE
  5
14C
330
44
100
AcDbEntity
  8
0
  6
Continuous
 62
     7
100
AcDbPolyline
 90
        2
 70
     0
 43
0.15
 10
410.208990579791
 20
74.00000188500002
 10
410.208990579791
 20
72.00000179
  0
LWPOLYLINE
  5
14D
330
44
100
AcDbEntity
  8
0
  6
Continuous
 62
     7
100
AcDbPolyline
 90
        2
 70
     0
 43
0.15
 10
570.208994454091
 20
72.00000179
 10
570.208994454091
 20
74.00000188500002
  0
LWPOLYLINE
  5
14E
330
44
100
AcDbEntity
  8
0
  6
Continuous
 62
     7
100
AcDbPolyline
 90
        2
 70
     0
 43
0.15
 10
413.2089966594911
 20
78.0000016093
 10
413.2089966594911
 20
74.00000188500002
  0
LWPOLYLINE
  5
14F
330
44
100
AcDbEntity
  8
0
  6
Continuous
 62
     7
100
AcDbPolyline
 90
        2
 70
     0
 43
0.15
 10
567.2089920996909
 20
74.00000188500002
 10
567.2089920996909
 20
78.0000016093
  0
LWPOLYLINE
  5
150
330
44
100
AcDbEntity
  8
0
  6
Continuous
 62
     7
100
AcDbPolyline
 90
        2
 70
     0
 43
0.15
 10
413.936933284891
 20
80.00000193710002
 10
413.2089966594911
 20
78.0000016093
  0
LWPOLYLINE
  5
151
330
44
100
AcDbEntity
  8
0
  6
Continuous
 62
     7
100
AcDbPolyline
 90
        2
 70
     0
 43
0.15
 10
567.2089920996909
 20
78.0000016093
 10
566.481051748891
 20
80.00000193710002
  0
LWPOLYLINE
  5
152
330
44
100
AcDbEntity
  8
0
  6
Continuous
 62
     7
100
AcDbPolyline
 90
        2
 70
     0
 43
0.15
 10
415.208993261991
 20
69.0000017639
 10
415.208993261991
 20
80.00000193710002
  0
LWPOLYLINE
  5
153
330
44
100
AcDbEntity
  8
0
  6
Continuous
 62
     7
100
AcDbPolyline
 90
        2
 70
     0
 43
0.15
 10
565.2089917718911
 20
80.00000193710002
 10
565.2089917718911
 20
69.0000017639
  0
LWPOLYLINE
  5
154
330
44
100
AcDbEntity
  8
0
  6
Continuous
 62
     7
100
AcDbPolyline
 90
        2
 70
     0
 43
0.15
 10
415.208993261991
 20
80.00000193710002
 10
423.208994573291
 20
80.00000193710002
  0
LWPOLYLINE
  5
155
330
44
100
AcDbEntity
  8
0
  6
Continuous
 62
     7
100
AcDbPolyline
 90
        2
 70
     0
 43
0.15
 10
557.208994185891
 20
80.00000193710002
 10
565.2089917718911
 20
80.00000193710002
  0
LWPOLYLINE
  5
156
330
44
100
AcDbEntity
  8
0
  6
Continuous
 62
     7
100
AcDbPolyline
 90
        2
 70
     0
 43
0.15
 10
427.208995228991
 20
64.00000164279999
 10
427.208995228991
 20
66.50000181979999
  0
LWPOLYLINE
  5
157
330
44
100
AcDbEntity
  8
0
  6
Continuous
 62
     7
100
AcDbPolyline
 90
        2
 70
     0
 43
0.15
 10
553.208993530191
 20
66.50000181979999
 10
553.208993530191
 20
64.00000164279999
  0
LWPOLYLINE
  5
158
330
44
100
AcDbEntity
  8
0
  6
Continuous
 62
     7
100
AcDbPolyline
 90
        2
 70
     0
 43
0.15
 10
427.208995228991
 20
64.00000164279999
 10
427.708996242191
 20
64.00000164279999
  0
LWPOLYLINE
  5
159
330
44
100
AcDbEntity
  8
0
  6
Continuous
 62
     7
100
AcDbPolyline
 90
        2
 70
     0
 43
0.15
 10
552.708994379591
 20
64.00000164279999
 10
553.208993530191
 20
64.00000164279999
  0
LWPOLYLINE
  5
15A
330
44
100
AcDbEntity
  8
0
  6
Continuous
 62
     7
100
AcDbPolyline
 90
        2
 70
     0
 43
0.15
 10
427.208995228991
 20
66.50000181979999
 10
427.708996242191
 20
66.50000181979999
  0
LWPOLYLINE
  5
15B
330
44
100
AcDbEntity
  8
0
  6
Continuous
 62
     7
100
AcDbPolyline
 90
        2
 70
     0
 43
0.15
 10
552.708994379591
 20
66.50000181979999
 10
553.208993530191
 20
66.50000181979999
  0
LWPOLYLINE
  5
15C
330
44
100
AcDbEntity
  8
0
  6
Continuous
 62
     7
100
AcDbPolyline
 90
        2
 70
     0
 43
0.15
 10
562.858992969891
 20
61.50000169869998
 10
562.858992969891
 20
64.02645166960002
  0
LWPOLYLINE
  5
15D
330
44
100
AcDbEntity
  8
0
  6
Continuous
 62
     7
100
AcDbPolyline
 90
        2
 70
     0
 43
0.15
 10
562.858992969891
 20
61.50000169869998
 10
554.358994370691
 20
61.50000169869998
  0
LWPOLYLINE
  5
15E
330
44
100
AcDbEntity
  8
0
  6
Continuous
 62
     7
100
AcDbPolyline
 90
        2
 70
     0
 43
0.15
 10
554.358994370691
 20
64.00000164279999
 10
554.358994370691
 20
61.50000169869998
  0
LWPOLYLINE
  5
15F
330
44
100
AcDbEntity
  8
0
  6
Continuous
 62
     7
100
AcDbPolyline
 90
        2
 70
     0
 43
0.15
 10
553.208993530191
 20
64.00000164279999
 10
554.358994370691
 20
64.00000164279999
  0
LWPOLYLINE
  5
160
330
44
100
AcDbEntity
  8
0
  6
Continuous
 62
     7
100
AcDbPolyline
 90
        2
 70
     0
 43
0.15
 10
562.708994156091
 20
66.50000181979999
 10
553.208993530191
 20
66.50000181979999
  0
LWPOLYLINE
  5
161
330
44
100
AcDbEntity
  8
0
  6
Continuous
 62
     7
100
AcDbPolyline
 90
        2
 70
     0
 43
0.15
 10
566.481051748891
 20
80.00000193710002
 10
565.2089917718911
 20
80.00000193710002
  0
LWPOLYLINE
  5
162
330
44
100
AcDbEntity
  8
0
  6
Continuous
 62
     7
100
AcDbPolyline
 90
        2
 70
     0
 43
0.15
 10
570.208994454091
 20
74.00000188500002
 10
567.2089920996909
 20
74.00000188500002
  0
LWPOLYLINE
  5
163
330
44
100
AcDbEntity
  8
0
  6
Continuous
 62
     7
100
AcDbPolyline
 90
        2
 70
     0
 43
0.15
 10
426.058990663191
 20
61.50000169869998
 10
417.558995789191
 20
61.50000169869998
  0
LWPOLYLINE
  5
164
330
44
100
AcDbEntity
  8
0
  6
Continuous
 62
     7
100
AcDbPolyline
 90
        2
 70
     0
 43
0.15
 10
417.558995789191
 20
61.50000169869998
 10
417.558995789191
 20
64.02645166960002
  0
LWPOLYLINE
  5
165
330
44
100
AcDbEntity
  8
0
  6
Continuous
 62
     7
100
AcDbPolyline
 90
        2
 70
     0
 43
0.15
 10
426.058990663191
 20
61.50000169869998
 10
426.058990663191
 20
64.00000164279999
  0
LWPOLYLINE
  5
166
330
44
100
AcDbEntity
  8
0
  6
Continuous
 62
     7
100
AcDbPolyline
 90
        2
 70
     0
 43
0.15
 10
426.058990663191
 20
64.00000164279999
 10
427.208995228991
 20
64.00000164279999
  0
LWPOLYLINE
  5
167
330
44
100
AcDbEntity
  8
0
  6
Continuous
 62
     7
100
AcDbPolyline
 90
        2
 70
     0
 43
0.15
 10
427.208995228991
 20
66.50000181979999
 10
417.708990877791
 20
66.50000181979999
  0
LWPOLYLINE
  5
168
330
44
100
AcDbEntity
  8
0
  6
Continuous
 62
     7
100
AcDbPolyline
 90
        2
 70
     0
 43
0.15
 10
415.208993261991
 20
80.00000193710002
 10
413.936933284891
 20
80.00000193710002
  0
LWPOLYLINE
  5
169
330
44
100
AcDbEntity
  8
0
  6
Continuous
 62
     7
100
AcDbPolyline
 90
        2
 70
     0
 43
0.15
 10
413.2089966594911
 20
74.00000188500002
 10
410.208990579791
 20
74.00000188500002
  0
LWPOLYLINE
  5
16A
330
44
100
AcDbEntity
  8
0
  6
Continuous
 62
     7
100
AcDbPolyline
 90
        2
 70
     0
 43
0.15
 10
554.958993351391
 20
127.2014901042
 10
554.958993351391
 20
127.7014911175
  0
LWPOLYLINE
  5
16B
330
44
100
AcDbEntity
  8
0
  6
Continuous
 62
     7
100
AcDbPolyline
 90
        2
 70
     0
 43
0.15
 10
556.958993679191
 20
129.7014914453
 10
567.458992606391
 20
129.7014914453
  0
LWPOLYLINE
  5
16C
330
44
100
AcDbEntity
  8
0
  6
Continuous
 62
     7
100
AcDbPolyline
 90
        2
 70
     0
 43
0.15
 10
567.458992606391
 20
129.7014914453
 10
567.458992606391
 20
127.2014901042
  0
LWPOLYLINE
  5
16D
330
44
100
AcDbEntity
  8
0
  6
Continuous
 62
     7
100
AcDbPolyline
 90
        2
 70
     0
 43
0.15
 10
567.458992606391
 20
127.2014901042
 10
566.3042941748911
 20
125.2014897764
  0
LWPOLYLINE
  5
16E
330
44
100
AcDbEntity
  8
0
  6
Continuous
 62
     7
100
AcDbPolyline
 90
        2
 70
     0
 43
0.15
 10
566.3042941748911
 20
125.2014897764
 10
559.458995020291
 20
125.2014897764
  0
LWPOLYLINE
  5
16F
330
44
100
AcDbEntity
  8
0
  6
Continuous
 62
     7
100
AcDbPolyline
 90
        2
 70
     0
 43
0.15
 10
557.4589946924909
 20
127.2014901042
 10
554.958993351391
 20
127.2014901042
  0
LWPOLYLINE
  5
170
330
44
100
AcDbEntity
  8
0
  6
Continuous
 62
     7
100
AcDbPolyline
 90
        2
 70
     0
 43
0.15
 10
425.458995407791
 20
127.7014911175
 10
554.958993351391
 20
127.7014911175
  0
LWPOLYLINE
  5
171
330
44
100
AcDbEntity
  8
0
  6
Continuous
 62
     7
100
AcDbPolyline
 90
        2
 70
     0
 43
0.15
 10
423.458991354691
 20
129.7014914453
 10
556.958993679191
 20
129.7014914453
  0
LWPOLYLINE
  5
172
330
44
100
AcDbEntity
  8
0
  6
Continuous
 62
     7
100
AcDbPolyline
 90
        2
 70
     0
 43
0.15
 10
420.958993738791
 20
125.2014897764
 10
414.1136908589911
 20
125.2014897764
  0
LWPOLYLINE
  5
173
330
44
100
AcDbEntity
  8
0
  6
Continuous
 62
     7
100
AcDbPolyline
 90
        2
 70
     0
 43
0.15
 10
414.1136908589911
 20
125.2014897764
 10
412.958992427491
 20
127.2014901042
  0
LWPOLYLINE
  5
174
330
44
100
AcDbEntity
  8
0
  6
Continuous
 62
     7
100
AcDbPolyline
 90
        2
 70
     0
 43
0.15
 10
412.958992427491
 20
127.2014901042
 10
412.958992427491
 20
129.7014914453
  0
LWPOLYLINE
  5
175
330
44
100
AcDbEntity
  8
0
  6
Continuous
 62
     7
100
AcDbPolyline
 90
        2
 70
     0
 43
0.15
 10
425.458995407791
 20
127.7014911175
 10
425.458995407791
 20
127.2014901042
  0
LWPOLYLINE
  5
176
330
44
100
AcDbEntity
  8
0
  6
Continuous
 62
     7
100
AcDbPolyline
 90
        2
 70
     0
 43
0.15
 10
412.958992427491
 20
129.7014914453
 10
423.458991354691
 20
129.7014914453
  0
LWPOLYLINE
  5
177
330
44
100
AcDbEntity
  8
0
  6
Continuous
 62
     7
100
AcDbPolyline
 90
        2
 70
     0
 43
0.15
 10
425.458995407791
 20
127.2014901042
 10
422.958990341391
 20
127.2014901042
  0
LWPOLYLINE
  5
178
330
44
100
AcDbEntity
  8
0
  6
Continuous
 62
     7
100
AcDbPolyline
 90
        2
 70
     0
 43
0.15
 10
420.958993738791
 20
125.2014897764
 10
559.458995020291
 20
125.2014897764
  0
LWPOLYLINE
  5
179
330
44
100
AcDbEntity
  8
0
  6
Continuous
 62
     7
100
AcDbPolyline
 90
        2
 70
     0
 43
0.15
 10
425.458995407791
 20
127.2014901042
 10
554.958993351391
 20
127.2014901042
  0
LWPOLYLINE
  5
17A
330
44
100
AcDbEntity
  8
0
  6
Continuous
 62
     7
100
AcDbPolyline
 90
        2
 70
     0
 43
0.15
 10
570.308992421591
 20
138.599999249
 10
572.458972936791
 20
142.3999965191
  0
LWPOLYLINE
  5
17B
330
44
100
AcDbEntity
  8
0
  6
Continuous
 62
     7
100
AcDbPolyline
 90
        2
 70
     0
 43
0.15
 10
407.959012097091
 20
142.3999965191
 10
410.108996337591
 20
138.599999249
  0
LWPOLYLINE
  5
17C
330
44
100
AcDbEntity
  8
0
  6
Continuous
 62
     7
100
AcDbPolyline
 90
        2
 70
     0
 43
0.15
 10
563.108993476591
 20
114.9999983609
 10
563.108993476591
 20
121.7019408941
  0
LWPOLYLINE
  5
17D
330
44
100
AcDbEntity
  8
0
  6
Continuous
 62
     7
100
AcDbPolyline
 90
        2
 70
     0
 43
0.15
 10
417.308991557291
 20
121.7019408941
 10
417.308991557291
 20
114.9999983609
  0
LWPOLYLINE
  5
17E
330
44
100
AcDbEntity
  8
0
  6
Continuous
 62
     7
100
AcDbPolyline
 90
        2
 70
     0
 43
0.15
 10
557.208994185891
 20
73.00000172109998
 10
557.208994185891
 20
112.5000007451
  0
LWPOLYLINE
  5
17F
330
44
100
AcDbEntity
  8
0
  6
Continuous
 62
     7
100
AcDbPolyline
 90
        2
 70
     0
 43
0.15
 10
423.208994573291
 20
112.5000007451
 10
423.208994573291
 20
73.00000172109998
  0
LWPOLYLINE
  5
180
330
44
100
AcDbEntity
  8
0
  6
Continuous
 62
     7
100
AcDbPolyline
 90
        2
 70
     0
 43
0.15
 10
552.708994379591
 20
72.7499998175
 10
554.708992844791
 20
73.00000172109998
  0
LWPOLYLINE
  5
181
330
44
100
AcDbEntity
  8
0
  6
Continuous
 62
     7
100
AcDbPolyline
 90
        2
 70
     0
 43
0.15
 10
425.708992189091
 20
73.00000172109998
 10
427.708996242191
 20
72.7499998175
  0
LWPOLYLINE
  5
182
330
44
100
AcDbEntity
  8
0
  6
Continuous
 62
     7
100
AcDbPolyline
 90
        2
 70
     0
 43
0.15
 10
552.708994379591
 20
5.00000268220001
 10
552.708994379591
 20
72.7499998175
  0
LWPOLYLINE
  5
183
330
44
100
AcDbEntity
  8
0
  6
Continuous
 62
     7
100
AcDbPolyline
 90
        2
 70
     0
 43
0.15
 10
427.708996242191
 20
72.7499998175
 10
427.708996242191
 20
5.00000268220001
  0
LWPOLYLINE
  5
184
330
44
100
AcDbEntity
  8
0
  6
Continuous
 62
     7
100
AcDbPolyline
 90
        2
 70
     0
 43
0.15
 10
559.608993834191
 20
124.2014914751
 10
420.808991199691
 20
124.2014914751
  0
LWPOLYLINE
  5
185
330
44
100
AcDbEntity
  8
0
  6
Continuous
 62
     7
100
AcDbPolyline
 90
        2
 70
     0
 43
0.15
 10
420.808991199691
 20
116.9999986887
 10
559.608993834191
 20
116.9999986887
  0
LWPOLYLINE
  5
186
330
44
100
AcDbEntity
  8
0
  6
Continuous
 62
     7
100
AcDbPolyline
 90
        2
 70
     0
 43
0.15
 10
425.708992189091
 20
116.0000003874
 10
554.708992844791
 20
116.0000003874
  0
LWPOLYLINE
  5
187
330
44
100
AcDbEntity
  8
0
  6
Continuous
 62
     7
100
AcDbPolyline
 90
        2
 70
     0
 43
0.15
 10
553.708992680891
 20
114.9999983609
 10
426.708994215691
 20
114.9999983609
  0
LWPOLYLINE
  5
188
330
44
100
AcDbEntity
  8
0
  6
Continuous
 62
     7
100
AcDbPolyline
 90
        2
 70
     0
 43
0.15
 10
551.369247740491
 20
0.0
 10
552.708994379591
 20
5.00000268220001
  0
LWPOLYLINE
  5
189
330
44
100
AcDbEntity
  8
0
  6
Continuous
 62
     7
100
AcDbPolyline
 90
        2
 70
     0
 43
0.15
 10
427.708996242191
 20
5.00000268220001
 10
429.048737293391
 20
0.0
  0
LWPOLYLINE
  5
18A
330
44
100
AcDbEntity
  8
0
  6
Continuous
 62
     7
100
AcDbPolyline
 90
        2
 70
     0
 43
0.15
 10
322.208998507191
 20
157.9999178648
 10
322.208998507191
 20
156.500339508
  0
LWPOLYLINE
  5
18B
330
44
100
AcDbEntity
  8
0
  6
Continuous
 62
     7
100
AcDbPolyline
 90
        2
 70
     0
 43
0.15
 10
326.208991712291
 20
157.9999178648
 10
322.208998507191
 20
157.9999178648
  0
LWPOLYLINE
  5
18C
330
44
100
AcDbEntity
  8
0
  6
Continuous
 62
     7
100
AcDbPolyline
 90
        2
 70
     0
 43
0.15
 10
326.208991712291
 20
156.500339508
 10
326.208991712291
 20
157.9999178648
  0
LWPOLYLINE
  5
18D
330
44
100
AcDbEntity
  8
0
  6
Continuous
 62
     7
100
AcDbPolyline
 90
        2
 70
     0
 43
0.15
 10
322.208998507191
 20
156.500339508
 10
326.208991712291
 20
156.500339508
  0
LWPOLYLINE
  5
18E
330
44
100
AcDbEntity
  8
0
  6
Continuous
 62
     7
100
AcDbPolyline
 90
        2
 70
     0
 43
0.15
 10
654.2090007721911
 20
157.9999178648
 10
654.2090007721911
 20
156.500339508
  0
LWPOLYLINE
  5
18F
330
44
100
AcDbEntity
  8
0
  6
Continuous
 62
     7
100
AcDbPolyline
 90
        2
 70
     0
 43
0.15
 10
658.208993977291
 20
157.9999178648
 10
654.2090007721911
 20
157.9999178648
  0
LWPOLYLINE
  5
190
330
44
100
AcDbEntity
  8
0
  6
Continuous
 62
     7
100
AcDbPolyline
 90
        2
 70
     0
 43
0.15
 10
658.208993977291
 20
156.500339508
 10
658.208993977291
 20
157.9999178648
  0
LWPOLYLINE
  5
191
330
44
100
AcDbEntity
  8
0
  6
Continuous
 62
     7
100
AcDbPolyline
 90
        2
 70
     0
 43
0.15
 10
654.2090007721911
 20
156.500339508
 10
658.208993977291
 20
156.500339508
  0
LWPOLYLINE
  5
192
330
44
100
AcDbEntity
  8
0
  6
Continuous
 62
     7
100
AcDbPolyline
 90
        2
 70
     0
 43
0.15
 10
320.208994454091
 20
159.9999219179
 10
328.208995765391
 20
159.9999219179
  0
LWPOLYLINE
  5
193
330
44
100
AcDbEntity
  8
0
  6
Continuous
 62
     7
100
AcDbPolyline
 90
        2
 70
     0
 43
0.15
 10
328.208995765391
 20
159.9999219179
 10
326.208991712291
 20
157.9999178648
  0
LWPOLYLINE
  5
194
330
44
100
AcDbEntity
  8
0
  6
Continuous
 62
     7
100
AcDbPolyline
 90
        2
 70
     0
 43
0.15
 10
322.208998507191
 20
157.9999178648
 10
320.208994454091
 20
159.9999219179
  0
LWPOLYLINE
  5
195
330
44
100
AcDbEntity
  8
0
  6
Continuous
 62
     7
100
AcDbPolyline
 90
        2
 70
     0
 43
0.15
 10
652.208996719091
 20
159.9999219179
 10
660.2089980303911
 20
159.9999219179
  0
LWPOLYLINE
  5
196
330
44
100
AcDbEntity
  8
0
  6
Continuous
 62
     7
100
AcDbPolyline
 90
        2
 70
     0
 43
0.15
 10
660.2089980303911
 20
159.9999219179
 10
658.208993977291
 20
157.9999178648
  0
LWPOLYLINE
  5
197
330
44
100
AcDbEntity
  8
0
  6
Continuous
 62
     7
100
AcDbPolyline
 90
        2
 70
     0
 43
0.15
 10
654.2090007721911
 20
157.9999178648
 10
652.208996719091
 20
159.9999219179
  0
LWPOLYLINE
  5
198
330
44
100
AcDbEntity
  8
0
  6
Continuous
 62
     7
100
AcDbPolyline
 90
        2
 70
     0
 43
0.15
 10
565.708992785191
 20
135.0569203496
 10
564.1089917777911
 20
135.0569203496
  0
LWPOLYLINE
  5
199
330
44
100
AcDbEntity
  8
0
  6
Continuous
 62
     7
100
AcDbPolyline
 90
        2
 70
     0
 43
0.15
 10
560.221565669691
 20
135.0569203496
 10
502.009089818491
 20
135.0569203496
  0
LWPOLYLINE
  5
19A
330
44
100
AcDbEntity
  8
0
  6
Continuous
 62
     7
100
AcDbPolyline
 90
        2
 70
     0
 43
0.15
 10
478.409012561991
 20
135.0569203496
 10
420.196441715891
 20
135.0569203496
  0
LWPOLYLINE
  5
19B
330
44
100
AcDbEntity
  8
0
  6
Continuous
 62
     7
100
AcDbPolyline
 90
        2
 70
     0
 43
0.15
 10
416.308996981291
 20
135.0569203496
 10
414.708992248691
 20
135.0569203496
  0
LWPOLYLINE
  5
19C
330
44
100
AcDbEntity
  8
0
  6
Continuous
 62
     7
100
AcDbPolyline
 90
        2
 70
     0
 43
0.15
 10
565.708992785191
 20
135.0569203496
 10
565.708992785191
 20
130.8000013232
  0
LWPOLYLINE
  5
19D
330
44
100
AcDbEntity
  8
0
  6
Continuous
 62
     7
100
AcDbPolyline
 90
        2
 70
     0
 43
0.15
 10
565.708992785191
 20
130.8000013232
 10
414.708992248691
 20
130.8000013232
  0
LWPOLYLINE
  5
19E
330
44
100
AcDbEntity
  8
0
  6
Continuous
 62
     7
100
AcDbPolyline
 90
        2
 70
     0
 43
0.15
 10
414.708992248691
 20
130.8000013232
 10
414.708992248691
 20
135.0569203496
  0
LWPOLYLINE
  5
19F
330
44
100
AcDbEntity
  8
0
  6
Continuous
 62
     7
100
AcDbPolyline
 90
        2
 70
     0
 43
0.15
 10
414.708992248691
 20
135.0569203496
 10
415.458908086991
 20
135.4999989271
  0
LWPOLYLINE
  5
1A0
330
44
100
AcDbEntity
  8
0
  6
Continuous
 62
     7
100
AcDbPolyline
 90
        2
 70
     0
 43
0.15
 10
564.959080672191
 20
135.4999989271
 10
564.1089917777911
 20
135.4999989271
  0
LWPOLYLINE
  5
1A1
330
44
100
AcDbEntity
  8
0
  6
Continuous
 62
     7
100
AcDbPolyline
 90
        2
 70
     0
 43
0.15
 10
560.221565669691
 20
135.4999989271
 10
502.009089818491
 20
135.4999989271
  0
LWPOLYLINE
  5
1A2
330
44
100
AcDbEntity
  8
0
  6
Continuous
 62
     7
100
AcDbPolyline
 90
        2
 70
     0
 43
0.15
 10
478.409012561991
 20
135.4999989271
 10
420.196441715891
 20
135.4999989271
  0
LWPOLYLINE
  5
1A3
330
44
100
AcDbEntity
  8
0
  6
Continuous
 62
     7
100
AcDbPolyline
 90
        2
 70
     0
 43
0.15
 10
416.308996981291
 20
135.4999989271
 10
415.458908086991
 20
135.4999989271
  0
LWPOLYLINE
  5
1A4
330
44
100
AcDbEntity
  8
0
  6
Continuous
 62
     7
100
AcDbPolyline
 90
        2
 70
     0
 43
0.15
 10
564.959080672191
 20
135.4999989271
 10
565.708992785191
 20
135.0569203496
  0
LWPOLYLINE
  5
1A5
330
44
100
AcDbEntity
  8
0
  6
Continuous
 62
     7
100
AcDbPolyline
 90
        2
 70
     0
 43
0.15
 10
564.959080672191
 20
136.3999992609
 10
564.1089917777911
 20
136.3999992609
  0
LWPOLYLINE
  5
1A6
330
44
100
AcDbEntity
  8
0
  6
Continuous
 62
     7
100
AcDbPolyline
 90
        2
 70
     0
 43
0.15
 10
560.221565669691
 20
136.3999992609
 10
502.009089818491
 20
136.3999992609
  0
LWPOLYLINE
  5
1A7
330
44
100
AcDbEntity
  8
0
  6
Continuous
 62
     7
100
AcDbPolyline
 90
        2
 70
     0
 43
0.15
 10
478.409012561991
 20
136.3999992609
 10
420.196441715891
 20
136.3999992609
  0
LWPOLYLINE
  5
1A8
330
44
100
AcDbEntity
  8
0
  6
Continuous
 62
     7
100
AcDbPolyline
 90
        2
 70
     0
 43
0.15
 10
416.308996981291
 20
136.3999992609
 10
415.458908086991
 20
136.3999992609
  0
LWPOLYLINE
  5
1A9
330
44
100
AcDbEntity
  8
0
  6
Continuous
 62
     7
100
AcDbPolyline
 90
        2
 70
     0
 43
0.15
 10
564.959080672191
 20
136.3999992609
 10
564.959080672191
 20
135.4999989271
  0
LWPOLYLINE
  5
1AA
330
44
100
AcDbEntity
  8
0
  6
Continuous
 62
     7
100
AcDbPolyline
 90
        2
 70
     0
 43
0.15
 10
415.458908086991
 20
135.4999989271
 10
415.458908086991
 20
136.3999992609
  0
LWPOLYLINE
  5
1AB
330
44
100
AcDbEntity
  8
0
  6
Continuous
 62
     7
100
AcDbPolyline
 90
        2
 70
     0
 43
0.15
 10
568.958991920891
 20
158.9999198913
 10
568.9589434920911
 20
143.3018296957
  0
LWPOLYLINE
  5
1AC
330
44
100
AcDbEntity
  8
0
  6
Continuous
 62
     7
100
AcDbPolyline
 90
        2
 70
     0
 43
0.15
 10
568.9589434920911
 20
143.3018296957
 10
566.2270726322911
 20
143.3018296957
  0
LWPOLYLINE
  5
1AD
330
44
100
AcDbEntity
  8
0
  6
Continuous
 62
     7
100
AcDbPolyline
 90
        2
 70
     0
 43
0.15
 10
504.009090146391
 20
143.3018296957
 10
502.009089818491
 20
143.3018296957
  0
LWPOLYLINE
  5
1AE
330
44
100
AcDbEntity
  8
0
  6
Continuous
 62
     7
100
AcDbPolyline
 90
        2
 70
     0
 43
0.15
 10
478.409012561991
 20
143.3018296957
 10
476.409012234191
 20
143.3018296957
  0
LWPOLYLINE
  5
1AF
330
44
100
AcDbEntity
  8
0
  6
Continuous
 62
     7
100
AcDbPolyline
 90
        2
 70
     0
 43
0.15
 10
414.190916126891
 20
143.3018296957
 10
411.459041541791
 20
143.3018296957
  0
LWPOLYLINE
  5
1B0
330
44
100
AcDbEntity
  8
0
  6
Continuous
 62
     7
100
AcDbPolyline
 90
        2
 70
     0
 43
0.15
 10
411.459041541791
 20
143.3018296957
 10
411.458996838291
 20
158.9999198913
  0
LWPOLYLINE
  5
1B1
330
44
100
AcDbEntity
  8
0
  6
Continuous
 62
     7
100
AcDbPolyline
 90
        2
 70
     0
 43
0.15
 10
670.208988493591
 20
156.500339508
 10
670.208988493591
 20
157.9999178648
  0
LWPOLYLINE
  5
1B2
330
44
100
AcDbEntity
  8
0
  6
Continuous
 62
     7
100
AcDbPolyline
 90
        2
 70
     0
 43
0.15
 10
310.208989089691
 20
157.9999178648
 10
310.208989089691
 20
156.500339508
  0
LWPOLYLINE
  5
1B3
330
44
100
AcDbEntity
  8
0
  6
Continuous
 62
     7
100
AcDbPolyline
 90
        2
 70
     0
 43
0.15
 10
570.308992421591
 20
74.00000188500002
 10
570.308992421591
 20
138.599999249
  0
LWPOLYLINE
  5
1B4
330
44
100
AcDbEntity
  8
0
  6
Continuous
 62
     7
100
AcDbPolyline
 90
        2
 70
     0
 43
0.15
 10
410.108996337591
 20
138.599999249
 10
410.108996337591
 20
74.00000188500002
  0
LWPOLYLINE
  5
1B5
330
44
100
AcDbEntity
  8
0
  6
Continuous
 62
     7
100
AcDbPolyline
 90
        2
 70
     0
 43
0.15
 10
412.958992427491
 20
74.00000188500002
 10
413.6089959799911
 20
121.7019408941
  0
LWPOLYLINE
  5
1B6
330
44
100
AcDbEntity
  8
0
  6
Continuous
 62
     7
100
AcDbPolyline
 90
        2
 70
     0
 43
0.15
 10
566.8089927791909
 20
121.7019408941
 10
567.458992606391
 20
74.00000188500002
  0
LWPOLYLINE
  5
1B7
330
44
100
AcDbEntity
  8
0
  6
Continuous
 62
     7
100
AcDbPolyline
 90
        2
 70
     0
 43
0.15
 10
658.208993977291
 20
156.500339508
 10
670.208988493591
 20
156.500339508
  0
LWPOLYLINE
  5
1B8
330
44
100
AcDbEntity
  8
0
  6
Continuous
 62
     7
100
AcDbPolyline
 90
        2
 70
     0
 43
0.15
 10
668.208999341691
 20
159.9999219179
 10
660.2089980303911
 20
159.9999219179
  0
LWPOLYLINE
  5
1B9
330
44
100
AcDbEntity
  8
0
  6
Continuous
 62
     7
100
AcDbPolyline
 90
        2
 70
     0
 43
0.15
 10
568.9589434920911
 20
143.3018296957
 10
564.959080672191
 20
136.3999992609
  0
LWPOLYLINE
  5
1BA
330
44
100
AcDbEntity
  8
0
  6
Continuous
 62
     7
100
AcDbPolyline
 90
        2
 70
     0
 43
0.15
 10
415.458908086991
 20
136.3999992609
 10
411.459041541791
 20
143.3018296957
  0
LWPOLYLINE
  5
1BB
330
44
100
AcDbEntity
  8
0
  6
Continuous
 62
     7
100
AcDbPolyline
 90
        2
 70
     0
 43
0.15
 10
572.458972936791
 20
142.3999965191
 10
572.458995288591
 20
156.500339508
  0
LWPOLYLINE
  5
1BC
330
44
100
AcDbEntity
  8
0
  6
Continuous
 62
     7
100
AcDbPolyline
 90
        2
 70
     0
 43
0.15
 10
407.958989745291
 20
156.500339508
 10
407.959012097091
 20
142.3999965191
  0
LWPOLYLINE
  5
1BD
330
44
100
AcDbEntity
  8
0
  6
Continuous
 62
     7
100
AcDbPolyline
 90
        2
 70
     0
 43
0.15
 10
310.208989089691
 20
156.500339508
 10
322.208998507191
 20
156.500339508
  0
LWPOLYLINE
  5
1BE
330
44
100
AcDbEntity
  8
0
  6
Continuous
 62
     7
100
AcDbPolyline
 90
        2
 70
     0
 43
0.15
 10
320.208994454091
 20
159.9999219179
 10
312.208993142791
 20
159.9999219179
  0
LWPOLYLINE
  5
1BF
330
44
100
AcDbEntity
  8
0
  6
Continuous
 62
     7
100
AcDbPolyline
 90
        2
 70
     0
 43
0.15
 10
549.208992874591
 20
76.4995501377
 10
431.208995884591
 20
76.4995501377
  0
LWPOLYLINE
  5
1C0
330
44
100
AcDbEntity
  8
0
  6
Continuous
 62
     7
100
AcDbPolyline
 90
        2
 70
     0
 43
0.15
 10
549.208992874591
 20
76.4995501377
 10
549.208992874591
 20
0.0
  0
LWPOLYLINE
  5
1C1
330
44
100
AcDbEntity
  8
0
  6
Continuous
 62
     7
100
AcDbPolyline
 90
        2
 70
     0
 43
0.15
 10
431.208995884591
 20
0.0
 10
431.208995884591
 20
76.4995501377
  0
LWPOLYLINE
  5
1C2
330
44
100
AcDbEntity
  8
0
  6
Continuous
 62
     7
100
AcDbPolyline
 90
        2
 70
     0
 43
0.15
 10
549.208992874591
 20
0.0
 10
431.208995884591
 20
0.0
  0
LWPOLYLINE
  5
1C3
330
44
100
AcDbEntity
  8
0
  6
Continuous
 62
     7
100
AcDbPolyline
 90
        2
 70
     0
 43
0.15
 10
567.2089920996909
 20
129.7999992967
 10
413.2089966594911
 20
129.7999992967
  0
LWPOLYLINE
  5
1C4
330
44
100
AcDbEntity
  8
0
  6
Continuous
 62
     7
100
AcDbPolyline
 90
        2
 70
     0
 43
0.15
 10
567.2089920996909
 20
129.7999992967
 10
567.2089920996909
 20
125.2014897764
  0
LWPOLYLINE
  5
1C5
330
44
100
AcDbEntity
  8
0
  6
Continuous
 62
     7
100
AcDbPolyline
 90
        2
 70
     0
 43
0.15
 10
413.2089966594911
 20
125.2014897764
 10
413.2089966594911
 20
129.7999992967
  0
LWPOLYLINE
  5
1C6
330
44
100
AcDbEntity
  8
0
  6
Continuous
 62
     7
100
AcDbPolyline
 90
        2
 70
     0
 43
0.15
 10
413.2089966594911
 20
129.7999992967
 10
414.708992248691
 20
130.8000013232
  0
LWPOLYLINE
  5
1C7
330
44
100
AcDbEntity
  8
0
  6
Continuous
 62
     7
100
AcDbPolyline
 90
        2
 70
     0
 43
0.15
 10
565.708992785191
 20
130.8000013232
 10
567.2089920996909
 20
129.7999992967
  0
LWPOLYLINE
  5
1C8
330
44
100
AcDbEntity
  8
0
  6
Continuous
 62
     7
100
AcDbPolyline
 90
        2
 70
     0
 43
0.15
 10
420.808991199691
 20
116.9999986887
 10
420.808991199691
 20
124.2014914751
  0
LWPOLYLINE
  5
1C9
330
44
100
AcDbEntity
  8
0
  6
Continuous
 62
     7
100
AcDbPolyline
 90
        2
 70
     0
 43
0.15
 10
426.708994215691
 20
76.4995501377
 10
426.708994215691
 20
114.9999983609
  0
LWPOLYLINE
  5
1CA
330
44
100
AcDbEntity
  8
0
  6
Continuous
 62
     7
100
AcDbPolyline
 90
        2
 70
     0
 43
0.15
 10
431.208995884591
 20
76.4995501377
 10
426.708994215691
 20
76.4995501377
  0
LWPOLYLINE
  5
1CB
330
44
100
AcDbEntity
  8
0
  6
Continuous
 62
     7
100
AcDbPolyline
 90
        2
 70
     0
 43
0.15
 10
425.708992189091
 20
116.0000003874
 10
421.808993226191
 20
116.0000003874
  0
LWPOLYLINE
  5
1CC
330
44
100
AcDbEntity
  8
0
  6
Continuous
 62
     7
100
AcDbPolyline
 90
        2
 70
     0
 43
0.15
 10
326.208991712291
 20
156.500339508
 10
407.958989745291
 20
156.500339508
  0
LWPOLYLINE
  5
1CD
330
44
100
AcDbEntity
  8
0
  6
Continuous
 62
     7
100
AcDbPolyline
 90
        2
 70
     0
 43
0.15
 10
423.208994573291
 20
73.00000172109998
 10
425.708992189091
 20
73.00000172109998
  0
LWPOLYLINE
  5
1CE
330
44
100
AcDbEntity
  8
0
  6
Continuous
 62
     7
100
AcDbPolyline
 90
        2
 70
     0
 43
0.15
 10
410.108996337591
 20
74.00000188500002
 10
412.958992427491
 20
74.00000188500002
  0
LWPOLYLINE
  5
1CF
330
44
100
AcDbEntity
  8
0
  6
Continuous
 62
     7
100
AcDbPolyline
 90
        2
 70
     0
 43
0.15
 10
410.458994811691
 20
159.9999219179
 10
328.208995765391
 20
159.9999219179
  0
LWPOLYLINE
  5
1D0
330
44
100
AcDbEntity
  8
0
  6
Continuous
 62
     7
100
AcDbPolyline
 90
        2
 70
     0
 43
0.15
 10
419.808996623691
 20
125.2014897764
 10
413.2089966594911
 20
125.2014897764
  0
LWPOLYLINE
  5
1D1
330
44
100
AcDbEntity
  8
0
  6
Continuous
 62
     7
100
AcDbPolyline
 90
        2
 70
     0
 43
0.15
 10
429.048737293391
 20
0.0
 10
431.208995884591
 20
0.0
  0
LWPOLYLINE
  5
1D2
330
44
100
AcDbEntity
  8
0
  6
Continuous
 62
     7
100
AcDbPolyline
 90
        2
 70
     0
 43
0.15
 10
419.808996623691
 20
112.5000007451
 10
423.208994573291
 20
112.5000007451
  0
LWPOLYLINE
  5
1D3
330
44
100
AcDbEntity
  8
0
  6
Continuous
 62
     7
100
AcDbPolyline
 90
        2
 70
     0
 43
0.15
 10
413.6089959799911
 20
121.7019408941
 10
417.308991557291
 20
121.7019408941
  0
LWPOLYLINE
  5
1D4
330
44
100
AcDbEntity
  8
0
  6
Continuous
 62
     7
100
AcDbPolyline
 90
        2
 70
     0
 43
0.15
 10
559.608993834191
 20
124.2014914751
 10
559.608993834191
 20
116.9999986887
  0
LWPOLYLINE
  5
1D5
330
44
100
AcDbEntity
  8
0
  6
Continuous
 62
     7
100
AcDbPolyline
 90
        2
 70
     0
 43
0.15
 10
553.708992680891
 20
114.9999983609
 10
553.708992680891
 20
76.4995501377
  0
LWPOLYLINE
  5
1D6
330
44
100
AcDbEntity
  8
0
  6
Continuous
 62
     7
100
AcDbPolyline
 90
        2
 70
     0
 43
0.15
 10
553.708992680891
 20
76.4995501377
 10
549.208992874591
 20
76.4995501377
  0
LWPOLYLINE
  5
1D7
330
44
100
AcDbEntity
  8
0
  6
Continuous
 62
     7
100
AcDbPolyline
 90
        2
 70
     0
 43
0.15
 10
558.6089918076909
 20
116.0000003874
 10
554.708992844791
 20
116.0000003874
  0
LWPOLYLINE
  5
1D8
330
44
100
AcDbEntity
  8
0
  6
Continuous
 62
     7
100
AcDbPolyline
 90
        2
 70
     0
 43
0.15
 10
572.458995288591
 20
156.500339508
 10
654.2090007721911
 20
156.500339508
  0
LWPOLYLINE
  5
1D9
330
44
100
AcDbEntity
  8
0
  6
Continuous
 62
     7
100
AcDbPolyline
 90
        2
 70
     0
 43
0.15
 10
554.708992844791
 20
73.00000172109998
 10
557.208994185891
 20
73.00000172109998
  0
LWPOLYLINE
  5
1DA
330
44
100
AcDbEntity
  8
0
  6
Continuous
 62
     7
100
AcDbPolyline
 90
        2
 70
     0
 43
0.15
 10
567.458992606391
 20
74.00000188500002
 10
570.308992421591
 20
74.00000188500002
  0
LWPOLYLINE
  5
1DB
330
44
100
AcDbEntity
  8
0
  6
Continuous
 62
     7
100
AcDbPolyline
 90
        2
 70
     0
 43
0.15
 10
652.208996719091
 20
159.9999219179
 10
569.958990222191
 20
159.9999219179
  0
LWPOLYLINE
  5
1DC
330
44
100
AcDbEntity
  8
0
  6
Continuous
 62
     7
100
AcDbPolyline
 90
        2
 70
     0
 43
0.15
 10
567.2089920996909
 20
125.2014897764
 10
560.608992135491
 20
125.2014897764
  0
LWPOLYLINE
  5
1DD
330
44
100
AcDbEntity
  8
0
  6
Continuous
 62
     7
100
AcDbPolyline
 90
        2
 70
     0
 43
0.15
 10
549.208992874591
 20
0.0
 10
551.369247740491
 20
0.0
  0
LWPOLYLINE
  5
1DE
330
44
100
AcDbEntity
  8
0
  6
Continuous
 62
     7
100
AcDbPolyline
 90
        2
 70
     0
 43
0.15
 10
557.208994185891
 20
112.5000007451
 10
560.608992135491
 20
112.5000007451
  0
LWPOLYLINE
  5
1DF
330
44
100
AcDbEntity
  8
0
  6
Continuous
 62
     7
100
AcDbPolyline
 90
        2
 70
     0
 43
0.15
 10
563.108993476591
 20
121.7019408941
 10
566.8089927791909
 20
121.7019408941
  0
LWPOLYLINE
  5
1E0
330
44
100
AcDbEntity
  8
0
  6
Continuous
 62
     7
100
AcDbPolyline
 90
        2
 70
     0
 43
0.15
 10
420.563047534191
 20
151.2999162078
 10
420.196441715891
 20
151.2999162078
  0
LWPOLYLINE
  5
1E1
330
44
100
AcDbEntity
  8
0
  6
Continuous
 62
     7
100
AcDbPolyline
 90
        2
 70
     0
 43
0.15
 10
560.221565669691
 20
151.2999162078
 10
559.854959851491
 20
151.2999162078
  0
LWPOLYLINE
  5
1E2
330
44
100
AcDbEntity
  8
0
  6
Continuous
 62
     7
100
AcDbPolyline
 90
        2
 70
     0
 43
0.15
 10
415.208993261991
 20
69.0000017639
 10
427.708996242191
 20
69.0000017639
  0
LWPOLYLINE
  5
1E3
330
44
100
AcDbEntity
  8
0
  6
Continuous
 62
     7
100
AcDbPolyline
 90
        2
 70
     0
 43
0.15
 10
552.708994379591
 20
69.0000017639
 10
565.2089917718911
 20
69.0000017639
  0
LWPOLYLINE
  5
1E4
330
44
100
AcDbEntity
  8
0
  6
Continuous
 62
     7
100
AcDbPolyline
 90
        2
 70
     0
 43
0.15
 10
568.958991920891
 20
158.9999198913
 10
566.2270726322911
 20
158.9999198913
  0
LWPOLYLINE
  5
1E5
330
44
100
AcDbEntity
  8
0
  6
Continuous
 62
     7
100
AcDbPolyline
 90
        2
 70
     0
 43
0.15
 10
414.190916126891
 20
158.9999198913
 10
411.458996838291
 20
158.9999198913
  0
LINE
  5
1E6
330
44
100
AcDbEntity
  8
0
  6
CENTERX2
 62
     7
100
AcDbLine
 10
490.2089934669911
 20
235.3757165851
 30
0.0
 11
490.2089934669911
 21
-2.00000023159998
 31
0.0
  0
LWPOLYLINE
  5
1E7
330
44
100
AcDbEntity
  8
0
  6
Continuous
 62
     7
100
AcDbPolyline
 90
        2
 70
     0
 43
0.15
 10
512.402157081591
 20
235.0999265909
 10
512.402157081591
 20
235.0999265909
  0
LWPOLYLINE
  5
1E8
330
44
100
AcDbEntity
  8
0
  6
Continuous
 62
     7
100
AcDbPolyline
 90
        2
 70
     0
 43
0.15
 10
414.808993466991
 20
131.9999198817
 42
0.4142135623731
 10
415.808993466991
 20
130.9999198817
 42
0.4142135623731
  0
LWPOLYLINE
  5
1E9
330
44
100
AcDbEntity
  8
0
  6
Continuous
 62
     7
100
AcDbPolyline
 90
        2
 70
     0
 43
0.15
 10
415.808993466991
 20
132.9999198817
 42
0.4142135623731
 10
414.808993466991
 20
131.9999198817
 42
0.4142135623731
  0
LWPOLYLINE
  5
1EA
330
44
100
AcDbEntity
  8
0
  6
Continuous
 62
     7
100
AcDbPolyline
 90
        2
 70
     0
 43
0.15
 10
441.760411563291
 20
234.9999258817
 42
0.31529878994921
 10
427.665022231526
 20
225.1302279767
 42
0.31529878994921
  0
LWPOLYLINE
  5
1EB
330
44
100
AcDbEntity
  8
0
  6
Continuous
 62
     7
100
AcDbPolyline
 90
        2
 70
     0
 43
0.15
 10
552.752964702456
 20
225.1302279767
 42
0.31529878994921
 10
538.657575370691
 20
234.9999258817
 42
0.31529878994921
  0
LWPOLYLINE
  5
1EC
330
44
100
AcDbEntity
  8
0
  6
Continuous
 62
     7
100
AcDbPolyline
 90
        2
 70
     0
 43
0.15
 10
565.608993466991
 20
131.9999198817
 42
0.4142135623731
 10
564.608993466991
 20
132.9999198817
 42
0.4142135623731
  0
LWPOLYLINE
  5
1ED
330
44
100
AcDbEntity
  8
0
  6
Continuous
 62
     7
100
AcDbPolyline
 90
        2
 70
     0
 43
0.15
 10
564.608993466991
 20
130.9999198817
 42
0.4142135623731
 10
565.608993466991
 20
131.9999198817
 42
0.4142135623731
  0
LWPOLYLINE
  5
1EE
330
44
100
AcDbEntity
  8
0
  6
Continuous
 62
     7
100
AcDbPolyline
 90
        2
 70
     0
 43
0.15
 10
410.2089934669911
 20
72.00000176840001
 42
0.39058548904151
 10
417.558993466993
 20
64.02645174347401
 42
0.39058548904151
  0
LWPOLYLINE
  5
1EF
330
44
100
AcDbEntity
  8
0
  6
Continuous
 62
     7
100
AcDbPolyline
 90
        2
 70
     0
 43
0.15
 10
562.858993466989
 20
64.02645174347401
 42
0.39058548904151
 10
570.2089934669909
 20
72.00000176840001
 42
0.39058548904151
  0
LWPOLYLINE
  5
1F0
330
44
100
AcDbEntity
  8
0
  6
Continuous
 62
     7
100
AcDbPolyline
 90
        2
 70
     0
 43
0.15
 10
415.2089934669911
 20
69.00000176840001
 42
0.4142135623731
 10
417.7089934669911
 20
66.50000176840001
 42
0.4142135623731
  0
LWPOLYLINE
  5
1F1
330
44
100
AcDbEntity
  8
0
  6
Continuous
 62
     7
100
AcDbPolyline
 90
        2
 70
     0
 43
0.15
 10
562.7089934669909
 20
66.50000176840001
 42
0.4142135623731
 10
565.2089934669909
 20
69.00000176840001
 42
0.4142135623731
  0
LWPOLYLINE
  5
1F2
330
44
100
AcDbEntity
  8
0
  6
Continuous
 62
     7
100
AcDbPolyline
 90
        2
 70
     0
 43
0.15
 10
556.9589934669909
 20
129.7014906401
 42
0.4142135623731
 10
554.9589934669909
 20
127.7014906401
 42
0.4142135623731
  0
LWPOLYLINE
  5
1F3
330
44
100
AcDbEntity
  8
0
  6
Continuous
 62
     7
100
AcDbPolyline
 90
        2
 70
     0
 43
0.15
 10
559.4589934669909
 20
125.2014906401
 42
0.4142135623731
 10
557.4589934669909
 20
127.2014906401
 42
0.4142135623731
  0
LWPOLYLINE
  5
1F4
330
44
100
AcDbEntity
  8
0
  6
Continuous
 62
     7
100
AcDbPolyline
 90
        2
 70
     0
 43
0.15
 10
425.4589934669911
 20
127.7014906401
 42
0.4142135623731
 10
423.4589934669911
 20
129.7014906401
 42
0.4142135623731
  0
LWPOLYLINE
  5
1F5
330
44
100
AcDbEntity
  8
0
  6
Continuous
 62
     7
100
AcDbPolyline
 90
        2
 70
     0
 43
0.15
 10
422.9589934669911
 20
127.2014906401
 42
0.4142135623731
 10
420.9589934669911
 20
125.2014906401
 42
0.4142135623731
  0
LWPOLYLINE
  5
1F6
330
44
100
AcDbEntity
  8
0
  6
Continuous
 62
     7
100
AcDbPolyline
 90
        2
 70
     0
 43
0.15
 10
670.2089934669909
 20
157.9999198817
 42
0.4142135623731
 10
668.2089934669909
 20
159.9999198817
 42
0.4142135623731
  0
LWPOLYLINE
  5
1F7
330
44
100
AcDbEntity
  8
0
  6
Continuous
 62
     7
100
AcDbPolyline
 90
        2
 70
     0
 43
0.15
 10
312.208993466991
 20
159.9999198817
 42
0.4142135623731
 10
310.208993466991
 20
157.9999198817
 42
0.4142135623731
  0
LWPOLYLINE
  5
1F8
330
44
100
AcDbEntity
  8
0
  6
Continuous
 62
     7
100
AcDbPolyline
 90
        2
 70
     0
 43
0.15
 10
569.958990469391
 20
159.9999198817
 42
0.41421268438055
 10
568.9589904693951
 20
158.999922879355
 42
0.41421268438055
  0
LWPOLYLINE
  5
1F9
330
44
100
AcDbEntity
  8
0
  6
Continuous
 62
     7
100
AcDbPolyline
 90
        2
 70
     0
 43
0.15
 10
411.458996464587
 20
158.999922879355
 42
0.41421268438055
 10
410.458996464591
 20
159.9999198817
 42
0.41421268438055
  0
LWPOLYLINE
  5
1FA
330
44
100
AcDbEntity
  8
0
  6
Continuous
 62
     7
100
AcDbPolyline
 90
        2
 70
     0
 43
0.15
 10
560.608993466991
 20
125.2014906401
 42
0.4142135623731
 10
559.608993466991
 20
124.2014906401
 42
0.4142135623731
  0
LWPOLYLINE
  5
1FB
330
44
100
AcDbEntity
  8
0
  6
Continuous
 62
     7
100
AcDbPolyline
 90
        2
 70
     0
 43
0.15
 10
420.808993466991
 20
124.2014906401
 42
0.4142135623731
 10
419.808993466991
 20
125.2014906401
 42
0.4142135623731
  0
LWPOLYLINE
  5
1FC
330
44
100
AcDbEntity
  8
0
  6
Continuous
 62
     7
100
AcDbPolyline
 90
        2
 70
     0
 43
0.15
 10
558.608993466991
 20
115.9999997684
 42
0.4142135623731
 10
559.608993466991
 20
116.9999997684
 42
0.4142135623731
  0
LWPOLYLINE
  5
1FD
330
44
100
AcDbEntity
  8
0
  6
Continuous
 62
     7
100
AcDbPolyline
 90
        2
 70
     0
 43
0.15
 10
420.808993466991
 20
116.9999997684
 42
0.4142135623731
 10
421.808993466991
 20
115.9999997684
 42
0.4142135623731
  0
LWPOLYLINE
  5
1FE
330
44
100
AcDbEntity
  8
0
  6
Continuous
 62
     7
100
AcDbPolyline
 90
        2
 70
     0
 43
0.15
 10
554.7089934669909
 20
115.9999997684
 42
0.4142135623731
 10
553.7089934669909
 20
114.9999997684
 42
0.4142135623731
  0
LWPOLYLINE
  5
1FF
330
44
100
AcDbEntity
  8
0
  6
Continuous
 62
     7
100
AcDbPolyline
 90
        2
 70
     0
 43
0.15
 10
426.7089934669911
 20
114.9999997684
 42
0.4142135623731
 10
425.7089934669911
 20
115.9999997684
 42
0.4142135623731
  0
LWPOLYLINE
  5
200
330
44
100
AcDbEntity
  8
0
  6
Continuous
 62
     7
100
AcDbPolyline
 90
        2
 70
     0
 43
0.15
 10
417.308993466991
 20
114.9999997684
 42
0.4142135623731
 10
419.808993466991
 20
112.4999997684
 42
0.4142135623731
  0
LWPOLYLINE
  5
201
330
44
100
AcDbEntity
  8
0
  6
Continuous
 62
     7
100
AcDbPolyline
 90
        2
 70
     0
 43
0.15
 10
560.608993466991
 20
112.4999997684
 42
0.4142135623731
 10
563.108993466991
 20
114.9999997684
 42
0.4142135623731
  0
SPLINE
  5
202
330
44
100
AcDbEntity
  8
0
  6
Continuous
 62
     7
100
AcDbSpline
210
0.0
220
0.0
230
1.0
 70
    24
 71
     3
 72
     9
 73
     5
 74
     3
 42
0.0000000001
 43
0.0000000001
 44
0.00000001
 40
0.0
 40
0.0
 40
0.0
 40
0.0
 40
0.2976419018993397
 40
0.5952838037979973
 40
0.5952838037979973
 40
0.5952838037979973
 40
0.5952838037979973
 10
435.637686414661
 20
199.320163031332
 30
0.0
 10
435.7369003819608
 20
199.3201630313285
 30
0.0
 10
435.9353283165601
 20
199.3201630313215
 30
0.0
 10
436.1337562511594
 20
199.3201630313145
 30
0.0
 10
436.232970218459
 20
199.320163031311
 30
0.0
 11
435.637686414661
 21
199.320163031332
 31
0.0
 11
435.9353283165603
 21
199.3201630313215
 31
0.0
 11
436.232970218459
 21
199.320163031311
 31
0.0
  0
SPLINE
  5
203
330
44
100
AcDbEntity
  8
0
  6
Continuous
 62
     7
100
AcDbSpline
210
0.0
220
0.0
230
1.0
 70
    24
 71
     3
 72
     9
 73
     5
 74
     3
 42
0.0000000001
 43
0.0000000001
 44
0.00000001
 40
0.0
 40
0.0
 40
0.0
 40
0.0
 40
0.574999999886586
 40
1.149999999773001
 40
1.149999999773001
 40
1.149999999773001
 40
1.149999999773001
 10
440.973556508228
 20
199.320163031397
 30
0.0
 10
441.1652231748568
 20
199.3201630314095
 30
0.0
 10
441.5485565081145
 20
199.3201630314346
 30
0.0
 10
441.9318898413722
 20
199.3201630314589
 30
0.0
 10
442.123556508001
 20
199.320163031471
 30
0.0
 11
440.973556508228
 21
199.320163031397
 31
0.0
 11
441.5485565081146
 21
199.3201630314344
 31
0.0
 11
442.123556508001
 21
199.320163031471
 31
0.0
  0
SPLINE
  5
204
330
44
100
AcDbEntity
  8
0
  6
Continuous
 62
     7
100
AcDbSpline
210
0.0
220
0.0
230
1.0
 70
    24
 71
     3
 72
     9
 73
     5
 74
     3
 42
0.0000000001
 43
0.0000000001
 44
0.00000001
 40
0.0
 40
0.0
 40
0.0
 40
0.0
 40
0.8131727984499548
 40
1.626345596899966
 40
1.626345596899966
 40
1.626345596899966
 40
1.626345596899966
 10
449.664740265688
 20
199.320163031285
 30
0.0
 10
449.9357978651713
 20
199.3201630312772
 30
0.0
 10
450.477913064138
 20
199.3201630312615
 30
0.0
 10
451.0200282631046
 20
199.3201630312458
 30
0.0
 10
451.291085862588
 20
199.320163031238
 30
0.0
 11
449.664740265688
 21
199.320163031285
 31
0.0
 11
450.477913064138
 21
199.3201630312615
 31
0.0
 11
451.291085862588
 21
199.320163031238
 31
0.0
  0
SPLINE
  5
205
330
44
100
AcDbEntity
  8
0
  6
Continuous
 62
     7
100
AcDbSpline
210
0.0
220
0.0
230
1.0
 70
    24
 71
     3
 72
     9
 73
     5
 74
     3
 42
0.0000000001
 43
0.0000000001
 44
0.00000001
 40
0.0
 40
0.0
 40
0.0
 40
0.0
 40
0.995929214366015
 40
1.99185842873203
 40
1.99185842873203
 40
1.99185842873203
 40
1.99185842873203
 10
461.118947875747
 20
199.320163031332
 30
0.0
 10
461.4509242805357
 20
199.320163031331
 30
0.0
 10
462.1148770901131
 20
199.320163031329
 30
0.0
 10
462.7788298996903
 20
199.320163031327
 30
0.0
 10
463.110806304479
 20
199.320163031326
 30
0.0
 11
461.118947875747
 21
199.320163031332
 31
0.0
 11
462.114877090113
 21
199.320163031329
 31
0.0
 11
463.110806304479
 21
199.320163031326
 31
0.0
  0
SPLINE
  5
206
330
44
100
AcDbEntity
  8
0
  6
Continuous
 62
     7
100
AcDbSpline
210
0.0
220
0.0
230
1.0
 70
    24
 71
     3
 72
     9
 73
     5
 74
     3
 42
0.0000000001
 43
0.0000000001
 44
0.00000001
 40
0.0
 40
0.0
 40
0.0
 40
0.0
 40
1.110814700161995
 40
2.221629400323991
 40
2.221629400323991
 40
2.221629400323991
 40
2.221629400323991
 10
474.555594019355
 20
199.320163031343
 30
0.0
 10
474.9258655860756
 20
199.3201630313459
 30
0.0
 10
475.6664087195169
 20
199.3201630313516
 30
0.0
 10
476.4069518529584
 20
199.3201630313565
 30
0.0
 10
476.777223419679
 20
199.320163031359
 30
0.0
 11
474.555594019355
 21
199.320163031343
 31
0.0
 11
475.666408719517
 21
199.3201630313514
 31
0.0
 11
476.777223419679
 21
199.320163031359
 31
0.0
  0
SPLINE
  5
207
330
44
100
AcDbEntity
  8
0
  6
Continuous
 62
     7
100
AcDbSpline
210
0.0
220
0.0
230
1.0
 70
    24
 71
     3
 72
     9
 73
     5
 74
     3
 42
0.0000000001
 43
0.0000000001
 44
0.00000001
 40
0.0
 40
0.0
 40
0.0
 40
0.0
 40
1.150000000029138
 40
2.300000000059015
 40
2.300000000059015
 40
2.300000000059015
 40
2.300000000059015
 10
489.058993466963
 20
199.320163031337
 30
0.0
 10
489.442326800306
 20
199.320163031337
 30
0.0
 10
490.2089934669924
 20
199.320163031337
 30
0.0
 10
490.9756601336787
 20
199.320163031337
 30
0.0
 10
491.358993467022
 20
199.320163031337
 30
0.0
 11
489.058993466963
 21
199.320163031337
 31
0.0
 11
490.2089934669921
 21
199.320163031337
 31
0.0
 11
491.358993467022
 21
199.320163031337
 31
0.0
  0
SPLINE
  5
208
330
44
100
AcDbEntity
  8
0
  6
Continuous
 62
     7
100
AcDbSpline
210
0.0
220
0.0
230
1.0
 70
    24
 71
     3
 72
     9
 73
     5
 74
     3
 42
0.0000000001
 43
0.0000000001
 44
0.00000001
 40
0.0
 40
0.0
 40
0.0
 40
0.0
 40
1.110814700162393
 40
2.221629400324048
 40
2.221629400324048
 40
2.221629400324048
 40
2.221629400324048
 10
503.640763514305
 20
199.320163031359
 30
0.0
 10
504.0110350810259
 20
199.3201630313565
 30
0.0
 10
504.7515782144671
 20
199.3201630313516
 30
0.0
 10
505.4921213479084
 20
199.3201630313459
 30
0.0
 10
505.862392914629
 20
199.320163031343
 30
0.0
 11
503.640763514305
 21
199.320163031359
 31
0.0
 11
504.7515782144674
 21
199.3201630313514
 31
0.0
 11
505.862392914629
 21
199.320163031343
 31
0.0
  0
SPLINE
  5
209
330
44
100
AcDbEntity
  8
0
  6
Continuous
 62
     7
100
AcDbSpline
210
0.0
220
0.0
230
1.0
 70
    24
 71
     3
 72
     9
 73
     5
 74
     3
 42
0.0000000001
 43
0.0000000001
 44
0.00000001
 40
0.0
 40
0.0
 40
0.0
 40
0.0
 40
0.9959292143655603
 40
1.991858428731007
 40
1.991858428731007
 40
1.991858428731007
 40
1.991858428731007
 10
517.307180629506
 20
199.320163031326
 30
0.0
 10
517.6391570342945
 20
199.320163031327
 30
0.0
 10
518.3031098438714
 20
199.3201630313289
 30
0.0
 10
518.9670626534485
 20
199.320163031331
 30
0.0
 10
519.299039058237
 20
199.320163031332
 30
0.0
 11
517.307180629506
 21
199.320163031326
 31
0.0
 11
518.3031098438715
 21
199.320163031329
 31
0.0
 11
519.299039058237
 21
199.320163031332
 31
0.0
  0
SPLINE
  5
20A
330
44
100
AcDbEntity
  8
0
  6
Continuous
 62
     7
100
AcDbSpline
210
0.0
220
0.0
230
1.0
 70
    24
 71
     3
 72
     9
 73
     5
 74
     3
 42
0.0000000001
 43
0.0000000001
 44
0.00000001
 40
0.0
 40
0.0
 40
0.0
 40
0.0
 40
0.8131727984495001
 40
1.626345596899
 40
1.626345596899
 40
1.626345596899
 40
1.626345596899
 10
529.126901071397
 20
199.320163031238
 30
0.0
 10
529.3979586708803
 20
199.3201630312458
 30
0.0
 10
529.9400738698464
 20
199.3201630312615
 30
0.0
 10
530.4821890688129
 20
199.3201630312772
 30
0.0
 10
530.753246668296
 20
199.320163031285
 30
0.0
 11
529.126901071397
 21
199.320163031238
 31
0.0
 11
529.9400738698465
 21
199.3201630312615
 31
0.0
 11
530.753246668296
 21
199.320163031285
 31
0.0
  0
SPLINE
  5
20B
330
44
100
AcDbEntity
  8
0
  6
Continuous
 62
     7
100
AcDbSpline
210
0.0
220
0.0
230
1.0
 70
    24
 71
     3
 72
     9
 73
     5
 74
     3
 42
0.0000000001
 43
0.0000000001
 44
0.00000001
 40
0.0
 40
0.0
 40
0.0
 40
0.0
 40
0.5749999998863586
 40
1.149999999772035
 40
1.149999999772035
 40
1.149999999772035
 40
1.149999999772035
 10
538.294430425984
 20
199.320163031471
 30
0.0
 10
538.4860970926128
 20
199.3201630314588
 30
0.0
 10
538.8694304258702
 20
199.3201630314346
 30
0.0
 10
539.2527637591276
 20
199.3201630314095
 30
0.0
 10
539.4444304257561
 20
199.320163031397
 30
0.0
 11
538.294430425984
 21
199.320163031471
 31
0.0
 11
538.8694304258704
 21
199.3201630314344
 31
0.0
 11
539.4444304257561
 21
199.320163031397
 31
0.0
  0
SPLINE
  5
20C
330
44
100
AcDbEntity
  8
0
  6
Continuous
 62
     7
100
AcDbSpline
210
0.0
220
0.0
230
1.0
 70
    24
 71
     3
 72
     9
 73
     5
 74
     3
 42
0.0000000001
 43
0.0000000001
 44
0.00000001
 40
0.0
 40
0.0
 40
0.0
 40
0.0
 40
0.2976419018993965
 40
0.5952838037978836
 40
0.5952838037978836
 40
0.5952838037978836
 40
0.5952838037978836
 10
544.1850167155251
 20
199.32016303131
 30
0.0
 10
544.284230682825
 20
199.3201630313139
 30
0.0
 10
544.482658617424
 20
199.3201630313216
 30
0.0
 10
544.6810865520235
 20
199.3201630313285
 30
0.0
 10
544.780300519323
 20
199.320163031332
 30
0.0
 11
544.1850167155251
 21
199.32016303131
 31
0.0
 11
544.4826586174245
 21
199.3201630313214
 31
0.0
 11
544.780300519323
 21
199.320163031332
 31
0.0
  0
DIMENSION
  5
221
330
44
100
AcDbEntity
  8
1
100
AcDbDimension
  2
*D3
 10
310.208989089691
 20
253.13286309336
 30
0.0
 11
490.019659134278
 21
260.13286309336
 31
0.0
 70
    33
  1
<>
 71
     5
 42
-1.0
 53
0.00013888888889
  3
ME10_DIM_10
100
AcDbAlignedDimension
 13
670.208988493591
 23
157.9999178648
 33
0.0
 14
310.208989089691
 24
157.9999178648
 34
0.0
  0
DIMENSION
  5
22C
330
44
100
AcDbEntity
  8
1
100
AcDbDimension
  2
*D4
 10
427.708996242191
 20
-24.5874802337052
 30
0.0
 11
489.683358942345
 21
-17.5874802337052
 31
0.0
 70
    33
  1
<>
 71
     5
 42
-1.0
 53
0.00013888888889
  3
ME10_DIM_11
100
AcDbAlignedDimension
 13
552.708994379591
 23
5.00000268220001
 33
0.0
 14
427.708996242191
 24
5.00000268220001
 34
0.0
  0
DIMENSION
  5
237
330
44
100
AcDbEntity
  8
1
100
AcDbDimension
  2
*D5
 10
410.108996337591
 20
-45.03405335752549
 30
0.0
 11
490.950332262584
 21
-38.03405335752549
 31
0.0
 70
    33
  1
<>
 71
     5
 42
-1.0
 53
0.00013888888889
  3
ME10_DIM_12
100
AcDbAlignedDimension
 13
570.308992421591
 23
74.00000188500002
 33
0.0
 14
410.108996337591
 24
74.00000188500002
 34
0.0
  0
DIMENSION
  5
242
330
44
100
AcDbEntity
  8
1
100
AcDbDimension
  2
*D6
 10
296.167071988057
 20
159.9999219179
 30
0.0
 11
289.167071988057
 21
113.1897869898
 31
0.0
 70
    32
  1
<>
 71
     5
 42
-1.0
 53
90.0
  3
ME10_DIM_13
100
AcDbAlignedDimension
 13
417.558993466993
 23
64.02645174347401
 33
0.0
 14
312.208993142791
 24
159.9999219179
 34
0.0
 50
90.0
100
AcDbRotatedDimension
  0
DIMENSION
  5
24D
330
44
100
AcDbEntity
  8
1
100
AcDbDimension
  2
*D7
 10
275.298174424156
 20
159.9999219179
 30
0.0
 11
268.298174424156
 21
84.4717250643869
 31
0.0
 70
    32
  1
<>
 71
     5
 42
-1.0
 53
90.0
  3
ME10_DIM_14
100
AcDbAlignedDimension
 13
431.208995884591
 23
0.0
 33
0.0
 14
312.208993142791
 24
159.9999219179
 34
0.0
 50
90.0
100
AcDbRotatedDimension
  0
HATCH
  5
24E
330
44
100
AcDbEntity
  8
0
  6
Continuous
 62
     7
100
AcDbHatch
 10
0.0
 20
0.0
 30
0.0
210
0.0
220
0.0
230
1.0
  2
CUSTOM0
 70
     0
 71
     0
 91
        1
 92
        1
 93
       13
 72
     1
 10
670.2089934669909
 20
156.5003407684
 11
670.2089934669909
 21
157.9999198817
 72
     1
 10
670.2089934669909
 20
157.9999198817
 11
670.169126622675
 21
158.397258543311
 72
     1
 10
670.169126622675
 20
158.397258543311
 11
670.051115454998
 21
158.778756566338
 72
     1
 10
670.051115454998
 20
158.778756566338
 11
669.8596646968119
 21
159.129204828511
 72
     1
 10
669.8596646968119
 20
159.129204828511
 11
669.602406885686
 21
159.43463206352
 72
     1
 10
669.602406885686
 20
159.43463206352
 11
669.289598078728
 21
159.682861851337
 72
     1
 10
669.289598078728
 20
159.682861851337
 11
668.933708975946
 21
159.863998053655
 72
     1
 10
668.933708975946
 20
159.863998053655
 11
668.548927752793
 21
159.970819341698
 72
     1
 10
668.548927752793
 20
159.970819341698
 11
668.2089934669909
 21
159.9999198817
 72
     1
 10
668.2089934669909
 20
159.9999198817
 11
660.2089934669921
 21
159.999919881721
 72
     1
 10
660.2089934669921
 20
159.999919881721
 11
658.2089934669921
 21
157.999919881721
 72
     1
 10
658.2089934669921
 20
157.999919881721
 11
658.2089934669921
 21
156.500340768408
 72
     1
 10
658.2089934669921
 20
156.500340768408
 11
670.2089934669909
 21
156.5003407684
 97
        0
 75
     1
 76
     2
 52
0.0
 41
1.0
 77
     0
 78
     1
 53
44.99999999999998
 43
0.0
 44
0.0
 45
-4.490128060534577
 46
0.0000000000000018
 79
     0
 98
        1
 10
0.0
 20
0.0
  0
HATCH
  5
24F
330
44
100
AcDbEntity
  8
0
  6
Continuous
 62
     7
100
AcDbHatch
 10
0.0
 20
0.0
 30
0.0
210
0.0
220
0.0
230
1.0
  2
CUSTOM1
 70
     0
 71
     0
 91
        1
 92
        1
 93
       71
 72
     1
 10
557.2089934669921
 20
112.499999768408
 11
560.608993466991
 21
112.4999997684
 72
     1
 10
560.608993466991
 20
112.4999997684
 11
561.1056667939799
 21
112.549833323805
 72
     1
 10
561.1056667939799
 20
112.549833323805
 11
561.582539322764
 21
112.697347283401
 72
     1
 10
561.582539322764
 20
112.697347283401
 11
562.02059965048
 21
112.936660731134
 72
     1
 10
562.02059965048
 20
112.936660731134
 11
562.402383694241
 21
113.25823299504
 72
     1
 10
562.402383694241
 20
113.25823299504
 11
562.712670929012
 21
113.649244003738
 72
     1
 10
562.712670929012
 20
113.649244003738
 11
562.93909118191
 21
114.094105382217
 72
     1
 10
562.93909118191
 20
114.094105382217
 11
563.072617791963
 21
114.575081911158
 72
     1
 10
563.072617791963
 20
114.575081911158
 11
563.108993466991
 21
114.9999997684
 72
     1
 10
563.108993466991
 20
114.9999997684
 11
563.1089934669919
 21
121.701941768408
 72
     1
 10
563.1089934669919
 20
121.701941768408
 11
566.808993466992
 21
121.701941768408
 72
     1
 10
566.808993466992
 20
121.701941768408
 11
567.4589934669921
 21
74.00000176840803
 72
     1
 10
567.4589934669921
 20
74.00000176840803
 11
570.3089934669911
 21
74.00000176840001
 72
     1
 10
570.3089934669911
 20
74.00000176840001
 11
570.308993466992
 21
138.599999768408
 72
     1
 10
570.308993466992
 20
138.599999768408
 11
572.458974466992
 21
142.399999768408
 72
     1
 10
572.458974466992
 20
142.399999768408
 11
572.4589934669921
 21
156.500340768408
 72
     1
 10
572.4589934669921
 20
156.500340768408
 11
654.2089934669921
 21
156.500340768408
 72
     1
 10
654.2089934669921
 20
156.500340768408
 11
654.2089934669921
 21
157.999919881721
 72
     1
 10
654.2089934669921
 20
157.999919881721
 11
652.2089934669921
 21
159.999919881721
 72
     1
 10
652.2089934669921
 20
159.999919881721
 11
569.958990469391
 21
159.9999198817
 72
     1
 10
569.958990469391
 20
159.9999198817
 11
569.760321138618
 21
159.979986459562
 72
     1
 10
569.760321138618
 20
159.979986459562
 11
569.569572127104
 21
159.920980875724
 72
     1
 10
569.569572127104
 20
159.920980875724
 11
569.394347996018
 21
159.825255496631
 72
     1
 10
569.394347996018
 20
159.825255496631
 11
569.241634378513
 21
159.696626591068
 72
     1
 10
569.241634378513
 20
159.696626591068
 11
569.117519484605
 21
159.540222187589
 72
     1
 10
569.117519484605
 20
159.540222187589
 11
569.0269513834451
 21
159.362277636198
 72
     1
 10
569.0269513834451
 20
159.362277636198
 11
568.9735407394239
 21
159.169887024621
 72
     1
 10
568.9735407394239
 20
159.169887024621
 11
568.9589904693951
 21
158.999922879355
 72
     1
 10
568.9589904693951
 20
158.999922879355
 11
568.958943413072
 21
143.301832201683
 72
     1
 10
568.958943413072
 20
143.301832201683
 11
564.959081830846
 21
136.399999768408
 72
     1
 10
564.959081830846
 20
136.399999768408
 11
564.959081830846
 21
135.499999768408
 72
     1
 10
564.959081830846
 20
135.499999768408
 11
565.7089934669921
 21
135.056918640066
 72
     1
 10
565.7089934669921
 20
135.056918640066
 11
565.7089934669921
 21
130.799999768408
 72
     1
 10
565.7089934669921
 20
130.799999768408
 11
567.2089934669921
 21
129.799999768408
 72
     1
 10
567.2089934669921
 20
129.799999768408
 11
567.2089934669921
 21
125.201490640066
 72
     1
 10
567.2089934669921
 20
125.201490640066
 11
560.608993466991
 21
125.2014906401
 72
     1
 10
560.608993466991
 20
125.2014906401
 11
560.410324136197
 21
125.181557217907
 72
     1
 10
560.410324136197
 20
125.181557217907
 11
560.2195751246841
 21
125.122551634069
 72
     1
 10
560.2195751246841
 20
125.122551634069
 11
560.0443509935969
 21
125.026826254976
 72
     1
 10
560.0443509935969
 20
125.026826254976
 11
559.8916373760931
 21
124.898197349413
 72
     1
 10
559.8916373760931
 20
124.898197349413
 11
559.767522482184
 21
124.741792945934
 72
     1
 10
559.767522482184
 20
124.741792945934
 11
559.676954381025
 21
124.563848394543
 72
     1
 10
559.676954381025
 20
124.563848394543
 11
559.623543737004
 21
124.371457782966
 72
     1
 10
559.623543737004
 20
124.371457782966
 11
559.608993466991
 21
124.2014906401
 72
     1
 10
559.608993466991
 20
124.2014906401
 11
559.608993466991
 21
116.9999997684
 72
     1
 10
559.608993466991
 20
116.9999997684
 11
559.589060044834
 21
116.801330437613
 72
     1
 10
559.589060044834
 20
116.801330437613
 11
559.530054460995
 21
116.6105814261
 72
     1
 10
559.530054460995
 20
116.6105814261
 11
559.434329081902
 21
116.435357295013
 72
     1
 10
559.434329081902
 20
116.435357295013
 11
559.3057001763391
 21
116.282643677509
 72
     1
 10
559.3057001763391
 20
116.282643677509
 11
559.14929577286
 21
116.1585287836
 72
     1
 10
559.14929577286
 20
116.1585287836
 11
558.971351221469
 21
116.067960682441
 72
     1
 10
558.971351221469
 20
116.067960682441
 11
558.778960609893
 21
116.01455003842
 72
     1
 10
558.778960609893
 20
116.01455003842
 11
558.608993466991
 21
115.9999997684
 72
     1
 10
558.608993466991
 20
115.9999997684
 11
554.7089934669909
 21
115.9999997684
 72
     1
 10
554.7089934669909
 20
115.9999997684
 11
554.510324136197
 21
115.98006634625
 72
     1
 10
554.510324136197
 20
115.98006634625
 11
554.319575124684
 21
115.921060762411
 72
     1
 10
554.319575124684
 20
115.921060762411
 11
554.1443509935971
 21
115.825335383318
 72
     1
 10
554.1443509935971
 20
115.825335383318
 11
553.991637376093
 21
115.696706477755
 72
     1
 10
553.991637376093
 20
115.696706477755
 11
553.8675224821841
 21
115.540302074276
 72
     1
 10
553.8675224821841
 20
115.540302074276
 11
553.776954381025
 21
115.362357522885
 72
     1
 10
553.776954381025
 20
115.362357522885
 11
553.7235437370041
 21
115.169966911309
 72
     1
 10
553.7235437370041
 20
115.169966911309
 11
553.7089934669909
 21
114.9999997684
 72
     1
 10
553.7089934669909
 20
114.9999997684
 11
553.7089934669921
 21
76.49955021085498
 72
     1
 10
553.7089934669921
 20
76.49955021085498
 11
549.2089934669921
 21
76.49955021085498
 72
     1
 10
549.2089934669921
 20
76.49955021085498
 11
549.2089934669921
 21
-0.0000002315919971
 72
     1
 10
549.2089934669921
 20
-0.0000002315919971
 11
551.369247504836
 21
-0.0000002315919971
 72
     1
 10
551.369247504836
 20
-0.0000002315919971
 11
552.7089934669909
 21
4.999999768400016
 72
     1
 10
552.7089934669909
 20
4.999999768400016
 11
552.7089934669921
 21
72.74999976840797
 72
     1
 10
552.7089934669921
 20
72.74999976840797
 11
554.7089934669921
 21
73.00000176840803
 72
     1
 10
554.7089934669921
 20
73.00000176840803
 11
557.2089934669921
 21
73.00000176840803
 72
     1
 10
557.2089934669921
 20
73.00000176840803
 11
557.2089934669921
 21
112.499999768408
 97
        0
 75
     1
 76
     2
 52
0.0
 41
1.0
 77
     0
 78
     1
 53
44.99999999999998
 43
0.0
 44
0.0
 45
-4.490128060534577
 46
0.0000000000000018
 79
     0
 98
        1
 10
0.0
 20
0.0
  0
HATCH
  5
250
330
44
100
AcDbEntity
  8
0
  6
Continuous
 62
     7
100
AcDbHatch
 10
0.0
 20
0.0
 30
0.0
210
0.0
220
0.0
230
1.0
  2
CUSTOM2
 70
     0
 71
     0
 91
        1
 92
        1
 93
       71
 72
     1
 10
417.308993466992
 20
121.701941768408
 11
417.308993466991
 21
114.9999997684
 72
     1
 10
417.308993466991
 20
114.9999997684
 11
417.3588270223891
 21
114.503326441421
 72
     1
 10
417.3588270223891
 20
114.503326441421
 11
417.506340981985
 21
114.026453912637
 72
     1
 10
417.506340981985
 20
114.026453912637
 11
417.745654429718
 21
113.588393584921
 72
     1
 10
417.745654429718
 20
113.588393584921
 11
418.067226693624
 21
113.206609541159
 72
     1
 10
418.067226693624
 20
113.206609541159
 11
418.458237702322
 21
112.896322306389
 72
     1
 10
418.458237702322
 20
112.896322306389
 11
418.903099080801
 21
112.66990205349
 72
     1
 10
418.903099080801
 20
112.66990205349
 11
419.384075609742
 21
112.536375443437
 72
     1
 10
419.384075609742
 20
112.536375443437
 11
419.808993466991
 21
112.4999997684
 72
     1
 10
419.808993466991
 20
112.4999997684
 11
423.208993466992
 21
112.499999768408
 72
     1
 10
423.208993466992
 20
112.499999768408
 11
423.208993466992
 21
73.00000176840803
 72
     1
 10
423.208993466992
 20
73.00000176840803
 11
425.708993466992
 21
73.00000176840803
 72
     1
 10
425.708993466992
 20
73.00000176840803
 11
427.708993466992
 21
72.74999976840797
 72
     1
 10
427.708993466992
 20
72.74999976840797
 11
427.7089934669911
 21
4.999999768400016
 72
     1
 10
427.7089934669911
 20
4.999999768400016
 11
429.048739429191
 21
-0.0000002315999836
 72
     1
 10
429.048739429191
 20
-0.0000002315999836
 11
431.208993466992
 21
-0.0000002315919971
 72
     1
 10
431.208993466992
 20
-0.0000002315919971
 11
431.208993466992
 21
76.49955021085498
 72
     1
 10
431.208993466992
 20
76.49955021085498
 11
426.708993466992
 21
76.49955021085498
 72
     1
 10
426.708993466992
 20
76.49955021085498
 11
426.7089934669911
 21
114.9999997684
 72
     1
 10
426.7089934669911
 20
114.9999997684
 11
426.689060044834
 21
115.198669099203
 72
     1
 10
426.689060044834
 20
115.198669099203
 11
426.630054460995
 21
115.389418110717
 72
     1
 10
426.630054460995
 20
115.389418110717
 11
426.534329081902
 21
115.564642241803
 72
     1
 10
426.534329081902
 20
115.564642241803
 11
426.405700176339
 21
115.717355859308
 72
     1
 10
426.405700176339
 20
115.717355859308
 11
426.24929577286
 21
115.841470753216
 72
     1
 10
426.24929577286
 20
115.841470753216
 11
426.071351221469
 21
115.932038854376
 72
     1
 10
426.071351221469
 20
115.932038854376
 11
425.878960609893
 21
115.985449498397
 72
     1
 10
425.878960609893
 20
115.985449498397
 11
425.7089934669911
 21
115.9999997684
 72
     1
 10
425.7089934669911
 20
115.9999997684
 11
421.808993466991
 21
115.9999997684
 72
     1
 10
421.808993466991
 20
115.9999997684
 11
421.6103241361971
 21
116.019933190567
 72
     1
 10
421.6103241361971
 20
116.019933190567
 11
421.419575124684
 21
116.078938774405
 72
     1
 10
421.419575124684
 20
116.078938774405
 11
421.244350993597
 21
116.174664153499
 72
     1
 10
421.244350993597
 20
116.174664153499
 11
421.091637376093
 21
116.303293059061
 72
     1
 10
421.091637376093
 20
116.303293059061
 11
420.967522482184
 21
116.45969746254
 72
     1
 10
420.967522482184
 20
116.45969746254
 11
420.876954381025
 21
116.637642013932
 72
     1
 10
420.876954381025
 20
116.637642013932
 11
420.823543737004
 21
116.830032625508
 72
     1
 10
420.823543737004
 20
116.830032625508
 11
420.808993466991
 21
116.9999997684
 72
     1
 10
420.808993466991
 20
116.9999997684
 11
420.808993466991
 21
124.2014906401
 72
     1
 10
420.808993466991
 20
124.2014906401
 11
420.789060044834
 21
124.400159970861
 72
     1
 10
420.789060044834
 20
124.400159970861
 11
420.730054460995
 21
124.590908982375
 72
     1
 10
420.730054460995
 20
124.590908982375
 11
420.634329081902
 21
124.766133113461
 72
     1
 10
420.634329081902
 20
124.766133113461
 11
420.505700176339
 21
124.918846730966
 72
     1
 10
420.505700176339
 20
124.918846730966
 11
420.3492957728601
 21
125.042961624874
 72
     1
 10
420.3492957728601
 20
125.042961624874
 11
420.171351221469
 21
125.133529726033
 72
     1
 10
420.171351221469
 20
125.133529726033
 11
419.978960609893
 21
125.186940370055
 72
     1
 10
419.978960609893
 20
125.186940370055
 11
419.808993466991
 21
125.2014906401
 72
     1
 10
419.808993466991
 20
125.2014906401
 11
413.208993466992
 21
125.201490640066
 72
     1
 10
413.208993466992
 20
125.201490640066
 11
413.208993466992
 21
129.799999768408
 72
     1
 10
413.208993466992
 20
129.799999768408
 11
414.708993466992
 21
130.799999768408
 72
     1
 10
414.708993466992
 20
130.799999768408
 11
414.708993466992
 21
135.056918640066
 72
     1
 10
414.708993466992
 20
135.056918640066
 11
415.458905103138
 21
135.499999768408
 72
     1
 10
415.458905103138
 20
135.499999768408
 11
415.458905103138
 21
136.399999768408
 72
     1
 10
415.458905103138
 20
136.399999768408
 11
411.459043520913
 21
143.301832201683
 72
     1
 10
411.459043520913
 20
143.301832201683
 11
411.458996464587
 21
158.999922879355
 72
     1
 10
411.458996464587
 20
158.999922879355
 11
411.4390624468661
 21
159.198592150417
 72
     1
 10
411.4390624468661
 20
159.198592150417
 11
411.380056291228
 21
159.389340985052
 72
     1
 10
411.380056291228
 20
159.389340985052
 11
411.284330386874
 21
159.564564829186
 72
     1
 10
411.284330386874
 20
159.564564829186
 11
411.155701023529
 21
159.717278061104
 72
     1
 10
411.155701023529
 20
159.717278061104
 11
410.999296247997
 21
159.841392486165
 72
     1
 10
410.999296247997
 20
159.841392486165
 11
410.821351425114
 21
159.931960053908
 72
     1
 10
410.821351425114
 20
159.931960053908
 11
410.6289606534321
 21
159.985370121208
 72
     1
 10
410.6289606534321
 20
159.985370121208
 11
410.458996464591
 21
159.9999198817
 72
     1
 10
410.458996464591
 20
159.9999198817
 11
328.208993466991
 21
159.9999198817
 72
     1
 10
328.208993466991
 20
159.9999198817
 11
326.2089934669923
 21
157.999919881721
 72
     1
 10
326.2089934669923
 20
157.999919881721
 11
326.2089934669923
 21
156.500340768408
 72
     1
 10
326.2089934669923
 20
156.500340768408
 11
407.958993466992
 21
156.500340768408
 72
     1
 10
407.958993466992
 20
156.500340768408
 11
407.959012466992
 21
142.399999768408
 72
     1
 10
407.959012466992
 20
142.399999768408
 11
410.1089934669921
 21
138.599999768408
 72
     1
 10
410.1089934669921
 20
138.599999768408
 11
410.108993466991
 21
74.00000176840001
 72
     1
 10
410.108993466991
 20
74.00000176840001
 11
412.958993466992
 21
74.00000176840803
 72
     1
 10
412.958993466992
 20
74.00000176840803
 11
413.6089934669921
 21
121.701941768408
 72
     1
 10
413.6089934669921
 20
121.701941768408
 11
417.308993466992
 21
121.701941768408
 97
        0
 75
     1
 76
     2
 52
0.0
 41
1.0
 77
     0
 78
     1
 53
44.99999999999998
 43
0.0
 44
0.0
 45
-4.490128060534577
 46
0.0000000000000018
 79
     0
 98
        1
 10
0.0
 20
0.0
  0
HATCH
  5
251
330
44
100
AcDbEntity
  8
0
  6
Continuous
 62
     7
100
AcDbHatch
 10
0.0
 20
0.0
 30
0.0
210
0.0
220
0.0
230
1.0
  2
CUSTOM3
 70
     0
 71
     0
 91
        1
 92
        1
 93
       13
 72
     1
 10
320.2089934669923
 20
159.999919881721
 11
312.208993466991
 21
159.9999198817
 72
     1
 10
312.208993466991
 20
159.9999198817
 11
311.8116548054021
 21
159.960053037403
 72
     1
 10
311.8116548054021
 20
159.960053037403
 11
311.430156782375
 21
159.842041869727
 72
     1
 10
311.430156782375
 20
159.842041869727
 11
311.0797085202022
 21
159.65059111154
 72
     1
 10
311.0797085202022
 20
159.65059111154
 11
310.7742812851932
 21
159.393333300415
 72
     1
 10
310.7742812851932
 20
159.393333300415
 11
310.5260514973765
 21
159.080524493457
 72
     1
 10
310.5260514973765
 20
159.080524493457
 11
310.3449152950578
 21
158.724635390674
 72
     1
 10
310.3449152950578
 20
158.724635390674
 11
310.2380940070153
 21
158.339854167521
 72
     1
 10
310.2380940070153
 20
158.339854167521
 11
310.208993466991
 21
157.9999198817
 72
     1
 10
310.208993466991
 20
157.9999198817
 11
310.208993466991
 21
156.5003407684
 72
     1
 10
310.208993466991
 20
156.5003407684
 11
322.2089934669923
 21
156.500340768408
 72
     1
 10
322.2089934669923
 20
156.500340768408
 11
322.2089934669923
 21
157.999919881721
 72
     1
 10
322.2089934669923
 20
157.999919881721
 11
320.2089934669923
 21
159.999919881721
 97
        0
 75
     1
 76
     2
 52
0.0
 41
1.0
 77
     0
 78
     1
 53
44.99999999999998
 43
0.0
 44
0.0
 45
-4.490128060534577
 46
0.0000000000000018
 79
     0
 98
        1
 10
0.0
 20
0.0
  0
HATCH
  5
252
330
44
100
AcDbEntity
  8
0
  6
Continuous
 62
     7
100
AcDbHatch
 10
0.0
 20
0.0
 30
0.0
210
0.0
220
0.0
230
1.0
  2
CUSTOM4
 70
     0
 71
     0
 91
        1
 92
        1
 93
       22
 72
     1
 10
554.9589934669921
 20
127.201490640066
 11
557.4589934669909
 21
127.2014906401
 72
     1
 10
557.4589934669909
 20
127.2014906401
 11
557.8563321285819
 21
127.161623795749
 72
     1
 10
557.8563321285819
 20
127.161623795749
 11
558.2378301516101
 21
127.043612628072
 72
     1
 10
558.2378301516101
 20
127.043612628072
 11
558.5882784137821
 21
126.852161869885
 72
     1
 10
558.5882784137821
 20
126.852161869885
 11
558.893705648791
 21
126.59490405876
 72
     1
 10
558.893705648791
 20
126.59490405876
 11
559.141935436608
 21
126.282095251802
 72
     1
 10
559.141935436608
 20
126.282095251802
 11
559.323071638927
 21
125.926206149019
 72
     1
 10
559.323071638927
 20
125.926206149019
 11
559.4298929269689
 21
125.541424925867
 72
     1
 10
559.4298929269689
 20
125.541424925867
 11
559.4589934669909
 21
125.2014906401
 72
     1
 10
559.4589934669909
 20
125.2014906401
 11
566.304293466992
 21
125.201490640066
 72
     1
 10
566.304293466992
 20
125.201490640066
 11
567.4589934669921
 21
127.201490640066
 72
     1
 10
567.4589934669921
 20
127.201490640066
 11
567.4589934669921
 21
129.701490640066
 72
     1
 10
567.4589934669921
 20
129.701490640066
 11
556.9589934669909
 21
129.7014906401
 72
     1
 10
556.9589934669909
 20
129.7014906401
 11
556.561654805402
 21
129.661623795749
 72
     1
 10
556.561654805402
 20
129.661623795749
 11
556.180156782375
 21
129.543612628072
 72
     1
 10
556.180156782375
 20
129.543612628072
 11
555.8297085202021
 21
129.352161869885
 72
     1
 10
555.8297085202021
 20
129.352161869885
 11
555.524281285193
 21
129.09490405876
 72
     1
 10
555.524281285193
 20
129.09490405876
 11
555.276051497376
 21
128.782095251802
 72
     1
 10
555.276051497376
 20
128.782095251802
 11
555.094915295058
 21
128.426206149019
 72
     1
 10
555.094915295058
 20
128.426206149019
 11
554.988094007015
 21
128.041424925867
 72
     1
 10
554.988094007015
 20
128.041424925867
 11
554.9589934669909
 21
127.7014906401
 72
     1
 10
554.9589934669909
 20
127.7014906401
 11
554.9589934669921
 21
127.201490640066
 97
        0
 75
     1
 76
     2
 52
0.0
 41
1.0
 77
     0
 78
     1
 53
44.99999999999998
 43
0.0
 44
0.0
 45
-4.490128060534577
 46
0.0000000000000018
 79
     0
 98
        1
 10
0.0
 20
0.0
  0
HATCH
  5
253
330
44
100
AcDbEntity
  8
0
  6
Continuous
 62
     7
100
AcDbHatch
 10
0.0
 20
0.0
 30
0.0
210
0.0
220
0.0
230
1.0
  2
CUSTOM5
 70
     0
 71
     0
 91
        1
 92
        1
 93
       22
 72
     1
 10
422.9589934669911
 20
127.2014906401
 11
425.458993466992
 21
127.201490640066
 72
     1
 10
425.458993466992
 20
127.201490640066
 11
425.4589934669911
 21
127.7014906401
 72
     1
 10
425.4589934669911
 20
127.7014906401
 11
425.419126622675
 21
128.098829301656
 72
     1
 10
425.419126622675
 20
128.098829301656
 11
425.301115454998
 21
128.480327324683
 72
     1
 10
425.301115454998
 20
128.480327324683
 11
425.1096646968121
 21
128.830775586856
 72
     1
 10
425.1096646968121
 20
128.830775586856
 11
424.852406885687
 21
129.136202821865
 72
     1
 10
424.852406885687
 20
129.136202821865
 11
424.539598078729
 21
129.384432609682
 72
     1
 10
424.539598078729
 20
129.384432609682
 11
424.1837089759461
 21
129.565568812001
 72
     1
 10
424.1837089759461
 20
129.565568812001
 11
423.798927752793
 21
129.672390100043
 72
     1
 10
423.798927752793
 20
129.672390100043
 11
423.4589934669911
 21
129.7014906401
 72
     1
 10
423.4589934669911
 20
129.7014906401
 11
412.958993466992
 21
129.701490640066
 72
     1
 10
412.958993466992
 20
129.701490640066
 11
412.958993466992
 21
127.201490640066
 72
     1
 10
412.958993466992
 20
127.201490640066
 11
414.113693466992
 21
125.201490640066
 72
     1
 10
414.113693466992
 20
125.201490640066
 11
420.9589934669911
 21
125.2014906401
 72
     1
 10
420.9589934669911
 20
125.2014906401
 11
420.99886031131
 21
125.598829301656
 72
     1
 10
420.99886031131
 20
125.598829301656
 11
421.116871478987
 21
125.980327324683
 72
     1
 10
421.116871478987
 20
125.980327324683
 11
421.308322237173
 21
126.330775586856
 72
     1
 10
421.308322237173
 20
126.330775586856
 11
421.565580048298
 21
126.636202821865
 72
     1
 10
421.565580048298
 20
126.636202821865
 11
421.8783888552561
 21
126.884432609682
 72
     1
 10
421.8783888552561
 20
126.884432609682
 11
422.234277958039
 21
127.065568812001
 72
     1
 10
422.234277958039
 20
127.065568812001
 11
422.619059181192
 21
127.172390100043
 72
     1
 10
422.619059181192
 20
127.172390100043
 11
422.9589934669911
 21
127.2014906401
 97
        0
 75
     1
 76
     2
 52
0.0
 41
1.0
 77
     0
 78
     1
 53
44.99999999999998
 43
0.0
 44
0.0
 45
-4.490128060534577
 46
0.0000000000000018
 79
     0
 98
        1
 10
0.0
 20
0.0
  0
HATCH
  5
254
330
44
100
AcDbEntity
  8
0
  6
Continuous
 62
     7
100
AcDbHatch
 10
0.0
 20
0.0
 30
0.0
210
0.0
220
0.0
230
1.0
  2
CUSTOM6
 70
     0
 71
     0
 91
        1
 92
        1
 93
       28
 72
     1
 10
426.058993466992
 20
61.50000176840803
 11
426.058993466992
 21
64.00000176840803
 72
     1
 10
426.058993466992
 20
64.00000176840803
 11
427.208993466992
 21
64.00000176840803
 72
     1
 10
427.208993466992
 20
64.00000176840803
 11
427.208993466992
 21
66.50000176840803
 72
     1
 10
427.208993466992
 20
66.50000176840803
 11
417.7089934669911
 21
66.50000176840001
 72
     1
 10
417.7089934669911
 20
66.50000176840001
 11
417.212320140005
 21
66.54983532380498
 72
     1
 10
417.212320140005
 20
66.54983532380498
 11
416.7354476112211
 21
66.69734928340102
 72
     1
 10
416.7354476112211
 20
66.69734928340102
 11
416.297387283505
 21
66.93666273113399
 72
     1
 10
416.297387283505
 20
66.93666273113399
 11
415.915603239743
 21
67.25823499504003
 72
     1
 10
415.915603239743
 20
67.25823499504003
 11
415.605316004973
 21
67.64924600373803
 72
     1
 10
415.605316004973
 20
67.64924600373803
 11
415.378895752074
 21
68.09410738221698
 72
     1
 10
415.378895752074
 20
68.09410738221698
 11
415.245369142021
 21
68.575083911158
 72
     1
 10
415.245369142021
 20
68.575083911158
 11
415.2089934669911
 21
69.00000176840001
 72
     1
 10
415.2089934669911
 20
69.00000176840001
 11
415.208993466992
 21
80.00000176840803
 72
     1
 10
415.208993466992
 20
80.00000176840803
 11
413.936933935525
 21
80.00000176840803
 72
     1
 10
413.936933935525
 20
80.00000176840803
 11
413.208993466992
 21
78.00000176840803
 72
     1
 10
413.208993466992
 20
78.00000176840803
 11
413.208993466992
 21
74.00000176840803
 72
     1
 10
413.208993466992
 20
74.00000176840803
 11
410.208993466992
 21
74.00000176840803
 72
     1
 10
410.208993466992
 20
74.00000176840803
 11
410.2089934669911
 21
72.00000176840001
 72
     1
 10
410.2089934669911
 20
72.00000176840001
 11
410.368460844262
 21
70.41064712204798
 72
     1
 10
410.368460844262
 20
70.41064712204798
 11
410.840505514969
 21
68.88465502993898
 72
     1
 10
410.840505514969
 20
68.88465502993898
 11
411.606308547715
 21
67.48286198124799
 72
     1
 10
411.606308547715
 20
67.48286198124799
 11
412.635339792215
 21
66.26115304121203
 72
     1
 10
412.635339792215
 20
66.26115304121203
 11
413.886575020047
 21
65.26823388994501
 72
     1
 10
413.886575020047
 20
65.26823388994501
 11
415.310131431179
 21
64.54368908067102
 72
     1
 10
415.310131431179
 20
64.54368908067102
 11
416.84925632379
 21
64.11640392850103
 72
     1
 10
416.84925632379
 20
64.11640392850103
 11
417.558993466993
 21
64.02645174347401
 72
     1
 10
417.558993466993
 20
64.02645174347401
 11
417.558993466992
 21
61.50000176840803
 72
     1
 10
417.558993466992
 20
61.50000176840803
 11
426.058993466992
 21
61.50000176840803
 97
        0
 75
     1
 76
     2
 52
0.0
 41
1.0
 77
     0
 78
     1
 53
44.99999999999998
 43
0.0
 44
0.0
 45
-4.490128060534577
 46
0.0000000000000018
 79
     0
 98
        1
 10
0.0
 20
0.0
  0
HATCH
  5
255
330
44
100
AcDbEntity
  8
0
  6
Continuous
 62
     7
100
AcDbHatch
 10
0.0
 20
0.0
 30
0.0
210
0.0
220
0.0
230
1.0
  2
CUSTOM7
 70
     0
 71
     0
 91
        1
 92
        1
 93
       28
 72
     1
 10
553.2089934669921
 20
66.50000176840803
 11
553.2089934669921
 21
64.00000176840803
 72
     1
 10
553.2089934669921
 20
64.00000176840803
 11
554.3589934669919
 21
64.00000176840803
 72
     1
 10
554.3589934669919
 20
64.00000176840803
 11
554.3589934669919
 21
61.50000176840803
 72
     1
 10
554.3589934669919
 20
61.50000176840803
 11
562.8589934669919
 21
61.50000176840803
 72
     1
 10
562.8589934669919
 20
61.50000176840803
 11
562.858993466989
 21
64.02645174347401
 72
     1
 10
562.858993466989
 20
64.02645174347401
 11
564.4301365901019
 21
64.31452694724999
 72
     1
 10
564.4301365901019
 20
64.31452694724999
 11
565.9127297461159
 21
64.90899777921902
 72
     1
 10
565.9127297461159
 20
64.90899777921902
 11
567.247666624497
 21
65.78616456328001
 72
     1
 10
567.247666624497
 20
65.78616456328001
 11
568.381727504541
 21
66.91105742781201
 72
     1
 10
568.381727504541
 20
66.91105742781201
 11
569.2697009576959
 21
68.23883044411099
 72
     1
 10
569.2697009576959
 20
68.23883044411099
 11
569.876186284548
 21
69.71654949204702
 72
     1
 10
569.876186284548
 20
69.71654949204702
 11
570.17700482899
 21
71.28530257639198
 72
     1
 10
570.17700482899
 20
71.28530257639198
 11
570.2089934669909
 21
72.00000176840001
 72
     1
 10
570.2089934669909
 20
72.00000176840001
 11
570.2089934669921
 21
74.00000176840803
 72
     1
 10
570.2089934669921
 20
74.00000176840803
 11
567.2089934669921
 21
74.00000176840803
 72
     1
 10
567.2089934669921
 20
74.00000176840803
 11
567.2089934669921
 21
78.00000176840803
 72
     1
 10
567.2089934669921
 20
78.00000176840803
 11
566.48105299846
 21
80.00000176840803
 72
     1
 10
566.48105299846
 20
80.00000176840803
 11
565.2089934669921
 21
80.00000176840803
 72
     1
 10
565.2089934669921
 20
80.00000176840803
 11
565.2089934669909
 21
69.00000176840001
 72
     1
 10
565.2089934669909
 20
69.00000176840001
 11
565.159159911595
 21
68.50332844142099
 72
     1
 10
565.159159911595
 20
68.50332844142099
 11
565.011645952
 21
68.026455912637
 72
     1
 10
565.011645952
 20
68.026455912637
 11
564.7723325042659
 21
67.58839558492099
 72
     1
 10
564.7723325042659
 20
67.58839558492099
 11
564.4507602403601
 21
67.20661154115902
 72
     1
 10
564.4507602403601
 20
67.20661154115902
 11
564.0597492316631
 21
66.89632430638898
 72
     1
 10
564.0597492316631
 20
66.89632430638898
 11
563.614887853184
 21
66.66990405349003
 72
     1
 10
563.614887853184
 20
66.66990405349003
 11
563.133911324243
 21
66.536377443437
 72
     1
 10
563.133911324243
 20
66.536377443437
 11
562.7089934669909
 21
66.50000176840001
 72
     1
 10
562.7089934669909
 20
66.50000176840001
 11
553.2089934669921
 21
66.50000176840803
 97
        0
 75
     1
 76
     2
 52
0.0
 41
1.0
 77
     0
 78
     1
 53
44.99999999999998
 43
0.0
 44
0.0
 45
-4.490128060534577
 46
0.0000000000000018
 79
     0
 98
        1
 10
0.0
 20
0.0
  0
HATCH
  5
256
330
44
100
AcDbEntity
  8
0
  6
Continuous
 62
     7
100
AcDbHatch
 10
0.0
 20
0.0
 30
0.0
210
0.0
220
0.0
230
1.0
  2
CUSTOM8
 70
     0
 71
     0
 91
        1
 92
        1
 93
      118
 72
     1
 10
546.408993466992
 20
199.287832781532
 11
546.408993466992
 21
194.599985381707
 72
     1
 10
546.408993466992
 20
194.599985381707
 11
548.11523002762
 21
194.599985381707
 72
     1
 10
548.11523002762
 20
194.599985381707
 11
560.708621695229
 21
159.99991892769
 72
     1
 10
560.708621695229
 20
159.99991892769
 11
560.7089934669921
 21
159.999919881721
 72
     1
 10
560.7089934669921
 20
159.999919881721
 11
560.7089934669921
 21
152.299919881721
 72
     1
 10
560.7089934669921
 20
152.299919881721
 11
561.2089934669921
 21
152.299919881721
 72
     1
 10
561.2089934669921
 20
152.299919881721
 11
561.2089934669921
 21
130.999919881721
 72
     1
 10
561.2089934669921
 20
130.999919881721
 11
564.608993466991
 21
130.9999198817
 72
     1
 10
564.608993466991
 20
130.9999198817
 11
564.8076627977871
 21
131.01985330388
 72
     1
 10
564.8076627977871
 20
131.01985330388
 11
564.9984118093009
 21
131.078858887718
 72
     1
 10
564.9984118093009
 20
131.078858887718
 11
565.1736359403869
 21
131.174584266811
 72
     1
 10
565.1736359403869
 20
131.174584266811
 11
565.326349557892
 21
131.303213172374
 72
     1
 10
565.326349557892
 20
131.303213172374
 11
565.4504644518
 21
131.459617575853
 72
     1
 10
565.4504644518
 20
131.459617575853
 11
565.54103255296
 21
131.637562127244
 72
     1
 10
565.54103255296
 20
131.637562127244
 11
565.594443196981
 21
131.829952738821
 72
     1
 10
565.594443196981
 20
131.829952738821
 11
565.608993466991
 21
131.9999198817
 72
     1
 10
565.608993466991
 20
131.9999198817
 11
565.589060044834
 21
132.198589212516
 72
     1
 10
565.589060044834
 20
132.198589212516
 11
565.530054460995
 21
132.38933822403
 72
     1
 10
565.530054460995
 20
132.38933822403
 11
565.434329081902
 21
132.564562355116
 72
     1
 10
565.434329081902
 20
132.564562355116
 11
565.3057001763391
 21
132.717275972621
 72
     1
 10
565.3057001763391
 20
132.717275972621
 11
565.14929577286
 21
132.841390866529
 72
     1
 10
565.14929577286
 20
132.841390866529
 11
564.971351221469
 21
132.931958967688
 72
     1
 10
564.971351221469
 20
132.931958967688
 11
564.778960609893
 21
132.98536961171
 72
     1
 10
564.778960609893
 20
132.98536961171
 11
564.608993466991
 21
132.9999198817
 72
     1
 10
564.608993466991
 20
132.9999198817
 11
564.1089934669919
 21
132.999919881721
 72
     1
 10
564.1089934669919
 20
132.999919881721
 11
564.1089934669919
 21
159.999919881721
 72
     1
 10
564.1089934669919
 20
159.999919881721
 11
572.601891284841
 21
159.999919881721
 72
     1
 10
572.601891284841
 20
159.999919881721
 11
575.7944582848411
 21
161.824243881721
 72
     1
 10
575.7944582848411
 20
161.824243881721
 11
552.752964702456
 21
225.1302279767
 72
     1
 10
552.752964702456
 20
225.1302279767
 11
551.452761672438
 21
227.8282850651
 72
     1
 10
551.452761672438
 20
227.8282850651
 11
549.6424549421
 21
230.21425017665
 72
     1
 10
549.6424549421
 20
230.21425017665
 11
547.394215728043
 21
232.193002411726
 72
     1
 10
547.394215728043
 20
232.193002411726
 11
544.797674233002
 21
233.685655163029
 72
     1
 10
544.797674233002
 20
233.685655163029
 11
541.9563463725231
 21
234.632701075702
 72
     1
 10
541.9563463725231
 20
234.632701075702
 11
538.983506922076
 21
234.996384417783
 72
     1
 10
538.983506922076
 20
234.996384417783
 11
538.657575370691
 21
234.9999258817
 72
     1
 10
538.657575370691
 20
234.9999258817
 11
519.6380755092471
 21
234.999925881721
 72
     1
 10
519.6380755092471
 20
234.999925881721
 11
519.6380755092471
 21
235.099925881721
 72
     1
 10
519.6380755092471
 20
235.099925881721
 11
517.315008990491
 21
235.099925881721
 72
     1
 10
517.315008990491
 20
235.099925881721
 11
517.315008990491
 21
234.999925881721
 72
     1
 10
517.315008990491
 20
234.999925881721
 11
516.836768058444
 21
234.999925881721
 72
     1
 10
516.836768058444
 20
234.999925881721
 11
516.836768058444
 21
235.099925881721
 72
     1
 10
516.836768058444
 20
235.099925881721
 11
514.923799058444
 21
235.099925881721
 72
     1
 10
514.923799058444
 20
235.099925881721
 11
514.923799058444
 21
234.999925881721
 72
     1
 10
514.923799058444
 20
234.999925881721
 11
514.575985252131
 21
234.999925881721
 72
     1
 10
514.575985252131
 20
234.999925881721
 11
514.575985252131
 21
235.099925881721
 72
     1
 10
514.575985252131
 20
235.099925881721
 11
513.793407558444
 21
235.099925881721
 72
     1
 10
513.793407558444
 20
235.099925881721
 11
513.793407558444
 21
234.999925881721
 72
     1
 10
513.793407558444
 20
234.999925881721
 11
513.228212058444
 21
234.999925881721
 72
     1
 10
513.228212058444
 20
234.999925881721
 11
513.228212058444
 21
235.099925881721
 72
     1
 10
513.228212058444
 20
235.099925881721
 11
512.40215736092
 21
235.099925881721
 72
     1
 10
512.40215736092
 20
235.099925881721
 11
512.40215736092
 21
234.999925881721
 72
     1
 10
512.40215736092
 20
234.999925881721
 11
511.836962058444
 21
234.999925881721
 72
     1
 10
511.836962058444
 20
234.999925881721
 11
511.836962058444
 21
235.099925881721
 72
     1
 10
511.836962058444
 20
235.099925881721
 11
511.054384058444
 21
235.099925881721
 72
     1
 10
511.054384058444
 20
235.099925881721
 11
511.054384058444
 21
234.999925881721
 72
     1
 10
511.054384058444
 20
234.999925881721
 11
509.967470058444
 21
234.999925881721
 72
     1
 10
509.967470058444
 20
234.999925881721
 11
509.967470058444
 21
235.099925881721
 72
     1
 10
509.967470058444
 20
235.099925881721
 11
509.184891058444
 21
235.099925881721
 72
     1
 10
509.184891058444
 20
235.099925881721
 11
509.184891058444
 21
234.999925881721
 72
     1
 10
509.184891058444
 20
234.999925881721
 11
508.097977058444
 21
234.999925881721
 72
     1
 10
508.097977058444
 20
234.999925881721
 11
508.097977058444
 21
235.099925881721
 72
     1
 10
508.097977058444
 20
235.099925881721
 11
507.315399058444
 21
235.099925881721
 72
     1
 10
507.315399058444
 20
235.099925881721
 11
507.315399058444
 21
234.999925881721
 72
     1
 10
507.315399058444
 20
234.999925881721
 11
506.880632558444
 21
234.999925881721
 72
     1
 10
506.880632558444
 20
234.999925881721
 11
506.880632558444
 21
235.099925881721
 72
     1
 10
506.880632558444
 20
235.099925881721
 11
504.532899058444
 21
235.099925881721
 72
     1
 10
504.532899058444
 20
235.099925881721
 11
504.532899058444
 21
234.999925881721
 72
     1
 10
504.532899058444
 20
234.999925881721
 11
504.154036058444
 21
234.999925881721
 72
     1
 10
504.154036058444
 20
234.999925881721
 11
504.154036058444
 21
235.099925881721
 72
     1
 10
504.154036058444
 20
235.099925881721
 11
503.414934558444
 21
235.099925881721
 72
     1
 10
503.414934558444
 20
235.099925881721
 11
503.414934558444
 21
234.999925881721
 72
     1
 10
503.414934558444
 20
234.999925881721
 11
502.837312058444
 21
234.999925881721
 72
     1
 10
502.837312058444
 20
234.999925881721
 11
502.837312058444
 21
235.099925881721
 72
     1
 10
502.837312058444
 20
235.099925881721
 11
502.011258058444
 21
235.099925881721
 72
     1
 10
502.011258058444
 20
235.099925881721
 11
502.011258058444
 21
234.999925881721
 72
     1
 10
502.011258058444
 20
234.999925881721
 11
441.760411563291
 21
234.9999258817
 72
     1
 10
441.760411563291
 20
234.9999258817
 11
438.780371601352
 21
234.70092454934
 72
     1
 10
438.780371601352
 20
234.70092454934
 11
435.919136428648
 21
233.815840791764
 72
     1
 10
435.919136428648
 20
233.815840791764
 11
433.290774462352
 21
232.379960105366
 72
     1
 10
433.290774462352
 20
232.379960105366
 11
431.000070199785
 21
230.450526521929
 72
     1
 10
431.000070199785
 20
230.450526521929
 11
429.138346791159
 21
228.104460469743
 72
     1
 10
429.138346791159
 20
228.104460469743
 11
427.77982527377
 21
225.435292198871
 72
     1
 10
427.77982527377
 20
225.435292198871
 11
427.665022231526
 21
225.1302279767
 72
     1
 10
427.665022231526
 20
225.1302279767
 11
404.623528649144
 21
161.824243881721
 72
     1
 10
404.623528649144
 20
161.824243881721
 11
407.816095649144
 21
159.999919881721
 72
     1
 10
407.816095649144
 20
159.999919881721
 11
416.308993466992
 21
159.999919881721
 72
     1
 10
416.308993466992
 20
159.999919881721
 11
416.308993466992
 21
132.999919881721
 72
     1
 10
416.308993466992
 20
132.999919881721
 11
415.808993466991
 21
132.9999198817
 72
     1
 10
415.808993466991
 20
132.9999198817
 11
415.6103241361971
 21
132.979986459562
 72
     1
 10
415.6103241361971
 20
132.979986459562
 11
415.419575124684
 21
132.920980875724
 72
     1
 10
415.419575124684
 20
132.920980875724
 11
415.244350993597
 21
132.825255496631
 72
     1
 10
415.244350993597
 20
132.825255496631
 11
415.091637376093
 21
132.696626591068
 72
     1
 10
415.091637376093
 20
132.696626591068
 11
414.967522482184
 21
132.540222187589
 72
     1
 10
414.967522482184
 20
132.540222187589
 11
414.876954381025
 21
132.362277636198
 72
     1
 10
414.876954381025
 20
132.362277636198
 11
414.823543737004
 21
132.169887024621
 72
     1
 10
414.823543737004
 20
132.169887024621
 11
414.808993466991
 21
131.9999198817
 72
     1
 10
414.808993466991
 20
131.9999198817
 11
414.828926889151
 21
131.801250550926
 72
     1
 10
414.828926889151
 20
131.801250550926
 11
414.887932472989
 21
131.610501539412
 72
     1
 10
414.887932472989
 20
131.610501539412
 11
414.983657852083
 21
131.435277408326
 72
     1
 10
414.983657852083
 20
131.435277408326
 11
415.112286757645
 21
131.282563790822
 72
     1
 10
415.112286757645
 20
131.282563790822
 11
415.268691161124
 21
131.158448896913
 72
     1
 10
415.268691161124
 20
131.158448896913
 11
415.446635712516
 21
131.067880795754
 72
     1
 10
415.446635712516
 20
131.067880795754
 11
415.639026324092
 21
131.014470151733
 72
     1
 10
415.639026324092
 20
131.014470151733
 11
415.808993466991
 21
130.9999198817
 72
     1
 10
415.808993466991
 20
130.9999198817
 11
419.208993466992
 21
130.999919881721
 72
     1
 10
419.208993466992
 20
130.999919881721
 11
419.208993466992
 21
152.299919881721
 72
     1
 10
419.208993466992
 20
152.299919881721
 11
419.708993466992
 21
152.299919881721
 72
     1
 10
419.708993466992
 20
152.299919881721
 11
419.708993466992
 21
159.999919881721
 72
     1
 10
419.708993466992
 20
159.999919881721
 11
419.709365238755
 21
159.99991892769
 72
     1
 10
419.709365238755
 20
159.99991892769
 11
432.302756906365
 21
194.599985381707
 72
     1
 10
432.302756906365
 20
194.599985381707
 11
434.008993466992
 21
194.599985381707
 72
     1
 10
434.008993466992
 20
194.599985381707
 11
434.008993466992
 21
199.287832781532
 72
     1
 10
434.008993466992
 20
199.287832781532
 11
441.760411563278
 21
220.584683409483
 72
     1
 10
441.760411563278
 20
220.584683409483
 11
441.760411563278
 21
220.199925881721
 72
     1
 10
441.760411563278
 20
220.199925881721
 11
538.657575370707
 21
220.199925881721
 72
     1
 10
538.657575370707
 20
220.199925881721
 11
538.657575370707
 21
220.584683409483
 72
     1
 10
538.657575370707
 20
220.584683409483
 11
546.408993466992
 21
199.287832781532
 97
        0
 75
     1
 76
     2
 52
0.0
 41
1.0
 77
     0
 78
     1
 53
44.99999999999998
 43
0.0
 44
0.0
 45
-4.490128060534577
 46
0.0000000000000018
 79
     0
 98
        1
 10
0.0
 20
0.0
  0
ENDBLK
  5
46
330
44
100
AcDbEntity
  8
0
100
AcDbBlockEnd
  0
BLOCK
  5
6B
330
47
100
AcDbEntity
  8
0
100
AcDbBlockBegin
  2
HL_62P_2_DN125_Dachablauf
 70
     0
 10
466.7910839455735
 20
109.0494048679173
 30
0.0
  3
HL_62P_2_DN125_Dachablauf
  1

  0
INSERT
  5
6A
330
47
100
AcDbEntity
  8
0
100
AcDbBlockReference
  2
HL62P_2
 10
466.7910839455735
 20
109.0494048679173
 30
0.0
  0
ENDBLK
  5
6C
330
47
100
AcDbEntity
  8
0
100
AcDbBlockEnd
  0
BLOCK
  5
21E
330
216
100
AcDbEntity
  8
0
100
AcDbBlockBegin
  2
*D3
 70
     1
 10
0.0
 20
0.0
 30
0.0
  3
*D3
  1

  0
LINE
  5
217
330
216
100
AcDbEntity
  8
1
  6
Continuous
 62
     4
100
AcDbLine
 10
310.208989089691
 20
253.13286309336
 30
0.0
 11
670.208988493591
 21
253.13286309336
 31
0.0
  0
LINE
  5
218
330
216
100
AcDbEntity
  8
1
  6
Continuous
 62
     4
100
AcDbLine
 10
310.208989089691
 20
157.9999178648
 30
0.0
 11
310.208989089691
 21
255.13286309336
 31
0.0
  0
LINE
  5
219
330
216
100
AcDbEntity
  8
1
  6
Continuous
 62
     4
100
AcDbLine
 10
670.208988493591
 20
157.9999178648
 30
0.0
 11
670.208988493591
 21
255.13286309336
 31
0.0
  0
SOLID
  5
21A
330
216
100
AcDbEntity
  8
1
 62
     4
100
AcDbTrace
 10
320.208989089691
 20
254.449388069234
 30
0.0
 11
320.208989089691
 21
251.8163381174861
 31
0.0
 12
310.208989089691
 22
253.13286309336
 32
0.0
 13
310.208989089691
 23
253.13286309336
 33
0.0
  0
SOLID
  5
21B
330
216
100
AcDbEntity
  8
1
 62
     4
100
AcDbTrace
 10
660.208988493591
 20
251.8163381174861
 30
0.0
 11
660.208988493591
 21
254.449388069234
 31
0.0
 12
670.208988493591
 22
253.13286309336
 32
0.0
 13
670.208988493591
 23
253.13286309336
 33
0.0
  0
MTEXT
  5
21D
330
216
100
AcDbEntity
  8
1
 62
     1
100
AcDbMText
 10
467.6196591343262
 20
255.1328233386382
 30
0.0
 40
10.0
 41
0.0
 71
     7
 72
     1
  1
\C1;%%c\C1;360
  7
CONVERTER_11
 11
0.9999999999970619
 21
2.424068405545306E-6
 31
0.0
 73
     1
 44
0.60024009603842
  0
ENDBLK
  5
21F
330
216
100
AcDbEntity
  8
0
100
AcDbBlockEnd
  0
BLOCK
  5
229
330
222
100
AcDbEntity
  8
0
100
AcDbBlockBegin
  2
*D4
 70
     1
 10
0.0
 20
0.0
 30
0.0
  3
*D4
  1

  0
LINE
  5
223
330
222
100
AcDbEntity
  8
1
  6
Continuous
 62
     4
100
AcDbLine
 10
427.708996242191
 20
-24.5874802337052
 30
0.0
 11
552.708994379591
 21
-24.5874802337052
 31
0.0
  0
LINE
  5
224
330
222
100
AcDbEntity
  8
1
  6
Continuous
 62
     4
100
AcDbLine
 10
427.708996242191
 20
5.00000268220001
 30
0.0
 11
427.708996242191
 21
-26.5874802337052
 31
0.0
  0
LINE
  5
225
330
222
100
AcDbEntity
  8
1
  6
Continuous
 62
     4
100
AcDbLine
 10
552.708994379591
 20
5.00000268220001
 30
0.0
 11
552.708994379591
 21
-26.5874802337052
 31
0.0
  0
SOLID
  5
226
330
222
100
AcDbEntity
  8
1
 62
     4
100
AcDbTrace
 10
437.708996242191
 20
-23.27095525783124
 30
0.0
 11
437.708996242191
 21
-25.90400520957916
 31
0.0
 12
427.708996242191
 22
-24.5874802337052
 32
0.0
 13
427.708996242191
 23
-24.5874802337052
 33
0.0
  0
SOLID
  5
227
330
222
100
AcDbEntity
  8
1
 62
     4
100
AcDbTrace
 10
542.708994379591
 20
-25.90400520957916
 30
0.0
 11
542.708994379591
 21
-23.27095525783124
 31
0.0
 12
552.708994379591
 22
-24.5874802337052
 32
0.0
 13
552.708994379591
 23
-24.5874802337052
 33
0.0
  0
MTEXT
  5
228
330
222
100
AcDbEntity
  8
1
 62
     1
100
AcDbMText
 10
473.7833589423932
 20
-22.58751998842705
 30
0.0
 40
10.0
 41
0.0
 71
     7
 72
     1
  1
\C1;DN\C1;125
  7
CONVERTER_11
 11
0.9999999999970619
 21
2.424068405545306E-6
 31
0.0
 73
     1
 44
0.60024009603842
  0
ENDBLK
  5
22A
330
222
100
AcDbEntity
  8
0
100
AcDbBlockEnd
  0
BLOCK
  5
234
330
22D
100
AcDbEntity
  8
0
100
AcDbBlockBegin
  2
*D5
 70
     1
 10
0.0
 20
0.0
 30
0.0
  3
*D5
  1

  0
LINE
  5
22E
330
22D
100
AcDbEntity
  8
1
  6
Continuous
 62
     4
100
AcDbLine
 10
410.108996337591
 20
-45.03405335752549
 30
0.0
 11
570.308992421591
 21
-45.03405335752549
 31
0.0
  0
LINE
  5
22F
330
22D
100
AcDbEntity
  8
1
  6
Continuous
 62
     4
100
AcDbLine
 10
410.108996337591
 20
74.00000188500002
 30
0.0
 11
410.108996337591
 21
-47.03405335752549
 31
0.0
  0
LINE
  5
230
330
22D
100
AcDbEntity
  8
1
  6
Continuous
 62
     4
100
AcDbLine
 10
570.308992421591
 20
74.00000188500002
 30
0.0
 11
570.308992421591
 21
-47.03405335752549
 31
0.0
  0
SOLID
  5
231
330
22D
100
AcDbEntity
  8
1
 62
     4
100
AcDbTrace
 10
420.108996337591
 20
-43.71752838165153
 30
0.0
 11
420.108996337591
 21
-46.35057833339945
 31
0.0
 12
410.108996337591
 22
-45.03405335752549
 32
0.0
 13
410.108996337591
 23
-45.03405335752549
 33
0.0
  0
SOLID
  5
232
330
22D
100
AcDbEntity
  8
1
 62
     4
100
AcDbTrace
 10
560.308992421591
 20
-46.35057833339944
 30
0.0
 11
560.308992421591
 21
-43.71752838165153
 31
0.0
 12
570.308992421591
 22
-45.03405335752549
 32
0.0
 13
570.308992421591
 23
-45.03405335752549
 33
0.0
  0
MTEXT
  5
233
330
22D
100
AcDbEntity
  8
1
 62
     1
100
AcDbMText
 10
470.0503322626322
 20
-43.03409311224734
 30
0.0
 40
10.0
 41
0.0
 71
     7
 72
     1
  1
\C1;%%c\C1;160
  7
CONVERTER_11
 11
0.9999999999970619
 21
2.424068405545306E-6
 31
0.0
 73
     1
 44
0.60024009603842
  0
ENDBLK
  5
235
330
22D
100
AcDbEntity
  8
0
100
AcDbBlockEnd
  0
BLOCK
  5
23F
330
238
100
AcDbEntity
  8
0
100
AcDbBlockBegin
  2
*D6
 70
     1
 10
0.0
 20
0.0
 30
0.0
  3
*D6
  1

  0
LINE
  5
239
330
238
100
AcDbEntity
  8
1
  6
Continuous
 62
     4
100
AcDbLine
 10
296.167071988057
 20
159.9999219179
 30
0.0
 11
296.167071988057
 21
64.02645174347401
 31
0.0
  0
LINE
  5
23A
330
238
100
AcDbEntity
  8
1
  6
Continuous
 62
     4
100
AcDbLine
 10
312.208993142791
 20
159.9999219179
 30
0.0
 11
294.167071988057
 21
159.9999219179
 31
0.0
  0
LINE
  5
23B
330
238
100
AcDbEntity
  8
1
  6
Continuous
 62
     4
100
AcDbLine
 10
417.558993466993
 20
64.02645174347401
 30
0.0
 11
294.167071988057
 21
64.02645174347401
 31
0.0
  0
SOLID
  5
23C
330
238
100
AcDbEntity
  8
1
 62
     4
100
AcDbTrace
 10
297.4835969639309
 20
149.9999219179
 30
0.0
 11
294.850547012183
 21
149.9999219179
 31
0.0
 12
296.167071988057
 22
159.9999219179
 32
0.0
 13
296.167071988057
 23
159.9999219179
 33
0.0
  0
SOLID
  5
23D
330
238
100
AcDbEntity
  8
1
 62
     4
100
AcDbTrace
 10
294.850547012183
 20
74.02645174347401
 30
0.0
 11
297.4835969639309
 21
74.02645174347401
 31
0.0
 12
296.167071988057
 22
64.02645174347401
 32
0.0
 13
296.167071988057
 23
64.02645174347401
 33
0.0
  0
MTEXT
  5
23E
330
238
100
AcDbEntity
  8
1
 62
     1
100
AcDbMText
 10
294.167071988057
 20
105.6897869898
 30
0.0
 40
10.0
 41
0.0
 71
     7
 72
     1
  1
96
  7
CONVERTER_11
 11
0.0
 21
1.0
 31
0.0
 73
     1
 44
0.60024009603842
  0
ENDBLK
  5
240
330
238
100
AcDbEntity
  8
0
100
AcDbBlockEnd
  0
BLOCK
  5
24A
330
243
100
AcDbEntity
  8
0
100
AcDbBlockBegin
  2
*D7
 70
     1
 10
0.0
 20
0.0
 30
0.0
  3
*D7
  1

  0
LINE
  5
244
330
243
100
AcDbEntity
  8
1
  6
Continuous
 62
     4
100
AcDbLine
 10
275.298174424156
 20
159.9999219179
 30
0.0
 11
275.298174424156
 21
0.0
 31
0.0
  0
LINE
  5
245
330
243
100
AcDbEntity
  8
1
  6
Continuous
 62
     4
100
AcDbLine
 10
312.208993142791
 20
159.9999219179
 30
0.0
 11
273.298174424156
 21
159.9999219179
 31
0.0
  0
LINE
  5
246
330
243
100
AcDbEntity
  8
1
  6
Continuous
 62
     4
100
AcDbLine
 10
431.208995884591
 20
0.0
 30
0.0
 11
273.298174424156
 21
0.0
 31
0.0
  0
SOLID
  5
247
330
243
100
AcDbEntity
  8
1
 62
     4
100
AcDbTrace
 10
276.61469940003
 20
149.9999219179
 30
0.0
 11
273.981649448282
 21
149.9999219179
 31
0.0
 12
275.298174424156
 22
159.9999219179
 32
0.0
 13
275.298174424156
 23
159.9999219179
 33
0.0
  0
SOLID
  5
248
330
243
100
AcDbEntity
  8
1
 62
     4
100
AcDbTrace
 10
273.981649448282
 20
10.0
 30
0.0
 11
276.61469940003
 21
10.0
 31
0.0
 12
275.298174424156
 22
0.0
 32
0.0
 13
275.298174424156
 23
0.0
 33
0.0
  0
MTEXT
  5
249
330
243
100
AcDbEntity
  8
1
 62
     1
100
AcDbMText
 10
273.298174424156
 20
73.9717250643869
 30
0.0
 40
10.0
 41
0.0
 71
     7
 72
     1
  1
160
  7
CONVERTER_11
 11
0.0
 21
1.0
 31
0.0
 73
     1
 44
0.60024009603842
  0
ENDBLK
  5
24B
330
243
100
AcDbEntity
  8
0
100
AcDbBlockEnd
  0
ENDSEC
  0
SECTION
  2
ENTITIES
  0
INSERT
  5
6D
330
1F
100
AcDbEntity
  8
0
100
AcDbBlockReference
  2
HL_62P_2_DN125_Dachablauf
 10
466.7910839455735
 20
109.0494048679173
 30
0.0
  0
ENDSEC
  0
SECTION
  2
OBJECTS
  0
DICTIONARY
  5
C
330
0
100
AcDbDictionary
281
     1
  3
ACAD_GROUP
350
D
  3
ACAD_LAYOUT
350
1A
  3
ACAD_MLEADERSTYLE
350
259
  3
ACAD_MLINESTYLE
350
17
  3
ACAD_PLOTSETTINGS
350
19
  3
ACAD_PLOTSTYLENAME
350
E
  3
ACAD_SCALELIST
350
48
  3
ACAD_VISUALSTYLE
350
2A
  3
AcDbVariableDictionary
350
257
  0
DICTIONARY
  5
D
102
{ACAD_REACTORS
330
C
102
}
330
C
100
AcDbDictionary
281
     1
  0
DICTIONARY
  5
1A
102
{ACAD_REACTORS
330
C
102
}
330
C
100
AcDbDictionary
281
     1
  3
Layout1
350
1E
  3
Layout2
350
26
  3
Model
350
22
  0
DICTIONARY
  5
259
102
{ACAD_REACTORS
330
C
102
}
330
C
100
AcDbDictionary
281
     1
  0
DICTIONARY
  5
17
102
{ACAD_REACTORS
330
C
102
}
330
C
100
AcDbDictionary
281
     1
  3
Standard
350
18
  0
DICTIONARY
  5
19
102
{ACAD_REACTORS
330
C
102
}
330
C
100
AcDbDictionary
281
     1
  0
ACDBDICTIONARYWDFLT
  5
E
102
{ACAD_REACTORS
330
C
102
}
330
C
100
AcDbDictionary
281
     1
  3
Normal
350
F
100
AcDbDictionaryWithDefault
340
F
  0
DICTIONARY
  5
48
102
{ACAD_REACTORS
330
C
102
}
330
C
100
AcDbDictionary
281
     1
  3
A0
350
49
  3
A1
350
4A
  3
A2
350
4B
  3
A3
350
4C
  3
A4
350
4D
  3
A5
350
4E
  3
A6
350
4F
  3
A7
350
50
  3
A8
350
51
  3
A9
350
52
  3
B0
350
53
  3
B1
350
54
  3
B2
350
55
  3
B3
350
56
  3
B4
350
57
  3
B5
350
58
  3
B6
350
59
  3
B7
350
5A
  3
B8
350
5B
  3
B9
350
5C
  3
C0
350
5D
  3
C1
350
5E
  3
C2
350
5F
  3
C3
350
60
  3
C4
350
61
  3
C5
350
62
  3
C6
350
63
  3
C7
350
64
  3
C8
350
65
  3
C9
350
66
  3
D0
350
67
  3
D1
350
68
  3
D2
350
69
  0
DICTIONARY
  5
2A
102
{ACAD_REACTORS
330
C
102
}
330
C
100
AcDbDictionary
281
     1
  3
2dWireframe
350
2F
  3
3D Hidden
350
31
  3
3dWireframe
350
30
  3
Basic
350
32
  3
Brighten
350
36
  3
ColorChange
350
3A
  3
Conceptual
350
34
  3
Dim
350
35
  3
Facepattern
350
39
  3
Flat
350
2B
  3
FlatWithEdges
350
2C
  3
Gouraud
350
2D
  3
GouraudWithEdges
350
2E
  3
Linepattern
350
38
  3
Realistic
350
33
  3
Thicken
350
37
  0
DICTIONARY
  5
257
102
{ACAD_REACTORS
330
C
102
}
330
C
100
AcDbDictionary
281
     1
  3
CANNOSCALE
350
25A
  0
LAYOUT
  5
1E
102
{ACAD_REACTORS
330
1A
102
}
330
1A
100
AcDbPlotSettings
  1

  2
none_device
  4

  6

 40
0.0
 41
0.0
 42
0.0
 43
0.0
 44
0.0
 45
0.0
 46
0.0
 47
0.0
 48
0.0
 49
0.0
140
0.0
141
0.0
142
1.0
143
1.0
 70
   688
 72
     0
 73
     0
 74
     5
  7

 75
    16
147
1.0
148
0.0
149
0.0
100
AcDbLayout
  1
Layout1
 70
     1
 71
     1
 10
0.0
 20
0.0
 11
12.0
 21
9.0
 12
0.0
 22
0.0
 32
0.0
 14
1.00000000000000E+20
 24
1.00000000000000E+20
 34
1.00000000000000E+20
 15
-1.00000000000000E+20
 25
-1.00000000000000E+20
 35
-1.00000000000000E+20
146
0.0
 13
0.0
 23
0.0
 33
0.0
 16
1.0
 26
0.0
 36
0.0
 17
0.0
 27
1.0
 37
0.0
 76
     0
330
1B
  0
LAYOUT
  5
26
102
{ACAD_REACTORS
330
1A
102
}
330
1A
100
AcDbPlotSettings
  1

  2
none_device
  4

  6

 40
0.0
 41
0.0
 42
0.0
 43
0.0
 44
0.0
 45
0.0
 46
0.0
 47
0.0
 48
0.0
 49
0.0
140
0.0
141
0.0
142
1.0
143
1.0
 70
   688
 72
     0
 73
     0
 74
     5
  7

 75
    16
147
1.0
148
0.0
149
0.0
100
AcDbLayout
  1
Layout2
 70
     1
 71
     2
 10
0.0
 20
0.0
 11
0.0
 21
0.0
 12
0.0
 22
0.0
 32
0.0
 14
0.0
 24
0.0
 34
0.0
 15
0.0
 25
0.0
 35
0.0
146
0.0
 13
0.0
 23
0.0
 33
0.0
 16
1.0
 26
0.0
 36
0.0
 17
0.0
 27
1.0
 37
0.0
 76
     0
330
23
  0
LAYOUT
  5
22
102
{ACAD_REACTORS
330
1A
102
}
330
1A
100
AcDbPlotSettings
  1

  2
none_device
  4

  6

 40
0.0
 41
0.0
 42
0.0
 43
0.0
 44
0.0
 45
0.0
 46
0.0
 47
0.0
 48
0.0
 49
0.0
140
0.0
141
0.0
142
1.0
143
1.0
 70
  1712
 72
     0
 73
     0
 74
     0
  7

 75
     0
147
1.0
148
0.0
149
0.0
100
AcDbLayout
  1
Model
 70
     1
 71
     0
 10
0.0
 20
0.0
 11
12.0
 21
9.0
 12
0.0
 22
0.0
 32
0.0
 14
263.298174424156
 24
-47.03405335752549
 34
0.0
 15
670.283993466991
 25
265.13286309336
 35
0.0
146
0.0
 13
0.0
 23
0.0
 33
0.0
 16
1.0
 26
0.0
 36
0.0
 17
0.0
 27
1.0
 37
0.0
 76
     0
330
1F
331
29
  0
MLINESTYLE
  5
18
102
{ACAD_REACTORS
330
17
102
}
330
17
100
AcDbMlineStyle
  2
Standard
 70
     0
  3

 62
   256
 51
90.0
 52
90.0
 71
     2
 49
0.5
 62
   256
  6
BYLAYER
 49
-0.5
 62
   256
  6
BYLAYER
  0
ACDBPLACEHOLDER
  5
F
102
{ACAD_REACTORS
330
E
102
}
330
E
  0
SCALE
  5
49
102
{ACAD_REACTORS
330
48
102
}
330
48
100
AcDbScale
 70
     0
300
1:1
140
1.0
141
1.0
290
     1
  0
SCALE
  5
4A
102
{ACAD_REACTORS
330
48
102
}
330
48
100
AcDbScale
 70
     0
300
1:2
140
1.0
141
2.0
290
     0
  0
SCALE
  5
4B
102
{ACAD_REACTORS
330
48
102
}
330
48
100
AcDbScale
 70
     0
300
1:4
140
1.0
141
4.0
290
     0
  0
SCALE
  5
4C
102
{ACAD_REACTORS
330
48
102
}
330
48
100
AcDbScale
 70
     0
300
1:5
140
1.0
141
5.0
290
     0
  0
SCALE
  5
4D
102
{ACAD_REACTORS
330
48
102
}
330
48
100
AcDbScale
 70
     0
300
1:8
140
1.0
141
8.0
290
     0
  0
SCALE
  5
4E
102
{ACAD_REACTORS
330
48
102
}
330
48
100
AcDbScale
 70
     0
300
1:10
140
1.0
141
10.0
290
     0
  0
SCALE
  5
4F
102
{ACAD_REACTORS
330
48
102
}
330
48
100
AcDbScale
 70
     0
300
1:16
140
1.0
141
16.0
290
     0
  0
SCALE
  5
50
102
{ACAD_REACTORS
330
48
102
}
330
48
100
AcDbScale
 70
     0
300
1:20
140
1.0
141
20.0
290
     0
  0
SCALE
  5
51
102
{ACAD_REACTORS
330
48
102
}
330
48
100
AcDbScale
 70
     0
300
1:30
140
1.0
141
30.0
290
     0
  0
SCALE
  5
52
102
{ACAD_REACTORS
330
48
102
}
330
48
100
AcDbScale
 70
     0
300
1:40
140
1.0
141
40.0
290
     0
  0
SCALE
  5
53
102
{ACAD_REACTORS
330
48
102
}
330
48
100
AcDbScale
 70
     0
300
1:50
140
1.0
141
50.0
290
     0
  0
SCALE
  5
54
102
{ACAD_REACTORS
330
48
102
}
330
48
100
AcDbScale
 70
     0
300
1:100
140
1.0
141
100.0
290
     0
  0
SCALE
  5
55
102
{ACAD_REACTORS
330
48
102
}
330
48
100
AcDbScale
 70
     0
300
2:1
140
2.0
141
1.0
290
     0
  0
SCALE
  5
56
102
{ACAD_REACTORS
330
48
102
}
330
48
100
AcDbScale
 70
     0
300
4:1
140
4.0
141
1.0
290
     0
  0
SCALE
  5
57
102
{ACAD_REACTORS
330
48
102
}
330
48
100
AcDbScale
 70
     0
300
8:1
140
8.0
141
1.0
290
     0
  0
SCALE
  5
58
102
{ACAD_REACTORS
330
48
102
}
330
48
100
AcDbScale
 70
     0
300
10:1
140
10.0
141
1.0
290
     0
  0
SCALE
  5
59
102
{ACAD_REACTORS
330
48
102
}
330
48
100
AcDbScale
 70
     0
300
100:1
140
100.0
141
1.0
290
     0
  0
SCALE
  5
5A
102
{ACAD_REACTORS
330
48
102
}
330
48
100
AcDbScale
 70
     0
300
1/128" = 1'-0"
140
0.0078125
141
12.0
290
     0
  0
SCALE
  5
5B
102
{ACAD_REACTORS
330
48
102
}
330
48
100
AcDbScale
 70
     0
300
1/64" = 1'-0"
140
0.015625
141
12.0
290
     0
  0
SCALE
  5
5C
102
{ACAD_REACTORS
330
48
102
}
330
48
100
AcDbScale
 70
     0
300
1/32" = 1'-0"
140
0.03125
141
12.0
290
     0
  0
SCALE
  5
5D
102
{ACAD_REACTORS
330
48
102
}
330
48
100
AcDbScale
 70
     0
300
1/16" = 1'-0"
140
0.0625
141
12.0
290
     0
  0
SCALE
  5
5E
102
{ACAD_REACTORS
330
48
102
}
330
48
100
AcDbScale
 70
     0
300
3/32" = 1'-0"
140
0.09375
141
12.0
290
     0
  0
SCALE
  5
5F
102
{ACAD_REACTORS
330
48
102
}
330
48
100
AcDbScale
 70
     0
300
1/8" = 1'-0"
140
0.125
141
12.0
290
     0
  0
SCALE
  5
60
102
{ACAD_REACTORS
330
48
102
}
330
48
100
AcDbScale
 70
     0
300
3/16" = 1'-0"
140
0.1875
141
12.0
290
     0
  0
SCALE
  5
61
102
{ACAD_REACTORS
330
48
102
}
330
48
100
AcDbScale
 70
     0
300
1/4" = 1'-0"
140
0.25
141
12.0
290
     0
  0
SCALE
  5
62
102
{ACAD_REACTORS
330
48
102
}
330
48
100
AcDbScale
 70
     0
300
3/8" = 1'-0"
140
0.375
141
12.0
290
     0
  0
SCALE
  5
63
102
{ACAD_REACTORS
330
48
102
}
330
48
100
AcDbScale
 70
     0
300
1/2" = 1'-0"
140
0.5
141
12.0
290
     0
  0
SCALE
  5
64
102
{ACAD_REACTORS
330
48
102
}
330
48
100
AcDbScale
 70
     0
300
3/4" = 1'-0"
140
0.75
141
12.0
290
     0
  0
SCALE
  5
65
102
{ACAD_REACTORS
330
48
102
}
330
48
100
AcDbScale
 70
     0
300
1" = 1'-0"
140
1.0
141
12.0
290
     0
  0
SCALE
  5
66
102
{ACAD_REACTORS
330
48
102
}
330
48
100
AcDbScale
 70
     0
300
1-1/2" = 1'-0"
140
1.5
141
12.0
290
     0
  0
SCALE
  5
67
102
{ACAD_REACTORS
330
48
102
}
330
48
100
AcDbScale
 70
     0
300
3" = 1'-0"
140
3.0
141
12.0
290
     0
  0
SCALE
  5
68
102
{ACAD_REACTORS
330
48
102
}
330
48
100
AcDbScale
 70
     0
300
6" = 1'-0"
140
6.0
141
12.0
290
     0
  0
SCALE
  5
69
102
{ACAD_REACTORS
330
48
102
}
330
48
100
AcDbScale
 70
     0
300
1'-0" = 1'-0"
140
12.0
141
12.0
290
     0
  0
VISUALSTYLE
  5
2F
102
{ACAD_REACTORS
330
2A
102
}
330
2A
100
AcDbVisualStyle
  2
2dWireframe
 70
     4
 71
     0
 72
     2
 73
     0
 90
        0
 40
-0.6
 41
-30.0
 62
     5
 63
     7
 74
     1
 91
        4
 64
     7
 65
   257
 75
     1
175
     1
 42
1.0
 92
        0
 66
   257
 43
1.0
 76
     1
 77
     6
 78
     2
 67
     7
 79
     5
170
     0
171
     0
290
     0
174
     0
 93
        1
 44
0.0
173
     0
291
     0
 45
0.0
1001
ACAD
1000
AcDbSavedByObjectVersion
1070
     0
  0
VISUALSTYLE
  5
31
102
{ACAD_REACTORS
330
2A
102
}
330
2A
100
AcDbVisualStyle
  2
3D Hidden
 70
     6
 71
     1
 72
     2
 73
     2
 90
        0
 40
-0.6
 41
-30.0
 62
     5
 63
     7
 74
     2
 91
        2
 64
     7
 65
   257
 75
     2
175
     1
 42
40.0
 92
        0
 66
   257
 43
1.0
 76
     1
 77
     6
 78
     2
 67
     7
 79
     3
170
     0
171
     0
290
     0
174
     0
 93
        1
 44
0.0
173
     0
291
     0
 45
0.0
1001
ACAD
1000
AcDbSavedByObjectVersion
1070
     0
  0
VISUALSTYLE
  5
30
102
{ACAD_REACTORS
330
2A
102
}
330
2A
100
AcDbVisualStyle
  2
3dWireframe
 70
     5
 71
     0
 72
     2
 73
     0
 90
        0
 40
-0.6
 41
-30.0
 62
     5
 63
     7
 74
     1
 91
        4
 64
     7
 65
   257
 75
     1
175
     1
 42
1.0
 92
        0
 66
   257
 43
1.0
 76
     1
 77
     6
 78
     2
 67
     7
 79
     5
170
     0
171
     0
290
     0
174
     0
 93
        1
 44
0.0
173
     0
291
     0
 45
0.0
1001
ACAD
1000
AcDbSavedByObjectVersion
1070
     0
  0
VISUALSTYLE
  5
32
102
{ACAD_REACTORS
330
2A
102
}
330
2A
100
AcDbVisualStyle
  2
Basic
 70
     7
 71
     1
 72
     0
 73
     1
 90
        0
 40
-0.6
 41
-30.0
 62
     5
 63
     7
 74
     0
 91
        4
 64
     7
 65
   257
 75
     1
175
     1
 42
1.0
 92
        8
 66
     7
 43
1.0
 76
     1
 77
     6
 78
     2
 67
     7
 79
     5
170
     0
171
     0
290
     0
174
     0
 93
        1
 44
0.0
173
     0
291
     1
 45
0.0
1001
ACAD
1000
AcDbSavedByObjectVersion
1070
     0
  0
VISUALSTYLE
  5
36
102
{ACAD_REACTORS
330
2A
102
}
330
2A
100
AcDbVisualStyle
  2
Brighten
 70
    12
 71
     2
 72
     2
 73
     0
 90
        0
 40
-0.6
 41
-30.0
 62
     5
 63
     7
 74
     1
 91
        4
 64
     7
 65
   257
 75
     1
175
     1
 42
1.0
 92
        8
 66
     7
 43
1.0
 76
     1
 77
     6
 78
     2
 67
     7
 79
     5
170
     0
171
     0
290
     0
174
     0
 93
        1
 44
50.0
173
     0
291
     1
 45
0.0
1001
ACAD
1000
AcDbSavedByObjectVersion
1070
     0
  0
VISUALSTYLE
  5
3A
102
{ACAD_REACTORS
330
2A
102
}
330
2A
100
AcDbVisualStyle
  2
ColorChange
 70
    16
 71
     2
 72
     2
 73
     3
 90
        0
 40
-0.6
 41
-30.0
 62
     5
 63
     8
 74
     1
 91
        4
 64
     7
 65
   257
 75
     1
175
     1
 42
1.0
 92
        8
 66
     8
 43
1.0
 76
     1
 77
     6
 78
     2
 67
     7
 79
     5
170
     0
171
     0
290
     0
174
     0
 93
        1
 44
0.0
173
     0
291
     1
 45
0.0
1001
ACAD
1000
AcDbSavedByObjectVersion
1070
     0
  0
VISUALSTYLE
  5
34
102
{ACAD_REACTORS
330
2A
102
}
330
2A
100
AcDbVisualStyle
  2
Conceptual
 70
     9
 71
     3
 72
     2
 73
     0
 90
        0
 40
-0.6
 41
-30.0
 62
     5
 63
     7
 74
     2
 91
        2
 64
     7
 65
   257
 75
     1
175
     1
 42
40.0
 92
        8
 66
     7
 43
1.0
 76
     1
 77
     6
 78
     2
 67
     7
 79
     3
170
     0
171
     0
290
     0
174
     0
 93
        1
 44
0.0
173
     0
291
     0
 45
0.0
1001
ACAD
1000
AcDbSavedByObjectVersion
1070
     0
  0
VISUALSTYLE
  5
35
102
{ACAD_REACTORS
330
2A
102
}
330
2A
100
AcDbVisualStyle
  2
Dim
 70
    11
 71
     2
 72
     2
 73
     0
 90
        0
 40
-0.6
 41
-30.0
 62
     5
 63
     7
 74
     1
 91
        4
 64
     7
 65
   257
 75
     1
175
     1
 42
1.0
 92
        8
 66
     7
 43
1.0
 76
     1
 77
     6
 78
     2
 67
     7
 79
     5
170
     0
171
     0
290
     0
174
     0
 93
        1
 44
-50.0
173
     0
291
     1
 45
0.0
1001
ACAD
1000
AcDbSavedByObjectVersion
1070
     0
  0
VISUALSTYLE
  5
39
102
{ACAD_REACTORS
330
2A
102
}
330
2A
100
AcDbVisualStyle
  2
Facepattern
 70
    15
 71
     2
 72
     2
 73
     0
 90
        0
 40
-0.6
 41
-30.0
 62
     5
 63
     7
 74
     1
 91
        4
 64
     7
 65
   257
 75
     1
175
     1
 42
1.0
 92
        8
 66
     7
 43
1.0
 76
     1
 77
     6
 78
     2
 67
     7
 79
     5
170
     0
171
     0
290
     0
174
     0
 93
        1
 44
0.0
173
     0
291
     1
 45
0.0
1001
ACAD
1000
AcDbSavedByObjectVersion
1070
     0
  0
VISUALSTYLE
  5
2B
102
{ACAD_REACTORS
330
2A
102
}
330
2A
100
AcDbVisualStyle
  2
Flat
 70
     0
 71
     2
 72
     1
 73
     1
 90
        2
 40
-0.6
 41
30.0
 62
     5
 63
     7
 74
     0
 91
        4
 64
     7
 65
   257
 75
     1
175
     1
 42
1.0
 92
        8
 66
     7
 43
1.0
 76
     1
 77
     6
 78
     2
 67
     7
 79
     5
170
     0
171
     0
290
     0
174
     0
 93
       13
 44
0.0
173
     0
291
     1
 45
0.0
1001
ACAD
1000
AcDbSavedByObjectVersion
1070
     0
  0
VISUALSTYLE
  5
2C
102
{ACAD_REACTORS
330
2A
102
}
330
2A
100
AcDbVisualStyle
  2
FlatWithEdges
 70
     1
 71
     2
 72
     1
 73
     1
 90
        2
 40
-0.6
 41
30.0
 62
     5
 63
     7
 74
     1
 91
        4
 64
     7
 65
   257
 75
     1
175
     1
 42
1.0
 92
        0
 66
   257
 43
1.0
 76
     1
 77
     6
 78
     2
 67
     7
 79
     5
170
     0
171
     0
290
     0
174
     0
 93
       13
 44
0.0
173
     0
291
     1
 45
0.0
1001
ACAD
1000
AcDbSavedByObjectVersion
1070
     0
  0
VISUALSTYLE
  5
2D
102
{ACAD_REACTORS
330
2A
102
}
330
2A
100
AcDbVisualStyle
  2
Gouraud
 70
     2
 71
     2
 72
     2
 73
     1
 90
        2
 40
-0.6
 41
30.0
 62
     5
 63
     7
 74
     0
 91
        4
 64
     7
 65
   257
 75
     1
175
     1
 42
1.0
 92
        0
 66
     7
 43
1.0
 76
     1
 77
     6
 78
     2
 67
     7
 79
     5
170
     0
171
     0
290
     0
174
     0
 93
       13
 44
0.0
173
     0
291
     1
 45
0.0
1001
ACAD
1000
AcDbSavedByObjectVersion
1070
     0
  0
VISUALSTYLE
  5
2E
102
{ACAD_REACTORS
330
2A
102
}
330
2A
100
AcDbVisualStyle
  2
GouraudWithEdges
 70
     3
 71
     2
 72
     2
 73
     1
 90
        2
 40
-0.6
 41
30.0
 62
     5
 63
     7
 74
     1
 91
        4
 64
     7
 65
   257
 75
     1
175
     1
 42
1.0
 92
        0
 66
   257
 43
1.0
 76
     1
 77
     6
 78
     2
 67
     7
 79
     5
170
     0
171
     0
290
     0
174
     0
 93
       13
 44
0.0
173
     0
291
     1
 45
0.0
1001
ACAD
1000
AcDbSavedByObjectVersion
1070
     0
  0
VISUALSTYLE
  5
38
102
{ACAD_REACTORS
330
2A
102
}
330
2A
100
AcDbVisualStyle
  2
Linepattern
 70
    14
 71
     2
 72
     2
 73
     0
 90
        0
 40
-0.6
 41
-30.0
 62
     5
 63
     7
 74
     1
 91
        4
 64
     7
 65
   257
 75
     7
175
     7
 42
1.0
 92
        8
 66
     7
 43
1.0
 76
     1
 77
     6
 78
     2
 67
     7
 79
     5
170
     0
171
     0
290
     0
174
     0
 93
        1
 44
0.0
173
     0
291
     1
 45
0.0
1001
ACAD
1000
AcDbSavedByObjectVersion
1070
     0
  0
VISUALSTYLE
  5
33
102
{ACAD_REACTORS
330
2A
102
}
330
2A
100
AcDbVisualStyle
  2
Realistic
 70
     8
 71
     2
 72
     2
 73
     0
 90
        0
 40
-0.6
 41
-30.0
 62
     5
 63
     7
 74
     1
 91
        0
 64
     7
 65
   257
 75
     1
175
     1
 42
1.0
 92
        8
 66
     8
 43
1.0
 76
     1
 77
     6
 78
     2
 67
     7
 79
     5
170
     0
171
     0
290
     0
174
     0
 93
       13
 44
0.0
173
     0
291
     0
 45
0.0
1001
ACAD
1000
AcDbSavedByObjectVersion
1070
     0
  0
VISUALSTYLE
  5
37
102
{ACAD_REACTORS
330
2A
102
}
330
2A
100
AcDbVisualStyle
  2
Thicken
 70
    13
 71
     2
 72
     2
 73
     0
 90
        0
 40
-0.6
 41
-30.0
 62
     5
 63
     7
 74
     1
 91
        4
 64
     7
 65
   257
 75
     1
175
     1
 42
1.0
 92
       12
 66
     7
 43
1.0
 76
     1
 77
     6
 78
     2
 67
     7
 79
     5
170
     0
171
     0
290
     0
174
     0
 93
        1
 44
0.0
173
     0
291
     1
 45
0.0
1001
ACAD
1000
AcDbSavedByObjectVersion
1070
     0
  0
DICTIONARYVAR
  5
25A
102
{ACAD_REACTORS
330
257
102
}
330
257
100
DictionaryVariables
280
     0
  1
1:1
  0
ENDSEC
  0
EOF
