  0
SECTION
  2
HEADER
  9
$ACADVER
  1
AC1015
  9
$ACADMAINTVER
 70
     6
  9
$DWGCODEPAGE
  3
ANSI_1252
  9
$INSBASE
 10
0.0
 20
0.0
 30
0.0
  9
$EXTMIN
 10
-222.76935813541
 20
-52.9386465990373
 30
0.0
  9
$EXTMAX
 10
187.20002932357
 20
273.010766093444
 30
0.0
  9
$LIMMIN
 10
0.0
 20
0.0
  9
$LIMMAX
 10
12.0
 20
9.0
  9
$ORTHOMODE
 70
     0
  9
$REGENMODE
 70
     1
  9
$FILLMODE
 70
     1
  9
$QTEXTMODE
 70
     0
  9
$MIRRTEXT
 70
     1
  9
$LTSCALE
 40
1.0
  9
$ATTMODE
 70
     1
  9
$TEXTSIZE
 40
0.2
  9
$TRACEWID
 40
0.05
  9
$TEXTSTYLE
  7
Standard
  9
$CLAYER
  8
0
  9
$CELTYPE
  6
ByLayer
  9
$CECOLOR
 62
   256
  9
$CELTSCALE
 40
1.0
  9
$DISPSILH
 70
     0
  9
$DIMSCALE
 40
1.0
  9
$DIMASZ
 40
0.18
  9
$DIMEXO
 40
0.0625
  9
$DIMDLI
 40
0.38
  9
$DIMRND
 40
0.0
  9
$DIMDLE
 40
0.0
  9
$DIMEXE
 40
0.18
  9
$DIMTP
 40
0.0
  9
$DIMTM
 40
0.0
  9
$DIMTXT
 40
0.18
  9
$DIMCEN
 40
0.09
  9
$DIMTSZ
 40
0.0
  9
$DIMTOL
 70
     0
  9
$DIMLIM
 70
     0
  9
$DIMTIH
 70
     1
  9
$DIMTOH
 70
     1
  9
$DIMSE1
 70
     0
  9
$DIMSE2
 70
     0
  9
$DIMTAD
 70
     0
  9
$DIMZIN
 70
     0
  9
$DIMBLK
  1

  9
$DIMASO
 70
     1
  9
$DIMSHO
 70
     1
  9
$DIMPOST
  1

  9
$DIMAPOST
  1

  9
$DIMALT
 70
     0
  9
$DIMALTD
 70
     2
  9
$DIMALTF
 40
25.4
  9
$DIMLFAC
 40
1.0
  9
$DIMTOFL
 70
     0
  9
$DIMTVP
 40
0.0
  9
$DIMTIX
 70
     0
  9
$DIMSOXD
 70
     0
  9
$DIMSAH
 70
     0
  9
$DIMBLK1
  1

  9
$DIMBLK2
  1

  9
$DIMSTYLE
  2
Standard
  9
$DIMCLRD
 70
     0
  9
$DIMCLRE
 70
     0
  9
$DIMCLRT
 70
     0
  9
$DIMTFAC
 40
1.0
  9
$DIMGAP
 40
0.09
  9
$DIMJUST
 70
     0
  9
$DIMSD1
 70
     0
  9
$DIMSD2
 70
     0
  9
$DIMTOLJ
 70
     1
  9
$DIMTZIN
 70
     0
  9
$DIMALTZ
 70
     0
  9
$DIMALTTZ
 70
     0
  9
$DIMUPT
 70
     0
  9
$DIMDEC
 70
     4
  9
$DIMTDEC
 70
     4
  9
$DIMALTU
 70
     2
  9
$DIMALTTD
 70
     2
  9
$DIMTXSTY
  7
Standard
  9
$DIMAUNIT
 70
     0
  9
$DIMADEC
 70
     0
  9
$DIMALTRND
 40
0.0
  9
$DIMAZIN
 70
     0
  9
$DIMDSEP
 70
    46
  9
$DIMATFIT
 70
     3
  9
$DIMFRAC
 70
     0
  9
$DIMLDRBLK
  1

  9
$DIMLUNIT
 70
     2
  9
$DIMLWD
 70
    -2
  9
$DIMLWE
 70
    -2
  9
$DIMTMOVE
 70
     0
  9
$LUNITS
 70
     2
  9
$LUPREC
 70
     4
  9
$SKETCHINC
 40
0.1
  9
$FILLETRAD
 40
0.5
  9
$AUNITS
 70
     0
  9
$AUPREC
 70
     0
  9
$MENU
  1
.
  9
$ELEVATION
 40
0.0
  9
$PELEVATION
 40
0.0
  9
$THICKNESS
 40
0.0
  9
$LIMCHECK
 70
     0
  9
$CHAMFERA
 40
0.5
  9
$CHAMFERB
 40
0.5
  9
$CHAMFERC
 40
1.0
  9
$CHAMFERD
 40
0.0
  9
$SKPOLY
 70
     0
  9
$TDCREATE
 40
2455386.302994213
  9
$TDUCREATE
 40
2455386.21966088
  9
$TDUPDATE
 40
2455386.302994225
  9
$TDUUPDATE
 40
2455386.219660891
  9
$TDINDWG
 40
0.0000000116
  9
$TDUSRTIMER
 40
0.0000000116
  9
$USRTIMER
 70
     1
  9
$ANGBASE
 50
0.0
  9
$ANGDIR
 70
     0
  9
$PDMODE
 70
     0
  9
$PDSIZE
 40
0.0
  9
$PLINEWID
 40
0.0
  9
$SPLFRAME
 70
     0
  9
$SPLINETYPE
 70
     6
  9
$SPLINESEGS
 70
     8
  9
$HANDSEED
  5
25E
  9
$SURFTAB1
 70
     6
  9
$SURFTAB2
 70
     6
  9
$SURFTYPE
 70
     6
  9
$SURFU
 70
     6
  9
$SURFV
 70
     6
  9
$UCSBASE
  2

  9
$UCSNAME
  2

  9
$UCSORG
 10
0.0
 20
0.0
 30
0.0
  9
$UCSXDIR
 10
1.0
 20
0.0
 30
0.0
  9
$UCSYDIR
 10
0.0
 20
1.0
 30
0.0
  9
$UCSORTHOREF
  2

  9
$UCSORTHOVIEW
 70
     0
  9
$UCSORGTOP
 10
0.0
 20
0.0
 30
0.0
  9
$UCSORGBOTTOM
 10
0.0
 20
0.0
 30
0.0
  9
$UCSORGLEFT
 10
0.0
 20
0.0
 30
0.0
  9
$UCSORGRIGHT
 10
0.0
 20
0.0
 30
0.0
  9
$UCSORGFRONT
 10
0.0
 20
0.0
 30
0.0
  9
$UCSORGBACK
 10
0.0
 20
0.0
 30
0.0
  9
$PUCSBASE
  2

  9
$PUCSNAME
  2

  9
$PUCSORG
 10
0.0
 20
0.0
 30
0.0
  9
$PUCSXDIR
 10
1.0
 20
0.0
 30
0.0
  9
$PUCSYDIR
 10
0.0
 20
1.0
 30
0.0
  9
$PUCSORTHOREF
  2

  9
$PUCSORTHOVIEW
 70
     0
  9
$PUCSORGTOP
 10
0.0
 20
0.0
 30
0.0
  9
$PUCSORGBOTTOM
 10
0.0
 20
0.0
 30
0.0
  9
$PUCSORGLEFT
 10
0.0
 20
0.0
 30
0.0
  9
$PUCSORGRIGHT
 10
0.0
 20
0.0
 30
0.0
  9
$PUCSORGFRONT
 10
0.0
 20
0.0
 30
0.0
  9
$PUCSORGBACK
 10
0.0
 20
0.0
 30
0.0
  9
$USERI1
 70
     0
  9
$USERI2
 70
     0
  9
$USERI3
 70
     0
  9
$USERI4
 70
     0
  9
$USERI5
 70
     0
  9
$USERR1
 40
16.5
  9
$USERR2
 40
0.0
  9
$USERR3
 40
0.0
  9
$USERR4
 40
0.0
  9
$USERR5
 40
0.0
  9
$WORLDVIEW
 70
     1
  9
$SHADEDGE
 70
     3
  9
$SHADEDIF
 70
    70
  9
$TILEMODE
 70
     1
  9
$MAXACTVP
 70
    64
  9
$PINSBASE
 10
0.0
 20
0.0
 30
0.0
  9
$PLIMCHECK
 70
     0
  9
$PEXTMIN
 10
1.00000000000000E+20
 20
1.00000000000000E+20
 30
1.00000000000000E+20
  9
$PEXTMAX
 10
-1.00000000000000E+20
 20
-1.00000000000000E+20
 30
-1.00000000000000E+20
  9
$PLIMMIN
 10
0.0
 20
0.0
  9
$PLIMMAX
 10
12.0
 20
9.0
  9
$UNITMODE
 70
     0
  9
$VISRETAIN
 70
     1
  9
$PLINEGEN
 70
     0
  9
$PSLTSCALE
 70
     1
  9
$TREEDEPTH
 70
  3020
  9
$CMLSTYLE
  2
Standard
  9
$CMLJUST
 70
     0
  9
$CMLSCALE
 40
1.0
  9
$PROXYGRAPHICS
 70
     1
  9
$MEASUREMENT
 70
     1
  9
$CELWEIGHT
370
    -1
  9
$ENDCAPS
280
     0
  9
$JOINSTYLE
280
     0
  9
$LWDISPLAY
290
     0
  9
$INSUNITS
 70
     1
  9
$HYPERLINKBASE
  1

  9
$STYLESHEET
  1

  9
$XEDIT
290
     1
  9
$CEPSNTYPE
380
     0
  9
$PSTYLEMODE
290
     1
  9
$FINGERPRINTGUID
  2
{8FA849C6-505A-4579-BE15-4DA27EAB786B}
  9
$VERSIONGUID
  2
{FAEB1C32-E019-11D5-929B-00C0DF256EC4}
  9
$EXTNAMES
290
     1
  9
$PSVPSCALE
 40
0.0
  9
$OLESTARTUP
290
     0
  0
ENDSEC
  0
SECTION
  2
CLASSES
  0
CLASS
  1
ACDBDICTIONARYWDFLT
  2
AcDbDictionaryWithDefault
  3
ObjectDBX Classes
 90
        0
280
     0
281
     0
  0
CLASS
  1
VISUALSTYLE
  2
AcDbVisualStyle
  3
ObjectDBX Classes
 90
     4095
280
     0
281
     0
  0
CLASS
  1
SCALE
  2
AcDbScale
  3
ObjectDBX Classes
 90
     1153
280
     0
281
     0
  0
CLASS
  1

  2
exOdDbPolyline
  3

 90
        0
280
     0
281
     1
  0
CLASS
  1

  2
exOdDbSpline
  3

 90
        0
280
     0
281
     1
  0
CLASS
  1
DICTIONARYVAR
  2
AcDbDictionaryVar
  3
ObjectDBX Classes
 90
        0
280
     0
281
     0
  0
CLASS
  1
ACDBPLACEHOLDER
  2
AcDbPlaceHolder
  3
ObjectDBX Classes
 90
        0
280
     0
281
     0
  0
CLASS
  1
LAYOUT
  2
AcDbLayout
  3
ObjectDBX Classes
 90
        0
280
     0
281
     0
  0
ENDSEC
  0
SECTION
  2
TABLES
  0
TABLE
  2
VPORT
  5
8
330
0
100
AcDbSymbolTable
 70
     1
  0
VPORT
  5
29
330
8
100
AcDbSymbolTableRecord
100
AcDbViewportTableRecord
  2
*Active
 70
     0
 10
0.0
 20
0.0
 11
1.0
 21
1.0
 12
-17.78466440592
 22
110.0360597472033
 13
0.0
 23
0.0
 14
0.5
 24
0.5
 15
0.5
 25
0.5
 16
0.0
 26
0.0
 36
1.0
 17
0.0
 27
0.0
 37
0.0
 40
358.5443539617294
 41
1.60267857142857
 42
50.0
 43
0.0
 44
0.0
 50
0.0
 51
0.0
 71
     0
 72
   100
 73
     1
 74
     3
 75
     0
 76
     0
 77
     0
 78
     0
281
     0
 65
     1
110
0.0
120
0.0
130
0.0
111
1.0
121
0.0
131
0.0
112
0.0
122
1.0
132
0.0
 79
     0
146
0.0
  0
ENDTAB
  0
TABLE
  2
LTYPE
  5
5
330
0
100
AcDbSymbolTable
 70
     9
  0
LTYPE
  5
14
330
5
100
AcDbSymbolTableRecord
100
AcDbLinetypeTableRecord
  2
ByBlock
 70
     0
  3

 72
    65
 73
     0
 40
0.0
  0
LTYPE
  5
15
330
5
100
AcDbSymbolTableRecord
100
AcDbLinetypeTableRecord
  2
ByLayer
 70
     0
  3

 72
    65
 73
     0
 40
0.0
  0
LTYPE
  5
16
330
5
100
AcDbSymbolTableRecord
100
AcDbLinetypeTableRecord
  2
Continuous
 70
     0
  3
Solid line
 72
    65
 73
     0
 40
0.0
  0
LTYPE
  5
3B
330
5
100
AcDbSymbolTableRecord
100
AcDbLinetypeTableRecord
  2
DASHED
 70
     0
  3
Dashed
 72
    65
 73
     2
 40
15.0
 49
7.0
 74
     0
 49
-8.0
 74
     0
  0
LTYPE
  5
3C
330
5
100
AcDbSymbolTableRecord
100
AcDbLinetypeTableRecord
  2
DOTTED
 70
     0
  3
Dotted
 72
    65
 73
     2
 40
1.0
 49
0.0
 74
     0
 49
-1.0
 74
     0
  0
LTYPE
  5
3D
330
5
100
AcDbSymbolTableRecord
100
AcDbLinetypeTableRecord
  2
DOT_CENTER
 70
     0
  3
Dot_Center
 72
    65
 73
     4
 40
14.0
 49
12.0
 74
     0
 49
-1.0
 74
     0
 49
0.0
 74
     0
 49
-1.0
 74
     0
  0
LTYPE
  5
3E
330
5
100
AcDbSymbolTableRecord
100
AcDbLinetypeTableRecord
  2
LONG_DASHED
 70
     0
  3
Long_Dashed
 72
    65
 73
     2
 40
15.0
 49
10.0
 74
     0
 49
-5.0
 74
     0
  0
LTYPE
  5
3F
330
5
100
AcDbSymbolTableRecord
100
AcDbLinetypeTableRecord
  2
DASH_CENTER
 70
     0
  3
Dash_Center
 72
    65
 73
     4
 40
14.0
 49
11.0
 74
     0
 49
-1.0
 74
     0
 49
1.0
 74
     0
 49
-1.0
 74
     0
  0
LTYPE
  5
40
330
5
100
AcDbSymbolTableRecord
100
AcDbLinetypeTableRecord
  2
PHANTOM
 70
     0
  3
Phantom
 72
    65
 73
     6
 40
13.0
 49
10.0
 74
     0
 49
-1.0
 74
     0
 49
0.0
 74
     0
 49
-1.0
 74
     0
 49
0.0
 74
     0
 49
-1.0
 74
     0
  0
LTYPE
  5
41
330
5
100
AcDbSymbolTableRecord
100
AcDbLinetypeTableRecord
  2
CENTER_DASH_DASH
 70
     0
  3
Center_Dash_Dash
 72
    65
 73
     6
 40
14.0
 49
9.0
 74
     0
 49
-1.0
 74
     0
 49
1.0
 74
     0
 49
-1.0
 74
     0
 49
1.0
 74
     0
 49
-1.0
 74
     0
  0
LTYPE
  5
42
330
5
100
AcDbSymbolTableRecord
100
AcDbLinetypeTableRecord
  2
CENTERX2
 70
     0
  3
CENTERX2
 72
    65
 73
     4
 40
22.0
 49
13.0
 74
     0
 49
-3.0
 74
     0
 49
3.0
 74
     0
 49
-3.0
 74
     0
  0
ENDTAB
  0
TABLE
  2
LAYER
  5
2
330
0
100
AcDbSymbolTable
 70
     3
  0
LAYER
  5
10
330
2
100
AcDbSymbolTableRecord
100
AcDbLayerTableRecord
  2
0
 70
     0
 62
     7
  6
Continuous
370
    -3
390
F
  0
LAYER
  5
43
330
2
100
AcDbSymbolTableRecord
100
AcDbLayerTableRecord
  2
1
 70
     0
 62
     7
  6
Continuous
370
    -3
390
F
  0
LAYER
  5
44
330
2
100
AcDbSymbolTableRecord
100
AcDbLayerTableRecord
  2
BEMAßUNG
 70
     0
 62
     7
  6
Continuous
370
    -3
390
F
  0
ENDTAB
  0
TABLE
  2
STYLE
  5
3
330
0
100
AcDbSymbolTable
 70
     2
  0
STYLE
  5
11
330
3
100
AcDbSymbolTableRecord
100
AcDbTextStyleTableRecord
  2
Standard
 70
     0
 40
0.0
 41
1.0
 50
0.0
 71
     0
 42
0.2
  3
txt
  4

  0
STYLE
  5
21F
330
3
100
AcDbSymbolTableRecord
100
AcDbTextStyleTableRecord
  2
CONVERTER_11
 70
     0
 40
0.0
 41
0.9
 50
0.0
 71
     0
 42
0.2
  3
txt.shx
  4

  0
ENDTAB
  0
TABLE
  2
VIEW
  5
6
330
0
100
AcDbSymbolTable
 70
     0
  0
ENDTAB
  0
TABLE
  2
UCS
  5
7
330
0
100
AcDbSymbolTable
 70
     0
  0
ENDTAB
  0
TABLE
  2
APPID
  5
9
330
0
100
AcDbSymbolTable
 70
     1
  0
APPID
  5
12
330
9
100
AcDbSymbolTableRecord
100
AcDbRegAppTableRecord
  2
ACAD
 70
     0
  0
ENDTAB
  0
TABLE
  2
DIMSTYLE
  5
A
330
0
100
AcDbSymbolTable
 70
     6
100
AcDbDimStyleTable
  0
DIMSTYLE
105
27
330
A
100
AcDbSymbolTableRecord
100
AcDbDimStyleTableRecord
  2
Standard
 70
     0
340
11
  0
DIMSTYLE
105
223
102
{ACAD_REACTORS
330
224
102
}
330
A
100
AcDbSymbolTableRecord
100
AcDbDimStyleTableRecord
  2
ME10_DIM_10
 70
     0
 41
10.0
 42
0.0
 44
2.0
 73
     0
 74
     0
 77
     1
 78
     8
140
10.0
147
2.0
172
     1
173
     1
176
     4
177
     4
178
     1
271
     2
340
21F
  0
DIMSTYLE
105
22E
102
{ACAD_REACTORS
330
22F
102
}
330
A
100
AcDbSymbolTableRecord
100
AcDbDimStyleTableRecord
  2
ME10_DIM_11
 70
     0
 41
10.0
 42
0.0
 44
2.0
 73
     0
 74
     0
 77
     1
 78
     8
140
10.0
147
2.0
172
     1
173
     1
176
     4
177
     4
178
     1
271
     2
340
21F
  0
DIMSTYLE
105
239
102
{ACAD_REACTORS
330
23A
102
}
330
A
100
AcDbSymbolTableRecord
100
AcDbDimStyleTableRecord
  2
ME10_DIM_12
 70
     0
  3
Ø<>
 41
10.0
 42
0.0
 44
2.0
 73
     0
 74
     0
 77
     1
 78
     8
140
10.0
147
2.0
172
     1
173
     1
176
     4
177
     4
178
     1
271
     0
340
21F
  0
DIMSTYLE
105
244
102
{ACAD_REACTORS
330
245
102
}
330
A
100
AcDbSymbolTableRecord
100
AcDbDimStyleTableRecord
  2
ME10_DIM_13
 70
     0
  3
DN<>
 41
10.0
 42
0.0
 44
2.0
 73
     0
 74
     0
 77
     1
 78
     8
140
10.0
147
2.0
172
     1
173
     1
176
     4
177
     4
178
     1
271
     2
340
21F
  0
DIMSTYLE
105
24F
102
{ACAD_REACTORS
330
250
102
}
330
A
100
AcDbSymbolTableRecord
100
AcDbDimStyleTableRecord
  2
ME10_DIM_14
 70
     0
  3
Ø<>
 41
10.0
 42
0.0
 44
2.0
 73
     0
 74
     0
 77
     1
 78
     8
140
10.0
147
2.0
172
     1
173
     1
176
     4
177
     4
178
     1
271
     2
340
21F
  0
ENDTAB
  0
TABLE
  2
BLOCK_RECORD
  5
1
330
0
100
AcDbSymbolTable
 70
     8
  0
BLOCK_RECORD
  5
1F
330
1
100
AcDbSymbolTableRecord
100
AcDbBlockTableRecord
  2
*Model_Space
340
22
  0
BLOCK_RECORD
  5
1B
330
1
100
AcDbSymbolTableRecord
100
AcDbBlockTableRecord
  2
*Paper_Space
340
1E
  0
BLOCK_RECORD
  5
23
330
1
100
AcDbSymbolTableRecord
100
AcDbBlockTableRecord
  2
*Paper_Space0
340
26
  0
BLOCK_RECORD
  5
45
330
1
100
AcDbSymbolTableRecord
100
AcDbBlockTableRecord
  2
HL62P_7
340
0
102
{BLKREFS
331
6B
102
}
  0
BLOCK_RECORD
  5
48
330
1
100
AcDbSymbolTableRecord
100
AcDbBlockTableRecord
  2
Dachablauf__HL62_7PVC
340
0
102
{BLKREFS
331
6E
102
}
  0
BLOCK_RECORD
  5
219
330
1
100
AcDbSymbolTableRecord
100
AcDbBlockTableRecord
  2
*D3
340
0
  0
BLOCK_RECORD
  5
225
330
1
100
AcDbSymbolTableRecord
100
AcDbBlockTableRecord
  2
*D4
340
0
  0
BLOCK_RECORD
  5
230
330
1
100
AcDbSymbolTableRecord
100
AcDbBlockTableRecord
  2
*D5
340
0
  0
BLOCK_RECORD
  5
23B
330
1
100
AcDbSymbolTableRecord
100
AcDbBlockTableRecord
  2
*D6
340
0
  0
BLOCK_RECORD
  5
246
330
1
100
AcDbSymbolTableRecord
100
AcDbBlockTableRecord
  2
*D7
340
0
  0
ENDTAB
  0
ENDSEC
  0
SECTION
  2
BLOCKS
  0
BLOCK
  5
20
330
1F
100
AcDbEntity
  8
0
100
AcDbBlockBegin
  2
*Model_Space
 70
     0
 10
0.0
 20
0.0
 30
0.0
  3
*Model_Space
  1

  0
ENDBLK
  5
21
330
1F
100
AcDbEntity
  8
0
100
AcDbBlockEnd
  0
BLOCK
  5
1C
330
1B
100
AcDbEntity
 67
     1
  8
0
100
AcDbBlockBegin
  2
*Paper_Space
 70
     0
 10
0.0
 20
0.0
 30
0.0
  3
*Paper_Space
  1

  0
ENDBLK
  5
1D
330
1B
100
AcDbEntity
 67
     1
  8
0
100
AcDbBlockEnd
  0
BLOCK
  5
24
330
23
100
AcDbEntity
  8
0
100
AcDbBlockBegin
  2
*Paper_Space0
 70
     0
 10
0.0
 20
0.0
 30
0.0
  3
*Paper_Space0
  1

  0
ENDBLK
  5
25
330
23
100
AcDbEntity
  8
0
100
AcDbBlockEnd
  0
BLOCK
  5
46
330
45
100
AcDbEntity
  8
0
100
AcDbBlockBegin
  2
HL62P_7
 70
     0
 10
-17.78466440592
 20
110.0360597472033
 30
0.0
  3
HL62P_7
  1

  0
POINT
  5
6F
330
45
100
AcDbEntity
  8
BEMAßUNG
 62
     7
100
AcDbPoint
 10
-72.62497261533
 20
159.9999198868
 30
0.0
  0
POINT
  5
70
330
45
100
AcDbEntity
  8
BEMAßUNG
 62
     7
100
AcDbPoint
 10
-41.32355751662999
 20
234.9999258868
 30
0.0
  0
POINT
  5
71
330
45
100
AcDbEntity
  8
BEMAßUNG
 62
     7
100
AcDbPoint
 10
187.12502438707
 20
156.4999897735
 30
0.0
  0
POINT
  5
72
330
45
100
AcDbEntity
  8
BEMAßUNG
 62
     7
100
AcDbPoint
 10
-172.87497561293
 20
156.4999897735
 30
0.0
  0
POINT
  5
73
330
45
100
AcDbEntity
  8
BEMAßUNG
 62
     7
100
AcDbPoint
 10
87.22502438707
 20
74.0000017735
 30
0.0
  0
POINT
  5
74
330
45
100
AcDbEntity
  8
BEMAßUNG
 62
     7
100
AcDbPoint
 10
-72.97497561293
 20
74.0000017735
 30
0.0
  0
POINT
  5
75
330
45
100
AcDbEntity
  8
BEMAßUNG
 62
     7
100
AcDbPoint
 10
-29.03522965082999
 20
-0.00000022649999
 30
0.0
  0
POINT
  5
76
330
45
100
AcDbEntity
  8
BEMAßUNG
 62
     7
100
AcDbPoint
 10
-154.87497561293
 20
159.9999198868
 30
0.0
  0
POINT
  5
77
330
45
100
AcDbEntity
  8
BEMAßUNG
 62
     7
100
AcDbPoint
 10
44.62502438707003
 20
4.99999977350001
 30
0.0
  0
POINT
  5
78
330
45
100
AcDbEntity
  8
BEMAßUNG
 62
     7
100
AcDbPoint
 10
-30.37497561293
 20
4.99999977350001
 30
0.0
  0
LWPOLYLINE
  5
79
330
45
100
AcDbEntity
  8
0
  6
Continuous
 62
     7
100
AcDbPolyline
 90
        2
 70
     0
 43
0.15
 10
29.31818766706999
 20
235.0999191403001
 10
29.31818766706999
 20
235.0999191403001
  0
LINE
  5
7A
330
45
100
AcDbEntity
  8
BEMAßUNG
  6
CENTERX2
 62
     7
100
AcDbLine
 10
7.12502438707
 20
238.776082224
 30
0.0
 11
7.12502438707
 21
-0.7126376466
 31
0.0
  0
LWPOLYLINE
  5
7B
330
45
100
AcDbEntity
  8
0
  6
Continuous
 62
     7
100
AcDbPolyline
 90
        2
 70
     0
 43
0.15
 10
-68.89305794433
 20
158.9999198913
 10
-71.62496978233
 20
158.9999198913
  0
LWPOLYLINE
  5
7C
330
45
100
AcDbEntity
  8
0
  6
Continuous
 62
     7
100
AcDbPolyline
 90
        2
 70
     0
 43
0.15
 10
85.87502157496999
 20
158.9999198913
 10
83.14310228636998
 20
158.9999198913
  0
LWPOLYLINE
  5
7D
330
45
100
AcDbEntity
  8
0
  6
Continuous
 62
     7
100
AcDbPolyline
 90
        2
 70
     0
 43
0.15
 10
44.62502366117002
 20
69.00000199670001
 10
82.12502515127
 20
69.00000199670001
  0
LWPOLYLINE
  5
7E
330
45
100
AcDbEntity
  8
0
  6
Continuous
 62
     7
100
AcDbPolyline
 90
        2
 70
     0
 43
0.15
 10
-67.87497335863
 20
69.00000199670001
 10
-30.37497559382999
 20
69.00000199670001
  0
LWPOLYLINE
  5
7F
330
45
100
AcDbEntity
  8
0
  6
Continuous
 62
     7
100
AcDbPolyline
 90
        2
 70
     0
 43
0.15
 10
77.13759904906999
 20
151.299919933
 10
76.77099323086998
 20
151.299919933
  0
LWPOLYLINE
  5
80
330
45
100
AcDbEntity
  8
0
  6
Continuous
 62
     7
100
AcDbPolyline
 90
        2
 70
     0
 43
0.15
 10
-62.52091908642998
 20
151.299919933
 10
-62.88753235533
 20
151.299919933
  0
LWPOLYLINE
  5
81
330
45
100
AcDbEntity
  8
0
  6
Continuous
 62
     7
100
AcDbPolyline
 90
        2
 70
     0
 43
0.15
 10
84.37502598576998
 20
74.00000095360002
 10
87.22502207566998
 20
74.00000095360002
  0
LWPOLYLINE
  5
82
330
45
100
AcDbEntity
  8
0
  6
Continuous
 62
     7
100
AcDbPolyline
 90
        2
 70
     0
 43
0.15
 10
80.02502685597
 20
121.7019408941
 10
83.72502243327
 20
121.7019408941
  0
LWPOLYLINE
  5
83
330
45
100
AcDbEntity
  8
0
  6
Continuous
 62
     7
100
AcDbPolyline
 90
        2
 70
     0
 43
0.15
 10
74.12502383997003
 20
112.4999988824
 10
77.52502178957002
 20
112.4999988824
  0
LWPOLYLINE
  5
84
330
45
100
AcDbEntity
  8
0
  6
Continuous
 62
     7
100
AcDbPolyline
 90
        2
 70
     0
 43
0.15
 10
41.12502401877001
 20
0.0
 10
43.28527888466999
 20
0.0
  0
LWPOLYLINE
  5
85
330
45
100
AcDbEntity
  8
0
  6
Continuous
 62
     7
100
AcDbPolyline
 90
        2
 70
     0
 43
0.15
 10
84.12502175377
 20
125.2014897763
 10
77.52502178957002
 20
125.2014897763
  0
LWPOLYLINE
  5
86
330
45
100
AcDbEntity
  8
0
  6
Continuous
 62
     7
100
AcDbPolyline
 90
        2
 70
     0
 43
0.15
 10
169.12502264787
 20
159.9999219179
 10
86.87502360156998
 20
159.9999219179
  0
LWPOLYLINE
  5
87
330
45
100
AcDbEntity
  8
0
  6
Continuous
 62
     7
100
AcDbPolyline
 90
        2
 70
     0
 43
0.15
 10
47.54371037887
 20
73.00000265239998
 10
74.12502383997003
 20
73.00000265239998
  0
LWPOLYLINE
  5
88
330
45
100
AcDbEntity
  8
0
  6
Continuous
 62
     7
100
AcDbPolyline
 90
        2
 70
     0
 43
0.15
 10
89.37502121736998
 20
156.4999893307
 10
171.12502670097
 20
156.4999893307
  0
LWPOLYLINE
  5
89
330
45
100
AcDbEntity
  8
0
  6
Continuous
 62
     7
100
AcDbPolyline
 90
        2
 70
     0
 43
0.15
 10
75.52502518707001
 20
116.0000003874
 10
71.62502622417003
 20
116.0000003874
  0
LWPOLYLINE
  5
8A
330
45
100
AcDbEntity
  8
0
  6
Continuous
 62
     7
100
AcDbPolyline
 90
        2
 70
     0
 43
0.15
 10
70.62502419756999
 20
76.499549672
 10
41.12502401877001
 20
76.499549672
  0
LWPOLYLINE
  5
8B
330
45
100
AcDbEntity
  8
0
  6
Continuous
 62
     7
100
AcDbPolyline
 90
        2
 70
     0
 43
0.15
 10
76.52502721357001
 20
124.2014914751
 10
76.52502721357001
 20
117.0000005513
  0
LWPOLYLINE
  5
8C
330
45
100
AcDbEntity
  8
0
  6
Continuous
 62
     7
100
AcDbPolyline
 90
        2
 70
     0
 43
0.15
 10
70.62502419756999
 20
115.0000002235
 10
70.62502419756999
 20
76.499549672
  0
LWPOLYLINE
  5
8D
330
45
100
AcDbEntity
  8
0
  6
Continuous
 62
     7
100
AcDbPolyline
 90
        2
 70
     0
 43
0.15
 10
82.62502616456999
 20
130.8000013232
 10
84.12502175377
 20
129.7999992966
  0
LWPOLYLINE
  5
8E
330
45
100
AcDbEntity
  8
0
  6
Continuous
 62
     7
100
AcDbPolyline
 90
        2
 70
     0
 43
0.15
 10
84.12502175377
 20
129.7999992966
 10
84.12502175377
 20
125.2014897763
  0
LWPOLYLINE
  5
8F
330
45
100
AcDbEntity
  8
0
  6
Continuous
 62
     7
100
AcDbPolyline
 90
        2
 70
     0
 43
0.15
 10
84.12502175377
 20
129.7999992966
 10
-69.87497741172999
 20
129.7999992966
  0
LWPOLYLINE
  5
90
330
45
100
AcDbEntity
  8
0
  6
Continuous
 62
     7
100
AcDbPolyline
 90
        2
 70
     0
 43
0.15
 10
-72.97497773363
 20
74.00000095360002
 10
-70.12497419312999
 20
74.00000095360002
  0
LWPOLYLINE
  5
91
330
45
100
AcDbEntity
  8
0
  6
Continuous
 62
     7
100
AcDbPolyline
 90
        2
 70
     0
 43
0.15
 10
-69.47497809122999
 20
121.7019408941
 10
-65.77497506333
 20
121.7019408941
  0
LWPOLYLINE
  5
92
330
45
100
AcDbEntity
  8
0
  6
Continuous
 62
     7
100
AcDbPolyline
 90
        2
 70
     0
 43
0.15
 10
-63.27497744753001
 20
112.4999988824
 10
-59.87497204733
 20
112.4999988824
  0
LWPOLYLINE
  5
93
330
45
100
AcDbEntity
  8
0
  6
Continuous
 62
     7
100
AcDbPolyline
 90
        2
 70
     0
 43
0.15
 10
-29.03523081732999
 20
0.0
 10
-26.87497595143
 20
0.0
  0
LWPOLYLINE
  5
94
330
45
100
AcDbEntity
  8
0
  6
Continuous
 62
     7
100
AcDbPolyline
 90
        2
 70
     0
 43
0.15
 10
-63.27497744753001
 20
125.2014897763
 10
-69.87497741172999
 20
125.2014897763
  0
LWPOLYLINE
  5
95
330
45
100
AcDbEntity
  8
0
  6
Continuous
 62
     7
100
AcDbPolyline
 90
        2
 70
     0
 43
0.15
 10
-72.62497180892998
 20
159.9999219179
 10
-154.87497830583
 20
159.9999219179
  0
LWPOLYLINE
  5
96
330
45
100
AcDbEntity
  8
0
  6
Continuous
 62
     7
100
AcDbPolyline
 90
        2
 70
     0
 43
0.15
 10
-59.87497204733
 20
73.00000265239998
 10
-33.29366231153
 20
73.00000265239998
  0
LWPOLYLINE
  5
97
330
45
100
AcDbEntity
  8
0
  6
Continuous
 62
     7
100
AcDbPolyline
 90
        2
 70
     0
 43
0.15
 10
-156.87498235893
 20
156.4999893307
 10
-75.12497687532999
 20
156.4999893307
  0
LWPOLYLINE
  5
98
330
45
100
AcDbEntity
  8
0
  6
Continuous
 62
     7
100
AcDbPolyline
 90
        2
 70
     0
 43
0.15
 10
-57.37497443153001
 20
116.0000003874
 10
-61.27497339433
 20
116.0000003874
  0
LWPOLYLINE
  5
99
330
45
100
AcDbEntity
  8
0
  6
Continuous
 62
     7
100
AcDbPolyline
 90
        2
 70
     0
 43
0.15
 10
-26.87497595143
 20
76.499549672
 10
-56.37497613023001
 20
76.499549672
  0
LWPOLYLINE
  5
9A
330
45
100
AcDbEntity
  8
0
  6
Continuous
 62
     7
100
AcDbPolyline
 90
        2
 70
     0
 43
0.15
 10
-56.37497613023001
 20
76.499549672
 10
-56.37497613023001
 20
115.0000002235
  0
LWPOLYLINE
  5
9B
330
45
100
AcDbEntity
  8
0
  6
Continuous
 62
     7
100
AcDbPolyline
 90
        2
 70
     0
 43
0.15
 10
-62.27497542092999
 20
117.0000005513
 10
-62.27497542092999
 20
124.2014914751
  0
LWPOLYLINE
  5
9C
330
45
100
AcDbEntity
  8
0
  6
Continuous
 62
     7
100
AcDbPolyline
 90
        2
 70
     0
 43
0.15
 10
-69.87497741172999
 20
125.2014897763
 10
-69.87497741172999
 20
129.7999992966
  0
LWPOLYLINE
  5
9D
330
45
100
AcDbEntity
  8
0
  6
Continuous
 62
     7
100
AcDbPolyline
 90
        2
 70
     0
 43
0.15
 10
-69.87497741172999
 20
129.7999992966
 10
-68.37497437193
 20
130.8000013232
  0
LWPOLYLINE
  5
9E
330
45
100
AcDbEntity
  8
0
  6
Continuous
 62
     7
100
AcDbPolyline
 90
        2
 70
     0
 43
0.15
 10
41.12502401877001
 20
0.0
 10
-26.87497595143
 20
0.0
  0
LWPOLYLINE
  5
9F
330
45
100
AcDbEntity
  8
0
  6
Continuous
 62
     7
100
AcDbPolyline
 90
        2
 70
     0
 43
0.15
 10
-26.87497595143
 20
0.0
 10
-26.87497595143
 20
76.499549672
  0
LWPOLYLINE
  5
A0
330
45
100
AcDbEntity
  8
0
  6
Continuous
 62
     7
100
AcDbPolyline
 90
        2
 70
     0
 43
0.15
 10
41.12502401877001
 20
76.499549672
 10
41.12502401877001
 20
0.0
  0
LWPOLYLINE
  5
A1
330
45
100
AcDbEntity
  8
0
  6
Continuous
 62
     7
100
AcDbPolyline
 90
        2
 70
     0
 43
0.15
 10
41.12502401877001
 20
76.499549672
 10
-26.87497595143
 20
76.499549672
  0
LWPOLYLINE
  5
A2
330
45
100
AcDbEntity
  8
0
  6
Continuous
 62
     7
100
AcDbPolyline
 90
        2
 70
     0
 43
0.15
 10
-162.87497961713
 20
159.9999219179
 10
-170.87498092843
 20
159.9999219179
  0
LWPOLYLINE
  5
A3
330
45
100
AcDbEntity
  8
0
  6
Continuous
 62
     7
100
AcDbPolyline
 90
        2
 70
     0
 43
0.15
 10
-172.87497008033
 20
156.4999893307
 10
-160.87497556403
 20
156.4999893307
  0
LWPOLYLINE
  5
A4
330
45
100
AcDbEntity
  8
0
  6
Continuous
 62
     7
100
AcDbPolyline
 90
        2
 70
     0
 43
0.15
 10
-75.12497687532999
 20
156.4999893307
 10
-75.12495452353
 20
142.4000002443
  0
LWPOLYLINE
  5
A5
330
45
100
AcDbEntity
  8
0
  6
Continuous
 62
     7
100
AcDbPolyline
 90
        2
 70
     0
 43
0.15
 10
89.37500631617002
 20
142.4000002443
 10
89.37502121736998
 20
156.4999893307
  0
LWPOLYLINE
  5
A6
330
45
100
AcDbEntity
  8
0
  6
Continuous
 62
     7
100
AcDbPolyline
 90
        2
 70
     0
 43
0.15
 10
-67.62506598422999
 20
136.3999992609
 10
-71.62492507882999
 20
143.301833421
  0
LWPOLYLINE
  5
A7
330
45
100
AcDbEntity
  8
0
  6
Continuous
 62
     7
100
AcDbPolyline
 90
        2
 70
     0
 43
0.15
 10
85.87497687146998
 20
143.301833421
 10
81.87511032626998
 20
136.3999992609
  0
LWPOLYLINE
  5
A8
330
45
100
AcDbEntity
  8
0
  6
Continuous
 62
     7
100
AcDbPolyline
 90
        2
 70
     0
 43
0.15
 10
185.12502527047
 20
159.9999219179
 10
177.12502395917
 20
159.9999219179
  0
LWPOLYLINE
  5
A9
330
45
100
AcDbEntity
  8
0
  6
Continuous
 62
     7
100
AcDbPolyline
 90
        2
 70
     0
 43
0.15
 10
175.12501990607
 20
156.4999893307
 10
187.12502932357
 20
156.4999893307
  0
LWPOLYLINE
  5
AA
330
45
100
AcDbEntity
  8
0
  6
Continuous
 62
     7
100
AcDbPolyline
 90
        2
 70
     0
 43
0.15
 10
-172.87497008033
 20
157.9999178648
 10
-172.87497008033
 20
156.4999893307
  0
LWPOLYLINE
  5
AB
330
45
100
AcDbEntity
  8
0
  6
Continuous
 62
     7
100
AcDbPolyline
 90
        2
 70
     0
 43
0.15
 10
187.12502932357
 20
156.4999893307
 10
187.12502932357
 20
157.9999178648
  0
LWPOLYLINE
  5
AC
330
45
100
AcDbEntity
  8
0
  6
Continuous
 62
     7
100
AcDbPolyline
 90
        2
 70
     0
 43
0.15
 10
-71.62492507882999
 20
143.301833421
 10
-71.62496978233
 20
158.9999198913
  0
LWPOLYLINE
  5
AD
330
45
100
AcDbEntity
  8
0
  6
Continuous
 62
     7
100
AcDbPolyline
 90
        2
 70
     0
 43
0.15
 10
-68.89305794433
 20
143.301833421
 10
-71.62492507882999
 20
143.301833421
  0
LWPOLYLINE
  5
AE
330
45
100
AcDbEntity
  8
0
  6
Continuous
 62
     7
100
AcDbPolyline
 90
        2
 70
     0
 43
0.15
 10
-4.67495778393001
 20
143.301833421
 10
-6.67495811173001
 20
143.301833421
  0
LWPOLYLINE
  5
AF
330
45
100
AcDbEntity
  8
0
  6
Continuous
 62
     7
100
AcDbPolyline
 90
        2
 70
     0
 43
0.15
 10
20.92512166307
 20
143.301833421
 10
18.92512133527001
 20
143.301833421
  0
LWPOLYLINE
  5
B0
330
45
100
AcDbEntity
  8
0
  6
Continuous
 62
     7
100
AcDbPolyline
 90
        2
 70
     0
 43
0.15
 10
85.87497687146998
 20
143.301833421
 10
83.14310228636998
 20
143.301833421
  0
LWPOLYLINE
  5
B1
330
45
100
AcDbEntity
  8
0
  6
Continuous
 62
     7
100
AcDbPolyline
 90
        2
 70
     0
 43
0.15
 10
85.87502157496999
 20
158.9999198913
 10
85.87497687146998
 20
143.301833421
  0
LWPOLYLINE
  5
B2
330
45
100
AcDbEntity
  8
0
  6
Continuous
 62
     7
100
AcDbPolyline
 90
        2
 70
     0
 43
0.15
 10
-67.62506598422999
 20
135.4999989271
 10
-67.62506598422999
 20
136.3999992609
  0
LWPOLYLINE
  5
B3
330
45
100
AcDbEntity
  8
0
  6
Continuous
 62
     7
100
AcDbPolyline
 90
        2
 70
     0
 43
0.15
 10
81.87511032626998
 20
136.3999992609
 10
81.87511032626998
 20
135.4999989271
  0
LWPOLYLINE
  5
B4
330
45
100
AcDbEntity
  8
0
  6
Continuous
 62
     7
100
AcDbPolyline
 90
        2
 70
     0
 43
0.15
 10
-66.77497708983
 20
136.3999992609
 10
-67.62506598422999
 20
136.3999992609
  0
LWPOLYLINE
  5
B5
330
45
100
AcDbEntity
  8
0
  6
Continuous
 62
     7
100
AcDbPolyline
 90
        2
 70
     0
 43
0.15
 10
-4.67495778393001
 20
136.3999992609
 10
-62.88753235533
 20
136.3999992609
  0
LWPOLYLINE
  5
B6
330
45
100
AcDbEntity
  8
0
  6
Continuous
 62
     7
100
AcDbPolyline
 90
        2
 70
     0
 43
0.15
 10
77.13759904906999
 20
136.3999992609
 10
18.92512133527001
 20
136.3999992609
  0
LWPOLYLINE
  5
B7
330
45
100
AcDbEntity
  8
0
  6
Continuous
 62
     7
100
AcDbPolyline
 90
        2
 70
     0
 43
0.15
 10
81.87511032626998
 20
136.3999992609
 10
81.02502143197
 20
136.3999992609
  0
LWPOLYLINE
  5
B8
330
45
100
AcDbEntity
  8
0
  6
Continuous
 62
     7
100
AcDbPolyline
 90
        2
 70
     0
 43
0.15
 10
81.87511032626998
 20
135.4999989271
 10
82.62502616456999
 20
135.0569203496
  0
LWPOLYLINE
  5
B9
330
45
100
AcDbEntity
  8
0
  6
Continuous
 62
     7
100
AcDbPolyline
 90
        2
 70
     0
 43
0.15
 10
-66.77497708983
 20
135.4999989271
 10
-67.62506598422999
 20
135.4999989271
  0
LWPOLYLINE
  5
BA
330
45
100
AcDbEntity
  8
0
  6
Continuous
 62
     7
100
AcDbPolyline
 90
        2
 70
     0
 43
0.15
 10
-4.67495778393001
 20
135.4999989271
 10
-62.88753235533
 20
135.4999989271
  0
LWPOLYLINE
  5
BB
330
45
100
AcDbEntity
  8
0
  6
Continuous
 62
     7
100
AcDbPolyline
 90
        2
 70
     0
 43
0.15
 10
77.13759904906999
 20
135.4999989271
 10
18.92512133527001
 20
135.4999989271
  0
LWPOLYLINE
  5
BC
330
45
100
AcDbEntity
  8
0
  6
Continuous
 62
     7
100
AcDbPolyline
 90
        2
 70
     0
 43
0.15
 10
81.87511032626998
 20
135.4999989271
 10
81.02502143197
 20
135.4999989271
  0
LWPOLYLINE
  5
BD
330
45
100
AcDbEntity
  8
0
  6
Continuous
 62
     7
100
AcDbPolyline
 90
        2
 70
     0
 43
0.15
 10
-68.37497437193
 20
135.0569203496
 10
-67.62506598422999
 20
135.4999989271
  0
LWPOLYLINE
  5
BE
330
45
100
AcDbEntity
  8
0
  6
Continuous
 62
     7
100
AcDbPolyline
 90
        2
 70
     0
 43
0.15
 10
-68.37497437193
 20
130.8000013232
 10
-68.37497437193
 20
135.0569203496
  0
LWPOLYLINE
  5
BF
330
45
100
AcDbEntity
  8
0
  6
Continuous
 62
     7
100
AcDbPolyline
 90
        2
 70
     0
 43
0.15
 10
82.62502616456999
 20
130.8000013232
 10
-68.37497437193
 20
130.8000013232
  0
LWPOLYLINE
  5
C0
330
45
100
AcDbEntity
  8
0
  6
Continuous
 62
     7
100
AcDbPolyline
 90
        2
 70
     0
 43
0.15
 10
82.62502616456999
 20
135.0569203496
 10
82.62502616456999
 20
130.8000013232
  0
LWPOLYLINE
  5
C1
330
45
100
AcDbEntity
  8
0
  6
Continuous
 62
     7
100
AcDbPolyline
 90
        2
 70
     0
 43
0.15
 10
-66.77497708983
 20
135.0569203496
 10
-68.37497437193
 20
135.0569203496
  0
LWPOLYLINE
  5
C2
330
45
100
AcDbEntity
  8
0
  6
Continuous
 62
     7
100
AcDbPolyline
 90
        2
 70
     0
 43
0.15
 10
-4.67495778393001
 20
135.0569203496
 10
-62.88753235533
 20
135.0569203496
  0
LWPOLYLINE
  5
C3
330
45
100
AcDbEntity
  8
0
  6
Continuous
 62
     7
100
AcDbPolyline
 90
        2
 70
     0
 43
0.15
 10
77.13759904906999
 20
135.0569203496
 10
18.92512133527001
 20
135.0569203496
  0
LWPOLYLINE
  5
C4
330
45
100
AcDbEntity
  8
0
  6
Continuous
 62
     7
100
AcDbPolyline
 90
        2
 70
     0
 43
0.15
 10
82.62502616456999
 20
135.0569203496
 10
81.02502143197
 20
135.0569203496
  0
LWPOLYLINE
  5
C5
330
45
100
AcDbEntity
  8
0
  6
Continuous
 62
     7
100
AcDbPolyline
 90
        2
 70
     0
 43
0.15
 10
171.12502670097
 20
157.9999178648
 10
169.12502264787
 20
159.9999219179
  0
LWPOLYLINE
  5
C6
330
45
100
AcDbEntity
  8
0
  6
Continuous
 62
     7
100
AcDbPolyline
 90
        2
 70
     0
 43
0.15
 10
177.12502395917
 20
159.9999219179
 10
175.12501990607
 20
157.9999178648
  0
LWPOLYLINE
  5
C7
330
45
100
AcDbEntity
  8
0
  6
Continuous
 62
     7
100
AcDbPolyline
 90
        2
 70
     0
 43
0.15
 10
169.12502264787
 20
159.9999219179
 10
177.12502395917
 20
159.9999219179
  0
LWPOLYLINE
  5
C8
330
45
100
AcDbEntity
  8
0
  6
Continuous
 62
     7
100
AcDbPolyline
 90
        2
 70
     0
 43
0.15
 10
-160.87497556403
 20
157.9999178648
 10
-162.87497961713
 20
159.9999219179
  0
LWPOLYLINE
  5
C9
330
45
100
AcDbEntity
  8
0
  6
Continuous
 62
     7
100
AcDbPolyline
 90
        2
 70
     0
 43
0.15
 10
-154.87497830583
 20
159.9999219179
 10
-156.87498235893
 20
157.9999178648
  0
LWPOLYLINE
  5
CA
330
45
100
AcDbEntity
  8
0
  6
Continuous
 62
     7
100
AcDbPolyline
 90
        2
 70
     0
 43
0.15
 10
-162.87497961713
 20
159.9999219179
 10
-154.87497830583
 20
159.9999219179
  0
LWPOLYLINE
  5
CB
330
45
100
AcDbEntity
  8
0
  6
Continuous
 62
     7
100
AcDbPolyline
 90
        2
 70
     0
 43
0.15
 10
171.12502670097
 20
156.4999893307
 10
175.12501990607
 20
156.4999893307
  0
LWPOLYLINE
  5
CC
330
45
100
AcDbEntity
  8
0
  6
Continuous
 62
     7
100
AcDbPolyline
 90
        2
 70
     0
 43
0.15
 10
175.12501990607
 20
156.4999893307
 10
175.12501990607
 20
157.9999178648
  0
LWPOLYLINE
  5
CD
330
45
100
AcDbEntity
  8
0
  6
Continuous
 62
     7
100
AcDbPolyline
 90
        2
 70
     0
 43
0.15
 10
175.12501990607
 20
157.9999178648
 10
171.12502670097
 20
157.9999178648
  0
LWPOLYLINE
  5
CE
330
45
100
AcDbEntity
  8
0
  6
Continuous
 62
     7
100
AcDbPolyline
 90
        2
 70
     0
 43
0.15
 10
171.12502670097
 20
157.9999178648
 10
171.12502670097
 20
156.4999893307
  0
LWPOLYLINE
  5
CF
330
45
100
AcDbEntity
  8
0
  6
Continuous
 62
     7
100
AcDbPolyline
 90
        2
 70
     0
 43
0.15
 10
-160.87497556403
 20
156.4999893307
 10
-156.87498235893
 20
156.4999893307
  0
LWPOLYLINE
  5
D0
330
45
100
AcDbEntity
  8
0
  6
Continuous
 62
     7
100
AcDbPolyline
 90
        2
 70
     0
 43
0.15
 10
-156.87498235893
 20
156.4999893307
 10
-156.87498235893
 20
157.9999178648
  0
LWPOLYLINE
  5
D1
330
45
100
AcDbEntity
  8
0
  6
Continuous
 62
     7
100
AcDbPolyline
 90
        2
 70
     0
 43
0.15
 10
-156.87498235893
 20
157.9999178648
 10
-160.87497556403
 20
157.9999178648
  0
LWPOLYLINE
  5
D2
330
45
100
AcDbEntity
  8
0
  6
Continuous
 62
     7
100
AcDbPolyline
 90
        2
 70
     0
 43
0.15
 10
-160.87497556403
 20
157.9999178648
 10
-160.87497556403
 20
156.4999893307
  0
LWPOLYLINE
  5
D3
330
45
100
AcDbEntity
  8
0
  6
Continuous
 62
     7
100
AcDbPolyline
 90
        2
 70
     0
 43
0.15
 10
-30.37497559382999
 20
5.00000268220001
 10
-29.03523081732999
 20
0.0
  0
LWPOLYLINE
  5
D4
330
45
100
AcDbEntity
  8
0
  6
Continuous
 62
     7
100
AcDbPolyline
 90
        2
 70
     0
 43
0.15
 10
43.28527888466999
 20
0.0
 10
44.62502366117002
 20
5.00000268220001
  0
LWPOLYLINE
  5
D5
330
45
100
AcDbEntity
  8
0
  6
Continuous
 62
     7
100
AcDbPolyline
 90
        2
 70
     0
 43
0.15
 10
70.62502419756999
 20
115.0000002235
 10
-56.37497613023001
 20
115.0000002235
  0
LWPOLYLINE
  5
D6
330
45
100
AcDbEntity
  8
0
  6
Continuous
 62
     7
100
AcDbPolyline
 90
        2
 70
     0
 43
0.15
 10
-57.37497443153001
 20
116.0000003874
 10
71.62502622417003
 20
116.0000003874
  0
LWPOLYLINE
  5
D7
330
45
100
AcDbEntity
  8
0
  6
Continuous
 62
     7
100
AcDbPolyline
 90
        2
 70
     0
 43
0.15
 10
-62.27497542092999
 20
117.0000005513
 10
76.52502721357001
 20
117.0000005513
  0
LWPOLYLINE
  5
D8
330
45
100
AcDbEntity
  8
0
  6
Continuous
 62
     7
100
AcDbPolyline
 90
        2
 70
     0
 43
0.15
 10
76.52502721357001
 20
124.2014914751
 10
-62.27497542092999
 20
124.2014914751
  0
LWPOLYLINE
  5
D9
330
45
100
AcDbEntity
  8
0
  6
Continuous
 62
     7
100
AcDbPolyline
 90
        2
 70
     0
 43
0.15
 10
-30.37497559382999
 20
72.75000028310001
 10
-30.37497559382999
 20
5.00000268220001
  0
LWPOLYLINE
  5
DA
330
45
100
AcDbEntity
  8
0
  6
Continuous
 62
     7
100
AcDbPolyline
 90
        2
 70
     0
 43
0.15
 10
44.62502366117002
 20
5.00000268220001
 10
44.62502366117002
 20
72.75000028310001
  0
LWPOLYLINE
  5
DB
330
45
100
AcDbEntity
  8
0
  6
Continuous
 62
     7
100
AcDbPolyline
 90
        2
 70
     0
 43
0.15
 10
-33.29366231153
 20
73.00000265239998
 10
-30.37497559382999
 20
72.75000028310001
  0
LWPOLYLINE
  5
DC
330
45
100
AcDbEntity
  8
0
  6
Continuous
 62
     7
100
AcDbPolyline
 90
        2
 70
     0
 43
0.15
 10
44.62502366117002
 20
72.75000028310001
 10
47.54371037887
 20
73.00000265239998
  0
LWPOLYLINE
  5
DD
330
45
100
AcDbEntity
  8
0
  6
Continuous
 62
     7
100
AcDbPolyline
 90
        2
 70
     0
 43
0.15
 10
-59.87497204733
 20
112.4999988824
 10
-59.87497204733
 20
73.00000265239998
  0
LWPOLYLINE
  5
DE
330
45
100
AcDbEntity
  8
0
  6
Continuous
 62
     7
100
AcDbPolyline
 90
        2
 70
     0
 43
0.15
 10
74.12502383997003
 20
73.00000265239998
 10
74.12502383997003
 20
112.4999988824
  0
LWPOLYLINE
  5
DF
330
45
100
AcDbEntity
  8
0
  6
Continuous
 62
     7
100
AcDbPolyline
 90
        2
 70
     0
 43
0.15
 10
-65.77497506333
 20
121.7019408941
 10
-65.77497506333
 20
115.0000002235
  0
LWPOLYLINE
  5
E0
330
45
100
AcDbEntity
  8
0
  6
Continuous
 62
     7
100
AcDbPolyline
 90
        2
 70
     0
 43
0.15
 10
80.02502685597
 20
115.0000002235
 10
80.02502685597
 20
121.7019408941
  0
LWPOLYLINE
  5
E1
330
45
100
AcDbEntity
  8
0
  6
Continuous
 62
     7
100
AcDbPolyline
 90
        2
 70
     0
 43
0.15
 10
83.72502243327
 20
121.7019408941
 10
84.37502598576998
 20
74.00000095360002
  0
LWPOLYLINE
  5
E2
330
45
100
AcDbEntity
  8
0
  6
Continuous
 62
     7
100
AcDbPolyline
 90
        2
 70
     0
 43
0.15
 10
-70.12497419312999
 20
74.00000095360002
 10
-69.47497809122999
 20
121.7019408941
  0
LWPOLYLINE
  5
E3
330
45
100
AcDbEntity
  8
0
  6
Continuous
 62
     7
100
AcDbPolyline
 90
        2
 70
     0
 43
0.15
 10
-72.97497773363
 20
138.5999992489
 10
-72.97497773363
 20
74.00000095360002
  0
LWPOLYLINE
  5
E4
330
45
100
AcDbEntity
  8
0
  6
Continuous
 62
     7
100
AcDbPolyline
 90
        2
 70
     0
 43
0.15
 10
87.22502207566998
 20
74.00000095360002
 10
87.22502207566998
 20
138.5999992489
  0
LWPOLYLINE
  5
E5
330
45
100
AcDbEntity
  8
0
  6
Continuous
 62
     7
100
AcDbPolyline
 90
        2
 70
     0
 43
0.15
 10
-75.12495452353
 20
142.4000002443
 10
-72.97497773363
 20
138.5999992489
  0
LWPOLYLINE
  5
E6
330
45
100
AcDbEntity
  8
0
  6
Continuous
 62
     7
100
AcDbPolyline
 90
        2
 70
     0
 43
0.15
 10
87.22502207566998
 20
138.5999992489
 10
89.37500631617002
 20
142.4000002443
  0
LWPOLYLINE
  5
E7
330
45
100
AcDbEntity
  8
0
  6
Continuous
 62
     7
100
AcDbPolyline
 90
        2
 70
     0
 43
0.15
 10
-57.62497866343
 20
127.2014901042
 10
71.87502300546998
 20
127.2014901042
  0
LWPOLYLINE
  5
E8
330
45
100
AcDbEntity
  8
0
  6
Continuous
 62
     7
100
AcDbPolyline
 90
        2
 70
     0
 43
0.15
 10
-62.12497288173
 20
125.2014897763
 10
76.37502467447001
 20
125.2014897763
  0
LWPOLYLINE
  5
E9
330
45
100
AcDbEntity
  8
0
  6
Continuous
 62
     7
100
AcDbPolyline
 90
        2
 70
     0
 43
0.15
 10
-57.62497866343
 20
127.2014901042
 10
-60.12497627923
 20
127.2014901042
  0
LWPOLYLINE
  5
EA
330
45
100
AcDbEntity
  8
0
  6
Continuous
 62
     7
100
AcDbPolyline
 90
        2
 70
     0
 43
0.15
 10
-70.12497419312999
 20
129.7014914453
 10
-59.62497526593
 20
129.7014914453
  0
LWPOLYLINE
  5
EB
330
45
100
AcDbEntity
  8
0
  6
Continuous
 62
     7
100
AcDbPolyline
 90
        2
 70
     0
 43
0.15
 10
-57.62497866343
 20
127.7014911174
 10
-57.62497866343
 20
127.2014901042
  0
LWPOLYLINE
  5
EC
330
45
100
AcDbEntity
  8
0
  6
Continuous
 62
     7
100
AcDbPolyline
 90
        2
 70
     0
 43
0.15
 10
-70.12497419312999
 20
127.2014901042
 10
-70.12497419312999
 20
129.7014914453
  0
LWPOLYLINE
  5
ED
330
45
100
AcDbEntity
  8
0
  6
Continuous
 62
     7
100
AcDbPolyline
 90
        2
 70
     0
 43
0.15
 10
-68.97027576163
 20
125.2014897763
 10
-70.12497419312999
 20
127.2014901042
  0
LWPOLYLINE
  5
EE
330
45
100
AcDbEntity
  8
0
  6
Continuous
 62
     7
100
AcDbPolyline
 90
        2
 70
     0
 43
0.15
 10
-62.12497288173
 20
125.2014897763
 10
-68.97027576163
 20
125.2014897763
  0
LWPOLYLINE
  5
EF
330
45
100
AcDbEntity
  8
0
  6
Continuous
 62
     7
100
AcDbPolyline
 90
        2
 70
     0
 43
0.15
 10
-59.62497526593
 20
129.7014914453
 10
73.87502705857003
 20
129.7014914453
  0
LWPOLYLINE
  5
F0
330
45
100
AcDbEntity
  8
0
  6
Continuous
 62
     7
100
AcDbPolyline
 90
        2
 70
     0
 43
0.15
 10
-57.62497866343
 20
127.7014911174
 10
71.87502300546998
 20
127.7014911174
  0
LWPOLYLINE
  5
F1
330
45
100
AcDbEntity
  8
0
  6
Continuous
 62
     7
100
AcDbPolyline
 90
        2
 70
     0
 43
0.15
 10
74.37502807187002
 20
127.2014901042
 10
71.87502300546998
 20
127.2014901042
  0
LWPOLYLINE
  5
F2
330
45
100
AcDbEntity
  8
0
  6
Continuous
 62
     7
100
AcDbPolyline
 90
        2
 70
     0
 43
0.15
 10
83.22032755427
 20
125.2014897763
 10
76.37502467447001
 20
125.2014897763
  0
LWPOLYLINE
  5
F3
330
45
100
AcDbEntity
  8
0
  6
Continuous
 62
     7
100
AcDbPolyline
 90
        2
 70
     0
 43
0.15
 10
84.37502598576998
 20
127.2014901042
 10
83.22032755427
 20
125.2014897763
  0
LWPOLYLINE
  5
F4
330
45
100
AcDbEntity
  8
0
  6
Continuous
 62
     7
100
AcDbPolyline
 90
        2
 70
     0
 43
0.15
 10
84.37502598576998
 20
129.7014914453
 10
84.37502598576998
 20
127.2014901042
  0
LWPOLYLINE
  5
F5
330
45
100
AcDbEntity
  8
0
  6
Continuous
 62
     7
100
AcDbPolyline
 90
        2
 70
     0
 43
0.15
 10
73.87502705857003
 20
129.7014914453
 10
84.37502598576998
 20
129.7014914453
  0
LWPOLYLINE
  5
F6
330
45
100
AcDbEntity
  8
0
  6
Continuous
 62
     7
100
AcDbPolyline
 90
        2
 70
     0
 43
0.15
 10
71.87502300546998
 20
127.2014901042
 10
71.87502300546998
 20
127.7014911174
  0
LWPOLYLINE
  5
F7
330
45
100
AcDbEntity
  8
0
  6
Continuous
 62
     7
100
AcDbPolyline
 90
        2
 70
     0
 43
0.15
 10
-69.87497741172999
 20
74.00000095360002
 10
-72.87497604083
 20
74.00000095360002
  0
LWPOLYLINE
  5
F8
330
45
100
AcDbEntity
  8
0
  6
Continuous
 62
     7
100
AcDbPolyline
 90
        2
 70
     0
 43
0.15
 10
-67.87497335863
 20
80.00000193710002
 10
-69.14703333563
 20
80.00000193710002
  0
LWPOLYLINE
  5
F9
330
45
100
AcDbEntity
  8
0
  6
Continuous
 62
     7
100
AcDbPolyline
 90
        2
 70
     0
 43
0.15
 10
-30.87497660702999
 20
66.5000025183
 10
-65.37497574283
 20
66.5000025183
  0
LWPOLYLINE
  5
FA
330
45
100
AcDbEntity
  8
0
  6
Continuous
 62
     7
100
AcDbPolyline
 90
        2
 70
     0
 43
0.15
 10
-64.87497472953001
 20
64.00000117720003
 10
-63.62497592163001
 20
64.00000117720003
  0
LWPOLYLINE
  5
FB
330
45
100
AcDbEntity
  8
0
  6
Continuous
 62
     7
100
AcDbPolyline
 90
        2
 70
     0
 43
0.15
 10
-49.62497735213
 20
64.00000117720003
 10
-30.87497660702999
 20
64.00000117720003
  0
LWPOLYLINE
  5
FC
330
45
100
AcDbEntity
  8
0
  6
Continuous
 62
     7
100
AcDbPolyline
 90
        2
 70
     0
 43
0.15
 10
-49.62497735213
 20
61.50000169870003
 10
-49.62497735213
 20
64.00000117720003
  0
LWPOLYLINE
  5
FD
330
45
100
AcDbEntity
  8
0
  6
Continuous
 62
     7
100
AcDbPolyline
 90
        2
 70
     0
 43
0.15
 10
-63.62497592163001
 20
61.50000169870003
 10
-63.62497592163001
 20
64.00000117720003
  0
LWPOLYLINE
  5
FE
330
45
100
AcDbEntity
  8
0
  6
Continuous
 62
     7
100
AcDbPolyline
 90
        2
 70
     0
 43
0.15
 10
-49.62497735213
 20
61.50000169870003
 10
-63.62497592163001
 20
61.50000169870003
  0
LWPOLYLINE
  5
FF
330
45
100
AcDbEntity
  8
0
  6
Continuous
 62
     7
100
AcDbPolyline
 90
        2
 70
     0
 43
0.15
 10
44.62502366117002
 20
66.5000025183
 10
45.12502467447001
 20
66.5000025183
  0
LWPOLYLINE
  5
100
330
45
100
AcDbEntity
  8
0
  6
Continuous
 62
     7
100
AcDbPolyline
 90
        2
 70
     0
 43
0.15
 10
-30.87497660702999
 20
66.5000025183
 10
-30.37497559382999
 20
66.5000025183
  0
LWPOLYLINE
  5
101
330
45
100
AcDbEntity
  8
0
  6
Continuous
 62
     7
100
AcDbPolyline
 90
        2
 70
     0
 43
0.15
 10
44.62502366117002
 20
64.00000117720003
 10
45.12502467447001
 20
64.00000117720003
  0
LWPOLYLINE
  5
102
330
45
100
AcDbEntity
  8
0
  6
Continuous
 62
     7
100
AcDbPolyline
 90
        2
 70
     0
 43
0.15
 10
-30.87497660702999
 20
64.00000117720003
 10
-30.37497559382999
 20
64.00000117720003
  0
LWPOLYLINE
  5
103
330
45
100
AcDbEntity
  8
0
  6
Continuous
 62
     7
100
AcDbPolyline
 90
        2
 70
     0
 43
0.15
 10
-30.87497660702999
 20
64.00000117720003
 10
-30.87497660702999
 20
66.5000025183
  0
LWPOLYLINE
  5
104
330
45
100
AcDbEntity
  8
0
  6
Continuous
 62
     7
100
AcDbPolyline
 90
        2
 70
     0
 43
0.15
 10
87.12502783347003
 20
74.00000095360002
 10
84.12502175377
 20
74.00000095360002
  0
LWPOLYLINE
  5
105
330
45
100
AcDbEntity
  8
0
  6
Continuous
 62
     7
100
AcDbPolyline
 90
        2
 70
     0
 43
0.15
 10
83.39708512837001
 20
80.00000193710002
 10
82.12502515127
 20
80.00000193710002
  0
LWPOLYLINE
  5
106
330
45
100
AcDbEntity
  8
0
  6
Continuous
 62
     7
100
AcDbPolyline
 90
        2
 70
     0
 43
0.15
 10
79.62502753547
 20
66.5000025183
 10
45.12502467447001
 20
66.5000025183
  0
LWPOLYLINE
  5
107
330
45
100
AcDbEntity
  8
0
  6
Continuous
 62
     7
100
AcDbPolyline
 90
        2
 70
     0
 43
0.15
 10
77.87502771427
 20
64.00000117720003
 10
79.12502652217
 20
64.00000117720003
  0
LWPOLYLINE
  5
108
330
45
100
AcDbEntity
  8
0
  6
Continuous
 62
     7
100
AcDbPolyline
 90
        2
 70
     0
 43
0.15
 10
45.12502467447001
 20
64.00000117720003
 10
63.87502541946998
 20
64.00000117720003
  0
LWPOLYLINE
  5
109
330
45
100
AcDbEntity
  8
0
  6
Continuous
 62
     7
100
AcDbPolyline
 90
        2
 70
     0
 43
0.15
 10
45.12502467447001
 20
66.5000025183
 10
45.12502467447001
 20
64.00000117720003
  0
LWPOLYLINE
  5
10A
330
45
100
AcDbEntity
  8
0
  6
Continuous
 62
     7
100
AcDbPolyline
 90
        2
 70
     0
 43
0.15
 10
63.87502541946998
 20
64.00000117720003
 10
63.87502541946998
 20
61.50000169870003
  0
LWPOLYLINE
  5
10B
330
45
100
AcDbEntity
  8
0
  6
Continuous
 62
     7
100
AcDbPolyline
 90
        2
 70
     0
 43
0.15
 10
77.87502771427
 20
61.50000169870003
 10
63.87502541946998
 20
61.50000169870003
  0
LWPOLYLINE
  5
10C
330
45
100
AcDbEntity
  8
0
  6
Continuous
 62
     7
100
AcDbPolyline
 90
        2
 70
     0
 43
0.15
 10
77.87502771427
 20
61.50000169870003
 10
77.87502771427
 20
64.00000117720003
  0
LWPOLYLINE
  5
10D
330
45
100
AcDbEntity
  8
0
  6
Continuous
 62
     7
100
AcDbPolyline
 90
        2
 70
     0
 43
0.15
 10
74.12502383997003
 20
80.00000193710002
 10
82.12502515127
 20
80.00000193710002
  0
LWPOLYLINE
  5
10E
330
45
100
AcDbEntity
  8
0
  6
Continuous
 62
     7
100
AcDbPolyline
 90
        2
 70
     0
 43
0.15
 10
-67.87497335863
 20
80.00000193710002
 10
-59.87497204733
 20
80.00000193710002
  0
LWPOLYLINE
  5
10F
330
45
100
AcDbEntity
  8
0
  6
Continuous
 62
     7
100
AcDbPolyline
 90
        2
 70
     0
 43
0.15
 10
82.12502515127
 20
80.00000193710002
 10
82.12502515127
 20
69.00000199670001
  0
LWPOLYLINE
  5
110
330
45
100
AcDbEntity
  8
0
  6
Continuous
 62
     7
100
AcDbPolyline
 90
        2
 70
     0
 43
0.15
 10
-67.87497335863
 20
69.00000199670001
 10
-67.87497335863
 20
80.00000193710002
  0
LWPOLYLINE
  5
111
330
45
100
AcDbEntity
  8
0
  6
Continuous
 62
     7
100
AcDbPolyline
 90
        2
 70
     0
 43
0.15
 10
84.12502175377
 20
78.0000016093
 10
83.39708512837001
 20
80.00000193710002
  0
LWPOLYLINE
  5
112
330
45
100
AcDbEntity
  8
0
  6
Continuous
 62
     7
100
AcDbPolyline
 90
        2
 70
     0
 43
0.15
 10
-69.14703333563
 20
80.00000193710002
 10
-69.87497741172999
 20
78.0000016093
  0
LWPOLYLINE
  5
113
330
45
100
AcDbEntity
  8
0
  6
Continuous
 62
     7
100
AcDbPolyline
 90
        2
 70
     0
 43
0.15
 10
84.12502175377
 20
74.00000095360002
 10
84.12502175377
 20
78.0000016093
  0
LWPOLYLINE
  5
114
330
45
100
AcDbEntity
  8
0
  6
Continuous
 62
     7
100
AcDbPolyline
 90
        2
 70
     0
 43
0.15
 10
-69.87497741172999
 20
78.0000016093
 10
-69.87497741172999
 20
74.00000095360002
  0
LWPOLYLINE
  5
115
330
45
100
AcDbEntity
  8
0
  6
Continuous
 62
     7
100
AcDbPolyline
 90
        2
 70
     0
 43
0.15
 10
87.12502783347003
 20
72.0000024885
 10
87.12502783347003
 20
74.00000095360002
  0
LWPOLYLINE
  5
116
330
45
100
AcDbEntity
  8
0
  6
Continuous
 62
     7
100
AcDbPolyline
 90
        2
 70
     0
 43
0.15
 10
-72.87497604083
 20
74.00000095360002
 10
-72.87497604083
 20
72.0000024885
  0
LWPOLYLINE
  5
117
330
45
100
AcDbEntity
  8
0
  6
Continuous
 62
     7
100
AcDbPolyline
 90
        2
 70
     0
 43
0.15
 10
-4.67495778393001
 20
130.9999190271
 10
-4.67495778393001
 20
151.299919933
  0
LWPOLYLINE
  5
118
330
45
100
AcDbEntity
  8
0
  6
Continuous
 62
     7
100
AcDbPolyline
 90
        2
 70
     0
 43
0.15
 10
-4.67495778393001
 20
130.9999190271
 10
18.92512133527001
 20
130.9999190271
  0
LWPOLYLINE
  5
119
330
45
100
AcDbEntity
  8
0
  6
Continuous
 62
     7
100
AcDbPolyline
 90
        2
 70
     0
 43
0.15
 10
18.92512133527001
 20
151.299919933
 10
18.92512133527001
 20
130.9999190271
  0
LWPOLYLINE
  5
11A
330
45
100
AcDbEntity
  8
0
  6
Continuous
 62
     7
100
AcDbPolyline
 90
        2
 70
     0
 43
0.15
 10
8.27502440846999
 20
159.9999219179
 10
8.27502440846999
 20
194.5999860763
  0
LWPOLYLINE
  5
11B
330
45
100
AcDbEntity
  8
0
  6
Continuous
 62
     7
100
AcDbPolyline
 90
        2
 70
     0
 43
0.15
 10
5.97502438647001
 20
159.9999219179
 10
5.97502438647001
 20
194.5999860763
  0
LWPOLYLINE
  5
11C
330
45
100
AcDbEntity
  8
0
  6
Continuous
 62
     7
100
AcDbPolyline
 90
        2
 70
     0
 43
0.15
 10
6.89607095157001
 20
159.9999219179
 10
7.35397781427
 20
159.9999219179
  0
LWPOLYLINE
  5
11D
330
45
100
AcDbEntity
  8
0
  6
Continuous
 62
     7
100
AcDbPolyline
 90
        2
 70
     0
 43
0.15
 10
-10.01080656242999
 20
159.9999219179
 10
-6.75139734343
 20
194.5999860763
  0
LWPOLYLINE
  5
11E
330
45
100
AcDbEntity
  8
0
  6
Continuous
 62
     7
100
AcDbPolyline
 90
        2
 70
     0
 43
0.15
 10
-11.34277479542999
 20
159.9999219179
 10
-10.90046921563001
 20
159.9999219179
  0
LWPOLYLINE
  5
11F
330
45
100
AcDbEntity
  8
0
  6
Continuous
 62
     7
100
AcDbPolyline
 90
        2
 70
     0
 43
0.15
 10
24.26085649237001
 20
159.9999219179
 10
21.00144634207001
 20
194.5999860763
  0
LWPOLYLINE
  5
120
330
45
100
AcDbEntity
  8
0
  6
Continuous
 62
     7
100
AcDbPolyline
 90
        2
 70
     0
 43
0.15
 10
25.15051914566999
 20
159.9999219179
 10
25.59282286276999
 20
159.9999219179
  0
LWPOLYLINE
  5
121
330
45
100
AcDbEntity
  8
0
  6
Continuous
 62
     7
100
AcDbPolyline
 90
        2
 70
     0
 43
0.15
 10
-27.12886193583
 20
159.9999219179
 10
-20.83216393183
 20
194.5999860763
  0
LWPOLYLINE
  5
122
330
45
100
AcDbEntity
  8
0
  6
Continuous
 62
     7
100
AcDbPolyline
 90
        2
 70
     0
 43
0.15
 10
-28.32307079622999
 20
159.9999219179
 10
-27.92650991862999
 20
159.9999219179
  0
LWPOLYLINE
  5
123
330
45
100
AcDbEntity
  8
0
  6
Continuous
 62
     7
100
AcDbPolyline
 90
        2
 70
     0
 43
0.15
 10
41.37891000317001
 20
159.9999219179
 10
35.08221386187
 20
194.5999860763
  0
LWPOLYLINE
  5
124
330
45
100
AcDbEntity
  8
0
  6
Continuous
 62
     7
100
AcDbPolyline
 90
        2
 70
     0
 43
0.15
 10
42.17655798607001
 20
159.9999219179
 10
42.57311886357002
 20
159.9999219179
  0
LWPOLYLINE
  5
125
330
45
100
AcDbEntity
  8
0
  6
Continuous
 62
     7
100
AcDbPolyline
 90
        2
 70
     0
 43
0.15
 10
8.27502440846999
 20
199.3201598525
 10
8.27502440846999
 20
220.199920237
  0
LWPOLYLINE
  5
126
330
45
100
AcDbEntity
  8
0
  6
Continuous
 62
     7
100
AcDbPolyline
 90
        2
 70
     0
 43
0.15
 10
5.97502438647001
 20
199.3201598525
 10
5.97502438647001
 20
220.199920237
  0
LWPOLYLINE
  5
127
330
45
100
AcDbEntity
  8
0
  6
Continuous
 62
     7
100
AcDbPolyline
 90
        2
 70
     0
 43
0.15
 10
-6.30674576203
 20
199.3201598525
 10
-4.33982135542999
 20
220.199920237
  0
LWPOLYLINE
  5
128
330
45
100
AcDbEntity
  8
0
  6
Continuous
 62
     7
100
AcDbPolyline
 90
        2
 70
     0
 43
0.15
 10
20.55679476067002
 20
199.3201598525
 10
18.58987035416999
 20
220.199920237
  0
LWPOLYLINE
  5
129
330
45
100
AcDbEntity
  8
0
  6
Continuous
 62
     7
100
AcDbPolyline
 90
        2
 70
     0
 43
0.15
 10
-12.23243744863001
 20
159.9999219179
 10
-8.97302729822999
 20
194.5999860763
  0
LWPOLYLINE
  5
12A
330
45
100
AcDbEntity
  8
0
  6
Continuous
 62
     7
100
AcDbPolyline
 90
        2
 70
     0
 43
0.15
 10
-8.52837478563001
 20
199.3201598525
 10
-6.56145131033
 20
220.199920237
  0
LWPOLYLINE
  5
12B
330
45
100
AcDbEntity
  8
0
  6
Continuous
 62
     7
100
AcDbPolyline
 90
        2
 70
     0
 43
0.15
 10
-12.54948014212999
 20
199.9066919088
 10
-10.63780830992999
 20
220.199920237
  0
LWPOLYLINE
  5
12C
330
45
100
AcDbEntity
  8
0
  6
Continuous
 62
     7
100
AcDbPolyline
 90
        2
 70
     0
 43
0.15
 10
-16.13693842482999
 20
161.8242412805
 10
-13.04938429782999
 20
194.5999860763
  0
LWPOLYLINE
  5
12D
330
45
100
AcDbEntity
  8
0
  6
Continuous
 62
     7
100
AcDbPolyline
 90
        2
 70
     0
 43
0.15
 10
-15.31064109693
 20
159.9999219179
 10
-16.13693842482999
 20
161.8242412805
  0
LWPOLYLINE
  5
12E
330
45
100
AcDbEntity
  8
0
  6
Continuous
 62
     7
100
AcDbPolyline
 90
        2
 70
     0
 43
0.15
 10
26.48248551597001
 20
159.9999219179
 10
23.22307629696999
 20
194.5999860763
  0
LWPOLYLINE
  5
12F
330
45
100
AcDbEntity
  8
0
  6
Continuous
 62
     7
100
AcDbPolyline
 90
        2
 70
     0
 43
0.15
 10
29.56069102697001
 20
159.9999219179
 10
30.38698649217
 20
161.8242412805
  0
LWPOLYLINE
  5
130
330
45
100
AcDbEntity
  8
0
  6
Continuous
 62
     7
100
AcDbPolyline
 90
        2
 70
     0
 43
0.15
 10
26.79952820947
 20
199.9066919088
 10
24.88785637727
 20
220.199920237
  0
LWPOLYLINE
  5
131
330
45
100
AcDbEntity
  8
0
  6
Continuous
 62
     7
100
AcDbPolyline
 90
        2
 70
     0
 43
0.15
 10
30.38698649217
 20
161.8242412805
 10
27.29943236516999
 20
194.5999860763
  0
LWPOLYLINE
  5
132
330
45
100
AcDbEntity
  8
0
  6
Continuous
 62
     7
100
AcDbPolyline
 90
        2
 70
     0
 43
0.15
 10
22.77842378426999
 20
199.3201598525
 10
20.81150030897001
 20
220.199920237
  0
LWPOLYLINE
  5
133
330
45
100
AcDbEntity
  8
0
  6
Continuous
 62
     7
100
AcDbPolyline
 90
        2
 70
     0
 43
0.15
 10
-41.91256845183
 20
159.9999219179
 10
-33.00769412702999
 20
194.5999860763
  0
LWPOLYLINE
  5
134
330
45
100
AcDbEntity
  8
0
  6
Continuous
 62
     7
100
AcDbPolyline
 90
        2
 70
     0
 43
0.15
 10
-42.88763711043001
 20
159.9999219179
 10
-42.56384605362999
 20
159.9999219179
  0
LWPOLYLINE
  5
135
330
45
100
AcDbEntity
  8
0
  6
Continuous
 62
     7
100
AcDbPolyline
 90
        2
 70
     0
 43
0.15
 10
56.16261651926999
 20
159.9999219179
 10
47.25774591967002
 20
194.5999860763
  0
LWPOLYLINE
  5
136
330
45
100
AcDbEntity
  8
0
  6
Continuous
 62
     7
100
AcDbPolyline
 90
        2
 70
     0
 43
0.15
 10
56.81389412097002
 20
159.9999219179
 10
57.13768517776998
 20
159.9999219179
  0
LWPOLYLINE
  5
137
330
45
100
AcDbEntity
  8
0
  6
Continuous
 62
     7
100
AcDbPolyline
 90
        2
 70
     0
 43
0.15
 10
-19.97316228042999
 20
199.3201598525
 10
-16.17335686273
 20
220.199920237
  0
LWPOLYLINE
  5
138
330
45
100
AcDbEntity
  8
0
  6
Continuous
 62
     7
100
AcDbPolyline
 90
        2
 70
     0
 43
0.15
 10
34.22321221047
 20
199.3201598525
 10
30.42340679277001
 20
220.199920237
  0
LWPOLYLINE
  5
139
330
45
100
AcDbEntity
  8
0
  6
Continuous
 62
     7
100
AcDbPolyline
 90
        2
 70
     0
 43
0.15
 10
-29.12071877903
 20
159.9999219179
 10
-22.82402263773
 20
194.5999860763
  0
LWPOLYLINE
  5
13A
330
45
100
AcDbEntity
  8
0
  6
Continuous
 62
     7
100
AcDbPolyline
 90
        2
 70
     0
 43
0.15
 10
-21.96502098632999
 20
199.3201598525
 10
-18.16521556863
 20
220.199920237
  0
LWPOLYLINE
  5
13B
330
45
100
AcDbEntity
  8
0
  6
Continuous
 62
     7
100
AcDbPolyline
 90
        2
 70
     0
 43
0.15
 10
-29.73319748232998
 20
199.9066919088
 10
-26.04013094492998
 20
220.199920237
  0
LWPOLYLINE
  5
13C
330
45
100
AcDbEntity
  8
0
  6
Continuous
 62
     7
100
AcDbPolyline
 90
        2
 70
     0
 43
0.15
 10
-36.66363814663001
 20
161.8242412805
 10
-30.69894173933
 20
194.5999860763
  0
LWPOLYLINE
  5
13D
330
45
100
AcDbEntity
  8
0
  6
Continuous
 62
     7
100
AcDbPolyline
 90
        2
 70
     0
 43
0.15
 10
-35.06735497903
 20
159.9999219179
 10
-36.66363814663001
 20
161.8242412805
  0
LWPOLYLINE
  5
13E
330
45
100
AcDbEntity
  8
0
  6
Continuous
 62
     7
100
AcDbPolyline
 90
        2
 70
     0
 43
0.15
 10
43.37076684647002
 20
159.9999219179
 10
37.07407256767002
 20
194.5999860763
  0
LWPOLYLINE
  5
13F
330
45
100
AcDbEntity
  8
0
  6
Continuous
 62
     7
100
AcDbPolyline
 90
        2
 70
     0
 43
0.15
 10
49.31740304636998
 20
159.9999219179
 10
50.91368621396998
 20
161.8242412805
  0
LWPOLYLINE
  5
140
330
45
100
AcDbEntity
  8
0
  6
Continuous
 62
     7
100
AcDbPolyline
 90
        2
 70
     0
 43
0.15
 10
43.98324554967002
 20
199.9066919088
 10
40.29017901227002
 20
220.199920237
  0
LWPOLYLINE
  5
141
330
45
100
AcDbEntity
  8
0
  6
Continuous
 62
     7
100
AcDbPolyline
 90
        2
 70
     0
 43
0.15
 10
50.91368621396998
 20
161.8242412805
 10
44.94898980667
 20
194.5999860763
  0
LWPOLYLINE
  5
142
330
45
100
AcDbEntity
  8
0
  6
Continuous
 62
     7
100
AcDbPolyline
 90
        2
 70
     0
 43
0.15
 10
36.21506905366999
 20
199.3201598525
 10
32.41526549867001
 20
220.199920237
  0
LWPOLYLINE
  5
143
330
45
100
AcDbEntity
  8
0
  6
Continuous
 62
     7
100
AcDbPolyline
 90
        2
 70
     0
 43
0.15
 10
-31.79288441132999
 20
199.3201598525
 10
-26.41914570522999
 20
220.199920237
  0
LWPOLYLINE
  5
144
330
45
100
AcDbEntity
  8
0
  6
Continuous
 62
     7
100
AcDbPolyline
 90
        2
 70
     0
 43
0.15
 10
46.04293247867003
 20
199.3201598525
 10
40.66919749787002
 20
220.199920237
  0
LWPOLYLINE
  5
145
330
45
100
AcDbEntity
  8
0
  6
Continuous
 62
     7
100
AcDbPolyline
 90
        2
 70
     0
 43
0.15
 10
-53.35444370102999
 20
159.9999219179
 10
-42.44824657032999
 20
194.5999860763
  0
LWPOLYLINE
  5
146
330
45
100
AcDbEntity
  8
0
  6
Continuous
 62
     7
100
AcDbPolyline
 90
        2
 70
     0
 43
0.15
 10
-54.04392042942999
 20
159.9999219179
 10
-53.81496781303
 20
159.9999219179
  0
LWPOLYLINE
  5
147
330
45
100
AcDbEntity
  8
0
  6
Continuous
 62
     7
100
AcDbPolyline
 90
        2
 70
     0
 43
0.15
 10
67.60449176837
 20
159.9999219179
 10
56.69829463767002
 20
194.5999860763
  0
LWPOLYLINE
  5
148
330
45
100
AcDbEntity
  8
0
  6
Continuous
 62
     7
100
AcDbPolyline
 90
        2
 70
     0
 43
0.15
 10
68.06501588037003
 20
159.9999219179
 10
68.29396849676999
 20
159.9999219179
  0
LWPOLYLINE
  5
149
330
45
100
AcDbEntity
  8
0
  6
Continuous
 62
     7
100
AcDbPolyline
 90
        2
 70
     0
 43
0.15
 10
-40.96041405393001
 20
199.3201598525
 10
-34.37895858472999
 20
220.199920237
  0
LWPOLYLINE
  5
14A
330
45
100
AcDbEntity
  8
0
  6
Continuous
 62
     7
100
AcDbPolyline
 90
        2
 70
     0
 43
0.15
 10
55.21046212126998
 20
199.3201598525
 10
48.62900665217001
 20
220.199920237
  0
LWPOLYLINE
  5
14B
330
45
100
AcDbEntity
  8
0
  6
Continuous
 62
     7
100
AcDbPolyline
 90
        2
 70
     0
 43
0.15
 10
-54.50444454142999
 20
159.9999219179
 10
-43.59824741073001
 20
194.5999860763
  0
LWPOLYLINE
  5
14C
330
45
100
AcDbEntity
  8
0
  6
Continuous
 62
     7
100
AcDbPolyline
 90
        2
 70
     0
 43
0.15
 10
-42.11041116902999
 20
199.3201598525
 10
-35.52895569993001
 20
220.199920237
  0
LWPOLYLINE
  5
14D
330
45
100
AcDbEntity
  8
0
  6
Continuous
 62
     7
100
AcDbPolyline
 90
        2
 70
     0
 43
0.15
 10
68.75449633406998
 20
159.9999219179
 10
57.84829547817003
 20
194.5999860763
  0
LWPOLYLINE
  5
14E
330
45
100
AcDbEntity
  8
0
  6
Continuous
 62
     7
100
AcDbPolyline
 90
        2
 70
     0
 43
0.15
 10
56.36046296167001
 20
199.3201598525
 10
49.77900376727001
 20
220.199920237
  0
LWPOLYLINE
  5
14F
330
45
100
AcDbEntity
  8
0
  6
Continuous
 62
     7
100
AcDbPolyline
 90
        2
 70
     0
 43
0.15
 10
-60.67474717093
 20
159.9999219179
 10
-48.51046362713001
 20
194.5999860763
  0
LWPOLYLINE
  5
150
330
45
100
AcDbEntity
  8
0
  6
Continuous
 62
     7
100
AcDbPolyline
 90
        2
 70
     0
 43
0.15
 10
-61.03164488262999
 20
159.9999219179
 10
-60.91312849713
 20
159.9999219179
  0
LWPOLYLINE
  5
151
330
45
100
AcDbEntity
  8
0
  6
Continuous
 62
     7
100
AcDbPolyline
 90
        2
 70
     0
 43
0.15
 10
74.92479151296999
 20
159.9999219179
 10
62.76051169446998
 20
194.5999860763
  0
LWPOLYLINE
  5
152
330
45
100
AcDbEntity
  8
0
  6
Continuous
 62
     7
100
AcDbPolyline
 90
        2
 70
     0
 43
0.15
 10
75.16318028977003
 20
159.9999219179
 10
75.28169667526998
 20
159.9999219179
  0
LWPOLYLINE
  5
153
330
45
100
AcDbEntity
  8
0
  6
Continuous
 62
     7
100
AcDbPolyline
 90
        2
 70
     0
 43
0.15
 10
-62.88753235533
 20
143.2999186217
 10
-62.52091908642998
 20
143.2999186217
  0
LWPOLYLINE
  5
154
330
45
100
AcDbEntity
  8
0
  6
Continuous
 62
     7
100
AcDbPolyline
 90
        2
 70
     0
 43
0.15
 10
76.77099323086998
 20
143.2999186217
 10
77.13759904906999
 20
143.2999186217
  0
LWPOLYLINE
  5
155
330
45
100
AcDbEntity
  8
0
  6
Continuous
 62
     7
100
AcDbPolyline
 90
        2
 70
     0
 43
0.15
 10
20.92512166307
 20
143.2999186217
 10
20.92512166307
 20
151.299919933
  0
LWPOLYLINE
  5
156
330
45
100
AcDbEntity
  8
0
  6
Continuous
 62
     7
100
AcDbPolyline
 90
        2
 70
     0
 43
0.15
 10
20.92512166307
 20
143.2999186217
 10
76.77099323086998
 20
143.2999186217
  0
LWPOLYLINE
  5
157
330
45
100
AcDbEntity
  8
0
  6
Continuous
 62
     7
100
AcDbPolyline
 90
        2
 70
     0
 43
0.15
 10
76.77099323086998
 20
151.299919933
 10
76.77099323086998
 20
143.2999186217
  0
LWPOLYLINE
  5
158
330
45
100
AcDbEntity
  8
0
  6
Continuous
 62
     7
100
AcDbPolyline
 90
        2
 70
     0
 43
0.15
 10
-62.52091908642998
 20
143.2999186217
 10
-62.52091908642998
 20
151.299919933
  0
LWPOLYLINE
  5
159
330
45
100
AcDbEntity
  8
0
  6
Continuous
 62
     7
100
AcDbPolyline
 90
        2
 70
     0
 43
0.15
 10
-62.52091908642998
 20
143.2999186217
 10
-6.67495811173001
 20
143.2999186217
  0
LWPOLYLINE
  5
15A
330
45
100
AcDbEntity
  8
0
  6
Continuous
 62
     7
100
AcDbPolyline
 90
        2
 70
     0
 43
0.15
 10
-6.67495811173001
 20
151.299919933
 10
-6.67495811173001
 20
143.2999186217
  0
LWPOLYLINE
  5
15B
330
45
100
AcDbEntity
  8
0
  6
Continuous
 62
     7
100
AcDbPolyline
 90
        2
 70
     0
 43
0.15
 10
-46.85099953603
 20
199.3201598525
 10
-39.51033735463
 20
220.199920237
  0
LWPOLYLINE
  5
15C
330
45
100
AcDbEntity
  8
0
  6
Continuous
 62
     7
100
AcDbPolyline
 90
        2
 70
     0
 43
0.15
 10
61.10104760336998
 20
199.3201598525
 10
53.76038914727002
 20
220.199920237
  0
LWPOLYLINE
  5
15D
330
45
100
AcDbEntity
  8
0
  6
Continuous
 62
     7
100
AcDbPolyline
 90
        2
 70
     0
 43
0.15
 10
75.52007800146998
 20
159.9999219179
 10
63.35579445767002
 20
194.5999860763
  0
LWPOLYLINE
  5
15E
330
45
100
AcDbEntity
  8
0
  6
Continuous
 62
     7
100
AcDbPolyline
 90
        2
 70
     0
 43
0.15
 10
83.14310228636998
 20
143.2999186217
 10
81.02502143197
 20
143.2999186217
  0
LWPOLYLINE
  5
15F
330
45
100
AcDbEntity
  8
0
  6
Continuous
 62
     7
100
AcDbPolyline
 90
        2
 70
     0
 43
0.15
 10
83.14310228636998
 20
143.2999186217
 10
83.14310228636998
 20
159.9999219179
  0
LWPOLYLINE
  5
160
330
45
100
AcDbEntity
  8
0
  6
Continuous
 62
     7
100
AcDbPolyline
 90
        2
 70
     0
 43
0.15
 10
61.69633036667
 20
199.3201598525
 10
54.35567191056998
 20
220.199920237
  0
LWPOLYLINE
  5
161
330
45
100
AcDbEntity
  8
0
  6
Continuous
 62
     7
100
AcDbPolyline
 90
        2
 70
     0
 43
0.15
 10
-61.27002620882999
 20
159.9999219179
 10
-49.10574639032998
 20
194.5999860763
  0
LWPOLYLINE
  5
162
330
45
100
AcDbEntity
  8
0
  6
Continuous
 62
     7
100
AcDbPolyline
 90
        2
 70
     0
 43
0.15
 10
-47.44628229923001
 20
199.3201598525
 10
-40.10562384312999
 20
220.199920237
  0
LWPOLYLINE
  5
163
330
45
100
AcDbEntity
  8
0
  6
Continuous
 62
     7
100
AcDbPolyline
 90
        2
 70
     0
 43
0.15
 10
-68.89305794433
 20
143.2999186217
 10
-68.89305794433
 20
159.9999219179
  0
LWPOLYLINE
  5
164
330
45
100
AcDbEntity
  8
0
  6
Continuous
 62
     7
100
AcDbPolyline
 90
        2
 70
     0
 43
0.15
 10
-66.77497708983
 20
143.2999186217
 10
-68.89305794433
 20
143.2999186217
  0
LWPOLYLINE
  5
165
330
45
100
AcDbEntity
  8
0
  6
Continuous
 62
     7
100
AcDbPolyline
 90
        2
 70
     0
 43
0.15
 10
-43.53891471213001
 20
159.9999219179
 10
-34.63404038733
 20
194.5999860763
  0
LWPOLYLINE
  5
166
330
45
100
AcDbEntity
  8
0
  6
Continuous
 62
     7
100
AcDbPolyline
 90
        2
 70
     0
 43
0.15
 10
-33.41923067163
 20
199.3201598525
 10
-28.04549196553001
 20
220.199920237
  0
LWPOLYLINE
  5
167
330
45
100
AcDbEntity
  8
0
  6
Continuous
 62
     7
100
AcDbPolyline
 90
        2
 70
     0
 43
0.15
 10
-51.94872403333
 20
159.9999219179
 10
-53.06906411243
 20
160.9052941203
  0
LWPOLYLINE
  5
168
330
45
100
AcDbEntity
  8
0
  6
Continuous
 62
     7
100
AcDbPolyline
 90
        2
 70
     0
 43
0.15
 10
57.78896277957
 20
159.9999219179
 10
48.88408845476999
 20
194.5999860763
  0
LWPOLYLINE
  5
169
330
45
100
AcDbEntity
  8
0
  6
Continuous
 62
     7
100
AcDbPolyline
 90
        2
 70
     0
 43
0.15
 10
66.19877210067
 20
159.9999219179
 10
67.31911217977
 20
160.9052941203
  0
LWPOLYLINE
  5
16A
330
45
100
AcDbEntity
  8
0
  6
Continuous
 62
     7
100
AcDbPolyline
 90
        2
 70
     0
 43
0.15
 10
47.66927873896998
 20
199.3201598525
 10
42.29554003287001
 20
220.199920237
  0
LWPOLYLINE
  5
16B
330
45
100
AcDbEntity
  8
0
  6
Continuous
 62
     7
100
AcDbPolyline
 90
        2
 70
     0
 43
0.15
 10
30.23119671456999
 20
235.0999191403001
 10
30.62248630637001
 20
235.0999191403001
  0
LWPOLYLINE
  5
16C
330
45
100
AcDbEntity
  8
0
  6
Continuous
 62
     7
100
AcDbPolyline
 90
        2
 70
     0
 43
0.15
 10
28.83994607437001
 20
235.0999191403001
 10
29.23123566616999
 20
235.0999191403001
  0
LWPOLYLINE
  5
16D
330
45
100
AcDbEntity
  8
0
  6
Continuous
 62
     7
100
AcDbPolyline
 90
        2
 70
     0
 43
0.15
 10
20.20053593627
 20
235.0999191403001
 10
19.75334277556999
 20
235.0999191403001
  0
LWPOLYLINE
  5
16E
330
45
100
AcDbEntity
  8
0
  6
Continuous
 62
     7
100
AcDbPolyline
 90
        2
 70
     0
 43
0.15
 10
30.62248630637001
 20
235.0999191403001
 10
30.70943830716999
 20
235.0999191403001
  0
LWPOLYLINE
  5
16F
330
45
100
AcDbEntity
  8
0
  6
Continuous
 62
     7
100
AcDbPolyline
 90
        2
 70
     0
 43
0.15
 10
30.62248630637001
 20
235.0999191403001
 10
30.62248630637001
 20
234.9999323487
  0
LWPOLYLINE
  5
170
330
45
100
AcDbEntity
  8
0
  6
Continuous
 62
     7
100
AcDbPolyline
 90
        2
 70
     0
 43
0.15
 10
28.75299221086999
 20
235.0999191403001
 10
28.83994607437001
 20
235.0999191403001
  0
LWPOLYLINE
  5
171
330
45
100
AcDbEntity
  8
0
  6
Continuous
 62
     7
100
AcDbPolyline
 90
        2
 70
     0
 43
0.15
 10
28.83994607437001
 20
235.0999191403001
 10
28.83994607437001
 20
234.9999323487
  0
LWPOLYLINE
  5
172
330
45
100
AcDbEntity
  8
0
  6
Continuous
 62
     7
100
AcDbPolyline
 90
        2
 70
     0
 43
0.15
 10
29.23123566616999
 20
235.0999191403001
 10
29.31818766706999
 20
235.0999191403001
  0
LWPOLYLINE
  5
173
330
45
100
AcDbEntity
  8
0
  6
Continuous
 62
     7
100
AcDbPolyline
 90
        2
 70
     0
 43
0.15
 10
29.23123566616999
 20
235.0999191403001
 10
29.23123566616999
 20
234.9999323487
  0
LWPOLYLINE
  5
174
330
45
100
AcDbEntity
  8
0
  6
Continuous
 62
     7
100
AcDbPolyline
 90
        2
 70
     0
 43
0.15
 10
30.14424285107
 20
235.0999191403001
 10
30.23119671456999
 20
235.0999191403001
  0
LWPOLYLINE
  5
175
330
45
100
AcDbEntity
  8
0
  6
Continuous
 62
     7
100
AcDbPolyline
 90
        2
 70
     0
 43
0.15
 10
30.23119671456999
 20
235.0999191403001
 10
30.23119671456999
 20
234.9999323487
  0
LWPOLYLINE
  5
176
330
45
100
AcDbEntity
  8
0
  6
Continuous
 62
     7
100
AcDbPolyline
 90
        2
 70
     0
 43
0.15
 10
20.33096580016999
 20
235.0999191403001
 10
20.20053593627
 20
235.0999191403001
  0
LWPOLYLINE
  5
177
330
45
100
AcDbEntity
  8
0
  6
Continuous
 62
     7
100
AcDbPolyline
 90
        2
 70
     0
 43
0.15
 10
20.20053593627
 20
235.0999191403001
 10
20.20053593627
 20
234.9999323487
  0
LWPOLYLINE
  5
178
330
45
100
AcDbEntity
  8
0
  6
Continuous
 62
     7
100
AcDbPolyline
 90
        2
 70
     0
 43
0.15
 10
36.55410586107001
 20
235.0999191403001
 10
36.57877659607001
 20
235.0999191403001
  0
LWPOLYLINE
  5
179
330
45
100
AcDbEntity
  8
0
  6
Continuous
 62
     7
100
AcDbPolyline
 90
        2
 70
     0
 43
0.15
 10
36.57877659607001
 20
235.0999191403001
 10
36.57877659607001
 20
234.9999323487
  0
LWPOLYLINE
  5
17A
330
45
100
AcDbEntity
  8
0
  6
Continuous
 62
     7
100
AcDbPolyline
 90
        2
 70
     0
 43
0.15
 10
-63.37497914023001
 20
152.2999182343
 10
77.62502348237001
 20
152.2999182343
  0
LWPOLYLINE
  5
17B
330
45
100
AcDbEntity
  8
0
  6
Continuous
 62
     7
100
AcDbPolyline
 90
        2
 70
     0
 43
0.15
 10
75.28169667526998
 20
159.9999219179
 10
77.62465095327002
 20
159.9999219179
  0
LWPOLYLINE
  5
17C
330
45
100
AcDbEntity
  8
0
  6
Continuous
 62
     7
100
AcDbPolyline
 90
        2
 70
     0
 43
0.15
 10
68.29396849676999
 20
159.9999219179
 10
75.16318028977003
 20
159.9999219179
  0
LWPOLYLINE
  5
17D
330
45
100
AcDbEntity
  8
0
  6
Continuous
 62
     7
100
AcDbPolyline
 90
        2
 70
     0
 43
0.15
 10
57.13768517776998
 20
159.9999219179
 10
68.06501588037003
 20
159.9999219179
  0
LWPOLYLINE
  5
17E
330
45
100
AcDbEntity
  8
0
  6
Continuous
 62
     7
100
AcDbPolyline
 90
        2
 70
     0
 43
0.15
 10
42.57311886357002
 20
159.9999219179
 10
56.81389412097002
 20
159.9999219179
  0
LWPOLYLINE
  5
17F
330
45
100
AcDbEntity
  8
0
  6
Continuous
 62
     7
100
AcDbPolyline
 90
        2
 70
     0
 43
0.15
 10
25.59282286276999
 20
159.9999219179
 10
42.17655798607001
 20
159.9999219179
  0
LWPOLYLINE
  5
180
330
45
100
AcDbEntity
  8
0
  6
Continuous
 62
     7
100
AcDbPolyline
 90
        2
 70
     0
 43
0.15
 10
7.35397781427
 20
159.9999219179
 10
25.15051914566999
 20
159.9999219179
  0
LWPOLYLINE
  5
181
330
45
100
AcDbEntity
  8
0
  6
Continuous
 62
     7
100
AcDbPolyline
 90
        2
 70
     0
 43
0.15
 10
-10.90046921563001
 20
159.9999219179
 10
6.89607095157001
 20
159.9999219179
  0
LWPOLYLINE
  5
182
330
45
100
AcDbEntity
  8
0
  6
Continuous
 62
     7
100
AcDbPolyline
 90
        2
 70
     0
 43
0.15
 10
-27.92650991862999
 20
159.9999219179
 10
-11.34277479542999
 20
159.9999219179
  0
LWPOLYLINE
  5
183
330
45
100
AcDbEntity
  8
0
  6
Continuous
 62
     7
100
AcDbPolyline
 90
        2
 70
     0
 43
0.15
 10
-42.56384605362999
 20
159.9999219179
 10
-28.32307079622999
 20
159.9999219179
  0
LWPOLYLINE
  5
184
330
45
100
AcDbEntity
  8
0
  6
Continuous
 62
     7
100
AcDbPolyline
 90
        2
 70
     0
 43
0.15
 10
-53.81496781303
 20
159.9999219179
 10
-42.88763711043001
 20
159.9999219179
  0
LWPOLYLINE
  5
185
330
45
100
AcDbEntity
  8
0
  6
Continuous
 62
     7
100
AcDbPolyline
 90
        2
 70
     0
 43
0.15
 10
-60.91312849713
 20
159.9999219179
 10
-54.04392042942999
 20
159.9999219179
  0
LWPOLYLINE
  5
186
330
45
100
AcDbEntity
  8
0
  6
Continuous
 62
     7
100
AcDbPolyline
 90
        2
 70
     0
 43
0.15
 10
-63.37460661123001
 20
159.9999219179
 10
-61.03164488262999
 20
159.9999219179
  0
LWPOLYLINE
  5
187
330
45
100
AcDbEntity
  8
0
  6
Continuous
 62
     7
100
AcDbPolyline
 90
        2
 70
     0
 43
0.15
 10
29.31818766706999
 20
235.0999191403001
 10
29.31818766706999
 20
234.9999323487
  0
LWPOLYLINE
  5
188
330
45
100
AcDbEntity
  8
0
  6
Continuous
 62
     7
100
AcDbPolyline
 90
        2
 70
     0
 43
0.15
 10
77.13759904906999
 20
130.9999190271
 10
77.13759904906999
 20
151.299919933
  0
LWPOLYLINE
  5
189
330
45
100
AcDbEntity
  8
0
  6
Continuous
 62
     7
100
AcDbPolyline
 90
        2
 70
     0
 43
0.15
 10
77.13759904906999
 20
130.9999190271
 10
78.12502449557002
 20
130.9999190271
  0
LWPOLYLINE
  5
18A
330
45
100
AcDbEntity
  8
0
  6
Continuous
 62
     7
100
AcDbPolyline
 90
        2
 70
     0
 43
0.15
 10
-63.87497270293
 20
130.9999190271
 10
-62.88753235533
 20
130.9999190271
  0
LWPOLYLINE
  5
18B
330
45
100
AcDbEntity
  8
0
  6
Continuous
 62
     7
100
AcDbPolyline
 90
        2
 70
     0
 43
0.15
 10
-62.88753235533
 20
151.299919933
 10
-62.88753235533
 20
130.9999190271
  0
LWPOLYLINE
  5
18C
330
45
100
AcDbEntity
  8
0
  6
Continuous
 62
     7
100
AcDbPolyline
 90
        2
 70
     0
 43
0.15
 10
63.32502355986998
 20
194.5999860763
 10
-49.07497549242999
 20
194.5999860763
  0
LWPOLYLINE
  5
18D
330
45
100
AcDbEntity
  8
0
  6
Continuous
 62
     7
100
AcDbPolyline
 90
        2
 70
     0
 43
0.15
 10
63.09977760716998
 20
199.9066919088
 10
61.69633036667
 20
199.9066919088
  0
LWPOLYLINE
  5
18E
330
45
100
AcDbEntity
  8
0
  6
Continuous
 62
     7
100
AcDbPolyline
 90
        2
 70
     0
 43
0.15
 10
61.69633036667
 20
199.9066919088
 10
61.69633036667
 20
199.3201598525
  0
LWPOLYLINE
  5
18F
330
45
100
AcDbEntity
  8
0
  6
Continuous
 62
     7
100
AcDbPolyline
 90
        2
 70
     0
 43
0.15
 10
60.89484160947001
 20
199.9066919088
 10
56.36046296167001
 20
199.9066919088
  0
LWPOLYLINE
  5
190
330
45
100
AcDbEntity
  8
0
  6
Continuous
 62
     7
100
AcDbPolyline
 90
        2
 70
     0
 43
0.15
 10
56.36046296167001
 20
199.9066919088
 10
56.36046296167001
 20
199.3201598525
  0
LWPOLYLINE
  5
191
330
45
100
AcDbEntity
  8
0
  6
Continuous
 62
     7
100
AcDbPolyline
 90
        2
 70
     0
 43
0.15
 10
55.02558341436998
 20
199.9066919088
 10
47.66927873896998
 20
199.9066919088
  0
LWPOLYLINE
  5
192
330
45
100
AcDbEntity
  8
0
  6
Continuous
 62
     7
100
AcDbPolyline
 90
        2
 70
     0
 43
0.15
 10
47.66927873896998
 20
199.9066919088
 10
47.66927873896998
 20
199.3201598525
  0
LWPOLYLINE
  5
193
330
45
100
AcDbEntity
  8
0
  6
Continuous
 62
     7
100
AcDbPolyline
 90
        2
 70
     0
 43
0.15
 10
45.89197999047002
 20
199.9066919088
 10
36.21506905366999
 20
199.9066919088
  0
LWPOLYLINE
  5
194
330
45
100
AcDbEntity
  8
0
  6
Continuous
 62
     7
100
AcDbPolyline
 90
        2
 70
     0
 43
0.15
 10
36.21506905366999
 20
199.9066919088
 10
36.21506905366999
 20
199.3201598525
  0
LWPOLYLINE
  5
195
330
45
100
AcDbEntity
  8
0
  6
Continuous
 62
     7
100
AcDbPolyline
 90
        2
 70
     0
 43
0.15
 10
34.22321221047
 20
199.9066919088
 10
22.77842378426999
 20
199.9066919088
  0
LWPOLYLINE
  5
196
330
45
100
AcDbEntity
  8
0
  6
Continuous
 62
     7
100
AcDbPolyline
 90
        2
 70
     0
 43
0.15
 10
22.77842378426999
 20
199.9066919088
 10
22.77842378426999
 20
199.3201598525
  0
LWPOLYLINE
  5
197
330
45
100
AcDbEntity
  8
0
  6
Continuous
 62
     7
100
AcDbPolyline
 90
        2
 70
     0
 43
0.15
 10
20.55679476067002
 20
199.9066919088
 10
8.27502440846999
 20
199.9066919088
  0
LWPOLYLINE
  5
198
330
45
100
AcDbEntity
  8
0
  6
Continuous
 62
     7
100
AcDbPolyline
 90
        2
 70
     0
 43
0.15
 10
5.97502438647001
 20
199.9066919088
 10
-6.30674576203
 20
199.9066919088
  0
LWPOLYLINE
  5
199
330
45
100
AcDbEntity
  8
0
  6
Continuous
 62
     7
100
AcDbPolyline
 90
        2
 70
     0
 43
0.15
 10
-8.52837478563001
 20
199.9066919088
 10
-8.52837478563001
 20
199.3201598525
  0
LWPOLYLINE
  5
19A
330
45
100
AcDbEntity
  8
0
  6
Continuous
 62
     7
100
AcDbPolyline
 90
        2
 70
     0
 43
0.15
 10
-8.52837478563001
 20
199.9066919088
 10
-19.97316228042999
 20
199.9066919088
  0
LWPOLYLINE
  5
19B
330
45
100
AcDbEntity
  8
0
  6
Continuous
 62
     7
100
AcDbPolyline
 90
        2
 70
     0
 43
0.15
 10
-21.96502098632999
 20
199.9066919088
 10
-21.96502098632999
 20
199.3201598525
  0
LWPOLYLINE
  5
19C
330
45
100
AcDbEntity
  8
0
  6
Continuous
 62
     7
100
AcDbPolyline
 90
        2
 70
     0
 43
0.15
 10
-21.96502098632999
 20
199.9066919088
 10
-31.64193192312999
 20
199.9066919088
  0
LWPOLYLINE
  5
19D
330
45
100
AcDbEntity
  8
0
  6
Continuous
 62
     7
100
AcDbPolyline
 90
        2
 70
     0
 43
0.15
 10
-33.41923067163
 20
199.9066919088
 10
-33.41923067163
 20
199.3201598525
  0
LWPOLYLINE
  5
19E
330
45
100
AcDbEntity
  8
0
  6
Continuous
 62
     7
100
AcDbPolyline
 90
        2
 70
     0
 43
0.15
 10
-33.41923067163
 20
199.9066919088
 10
-40.77553534692999
 20
199.9066919088
  0
LWPOLYLINE
  5
19F
330
45
100
AcDbEntity
  8
0
  6
Continuous
 62
     7
100
AcDbPolyline
 90
        2
 70
     0
 43
0.15
 10
-42.11041116902999
 20
199.9066919088
 10
-42.11041116902999
 20
199.3201598525
  0
LWPOLYLINE
  5
1A0
330
45
100
AcDbEntity
  8
0
  6
Continuous
 62
     7
100
AcDbPolyline
 90
        2
 70
     0
 43
0.15
 10
-42.11041116902999
 20
199.9066919088
 10
-46.64479354213
 20
199.9066919088
  0
LWPOLYLINE
  5
1A1
330
45
100
AcDbEntity
  8
0
  6
Continuous
 62
     7
100
AcDbPolyline
 90
        2
 70
     0
 43
0.15
 10
-47.44628229923001
 20
199.9066919088
 10
-47.44628229923001
 20
199.3201598525
  0
LWPOLYLINE
  5
1A2
330
45
100
AcDbEntity
  8
0
  6
Continuous
 62
     7
100
AcDbPolyline
 90
        2
 70
     0
 43
0.15
 10
-47.44628229923001
 20
199.9066919088
 10
-48.84972953983001
 20
199.9066919088
  0
LWPOLYLINE
  5
1A3
330
45
100
AcDbEntity
  8
0
  6
Continuous
 62
     7
100
AcDbPolyline
 90
        2
 70
     0
 43
0.15
 10
-41.32355907753001
 20
234.9999323487
 10
18.92728852287002
 20
234.9999323487
  0
LWPOLYLINE
  5
1A4
330
45
100
AcDbEntity
  8
0
  6
Continuous
 62
     7
100
AcDbPolyline
 90
        2
 70
     0
 43
0.15
 10
21.07006712066999
 20
234.9999323487
 10
21.44892914407001
 20
234.9999323487
  0
LWPOLYLINE
  5
1A5
330
45
100
AcDbEntity
  8
0
  6
Continuous
 62
     7
100
AcDbPolyline
 90
        2
 70
     0
 43
0.15
 10
23.79666296946999
 20
234.9999323487
 10
24.23143042436999
 20
234.9999323487
  0
LWPOLYLINE
  5
1A6
330
45
100
AcDbEntity
  8
0
  6
Continuous
 62
     7
100
AcDbPolyline
 90
        2
 70
     0
 43
0.15
 10
25.01400774526999
 20
234.9999323487
 10
26.10092265717
 20
234.9999323487
  0
LWPOLYLINE
  5
1A7
330
45
100
AcDbEntity
  8
0
  6
Continuous
 62
     7
100
AcDbPolyline
 90
        2
 70
     0
 43
0.15
 10
26.88350184077001
 20
234.9999323487
 10
27.97041488997002
 20
234.9999323487
  0
LWPOLYLINE
  5
1A8
330
45
100
AcDbEntity
  8
0
  6
Continuous
 62
     7
100
AcDbPolyline
 90
        2
 70
     0
 43
0.15
 10
31.49201562806999
 20
234.9999323487
 10
31.83982921947001
 20
234.9999323487
  0
LWPOLYLINE
  5
1A9
330
45
100
AcDbEntity
  8
0
  6
Continuous
 62
     7
100
AcDbPolyline
 90
        2
 70
     0
 43
0.15
 10
33.75279931537
 20
234.9999323487
 10
34.23103904537001
 20
234.9999323487
  0
LWPOLYLINE
  5
1AA
330
45
100
AcDbEntity
  8
0
  6
Continuous
 62
     7
100
AcDbPolyline
 90
        2
 70
     0
 43
0.15
 10
36.55410586107001
 20
234.9999323487
 10
55.57360714486998
 20
234.9999323487
  0
LWPOLYLINE
  5
1AB
330
45
100
AcDbEntity
  8
0
  6
Continuous
 62
     7
100
AcDbPolyline
 90
        2
 70
     0
 43
0.15
 10
30.14424285107
 20
234.9999323487
 10
30.70943830716999
 20
234.9999323487
  0
LWPOLYLINE
  5
1AC
330
45
100
AcDbEntity
  8
0
  6
Continuous
 62
     7
100
AcDbPolyline
 90
        2
 70
     0
 43
0.15
 10
28.75299221086999
 20
234.9999323487
 10
29.31818766706999
 20
234.9999323487
  0
LWPOLYLINE
  5
1AD
330
45
100
AcDbEntity
  8
0
  6
Continuous
 62
     7
100
AcDbPolyline
 90
        2
 70
     0
 43
0.15
 10
20.33096580016999
 20
235.0999191403001
 10
20.33096580016999
 20
234.9999323487
  0
LWPOLYLINE
  5
1AE
330
45
100
AcDbEntity
  8
0
  6
Continuous
 62
     7
100
AcDbPolyline
 90
        2
 70
     0
 43
0.15
 10
31.83982921947001
 20
234.9999323487
 10
31.83982921947001
 20
235.0999191403001
  0
LWPOLYLINE
  5
1AF
330
45
100
AcDbEntity
  8
0
  6
Continuous
 62
     7
100
AcDbPolyline
 90
        2
 70
     0
 43
0.15
 10
25.01400774526999
 20
235.0999191403001
 10
25.01400774526999
 20
234.9999323487
  0
LWPOLYLINE
  5
1B0
330
45
100
AcDbEntity
  8
0
  6
Continuous
 62
     7
100
AcDbPolyline
 90
        2
 70
     0
 43
0.15
 10
24.23143042436999
 20
235.0999191403001
 10
25.01400774526999
 20
235.0999191403001
  0
LWPOLYLINE
  5
1B1
330
45
100
AcDbEntity
  8
0
  6
Continuous
 62
     7
100
AcDbPolyline
 90
        2
 70
     0
 43
0.15
 10
-63.87497270293
 20
152.2999182343
 10
-63.37497914023001
 20
152.2999182343
  0
LWPOLYLINE
  5
1B2
330
45
100
AcDbEntity
  8
0
  6
Continuous
 62
     7
100
AcDbPolyline
 90
        2
 70
     0
 43
0.15
 10
77.62502348237001
 20
152.2999182343
 10
78.12502449557002
 20
152.2999182343
  0
LWPOLYLINE
  5
1B3
330
45
100
AcDbEntity
  8
0
  6
Continuous
 62
     7
100
AcDbPolyline
 90
        2
 70
     0
 43
0.15
 10
26.10092265717
 20
234.9999323487
 10
26.10092265717
 20
235.0999191403001
  0
LWPOLYLINE
  5
1B4
330
45
100
AcDbEntity
  8
0
  6
Continuous
 62
     7
100
AcDbPolyline
 90
        2
 70
     0
 43
0.15
 10
26.88350184077001
 20
235.0999191403001
 10
26.88350184077001
 20
234.9999323487
  0
LWPOLYLINE
  5
1B5
330
45
100
AcDbEntity
  8
0
  6
Continuous
 62
     7
100
AcDbPolyline
 90
        2
 70
     0
 43
0.15
 10
26.10092265717
 20
235.0999191403001
 10
26.88350184077001
 20
235.0999191403001
  0
LWPOLYLINE
  5
1B6
330
45
100
AcDbEntity
  8
0
  6
Continuous
 62
     7
100
AcDbPolyline
 90
        2
 70
     0
 43
0.15
 10
63.32502355986998
 20
194.5999860763
 10
63.32502355986998
 20
199.2878317833001
  0
LWPOLYLINE
  5
1B7
330
45
100
AcDbEntity
  8
0
  6
Continuous
 62
     7
100
AcDbPolyline
 90
        2
 70
     0
 43
0.15
 10
65.03126239586999
 20
194.5999860763
 10
63.32502355986998
 20
194.5999860763
  0
LWPOLYLINE
  5
1B8
330
45
100
AcDbEntity
  8
0
  6
Continuous
 62
     7
100
AcDbPolyline
 90
        2
 70
     0
 43
0.15
 10
77.62465095327002
 20
159.9999219179
 10
65.03126239586999
 20
194.5999860763
  0
LWPOLYLINE
  5
1B9
330
45
100
AcDbEntity
  8
0
  6
Continuous
 62
     7
100
AcDbPolyline
 90
        2
 70
     0
 43
0.15
 10
77.62502348237001
 20
159.9999219179
 10
77.62465095327002
 20
159.9999219179
  0
LWPOLYLINE
  5
1BA
330
45
100
AcDbEntity
  8
0
  6
Continuous
 62
     7
100
AcDbPolyline
 90
        2
 70
     0
 43
0.15
 10
77.62502348237001
 20
159.9999219179
 10
77.62502348237001
 20
152.2999182343
  0
LWPOLYLINE
  5
1BB
330
45
100
AcDbEntity
  8
0
  6
Continuous
 62
     7
100
AcDbPolyline
 90
        2
 70
     0
 43
0.15
 10
78.12502449557002
 20
152.2999182343
 10
78.12502449557002
 20
130.9999190271
  0
LWPOLYLINE
  5
1BC
330
45
100
AcDbEntity
  8
0
  6
Continuous
 62
     7
100
AcDbPolyline
 90
        2
 70
     0
 43
0.15
 10
78.12502449557002
 20
130.9999190271
 10
81.52502244517001
 20
130.9999190271
  0
LWPOLYLINE
  5
1BD
330
45
100
AcDbEntity
  8
0
  6
Continuous
 62
     7
100
AcDbPolyline
 90
        2
 70
     0
 43
0.15
 10
81.02502143197
 20
132.9999193549
 10
81.52502244517001
 20
132.9999193549
  0
LWPOLYLINE
  5
1BE
330
45
100
AcDbEntity
  8
0
  6
Continuous
 62
     7
100
AcDbPolyline
 90
        2
 70
     0
 43
0.15
 10
81.02502143197
 20
159.9999219179
 10
81.02502143197
 20
132.9999193549
  0
LWPOLYLINE
  5
1BF
330
45
100
AcDbEntity
  8
0
  6
Continuous
 62
     7
100
AcDbPolyline
 90
        2
 70
     0
 43
0.15
 10
89.51792335316998
 20
159.9999219179
 10
81.02502143197
 20
159.9999219179
  0
LWPOLYLINE
  5
1C0
330
45
100
AcDbEntity
  8
0
  6
Continuous
 62
     7
100
AcDbPolyline
 90
        2
 70
     0
 43
0.15
 10
89.51792335316998
 20
159.9999219179
 10
92.71048968836999
 20
161.8242412805
  0
LWPOLYLINE
  5
1C1
330
45
100
AcDbEntity
  8
0
  6
Continuous
 62
     7
100
AcDbPolyline
 90
        2
 70
     0
 43
0.15
 10
92.71048968836999
 20
161.8242412805
 10
69.66899549766998
 20
225.1302227378
  0
LWPOLYLINE
  5
1C2
330
45
100
AcDbEntity
  8
0
  6
Continuous
 62
     7
100
AcDbPolyline
 90
        2
 70
     0
 43
0.15
 10
36.55410586107001
 20
235.0999191403001
 10
36.55410586107001
 20
234.9999323487
  0
LWPOLYLINE
  5
1C3
330
45
100
AcDbEntity
  8
0
  6
Continuous
 62
     7
100
AcDbPolyline
 90
        2
 70
     0
 43
0.15
 10
36.55410586107001
 20
235.0999191403001
 10
34.23103904537001
 20
235.0999191403001
  0
LWPOLYLINE
  5
1C4
330
45
100
AcDbEntity
  8
0
  6
Continuous
 62
     7
100
AcDbPolyline
 90
        2
 70
     0
 43
0.15
 10
34.23103904537001
 20
234.9999323487
 10
34.23103904537001
 20
235.0999191403001
  0
LWPOLYLINE
  5
1C5
330
45
100
AcDbEntity
  8
0
  6
Continuous
 62
     7
100
AcDbPolyline
 90
        2
 70
     0
 43
0.15
 10
33.75279931537
 20
235.0999191403001
 10
33.75279931537
 20
234.9999323487
  0
LWPOLYLINE
  5
1C6
330
45
100
AcDbEntity
  8
0
  6
Continuous
 62
     7
100
AcDbPolyline
 90
        2
 70
     0
 43
0.15
 10
31.83982921947001
 20
235.0999191403001
 10
33.75279931537
 20
235.0999191403001
  0
LWPOLYLINE
  5
1C7
330
45
100
AcDbEntity
  8
0
  6
Continuous
 62
     7
100
AcDbPolyline
 90
        2
 70
     0
 43
0.15
 10
31.49201562806999
 20
235.0999191403001
 10
31.49201562806999
 20
234.9999323487
  0
LWPOLYLINE
  5
1C8
330
45
100
AcDbEntity
  8
0
  6
Continuous
 62
     7
100
AcDbPolyline
 90
        2
 70
     0
 43
0.15
 10
31.49201562806999
 20
235.0999191403001
 10
30.70943830716999
 20
235.0999191403001
  0
LWPOLYLINE
  5
1C9
330
45
100
AcDbEntity
  8
0
  6
Continuous
 62
     7
100
AcDbPolyline
 90
        2
 70
     0
 43
0.15
 10
30.70943830716999
 20
234.9999323487
 10
30.70943830716999
 20
235.0999191403001
  0
LWPOLYLINE
  5
1CA
330
45
100
AcDbEntity
  8
0
  6
Continuous
 62
     7
100
AcDbPolyline
 90
        2
 70
     0
 43
0.15
 10
30.14424285107
 20
235.0999191403001
 10
30.14424285107
 20
234.9999323487
  0
LWPOLYLINE
  5
1CB
330
45
100
AcDbEntity
  8
0
  6
Continuous
 62
     7
100
AcDbPolyline
 90
        2
 70
     0
 43
0.15
 10
30.14424285107
 20
235.0999191403001
 10
29.31818766706999
 20
235.0999191403001
  0
LWPOLYLINE
  5
1CC
330
45
100
AcDbEntity
  8
0
  6
Continuous
 62
     7
100
AcDbPolyline
 90
        2
 70
     0
 43
0.15
 10
29.31818766706999
 20
234.9999323487
 10
29.31818766706999
 20
235.0999191403001
  0
LWPOLYLINE
  5
1CD
330
45
100
AcDbEntity
  8
0
  6
Continuous
 62
     7
100
AcDbPolyline
 90
        2
 70
     0
 43
0.15
 10
28.75299221086999
 20
235.0999191403001
 10
28.75299221086999
 20
234.9999323487
  0
LWPOLYLINE
  5
1CE
330
45
100
AcDbEntity
  8
0
  6
Continuous
 62
     7
100
AcDbPolyline
 90
        2
 70
     0
 43
0.15
 10
28.75299221086999
 20
235.0999191403001
 10
27.97041488997002
 20
235.0999191403001
  0
LWPOLYLINE
  5
1CF
330
45
100
AcDbEntity
  8
0
  6
Continuous
 62
     7
100
AcDbPolyline
 90
        2
 70
     0
 43
0.15
 10
27.97041488997002
 20
234.9999323487
 10
27.97041488997002
 20
235.0999191403001
  0
LWPOLYLINE
  5
1D0
330
45
100
AcDbEntity
  8
0
  6
Continuous
 62
     7
100
AcDbPolyline
 90
        2
 70
     0
 43
0.15
 10
24.23143042436999
 20
234.9999323487
 10
24.23143042436999
 20
235.0999191403001
  0
LWPOLYLINE
  5
1D1
330
45
100
AcDbEntity
  8
0
  6
Continuous
 62
     7
100
AcDbPolyline
 90
        2
 70
     0
 43
0.15
 10
23.79666296946999
 20
235.0999191403001
 10
23.79666296946999
 20
234.9999323487
  0
LWPOLYLINE
  5
1D2
330
45
100
AcDbEntity
  8
0
  6
Continuous
 62
     7
100
AcDbPolyline
 90
        2
 70
     0
 43
0.15
 10
23.79666296946999
 20
235.0999191403001
 10
21.44892914407001
 20
235.0999191403001
  0
LWPOLYLINE
  5
1D3
330
45
100
AcDbEntity
  8
0
  6
Continuous
 62
     7
100
AcDbPolyline
 90
        2
 70
     0
 43
0.15
 10
21.44892914407001
 20
234.9999323487
 10
21.44892914407001
 20
235.0999191403001
  0
LWPOLYLINE
  5
1D4
330
45
100
AcDbEntity
  8
0
  6
Continuous
 62
     7
100
AcDbPolyline
 90
        2
 70
     0
 43
0.15
 10
21.07006712066999
 20
235.0999191403001
 10
21.07006712066999
 20
234.9999323487
  0
LWPOLYLINE
  5
1D5
330
45
100
AcDbEntity
  8
0
  6
Continuous
 62
     7
100
AcDbPolyline
 90
        2
 70
     0
 43
0.15
 10
21.07006712066999
 20
235.0999191403001
 10
20.33096580016999
 20
235.0999191403001
  0
LWPOLYLINE
  5
1D6
330
45
100
AcDbEntity
  8
0
  6
Continuous
 62
     7
100
AcDbPolyline
 90
        2
 70
     0
 43
0.15
 10
19.75334277556999
 20
234.9999323487
 10
20.33096580016999
 20
234.9999323487
  0
LWPOLYLINE
  5
1D7
330
45
100
AcDbEntity
  8
0
  6
Continuous
 62
     7
100
AcDbPolyline
 90
        2
 70
     0
 43
0.15
 10
19.75334277556999
 20
234.9999323487
 10
19.75334277556999
 20
235.0999191403001
  0
LWPOLYLINE
  5
1D8
330
45
100
AcDbEntity
  8
0
  6
Continuous
 62
     7
100
AcDbPolyline
 90
        2
 70
     0
 43
0.15
 10
19.75334277556999
 20
235.0999191403001
 10
18.92728852287002
 20
235.0999191403001
  0
LWPOLYLINE
  5
1D9
330
45
100
AcDbEntity
  8
0
  6
Continuous
 62
     7
100
AcDbPolyline
 90
        2
 70
     0
 43
0.15
 10
18.92728852287002
 20
234.9999323487
 10
18.92728852287002
 20
235.0999191403001
  0
LWPOLYLINE
  5
1DA
330
45
100
AcDbEntity
  8
0
  6
Continuous
 62
     7
100
AcDbPolyline
 90
        2
 70
     0
 43
0.15
 10
-55.41894743033001
 20
225.1302227378
 10
-78.46043789573
 20
161.8242412805
  0
LWPOLYLINE
  5
1DB
330
45
100
AcDbEntity
  8
0
  6
Continuous
 62
     7
100
AcDbPolyline
 90
        2
 70
     0
 43
0.15
 10
-78.46043789573
 20
161.8242412805
 10
-75.26787156053001
 20
159.9999219179
  0
LWPOLYLINE
  5
1DC
330
45
100
AcDbEntity
  8
0
  6
Continuous
 62
     7
100
AcDbPolyline
 90
        2
 70
     0
 43
0.15
 10
-66.77497708983
 20
159.9999219179
 10
-75.26787156053001
 20
159.9999219179
  0
LWPOLYLINE
  5
1DD
330
45
100
AcDbEntity
  8
0
  6
Continuous
 62
     7
100
AcDbPolyline
 90
        2
 70
     0
 43
0.15
 10
-66.77497708983
 20
132.9999193549
 10
-66.77497708983
 20
159.9999219179
  0
LWPOLYLINE
  5
1DE
330
45
100
AcDbEntity
  8
0
  6
Continuous
 62
     7
100
AcDbPolyline
 90
        2
 70
     0
 43
0.15
 10
-67.27497810313
 20
132.9999193549
 10
-66.77497708983
 20
132.9999193549
  0
LWPOLYLINE
  5
1DF
330
45
100
AcDbEntity
  8
0
  6
Continuous
 62
     7
100
AcDbPolyline
 90
        2
 70
     0
 43
0.15
 10
-67.27497810313
 20
130.9999190271
 10
-63.87497270293
 20
130.9999190271
  0
LWPOLYLINE
  5
1E0
330
45
100
AcDbEntity
  8
0
  6
Continuous
 62
     7
100
AcDbPolyline
 90
        2
 70
     0
 43
0.15
 10
-63.87497270293
 20
130.9999190271
 10
-63.87497270293
 20
152.2999182343
  0
LWPOLYLINE
  5
1E1
330
45
100
AcDbEntity
  8
0
  6
Continuous
 62
     7
100
AcDbPolyline
 90
        2
 70
     0
 43
0.15
 10
-63.37497914023001
 20
152.2999182343
 10
-63.37497914023001
 20
159.9999219179
  0
LWPOLYLINE
  5
1E2
330
45
100
AcDbEntity
  8
0
  6
Continuous
 62
     7
100
AcDbPolyline
 90
        2
 70
     0
 43
0.15
 10
-63.37460661123001
 20
159.9999219179
 10
-63.37497914023001
 20
159.9999219179
  0
LWPOLYLINE
  5
1E3
330
45
100
AcDbEntity
  8
0
  6
Continuous
 62
     7
100
AcDbPolyline
 90
        2
 70
     0
 43
0.15
 10
-50.78121060322999
 20
194.5999860763
 10
-63.37460661123001
 20
159.9999219179
  0
LWPOLYLINE
  5
1E4
330
45
100
AcDbEntity
  8
0
  6
Continuous
 62
     7
100
AcDbPolyline
 90
        2
 70
     0
 43
0.15
 10
-49.07497549242999
 20
194.5999860763
 10
-50.78121060322999
 20
194.5999860763
  0
LWPOLYLINE
  5
1E5
330
45
100
AcDbEntity
  8
0
  6
Continuous
 62
     7
100
AcDbPolyline
 90
        2
 70
     0
 43
0.15
 10
-49.07497549242999
 20
199.2878317833001
 10
-49.07497549242999
 20
194.5999860763
  0
LWPOLYLINE
  5
1E6
330
45
100
AcDbEntity
  8
0
  6
Continuous
 62
     7
100
AcDbPolyline
 90
        2
 70
     0
 43
0.15
 10
-41.32355907753001
 20
220.5846831202
 10
-49.07497549242999
 20
199.2878317833001
  0
LWPOLYLINE
  5
1E7
330
45
100
AcDbEntity
  8
0
  6
Continuous
 62
     7
100
AcDbPolyline
 90
        2
 70
     0
 43
0.15
 10
-41.32355907753001
 20
220.199920237
 10
-41.32355907753001
 20
220.5846831202
  0
LWPOLYLINE
  5
1E8
330
45
100
AcDbEntity
  8
0
  6
Continuous
 62
     7
100
AcDbPolyline
 90
        2
 70
     0
 43
0.15
 10
55.57360714486998
 20
220.199920237
 10
-41.32355907753001
 20
220.199920237
  0
LWPOLYLINE
  5
1E9
330
45
100
AcDbEntity
  8
0
  6
Continuous
 62
     7
100
AcDbPolyline
 90
        2
 70
     0
 43
0.15
 10
55.57360714486998
 20
220.5846831202
 10
55.57360714486998
 20
220.199920237
  0
LWPOLYLINE
  5
1EA
330
45
100
AcDbEntity
  8
0
  6
Continuous
 62
     7
100
AcDbPolyline
 90
        2
 70
     0
 43
0.15
 10
63.32502355986998
 20
199.2878317833001
 10
55.57360714486998
 20
220.5846831202
  0
LWPOLYLINE
  5
1EB
330
45
100
AcDbEntity
  8
0
  6
Continuous
 62
     7
100
AcDbPolyline
 90
        2
 70
     0
 43
0.15
 10
77.52502438707
 20
112.4999997735
 42
0.4142135623731
 10
80.02502438707
 20
114.9999997735
 42
0.4142135623731
  0
LWPOLYLINE
  5
1EC
330
45
100
AcDbEntity
  8
0
  6
Continuous
 62
     7
100
AcDbPolyline
 90
        2
 70
     0
 43
0.15
 10
-65.77497561293
 20
114.9999997735
 42
0.4142135623731
 10
-63.27497561293001
 20
112.4999997735
 42
0.4142135623731
  0
LWPOLYLINE
  5
1ED
330
45
100
AcDbEntity
  8
0
  6
Continuous
 62
     7
100
AcDbPolyline
 90
        2
 70
     0
 43
0.15
 10
-56.37497561293
 20
114.9999997735
 42
0.4142135623731
 10
-57.37497561293
 20
115.9999997735
 42
0.4142135623731
  0
LWPOLYLINE
  5
1EE
330
45
100
AcDbEntity
  8
0
  6
Continuous
 62
     7
100
AcDbPolyline
 90
        2
 70
     0
 43
0.15
 10
71.62502438707003
 20
115.9999997735
 42
0.4142135623731
 10
70.62502438707003
 20
114.9999997735
 42
0.4142135623731
  0
LWPOLYLINE
  5
1EF
330
45
100
AcDbEntity
  8
0
  6
Continuous
 62
     7
100
AcDbPolyline
 90
        2
 70
     0
 43
0.15
 10
-62.27497561293001
 20
116.9999997735
 42
0.4142135623731
 10
-61.27497561293001
 20
115.9999997735
 42
0.4142135623731
  0
LWPOLYLINE
  5
1F0
330
45
100
AcDbEntity
  8
0
  6
Continuous
 62
     7
100
AcDbPolyline
 90
        2
 70
     0
 43
0.15
 10
75.52502438707
 20
115.9999997735
 42
0.4142135623731
 10
76.52502438707
 20
116.9999997735
 42
0.4142135623731
  0
LWPOLYLINE
  5
1F1
330
45
100
AcDbEntity
  8
0
  6
Continuous
 62
     7
100
AcDbPolyline
 90
        2
 70
     0
 43
0.15
 10
-62.27497561293001
 20
124.2014906452
 42
0.4142135623731
 10
-63.27497561293001
 20
125.2014906452
 42
0.4142135623731
  0
LWPOLYLINE
  5
1F2
330
45
100
AcDbEntity
  8
0
  6
Continuous
 62
     7
100
AcDbPolyline
 90
        2
 70
     0
 43
0.15
 10
77.52502438707
 20
125.2014906452
 42
0.4142135623731
 10
76.52502438707
 20
124.2014906452
 42
0.4142135623731
  0
LWPOLYLINE
  5
1F3
330
45
100
AcDbEntity
  8
0
  6
Continuous
 62
     7
100
AcDbPolyline
 90
        2
 70
     0
 43
0.15
 10
-71.624972615334
 20
158.999922884455
 42
0.41421268438055
 10
-72.62497261533
 20
159.9999198868
 42
0.41421268438055
  0
LWPOLYLINE
  5
1F4
330
45
100
AcDbEntity
  8
0
  6
Continuous
 62
     7
100
AcDbPolyline
 90
        2
 70
     0
 43
0.15
 10
86.87502138947002
 20
159.9999198868
 42
0.41421268438055
 10
85.87502138947502
 20
158.999922884455
 42
0.41421268438055
  0
LWPOLYLINE
  5
1F5
330
45
100
AcDbEntity
  8
0
  6
Continuous
 62
     7
100
AcDbPolyline
 90
        2
 70
     0
 43
0.15
 10
-170.87497561293
 20
159.9999198868
 42
0.4142135623731
 10
-172.87497561293
 20
157.9999198868
 42
0.4142135623731
  0
LWPOLYLINE
  5
1F6
330
45
100
AcDbEntity
  8
0
  6
Continuous
 62
     7
100
AcDbPolyline
 90
        2
 70
     0
 43
0.15
 10
187.12502438707
 20
157.9999198868
 42
0.4142135623731
 10
185.12502438707
 20
159.9999198868
 42
0.4142135623731
  0
LWPOLYLINE
  5
1F7
330
45
100
AcDbEntity
  8
0
  6
Continuous
 62
     7
100
AcDbPolyline
 90
        2
 70
     0
 43
0.15
 10
-60.12497561293
 20
127.2014906452
 42
0.4142135623731
 10
-62.12497561293
 20
125.2014906452
 42
0.4142135623731
  0
LWPOLYLINE
  5
1F8
330
45
100
AcDbEntity
  8
0
  6
Continuous
 62
     7
100
AcDbPolyline
 90
        2
 70
     0
 43
0.15
 10
-57.62497561293
 20
127.7014906452
 42
0.4142135623731
 10
-59.62497561293
 20
129.7014906452
 42
0.4142135623731
  0
LWPOLYLINE
  5
1F9
330
45
100
AcDbEntity
  8
0
  6
Continuous
 62
     7
100
AcDbPolyline
 90
        2
 70
     0
 43
0.15
 10
76.37502438707003
 20
125.2014906452
 42
0.4142135623731
 10
74.37502438707003
 20
127.2014906452
 42
0.4142135623731
  0
LWPOLYLINE
  5
1FA
330
45
100
AcDbEntity
  8
0
  6
Continuous
 62
     7
100
AcDbPolyline
 90
        2
 70
     0
 43
0.15
 10
73.87502438707003
 20
129.7014906452
 42
0.4142135623731
 10
71.87502438707003
 20
127.7014906452
 42
0.4142135623731
  0
LWPOLYLINE
  5
1FB
330
45
100
AcDbEntity
  8
0
  6
Continuous
 62
     7
100
AcDbPolyline
 90
        2
 70
     0
 43
0.15
 10
79.62502438707003
 20
66.5000017735
 42
0.4142135623731
 10
82.12502438707003
 20
69.0000017735
 42
0.4142135623731
  0
LWPOLYLINE
  5
1FC
330
45
100
AcDbEntity
  8
0
  6
Continuous
 62
     7
100
AcDbPolyline
 90
        2
 70
     0
 43
0.15
 10
-67.87497561293
 20
69.0000017735
 42
0.4142135623731
 10
-65.37497561293
 20
66.5000017735
 42
0.4142135623731
  0
LWPOLYLINE
  5
1FD
330
45
100
AcDbEntity
  8
0
  6
Continuous
 62
     7
100
AcDbPolyline
 90
        2
 70
     0
 43
0.15
 10
79.12502438707003
 20
64.0000017735
 42
0.4142135623731
 10
87.12502438707003
 20
72.0000017735
 42
0.4142135623731
  0
LWPOLYLINE
  5
1FE
330
45
100
AcDbEntity
  8
0
  6
Continuous
 62
     7
100
AcDbPolyline
 90
        2
 70
     0
 43
0.15
 10
-72.87497561293
 20
72.0000017735
 42
0.4142135623731
 10
-64.87497561293
 20
64.0000017735
 42
0.4142135623731
  0
LWPOLYLINE
  5
1FF
330
45
100
AcDbEntity
  8
0
  6
Continuous
 62
     7
100
AcDbPolyline
 90
        2
 70
     0
 43
0.15
 10
81.52502438707
 20
130.9999198868
 42
0.4142135623731
 10
82.52502438707
 20
131.9999198868
 42
0.4142135623731
  0
LWPOLYLINE
  5
200
330
45
100
AcDbEntity
  8
0
  6
Continuous
 62
     7
100
AcDbPolyline
 90
        2
 70
     0
 43
0.15
 10
82.52502438707
 20
131.9999198868
 42
0.4142135623731
 10
81.52502438707
 20
132.9999198868
 42
0.4142135623731
  0
LWPOLYLINE
  5
201
330
45
100
AcDbEntity
  8
0
  6
Continuous
 62
     7
100
AcDbPolyline
 90
        2
 70
     0
 43
0.15
 10
69.66899562253502
 20
225.1302279818
 42
0.31529878994921
 10
55.57360629076999
 20
234.9999258868
 42
0.31529878994921
  0
LWPOLYLINE
  5
202
330
45
100
AcDbEntity
  8
0
  6
Continuous
 62
     7
100
AcDbPolyline
 90
        2
 70
     0
 43
0.15
 10
-41.32355751662999
 20
234.9999258868
 42
0.31529878994921
 10
-55.418946848395
 20
225.1302279818
 42
0.31529878994921
  0
LWPOLYLINE
  5
203
330
45
100
AcDbEntity
  8
0
  6
Continuous
 62
     7
100
AcDbPolyline
 90
        2
 70
     0
 43
0.15
 10
-67.27497561293
 20
132.9999198868
 42
0.4142135623731
 10
-68.27497561293
 20
131.9999198868
 42
0.4142135623731
  0
LWPOLYLINE
  5
204
330
45
100
AcDbEntity
  8
0
  6
Continuous
 62
     7
100
AcDbPolyline
 90
        2
 70
     0
 43
0.15
 10
-68.27497561293
 20
131.9999198868
 42
0.4142135623731
 10
-67.27497561293
 20
130.9999198868
 42
0.4142135623731
  0
SPLINE
  5
205
330
45
100
AcDbEntity
  8
0
  6
Continuous
 62
     7
100
AcDbSpline
210
0.0
220
0.0
230
1.0
 70
    24
 71
     3
 72
     9
 73
     5
 74
     3
 42
0.0000000001
 43
0.0000000001
 44
0.00000001
 40
0.0
 40
0.0
 40
0.0
 40
0.0
 40
0.2976419018993681
 40
0.5952838037980044
 40
0.5952838037980044
 40
0.5952838037980044
 40
0.5952838037980044
 10
61.101047635604
 20
199.32016303651
 30
0.0
 10
61.20026160290379
 20
199.3201630365136
 30
0.0
 10
61.39868953750312
 20
199.320163036521
 30
0.0
 10
61.59711747210247
 20
199.3201630365284
 30
0.0
 10
61.696331439402
 20
199.320163036532
 30
0.0
 11
61.101047635604
 21
199.32016303651
 31
0.0
 11
61.39868953750337
 21
199.320163036521
 31
0.0
 11
61.696331439402
 21
199.320163036532
 31
0.0
  0
SPLINE
  5
206
330
45
100
AcDbEntity
  8
0
  6
Continuous
 62
     7
100
AcDbSpline
210
0.0
220
0.0
230
1.0
 70
    24
 71
     3
 72
     9
 73
     5
 74
     3
 42
0.0000000001
 43
0.0000000001
 44
0.00000001
 40
0.0
 40
0.0
 40
0.0
 40
0.0
 40
0.5749999998863515
 40
1.149999999771985
 40
1.149999999771985
 40
1.149999999771985
 40
1.149999999771985
 10
55.21046134606303
 20
199.3201630366711
 30
0.0
 10
55.40212801269181
 20
199.3201630366587
 30
0.0
 10
55.78546134594914
 20
199.320163036634
 30
0.0
 10
56.16879467920647
 20
199.3201630366094
 30
0.0
 10
56.36046134583501
 20
199.3201630365971
 30
0.0
 11
55.21046134606303
 21
199.3201630366711
 31
0.0
 11
55.78546134594938
 21
199.320163036634
 31
0.0
 11
56.36046134583501
 21
199.3201630365971
 31
0.0
  0
SPLINE
  5
207
330
45
100
AcDbEntity
  8
0
  6
Continuous
 62
     7
100
AcDbSpline
210
0.0
220
0.0
230
1.0
 70
    24
 71
     3
 72
     9
 73
     5
 74
     3
 42
0.0000000001
 43
0.0000000001
 44
0.00000001
 40
0.0
 40
0.0
 40
0.0
 40
0.0
 40
0.813172798450374
 40
1.626345596899974
 40
1.626345596899974
 40
1.626345596899974
 40
1.626345596899974
 10
46.04293199147503
 20
199.320163036438
 30
0.0
 10
46.31398959095849
 20
199.3201630364458
 30
0.0
 10
46.85610478992514
 20
199.3201630364615
 30
0.0
 10
47.3982199888918
 20
199.3201630364772
 30
0.0
 10
47.669277588375
 20
199.320163036485
 30
0.0
 11
46.04293199147503
 21
199.320163036438
 31
0.0
 11
46.8561047899254
 21
199.3201630364615
 31
0.0
 11
47.669277588375
 21
199.320163036485
 31
0.0
  0
SPLINE
  5
208
330
45
100
AcDbEntity
  8
0
  6
Continuous
 62
     7
100
AcDbSpline
210
0.0
220
0.0
230
1.0
 70
    24
 71
     3
 72
     9
 73
     5
 74
     3
 42
0.0000000001
 43
0.0000000001
 44
0.00000001
 40
0.0
 40
0.0
 40
0.0
 40
0.0
 40
0.9959292143654892
 40
1.991858428730986
 40
1.991858428730986
 40
1.991858428730986
 40
1.991858428730986
 10
34.22321154958502
 20
199.320163036526
 30
0.0
 10
34.55518795437351
 20
199.320163036527
 30
0.0
 10
35.21914076395051
 20
199.320163036529
 30
0.0
 10
35.8830935735275
 20
199.320163036531
 30
0.0
 10
36.215069978316
 20
199.320163036532
 30
0.0
 11
34.22321154958502
 21
199.320163036526
 31
0.0
 11
35.21914076395051
 21
199.320163036529
 31
0.0
 11
36.215069978316
 21
199.320163036532
 31
0.0
  0
SPLINE
  5
209
330
45
100
AcDbEntity
  8
0
  6
Continuous
 62
     7
100
AcDbSpline
210
0.0
220
0.0
230
1.0
 70
    24
 71
     3
 72
     9
 73
     5
 74
     3
 42
0.0000000001
 43
0.0000000001
 44
0.00000001
 40
0.0
 40
0.0
 40
0.0
 40
0.0
 40
1.110814700162354
 40
2.221629400323991
 40
2.221629400323991
 40
2.221629400323991
 40
2.221629400323991
 10
20.55679443438402
 20
199.3201630365581
 30
0.0
 10
20.9270660011048
 20
199.3201630365556
 30
0.0
 10
21.66760913454614
 20
199.3201630365506
 30
0.0
 10
22.40815226798747
 20
199.3201630365456
 30
0.0
 10
22.77842383470801
 20
199.3201630365431
 30
0.0
 11
20.55679443438402
 21
199.3201630365581
 31
0.0
 11
21.66760913454637
 21
199.3201630365506
 31
0.0
 11
22.77842383470801
 21
199.3201630365431
 31
0.0
  0
SPLINE
  5
20A
330
45
100
AcDbEntity
  8
0
  6
Continuous
 62
     7
100
AcDbSpline
210
0.0
220
0.0
230
1.0
 70
    24
 71
     3
 72
     9
 73
     5
 74
     3
 42
0.0000000001
 43
0.0000000001
 44
0.00000001
 40
0.0
 40
0.0
 40
0.0
 40
0.0
 40
1.150000000029134
 40
2.300000000059015
 40
2.300000000059015
 40
2.300000000059015
 40
2.300000000059015
 10
5.975024387041998
 20
199.320163036537
 30
0.0
 10
6.358357720385042
 20
199.320163036537
 30
0.0
 10
7.125024387071379
 20
199.320163036537
 30
0.0
 10
7.89169105375772
 20
199.3201630365371
 30
0.0
 10
8.275024387101013
 20
199.320163036537
 30
0.0
 11
5.975024387041998
 21
199.320163036537
 31
0.0
 11
7.125024387071132
 21
199.320163036537
 31
0.0
 11
8.275024387101013
 21
199.320163036537
 31
0.0
  0
SPLINE
  5
20B
330
45
100
AcDbEntity
  8
0
  6
Continuous
 62
     7
100
AcDbSpline
210
0.0
220
0.0
230
1.0
 70
    24
 71
     3
 72
     9
 73
     5
 74
     3
 42
0.0000000001
 43
0.0000000001
 44
0.00000001
 40
0.0
 40
0.0
 40
0.0
 40
0.0
 40
1.110814700161995
 40
2.221629400323991
 40
2.221629400323991
 40
2.221629400323991
 40
2.221629400323991
 10
-8.528375060565992
 20
199.3201630365431
 30
0.0
 10
-8.158103493845328
 20
199.3201630365456
 30
0.0
 10
-7.417560360403995
 20
199.3201630365506
 30
0.0
 10
-6.677017226962667
 20
199.3201630365556
 30
0.0
 10
-6.306745660242001
 20
199.3201630365581
 30
0.0
 11
-8.528375060565992
 21
199.3201630365431
 31
0.0
 11
-7.417560360403996
 21
199.3201630365506
 31
0.0
 11
-6.306745660242001
 21
199.3201630365581
 31
0.0
  0
SPLINE
  5
20C
330
45
100
AcDbEntity
  8
0
  6
Continuous
 62
     7
100
AcDbSpline
210
0.0
220
0.0
230
1.0
 70
    24
 71
     3
 72
     9
 73
     5
 74
     3
 42
0.0000000001
 43
0.0000000001
 44
0.00000001
 40
0.0
 40
0.0
 40
0.0
 40
0.0
 40
0.9959292143660115
 40
1.991858428732002
 40
1.991858428732002
 40
1.991858428732002
 40
1.991858428732002
 10
-21.96502120417401
 20
199.320163036532
 30
0.0
 10
-21.63304479938534
 20
199.320163036531
 30
0.0
 10
-20.96909198980801
 20
199.320163036529
 30
0.0
 10
-20.30513918023068
 20
199.320163036527
 30
0.0
 10
-19.97316277544201
 20
199.320163036526
 30
0.0
 11
-21.96502120417401
 21
199.320163036532
 31
0.0
 11
-20.969091989808
 21
199.320163036529
 31
0.0
 11
-19.97316277544201
 21
199.320163036526
 31
0.0
  0
SPLINE
  5
20D
330
45
100
AcDbEntity
  8
0
  6
Continuous
 62
     7
100
AcDbSpline
210
0.0
220
0.0
230
1.0
 70
    24
 71
     3
 72
     9
 73
     5
 74
     3
 42
0.0000000001
 43
0.0000000001
 44
0.00000001
 40
0.0
 40
0.0
 40
0.0
 40
0.0
 40
0.8131727984500117
 40
1.62634559690002
 40
1.62634559690002
 40
1.62634559690002
 40
1.62634559690002
 10
-33.41922881423301
 20
199.320163036485
 30
0.0
 10
-33.14817121474967
 20
199.3201630364772
 30
0.0
 10
-32.606056015783
 20
199.3201630364616
 30
0.0
 10
-32.06394081681633
 20
199.3201630364459
 30
0.0
 10
-31.79288321733299
 20
199.320163036438
 30
0.0
 11
-33.41922881423301
 21
199.320163036485
 31
0.0
 11
-32.606056015783
 21
199.3201630364615
 31
0.0
 11
-31.79288321733299
 21
199.320163036438
 31
0.0
  0
SPLINE
  5
20E
330
45
100
AcDbEntity
  8
0
  6
Continuous
 62
     7
100
AcDbSpline
210
0.0
220
0.0
230
1.0
 70
    24
 71
     3
 72
     9
 73
     5
 74
     3
 42
0.0000000001
 43
0.0000000001
 44
0.00000001
 40
0.0
 40
0.0
 40
0.0
 40
0.0
 40
0.5749999998864865
 40
1.149999999773001
 40
1.149999999773001
 40
1.149999999773001
 40
1.149999999773001
 10
-42.11041257169299
 20
199.3201630365971
 30
0.0
 10
-41.91874590506416
 20
199.3201630366092
 30
0.0
 10
-41.5354125718065
 20
199.3201630366335
 30
0.0
 10
-41.15207923854882
 20
199.3201630366585
 30
0.0
 10
-40.96041257191999
 20
199.3201630366711
 30
0.0
 11
-42.11041257169299
 21
199.3201630365971
 31
0.0
 11
-41.5354125718065
 21
199.3201630366337
 31
0.0
 11
-40.96041257191999
 21
199.3201630366711
 31
0.0
  0
SPLINE
  5
20F
330
45
100
AcDbEntity
  8
0
  6
Continuous
 62
     7
100
AcDbSpline
210
0.0
220
0.0
230
1.0
 70
    24
 71
     3
 72
     9
 73
     5
 74
     3
 42
0.0000000001
 43
0.0000000001
 44
0.00000001
 40
0.0
 40
0.0
 40
0.0
 40
0.0
 40
0.297641901899361
 40
0.5952838037980044
 40
0.5952838037980044
 40
0.5952838037980044
 40
0.5952838037980044
 10
-47.44628266525999
 20
199.320163036532
 30
0.0
 10
-47.34706869796021
 20
199.3201630365285
 30
0.0
 10
-47.14864076336087
 20
199.3201630365216
 30
0.0
 10
-46.95021282876154
 20
199.3201630365145
 30
0.0
 10
-46.85099886146199
 20
199.320163036511
 30
0.0
 11
-47.44628266525999
 21
199.320163036532
 31
0.0
 11
-47.14864076336063
 21
199.3201630365215
 31
0.0
 11
-46.85099886146199
 21
199.320163036511
 31
0.0
  0
DIMENSION
  5
224
330
45
100
AcDbEntity
  8
1
100
AcDbDimension
  2
*D3
 10
-188.435649701682
 20
159.9999219179
 30
0.0
 11
-195.435649701682
 21
111.6948994255
 31
0.0
 70
    32
  1
<>
 71
     5
 42
-1.0
 53
90.0
  3
ME10_DIM_10
100
AcDbAlignedDimension
 13
-64.87497472953001
 23
64.00000117720003
 33
0.0
 14
-162.87497961713
 24
159.9999219179
 34
0.0
 50
90.0
100
AcDbRotatedDimension
  0
DIMENSION
  5
22F
330
45
100
AcDbEntity
  8
1
100
AcDbDimension
  2
*D4
 10
-210.76935813541
 20
159.9999219179
 30
0.0
 11
-217.76935813541
 21
79.6057033846264
 31
0.0
 70
    32
  1
<>
 71
     5
 42
-1.0
 53
90.0
  3
ME10_DIM_11
100
AcDbAlignedDimension
 13
-29.03523081732999
 23
0.0
 33
0.0
 14
-170.87498092843
 24
159.9999219179
 34
0.0
 50
90.0
100
AcDbRotatedDimension
  0
DIMENSION
  5
23A
330
45
100
AcDbEntity
  8
1
100
AcDbDimension
  2
*D5
 10
-72.97497773363
 20
-50.9386465990373
 30
0.0
 11
7.52427335481741
 21
-43.9386465990373
 31
0.0
 70
    33
  1
<>
 71
     5
 42
-1.0
 53
0.00013888888889
  3
ME10_DIM_12
100
AcDbAlignedDimension
 13
87.22502207566998
 23
74.00000095360002
 33
0.0
 14
-72.97497773363
 24
74.00000095360002
 34
0.0
  0
DIMENSION
  5
245
330
45
100
AcDbEntity
  8
1
100
AcDbDimension
  2
*D6
 10
-30.37497559382999
 20
-24.5277565660401
 30
0.0
 11
7.65773307874508
 21
-17.5277565660401
 31
0.0
 70
    33
  1
<>
 71
     5
 42
-1.0
 53
0.00013888888889
  3
ME10_DIM_13
100
AcDbAlignedDimension
 13
44.62502366117002
 23
5.00000268220001
 33
0.0
 14
-30.37497559382999
 24
5.00000268220001
 34
0.0
  0
DIMENSION
  5
250
330
45
100
AcDbEntity
  8
1
100
AcDbDimension
  2
*D7
 10
-172.87497008033
 20
261.010766093444
 30
0.0
 11
6.80411598370802
 21
268.010766093444
 31
0.0
 70
    33
  1
<>
 71
     5
 42
-1.0
 53
0.00013888888889
  3
ME10_DIM_14
100
AcDbAlignedDimension
 13
187.12502932357
 23
157.9999178648
 33
0.0
 14
-172.87497008033
 24
157.9999178648
 34
0.0
  0
HATCH
  5
251
330
45
100
AcDbEntity
  8
0
  6
Continuous
 62
     7
100
AcDbHatch
 10
0.0
 20
0.0
 30
0.0
210
0.0
220
0.0
230
1.0
  2
CUSTOM0
 70
     0
 71
     0
 91
        1
 92
        1
 93
      118
 72
     1
 10
63.32502438705399
 20
199.287832786654
 11
63.32502438705399
 21
194.599985386828
 72
     1
 10
63.32502438705399
 20
194.599985386828
 11
65.031260947681
 21
194.599985386828
 72
     1
 10
65.031260947681
 20
194.599985386828
 11
77.62465261529098
 21
159.999918932811
 72
     1
 10
77.62465261529098
 20
159.999918932811
 11
77.625024387054
 21
159.999919886843
 72
     1
 10
77.625024387054
 20
159.999919886843
 11
77.625024387054
 21
152.299919886843
 72
     1
 10
77.625024387054
 20
152.299919886843
 11
78.125024387054
 21
152.299919886843
 72
     1
 10
78.125024387054
 20
152.299919886843
 11
78.125024387054
 21
130.999919886843
 72
     1
 10
78.125024387054
 20
130.999919886843
 11
81.52502438707
 21
130.9999198868
 72
     1
 10
81.52502438707
 20
130.9999198868
 11
81.72369371784902
 21
131.019853309001
 72
     1
 10
81.72369371784902
 20
131.019853309001
 11
81.91444272936201
 21
131.07885889284
 72
     1
 10
81.91444272936201
 20
131.07885889284
 11
82.08966686044903
 21
131.174584271933
 72
     1
 10
82.08966686044903
 20
131.174584271933
 11
82.24238047795302
 21
131.303213177495
 72
     1
 10
82.24238047795302
 20
131.303213177495
 11
82.36649537186202
 21
131.459617580975
 72
     1
 10
82.36649537186202
 20
131.459617580975
 11
82.45706347302098
 21
131.637562132366
 72
     1
 10
82.45706347302098
 20
131.637562132366
 11
82.51047411704201
 21
131.829952743942
 72
     1
 10
82.51047411704201
 20
131.829952743942
 11
82.52502438707
 21
131.9999198868
 72
     1
 10
82.52502438707
 20
131.9999198868
 11
82.50509096489498
 21
132.198589217638
 72
     1
 10
82.50509096489498
 20
132.198589217638
 11
82.446085381057
 21
132.389338229151
 72
     1
 10
82.446085381057
 20
132.389338229151
 11
82.350360001963
 21
132.564562360238
 72
     1
 10
82.350360001963
 20
132.564562360238
 11
82.22173109640102
 21
132.717275977742
 72
     1
 10
82.22173109640102
 20
132.717275977742
 11
82.06532669292199
 21
132.841390871651
 72
     1
 10
82.06532669292199
 20
132.841390871651
 11
81.88738214153
 21
132.93195897281
 72
     1
 10
81.88738214153
 20
132.93195897281
 11
81.694991529954
 21
132.985369616831
 72
     1
 10
81.694991529954
 20
132.985369616831
 11
81.52502438707
 21
132.9999198868
 72
     1
 10
81.52502438707
 20
132.9999198868
 11
81.02502438705397
 21
132.999919886843
 72
     1
 10
81.02502438705397
 20
132.999919886843
 11
81.02502438705397
 21
159.999919886843
 72
     1
 10
81.02502438705397
 20
159.999919886843
 11
89.51792220490199
 21
159.999919886843
 72
     1
 10
89.51792220490199
 20
159.999919886843
 11
92.71048920490199
 21
161.824243886843
 72
     1
 10
92.71048920490199
 20
161.824243886843
 11
69.66899562253502
 21
225.1302279818
 72
     1
 10
69.66899562253502
 20
225.1302279818
 11
68.368792592499
 21
227.8282850702221
 72
     1
 10
68.368792592499
 20
227.8282850702221
 11
66.55848586216098
 21
230.214250181772
 72
     1
 10
66.55848586216098
 20
230.214250181772
 11
64.310246648104
 21
232.193002416848
 72
     1
 10
64.310246648104
 20
232.193002416848
 11
61.71370515306302
 21
233.68565516815
 72
     1
 10
61.71370515306302
 20
233.68565516815
 11
58.87237729258499
 21
234.632701080823
 72
     1
 10
58.87237729258499
 20
234.632701080823
 11
55.89953784213799
 21
234.996384422905
 72
     1
 10
55.89953784213799
 20
234.996384422905
 11
55.57360629076999
 21
234.9999258868
 72
     1
 10
55.57360629076999
 20
234.9999258868
 11
36.55410642930801
 21
234.999925886843
 72
     1
 10
36.55410642930801
 20
234.999925886843
 11
36.55410642930801
 21
235.099925886843
 72
     1
 10
36.55410642930801
 20
235.099925886843
 11
34.231039910552
 21
235.099925886843
 72
     1
 10
34.231039910552
 20
235.099925886843
 11
34.231039910552
 21
234.999925886843
 72
     1
 10
34.231039910552
 20
234.999925886843
 11
33.75279897850501
 21
234.999925886843
 72
     1
 10
33.75279897850501
 20
234.999925886843
 11
33.75279897850501
 21
235.099925886843
 72
     1
 10
33.75279897850501
 20
235.099925886843
 11
31.83982997850501
 21
235.099925886843
 72
     1
 10
31.83982997850501
 20
235.099925886843
 11
31.83982997850501
 21
234.999925886843
 72
     1
 10
31.83982997850501
 20
234.999925886843
 11
31.49201617219299
 21
234.999925886843
 72
     1
 10
31.49201617219299
 20
234.999925886843
 11
31.49201617219299
 21
235.099925886843
 72
     1
 10
31.49201617219299
 20
235.099925886843
 11
30.70943847850501
 21
235.099925886843
 72
     1
 10
30.70943847850501
 20
235.099925886843
 11
30.70943847850501
 21
234.999925886843
 72
     1
 10
30.70943847850501
 20
234.999925886843
 11
30.14424297850499
 21
234.999925886843
 72
     1
 10
30.14424297850499
 20
234.999925886843
 11
30.14424297850499
 21
235.099925886843
 72
     1
 10
30.14424297850499
 20
235.099925886843
 11
29.31818828098099
 21
235.099925886843
 72
     1
 10
29.31818828098099
 20
235.099925886843
 11
29.31818828098099
 21
234.999925886843
 72
     1
 10
29.31818828098099
 20
234.999925886843
 11
28.75299297850501
 21
234.999925886843
 72
     1
 10
28.75299297850501
 20
234.999925886843
 11
28.75299297850501
 21
235.099925886843
 72
     1
 10
28.75299297850501
 20
235.099925886843
 11
27.97041497850501
 21
235.099925886843
 72
     1
 10
27.97041497850501
 20
235.099925886843
 11
27.97041497850501
 21
234.999925886843
 72
     1
 10
27.97041497850501
 20
234.999925886843
 11
26.883500978505
 21
234.999925886843
 72
     1
 10
26.883500978505
 20
234.999925886843
 11
26.883500978505
 21
235.099925886843
 72
     1
 10
26.883500978505
 20
235.099925886843
 11
26.100921978505
 21
235.099925886843
 72
     1
 10
26.100921978505
 20
235.099925886843
 11
26.100921978505
 21
234.999925886843
 72
     1
 10
26.100921978505
 20
234.999925886843
 11
25.01400797850499
 21
234.999925886843
 72
     1
 10
25.01400797850499
 20
234.999925886843
 11
25.01400797850499
 21
235.099925886843
 72
     1
 10
25.01400797850499
 20
235.099925886843
 11
24.23142997850499
 21
235.099925886843
 72
     1
 10
24.23142997850499
 20
235.099925886843
 11
24.23142997850499
 21
234.999925886843
 72
     1
 10
24.23142997850499
 20
234.999925886843
 11
23.796663478505
 21
234.999925886843
 72
     1
 10
23.796663478505
 20
234.999925886843
 11
23.796663478505
 21
235.099925886843
 72
     1
 10
23.796663478505
 20
235.099925886843
 11
21.44892997850499
 21
235.099925886843
 72
     1
 10
21.44892997850499
 20
235.099925886843
 11
21.44892997850499
 21
234.999925886843
 72
     1
 10
21.44892997850499
 20
234.999925886843
 11
21.070066978505
 21
234.999925886843
 72
     1
 10
21.070066978505
 20
234.999925886843
 11
21.070066978505
 21
235.099925886843
 72
     1
 10
21.070066978505
 20
235.099925886843
 11
20.33096547850499
 21
235.099925886843
 72
     1
 10
20.33096547850499
 20
235.099925886843
 11
20.33096547850499
 21
234.999925886843
 72
     1
 10
20.33096547850499
 20
234.999925886843
 11
19.753342978505
 21
234.999925886843
 72
     1
 10
19.753342978505
 20
234.999925886843
 11
19.753342978505
 21
235.099925886843
 72
     1
 10
19.753342978505
 20
235.099925886843
 11
18.927288978505
 21
235.099925886843
 72
     1
 10
18.927288978505
 20
235.099925886843
 11
18.927288978505
 21
234.999925886843
 72
     1
 10
18.927288978505
 20
234.999925886843
 11
-41.32355751662999
 21
234.9999258868
 72
     1
 10
-41.32355751662999
 20
234.9999258868
 11
-44.30359747858699
 21
234.700924554461
 72
     1
 10
-44.30359747858699
 20
234.700924554461
 11
-47.16483265129
 21
233.815840796886
 72
     1
 10
-47.16483265129
 20
233.815840796886
 11
-49.79319461758601
 21
232.379960110488
 72
     1
 10
-49.79319461758601
 20
232.379960110488
 11
-52.08389888015299
 21
230.45052652705
 72
     1
 10
-52.08389888015299
 20
230.45052652705
 11
-53.94562228877899
 21
228.104460474865
 72
     1
 10
-53.94562228877899
 20
228.104460474865
 11
-55.30414380616901
 21
225.435292203993
 72
     1
 10
-55.30414380616901
 20
225.435292203993
 11
-55.418946848395
 21
225.1302279818
 72
     1
 10
-55.418946848395
 20
225.1302279818
 11
-78.46044043079499
 21
161.824243886843
 72
     1
 10
-78.46044043079499
 20
161.824243886843
 11
-75.26787343079499
 21
159.999919886843
 72
     1
 10
-75.26787343079499
 20
159.999919886843
 11
-66.77497561294601
 21
159.999919886843
 72
     1
 10
-66.77497561294601
 20
159.999919886843
 11
-66.77497561294601
 21
132.999919886843
 72
     1
 10
-66.77497561294601
 20
132.999919886843
 11
-67.27497561293
 21
132.9999198868
 72
     1
 10
-67.27497561293
 20
132.9999198868
 11
-67.473644943741
 21
132.979986464684
 72
     1
 10
-67.473644943741
 20
132.979986464684
 11
-67.66439395525501
 21
132.920980880845
 72
     1
 10
-67.66439395525501
 20
132.920980880845
 11
-67.839618086341
 21
132.825255501752
 72
     1
 10
-67.839618086341
 20
132.825255501752
 11
-67.99233170384599
 21
132.69662659619
 72
     1
 10
-67.99233170384599
 20
132.69662659619
 11
-68.11644659775399
 21
132.540222192711
 72
     1
 10
-68.11644659775399
 20
132.540222192711
 11
-68.20701469891401
 21
132.362277641319
 72
     1
 10
-68.20701469891401
 20
132.362277641319
 11
-68.26042534293501
 21
132.169887029743
 72
     1
 10
-68.26042534293501
 20
132.169887029743
 11
-68.27497561293
 21
131.9999198868
 72
     1
 10
-68.27497561293
 20
131.9999198868
 11
-68.255042190788
 21
131.801250556048
 72
     1
 10
-68.255042190788
 20
131.801250556048
 11
-68.19603660694901
 21
131.610501544534
 72
     1
 10
-68.19603660694901
 20
131.610501544534
 11
-68.100311227856
 21
131.435277413448
 72
     1
 10
-68.100311227856
 20
131.435277413448
 11
-67.97168232229399
 21
131.282563795943
 72
     1
 10
-67.97168232229399
 20
131.282563795943
 11
-67.81527791881499
 21
131.158448902035
 72
     1
 10
-67.81527791881499
 20
131.158448902035
 11
-67.637333367423
 21
131.067880800875
 72
     1
 10
-67.637333367423
 20
131.067880800875
 11
-67.444942755847
 21
131.014470156854
 72
     1
 10
-67.444942755847
 20
131.014470156854
 11
-67.27497561293
 21
130.9999198868
 72
     1
 10
-67.27497561293
 20
130.9999198868
 11
-63.874975612946
 21
130.999919886843
 72
     1
 10
-63.874975612946
 20
130.999919886843
 11
-63.874975612946
 21
152.299919886843
 72
     1
 10
-63.874975612946
 20
152.299919886843
 11
-63.374975612946
 21
152.299919886843
 72
     1
 10
-63.374975612946
 20
152.299919886843
 11
-63.374975612946
 21
159.999919886843
 72
     1
 10
-63.374975612946
 20
159.999919886843
 11
-63.37460384118299
 21
159.999918932811
 72
     1
 10
-63.37460384118299
 20
159.999918932811
 11
-50.78121217357401
 21
194.599985386828
 72
     1
 10
-50.78121217357401
 20
194.599985386828
 11
-49.07497561294599
 21
194.599985386828
 72
     1
 10
-49.07497561294599
 20
194.599985386828
 11
-49.07497561294599
 21
199.287832786654
 72
     1
 10
-49.07497561294599
 20
199.287832786654
 11
-41.323557516661
 21
220.5846834146051
 72
     1
 10
-41.323557516661
 20
220.5846834146051
 11
-41.323557516661
 21
220.199925886843
 72
     1
 10
-41.323557516661
 20
220.199925886843
 11
55.573606290768
 21
220.199925886843
 72
     1
 10
55.573606290768
 20
220.199925886843
 11
55.573606290768
 21
220.5846834146051
 72
     1
 10
55.573606290768
 20
220.5846834146051
 11
63.32502438705399
 21
199.287832786654
 97
        0
 75
     1
 76
     2
 52
0.0
 41
1.0
 77
     0
 78
     1
 53
44.99999999999998
 43
0.0
 44
0.0
 45
-4.490128060534577
 46
0.0000000000000018
 79
     0
 98
        1
 10
0.0
 20
0.0
  0
HATCH
  5
252
330
45
100
AcDbEntity
  8
0
  6
Continuous
 62
     7
100
AcDbHatch
 10
0.0
 20
0.0
 30
0.0
210
0.0
220
0.0
230
1.0
  2
CUSTOM1
 70
     0
 71
     0
 91
        1
 92
        1
 93
       29
 72
     1
 10
-49.624975612946
 20
61.50000177353002
 11
-49.624975612946
 21
64.00000177353002
 72
     1
 10
-49.624975612946
 20
64.00000177353002
 11
-30.874975612946
 21
64.00000177353002
 72
     1
 10
-30.874975612946
 20
64.00000177353002
 11
-30.874975612946
 21
66.50000177353002
 72
     1
 10
-30.874975612946
 20
66.50000177353002
 11
-65.37497561293
 21
66.5000017735
 72
     1
 10
-65.37497561293
 20
66.5000017735
 11
-65.871648939934
 21
66.54983532892703
 72
     1
 10
-65.871648939934
 20
66.54983532892703
 11
-66.34852146871799
 21
66.69734928852301
 72
     1
 10
-66.34852146871799
 20
66.69734928852301
 11
-66.786581796434
 21
66.93666273625598
 72
     1
 10
-66.786581796434
 20
66.93666273625598
 11
-67.16836584019501
 21
67.25823500016202
 72
     1
 10
-67.16836584019501
 20
67.25823500016202
 11
-67.47865307496599
 21
67.64924600886002
 72
     1
 10
-67.47865307496599
 20
67.64924600886002
 11
-67.705073327864
 21
68.094107387338
 72
     1
 10
-67.705073327864
 20
68.094107387338
 11
-67.838599937917
 21
68.57508391627903
 72
     1
 10
-67.838599937917
 20
68.57508391627903
 11
-67.87497561293
 21
69.0000017735
 72
     1
 10
-67.87497561293
 20
69.0000017735
 11
-67.874975612946
 21
80.00000177353002
 72
     1
 10
-67.874975612946
 20
80.00000177353002
 11
-69.14703514441399
 21
80.00000177353002
 72
     1
 10
-69.14703514441399
 20
80.00000177353002
 11
-69.874975612946
 21
78.00000177353002
 72
     1
 10
-69.874975612946
 20
78.00000177353002
 11
-69.874975612946
 21
74.00000177353002
 72
     1
 10
-69.874975612946
 20
74.00000177353002
 11
-72.874975612946
 21
74.00000177353002
 72
     1
 10
-72.874975612946
 20
74.00000177353002
 11
-72.87497561293
 21
72.0000017735
 72
     1
 10
-72.87497561293
 20
72.0000017735
 11
-72.715508235676
 21
70.410647127169
 72
     1
 10
-72.715508235676
 20
70.410647127169
 11
-72.243463564969
 21
68.88465503506103
 72
     1
 10
-72.243463564969
 20
68.88465503506103
 11
-71.47766053222401
 21
67.48286198636998
 72
     1
 10
-71.47766053222401
 20
67.48286198636998
 11
-70.448629287724
 21
66.26115304633402
 72
     1
 10
-70.448629287724
 20
66.26115304633402
 11
-69.197394059891
 21
65.268233895067
 72
     1
 10
-69.197394059891
 20
65.268233895067
 11
-67.77383764876001
 21
64.54368908579198
 72
     1
 10
-67.77383764876001
 20
64.54368908579198
 11
-66.23471275614799
 21
64.116403933622
 72
     1
 10
-66.23471275614799
 20
64.116403933622
 11
-64.87497561293
 21
64.0000017735
 72
     1
 10
-64.87497561293
 20
64.0000017735
 11
-63.624975612946
 21
64.00000177353002
 72
     1
 10
-63.624975612946
 20
64.00000177353002
 11
-63.624975612946
 21
61.50000177353002
 72
     1
 10
-63.624975612946
 20
61.50000177353002
 11
-49.624975612946
 21
61.50000177353002
 97
        0
 75
     1
 76
     2
 52
0.0
 41
1.0
 77
     0
 78
     1
 53
44.99999999999998
 43
0.0
 44
0.0
 45
-4.490128060534577
 46
0.0000000000000018
 79
     0
 98
        1
 10
0.0
 20
0.0
  0
HATCH
  5
253
330
45
100
AcDbEntity
  8
0
  6
Continuous
 62
     7
100
AcDbHatch
 10
0.0
 20
0.0
 30
0.0
210
0.0
220
0.0
230
1.0
  2
CUSTOM2
 70
     0
 71
     0
 91
        1
 92
        1
 93
       29
 72
     1
 10
45.125024387054
 20
66.50000177353002
 11
45.125024387054
 21
64.00000177353002
 72
     1
 10
45.125024387054
 20
64.00000177353002
 11
63.875024387054
 21
64.00000177353002
 72
     1
 10
63.875024387054
 20
64.00000177353002
 11
63.875024387054
 21
61.50000177353002
 72
     1
 10
63.875024387054
 20
61.50000177353002
 11
77.875024387054
 21
61.50000177353002
 72
     1
 10
77.875024387054
 20
61.50000177353002
 11
77.875024387054
 21
64.00000177353002
 72
     1
 10
77.875024387054
 20
64.00000177353002
 11
79.12502438707003
 21
64.0000017735
 72
     1
 10
79.12502438707003
 20
64.0000017735
 11
80.71437903341399
 21
64.15946915080002
 72
     1
 10
80.71437903341399
 20
64.15946915080002
 11
82.24037112552298
 21
64.63151382150699
 72
     1
 10
82.24037112552298
 20
64.63151382150699
 11
83.64216417421403
 21
65.39731685425198
 72
     1
 10
83.64216417421403
 20
65.39731685425198
 11
84.86387311425
 21
66.42634809875301
 72
     1
 10
84.86387311425
 20
66.42634809875301
 11
85.85679226551702
 21
67.67758332658502
 72
     1
 10
85.85679226551702
 20
67.67758332658502
 11
86.58133707479197
 21
69.10113973771598
 72
     1
 10
86.58133707479197
 20
69.10113973771598
 11
87.008622226961
 21
70.64026463032803
 72
     1
 10
87.008622226961
 20
70.64026463032803
 11
87.12502438707003
 21
72.0000017735
 72
     1
 10
87.12502438707003
 20
72.0000017735
 11
87.125024387054
 21
74.00000177353002
 72
     1
 10
87.125024387054
 20
74.00000177353002
 11
84.125024387054
 21
74.00000177353002
 72
     1
 10
84.125024387054
 20
74.00000177353002
 11
84.125024387054
 21
78.00000177353002
 72
     1
 10
84.125024387054
 20
78.00000177353002
 11
83.39708391852099
 21
80.00000177353002
 72
     1
 10
83.39708391852099
 20
80.00000177353002
 11
82.125024387054
 21
80.00000177353002
 72
     1
 10
82.125024387054
 20
80.00000177353002
 11
82.12502438707003
 21
69.0000017735
 72
     1
 10
82.12502438707003
 20
69.0000017735
 11
82.07519083165698
 21
68.50332844654201
 72
     1
 10
82.07519083165698
 20
68.50332844654201
 11
81.927676872061
 21
68.02645591775803
 72
     1
 10
81.927676872061
 20
68.02645591775803
 11
81.68836342432797
 21
67.58839559004201
 72
     1
 10
81.68836342432797
 20
67.58839559004201
 11
81.366791160422
 21
67.20661154628101
 72
     1
 10
81.366791160422
 20
67.20661154628101
 11
80.975780151724
 21
66.89632431151
 72
     1
 10
80.975780151724
 20
66.89632431151
 11
80.53091877324499
 21
66.66990405861202
 72
     1
 10
80.53091877324499
 20
66.66990405861202
 11
80.04994224430402
 21
66.536377448559
 72
     1
 10
80.04994224430402
 20
66.536377448559
 11
79.62502438707003
 21
66.5000017735
 72
     1
 10
79.62502438707003
 20
66.5000017735
 11
45.125024387054
 21
66.50000177353002
 97
        0
 75
     1
 76
     2
 52
0.0
 41
1.0
 77
     0
 78
     1
 53
44.99999999999998
 43
0.0
 44
0.0
 45
-4.490128060534577
 46
0.0000000000000018
 79
     0
 98
        1
 10
0.0
 20
0.0
  0
HATCH
  5
254
330
45
100
AcDbEntity
  8
0
  6
Continuous
 62
     7
100
AcDbHatch
 10
0.0
 20
0.0
 30
0.0
210
0.0
220
0.0
230
1.0
  2
CUSTOM3
 70
     0
 71
     0
 91
        1
 92
        1
 93
       22
 72
     1
 10
-60.12497561293
 20
127.2014906452
 11
-57.624975612946
 21
127.201490645188
 72
     1
 10
-57.624975612946
 20
127.201490645188
 11
-57.62497561293
 21
127.7014906452
 72
     1
 10
-57.62497561293
 20
127.7014906452
 11
-57.664842457264
 21
128.098829306778
 72
     1
 10
-57.664842457264
 20
128.098829306778
 11
-57.782853624941
 21
128.480327329805
 72
     1
 10
-57.782853624941
 20
128.480327329805
 11
-57.97430438312699
 21
128.830775591978
 72
     1
 10
-57.97430438312699
 20
128.830775591978
 11
-58.23156219425201
 21
129.136202826987
 72
     1
 10
-58.23156219425201
 20
129.136202826987
 11
-58.54437100121001
 21
129.384432614804
 72
     1
 10
-58.54437100121001
 20
129.384432614804
 11
-58.90026010399299
 21
129.565568817122
 72
     1
 10
-58.90026010399299
 20
129.565568817122
 11
-59.28504132714599
 21
129.672390105165
 72
     1
 10
-59.28504132714599
 20
129.672390105165
 11
-59.62497561293
 21
129.7014906452
 72
     1
 10
-59.62497561293
 20
129.7014906452
 11
-70.124975612946
 21
129.701490645188
 72
     1
 10
-70.124975612946
 20
129.701490645188
 11
-70.124975612946
 21
127.201490645188
 72
     1
 10
-70.124975612946
 20
127.201490645188
 11
-68.97027561294601
 21
125.201490645188
 72
     1
 10
-68.97027561294601
 20
125.201490645188
 11
-62.12497561293
 21
125.2014906452
 72
     1
 10
-62.12497561293
 20
125.2014906452
 11
-62.085108768629
 21
125.598829306778
 72
     1
 10
-62.085108768629
 20
125.598829306778
 11
-61.967097600952
 21
125.980327329805
 72
     1
 10
-61.967097600952
 20
125.980327329805
 11
-61.77564684276601
 21
126.330775591978
 72
     1
 10
-61.77564684276601
 20
126.330775591978
 11
-61.51838903164099
 21
126.636202826987
 72
     1
 10
-61.51838903164099
 20
126.636202826987
 11
-61.20558022468299
 21
126.884432614804
 72
     1
 10
-61.20558022468299
 20
126.884432614804
 11
-60.84969112190001
 21
127.065568817122
 72
     1
 10
-60.84969112190001
 20
127.065568817122
 11
-60.46490989874701
 21
127.172390105165
 72
     1
 10
-60.46490989874701
 20
127.172390105165
 11
-60.12497561293
 21
127.2014906452
 97
        0
 75
     1
 76
     2
 52
0.0
 41
1.0
 77
     0
 78
     1
 53
44.99999999999998
 43
0.0
 44
0.0
 45
-4.490128060534577
 46
0.0000000000000018
 79
     0
 98
        1
 10
0.0
 20
0.0
  0
HATCH
  5
255
330
45
100
AcDbEntity
  8
0
  6
Continuous
 62
     7
100
AcDbHatch
 10
0.0
 20
0.0
 30
0.0
210
0.0
220
0.0
230
1.0
  2
CUSTOM4
 70
     0
 71
     0
 91
        1
 92
        1
 93
       22
 72
     1
 10
71.875024387054
 20
127.201490645188
 11
74.37502438707003
 21
127.2014906452
 72
     1
 10
74.37502438707003
 20
127.2014906452
 11
74.77236304864402
 21
127.16162380087
 72
     1
 10
74.77236304864402
 20
127.16162380087
 11
75.15386107167103
 21
127.043612633194
 72
     1
 10
75.15386107167103
 20
127.043612633194
 11
75.50430933384399
 21
126.852161875007
 72
     1
 10
75.50430933384399
 20
126.852161875007
 11
75.809736568853
 21
126.594904063882
 72
     1
 10
75.809736568853
 20
126.594904063882
 11
76.05796635667002
 21
126.282095256924
 72
     1
 10
76.05796635667002
 20
126.282095256924
 11
76.23910255898801
 21
125.926206154141
 72
     1
 10
76.23910255898801
 20
125.926206154141
 11
76.34592384703097
 21
125.541424930988
 72
     1
 10
76.34592384703097
 20
125.541424930988
 11
76.37502438707003
 21
125.2014906452
 72
     1
 10
76.37502438707003
 20
125.2014906452
 11
83.220324387054
 21
125.201490645188
 72
     1
 10
83.220324387054
 20
125.201490645188
 11
84.375024387054
 21
127.201490645188
 72
     1
 10
84.375024387054
 20
127.201490645188
 11
84.375024387054
 21
129.701490645188
 72
     1
 10
84.375024387054
 20
129.701490645188
 11
73.87502438707003
 21
129.7014906452
 72
     1
 10
73.87502438707003
 20
129.7014906452
 11
73.47768572546403
 21
129.66162380087
 72
     1
 10
73.47768572546403
 20
129.66162380087
 11
73.096187702436
 21
129.543612633194
 72
     1
 10
73.096187702436
 20
129.543612633194
 11
72.745739440264
 21
129.352161875007
 72
     1
 10
72.745739440264
 20
129.352161875007
 11
72.440312205255
 21
129.094904063882
 72
     1
 10
72.440312205255
 20
129.094904063882
 11
72.19208241743803
 21
128.782095256924
 72
     1
 10
72.19208241743803
 20
128.782095256924
 11
72.01094621511902
 21
128.426206154141
 72
     1
 10
72.01094621511902
 20
128.426206154141
 11
71.90412492707702
 21
128.041424930988
 72
     1
 10
71.90412492707702
 20
128.041424930988
 11
71.87502438707003
 21
127.7014906452
 72
     1
 10
71.87502438707003
 20
127.7014906452
 11
71.875024387054
 21
127.201490645188
 97
        0
 75
     1
 76
     2
 52
0.0
 41
1.0
 77
     0
 78
     1
 53
44.99999999999998
 43
0.0
 44
0.0
 45
-4.490128060534577
 46
0.0000000000000018
 79
     0
 98
        1
 10
0.0
 20
0.0
  0
HATCH
  5
256
330
45
100
AcDbEntity
  8
0
  6
Continuous
 62
     7
100
AcDbHatch
 10
0.0
 20
0.0
 30
0.0
210
0.0
220
0.0
230
1.0
  2
CUSTOM5
 70
     0
 71
     0
 91
        1
 92
        1
 93
       13
 72
     1
 10
-162.8749756129464
 20
159.999919886843
 11
-170.87497561293
 21
159.9999198868
 72
     1
 10
-170.87497561293
 20
159.9999198868
 11
-171.2723142745364
 21
159.960053042525
 72
     1
 10
-171.2723142745364
 20
159.960053042525
 11
-171.6538122975636
 21
159.842041874848
 72
     1
 10
-171.6538122975636
 20
159.842041874848
 11
-172.0042605597364
 21
159.650591116662
 72
     1
 10
-172.0042605597364
 20
159.650591116662
 11
-172.3096877947454
 21
159.393333305537
 72
     1
 10
-172.3096877947454
 20
159.393333305537
 11
-172.5579175825621
 21
159.080524498579
 72
     1
 10
-172.5579175825621
 20
159.080524498579
 11
-172.7390537848808
 21
158.724635395796
 72
     1
 10
-172.7390537848808
 20
158.724635395796
 11
-172.8458750729232
 21
158.339854172643
 72
     1
 10
-172.8458750729232
 20
158.339854172643
 11
-172.87497561293
 21
157.9999198868
 72
     1
 10
-172.87497561293
 20
157.9999198868
 11
-172.87497561293
 21
156.4999897735
 72
     1
 10
-172.87497561293
 20
156.4999897735
 11
-160.8749756129464
 21
156.49998977353
 72
     1
 10
-160.8749756129464
 20
156.49998977353
 11
-160.8749756129464
 21
157.999919886843
 72
     1
 10
-160.8749756129464
 20
157.999919886843
 11
-162.8749756129464
 21
159.999919886843
 97
        0
 75
     1
 76
     2
 52
0.0
 41
1.0
 77
     0
 78
     1
 53
44.99999999999998
 43
0.0
 44
0.0
 45
-4.490128060534577
 46
0.0000000000000018
 79
     0
 98
        1
 10
0.0
 20
0.0
  0
HATCH
  5
257
330
45
100
AcDbEntity
  8
0
  6
Continuous
 62
     7
100
AcDbHatch
 10
0.0
 20
0.0
 30
0.0
210
0.0
220
0.0
230
1.0
  2
CUSTOM6
 70
     0
 71
     0
 91
        1
 92
        1
 93
       71
 72
     1
 10
-65.77497561294601
 20
121.70194177353
 11
-65.77497561293
 21
114.9999997735
 72
     1
 10
-65.77497561293
 20
114.9999997735
 11
-65.72514205754999
 21
114.503326446542
 72
     1
 10
-65.72514205754999
 20
114.503326446542
 11
-65.577628097954
 21
114.026453917758
 72
     1
 10
-65.577628097954
 20
114.026453917758
 11
-65.33831465022101
 21
113.588393590042
 72
     1
 10
-65.33831465022101
 20
113.588393590042
 11
-65.01674238631401
 21
113.206609546281
 72
     1
 10
-65.01674238631401
 20
113.206609546281
 11
-64.625731377617
 21
112.89632231151
 72
     1
 10
-64.625731377617
 20
112.89632231151
 11
-64.180869999138
 21
112.669902058612
 72
     1
 10
-64.180869999138
 20
112.669902058612
 11
-63.699893470197
 21
112.536375448559
 72
     1
 10
-63.699893470197
 20
112.536375448559
 11
-63.27497561293001
 21
112.4999997735
 72
     1
 10
-63.27497561293001
 20
112.4999997735
 11
-59.874975612946
 21
112.49999977353
 72
     1
 10
-59.874975612946
 20
112.49999977353
 11
-59.874975612946
 21
73.00000177353002
 72
     1
 10
-59.874975612946
 20
73.00000177353002
 11
-33.29366225310801
 21
73.00000177353002
 72
     1
 10
-33.29366225310801
 20
73.00000177353002
 11
-30.374975612946
 21
72.74999977353002
 72
     1
 10
-30.374975612946
 20
72.74999977353002
 11
-30.37497561293
 21
4.999999773500008
 72
     1
 10
-30.37497561293
 20
4.999999773500008
 11
-29.03522965082999
 21
-0.0000002264999921
 72
     1
 10
-29.03522965082999
 20
-0.0000002264999921
 11
-26.874975612946
 21
-0.0000002264700072
 72
     1
 10
-26.874975612946
 20
-0.0000002264700072
 11
-26.874975612946
 21
76.499550215976
 72
     1
 10
-26.874975612946
 20
76.499550215976
 11
-56.374975612946
 21
76.499550215976
 72
     1
 10
-56.374975612946
 20
76.499550215976
 11
-56.37497561293
 21
114.9999997735
 72
     1
 10
-56.37497561293
 20
114.9999997735
 11
-56.394909035105
 21
115.198669104325
 72
     1
 10
-56.394909035105
 20
115.198669104325
 11
-56.453914618943
 21
115.389418115838
 72
     1
 10
-56.453914618943
 20
115.389418115838
 11
-56.54963999803701
 21
115.564642246925
 72
     1
 10
-56.54963999803701
 20
115.564642246925
 11
-56.67826890359899
 21
115.717355864429
 72
     1
 10
-56.67826890359899
 20
115.717355864429
 11
-56.83467330707799
 21
115.841470758338
 72
     1
 10
-56.83467330707799
 20
115.841470758338
 11
-57.01261785847001
 21
115.932038859497
 72
     1
 10
-57.01261785847001
 20
115.932038859497
 11
-57.20500847004601
 21
115.985449503518
 72
     1
 10
-57.20500847004601
 20
115.985449503518
 11
-57.37497561293
 21
115.9999997735
 72
     1
 10
-57.37497561293
 20
115.9999997735
 11
-61.27497561293001
 21
115.9999997735
 72
     1
 10
-61.27497561293001
 20
115.9999997735
 11
-61.47364494374099
 21
116.019933195689
 72
     1
 10
-61.47364494374099
 20
116.019933195689
 11
-61.66439395525501
 21
116.078938779527
 72
     1
 10
-61.66439395525501
 20
116.078938779527
 11
-61.83961808634101
 21
116.17466415862
 72
     1
 10
-61.83961808634101
 20
116.17466415862
 11
-61.99233170384599
 21
116.303293064183
 72
     1
 10
-61.99233170384599
 20
116.303293064183
 11
-62.11644659775399
 21
116.459697467662
 72
     1
 10
-62.11644659775399
 20
116.459697467662
 11
-62.20701469891401
 21
116.637642019053
 72
     1
 10
-62.20701469891401
 20
116.637642019053
 11
-62.26042534293501
 21
116.83003263063
 72
     1
 10
-62.26042534293501
 20
116.83003263063
 11
-62.27497561293001
 21
116.9999997735
 72
     1
 10
-62.27497561293001
 20
116.9999997735
 11
-62.27497561293001
 21
124.2014906452
 72
     1
 10
-62.27497561293001
 20
124.2014906452
 11
-62.29490903510501
 21
124.400159975983
 72
     1
 10
-62.29490903510501
 20
124.400159975983
 11
-62.353914618944
 21
124.590908987496
 72
     1
 10
-62.353914618944
 20
124.590908987496
 11
-62.44963999803699
 21
124.766133118583
 72
     1
 10
-62.44963999803699
 20
124.766133118583
 11
-62.578268903599
 21
124.918846736087
 72
     1
 10
-62.578268903599
 20
124.918846736087
 11
-62.734673307078
 21
125.042961629996
 72
     1
 10
-62.734673307078
 20
125.042961629996
 11
-62.91261785846999
 21
125.133529731155
 72
     1
 10
-62.91261785846999
 20
125.133529731155
 11
-63.10500847004599
 21
125.186940375176
 72
     1
 10
-63.10500847004599
 20
125.186940375176
 11
-63.27497561293001
 21
125.2014906452
 72
     1
 10
-63.27497561293001
 20
125.2014906452
 11
-69.874975612946
 21
125.201490645188
 72
     1
 10
-69.874975612946
 20
125.201490645188
 11
-69.874975612946
 21
129.79999977353
 72
     1
 10
-69.874975612946
 20
129.79999977353
 11
-68.374975612946
 21
130.79999977353
 72
     1
 10
-68.374975612946
 20
130.79999977353
 11
-68.374975612946
 21
135.056918645188
 72
     1
 10
-68.374975612946
 20
135.056918645188
 11
-67.62506397679999
 21
135.49999977353
 72
     1
 10
-67.62506397679999
 20
135.49999977353
 11
-67.62506397679999
 21
136.39999977353
 72
     1
 10
-67.62506397679999
 20
136.39999977353
 11
-71.624925559026
 21
143.301832206804
 72
     1
 10
-71.624925559026
 20
143.301832206804
 11
-71.624972615334
 21
158.999922884455
 72
     1
 10
-71.624972615334
 20
158.999922884455
 11
-71.644906633072
 21
159.198592155539
 72
     1
 10
-71.644906633072
 20
159.198592155539
 11
-71.70391278871
 21
159.389340990173
 72
     1
 10
-71.70391278871
 20
159.389340990173
 11
-71.79963869306499
 21
159.564564834307
 72
     1
 10
-71.79963869306499
 20
159.564564834307
 11
-71.928268056409
 21
159.717278066226
 72
     1
 10
-71.928268056409
 20
159.717278066226
 11
-72.08467283194099
 21
159.841392491287
 72
     1
 10
-72.08467283194099
 20
159.841392491287
 11
-72.262617654824
 21
159.93196005903
 72
     1
 10
-72.262617654824
 20
159.93196005903
 11
-72.455008426506
 21
159.98537012633
 72
     1
 10
-72.455008426506
 20
159.98537012633
 11
-72.62497261533
 21
159.9999198868
 72
     1
 10
-72.62497261533
 20
159.9999198868
 11
-154.87497561293
 21
159.9999198868
 72
     1
 10
-154.87497561293
 20
159.9999198868
 11
-156.8749756129464
 21
157.999919886843
 72
     1
 10
-156.8749756129464
 20
157.999919886843
 11
-156.8749756129464
 21
156.49998977353
 72
     1
 10
-156.8749756129464
 20
156.49998977353
 11
-75.124975612946
 21
156.49998977353
 72
     1
 10
-75.124975612946
 20
156.49998977353
 11
-75.124956612946
 21
142.39999977353
 72
     1
 10
-75.124956612946
 20
142.39999977353
 11
-72.974975612946
 21
138.59999977353
 72
     1
 10
-72.974975612946
 20
138.59999977353
 11
-72.97497561293
 21
74.0000017735
 72
     1
 10
-72.97497561293
 20
74.0000017735
 11
-70.124975612946
 21
74.00000177353002
 72
     1
 10
-70.124975612946
 20
74.00000177353002
 11
-69.474975612946
 21
121.70194177353
 72
     1
 10
-69.474975612946
 20
121.70194177353
 11
-65.77497561294601
 21
121.70194177353
 97
        0
 75
     1
 76
     2
 52
0.0
 41
1.0
 77
     0
 78
     1
 53
44.99999999999998
 43
0.0
 44
0.0
 45
-4.490128060534577
 46
0.0000000000000018
 79
     0
 98
        1
 10
0.0
 20
0.0
  0
HATCH
  5
258
330
45
100
AcDbEntity
  8
0
  6
Continuous
 62
     7
100
AcDbHatch
 10
0.0
 20
0.0
 30
0.0
210
0.0
220
0.0
230
1.0
  2
CUSTOM7
 70
     0
 71
     0
 91
        1
 92
        1
 93
       71
 72
     1
 10
74.125024387054
 20
112.49999977353
 11
77.52502438707
 21
112.4999997735
 72
     1
 10
77.52502438707
 20
112.4999997735
 11
78.02169771404101
 21
112.549833328927
 72
     1
 10
78.02169771404101
 20
112.549833328927
 11
78.498570242825
 21
112.697347288523
 72
     1
 10
78.498570242825
 20
112.697347288523
 11
78.93663057054101
 21
112.936660736256
 72
     1
 10
78.93663057054101
 20
112.936660736256
 11
79.31841461430298
 21
113.258233000162
 72
     1
 10
79.31841461430298
 20
113.258233000162
 11
79.62870184907302
 21
113.649244008859
 72
     1
 10
79.62870184907302
 20
113.649244008859
 11
79.85512210197203
 21
114.094105387338
 72
     1
 10
79.85512210197203
 20
114.094105387338
 11
79.988648712025
 21
114.575081916279
 72
     1
 10
79.988648712025
 20
114.575081916279
 11
80.02502438707
 21
114.9999997735
 72
     1
 10
80.02502438707
 20
114.9999997735
 11
80.02502438705397
 21
121.70194177353
 72
     1
 10
80.02502438705397
 20
121.70194177353
 11
83.72502438705402
 21
121.70194177353
 72
     1
 10
83.72502438705402
 20
121.70194177353
 11
84.375024387054
 21
74.00000177353002
 72
     1
 10
84.375024387054
 20
74.00000177353002
 11
87.22502438707
 21
74.0000017735
 72
     1
 10
87.22502438707
 20
74.0000017735
 11
87.22502438705402
 21
138.59999977353
 72
     1
 10
87.22502438705402
 20
138.59999977353
 11
89.37500538705399
 21
142.39999977353
 72
     1
 10
89.37500538705399
 20
142.39999977353
 11
89.375024387054
 21
156.49998977353
 72
     1
 10
89.375024387054
 20
156.49998977353
 11
171.125024387054
 21
156.49998977353
 72
     1
 10
171.125024387054
 20
156.49998977353
 11
171.125024387054
 21
157.999919886843
 72
     1
 10
171.125024387054
 20
157.999919886843
 11
169.125024387054
 21
159.999919886843
 72
     1
 10
169.125024387054
 20
159.999919886843
 11
86.87502138947002
 21
159.9999198868
 72
     1
 10
86.87502138947002
 20
159.9999198868
 11
86.67635205867902
 21
159.979986464684
 72
     1
 10
86.67635205867902
 20
159.979986464684
 11
86.48560304716602
 21
159.920980880846
 72
     1
 10
86.48560304716602
 20
159.920980880846
 11
86.310378916079
 21
159.825255501752
 72
     1
 10
86.310378916079
 20
159.825255501752
 11
86.15766529857501
 21
159.69662659619
 72
     1
 10
86.15766529857501
 20
159.69662659619
 11
86.03355040466602
 21
159.540222192711
 72
     1
 10
86.03355040466602
 20
159.540222192711
 11
85.942982303507
 21
159.362277641319
 72
     1
 10
85.942982303507
 20
159.362277641319
 11
85.88957165948602
 21
159.169887029743
 72
     1
 10
85.88957165948602
 20
159.169887029743
 11
85.87502138947502
 21
158.999922884455
 72
     1
 10
85.87502138947502
 20
158.999922884455
 11
85.87497433313303
 21
143.301832206804
 72
     1
 10
85.87497433313303
 20
143.301832206804
 11
81.87511275090799
 21
136.39999977353
 72
     1
 10
81.87511275090799
 20
136.39999977353
 11
81.87511275090799
 21
135.49999977353
 72
     1
 10
81.87511275090799
 20
135.49999977353
 11
82.625024387054
 21
135.056918645188
 72
     1
 10
82.625024387054
 20
135.056918645188
 11
82.625024387054
 21
130.79999977353
 72
     1
 10
82.625024387054
 20
130.79999977353
 11
84.125024387054
 21
129.79999977353
 72
     1
 10
84.125024387054
 20
129.79999977353
 11
84.125024387054
 21
125.201490645188
 72
     1
 10
84.125024387054
 20
125.201490645188
 11
77.52502438707
 21
125.2014906452
 72
     1
 10
77.52502438707
 20
125.2014906452
 11
77.32635505625899
 21
125.181557223029
 72
     1
 10
77.32635505625899
 20
125.181557223029
 11
77.13560604474497
 21
125.122551639191
 72
     1
 10
77.13560604474497
 20
125.122551639191
 11
76.96038191365898
 21
125.026826260097
 72
     1
 10
76.96038191365898
 20
125.026826260097
 11
76.80766829615402
 21
124.898197354535
 72
     1
 10
76.80766829615402
 20
124.898197354535
 11
76.68355340224599
 21
124.741792951056
 72
     1
 10
76.68355340224599
 20
124.741792951056
 11
76.592985301086
 21
124.563848399664
 72
     1
 10
76.592985301086
 20
124.563848399664
 11
76.53957465706497
 21
124.371457788088
 72
     1
 10
76.53957465706497
 20
124.371457788088
 11
76.52502438707
 21
124.2014906452
 72
     1
 10
76.52502438707
 20
124.2014906452
 11
76.52502438707
 21
116.9999997735
 72
     1
 10
76.52502438707
 20
116.9999997735
 11
76.50509096489498
 21
116.801330442735
 72
     1
 10
76.50509096489498
 20
116.801330442735
 11
76.446085381057
 21
116.610581431221
 72
     1
 10
76.446085381057
 20
116.610581431221
 11
76.350360001963
 21
116.435357300135
 72
     1
 10
76.350360001963
 20
116.435357300135
 11
76.22173109640102
 21
116.28264368263
 72
     1
 10
76.22173109640102
 20
116.28264368263
 11
76.06532669292199
 21
116.158528788722
 72
     1
 10
76.06532669292199
 20
116.158528788722
 11
75.88738214153
 21
116.067960687563
 72
     1
 10
75.88738214153
 20
116.067960687563
 11
75.694991529954
 21
116.014550043541
 72
     1
 10
75.694991529954
 20
116.014550043541
 11
75.52502438707
 21
115.9999997735
 72
     1
 10
75.52502438707
 20
115.9999997735
 11
71.62502438707003
 21
115.9999997735
 72
     1
 10
71.62502438707003
 20
115.9999997735
 11
71.42635505625901
 21
115.980066351371
 72
     1
 10
71.42635505625901
 20
115.980066351371
 11
71.235606044745
 21
115.921060767533
 72
     1
 10
71.235606044745
 20
115.921060767533
 11
71.060381913659
 21
115.825335388439
 72
     1
 10
71.060381913659
 20
115.825335388439
 11
70.90766829615399
 21
115.696706482877
 72
     1
 10
70.90766829615399
 20
115.696706482877
 11
70.78355340224601
 21
115.540302079398
 72
     1
 10
70.78355340224601
 20
115.540302079398
 11
70.69298530108603
 21
115.362357528006
 72
     1
 10
70.69298530108603
 20
115.362357528006
 11
70.639574657065
 21
115.16996691643
 72
     1
 10
70.639574657065
 20
115.16996691643
 11
70.62502438707003
 21
114.9999997735
 72
     1
 10
70.62502438707003
 20
114.9999997735
 11
70.625024387054
 21
76.499550215976
 72
     1
 10
70.625024387054
 20
76.499550215976
 11
41.125024387054
 21
76.499550215976
 72
     1
 10
41.125024387054
 20
76.499550215976
 11
41.125024387054
 21
-0.0000002264700072
 72
     1
 10
41.125024387054
 20
-0.0000002264700072
 11
43.28527842489802
 21
-0.0000002264700072
 72
     1
 10
43.28527842489802
 20
-0.0000002264700072
 11
44.62502438707003
 21
4.999999773500008
 72
     1
 10
44.62502438707003
 20
4.999999773500008
 11
44.625024387054
 21
72.74999977353002
 72
     1
 10
44.625024387054
 20
72.74999977353002
 11
47.54371102721598
 21
73.00000177353002
 72
     1
 10
47.54371102721598
 20
73.00000177353002
 11
74.125024387054
 21
73.00000177353002
 72
     1
 10
74.125024387054
 20
73.00000177353002
 11
74.125024387054
 21
112.49999977353
 97
        0
 75
     1
 76
     2
 52
0.0
 41
1.0
 77
     0
 78
     1
 53
44.99999999999998
 43
0.0
 44
0.0
 45
-4.490128060534577
 46
0.0000000000000018
 79
     0
 98
        1
 10
0.0
 20
0.0
  0
HATCH
  5
259
330
45
100
AcDbEntity
  8
0
  6
Continuous
 62
     7
100
AcDbHatch
 10
0.0
 20
0.0
 30
0.0
210
0.0
220
0.0
230
1.0
  2
CUSTOM8
 70
     0
 71
     0
 91
        1
 92
        1
 93
       13
 72
     1
 10
187.12502438707
 20
156.4999897735
 11
187.12502438707
 21
157.9999198868
 72
     1
 10
187.12502438707
 20
157.9999198868
 11
187.085157542736
 21
158.397258548433
 72
     1
 10
187.085157542736
 20
158.397258548433
 11
186.967146375059
 21
158.77875657146
 72
     1
 10
186.967146375059
 20
158.77875657146
 11
186.775695616873
 21
159.129204833633
 72
     1
 10
186.775695616873
 20
159.129204833633
 11
186.518437805748
 21
159.434632068642
 72
     1
 10
186.518437805748
 20
159.434632068642
 11
186.20562899879
 21
159.682861856458
 72
     1
 10
186.20562899879
 20
159.682861856458
 11
185.849739896007
 21
159.863998058777
 72
     1
 10
185.849739896007
 20
159.863998058777
 11
185.464958672854
 21
159.97081934682
 72
     1
 10
185.464958672854
 20
159.97081934682
 11
185.12502438707
 21
159.9999198868
 72
     1
 10
185.12502438707
 20
159.9999198868
 11
177.125024387054
 21
159.999919886843
 72
     1
 10
177.125024387054
 20
159.999919886843
 11
175.125024387054
 21
157.999919886843
 72
     1
 10
175.125024387054
 20
157.999919886843
 11
175.125024387054
 21
156.49998977353
 72
     1
 10
175.125024387054
 20
156.49998977353
 11
187.12502438707
 21
156.4999897735
 97
        0
 75
     1
 76
     2
 52
0.0
 41
1.0
 77
     0
 78
     1
 53
44.99999999999998
 43
0.0
 44
0.0
 45
-4.490128060534577
 46
0.0000000000000018
 79
     0
 98
        1
 10
0.0
 20
0.0
  0
ENDBLK
  5
47
330
45
100
AcDbEntity
  8
0
100
AcDbBlockEnd
  0
BLOCK
  5
6C
330
48
100
AcDbEntity
  8
0
100
AcDbBlockBegin
  2
Dachablauf__HL62_7PVC
 70
     0
 10
-17.78466440592
 20
110.0360597472033
 30
0.0
  3
Dachablauf__HL62_7PVC
  1

  0
INSERT
  5
6B
330
48
100
AcDbEntity
  8
0
100
AcDbBlockReference
  2
HL62P_7
 10
-17.78466440592
 20
110.0360597472033
 30
0.0
  0
ENDBLK
  5
6D
330
48
100
AcDbEntity
  8
0
100
AcDbBlockEnd
  0
BLOCK
  5
221
330
219
100
AcDbEntity
  8
0
100
AcDbBlockBegin
  2
*D3
 70
     1
 10
0.0
 20
0.0
 30
0.0
  3
*D3
  1

  0
LINE
  5
21A
330
219
100
AcDbEntity
  8
1
  6
Continuous
 62
     4
100
AcDbLine
 10
-188.435649701682
 20
159.9999219179
 30
0.0
 11
-188.435649701682
 21
64.00000117720003
 31
0.0
  0
LINE
  5
21B
330
219
100
AcDbEntity
  8
1
  6
Continuous
 62
     4
100
AcDbLine
 10
-64.87497472953001
 20
64.00000117720003
 30
0.0
 11
-190.435649701682
 21
64.00000117720003
 31
0.0
  0
LINE
  5
21C
330
219
100
AcDbEntity
  8
1
  6
Continuous
 62
     4
100
AcDbLine
 10
-162.87497961713
 20
159.9999219179
 30
0.0
 11
-190.435649701682
 21
159.9999219179
 31
0.0
  0
SOLID
  5
21D
330
219
100
AcDbEntity
  8
1
 62
     4
100
AcDbTrace
 10
-187.119124725808
 20
149.9999219179
 30
0.0
 11
-189.752174677556
 21
149.9999219179
 31
0.0
 12
-188.435649701682
 22
159.9999219179
 32
0.0
 13
-188.435649701682
 23
159.9999219179
 33
0.0
  0
SOLID
  5
21E
330
219
100
AcDbEntity
  8
1
 62
     4
100
AcDbTrace
 10
-189.752174677556
 20
74.00000117720003
 30
0.0
 11
-187.119124725808
 21
74.00000117720003
 31
0.0
 12
-188.435649701682
 22
64.00000117720003
 32
0.0
 13
-188.435649701682
 23
64.00000117720003
 33
0.0
  0
MTEXT
  5
220
330
219
100
AcDbEntity
  8
1
 62
     1
100
AcDbMText
 10
-190.435649701682
 20
104.1948994255
 30
0.0
 40
10.0
 41
0.0
 71
     7
 72
     1
  1
96
  7
CONVERTER_11
 11
0.0
 21
1.0
 31
0.0
 73
     1
 44
0.60024009603842
  0
ENDBLK
  5
222
330
219
100
AcDbEntity
  8
0
100
AcDbBlockEnd
  0
BLOCK
  5
22C
330
225
100
AcDbEntity
  8
0
100
AcDbBlockBegin
  2
*D4
 70
     1
 10
0.0
 20
0.0
 30
0.0
  3
*D4
  1

  0
LINE
  5
226
330
225
100
AcDbEntity
  8
1
  6
Continuous
 62
     4
100
AcDbLine
 10
-210.76935813541
 20
159.9999219179
 30
0.0
 11
-210.76935813541
 21
0.0
 31
0.0
  0
LINE
  5
227
330
225
100
AcDbEntity
  8
1
  6
Continuous
 62
     4
100
AcDbLine
 10
-29.03523081732999
 20
0.0
 30
0.0
 11
-212.76935813541
 21
0.0
 31
0.0
  0
LINE
  5
228
330
225
100
AcDbEntity
  8
1
  6
Continuous
 62
     4
100
AcDbLine
 10
-170.87498092843
 20
159.9999219179
 30
0.0
 11
-212.76935813541
 21
159.9999219179
 31
0.0
  0
SOLID
  5
229
330
225
100
AcDbEntity
  8
1
 62
     4
100
AcDbTrace
 10
-209.452833159536
 20
149.9999219179
 30
0.0
 11
-212.0858831112839
 21
149.9999219179
 31
0.0
 12
-210.76935813541
 22
159.9999219179
 32
0.0
 13
-210.76935813541
 23
159.9999219179
 33
0.0
  0
SOLID
  5
22A
330
225
100
AcDbEntity
  8
1
 62
     4
100
AcDbTrace
 10
-212.0858831112839
 20
10.0
 30
0.0
 11
-209.452833159536
 21
10.0
 31
0.0
 12
-210.76935813541
 22
0.0
 32
0.0
 13
-210.76935813541
 23
0.0
 33
0.0
  0
MTEXT
  5
22B
330
225
100
AcDbEntity
  8
1
 62
     1
100
AcDbMText
 10
-212.76935813541
 20
69.1057033846264
 30
0.0
 40
10.0
 41
0.0
 71
     7
 72
     1
  1
160
  7
CONVERTER_11
 11
0.0
 21
1.0
 31
0.0
 73
     1
 44
0.60024009603842
  0
ENDBLK
  5
22D
330
225
100
AcDbEntity
  8
0
100
AcDbBlockEnd
  0
BLOCK
  5
237
330
230
100
AcDbEntity
  8
0
100
AcDbBlockBegin
  2
*D5
 70
     1
 10
0.0
 20
0.0
 30
0.0
  3
*D5
  1

  0
LINE
  5
231
330
230
100
AcDbEntity
  8
1
  6
Continuous
 62
     4
100
AcDbLine
 10
-72.97497773363
 20
-50.9386465990373
 30
0.0
 11
87.22502207566998
 21
-50.9386465990373
 31
0.0
  0
LINE
  5
232
330
230
100
AcDbEntity
  8
1
  6
Continuous
 62
     4
100
AcDbLine
 10
87.22502207566998
 20
74.00000095360001
 30
0.0
 11
87.22502207566998
 21
-52.9386465990373
 31
0.0
  0
LINE
  5
233
330
230
100
AcDbEntity
  8
1
  6
Continuous
 62
     4
100
AcDbLine
 10
-72.97497773363
 20
74.00000095360001
 30
0.0
 11
-72.97497773363
 21
-52.9386465990373
 31
0.0
  0
SOLID
  5
234
330
230
100
AcDbEntity
  8
1
 62
     4
100
AcDbTrace
 10
-62.97497773363
 20
-49.62212162316334
 30
0.0
 11
-62.97497773363
 21
-52.25517157491126
 31
0.0
 12
-72.97497773363
 22
-50.9386465990373
 32
0.0
 13
-72.97497773363
 23
-50.9386465990373
 33
0.0
  0
SOLID
  5
235
330
230
100
AcDbEntity
  8
1
 62
     4
100
AcDbTrace
 10
77.22502207566998
 20
-52.25517157491125
 30
0.0
 11
77.22502207566998
 21
-49.62212162316334
 31
0.0
 12
87.22502207566998
 22
-50.9386465990373
 32
0.0
 13
87.22502207566998
 23
-50.9386465990373
 33
0.0
  0
MTEXT
  5
236
330
230
100
AcDbEntity
  8
1
 62
     1
100
AcDbMText
 10
-13.3757266451344
 20
-48.93868635375915
 30
0.0
 40
10.0
 41
0.0
 71
     7
 72
     1
  1
\C1;%%c\C1;160
  7
CONVERTER_11
 11
0.9999999999970619
 21
2.424068405545306E-6
 31
0.0
 73
     1
 44
0.60024009603842
  0
ENDBLK
  5
238
330
230
100
AcDbEntity
  8
0
100
AcDbBlockEnd
  0
BLOCK
  5
242
330
23B
100
AcDbEntity
  8
0
100
AcDbBlockBegin
  2
*D6
 70
     1
 10
0.0
 20
0.0
 30
0.0
  3
*D6
  1

  0
LINE
  5
23C
330
23B
100
AcDbEntity
  8
1
  6
Continuous
 62
     4
100
AcDbLine
 10
-30.37497559382999
 20
-24.5277565660401
 30
0.0
 11
44.62502366117002
 21
-24.5277565660401
 31
0.0
  0
LINE
  5
23D
330
23B
100
AcDbEntity
  8
1
  6
Continuous
 62
     4
100
AcDbLine
 10
44.62502366117002
 20
5.00000268220001
 30
0.0
 11
44.62502366117002
 21
-26.5277565660401
 31
0.0
  0
LINE
  5
23E
330
23B
100
AcDbEntity
  8
1
  6
Continuous
 62
     4
100
AcDbLine
 10
-30.37497559382999
 20
5.00000268220001
 30
0.0
 11
-30.37497559382999
 21
-26.5277565660401
 31
0.0
  0
SOLID
  5
23F
330
23B
100
AcDbEntity
  8
1
 62
     4
100
AcDbTrace
 10
-20.37497559382999
 20
-23.21123159016614
 30
0.0
 11
-20.37497559382999
 21
-25.84428154191406
 31
0.0
 12
-30.37497559382999
 22
-24.5277565660401
 32
0.0
 13
-30.37497559382999
 23
-24.5277565660401
 33
0.0
  0
SOLID
  5
240
330
23B
100
AcDbEntity
  8
1
 62
     4
100
AcDbTrace
 10
34.62502366117002
 20
-25.84428154191406
 30
0.0
 11
34.62502366117002
 21
-23.21123159016614
 31
0.0
 12
44.62502366117002
 22
-24.5277565660401
 32
0.0
 13
44.62502366117002
 23
-24.5277565660401
 33
0.0
  0
MTEXT
  5
241
330
23B
100
AcDbEntity
  8
1
 62
     1
100
AcDbMText
 10
-5.24226692120673
 20
-22.52779632076195
 30
0.0
 40
10.0
 41
0.0
 71
     7
 72
     1
  1
\C1;DN\C1;75
  7
CONVERTER_11
 11
0.9999999999970619
 21
2.424068405545306E-6
 31
0.0
 73
     1
 44
0.60024009603842
  0
ENDBLK
  5
243
330
23B
100
AcDbEntity
  8
0
100
AcDbBlockEnd
  0
BLOCK
  5
24D
330
246
100
AcDbEntity
  8
0
100
AcDbBlockBegin
  2
*D7
 70
     1
 10
0.0
 20
0.0
 30
0.0
  3
*D7
  1

  0
LINE
  5
247
330
246
100
AcDbEntity
  8
1
  6
Continuous
 62
     4
100
AcDbLine
 10
-172.87497008033
 20
261.010766093444
 30
0.0
 11
187.12502932357
 21
261.010766093444
 31
0.0
  0
LINE
  5
248
330
246
100
AcDbEntity
  8
1
  6
Continuous
 62
     4
100
AcDbLine
 10
187.12502932357
 20
157.9999178648
 30
0.0
 11
187.12502932357
 21
263.010766093444
 31
0.0
  0
LINE
  5
249
330
246
100
AcDbEntity
  8
1
  6
Continuous
 62
     4
100
AcDbLine
 10
-172.87497008033
 20
157.9999178648
 30
0.0
 11
-172.87497008033
 21
263.010766093444
 31
0.0
  0
SOLID
  5
24A
330
246
100
AcDbEntity
  8
1
 62
     4
100
AcDbTrace
 10
-162.87497008033
 20
262.3272910693179
 30
0.0
 11
-162.87497008033
 21
259.69424111757
 31
0.0
 12
-172.87497008033
 22
261.010766093444
 32
0.0
 13
-172.87497008033
 23
261.010766093444
 33
0.0
  0
SOLID
  5
24B
330
246
100
AcDbEntity
  8
1
 62
     4
100
AcDbTrace
 10
177.12502932357
 20
259.69424111757
 30
0.0
 11
177.12502932357
 21
262.3272910693179
 31
0.0
 12
187.12502932357
 22
261.010766093444
 32
0.0
 13
187.12502932357
 23
261.010766093444
 33
0.0
  0
MTEXT
  5
24C
330
246
100
AcDbEntity
  8
1
 62
     1
100
AcDbMText
 10
-15.59588401624379
 20
263.0107263387221
 30
0.0
 40
10.0
 41
0.0
 71
     7
 72
     1
  1
\C1;%%c\C1;360
  7
CONVERTER_11
 11
0.9999999999970619
 21
2.424068405545306E-6
 31
0.0
 73
     1
 44
0.60024009603842
  0
ENDBLK
  5
24E
330
246
100
AcDbEntity
  8
0
100
AcDbBlockEnd
  0
ENDSEC
  0
SECTION
  2
ENTITIES
  0
INSERT
  5
6E
330
1F
100
AcDbEntity
  8
0
100
AcDbBlockReference
  2
Dachablauf__HL62_7PVC
 10
-17.78466440592
 20
110.0360597472033
 30
0.0
  0
ENDSEC
  0
SECTION
  2
OBJECTS
  0
DICTIONARY
  5
C
330
0
100
AcDbDictionary
281
     1
  3
ACAD_GROUP
350
D
  3
ACAD_LAYOUT
350
1A
  3
ACAD_MLEADERSTYLE
350
25C
  3
ACAD_MLINESTYLE
350
17
  3
ACAD_PLOTSETTINGS
350
19
  3
ACAD_PLOTSTYLENAME
350
E
  3
ACAD_SCALELIST
350
49
  3
ACAD_VISUALSTYLE
350
2A
  3
AcDbVariableDictionary
350
25A
  0
DICTIONARY
  5
D
102
{ACAD_REACTORS
330
C
102
}
330
C
100
AcDbDictionary
281
     1
  0
DICTIONARY
  5
1A
102
{ACAD_REACTORS
330
C
102
}
330
C
100
AcDbDictionary
281
     1
  3
Layout1
350
1E
  3
Layout2
350
26
  3
Model
350
22
  0
DICTIONARY
  5
25C
102
{ACAD_REACTORS
330
C
102
}
330
C
100
AcDbDictionary
281
     1
  0
DICTIONARY
  5
17
102
{ACAD_REACTORS
330
C
102
}
330
C
100
AcDbDictionary
281
     1
  3
Standard
350
18
  0
DICTIONARY
  5
19
102
{ACAD_REACTORS
330
C
102
}
330
C
100
AcDbDictionary
281
     1
  0
ACDBDICTIONARYWDFLT
  5
E
102
{ACAD_REACTORS
330
C
102
}
330
C
100
AcDbDictionary
281
     1
  3
Normal
350
F
100
AcDbDictionaryWithDefault
340
F
  0
DICTIONARY
  5
49
102
{ACAD_REACTORS
330
C
102
}
330
C
100
AcDbDictionary
281
     1
  3
A0
350
4A
  3
A1
350
4B
  3
A2
350
4C
  3
A3
350
4D
  3
A4
350
4E
  3
A5
350
4F
  3
A6
350
50
  3
A7
350
51
  3
A8
350
52
  3
A9
350
53
  3
B0
350
54
  3
B1
350
55
  3
B2
350
56
  3
B3
350
57
  3
B4
350
58
  3
B5
350
59
  3
B6
350
5A
  3
B7
350
5B
  3
B8
350
5C
  3
B9
350
5D
  3
C0
350
5E
  3
C1
350
5F
  3
C2
350
60
  3
C3
350
61
  3
C4
350
62
  3
C5
350
63
  3
C6
350
64
  3
C7
350
65
  3
C8
350
66
  3
C9
350
67
  3
D0
350
68
  3
D1
350
69
  3
D2
350
6A
  0
DICTIONARY
  5
2A
102
{ACAD_REACTORS
330
C
102
}
330
C
100
AcDbDictionary
281
     1
  3
2dWireframe
350
2F
  3
3D Hidden
350
31
  3
3dWireframe
350
30
  3
Basic
350
32
  3
Brighten
350
36
  3
ColorChange
350
3A
  3
Conceptual
350
34
  3
Dim
350
35
  3
Facepattern
350
39
  3
Flat
350
2B
  3
FlatWithEdges
350
2C
  3
Gouraud
350
2D
  3
GouraudWithEdges
350
2E
  3
Linepattern
350
38
  3
Realistic
350
33
  3
Thicken
350
37
  0
DICTIONARY
  5
25A
102
{ACAD_REACTORS
330
C
102
}
330
C
100
AcDbDictionary
281
     1
  3
CANNOSCALE
350
25D
  0
LAYOUT
  5
1E
102
{ACAD_REACTORS
330
1A
102
}
330
1A
100
AcDbPlotSettings
  1

  2
none_device
  4

  6

 40
0.0
 41
0.0
 42
0.0
 43
0.0
 44
0.0
 45
0.0
 46
0.0
 47
0.0
 48
0.0
 49
0.0
140
0.0
141
0.0
142
1.0
143
1.0
 70
   688
 72
     0
 73
     0
 74
     5
  7

 75
    16
147
1.0
148
0.0
149
0.0
100
AcDbLayout
  1
Layout1
 70
     1
 71
     1
 10
0.0
 20
0.0
 11
12.0
 21
9.0
 12
0.0
 22
0.0
 32
0.0
 14
1.00000000000000E+20
 24
1.00000000000000E+20
 34
1.00000000000000E+20
 15
-1.00000000000000E+20
 25
-1.00000000000000E+20
 35
-1.00000000000000E+20
146
0.0
 13
0.0
 23
0.0
 33
0.0
 16
1.0
 26
0.0
 36
0.0
 17
0.0
 27
1.0
 37
0.0
 76
     0
330
1B
  0
LAYOUT
  5
26
102
{ACAD_REACTORS
330
1A
102
}
330
1A
100
AcDbPlotSettings
  1

  2
none_device
  4

  6

 40
0.0
 41
0.0
 42
0.0
 43
0.0
 44
0.0
 45
0.0
 46
0.0
 47
0.0
 48
0.0
 49
0.0
140
0.0
141
0.0
142
1.0
143
1.0
 70
   688
 72
     0
 73
     0
 74
     5
  7

 75
    16
147
1.0
148
0.0
149
0.0
100
AcDbLayout
  1
Layout2
 70
     1
 71
     2
 10
0.0
 20
0.0
 11
0.0
 21
0.0
 12
0.0
 22
0.0
 32
0.0
 14
0.0
 24
0.0
 34
0.0
 15
0.0
 25
0.0
 35
0.0
146
0.0
 13
0.0
 23
0.0
 33
0.0
 16
1.0
 26
0.0
 36
0.0
 17
0.0
 27
1.0
 37
0.0
 76
     0
330
23
  0
LAYOUT
  5
22
102
{ACAD_REACTORS
330
1A
102
}
330
1A
100
AcDbPlotSettings
  1

  2
none_device
  4

  6

 40
0.0
 41
0.0
 42
0.0
 43
0.0
 44
0.0
 45
0.0
 46
0.0
 47
0.0
 48
0.0
 49
0.0
140
0.0
141
0.0
142
1.0
143
1.0
 70
  1712
 72
     0
 73
     0
 74
     0
  7

 75
     0
147
1.0
148
0.0
149
0.0
100
AcDbLayout
  1
Model
 70
     1
 71
     0
 10
0.0
 20
0.0
 11
12.0
 21
9.0
 12
0.0
 22
0.0
 32
0.0
 14
-222.76935813541
 24
-52.9386465990373
 34
0.0
 15
187.20002932357
 25
273.010766093444
 35
0.0
146
0.0
 13
0.0
 23
0.0
 33
0.0
 16
1.0
 26
0.0
 36
0.0
 17
0.0
 27
1.0
 37
0.0
 76
     0
330
1F
331
29
  0
MLINESTYLE
  5
18
102
{ACAD_REACTORS
330
17
102
}
330
17
100
AcDbMlineStyle
  2
Standard
 70
     0
  3

 62
   256
 51
90.0
 52
90.0
 71
     2
 49
0.5
 62
   256
  6
BYLAYER
 49
-0.5
 62
   256
  6
BYLAYER
  0
ACDBPLACEHOLDER
  5
F
102
{ACAD_REACTORS
330
E
102
}
330
E
  0
SCALE
  5
4A
102
{ACAD_REACTORS
330
49
102
}
330
49
100
AcDbScale
 70
     0
300
1:1
140
1.0
141
1.0
290
     1
  0
SCALE
  5
4B
102
{ACAD_REACTORS
330
49
102
}
330
49
100
AcDbScale
 70
     0
300
1:2
140
1.0
141
2.0
290
     0
  0
SCALE
  5
4C
102
{ACAD_REACTORS
330
49
102
}
330
49
100
AcDbScale
 70
     0
300
1:4
140
1.0
141
4.0
290
     0
  0
SCALE
  5
4D
102
{ACAD_REACTORS
330
49
102
}
330
49
100
AcDbScale
 70
     0
300
1:5
140
1.0
141
5.0
290
     0
  0
SCALE
  5
4E
102
{ACAD_REACTORS
330
49
102
}
330
49
100
AcDbScale
 70
     0
300
1:8
140
1.0
141
8.0
290
     0
  0
SCALE
  5
4F
102
{ACAD_REACTORS
330
49
102
}
330
49
100
AcDbScale
 70
     0
300
1:10
140
1.0
141
10.0
290
     0
  0
SCALE
  5
50
102
{ACAD_REACTORS
330
49
102
}
330
49
100
AcDbScale
 70
     0
300
1:16
140
1.0
141
16.0
290
     0
  0
SCALE
  5
51
102
{ACAD_REACTORS
330
49
102
}
330
49
100
AcDbScale
 70
     0
300
1:20
140
1.0
141
20.0
290
     0
  0
SCALE
  5
52
102
{ACAD_REACTORS
330
49
102
}
330
49
100
AcDbScale
 70
     0
300
1:30
140
1.0
141
30.0
290
     0
  0
SCALE
  5
53
102
{ACAD_REACTORS
330
49
102
}
330
49
100
AcDbScale
 70
     0
300
1:40
140
1.0
141
40.0
290
     0
  0
SCALE
  5
54
102
{ACAD_REACTORS
330
49
102
}
330
49
100
AcDbScale
 70
     0
300
1:50
140
1.0
141
50.0
290
     0
  0
SCALE
  5
55
102
{ACAD_REACTORS
330
49
102
}
330
49
100
AcDbScale
 70
     0
300
1:100
140
1.0
141
100.0
290
     0
  0
SCALE
  5
56
102
{ACAD_REACTORS
330
49
102
}
330
49
100
AcDbScale
 70
     0
300
2:1
140
2.0
141
1.0
290
     0
  0
SCALE
  5
57
102
{ACAD_REACTORS
330
49
102
}
330
49
100
AcDbScale
 70
     0
300
4:1
140
4.0
141
1.0
290
     0
  0
SCALE
  5
58
102
{ACAD_REACTORS
330
49
102
}
330
49
100
AcDbScale
 70
     0
300
8:1
140
8.0
141
1.0
290
     0
  0
SCALE
  5
59
102
{ACAD_REACTORS
330
49
102
}
330
49
100
AcDbScale
 70
     0
300
10:1
140
10.0
141
1.0
290
     0
  0
SCALE
  5
5A
102
{ACAD_REACTORS
330
49
102
}
330
49
100
AcDbScale
 70
     0
300
100:1
140
100.0
141
1.0
290
     0
  0
SCALE
  5
5B
102
{ACAD_REACTORS
330
49
102
}
330
49
100
AcDbScale
 70
     0
300
1/128" = 1'-0"
140
0.0078125
141
12.0
290
     0
  0
SCALE
  5
5C
102
{ACAD_REACTORS
330
49
102
}
330
49
100
AcDbScale
 70
     0
300
1/64" = 1'-0"
140
0.015625
141
12.0
290
     0
  0
SCALE
  5
5D
102
{ACAD_REACTORS
330
49
102
}
330
49
100
AcDbScale
 70
     0
300
1/32" = 1'-0"
140
0.03125
141
12.0
290
     0
  0
SCALE
  5
5E
102
{ACAD_REACTORS
330
49
102
}
330
49
100
AcDbScale
 70
     0
300
1/16" = 1'-0"
140
0.0625
141
12.0
290
     0
  0
SCALE
  5
5F
102
{ACAD_REACTORS
330
49
102
}
330
49
100
AcDbScale
 70
     0
300
3/32" = 1'-0"
140
0.09375
141
12.0
290
     0
  0
SCALE
  5
60
102
{ACAD_REACTORS
330
49
102
}
330
49
100
AcDbScale
 70
     0
300
1/8" = 1'-0"
140
0.125
141
12.0
290
     0
  0
SCALE
  5
61
102
{ACAD_REACTORS
330
49
102
}
330
49
100
AcDbScale
 70
     0
300
3/16" = 1'-0"
140
0.1875
141
12.0
290
     0
  0
SCALE
  5
62
102
{ACAD_REACTORS
330
49
102
}
330
49
100
AcDbScale
 70
     0
300
1/4" = 1'-0"
140
0.25
141
12.0
290
     0
  0
SCALE
  5
63
102
{ACAD_REACTORS
330
49
102
}
330
49
100
AcDbScale
 70
     0
300
3/8" = 1'-0"
140
0.375
141
12.0
290
     0
  0
SCALE
  5
64
102
{ACAD_REACTORS
330
49
102
}
330
49
100
AcDbScale
 70
     0
300
1/2" = 1'-0"
140
0.5
141
12.0
290
     0
  0
SCALE
  5
65
102
{ACAD_REACTORS
330
49
102
}
330
49
100
AcDbScale
 70
     0
300
3/4" = 1'-0"
140
0.75
141
12.0
290
     0
  0
SCALE
  5
66
102
{ACAD_REACTORS
330
49
102
}
330
49
100
AcDbScale
 70
     0
300
1" = 1'-0"
140
1.0
141
12.0
290
     0
  0
SCALE
  5
67
102
{ACAD_REACTORS
330
49
102
}
330
49
100
AcDbScale
 70
     0
300
1-1/2" = 1'-0"
140
1.5
141
12.0
290
     0
  0
SCALE
  5
68
102
{ACAD_REACTORS
330
49
102
}
330
49
100
AcDbScale
 70
     0
300
3" = 1'-0"
140
3.0
141
12.0
290
     0
  0
SCALE
  5
69
102
{ACAD_REACTORS
330
49
102
}
330
49
100
AcDbScale
 70
     0
300
6" = 1'-0"
140
6.0
141
12.0
290
     0
  0
SCALE
  5
6A
102
{ACAD_REACTORS
330
49
102
}
330
49
100
AcDbScale
 70
     0
300
1'-0" = 1'-0"
140
12.0
141
12.0
290
     0
  0
VISUALSTYLE
  5
2F
102
{ACAD_REACTORS
330
2A
102
}
330
2A
100
AcDbVisualStyle
  2
2dWireframe
 70
     4
 71
     0
 72
     2
 73
     0
 90
        0
 40
-0.6
 41
-30.0
 62
     5
 63
     7
 74
     1
 91
        4
 64
     7
 65
   257
 75
     1
175
     1
 42
1.0
 92
        0
 66
   257
 43
1.0
 76
     1
 77
     6
 78
     2
 67
     7
 79
     5
170
     0
171
     0
290
     0
174
     0
 93
        1
 44
0.0
173
     0
291
     0
 45
0.0
1001
ACAD
1000
AcDbSavedByObjectVersion
1070
     0
  0
VISUALSTYLE
  5
31
102
{ACAD_REACTORS
330
2A
102
}
330
2A
100
AcDbVisualStyle
  2
3D Hidden
 70
     6
 71
     1
 72
     2
 73
     2
 90
        0
 40
-0.6
 41
-30.0
 62
     5
 63
     7
 74
     2
 91
        2
 64
     7
 65
   257
 75
     2
175
     1
 42
40.0
 92
        0
 66
   257
 43
1.0
 76
     1
 77
     6
 78
     2
 67
     7
 79
     3
170
     0
171
     0
290
     0
174
     0
 93
        1
 44
0.0
173
     0
291
     0
 45
0.0
1001
ACAD
1000
AcDbSavedByObjectVersion
1070
     0
  0
VISUALSTYLE
  5
30
102
{ACAD_REACTORS
330
2A
102
}
330
2A
100
AcDbVisualStyle
  2
3dWireframe
 70
     5
 71
     0
 72
     2
 73
     0
 90
        0
 40
-0.6
 41
-30.0
 62
     5
 63
     7
 74
     1
 91
        4
 64
     7
 65
   257
 75
     1
175
     1
 42
1.0
 92
        0
 66
   257
 43
1.0
 76
     1
 77
     6
 78
     2
 67
     7
 79
     5
170
     0
171
     0
290
     0
174
     0
 93
        1
 44
0.0
173
     0
291
     0
 45
0.0
1001
ACAD
1000
AcDbSavedByObjectVersion
1070
     0
  0
VISUALSTYLE
  5
32
102
{ACAD_REACTORS
330
2A
102
}
330
2A
100
AcDbVisualStyle
  2
Basic
 70
     7
 71
     1
 72
     0
 73
     1
 90
        0
 40
-0.6
 41
-30.0
 62
     5
 63
     7
 74
     0
 91
        4
 64
     7
 65
   257
 75
     1
175
     1
 42
1.0
 92
        8
 66
     7
 43
1.0
 76
     1
 77
     6
 78
     2
 67
     7
 79
     5
170
     0
171
     0
290
     0
174
     0
 93
        1
 44
0.0
173
     0
291
     1
 45
0.0
1001
ACAD
1000
AcDbSavedByObjectVersion
1070
     0
  0
VISUALSTYLE
  5
36
102
{ACAD_REACTORS
330
2A
102
}
330
2A
100
AcDbVisualStyle
  2
Brighten
 70
    12
 71
     2
 72
     2
 73
     0
 90
        0
 40
-0.6
 41
-30.0
 62
     5
 63
     7
 74
     1
 91
        4
 64
     7
 65
   257
 75
     1
175
     1
 42
1.0
 92
        8
 66
     7
 43
1.0
 76
     1
 77
     6
 78
     2
 67
     7
 79
     5
170
     0
171
     0
290
     0
174
     0
 93
        1
 44
50.0
173
     0
291
     1
 45
0.0
1001
ACAD
1000
AcDbSavedByObjectVersion
1070
     0
  0
VISUALSTYLE
  5
3A
102
{ACAD_REACTORS
330
2A
102
}
330
2A
100
AcDbVisualStyle
  2
ColorChange
 70
    16
 71
     2
 72
     2
 73
     3
 90
        0
 40
-0.6
 41
-30.0
 62
     5
 63
     8
 74
     1
 91
        4
 64
     7
 65
   257
 75
     1
175
     1
 42
1.0
 92
        8
 66
     8
 43
1.0
 76
     1
 77
     6
 78
     2
 67
     7
 79
     5
170
     0
171
     0
290
     0
174
     0
 93
        1
 44
0.0
173
     0
291
     1
 45
0.0
1001
ACAD
1000
AcDbSavedByObjectVersion
1070
     0
  0
VISUALSTYLE
  5
34
102
{ACAD_REACTORS
330
2A
102
}
330
2A
100
AcDbVisualStyle
  2
Conceptual
 70
     9
 71
     3
 72
     2
 73
     0
 90
        0
 40
-0.6
 41
-30.0
 62
     5
 63
     7
 74
     2
 91
        2
 64
     7
 65
   257
 75
     1
175
     1
 42
40.0
 92
        8
 66
     7
 43
1.0
 76
     1
 77
     6
 78
     2
 67
     7
 79
     3
170
     0
171
     0
290
     0
174
     0
 93
        1
 44
0.0
173
     0
291
     0
 45
0.0
1001
ACAD
1000
AcDbSavedByObjectVersion
1070
     0
  0
VISUALSTYLE
  5
35
102
{ACAD_REACTORS
330
2A
102
}
330
2A
100
AcDbVisualStyle
  2
Dim
 70
    11
 71
     2
 72
     2
 73
     0
 90
        0
 40
-0.6
 41
-30.0
 62
     5
 63
     7
 74
     1
 91
        4
 64
     7
 65
   257
 75
     1
175
     1
 42
1.0
 92
        8
 66
     7
 43
1.0
 76
     1
 77
     6
 78
     2
 67
     7
 79
     5
170
     0
171
     0
290
     0
174
     0
 93
        1
 44
-50.0
173
     0
291
     1
 45
0.0
1001
ACAD
1000
AcDbSavedByObjectVersion
1070
     0
  0
VISUALSTYLE
  5
39
102
{ACAD_REACTORS
330
2A
102
}
330
2A
100
AcDbVisualStyle
  2
Facepattern
 70
    15
 71
     2
 72
     2
 73
     0
 90
        0
 40
-0.6
 41
-30.0
 62
     5
 63
     7
 74
     1
 91
        4
 64
     7
 65
   257
 75
     1
175
     1
 42
1.0
 92
        8
 66
     7
 43
1.0
 76
     1
 77
     6
 78
     2
 67
     7
 79
     5
170
     0
171
     0
290
     0
174
     0
 93
        1
 44
0.0
173
     0
291
     1
 45
0.0
1001
ACAD
1000
AcDbSavedByObjectVersion
1070
     0
  0
VISUALSTYLE
  5
2B
102
{ACAD_REACTORS
330
2A
102
}
330
2A
100
AcDbVisualStyle
  2
Flat
 70
     0
 71
     2
 72
     1
 73
     1
 90
        2
 40
-0.6
 41
30.0
 62
     5
 63
     7
 74
     0
 91
        4
 64
     7
 65
   257
 75
     1
175
     1
 42
1.0
 92
        8
 66
     7
 43
1.0
 76
     1
 77
     6
 78
     2
 67
     7
 79
     5
170
     0
171
     0
290
     0
174
     0
 93
       13
 44
0.0
173
     0
291
     1
 45
0.0
1001
ACAD
1000
AcDbSavedByObjectVersion
1070
     0
  0
VISUALSTYLE
  5
2C
102
{ACAD_REACTORS
330
2A
102
}
330
2A
100
AcDbVisualStyle
  2
FlatWithEdges
 70
     1
 71
     2
 72
     1
 73
     1
 90
        2
 40
-0.6
 41
30.0
 62
     5
 63
     7
 74
     1
 91
        4
 64
     7
 65
   257
 75
     1
175
     1
 42
1.0
 92
        0
 66
   257
 43
1.0
 76
     1
 77
     6
 78
     2
 67
     7
 79
     5
170
     0
171
     0
290
     0
174
     0
 93
       13
 44
0.0
173
     0
291
     1
 45
0.0
1001
ACAD
1000
AcDbSavedByObjectVersion
1070
     0
  0
VISUALSTYLE
  5
2D
102
{ACAD_REACTORS
330
2A
102
}
330
2A
100
AcDbVisualStyle
  2
Gouraud
 70
     2
 71
     2
 72
     2
 73
     1
 90
        2
 40
-0.6
 41
30.0
 62
     5
 63
     7
 74
     0
 91
        4
 64
     7
 65
   257
 75
     1
175
     1
 42
1.0
 92
        0
 66
     7
 43
1.0
 76
     1
 77
     6
 78
     2
 67
     7
 79
     5
170
     0
171
     0
290
     0
174
     0
 93
       13
 44
0.0
173
     0
291
     1
 45
0.0
1001
ACAD
1000
AcDbSavedByObjectVersion
1070
     0
  0
VISUALSTYLE
  5
2E
102
{ACAD_REACTORS
330
2A
102
}
330
2A
100
AcDbVisualStyle
  2
GouraudWithEdges
 70
     3
 71
     2
 72
     2
 73
     1
 90
        2
 40
-0.6
 41
30.0
 62
     5
 63
     7
 74
     1
 91
        4
 64
     7
 65
   257
 75
     1
175
     1
 42
1.0
 92
        0
 66
   257
 43
1.0
 76
     1
 77
     6
 78
     2
 67
     7
 79
     5
170
     0
171
     0
290
     0
174
     0
 93
       13
 44
0.0
173
     0
291
     1
 45
0.0
1001
ACAD
1000
AcDbSavedByObjectVersion
1070
     0
  0
VISUALSTYLE
  5
38
102
{ACAD_REACTORS
330
2A
102
}
330
2A
100
AcDbVisualStyle
  2
Linepattern
 70
    14
 71
     2
 72
     2
 73
     0
 90
        0
 40
-0.6
 41
-30.0
 62
     5
 63
     7
 74
     1
 91
        4
 64
     7
 65
   257
 75
     7
175
     7
 42
1.0
 92
        8
 66
     7
 43
1.0
 76
     1
 77
     6
 78
     2
 67
     7
 79
     5
170
     0
171
     0
290
     0
174
     0
 93
        1
 44
0.0
173
     0
291
     1
 45
0.0
1001
ACAD
1000
AcDbSavedByObjectVersion
1070
     0
  0
VISUALSTYLE
  5
33
102
{ACAD_REACTORS
330
2A
102
}
330
2A
100
AcDbVisualStyle
  2
Realistic
 70
     8
 71
     2
 72
     2
 73
     0
 90
        0
 40
-0.6
 41
-30.0
 62
     5
 63
     7
 74
     1
 91
        0
 64
     7
 65
   257
 75
     1
175
     1
 42
1.0
 92
        8
 66
     8
 43
1.0
 76
     1
 77
     6
 78
     2
 67
     7
 79
     5
170
     0
171
     0
290
     0
174
     0
 93
       13
 44
0.0
173
     0
291
     0
 45
0.0
1001
ACAD
1000
AcDbSavedByObjectVersion
1070
     0
  0
VISUALSTYLE
  5
37
102
{ACAD_REACTORS
330
2A
102
}
330
2A
100
AcDbVisualStyle
  2
Thicken
 70
    13
 71
     2
 72
     2
 73
     0
 90
        0
 40
-0.6
 41
-30.0
 62
     5
 63
     7
 74
     1
 91
        4
 64
     7
 65
   257
 75
     1
175
     1
 42
1.0
 92
       12
 66
     7
 43
1.0
 76
     1
 77
     6
 78
     2
 67
     7
 79
     5
170
     0
171
     0
290
     0
174
     0
 93
        1
 44
0.0
173
     0
291
     1
 45
0.0
1001
ACAD
1000
AcDbSavedByObjectVersion
1070
     0
  0
DICTIONARYVAR
  5
25D
102
{ACAD_REACTORS
330
25A
102
}
330
25A
100
DictionaryVariables
280
     0
  1
1:1
  0
ENDSEC
  0
EOF
