  0
SECTION
  2
HEADER
  9
$ACADVER
  1
AC1014
  9
$ACADMAINTVER
 70
             0
  9
$DWGCODEPAGE
  3
ANSI_1252
  9
$INSBASE
 10
0.0
 20
0.0
 30
0.0
  9
$EXTMIN
 10
-272.00018455214058
 20
-240.80662707253131
 30
0.0
  9
$EXTMAX
 10
250.0000283411145
 20
135.86096924406419
 30
0.0
  9
$LIMMIN
 10
0.0
 20
0.0
  9
$LIMMAX
 10
0.0
 20
0.0
  9
$ORTHOMODE
 70
             0
  9
$REGENMODE
 70
             1
  9
$FILLMODE
 70
             1
  9
$QTEXTMODE
 70
             0
  9
$MIRRTEXT
 70
             1
  9
$DRAGMODE
 70
             2
  9
$LTSCALE
 40
1.0
  9
$OSMODE
 70
             0
  9
$ATTMODE
 70
             1
  9
$TEXTSIZE
 40
0.2
  9
$TRACEWID
 40
0.05
  9
$TEXTSTYLE
  7
STANDARD
  9
$CLAYER
  8
0
  9
$CELTYPE
  6
CONTINUOUS
  9
$CECOLOR
 62
           256
  9
$CELTSCALE
 40
1.0
  9
$DELOBJ
 70
             1
  9
$DISPSILH
 70
             0
  9
$DIMSCALE
 40
1.0
  9
$DIMASZ
 40
0.18
  9
$DIMEXO
 40
0.0625
  9
$DIMDLI
 40
0.38
  9
$DIMRND
 40
0.0
  9
$DIMDLE
 40
0.0
  9
$DIMEXE
 40
0.18
  9
$DIMTP
 40
0.0
  9
$DIMTM
 40
0.0
  9
$DIMTXT
 40
0.18
  9
$DIMCEN
 40
0.09
  9
$DIMTSZ
 40
0.0
  9
$DIMTOL
 70
             0
  9
$DIMLIM
 70
             0
  9
$DIMTIH
 70
             1
  9
$DIMTOH
 70
             1
  9
$DIMSE1
 70
             0
  9
$DIMSE2
 70
             0
  9
$DIMTAD
 70
             0
  9
$DIMZIN
 70
             0
  9
$DIMBLK
  1

  9
$DIMASO
 70
             1
  9
$DIMSHO
 70
             1
  9
$DIMPOST
  1

  9
$DIMAPOST
  1

  9
$DIMALT
 70
             0
  9
$DIMALTD
 70
             2
  9
$DIMALTF
 40
25.4
  9
$DIMLFAC
 40
1.0
  9
$DIMTOFL
 70
             0
  9
$DIMTVP
 40
0.0
  9
$DIMTIX
 70
             0
  9
$DIMSOXD
 70
             0
  9
$DIMSAH
 70
             0
  9
$DIMBLK1
  1

  9
$DIMBLK2
  1

  9
$DIMSTYLE
  2
STANDARD
  9
$DIMCLRD
 70
             0
  9
$DIMCLRE
 70
             0
  9
$DIMCLRT
 70
             0
  9
$DIMTFAC
 40
1.0
  9
$DIMGAP
 40
0.09
  9
$DIMJUST
 70
             0
  9
$DIMSD1
 70
             0
  9
$DIMSD2
 70
             0
  9
$DIMTOLJ
 70
             1
  9
$DIMTZIN
 70
             0
  9
$DIMALTZ
 70
             0
  9
$DIMALTTZ
 70
             0
  9
$DIMFIT
 70
             3
  9
$DIMUPT
 70
             0
  9
$DIMUNIT
 70
             2
  9
$DIMDEC
 70
             4
  9
$DIMTDEC
 70
             4
  9
$DIMALTU
 70
             2
  9
$DIMALTTD
 70
             2
  9
$DIMTXSTY
  7
STANDARD
  9
$DIMAUNIT
 70
             0
  9
$LUNITS
 70
             2
  9
$LUPREC
 70
             4
  9
$SKETCHINC
 40
0.1
  9
$FILLETRAD
 40
0.0
  9
$AUNITS
 70
             0
  9
$AUPREC
 70
             0
  9
$MENU
  1
acad
  9
$ELEVATION
 40
0.0
  9
$PELEVATION
 40
0.0
  9
$THICKNESS
 40
0.0
  9
$LIMCHECK
 70
             0
  9
$BLIPMODE
 70
             1
  9
$CHAMFERA
 40
0.0
  9
$CHAMFERB
 40
0.0
  9
$CHAMFERC
 40
0.0
  9
$CHAMFERD
 40
0.0
  9
$SKPOLY
 70
             0
  9
$TDCREATE
 40
0.000000000
  9
$TDUPDATE
 40
0.000000000
  9
$TDINDWG
 40
0.0000000000
  9
$TDUSRTIMER
 40
0.0000000000
  9
$USRTIMER
 70
             1
  9
$ANGBASE
 50
0.0
  9
$ANGDIR
 70
             0
  9
$PDMODE
 70
             0
  9
$PDSIZE
 40
0.0
  9
$PLINEWID
 40
0.0
  9
$COORDS
 70
             0
  9
$SPLFRAME
 70
             0
  9
$SPLINETYPE
 70
             6
  9
$SPLINESEGS
 70
             8
  9
$ATTDIA
 70
             0
  9
$ATTREQ
 70
             1
  9
$HANDLING
 70
             1
  9
$HANDSEED
  5
1C6
  9
$SURFTAB1
 70
             6
  9
$SURFTAB2
 70
             6
  9
$SURFTYPE
 70
             6
  9
$SURFU
 70
             6
  9
$SURFV
 70
             6
  9
$UCSNAME
  2

  9
$UCSORG
 10
0.0
 20
0.0
 30
0.0
  9
$UCSXDIR
 10
1.0
 20
0.0
 30
0.0
  9
$UCSYDIR
 10
0.0
 20
1.0
 30
0.0
  9
$PUCSNAME
  2

  9
$PUCSORG
 10
0.0
 20
0.0
 30
0.0
  9
$PUCSXDIR
 10
1.0
 20
0.0
 30
0.0
  9
$PUCSYDIR
 10
0.0
 20
1.0
 30
0.0
  9
$USERI1
 70
             0
  9
$USERI2
 70
             0
  9
$USERI3
 70
             0
  9
$USERI4
 70
             0
  9
$USERI5
 70
             0
  9
$USERR1
 40
12.01
  9
$USERR2
 40
0.0
  9
$USERR3
 40
0.0
  9
$USERR4
 40
0.0
  9
$USERR5
 40
0.0
  9
$WORLDVIEW
 70
             1
  9
$SHADEDGE
 70
             3
  9
$SHADEDIF
 70
            70
  9
$TILEMODE
 70
             1
  9
$MAXACTVP
 70
            16
  9
$PINSBASE
 10
0.0
 20
0.0
 30
0.0
  9
$PLIMCHECK
 70
             0
  9
$PEXTMIN
 10
1.00000000000000E+20
 20
1.00000000000000E+20
 30
1.00000000000000E+20
  9
$PEXTMAX
 10
-1.00000000000000E+20
 20
-1.00000000000000E+20
 30
-1.00000000000000E+20
  9
$PLIMMIN
 10
0.0
 20
0.0
  9
$PLIMMAX
 10
12.0
 20
9.0
  9
$UNITMODE
 70
             0
  9
$VISRETAIN
 70
             0
  9
$PLINEGEN
 70
             1
  9
$PSLTSCALE
 70
             0
  9
$TREEDEPTH
 70
          3020
  9
$PICKSTYLE
 70
             1
  9
$CMLSTYLE
  2
STANDARD
  9
$CMLJUST
 70
             0
  9
$CMLSCALE
 40
1.0
  9
$PROXYGRAPHICS
 70
             0
  9
$MEASUREMENT
 70
             1
  0
ENDSEC
  0
SECTION
  2
CLASSES
  0
CLASS
  1
LWPOLYLINE
  2
AcDbPolyline
  3
"AutoCAD"
 90
        0
280
             0
281
             1
  0
CLASS
  1
IMAGE
  2
AcDbRasterImage
  3
ISM
 90
      127
280
             0
281
             1
  0
CLASS
  1
OLE2FRAME
  2
AcDbOle2Frame
  3
""
 90
        0
280
             0
281
             1
  0
CLASS
  1
HATCH
  2
AcDbHatch
  3
"ACAD_SEDONA"
 90
        0
280
             0
281
             1
  0
CLASS
  1
DICTIONARYVAR
  2
AcDbDictionaryVar
  3
"AutoCAD"
 90
        0
280
             0
281
             0
  0
CLASS
  1
RASTERVARIABLES
  2
AcDbRasterVariables
  3
ISM
 90
        0
280
             0
281
             0
  0
CLASS
  1
IMAGEDEF
  2
AcDbRasterImageDef
  3
ISM
 90
        0
280
             0
281
             0
  0
CLASS
  1
IMAGEDEF_REACTOR
  2
AcDbRasterImageDefReactor
  3
ISM
 90
        1
280
             0
281
             0
  0
CLASS
  1
IDBUFFER
  2
AcDbIdBuffer
  3
"Acad"
 90
        0
280
             0
281
             0
  0
CLASS
  1
SPATIAL_FILTER
  2
AcDbSpatialFilter
  3
"Acad"
 90
        0
280
             0
281
             0
  0
CLASS
  1
XRECORD
  2
AcDbXrecord
  3
"<Built In>"
 90
        0
280
             0
281
             0
  0
CLASS
  1
SORTENTSTABLE
  2
AcDbSortentsTable
  3
"AutoCAD"
 90
        0
280
             0
281
             0
  0
CLASS
  1
LAYER_INDEX
  2
AcDbLayerIndex
  3
"Acad"
 90
        0
280
             0
281
             0
  0
CLASS
  1
SPATIAL_INDEX
  2
AcDbSpatialIndex
  3
"Acad"
 90
        0
280
             0
281
             0
  0
CLASS
  1
OBJECT_PTR
  2
CAseDLPNTableRecord
  3
"ASE-LPNTableRecord"
 90
        1
280
             0
281
             0
  0
CLASS
  1
LAYOUT
  2
AcDbLayout
  3
"AutoCAD 2000"
 90
        0
280
             0
281
             0
  0
CLASS
  1
PLOTSETTINGS
  2
AcDbPlotSettings
  3
"AutoCAD 2000"
 90
        0
280
             0
281
             0
  0
CLASS
  1
ACDBDICTIONARYWDFLT
  2
AcDbDictionaryWithDefault
  3
"AutoCAD 2000"
 90
        0
280
             0
281
             0
  0
CLASS
  1
ACDBPLACEHOLDER
  2
AcDbPlaceHolder
  3
"AutoCAD 2000"
 90
        0
280
             0
281
             0
  0
ENDSEC
  0
SECTION
  2
TABLES
  0
TABLE
  2
VPORT
  5
7
100
AcDbSymbolTable
 70
             1
  0
VPORT
  5
15
100
AcDbSymbolTableRecord
100
AcDbViewportTableRecord
  2
*ACTIVE
 70
             0
 10
0.0
 20
0.0
 11
1.0
 21
1.0
 12
-11.00007810551304
 22
-52.47282891423356
 13
0.0
 23
0.0
 14
1.0
 24
1.0
 15
0.0
 25
0.0
 16
0.0
 26
0.0
 36
1.0
 17
0.0
 27
0.0
 37
0.0
 40
414.33435594825511
 41
1.60267857142857
 42
50.0
 43
0.0
 44
0.0
 50
0.0
 51
0.0
 71
             0
 72
           100
 73
             1
 74
             1
 75
             0
 76
             0
 77
             0
 78
             0
  0
ENDTAB
  0
TABLE
  2
LTYPE
  5
4
100
AcDbSymbolTable
 70
            11
  0
LTYPE
  5
11
100
AcDbSymbolTableRecord
100
AcDbLinetypeTableRecord
  2
BYBLOCK
 70
            64
  3

 72
            65
 73
             0
 40
0.0
  0
LTYPE
  5
12
100
AcDbSymbolTableRecord
100
AcDbLinetypeTableRecord
  2
BYLAYER
 70
            64
  3

 72
            65
 73
             0
 40
0.0
  0
LTYPE
  5
13
100
AcDbSymbolTableRecord
100
AcDbLinetypeTableRecord
  2
CONTINUOUS
 70
            64
  3
Solid line
 72
            65
 73
             0
 40
0.0
  0
LTYPE
  5
1D
100
AcDbSymbolTableRecord
100
AcDbLinetypeTableRecord
  2
DASHED
 70
            64
  3
Dashed
 72
            65
 73
             2
 40
15.0
 49
7.0
 74
             0
 49
-8.0
 74
             0
  0
LTYPE
  5
1E
100
AcDbSymbolTableRecord
100
AcDbLinetypeTableRecord
  2
DOTTED
 70
            64
  3
Dotted
 72
            65
 73
             2
 40
1.0
 49
0.0
 74
             0
 49
-1.0
 74
             0
  0
LTYPE
  5
1F
100
AcDbSymbolTableRecord
100
AcDbLinetypeTableRecord
  2
DOT_CENTER
 70
            64
  3
Dot_Center
 72
            65
 73
             4
 40
14.0
 49
12.0
 74
             0
 49
-1.0
 74
             0
 49
0.0
 74
             0
 49
-1.0
 74
             0
  0
LTYPE
  5
20
100
AcDbSymbolTableRecord
100
AcDbLinetypeTableRecord
  2
LONG_DASHED
 70
            64
  3
Long_Dashed
 72
            65
 73
             2
 40
15.0
 49
10.0
 74
             0
 49
-5.0
 74
             0
  0
LTYPE
  5
21
100
AcDbSymbolTableRecord
100
AcDbLinetypeTableRecord
  2
DASH_CENTER
 70
            64
  3
Dash_Center
 72
            65
 73
             4
 40
14.0
 49
11.0
 74
             0
 49
-1.0
 74
             0
 49
1.0
 74
             0
 49
-1.0
 74
             0
  0
LTYPE
  5
22
100
AcDbSymbolTableRecord
100
AcDbLinetypeTableRecord
  2
PHANTOM
 70
            64
  3
Phantom
 72
            65
 73
             6
 40
13.0
 49
10.0
 74
             0
 49
-1.0
 74
             0
 49
0.0
 74
             0
 49
-1.0
 74
             0
 49
0.0
 74
             0
 49
-1.0
 74
             0
  0
LTYPE
  5
23
100
AcDbSymbolTableRecord
100
AcDbLinetypeTableRecord
  2
CENTER_DASH_DASH
 70
            64
  3
Center_Dash_Dash
 72
            65
 73
             6
 40
14.0
 49
9.0
 74
             0
 49
-1.0
 74
             0
 49
1.0
 74
             0
 49
-1.0
 74
             0
 49
1.0
 74
             0
 49
-1.0
 74
             0
  0
LTYPE
  5
24
100
AcDbSymbolTableRecord
100
AcDbLinetypeTableRecord
  2
DASHDOT
 70
            64
  3
DASHDOT
 72
            65
 73
             4
 40
16.0
 49
10.0
 74
             0
 49
-3.0
 74
             0
 49
0.0
 74
             0
 49
-3.0
 74
             0
  0
ENDTAB
  0
TABLE
  2
LAYER
  5
2
100
AcDbSymbolTable
 70
             8
  0
LAYER
  5
14
100
AcDbSymbolTableRecord
100
AcDbLayerTableRecord
  2
0
 70
             0
 62
             7
  6
CONTINUOUS
  0
LAYER
  5
25
100
AcDbSymbolTableRecord
100
AcDbLayerTableRecord
  2
1
 70
             0
 62
             7
  6
CONTINUOUS
  0
LAYER
  5
26
100
AcDbSymbolTableRecord
100
AcDbLayerTableRecord
  2
LC-001-002-----0
 70
             0
 62
             7
  6
CONTINUOUS
  0
LAYER
  5
27
100
AcDbSymbolTableRecord
100
AcDbLayerTableRecord
  2
LC-002-002-RND-0
 70
             0
 62
             7
  6
CONTINUOUS
  0
LAYER
  5
28
100
AcDbSymbolTableRecord
100
AcDbLayerTableRecord
  2
LC-003-001-----0
 70
             0
 62
             7
  6
CONTINUOUS
  0
LAYER
  5
29
100
AcDbSymbolTableRecord
100
AcDbLayerTableRecord
  2
LC-003-002-----0
 70
             0
 62
             7
  6
CONTINUOUS
  0
LAYER
  5
2A
100
AcDbSymbolTableRecord
100
AcDbLayerTableRecord
  2
LC-004-001-RND-0
 70
             0
 62
             7
  6
CONTINUOUS
  0
LAYER
  5
2B
100
AcDbSymbolTableRecord
100
AcDbLayerTableRecord
  2
LC-009-002-RND-0
 70
             0
 62
             7
  6
CONTINUOUS
  0
ENDTAB
  0
TABLE
  2
STYLE
  5
3
100
AcDbSymbolTable
 70
             2
  0
STYLE
  5
17
100
AcDbSymbolTableRecord
100
AcDbTextStyleTableRecord
  2
STANDARD
 70
             0
 40
0.0
 41
1.0
 50
0.0
 71
             0
 42
0.0
  3
txt
  4

  0
STYLE
  5
170
100
AcDbSymbolTableRecord
100
AcDbTextStyleTableRecord
  2
CONVERTER_1
 70
             0
 40
0.0
 41
0.9
 50
0.0
 71
             0
 42
0.0
  3
txt.shx
  4

  0
ENDTAB
  0
TABLE
  2
VIEW
  5
5
100
AcDbSymbolTable
 70
             0
  0
ENDTAB
  0
TABLE
  2
UCS
  5
6
100
AcDbSymbolTable
 70
             0
  0
ENDTAB
  0
TABLE
  2
APPID
  5
8
100
AcDbSymbolTable
 70
             1
  0
APPID
  5
16
100
AcDbSymbolTableRecord
100
AcDbRegAppTableRecord
  2
ACAD
 70
             0
  0
ENDTAB
  0
TABLE
  2
DIMSTYLE
  5
9
100
AcDbSymbolTable
 70
             9
  0
DIMSTYLE
105
18
100
AcDbSymbolTableRecord
100
AcDbDimStyleTableRecord
  2
STANDARD
 70
             0
  3

  4

  5

  6

  7

 40
1.0
 41
0.18
 42
0.0625
 43
0.38
 44
0.18
 45
0.0
 46
0.0
 47
0.0
 48
0.0
 71
             0
 72
             0
 73
             1
 74
             1
 75
             0
 76
             0
 77
             0
 78
             0
140
0.18
141
0.09
142
0.0
143
25.4
144
1.0
145
0.0
146
1.0
147
0.09
170
             0
171
             2
172
             0
173
             0
174
             0
175
             0
176
             0
177
             0
178
             0
270
             2
271
             4
272
             4
273
             2
274
             2
275
             0
280
             0
281
             0
282
             0
283
             1
284
             0
285
             0
286
             0
287
             3
288
             0
340
17
  0
DIMSTYLE
105
173
100
AcDbSymbolTableRecord
100
AcDbDimStyleTableRecord
  2
ME10_DIM_0
 70
             0
  3

  4

  5

  6

  7

 40
1.0
 41
10.0
 42
0.0
 43
0.38
 44
2.0
 45
0.0
 46
0.0
 47
0.0
 48
0.0
 71
             0
 72
             0
 73
             0
 74
             0
 75
             0
 76
             0
 77
             1
 78
             8
140
10.0
141
0.09
142
0.0
143
25.4
144
1.0
145
0.0
146
1.0
147
0.625
170
             0
171
             2
172
             1
173
             1
174
             0
175
             0
176
             4
177
             4
178
             1
270
             2
271
             2
272
             4
273
             2
274
             2
275
             0
280
             0
281
             0
282
             0
283
             1
284
             0
285
             0
286
             0
287
             3
288
             0
340
170
  0
DIMSTYLE
105
17E
100
AcDbSymbolTableRecord
100
AcDbDimStyleTableRecord
  2
ME10_DIM_1
 70
             0
  3
Ø<>
  4

  5

  6

  7

 40
1.0
 41
10.0
 42
0.0
 43
0.38
 44
2.0
 45
0.0
 46
0.0
 47
0.0
 48
0.0
 71
             0
 72
             0
 73
             0
 74
             0
 75
             0
 76
             0
 77
             1
 78
             8
140
10.0
141
0.09
142
0.0
143
25.4
144
1.0
145
0.0
146
1.0
147
0.625
170
             0
171
             2
172
             1
173
             1
174
             0
175
             0
176
             4
177
             4
178
             1
270
             2
271
             2
272
             4
273
             2
274
             2
275
             0
280
             0
281
             0
282
             0
283
             1
284
             0
285
             0
286
             0
287
             3
288
             0
340
170
  0
DIMSTYLE
105
189
100
AcDbSymbolTableRecord
100
AcDbDimStyleTableRecord
  2
ME10_DIM_2
 70
             0
  3
Ø<>
  4

  5

  6

  7

 40
1.0
 41
10.0
 42
0.0
 43
0.38
 44
2.0
 45
0.0
 46
0.0
 47
0.0
 48
0.0
 71
             0
 72
             0
 73
             0
 74
             0
 75
             0
 76
             0
 77
             1
 78
             8
140
10.0
141
0.09
142
0.0
143
25.4
144
1.0
145
0.0
146
1.0
147
0.625
170
             0
171
             2
172
             1
173
             1
174
             0
175
             0
176
             4
177
             4
178
             1
270
             2
271
             2
272
             4
273
             2
274
             2
275
             0
280
             0
281
             0
282
             0
283
             1
284
             0
285
             0
286
             0
287
             3
288
             0
340
170
  0
DIMSTYLE
105
194
100
AcDbSymbolTableRecord
100
AcDbDimStyleTableRecord
  2
ME10_DIM_3
 70
             0
  3
x150
  4

  5

  6

  7

 40
1.0
 41
10.0
 42
0.0
 43
0.38
 44
2.0
 45
0.0
 46
0.0
 47
0.0
 48
0.0
 71
             0
 72
             0
 73
             0
 74
             0
 75
             0
 76
             0
 77
             1
 78
             8
140
10.0
141
0.09
142
0.0
143
25.4
144
1.0
145
0.0
146
1.0
147
0.625
170
             0
171
             2
172
             1
173
             1
174
             0
175
             0
176
             4
177
             4
178
             1
270
             2
271
             2
272
             4
273
             2
274
             2
275
             0
280
             0
281
             0
282
             0
283
             1
284
             0
285
             0
286
             0
287
             3
288
             0
340
170
  0
DIMSTYLE
105
1A0
100
AcDbSymbolTableRecord
100
AcDbDimStyleTableRecord
  2
ME10_DIM_4
 70
             0
  3
Ø<>
  4

  5

  6

  7

 40
1.0
 41
15.0
 42
0.0
 43
0.38
 44
2.0
 45
0.0
 46
0.0
 47
0.0
 48
0.0
 71
             0
 72
             0
 73
             0
 74
             0
 75
             0
 76
             0
 77
             1
 78
             8
140
15.0
141
0.09
142
0.0
143
25.4
144
1.0
145
0.0
146
1.0
147
0.625
170
             0
171
             2
172
             1
173
             1
174
             0
175
             0
176
             4
177
             4
178
             1
270
             2
271
             2
272
             4
273
             2
274
             2
275
             0
280
             0
281
             0
282
             0
283
             1
284
             0
285
             0
286
             0
287
             3
288
             0
340
170
  0
DIMSTYLE
105
1AC
100
AcDbSymbolTableRecord
100
AcDbDimStyleTableRecord
  2
ME10_DIM_5
 70
             0
  3
Ø<>
  4

  5

  6

  7

 40
1.0
 41
15.0
 42
0.0
 43
0.38
 44
2.0
 45
0.0
 46
0.0
 47
0.0
 48
0.0
 71
             0
 72
             0
 73
             0
 74
             0
 75
             0
 76
             0
 77
             1
 78
             8
140
15.0
141
0.09
142
0.0
143
25.4
144
1.0
145
0.0
146
1.0
147
0.625
170
             0
171
             2
172
             1
173
             1
174
             0
175
             0
176
             4
177
             4
178
             1
270
             2
271
             2
272
             4
273
             2
274
             2
275
             0
280
             0
281
             0
282
             0
283
             1
284
             0
285
             0
286
             0
287
             3
288
             0
340
170
  0
DIMSTYLE
105
1B8
100
AcDbSymbolTableRecord
100
AcDbDimStyleTableRecord
  2
ME10_DIM_6
 70
             0
  3
DN<>
  4

  5

  6

  7

 40
1.0
 41
15.0
 42
0.0
 43
0.38
 44
2.0
 45
0.0
 46
0.0
 47
0.0
 48
0.0
 71
             0
 72
             0
 73
             0
 74
             0
 75
             0
 76
             0
 77
             1
 78
             8
140
15.0
141
0.09
142
0.0
143
25.4
144
1.0
145
0.0
146
1.0
147
0.625
170
             0
171
             2
172
             1
173
             1
174
             0
175
             0
176
             4
177
             4
178
             1
270
             2
271
             2
272
             4
273
             2
274
             2
275
             0
280
             0
281
             0
282
             0
283
             1
284
             0
285
             0
286
             0
287
             4
288
             0
340
170
  0
DIMSTYLE
105
1C3
100
AcDbSymbolTableRecord
100
AcDbDimStyleTableRecord
  2
ME10_DIM_7
 70
             0
  3

  4

  5

  6

  7

 40
1.0
 41
15.0
 42
0.0
 43
0.38
 44
2.0
 45
0.0
 46
0.0
 47
0.0
 48
0.0
 71
             0
 72
             0
 73
             0
 74
             0
 75
             0
 76
             0
 77
             1
 78
             8
140
15.0
141
0.09
142
0.0
143
25.4
144
1.0
145
0.0
146
1.0
147
0.625
170
             0
171
             2
172
             1
173
             1
174
             0
175
             0
176
             4
177
             4
178
             1
270
             2
271
             2
272
             4
273
             2
274
             2
275
             0
280
             0
281
             0
282
             0
283
             1
284
             0
285
             0
286
             0
287
             3
288
             0
340
170
  0
ENDTAB
  0
TABLE
  2
BLOCK_RECORD
  5
1
100
AcDbSymbolTable
 70
            12
  0
BLOCK_RECORD
  5
A
100
AcDbSymbolTableRecord
100
AcDbBlockTableRecord
  2
*MODEL_SPACE
  0
BLOCK_RECORD
  5
B
100
AcDbSymbolTableRecord
100
AcDbBlockTableRecord
  2
*PAPER_SPACE
  0
BLOCK_RECORD
  5
2C
100
AcDbSymbolTableRecord
100
AcDbBlockTableRecord
  2
062B_2E_AUFSATZRAHMEN
  0
BLOCK_RECORD
  5
2E
100
AcDbSymbolTableRecord
100
AcDbBlockTableRecord
  2
HL_66_0_AUFSATZRAHMEN
  0
BLOCK_RECORD
  5
31
100
AcDbSymbolTableRecord
100
AcDbBlockTableRecord
  2
TOP
  0
BLOCK_RECORD
  5
33
100
AcDbSymbolTableRecord
100
AcDbBlockTableRecord
  2
HL_60H_7_FLACHDACHABLAUF
  0
BLOCK_RECORD
  5
169
100
AcDbSymbolTableRecord
100
AcDbBlockTableRecord
  2
*D4
  0
BLOCK_RECORD
  5
175
100
AcDbSymbolTableRecord
100
AcDbBlockTableRecord
  2
*D5
  0
BLOCK_RECORD
  5
180
100
AcDbSymbolTableRecord
100
AcDbBlockTableRecord
  2
*D6
  0
BLOCK_RECORD
  5
18B
100
AcDbSymbolTableRecord
100
AcDbBlockTableRecord
  2
*D7
  0
BLOCK_RECORD
  5
196
100
AcDbSymbolTableRecord
100
AcDbBlockTableRecord
  2
*D8
  0
BLOCK_RECORD
  5
1A2
100
AcDbSymbolTableRecord
100
AcDbBlockTableRecord
  2
*D9
  0
BLOCK_RECORD
  5
1AE
100
AcDbSymbolTableRecord
100
AcDbBlockTableRecord
  2
*D10
  0
BLOCK_RECORD
  5
1BA
100
AcDbSymbolTableRecord
100
AcDbBlockTableRecord
  2
*D11
  0
ENDTAB
  0
ENDSEC
  0
SECTION
  2
BLOCKS
  0
BLOCK
  5
D
100
AcDbEntity
  8
0
100
AcDbBlockBegin
  2
*MODEL_SPACE
 70
             0
 10
0.0
 20
0.0
 30
0.0
  3
*MODEL_SPACE
  1

  0
ENDBLK
  5
E
100
AcDbEntity
  8
0
100
AcDbBlockEnd
  0
BLOCK
  5
F
100
AcDbEntity
 67
             1
  8
0
100
AcDbBlockBegin
  2
*PAPER_SPACE
 70
             0
 10
0.0
 20
0.0
 30
0.0
  3
*PAPER_SPACE
  1

  0
ENDBLK
  5
10
100
AcDbEntity
 67
             1
  8
0
100
AcDbBlockEnd
  0
BLOCK
  5
2D
100
AcDbEntity
  8
0
100
AcDbBlockBegin
  2
062B_2E_AUFSATZRAHMEN
 70
             0
 10
-69.62906273015423
 20
-398.69745049344692
 30
0.0
  3
062B_2E_AUFSATZRAHMEN
  1

  0
ARC
  5
E7
100
AcDbEntity
  8
LC-009-002-RND-0
  6
CONTINUOUS
 62
             7
100
AcDbCircle
 10
72.00000000000001
 20
3.5
 40
0.5
100
AcDbArc
 50
-90.0
 51
0.0
  0
ARC
  5
E6
100
AcDbEntity
  8
LC-009-002-RND-0
  6
CONTINUOUS
 62
             7
100
AcDbCircle
 10
72.00000000000001
 20
12.5
 40
0.5
100
AcDbArc
 50
-90.0
 51
0.0
  0
ARC
  5
E5
100
AcDbEntity
  8
LC-009-002-RND-0
  6
CONTINUOUS
 62
             7
100
AcDbCircle
 10
72.00000000000001
 20
8.0
 40
0.5
100
AcDbArc
 50
-90.0
 51
0.0
  0
ARC
  5
E4
100
AcDbEntity
  8
LC-009-002-RND-0
  6
CONTINUOUS
 62
             7
100
AcDbCircle
 10
72.00000000000001
 20
17.0
 40
0.5
100
AcDbArc
 50
-90.0
 51
0.0
  0
ARC
  5
E3
100
AcDbEntity
  8
LC-009-002-RND-0
  6
CONTINUOUS
 62
             7
100
AcDbCircle
 10
72.00000000000001
 20
21.5
 40
0.5
100
AcDbArc
 50
-90.0
 51
0.0
  0
ARC
  5
E2
100
AcDbEntity
  8
LC-009-002-RND-0
  6
CONTINUOUS
 62
             7
100
AcDbCircle
 10
72.00000000000001
 20
26.0
 40
0.5
100
AcDbArc
 50
-90.0
 51
0.0
  0
ARC
  5
E1
100
AcDbEntity
  8
LC-009-002-RND-0
  6
CONTINUOUS
 62
             7
100
AcDbCircle
 10
72.00000000000001
 20
30.5
 40
0.5
100
AcDbArc
 50
-90.0
 51
0.0
  0
ARC
  5
E0
100
AcDbEntity
  8
LC-009-002-RND-0
  6
CONTINUOUS
 62
             7
100
AcDbCircle
 10
72.00000000000001
 20
35.0
 40
0.5
100
AcDbArc
 50
-90.0
 51
0.0
  0
ARC
  5
DF
100
AcDbEntity
  8
LC-009-002-RND-0
  6
CONTINUOUS
 62
             7
100
AcDbCircle
 10
72.00000000000001
 20
39.5
 40
0.5
100
AcDbArc
 50
-90.0
 51
0.0
  0
ARC
  5
DE
100
AcDbEntity
  8
LC-009-002-RND-0
  6
CONTINUOUS
 62
             7
100
AcDbCircle
 10
72.00000000000001
 20
44.0
 40
0.5
100
AcDbArc
 50
-90.0
 51
0.0
  0
ARC
  5
DD
100
AcDbEntity
  8
LC-009-002-RND-0
  6
CONTINUOUS
 62
             7
100
AcDbCircle
 10
72.00000000000001
 20
40.5
 40
0.5
100
AcDbArc
 50
0.0
 51
90.0
  0
ARC
  5
DC
100
AcDbEntity
  8
LC-009-002-RND-0
  6
CONTINUOUS
 62
             7
100
AcDbCircle
 10
72.00000000000001
 20
36.0
 40
0.5
100
AcDbArc
 50
0.0
 51
90.0
  0
ARC
  5
DB
100
AcDbEntity
  8
LC-009-002-RND-0
  6
CONTINUOUS
 62
             7
100
AcDbCircle
 10
72.00000000000001
 20
31.5
 40
0.5
100
AcDbArc
 50
0.0
 51
90.0
  0
ARC
  5
DA
100
AcDbEntity
  8
LC-009-002-RND-0
  6
CONTINUOUS
 62
             7
100
AcDbCircle
 10
72.00000000000001
 20
27.0
 40
0.5
100
AcDbArc
 50
0.0
 51
90.0
  0
ARC
  5
D9
100
AcDbEntity
  8
LC-009-002-RND-0
  6
CONTINUOUS
 62
             7
100
AcDbCircle
 10
72.00000000000001
 20
22.5
 40
0.5
100
AcDbArc
 50
0.0
 51
90.0
  0
ARC
  5
D8
100
AcDbEntity
  8
LC-009-002-RND-0
  6
CONTINUOUS
 62
             7
100
AcDbCircle
 10
72.00000000000001
 20
18.0
 40
0.5
100
AcDbArc
 50
0.0
 51
90.0
  0
ARC
  5
D7
100
AcDbEntity
  8
LC-009-002-RND-0
  6
CONTINUOUS
 62
             7
100
AcDbCircle
 10
72.00000000000001
 20
13.5
 40
0.5
100
AcDbArc
 50
0.0
 51
90.0
  0
ARC
  5
D6
100
AcDbEntity
  8
LC-009-002-RND-0
  6
CONTINUOUS
 62
             7
100
AcDbCircle
 10
72.00000000000001
 20
9.0
 40
0.5
100
AcDbArc
 50
0.0
 51
90.0
  0
ARC
  5
D5
100
AcDbEntity
  8
LC-009-002-RND-0
  6
CONTINUOUS
 62
             7
100
AcDbCircle
 10
72.00000000000001
 20
4.5
 40
0.5
100
AcDbArc
 50
0.0
 51
90.0
  0
ARC
  5
D4
100
AcDbEntity
  8
LC-003-002-----0
  6
CONTINUOUS
 62
             7
100
AcDbCircle
 10
72.00000000000001
 20
42.25
 40
1.25
100
AcDbArc
 50
90.0
 51
-90.0
  0
ARC
  5
D3
100
AcDbEntity
  8
LC-003-002-----0
  6
CONTINUOUS
 62
             7
100
AcDbCircle
 10
72.00000000000001
 20
37.75
 40
1.25
100
AcDbArc
 50
90.0
 51
-90.0
  0
ARC
  5
D2
100
AcDbEntity
  8
LC-003-002-----0
  6
CONTINUOUS
 62
             7
100
AcDbCircle
 10
72.00000000000001
 20
33.25
 40
1.25
100
AcDbArc
 50
90.0
 51
-90.0
  0
ARC
  5
D1
100
AcDbEntity
  8
LC-003-002-----0
  6
CONTINUOUS
 62
             7
100
AcDbCircle
 10
72.00000000000001
 20
28.75
 40
1.25
100
AcDbArc
 50
90.0
 51
-90.0
  0
ARC
  5
D0
100
AcDbEntity
  8
LC-003-002-----0
  6
CONTINUOUS
 62
             7
100
AcDbCircle
 10
72.00000000000001
 20
24.25
 40
1.25
100
AcDbArc
 50
90.0
 51
-90.0
  0
ARC
  5
CF
100
AcDbEntity
  8
LC-003-002-----0
  6
CONTINUOUS
 62
             7
100
AcDbCircle
 10
72.00000000000001
 20
19.75
 40
1.25
100
AcDbArc
 50
90.0
 51
-90.0
  0
ARC
  5
CE
100
AcDbEntity
  8
LC-003-002-----0
  6
CONTINUOUS
 62
             7
100
AcDbCircle
 10
72.00000000000001
 20
15.25
 40
1.25
100
AcDbArc
 50
90.0
 51
-90.0
  0
ARC
  5
CD
100
AcDbEntity
  8
LC-003-002-----0
  6
CONTINUOUS
 62
             7
100
AcDbCircle
 10
72.00000000000001
 20
10.75
 40
1.25
100
AcDbArc
 50
90.0
 51
-90.0
  0
ARC
  5
CC
100
AcDbEntity
  8
LC-003-002-----0
  6
CONTINUOUS
 62
             7
100
AcDbCircle
 10
72.00000000000001
 20
6.25
 40
1.25
100
AcDbArc
 50
90.0
 51
-90.0
  0
ARC
  5
CB
100
AcDbEntity
  8
LC-009-002-RND-0
  6
CONTINUOUS
 62
             7
100
AcDbCircle
 10
-71.99999999999997
 20
3.5
 40
0.5
100
AcDbArc
 50
180.0
 51
-90.0
  0
ARC
  5
CA
100
AcDbEntity
  8
LC-009-002-RND-0
  6
CONTINUOUS
 62
             7
100
AcDbCircle
 10
-71.99999999999997
 20
12.5
 40
0.5
100
AcDbArc
 50
180.0
 51
-90.0
  0
ARC
  5
C9
100
AcDbEntity
  8
LC-009-002-RND-0
  6
CONTINUOUS
 62
             7
100
AcDbCircle
 10
-71.99999999999997
 20
8.0
 40
0.5
100
AcDbArc
 50
180.0
 51
-90.0
  0
ARC
  5
C8
100
AcDbEntity
  8
LC-009-002-RND-0
  6
CONTINUOUS
 62
             7
100
AcDbCircle
 10
-71.99999999999997
 20
17.0
 40
0.5
100
AcDbArc
 50
180.0
 51
-90.0
  0
ARC
  5
C7
100
AcDbEntity
  8
LC-009-002-RND-0
  6
CONTINUOUS
 62
             7
100
AcDbCircle
 10
-71.99999999999997
 20
21.5
 40
0.5
100
AcDbArc
 50
180.0
 51
-90.0
  0
ARC
  5
C6
100
AcDbEntity
  8
LC-009-002-RND-0
  6
CONTINUOUS
 62
             7
100
AcDbCircle
 10
-71.99999999999997
 20
26.0
 40
0.5
100
AcDbArc
 50
180.0
 51
-90.0
  0
ARC
  5
C5
100
AcDbEntity
  8
LC-009-002-RND-0
  6
CONTINUOUS
 62
             7
100
AcDbCircle
 10
-71.99999999999997
 20
30.5
 40
0.5
100
AcDbArc
 50
180.0
 51
-90.0
  0
ARC
  5
C4
100
AcDbEntity
  8
LC-009-002-RND-0
  6
CONTINUOUS
 62
             7
100
AcDbCircle
 10
-71.99999999999997
 20
35.0
 40
0.5
100
AcDbArc
 50
180.0
 51
-90.0
  0
ARC
  5
C3
100
AcDbEntity
  8
LC-009-002-RND-0
  6
CONTINUOUS
 62
             7
100
AcDbCircle
 10
-71.99999999999997
 20
39.5
 40
0.5
100
AcDbArc
 50
180.0
 51
-90.0
  0
ARC
  5
C2
100
AcDbEntity
  8
LC-009-002-RND-0
  6
CONTINUOUS
 62
             7
100
AcDbCircle
 10
-71.99999999999997
 20
44.0
 40
0.5
100
AcDbArc
 50
180.0
 51
-90.0
  0
ARC
  5
C1
100
AcDbEntity
  8
LC-009-002-RND-0
  6
CONTINUOUS
 62
             7
100
AcDbCircle
 10
-71.99999999999997
 20
40.5
 40
0.5
100
AcDbArc
 50
90.0
 51
180.0
  0
ARC
  5
C0
100
AcDbEntity
  8
LC-009-002-RND-0
  6
CONTINUOUS
 62
             7
100
AcDbCircle
 10
-71.99999999999997
 20
36.0
 40
0.5
100
AcDbArc
 50
90.0
 51
180.0
  0
ARC
  5
BF
100
AcDbEntity
  8
LC-009-002-RND-0
  6
CONTINUOUS
 62
             7
100
AcDbCircle
 10
-71.99999999999997
 20
31.5
 40
0.5
100
AcDbArc
 50
90.0
 51
180.0
  0
ARC
  5
BE
100
AcDbEntity
  8
LC-009-002-RND-0
  6
CONTINUOUS
 62
             7
100
AcDbCircle
 10
-71.99999999999997
 20
27.0
 40
0.5
100
AcDbArc
 50
90.0
 51
180.0
  0
ARC
  5
BD
100
AcDbEntity
  8
LC-009-002-RND-0
  6
CONTINUOUS
 62
             7
100
AcDbCircle
 10
-71.99999999999997
 20
22.5
 40
0.5
100
AcDbArc
 50
90.0
 51
180.0
  0
ARC
  5
BC
100
AcDbEntity
  8
LC-009-002-RND-0
  6
CONTINUOUS
 62
             7
100
AcDbCircle
 10
-71.99999999999997
 20
18.0
 40
0.5
100
AcDbArc
 50
90.0
 51
180.0
  0
ARC
  5
BB
100
AcDbEntity
  8
LC-009-002-RND-0
  6
CONTINUOUS
 62
             7
100
AcDbCircle
 10
-71.99999999999997
 20
13.5
 40
0.5
100
AcDbArc
 50
90.0
 51
180.0
  0
ARC
  5
BA
100
AcDbEntity
  8
LC-009-002-RND-0
  6
CONTINUOUS
 62
             7
100
AcDbCircle
 10
-71.99999999999997
 20
9.0
 40
0.5
100
AcDbArc
 50
90.0
 51
180.0
  0
ARC
  5
B9
100
AcDbEntity
  8
LC-009-002-RND-0
  6
CONTINUOUS
 62
             7
100
AcDbCircle
 10
-71.99999999999997
 20
4.5
 40
0.5
100
AcDbArc
 50
90.0
 51
180.0
  0
ARC
  5
B8
100
AcDbEntity
  8
LC-003-002-----0
  6
CONTINUOUS
 62
             7
100
AcDbCircle
 10
-71.99999999999997
 20
42.25
 40
1.25
100
AcDbArc
 50
-90.0
 51
90.0
  0
ARC
  5
B7
100
AcDbEntity
  8
LC-003-002-----0
  6
CONTINUOUS
 62
             7
100
AcDbCircle
 10
-71.99999999999997
 20
37.75
 40
1.25
100
AcDbArc
 50
-90.0
 51
90.0
  0
ARC
  5
B6
100
AcDbEntity
  8
LC-003-002-----0
  6
CONTINUOUS
 62
             7
100
AcDbCircle
 10
-71.99999999999997
 20
33.25
 40
1.25
100
AcDbArc
 50
-90.0
 51
90.0
  0
ARC
  5
B5
100
AcDbEntity
  8
LC-003-002-----0
  6
CONTINUOUS
 62
             7
100
AcDbCircle
 10
-71.99999999999997
 20
28.75
 40
1.25
100
AcDbArc
 50
-90.0
 51
90.0
  0
ARC
  5
B4
100
AcDbEntity
  8
LC-003-002-----0
  6
CONTINUOUS
 62
             7
100
AcDbCircle
 10
-71.99999999999997
 20
24.25
 40
1.25
100
AcDbArc
 50
-90.0
 51
90.0
  0
ARC
  5
B3
100
AcDbEntity
  8
LC-003-002-----0
  6
CONTINUOUS
 62
             7
100
AcDbCircle
 10
-71.99999999999997
 20
19.75
 40
1.25
100
AcDbArc
 50
-90.0
 51
90.0
  0
ARC
  5
B2
100
AcDbEntity
  8
LC-003-002-----0
  6
CONTINUOUS
 62
             7
100
AcDbCircle
 10
-71.99999999999997
 20
15.25
 40
1.25
100
AcDbArc
 50
-90.0
 51
90.0
  0
ARC
  5
B1
100
AcDbEntity
  8
LC-003-002-----0
  6
CONTINUOUS
 62
             7
100
AcDbCircle
 10
-71.99999999999997
 20
10.75
 40
1.25
100
AcDbArc
 50
-90.0
 51
90.0
  0
ARC
  5
B0
100
AcDbEntity
  8
LC-003-002-----0
  6
CONTINUOUS
 62
             7
100
AcDbCircle
 10
-71.99999999999997
 20
6.25
 40
1.25
100
AcDbArc
 50
-90.0
 51
90.0
  0
ARC
  5
AF
100
AcDbEntity
  8
LC-009-002-RND-0
  6
CONTINUOUS
 62
             7
100
AcDbCircle
 10
-71.99999999999997
 20
0.0
 40
0.5
100
AcDbArc
 50
90.0
 51
180.0
  0
ARC
  5
AE
100
AcDbEntity
  8
LC-003-002-----0
  6
CONTINUOUS
 62
             7
100
AcDbCircle
 10
-71.99999999999997
 20
1.75
 40
1.25
100
AcDbArc
 50
-90.0
 51
90.0
  0
ARC
  5
AD
100
AcDbEntity
  8
LC-009-002-RND-0
  6
CONTINUOUS
 62
             7
100
AcDbCircle
 10
72.00000000000001
 20
0.0
 40
0.5
100
AcDbArc
 50
0.0
 51
90.0
  0
ARC
  5
AC
100
AcDbEntity
  8
LC-003-002-----0
  6
CONTINUOUS
 62
             7
100
AcDbCircle
 10
72.00000000000001
 20
1.75
 40
1.25
100
AcDbArc
 50
90.0
 51
-90.0
  0
LINE
  5
AB
100
AcDbEntity
  8
1
  6
CONTINUOUS
 62
             7
100
AcDbLine
 10
-63.49999999999997
 20
48.5
 11
-63.49999999999997
 21
51.0
  0
LINE
  5
AA
100
AcDbEntity
  8
1
  6
CONTINUOUS
 62
             7
100
AcDbLine
 10
-63.49999999999997
 20
46.5
 11
-63.49999999999997
 21
48.5
  0
LINE
  5
A9
100
AcDbEntity
  8
1
  6
CONTINUOUS
 62
             7
100
AcDbLine
 10
-63.49999999999997
 20
51.0
 11
-34.99999999999998
 21
46.5
  0
LINE
  5
A8
100
AcDbEntity
  8
1
  6
CONTINUOUS
 62
             7
100
AcDbLine
 10
63.50000000000002
 20
48.5
 11
63.50000000000002
 21
46.5
  0
LINE
  5
A7
100
AcDbEntity
  8
1
  6
CONTINUOUS
 62
             7
100
AcDbLine
 10
72.50000000000001
 20
48.5
 11
63.50000000000002
 21
48.5
  0
LINE
  5
A6
100
AcDbEntity
  8
1
  6
CONTINUOUS
 62
             7
100
AcDbLine
 10
63.50000000000002
 20
46.5
 11
72.50000000000001
 21
46.5
  0
LINE
  5
A5
100
AcDbEntity
  8
1
  6
CONTINUOUS
 62
             7
100
AcDbLine
 10
63.50000000000002
 20
51.0
 11
63.50000000000002
 21
48.5
  0
LINE
  5
A4
100
AcDbEntity
  8
1
  6
CONTINUOUS
 62
             7
100
AcDbLine
 10
63.50000000000002
 20
51.0
 11
72.50000000000001
 21
51.0
  0
LINE
  5
A3
100
AcDbEntity
  8
1
  6
CONTINUOUS
 62
             7
100
AcDbLine
 10
35.00000000000002
 20
46.5
 11
63.50000000000002
 21
51.0
  0
LINE
  5
A2
100
AcDbEntity
  8
1
  6
CONTINUOUS
 62
             7
100
AcDbLine
 10
35.00000000000002
 20
46.5
 11
63.50000000000002
 21
46.5
  0
LINE
  5
A1
100
AcDbEntity
  8
1
  6
CONTINUOUS
 62
             7
100
AcDbLine
 10
35.00000000000002
 20
46.5
 11
35.00000000000002
 21
48.5
  0
LINE
  5
A0
100
AcDbEntity
  8
1
  6
CONTINUOUS
 62
             7
100
AcDbLine
 10
-34.99999999999998
 20
48.5
 11
35.00000000000002
 21
48.5
  0
LINE
  5
9F
100
AcDbEntity
  8
1
  6
CONTINUOUS
 62
             7
100
AcDbLine
 10
-34.99999999999998
 20
46.5
 11
35.00000000000002
 21
46.5
  0
LINE
  5
9E
100
AcDbEntity
  8
1
  6
CONTINUOUS
 62
             7
100
AcDbLine
 10
-34.99999999999998
 20
48.5
 11
-34.99999999999998
 21
46.5
  0
LINE
  5
9D
100
AcDbEntity
  8
LC-003-002-----0
  6
CONTINUOUS
 62
             7
100
AcDbLine
 10
72.50000000000001
 20
51.0
 11
72.50000000000001
 21
48.5
  0
LINE
  5
9C
100
AcDbEntity
  8
LC-003-002-----0
  6
CONTINUOUS
 62
             7
100
AcDbLine
 10
72.50000000000001
 20
40.5
 11
72.50000000000001
 21
39.5
  0
LINE
  5
9B
100
AcDbEntity
  8
LC-003-002-----0
  6
CONTINUOUS
 62
             7
100
AcDbLine
 10
72.50000000000001
 20
36.0
 11
72.50000000000001
 21
35.0
  0
LINE
  5
9A
100
AcDbEntity
  8
LC-003-002-----0
  6
CONTINUOUS
 62
             7
100
AcDbLine
 10
72.50000000000001
 20
31.5
 11
72.50000000000001
 21
30.5
  0
LINE
  5
99
100
AcDbEntity
  8
LC-003-002-----0
  6
CONTINUOUS
 62
             7
100
AcDbLine
 10
72.50000000000001
 20
27.0
 11
72.50000000000001
 21
26.0
  0
LINE
  5
98
100
AcDbEntity
  8
LC-003-002-----0
  6
CONTINUOUS
 62
             7
100
AcDbLine
 10
72.50000000000001
 20
22.5
 11
72.50000000000001
 21
21.5
  0
LINE
  5
97
100
AcDbEntity
  8
LC-003-002-----0
  6
CONTINUOUS
 62
             7
100
AcDbLine
 10
72.50000000000001
 20
18.0
 11
72.50000000000001
 21
17.0
  0
LINE
  5
96
100
AcDbEntity
  8
LC-003-002-----0
  6
CONTINUOUS
 62
             7
100
AcDbLine
 10
72.50000000000001
 20
13.5
 11
72.50000000000001
 21
12.5
  0
LINE
  5
95
100
AcDbEntity
  8
LC-003-002-----0
  6
CONTINUOUS
 62
             7
100
AcDbLine
 10
72.50000000000001
 20
9.0
 11
72.50000000000001
 21
8.0
  0
LINE
  5
94
100
AcDbEntity
  8
LC-003-002-----0
  6
CONTINUOUS
 62
             7
100
AcDbLine
 10
72.50000000000001
 20
4.5
 11
72.50000000000001
 21
3.5
  0
LINE
  5
93
100
AcDbEntity
  8
LC-003-002-----0
  6
CONTINUOUS
 62
             7
100
AcDbLine
 10
72.00000000000001
 20
41.0
 11
72.00000000000001
 21
41.0
  0
LINE
  5
92
100
AcDbEntity
  8
LC-003-002-----0
  6
CONTINUOUS
 62
             7
100
AcDbLine
 10
72.00000000000001
 20
36.5
 11
72.00000000000001
 21
36.5
  0
LINE
  5
91
100
AcDbEntity
  8
LC-003-002-----0
  6
CONTINUOUS
 62
             7
100
AcDbLine
 10
72.00000000000001
 20
32.0
 11
72.00000000000001
 21
32.0
  0
LINE
  5
90
100
AcDbEntity
  8
LC-003-002-----0
  6
CONTINUOUS
 62
             7
100
AcDbLine
 10
72.00000000000001
 20
27.5
 11
72.00000000000001
 21
27.5
  0
LINE
  5
8F
100
AcDbEntity
  8
LC-003-002-----0
  6
CONTINUOUS
 62
             7
100
AcDbLine
 10
72.00000000000001
 20
23.0
 11
72.00000000000001
 21
23.0
  0
LINE
  5
8E
100
AcDbEntity
  8
LC-003-002-----0
  6
CONTINUOUS
 62
             7
100
AcDbLine
 10
72.00000000000001
 20
18.5
 11
72.00000000000001
 21
18.5
  0
LINE
  5
8D
100
AcDbEntity
  8
LC-003-002-----0
  6
CONTINUOUS
 62
             7
100
AcDbLine
 10
72.00000000000001
 20
14.0
 11
72.00000000000001
 21
14.0
  0
LINE
  5
8C
100
AcDbEntity
  8
LC-003-002-----0
  6
CONTINUOUS
 62
             7
100
AcDbLine
 10
72.00000000000001
 20
9.5
 11
72.00000000000001
 21
9.5
  0
LINE
  5
8B
100
AcDbEntity
  8
LC-003-002-----0
  6
CONTINUOUS
 62
             7
100
AcDbLine
 10
72.00000000000001
 20
5.0
 11
72.00000000000001
 21
5.0
  0
LINE
  5
8A
100
AcDbEntity
  8
LC-003-002-----0
  6
CONTINUOUS
 62
             7
100
AcDbLine
 10
72.00000000000001
 20
43.5
 11
72.00000000000001
 21
43.5
  0
LINE
  5
89
100
AcDbEntity
  8
LC-003-002-----0
  6
CONTINUOUS
 62
             7
100
AcDbLine
 10
72.00000000000001
 20
39.0
 11
72.00000000000001
 21
39.0
  0
LINE
  5
88
100
AcDbEntity
  8
LC-003-002-----0
  6
CONTINUOUS
 62
             7
100
AcDbLine
 10
72.00000000000001
 20
34.5
 11
72.00000000000001
 21
34.5
  0
LINE
  5
87
100
AcDbEntity
  8
LC-003-002-----0
  6
CONTINUOUS
 62
             7
100
AcDbLine
 10
72.00000000000001
 20
30.0
 11
72.00000000000001
 21
30.0
  0
LINE
  5
86
100
AcDbEntity
  8
LC-003-002-----0
  6
CONTINUOUS
 62
             7
100
AcDbLine
 10
72.00000000000001
 20
25.5
 11
72.00000000000001
 21
25.5
  0
LINE
  5
85
100
AcDbEntity
  8
LC-003-002-----0
  6
CONTINUOUS
 62
             7
100
AcDbLine
 10
72.00000000000001
 20
21.0
 11
72.00000000000001
 21
21.0
  0
LINE
  5
84
100
AcDbEntity
  8
LC-003-002-----0
  6
CONTINUOUS
 62
             7
100
AcDbLine
 10
72.00000000000001
 20
16.5
 11
72.00000000000001
 21
16.5
  0
LINE
  5
83
100
AcDbEntity
  8
LC-003-002-----0
  6
CONTINUOUS
 62
             7
100
AcDbLine
 10
72.00000000000001
 20
12.0
 11
72.00000000000001
 21
12.0
  0
LINE
  5
82
100
AcDbEntity
  8
LC-003-002-----0
  6
CONTINUOUS
 62
             7
100
AcDbLine
 10
72.00000000000001
 20
7.5
 11
72.00000000000001
 21
7.5
  0
LINE
  5
81
100
AcDbEntity
  8
LC-003-002-----0
  6
CONTINUOUS
 62
             7
100
AcDbLine
 10
72.00000000000001
 20
3.0
 11
72.00000000000001
 21
3.0
  0
LINE
  5
80
100
AcDbEntity
  8
LC-003-002-----0
  6
CONTINUOUS
 62
             7
100
AcDbLine
 10
72.50000000000001
 20
46.5
 11
72.50000000000001
 21
44.0
  0
LINE
  5
7F
100
AcDbEntity
  8
LC-003-002-----0
  6
CONTINUOUS
 62
             7
100
AcDbLine
 10
73.00000000000001
 20
48.5
 11
73.00000000000001
 21
46.5
  0
LINE
  5
7E
100
AcDbEntity
  8
LC-003-002-----0
  6
CONTINUOUS
 62
             7
100
AcDbLine
 10
73.00000000000001
 20
46.5
 11
72.50000000000001
 21
46.5
  0
LINE
  5
7D
100
AcDbEntity
  8
LC-003-002-----0
  6
CONTINUOUS
 62
             7
100
AcDbLine
 10
72.50000000000001
 20
51.0
 11
73.50000000000001
 21
51.0
  0
LINE
  5
7C
100
AcDbEntity
  8
LC-003-002-----0
  6
CONTINUOUS
 62
             7
100
AcDbLine
 10
73.00000000000001
 20
48.5
 11
72.50000000000001
 21
48.5
  0
LINE
  5
7B
100
AcDbEntity
  8
LC-003-002-----0
  6
CONTINUOUS
 62
             7
100
AcDbLine
 10
73.50000000000001
 20
65.0
 11
73.50000000000001
 21
51.0
  0
LINE
  5
7A
100
AcDbEntity
  8
LC-003-002-----0
  6
CONTINUOUS
 62
             7
100
AcDbLine
 10
73.50000000000001
 20
65.0
 11
-73.49999999999997
 21
65.0
  0
LINE
  5
79
100
AcDbEntity
  8
LC-003-002-----0
  6
CONTINUOUS
 62
             7
100
AcDbLine
 10
-72.49999999999997
 20
51.0
 11
-72.49999999999997
 21
48.5
  0
LINE
  5
78
100
AcDbEntity
  8
LC-003-002-----0
  6
CONTINUOUS
 62
             7
100
AcDbLine
 10
-72.49999999999997
 20
40.5
 11
-72.49999999999997
 21
39.5
  0
LINE
  5
77
100
AcDbEntity
  8
LC-003-002-----0
  6
CONTINUOUS
 62
             7
100
AcDbLine
 10
-72.49999999999997
 20
36.0
 11
-72.49999999999997
 21
35.0
  0
LINE
  5
76
100
AcDbEntity
  8
LC-003-002-----0
  6
CONTINUOUS
 62
             7
100
AcDbLine
 10
-72.49999999999997
 20
31.5
 11
-72.49999999999997
 21
30.5
  0
LINE
  5
75
100
AcDbEntity
  8
LC-003-002-----0
  6
CONTINUOUS
 62
             7
100
AcDbLine
 10
-72.49999999999997
 20
27.0
 11
-72.49999999999997
 21
26.0
  0
LINE
  5
74
100
AcDbEntity
  8
LC-003-002-----0
  6
CONTINUOUS
 62
             7
100
AcDbLine
 10
-72.49999999999997
 20
22.5
 11
-72.49999999999997
 21
21.5
  0
LINE
  5
73
100
AcDbEntity
  8
LC-003-002-----0
  6
CONTINUOUS
 62
             7
100
AcDbLine
 10
-72.49999999999997
 20
18.0
 11
-72.49999999999997
 21
17.0
  0
LINE
  5
72
100
AcDbEntity
  8
LC-003-002-----0
  6
CONTINUOUS
 62
             7
100
AcDbLine
 10
-72.49999999999997
 20
13.5
 11
-72.49999999999997
 21
12.5
  0
LINE
  5
71
100
AcDbEntity
  8
LC-003-002-----0
  6
CONTINUOUS
 62
             7
100
AcDbLine
 10
-72.49999999999997
 20
9.0
 11
-72.49999999999997
 21
8.0
  0
LINE
  5
70
100
AcDbEntity
  8
LC-003-002-----0
  6
CONTINUOUS
 62
             7
100
AcDbLine
 10
-72.49999999999997
 20
4.5
 11
-72.49999999999997
 21
3.5
  0
LINE
  5
6F
100
AcDbEntity
  8
LC-003-002-----0
  6
CONTINUOUS
 62
             7
100
AcDbLine
 10
-71.99999999999997
 20
41.0
 11
-71.99999999999997
 21
41.0
  0
LINE
  5
6E
100
AcDbEntity
  8
LC-003-002-----0
  6
CONTINUOUS
 62
             7
100
AcDbLine
 10
-71.99999999999997
 20
36.5
 11
-71.99999999999997
 21
36.5
  0
LINE
  5
6D
100
AcDbEntity
  8
LC-003-002-----0
  6
CONTINUOUS
 62
             7
100
AcDbLine
 10
-71.99999999999997
 20
32.0
 11
-71.99999999999997
 21
32.0
  0
LINE
  5
6C
100
AcDbEntity
  8
LC-003-002-----0
  6
CONTINUOUS
 62
             7
100
AcDbLine
 10
-71.99999999999997
 20
27.5
 11
-71.99999999999997
 21
27.5
  0
LINE
  5
6B
100
AcDbEntity
  8
LC-003-002-----0
  6
CONTINUOUS
 62
             7
100
AcDbLine
 10
-71.99999999999997
 20
23.0
 11
-71.99999999999997
 21
23.0
  0
LINE
  5
6A
100
AcDbEntity
  8
LC-003-002-----0
  6
CONTINUOUS
 62
             7
100
AcDbLine
 10
-71.99999999999997
 20
18.5
 11
-71.99999999999997
 21
18.5
  0
LINE
  5
69
100
AcDbEntity
  8
LC-003-002-----0
  6
CONTINUOUS
 62
             7
100
AcDbLine
 10
-71.99999999999997
 20
14.0
 11
-71.99999999999997
 21
14.0
  0
LINE
  5
68
100
AcDbEntity
  8
LC-003-002-----0
  6
CONTINUOUS
 62
             7
100
AcDbLine
 10
-71.99999999999997
 20
9.5
 11
-71.99999999999997
 21
9.5
  0
LINE
  5
67
100
AcDbEntity
  8
LC-003-002-----0
  6
CONTINUOUS
 62
             7
100
AcDbLine
 10
-71.99999999999997
 20
5.0
 11
-71.99999999999997
 21
5.0
  0
LINE
  5
66
100
AcDbEntity
  8
LC-003-002-----0
  6
CONTINUOUS
 62
             7
100
AcDbLine
 10
-71.99999999999997
 20
43.5
 11
-71.99999999999997
 21
43.5
  0
LINE
  5
65
100
AcDbEntity
  8
LC-003-002-----0
  6
CONTINUOUS
 62
             7
100
AcDbLine
 10
-71.99999999999997
 20
39.0
 11
-71.99999999999997
 21
39.0
  0
LINE
  5
64
100
AcDbEntity
  8
LC-003-002-----0
  6
CONTINUOUS
 62
             7
100
AcDbLine
 10
-71.99999999999997
 20
34.5
 11
-71.99999999999997
 21
34.5
  0
LINE
  5
63
100
AcDbEntity
  8
LC-003-002-----0
  6
CONTINUOUS
 62
             7
100
AcDbLine
 10
-71.99999999999997
 20
30.0
 11
-71.99999999999997
 21
30.0
  0
LINE
  5
62
100
AcDbEntity
  8
LC-003-002-----0
  6
CONTINUOUS
 62
             7
100
AcDbLine
 10
-71.99999999999997
 20
25.5
 11
-71.99999999999997
 21
25.5
  0
LINE
  5
61
100
AcDbEntity
  8
LC-003-002-----0
  6
CONTINUOUS
 62
             7
100
AcDbLine
 10
-71.99999999999997
 20
21.0
 11
-71.99999999999997
 21
21.0
  0
LINE
  5
60
100
AcDbEntity
  8
LC-003-002-----0
  6
CONTINUOUS
 62
             7
100
AcDbLine
 10
-71.99999999999997
 20
16.5
 11
-71.99999999999997
 21
16.5
  0
LINE
  5
5F
100
AcDbEntity
  8
LC-003-002-----0
  6
CONTINUOUS
 62
             7
100
AcDbLine
 10
-71.99999999999997
 20
12.0
 11
-71.99999999999997
 21
12.0
  0
LINE
  5
5E
100
AcDbEntity
  8
LC-003-002-----0
  6
CONTINUOUS
 62
             7
100
AcDbLine
 10
-71.99999999999997
 20
7.5
 11
-71.99999999999997
 21
7.5
  0
LINE
  5
5D
100
AcDbEntity
  8
LC-003-002-----0
  6
CONTINUOUS
 62
             7
100
AcDbLine
 10
-71.99999999999997
 20
3.0
 11
-71.99999999999997
 21
3.0
  0
LINE
  5
5C
100
AcDbEntity
  8
LC-003-002-----0
  6
CONTINUOUS
 62
             7
100
AcDbLine
 10
-72.49999999999997
 20
46.5
 11
-72.49999999999997
 21
44.0
  0
LINE
  5
5B
100
AcDbEntity
  8
LC-003-002-----0
  6
CONTINUOUS
 62
             7
100
AcDbLine
 10
-72.99999999999997
 20
48.5
 11
-72.99999999999997
 21
46.5
  0
LINE
  5
5A
100
AcDbEntity
  8
LC-003-002-----0
  6
CONTINUOUS
 62
             7
100
AcDbLine
 10
-72.99999999999997
 20
46.5
 11
-72.49999999999997
 21
46.5
  0
LINE
  5
59
100
AcDbEntity
  8
LC-003-002-----0
  6
CONTINUOUS
 62
             7
100
AcDbLine
 10
-72.49999999999997
 20
51.0
 11
-73.49999999999997
 21
51.0
  0
LINE
  5
58
100
AcDbEntity
  8
LC-003-002-----0
  6
CONTINUOUS
 62
             7
100
AcDbLine
 10
-72.99999999999997
 20
48.5
 11
-72.49999999999997
 21
48.5
  0
LINE
  5
57
100
AcDbEntity
  8
LC-003-002-----0
  6
CONTINUOUS
 62
             7
100
AcDbLine
 10
-73.49999999999997
 20
65.0
 11
-73.49999999999997
 21
51.0
  0
LINE
  5
56
100
AcDbEntity
  8
1
  6
CONTINUOUS
 62
             7
100
AcDbLine
 10
-72.49999999999997
 20
51.0
 11
63.50000000000002
 21
51.0
  0
LINE
  5
55
100
AcDbEntity
  8
1
  6
CONTINUOUS
 62
             7
100
AcDbLine
 10
-72.49999999999997
 20
48.5
 11
-63.49999999999997
 21
48.5
  0
LINE
  5
54
100
AcDbEntity
  8
1
  6
CONTINUOUS
 62
             7
100
AcDbLine
 10
-72.49999999999997
 20
46.5
 11
-34.99999999999998
 21
46.5
  0
LINE
  5
53
100
AcDbEntity
  8
1
  6
CONTINUOUS
 62
             7
100
AcDbLine
 10
72.00000000000001
 20
43.5
 11
-71.99999999999997
 21
43.5
  0
LINE
  5
52
100
AcDbEntity
  8
1
  6
CONTINUOUS
 62
             7
100
AcDbLine
 10
-71.99999999999997
 20
41.0
 11
72.00000000000001
 21
41.0
  0
LINE
  5
51
100
AcDbEntity
  8
1
  6
CONTINUOUS
 62
             7
100
AcDbLine
 10
-71.99999999999997
 20
39.0
 11
72.00000000000001
 21
39.0
  0
LINE
  5
50
100
AcDbEntity
  8
1
  6
CONTINUOUS
 62
             7
100
AcDbLine
 10
-71.99999999999997
 20
36.5
 11
72.00000000000001
 21
36.5
  0
LINE
  5
4F
100
AcDbEntity
  8
1
  6
CONTINUOUS
 62
             7
100
AcDbLine
 10
-71.99999999999997
 20
34.5
 11
72.00000000000001
 21
34.5
  0
LINE
  5
4E
100
AcDbEntity
  8
1
  6
CONTINUOUS
 62
             7
100
AcDbLine
 10
-71.99999999999997
 20
32.0
 11
72.00000000000001
 21
32.0
  0
LINE
  5
4D
100
AcDbEntity
  8
1
  6
CONTINUOUS
 62
             7
100
AcDbLine
 10
-71.99999999999997
 20
30.0
 11
72.00000000000001
 21
30.0
  0
LINE
  5
4C
100
AcDbEntity
  8
1
  6
CONTINUOUS
 62
             7
100
AcDbLine
 10
-71.99999999999997
 20
27.5
 11
72.00000000000001
 21
27.5
  0
LINE
  5
4B
100
AcDbEntity
  8
1
  6
CONTINUOUS
 62
             7
100
AcDbLine
 10
-71.99999999999997
 20
25.5
 11
72.00000000000001
 21
25.5
  0
LINE
  5
4A
100
AcDbEntity
  8
1
  6
CONTINUOUS
 62
             7
100
AcDbLine
 10
-71.99999999999997
 20
23.0
 11
72.00000000000001
 21
23.0
  0
LINE
  5
49
100
AcDbEntity
  8
1
  6
CONTINUOUS
 62
             7
100
AcDbLine
 10
-71.99999999999997
 20
21.0
 11
72.00000000000001
 21
21.0
  0
LINE
  5
48
100
AcDbEntity
  8
1
  6
CONTINUOUS
 62
             7
100
AcDbLine
 10
-71.99999999999997
 20
18.5
 11
72.00000000000001
 21
18.5
  0
LINE
  5
47
100
AcDbEntity
  8
1
  6
CONTINUOUS
 62
             7
100
AcDbLine
 10
-71.99999999999997
 20
16.5
 11
72.00000000000001
 21
16.5
  0
LINE
  5
46
100
AcDbEntity
  8
1
  6
CONTINUOUS
 62
             7
100
AcDbLine
 10
-71.99999999999997
 20
14.0
 11
72.00000000000001
 21
14.0
  0
LINE
  5
45
100
AcDbEntity
  8
1
  6
CONTINUOUS
 62
             7
100
AcDbLine
 10
-71.99999999999997
 20
12.0
 11
72.00000000000001
 21
12.0
  0
LINE
  5
44
100
AcDbEntity
  8
1
  6
CONTINUOUS
 62
             7
100
AcDbLine
 10
-71.99999999999997
 20
9.5
 11
72.00000000000001
 21
9.5
  0
LINE
  5
43
100
AcDbEntity
  8
1
  6
CONTINUOUS
 62
             7
100
AcDbLine
 10
-71.99999999999997
 20
7.5
 11
72.00000000000001
 21
7.5
  0
LINE
  5
42
100
AcDbEntity
  8
1
  6
CONTINUOUS
 62
             7
100
AcDbLine
 10
-71.99999999999997
 20
5.0
 11
72.00000000000001
 21
5.0
  0
LINE
  5
41
100
AcDbEntity
  8
1
  6
CONTINUOUS
 62
             7
100
AcDbLine
 10
-71.99999999999997
 20
3.0
 11
72.00000000000001
 21
3.0
  0
LINE
  5
40
100
AcDbEntity
  8
LC-003-002-----0
  6
CONTINUOUS
 62
             7
100
AcDbLine
 10
-71.99999999999997
 20
0.5
 11
-71.99999999999997
 21
0.5
  0
LINE
  5
3F
100
AcDbEntity
  8
LC-003-002-----0
  6
CONTINUOUS
 62
             7
100
AcDbLine
 10
72.00000000000001
 20
0.5
 11
72.00000000000001
 21
0.5
  0
LINE
  5
3E
100
AcDbEntity
  8
1
  6
CONTINUOUS
 62
             7
100
AcDbLine
 10
-71.99999999999997
 20
0.5
 11
72.00000000000001
 21
0.5
  0
LINE
  5
3D
100
AcDbEntity
  8
1
  6
PHANTOM
 62
             2
100
AcDbLine
 10
0.00000000000001
 20
67.65862692968415
 11
0.00000000000001
 21
-28.23482445343979
  0
POINT
  5
3C
100
AcDbEntity
  8
0
 62
             7
100
AcDbPoint
 10
73.50000000000001
 20
65.0
  0
POINT
  5
3B
100
AcDbEntity
  8
0
 62
             7
100
AcDbPoint
 10
73.50000000000001
 20
65.0
  0
POINT
  5
3A
100
AcDbEntity
  8
0
 62
             7
100
AcDbPoint
 10
-73.49999999999997
 20
65.0
  0
ENDBLK
  5
E8
100
AcDbEntity
  8
0
100
AcDbBlockEnd
  0
BLOCK
  5
2F
100
AcDbEntity
  8
0
100
AcDbBlockBegin
  2
HL_66_0_AUFSATZRAHMEN
 70
             0
 10
-3.92514290157587
 20
-323.25037612649521
 30
0.0
  3
HL_66_0_AUFSATZRAHMEN
  1

  0
INSERT
  5
30
100
AcDbEntity
  8
1
100
AcDbBlockReference
  2
062B_2E_AUFSATZRAHMEN
 10
-69.62906273015423
 20
-398.69745049344692
  0
ENDBLK
  5
E9
100
AcDbEntity
  8
0
100
AcDbBlockEnd
  0
BLOCK
  5
32
100
AcDbEntity
  8
0
100
AcDbBlockBegin
  2
TOP
 70
             0
 10
30.38631646603096
 20
-831.42519048405893
 30
0.0
  3
TOP
  1

  0
ARC
  5
165
100
AcDbEntity
  8
LC-004-001-RND-0
  6
CONTINUOUS
 62
             7
100
AcDbCircle
 10
-96.48576245669432
 20
-11.81053099999997
 40
1.50000000000006
100
AcDbArc
 50
2.99999999998361
 51
86.00000299998658
  0
ARC
  5
164
100
AcDbEntity
  8
LC-002-002-RND-0
  6
CONTINUOUS
 62
             7
100
AcDbCircle
 10
-91.77571245669429
 20
-16.20068399999997
 40
3.00000000000028
100
AcDbArc
 50
-176.99999999999685
 51
-90.0
  0
ARC
  5
163
100
AcDbEntity
  8
LC-002-002-RND-0
  6
CONTINUOUS
 62
             7
100
AcDbCircle
 10
-91.49950845669429
 20
-21.20068399999997
 40
2.0
100
AcDbArc
 50
0.0
 51
90.0
  0
ARC
  5
162
100
AcDbEntity
  8
LC-002-002-RND-0
  6
CONTINUOUS
 62
             7
100
AcDbCircle
 10
-84.49950845669429
 20
-29.10821799999997
 40
5.0
100
AcDbArc
 50
180.0
 51
-154.00000000000486
  0
ARC
  5
161
100
AcDbEntity
  8
LC-004-001-RND-0
  6
CONTINUOUS
 62
             7
100
AcDbCircle
 10
96.48533054330568
 20
-11.81053099999997
 40
1.49999999999965
100
AcDbArc
 50
93.99999700001342
 51
177.00000000001663
  0
ARC
  5
160
100
AcDbEntity
  8
LC-002-002-RND-0
  6
CONTINUOUS
 62
             7
100
AcDbCircle
 10
91.77528154330565
 20
-16.20068399999997
 40
3.0
100
AcDbArc
 50
-90.0
 51
-3.00000000000314
  0
ARC
  5
15F
100
AcDbEntity
  8
LC-002-002-RND-0
  6
CONTINUOUS
 62
             7
100
AcDbCircle
 10
-81.75021545669432
 20
-42.72915299999994
 40
1.5
100
AcDbArc
 50
0.0
 51
71.90706399998891
  0
ARC
  5
15E
100
AcDbEntity
  8
LC-002-002-RND-0
  6
CONTINUOUS
 62
             7
100
AcDbCircle
 10
91.49907754330565
 20
-21.20068399999997
 40
2.0
100
AcDbArc
 50
90.0
 51
180.0
  0
ARC
  5
15D
100
AcDbEntity
  8
LC-002-002-RND-0
  6
CONTINUOUS
 62
             7
100
AcDbCircle
 10
84.49907754330565
 20
-29.10821799999997
 40
5.00000000000005
100
AcDbArc
 50
-25.99999999999517
 51
0.0
  0
ARC
  5
15C
100
AcDbEntity
  8
LC-002-002-RND-0
  6
CONTINUOUS
 62
             7
100
AcDbCircle
 10
81.08493254330568
 20
-36.10825199999999
 40
4.9999999999995
100
AcDbArc
 50
-71.90706399999755
 51
-25.99999999999519
  0
ARC
  5
15B
100
AcDbEntity
  8
LC-002-002-RND-0
  6
CONTINUOUS
 62
             7
100
AcDbCircle
 10
-81.08536445669432
 20
-36.10825199999999
 40
5.00000000000003
100
AcDbArc
 50
-154.00000000000537
 51
-108.09293600000245
  0
ARC
  5
15A
100
AcDbEntity
  8
LC-002-002-RND-0
  6
CONTINUOUS
 62
             7
100
AcDbCircle
 10
72.49978454330568
 20
-101.600684
 40
8.0
100
AcDbArc
 50
-90.0
 51
0.0
  0
ARC
  5
159
100
AcDbEntity
  8
LC-002-002-RND-0
  6
CONTINUOUS
 62
             7
100
AcDbCircle
 10
-72.50021545669432
 20
-101.600684
 40
8.0
100
AcDbArc
 50
180.0
 51
-90.0
  0
ARC
  5
158
100
AcDbEntity
  8
LC-002-002-RND-0
  6
CONTINUOUS
 62
             7
100
AcDbCircle
 10
81.74978454330568
 20
-42.72915299999994
 40
1.5
100
AcDbArc
 50
108.09293600001109
 51
180.0
  0
ARC
  5
157
100
AcDbEntity
  8
LC-002-002-RND-0
  6
CONTINUOUS
 62
             7
100
AcDbCircle
 10
-115.9994594142118
 20
-182.0897239999999
 40
40.0
100
AcDbArc
 50
-90.0
 51
0.0
  0
ARC
  5
156
100
AcDbEntity
  8
LC-002-002-RND-0
  6
CONTINUOUS
 62
             7
100
AcDbCircle
 10
-115.9994594142118
 20
-182.0897239999999
 40
46.5
100
AcDbArc
 50
-90.0
 51
0.0
  0
LINE
  5
155
100
AcDbEntity
  8
LC-001-002-----0
  6
CONTINUOUS
 62
             7
100
AcDbLine
 10
-177.0019584566943
 20
-7.00045699999998
 11
-111.1966454566942
 21
-7.69089799999995
  0
LINE
  5
154
100
AcDbEntity
  8
LC-001-002-----0
  6
CONTINUOUS
 62
             7
100
AcDbLine
 10
-111.1966454566942
 20
-7.69089799999995
 11
-109.4900204566943
 21
-9.39752299999998
  0
LINE
  5
153
100
AcDbEntity
  8
LC-003-001-----0
  6
CONTINUOUS
 62
             7
100
AcDbLine
 10
-109.4900204566943
 20
-9.39752299999998
 11
-96.38112845669429
 21
-10.31418500000001
  0
LINE
  5
152
100
AcDbEntity
  8
LC-001-002-----0
  6
CONTINUOUS
 62
             7
100
AcDbLine
 10
-95.01395045669432
 20
-11.73339699999997
 11
-94.77160145669433
 21
-16.35769199999999
  0
LINE
  5
151
100
AcDbEntity
  8
LC-001-002-----0
  6
CONTINUOUS
 62
             7
100
AcDbLine
 10
-89.49950845669429
 20
-29.10821799999997
 11
-89.49950845669429
 21
-21.20068399999997
  0
LINE
  5
150
100
AcDbEntity
  8
LC-001-002-----0
  6
CONTINUOUS
 62
             7
100
AcDbLine
 10
111.1962135433056
 20
-7.69089799999995
 11
109.4895885433057
 21
-9.39752299999998
  0
LINE
  5
14F
100
AcDbEntity
  8
LC-001-002-----0
  6
CONTINUOUS
 62
             7
100
AcDbLine
 10
95.01351854330568
 20
-11.73339699999997
 11
94.77116954330569
 21
-16.35769199999999
  0
LINE
  5
14E
100
AcDbEntity
  8
LC-001-002-----0
  6
CONTINUOUS
 62
             7
100
AcDbLine
 10
88.99304754330564
 20
-31.30007399999994
 11
85.57890254330567
 21
-38.30010799999997
  0
LINE
  5
14D
100
AcDbEntity
  8
LC-001-002-----0
  6
CONTINUOUS
 62
             7
100
AcDbLine
 10
82.63772854330563
 20
-40.86102199999993
 11
81.28394554330572
 21
-41.30332199999998
  0
LINE
  5
14C
100
AcDbEntity
  8
LC-001-002-----0
  6
CONTINUOUS
 62
             7
100
AcDbLine
 10
-88.99347945669427
 20
-31.30007399999994
 11
-85.57933445669431
 21
-38.30010799999997
  0
LINE
  5
14B
100
AcDbEntity
  8
LC-001-002-----0
  6
CONTINUOUS
 62
             7
100
AcDbLine
 10
-82.63816045669438
 20
-40.86102199999993
 11
-81.28437745669436
 21
-41.30332199999998
  0
LINE
  5
14A
100
AcDbEntity
  8
LC-001-002-----0
  6
CONTINUOUS
 62
             7
100
AcDbLine
 10
-177.0019584566943
 20
-4.0
 11
-177.0019584566943
 21
-7.00045699999998
  0
LINE
  5
149
100
AcDbEntity
  8
LC-001-002-----0
  6
CONTINUOUS
 62
             7
100
AcDbLine
 10
177.00152654330569
 20
-4.0
 11
177.00152654330569
 21
-7.00732599999998
  0
LINE
  5
148
100
AcDbEntity
  8
LC-001-002-----0
  6
CONTINUOUS
 62
             7
100
AcDbLine
 10
80.24978454330568
 20
-42.72915299999994
 11
80.24978454330568
 21
-99.600684
  0
LINE
  5
147
100
AcDbEntity
  8
LC-001-002-----0
  6
CONTINUOUS
 62
             7
100
AcDbLine
 10
-86.74812745669436
 20
-19.71605199999999
 11
-86.74812745669436
 21
-19.71605199999999
  0
LINE
  5
146
100
AcDbEntity
  8
LC-001-002-----0
  6
CONTINUOUS
 62
             7
100
AcDbLine
 10
-80.25021545669432
 20
-42.72915299999994
 11
-80.25021545669432
 21
-99.600684
  0
LINE
  5
145
100
AcDbEntity
  8
LC-001-002-----0
  6
CONTINUOUS
 62
             7
100
AcDbLine
 10
111.1962135433056
 20
-7.69089799999995
 11
177.00152654330569
 21
-7.00732599999998
  0
LINE
  5
144
100
AcDbEntity
  8
LC-001-002-----0
  6
CONTINUOUS
 62
             7
100
AcDbLine
 10
-80.50021545669432
 20
-99.600684
 11
-77.50021545669432
 21
-99.600684
  0
LINE
  5
143
100
AcDbEntity
  8
LC-001-002-----0
  6
CONTINUOUS
 62
             7
100
AcDbLine
 10
-80.50021545669432
 20
-101.600684
 11
-80.50021545669432
 21
-99.600684
  0
LINE
  5
142
100
AcDbEntity
  8
LC-001-002-----0
  6
CONTINUOUS
 62
             7
100
AcDbLine
 10
80.49978454330568
 20
-101.600684
 11
80.49978454330568
 21
-99.600684
  0
LINE
  5
141
100
AcDbEntity
  8
LC-001-002-----0
  6
CONTINUOUS
 62
             7
100
AcDbLine
 10
-72.50021545669432
 20
-109.600684
 11
-69.4994594142118
 21
-109.600684
  0
LINE
  5
140
100
AcDbEntity
  8
LC-001-002-----0
  6
CONTINUOUS
 62
             7
100
AcDbLine
 10
-67.49280845669438
 20
-109.600684
 11
-67.49280845669438
 21
-112.100684
  0
LINE
  5
13F
100
AcDbEntity
  8
LC-001-002-----0
  6
CONTINUOUS
 62
             7
100
AcDbLine
 10
-67.49280845669438
 20
-112.100684
 11
-57.49151945669433
 21
-112.100684
  0
LINE
  5
13E
100
AcDbEntity
  8
LC-001-002-----0
  6
CONTINUOUS
 62
             7
100
AcDbLine
 10
-57.49151945669433
 20
-112.100684
 11
-57.49151945669433
 21
-109.600684
  0
LINE
  5
13D
100
AcDbEntity
  8
LC-001-002-----0
  6
CONTINUOUS
 62
             7
100
AcDbLine
 10
-57.49151945669433
 20
-109.600684
 11
-37.50001206666267
 21
-109.600684
  0
LINE
  5
13C
100
AcDbEntity
  8
LC-001-002-----0
  6
CONTINUOUS
 62
             7
100
AcDbLine
 10
57.4910875433057
 20
-109.600684
 11
57.4910875433057
 21
-112.100684
  0
LINE
  5
13B
100
AcDbEntity
  8
LC-001-002-----0
  6
CONTINUOUS
 62
             7
100
AcDbLine
 10
57.4910875433057
 20
-112.100684
 11
67.49237654330563
 21
-112.100684
  0
LINE
  5
13A
100
AcDbEntity
  8
LC-001-002-----0
  6
CONTINUOUS
 62
             7
100
AcDbLine
 10
67.49237654330563
 20
-112.100684
 11
67.49237654330563
 21
-109.600684
  0
LINE
  5
139
100
AcDbEntity
  8
LC-001-002-----0
  6
CONTINUOUS
 62
             7
100
AcDbLine
 10
37.49978454330568
 20
-109.600684
 11
57.4910875433057
 21
-109.600684
  0
LINE
  5
138
100
AcDbEntity
  8
LC-001-002-----0
  6
CONTINUOUS
 62
             7
100
AcDbLine
 10
67.49237654330563
 20
-109.600684
 11
72.49978454330568
 21
-109.600684
  0
LINE
  5
137
100
AcDbEntity
  8
LC-001-002-----0
  6
CONTINUOUS
 62
             7
100
AcDbLine
 10
-177.0019584566943
 20
-4.0
 11
-250.00021545669429
 21
-4.0
  0
LINE
  5
136
100
AcDbEntity
  8
LC-001-002-----0
  6
CONTINUOUS
 62
             7
100
AcDbLine
 10
-150.71705145669429
 20
0.0
 11
-250.00021545669429
 21
0.0
  0
LINE
  5
135
100
AcDbEntity
  8
LC-001-002-----0
  6
CONTINUOUS
 62
             7
100
AcDbLine
 10
249.99978454330551
 20
0.0
 11
249.99978454330551
 21
-4.0
  0
LINE
  5
134
100
AcDbEntity
  8
LC-001-002-----0
  6
CONTINUOUS
 62
             7
100
AcDbLine
 10
-150.71705145669429
 20
0.0
 11
249.99978454330551
 21
0.0
  0
LINE
  5
133
100
AcDbEntity
  8
LC-001-002-----0
  6
CONTINUOUS
 62
             7
100
AcDbLine
 10
177.00152654330569
 20
-4.0
 11
249.99978454330551
 21
-4.0
  0
LINE
  5
132
100
AcDbEntity
  8
LC-001-002-----0
  6
CONTINUOUS
 62
             7
100
AcDbLine
 10
80.24978454330568
 20
-99.600684
 11
77.74907754330565
 21
-99.600684
  0
LINE
  5
131
100
AcDbEntity
  8
LC-001-002-----0
  6
CONTINUOUS
 62
             7
100
AcDbLine
 10
96.38069654330565
 20
-10.31418500000001
 11
109.4895885433057
 21
-9.39752299999998
  0
LINE
  5
130
100
AcDbEntity
  8
LC-001-002-----0
  6
CONTINUOUS
 62
             7
100
AcDbLine
 10
91.77528154330565
 20
-19.20068399999997
 11
91.49907754330565
 21
-19.20068399999997
  0
LINE
  5
12F
100
AcDbEntity
  8
LC-001-002-----0
  6
CONTINUOUS
 62
             7
100
AcDbLine
 10
89.49907754330565
 20
-21.20068399999997
 11
89.49907754330565
 21
-29.10821799999997
  0
LINE
  5
12E
100
AcDbEntity
  8
LC-001-002-----0
  6
CONTINUOUS
 62
             7
100
AcDbLine
 10
-37.50001206666267
 20
-109.600684
 11
-37.50021545669432
 21
-162.100684
  0
LINE
  5
12D
100
AcDbEntity
  8
LC-001-002-----0
  6
CONTINUOUS
 62
             7
100
AcDbLine
 10
-37.50021545669432
 20
-162.100684
 11
-36.56239345669435
 21
-165.600684
  0
LINE
  5
12C
100
AcDbEntity
  8
LC-001-002-----0
  6
CONTINUOUS
 62
             7
100
AcDbLine
 10
-36.56239345669435
 20
-165.600684
 11
36.5619615433057
 21
-165.600684
  0
LINE
  5
12B
100
AcDbEntity
  8
LC-001-002-----0
  6
CONTINUOUS
 62
             7
100
AcDbLine
 10
37.49978454330568
 20
-162.100684
 11
36.5619615433057
 21
-165.600684
  0
LINE
  5
12A
100
AcDbEntity
  8
LC-001-002-----0
  6
CONTINUOUS
 62
             7
100
AcDbLine
 10
37.49978454330568
 20
-109.600684
 11
37.49978454330568
 21
-162.100684
  0
LINE
  5
129
100
AcDbEntity
  8
LC-001-002-----0
  6
CONTINUOUS
 62
             7
100
AcDbLine
 10
-37.50001206666267
 20
-109.600684
 11
-37.50000245669429
 21
-109.600684
  0
LINE
  5
128
100
AcDbEntity
  8
1
  6
CONTINUOUS
 62
             7
100
AcDbLine
 10
-80.25021545669432
 20
-42.72915299999994
 11
80.24978454330568
 21
-42.72915299999994
  0
LINE
  5
127
100
AcDbEntity
  8
1
  6
CONTINUOUS
 62
             7
100
AcDbLine
 10
-37.50001206666267
 20
-109.600684
 11
37.49978454330568
 21
-109.600684
  0
LINE
  5
126
100
AcDbEntity
  8
1
  6
CONTINUOUS
 62
             7
100
AcDbLine
 10
-250.00021545669429
 20
0.0
 11
-250.00021545669429
 21
-4.0
  0
LINE
  5
125
100
AcDbEntity
  8
1
  6
CONTINUOUS
 62
             7
100
AcDbLine
 10
-81.28437659949935
 20
-41.30332195842198
 11
81.28394568611071
 21
-41.30332195842198
  0
LINE
  5
124
100
AcDbEntity
  8
1
  6
CONTINUOUS
 62
             7
100
AcDbLine
 10
-89.49950845669429
 20
-21.20068399999997
 11
89.49907754330565
 21
-21.20068399999997
  0
LINE
  5
123
100
AcDbEntity
  8
1
  6
CONTINUOUS
 62
             7
100
AcDbLine
 10
91.49907754330565
 20
-19.20068399999997
 11
-91.49950845669429
 21
-19.20068399999997
  0
LINE
  5
122
100
AcDbEntity
  8
1
  6
CONTINUOUS
 62
             7
100
AcDbLine
 10
-67.49280845669438
 20
-109.600684
 11
-57.49151945669433
 21
-109.600684
  0
LINE
  5
121
100
AcDbEntity
  8
1
  6
CONTINUOUS
 62
             7
100
AcDbLine
 10
57.4910875433057
 20
-109.600684
 11
67.49237654330563
 21
-109.600684
  0
LINE
  5
120
100
AcDbEntity
  8
1
  6
CONTINUOUS
 62
             7
100
AcDbLine
 10
-177.0019584566943
 20
-4.0
 11
177.00152654330569
 21
-4.0
  0
LINE
  5
11F
100
AcDbEntity
  8
1
  6
CONTINUOUS
 62
             7
100
AcDbLine
 10
-111.1966454566942
 20
-7.69089799999995
 11
111.1962135433056
 21
-7.69089799999995
  0
LINE
  5
11E
100
AcDbEntity
  8
1
  6
CONTINUOUS
 62
             7
100
AcDbLine
 10
-94.98781815456238
 20
-11.73202706563598
 11
95.01351854330568
 21
-11.73202706563598
  0
LINE
  5
11D
100
AcDbEntity
  8
1
  6
CONTINUOUS
 62
             7
100
AcDbLine
 10
-96.38112845669429
 20
-10.31418500000001
 11
96.38069654330565
 21
-10.31418500000001
  0
LINE
  5
11C
100
AcDbEntity
  8
1
  6
CONTINUOUS
 62
             7
100
AcDbLine
 10
109.4895885433057
 20
-9.39752299999998
 11
-109.4900204566943
 21
-9.39752299999998
  0
LINE
  5
11B
100
AcDbEntity
  8
1
  6
CONTINUOUS
 62
             7
100
AcDbLine
 10
-94.77160145669433
 20
-16.35769199999999
 11
94.77117014756965
 21
-16.35769199999999
  0
LINE
  5
11A
100
AcDbEntity
  8
1
  6
CONTINUOUS
 62
             7
100
AcDbLine
 10
89.49907754330565
 20
-29.10821799999997
 11
-89.49950845669429
 21
-29.10821799999997
  0
LINE
  5
119
100
AcDbEntity
  8
1
  6
CONTINUOUS
 62
             7
100
AcDbLine
 10
-88.99347868819035
 20
-31.300073733945
 11
88.99304777480171
 21
-31.300073733945
  0
LINE
  5
118
100
AcDbEntity
  8
1
  6
PHANTOM
 62
             2
100
AcDbLine
 10
0.00001853315745
 20
-41.30330789096723
 11
-0.00023139928424
 21
-170.3308033187821
  0
LINE
  5
117
100
AcDbEntity
  8
1
  6
CONTINUOUS
 62
             7
100
AcDbLine
 10
-37.50021545669432
 20
-162.100684
 11
37.49978454330568
 21
-162.100684
  0
LINE
  5
116
100
AcDbEntity
  8
LC-001-002-----0
  6
CONTINUOUS
 62
             7
100
AcDbLine
 10
-189.11800541421169
 20
-228.95612099999991
 11
-189.11800541421169
 21
-228.95612099999991
  0
LINE
  5
115
100
AcDbEntity
  8
LC-001-002-----0
  6
DASHDOT
 62
             2
100
AcDbLine
 10
-117.9994594142118
 20
-212.55013
 11
-117.9994594142118
 21
-240.209519
  0
LINE
  5
114
100
AcDbEntity
  8
LC-001-002-----0
  6
DASHDOT
 62
             2
100
AcDbLine
 10
-115.9994594142118
 20
-212.55013
 11
-115.9994594142118
 21
-240.209519
  0
LINE
  5
113
100
AcDbEntity
  8
LC-001-002-----0
  6
CONTINUOUS
 62
             7
100
AcDbLine
 10
-117.9994594142118
 20
-228.5897239999999
 11
-170.36826941421171
 21
-228.5897239999999
  0
LINE
  5
112
100
AcDbEntity
  8
LC-001-002-----0
  6
CONTINUOUS
 62
             7
100
AcDbLine
 10
-117.9994594142118
 20
-222.0897239999999
 11
-170.36826941421171
 21
-222.0897239999999
  0
LINE
  5
111
100
AcDbEntity
  8
LC-001-002-----0
  6
CONTINUOUS
 62
             7
100
AcDbLine
 10
-170.36826941421171
 20
-222.0897239999999
 11
-170.36826941421171
 21
-228.5897239999999
  0
LINE
  5
110
100
AcDbEntity
  8
LC-001-002-----0
  6
CONTINUOUS
 62
             7
100
AcDbLine
 10
-170.36826941421171
 20
-223.08766600000001
 11
-195.11508141421169
 21
-221.79073999999989
  0
LINE
  5
10F
100
AcDbEntity
  8
LC-001-002-----0
  6
CONTINUOUS
 62
             7
100
AcDbLine
 10
-170.36826941421171
 20
-224.5897239999999
 11
-195.2836024142118
 21
-223.28396699999999
  0
LINE
  5
10E
100
AcDbEntity
  8
LC-001-002-----0
  6
CONTINUOUS
 62
             7
100
AcDbLine
 10
-170.36826941421171
 20
-224.5897239999999
 11
-195.36826941421171
 21
-224.5897239999999
  0
LINE
  5
10D
100
AcDbEntity
  8
LC-001-002-----0
  6
CONTINUOUS
 62
             7
100
AcDbLine
 10
-170.36826941421171
 20
-226.0897239999999
 11
-195.36826941421171
 21
-226.0897239999999
  0
LINE
  5
10C
100
AcDbEntity
  8
LC-001-002-----0
  6
CONTINUOUS
 62
             7
100
AcDbLine
 10
-170.36826941421171
 20
-226.0897239999999
 11
-195.2836024142118
 21
-227.39548199999999
  0
LINE
  5
10B
100
AcDbEntity
  8
LC-001-002-----0
  6
CONTINUOUS
 62
             7
100
AcDbLine
 10
-170.36826941421171
 20
-227.59178299999999
 11
-195.11508141421169
 21
-228.88870800000001
  0
LINE
  5
10A
100
AcDbEntity
  8
LC-001-002-----0
  6
CONTINUOUS
 62
             7
100
AcDbLine
 10
-195.14316841421169
 20
-228.63983699999989
 11
-202.1573844142118
 21
-229.00743700000001
  0
LINE
  5
109
100
AcDbEntity
  8
LC-001-002-----0
  6
CONTINUOUS
 62
             7
100
AcDbLine
 10
-195.25551541421169
 20
-227.64435299999991
 11
-202.2565564142117
 21
-228.01126199999999
  0
LINE
  5
108
100
AcDbEntity
  8
LC-001-002-----0
  6
CONTINUOUS
 62
             7
100
AcDbLine
 10
-195.36826941421171
 20
-225.8397239999999
 11
-202.36826941421171
 21
-225.8397239999999
  0
LINE
  5
107
100
AcDbEntity
  8
LC-001-002-----0
  6
CONTINUOUS
 62
             7
100
AcDbLine
 10
-195.36826941421171
 20
-224.8397239999999
 11
-202.36826941421171
 21
-224.8397239999999
  0
LINE
  5
106
100
AcDbEntity
  8
LC-001-002-----0
  6
CONTINUOUS
 62
             7
100
AcDbLine
 10
-195.25551541421169
 20
-223.03509600000001
 11
-202.2565564142117
 21
-222.66818699999999
  0
LINE
  5
105
100
AcDbEntity
  8
LC-001-002-----0
  6
CONTINUOUS
 62
             7
100
AcDbLine
 10
-195.14316841421169
 20
-222.03961099999989
 11
-202.1573844142118
 21
-221.672012
  0
LINE
  5
104
100
AcDbEntity
  8
LC-001-002-----0
  6
CONTINUOUS
 62
             7
100
AcDbLine
 10
-195.11508141421169
 20
-221.79073999999989
 11
-195.2836024142118
 21
-223.28396699999999
  0
LINE
  5
103
100
AcDbEntity
  8
LC-001-002-----0
  6
CONTINUOUS
 62
             7
100
AcDbLine
 10
-195.36826941421171
 20
-224.5897239999999
 11
-195.36826941421171
 21
-226.0897239999999
  0
LINE
  5
102
100
AcDbEntity
  8
LC-001-002-----0
  6
CONTINUOUS
 62
             7
100
AcDbLine
 10
-195.11508141421169
 20
-228.88870800000001
 11
-195.2836024142118
 21
-227.39548199999999
  0
LINE
  5
101
100
AcDbEntity
  8
LC-001-002-----0
  6
CONTINUOUS
 62
             7
100
AcDbLine
 10
-202.1573844142118
 20
-229.00743700000001
 11
-202.2565564142117
 21
-228.01126199999999
  0
LINE
  5
100
100
AcDbEntity
  8
LC-001-002-----0
  6
CONTINUOUS
 62
             7
100
AcDbLine
 10
-202.36826941421171
 20
-224.8397239999999
 11
-202.36826941421171
 21
-225.8397239999999
  0
LINE
  5
FF
100
AcDbEntity
  8
LC-001-002-----0
  6
CONTINUOUS
 62
             7
100
AcDbLine
 10
-202.1573844142118
 20
-221.672012
 11
-202.2565564142117
 21
-222.66818699999999
  0
LINE
  5
FE
100
AcDbEntity
  8
LC-001-002-----0
  6
CONTINUOUS
 62
             7
100
AcDbLine
 10
-75.9994594142118
 20
-140.516704
 11
-75.9994594142118
 21
-182.0897239999999
  0
LINE
  5
FD
100
AcDbEntity
  8
LC-001-002-----0
  6
CONTINUOUS
 62
             7
100
AcDbLine
 10
-69.4994594142118
 20
-140.516704
 11
-69.4994594142118
 21
-182.0897239999999
  0
LINE
  5
FC
100
AcDbEntity
  8
LC-001-002-----0
  6
DASHDOT
 62
             2
100
AcDbLine
 10
-78.67124641421179
 20
-139.016704
 11
-69.4994594142118
 21
-139.016704
  0
LINE
  5
FB
100
AcDbEntity
  8
LC-001-002-----0
  6
DASHDOT
 62
             2
100
AcDbLine
 10
-78.67124641421179
 20
-140.516704
 11
-66.88681341421176
 21
-140.516704
  0
LINE
  5
FA
100
AcDbEntity
  8
1
  6
CONTINUOUS
 62
             7
100
AcDbLine
 10
-69.4994594142118
 20
-139.016704
 11
-69.4994594142118
 21
-109.600684
  0
LINE
  5
F9
100
AcDbEntity
  8
LC-001-002-----0
  6
CONTINUOUS
 62
             7
100
AcDbLine
 10
-69.4994594142118
 20
-109.600684
 11
-67.49280845669438
 21
-109.600684
  0
LINE
  5
F8
100
AcDbEntity
  8
LC-001-002-----0
  6
DASHDOT
 62
             2
100
AcDbLine
 10
-69.4994594142118
 20
-139.016704
 11
-66.88681341421176
 21
-139.016704
  0
LINE
  5
F7
100
AcDbEntity
  8
1
  6
CONTINUOUS
 62
             7
100
AcDbLine
 10
80.49978454330568
 20
-99.600684
 11
-80.50021545669432
 21
-99.600684
  0
LINE
  5
F6
100
AcDbEntity
  8
LC-001-002-----0
  6
CONTINUOUS
 62
             7
100
AcDbLine
 10
-75.9994594142118
 20
-108.7947990759338
 11
-75.9994594142118
 21
-139.016704
  0
POINT
  5
F5
100
AcDbEntity
  8
0
 62
             7
100
AcDbPoint
 10
-250.00021545669429
 20
0.0
  0
POINT
  5
F4
100
AcDbEntity
  8
0
 62
             7
100
AcDbPoint
 10
249.99978454330551
 20
0.0
  0
POINT
  5
F3
100
AcDbEntity
  8
0
 62
             7
100
AcDbPoint
 10
-177.0019584566943
 20
-7.00045699999998
  0
POINT
  5
F2
100
AcDbEntity
  8
0
 62
             7
100
AcDbPoint
 10
177.00152654330569
 20
-7.00732599999998
  0
POINT
  5
F1
100
AcDbEntity
  8
0
 62
             7
100
AcDbPoint
 10
-80.25021545669432
 20
-99.600684
  0
POINT
  5
F0
100
AcDbEntity
  8
0
 62
             7
100
AcDbPoint
 10
80.24978454330568
 20
-99.600684
  0
POINT
  5
EF
100
AcDbEntity
  8
0
 62
             7
100
AcDbPoint
 10
-94.77160145669433
 20
-16.35769199999999
  0
POINT
  5
EE
100
AcDbEntity
  8
0
 62
             7
100
AcDbPoint
 10
94.77116954330569
 20
-16.35769199999999
  0
POINT
  5
ED
100
AcDbEntity
  8
0
 62
             7
100
AcDbPoint
 10
-72.50021545669432
 20
-109.600684
  0
POINT
  5
EC
100
AcDbEntity
  8
0
 62
             7
100
AcDbPoint
 10
-177.0019584566943
 20
-7.00045699999998
  0
POINT
  5
EB
100
AcDbEntity
  8
0
 62
             7
100
AcDbPoint
 10
-37.50021545669432
 20
-162.100684
  0
POINT
  5
EA
100
AcDbEntity
  8
0
 62
             7
100
AcDbPoint
 10
37.49978454330568
 20
-162.100684
  0
ENDBLK
  5
166
100
AcDbEntity
  8
0
100
AcDbBlockEnd
  0
BLOCK
  5
34
100
AcDbEntity
  8
0
100
AcDbBlockBegin
  2
HL_60H_7_FLACHDACHABLAUF
 70
             0
 10
-2.92535735827005
 20
-388.24755912649499
 30
0.0
  3
HL_60H_7_FLACHDACHABLAUF
  1

  0
INSERT
  5
35
100
AcDbEntity
  8
0
100
AcDbBlockReference
  2
TOP
 10
30.38631646603096
 20
-831.42519048405893
  0
ENDBLK
  5
167
100
AcDbEntity
  8
0
100
AcDbBlockEnd
  0
BLOCK
  5
16A
100
AcDbEntity
  8
0
100
AcDbBlockBegin
  2
*D4
 70
             1
 10
0.0
 20
0.0
 30
0.0
  3
*D4
  1

  0
LINE
  5
16B
100
AcDbEntity
  8
0
  6
CONTINUOUS
 62
             4
100
AcDbLine
 10
-260.00021545667562
 20
0.0000193704792
 11
-260.00008954789854
 21
65.00036125961061
  0
LINE
  5
16C
100
AcDbEntity
  8
0
  6
CONTINUOUS
 62
             4
100
AcDbLine
 10
-73.5
 20
65.0
 11
-262.00008954789479
 21
65.00036513370645
  0
LINE
  5
16D
100
AcDbEntity
  8
0
  6
CONTINUOUS
 62
             4
100
AcDbLine
 10
-250.00021545669438
 20
0.0
 11
-262.00021545667187
 21
0.00002324457504
  0
SOLID
  5
16E
100
AcDbEntity
  8
0
 62
             4
100
AcDbTrace
 10
-261.31672106206815
 20
10.00002192063238
 11
-258.68367111032518
 21
10.0000168202885
 12
-260.00021545667562
 22
0.0000193704792
 13
-260.00021545667562
 23
0.0000193704792
  0
SOLID
  5
16F
100
AcDbEntity
  8
0
 62
             4
100
AcDbTrace
 10
-258.68358394250606
 20
55.00035870945744
 11
-261.31663389424904
 21
55.00036380980131
 12
-260.00008954789854
 22
65.00036125961061
 13
-260.00008954789854
 23
65.00036125961061
  0
MTEXT
  5
171
100
AcDbEntity
  8
0
 62
             1
100
AcDbMText
 10
-262.00018455215945
 20
15.95446198668701
 30
0.0
 40
10.0
 41
0.0
 71
             7
 72
             1
  1
12-65
  7
CONVERTER_1
 11
0.00000193704792
 21
0.99999999999812
 31
0.0
  0
ENDBLK
  5
172
100
AcDbEntity
  8
0
100
AcDbBlockEnd
  0
BLOCK
  5
176
100
AcDbEntity
  8
0
100
AcDbBlockBegin
  2
*D5
 70
             1
 10
0.0
 20
0.0
 30
0.0
  3
*D5
  1

  0
LINE
  5
177
100
AcDbEntity
  8
0
  6
CONTINUOUS
 62
             4
100
AcDbLine
 10
-249.99997553110501
 20
123.8614629774025
 11
250.00002446701868
 21
123.8604944534423
  0
LINE
  5
178
100
AcDbEntity
  8
0
  6
CONTINUOUS
 62
             4
100
AcDbLine
 10
249.99978454330548
 20
0.0
 11
250.00002834111459
 21
125.86049445343855
  0
LINE
  5
179
100
AcDbEntity
  8
0
  6
CONTINUOUS
 62
             4
100
AcDbLine
 10
-250.00021545669432
 20
0.0
 11
-249.99997165700921
 21
125.86146297739874
  0
SOLID
  5
17A
100
AcDbEntity
  8
0
 62
             4
100
AcDbTrace
 10
-239.99997298095178
 20
125.17796858279472
 11
-239.99997808129575
 21
122.54491863105174
 12
-249.99997553110501
 22
123.8614629774025
 13
-249.99997553110501
 23
123.8614629774025
  0
SOLID
  5
17B
100
AcDbEntity
  8
0
 62
             4
100
AcDbTrace
 10
240.00002191686545
 20
122.54398884805008
 11
240.00002701720942
 21
125.17703879979305
 12
250.00002446701868
 22
123.8604944534423
 13
250.00002446701868
 23
123.8604944534423
  0
MTEXT
  5
17C
100
AcDbEntity
  8
0
 62
             1
100
AcDbMText
 10
8.68960055877454
 20
125.86092612214699
 30
0.0
 40
10.0
 41
0.0
 71
             7
 72
             1
  1
\C1;Ø\C1;500
  7
CONVERTER_1
 11
0.99999999999706
 21
0.00000242406841
 31
0.0
  0
ENDBLK
  5
17D
100
AcDbEntity
  8
0
100
AcDbBlockEnd
  0
BLOCK
  5
181
100
AcDbEntity
  8
0
100
AcDbBlockBegin
  2
*D6
 70
             1
 10
0.0
 20
0.0
 30
0.0
  3
*D6
  1

  0
LINE
  5
182
100
AcDbEntity
  8
0
  6
CONTINUOUS
 62
             4
100
AcDbLine
 10
-177.00175412266987
 20
98.48687881100948
 11
177.00172506397294
 21
98.48619308930628
  0
LINE
  5
183
100
AcDbEntity
  8
0
  6
CONTINUOUS
 62
             4
100
AcDbLine
 10
177.00152654330572
 20
-4.0
 11
177.00172893806874
 21
100.48619308930253
  0
LINE
  5
184
100
AcDbEntity
  8
0
  6
CONTINUOUS
 62
             4
100
AcDbLine
 10
-177.00195845669438
 20
-7.00045699999991
 11
-177.00175024857398
 21
100.48687881100572
  0
SOLID
  5
185
100
AcDbEntity
  8
0
 62
             4
100
AcDbTrace
 10
-167.00175157251664
 20
99.8033844164017
 11
-167.00175667286061
 21
97.17033446465872
 12
-177.00175412266987
 22
98.48687881100948
 13
-177.00175412266987
 23
98.48687881100948
  0
SOLID
  5
186
100
AcDbEntity
  8
0
 62
             4
100
AcDbTrace
 10
167.00172251381971
 20
97.16968748391406
 11
167.00172761416368
 21
99.80273743565704
 12
177.00172506397294
 22
98.48619308930628
 13
177.00172506397294
 23
98.48619308930628
  0
MTEXT
  5
187
100
AcDbEntity
  8
0
 62
             1
100
AcDbMText
 10
-33.45764334228824
 20
100.48656499803806
 30
0.0
 40
10.0
 41
0.0
 71
             7
 72
             1
  1
\C1;Ø\C1;354
  7
CONVERTER_1
 11
0.99999999999706
 21
0.00000242406841
 31
0.0
  0
ENDBLK
  5
188
100
AcDbEntity
  8
0
100
AcDbBlockEnd
  0
BLOCK
  5
18C
100
AcDbEntity
  8
0
100
AcDbBlockBegin
  2
*D7
 70
             1
 10
0.0
 20
0.0
 30
0.0
  3
*D7
  1

  0
LINE
  5
18D
100
AcDbEntity
  8
0
  6
CONTINUOUS
 62
             4
100
AcDbLine
 10
73.50000000000001
 20
75.61666882296458
 11
-73.49999999999997
 21
75.61666882296458
  0
LINE
  5
18E
100
AcDbEntity
  8
0
  6
CONTINUOUS
 62
             4
100
AcDbLine
 10
-73.49999999999997
 20
65.0
 11
-73.49999999999997
 21
77.61666882296458
  0
LINE
  5
18F
100
AcDbEntity
  8
0
  6
CONTINUOUS
 62
             4
100
AcDbLine
 10
73.50000000000001
 20
65.0
 11
73.50000000000001
 21
77.61666882296458
  0
SOLID
  5
190
100
AcDbEntity
  8
0
 62
             4
100
AcDbTrace
 10
63.50000000000001
 20
74.30014384709062
 11
63.50000000000001
 21
76.93319379883855
 12
73.50000000000001
 22
75.61666882296458
 13
73.50000000000001
 23
75.61666882296458
  0
SOLID
  5
191
100
AcDbEntity
  8
0
 62
             4
100
AcDbTrace
 10
-63.49999999999997
 20
76.93319379883855
 11
-63.49999999999997
 21
74.30014384709062
 12
-73.49999999999997
 22
75.61666882296458
 13
-73.49999999999997
 23
75.61666882296458
  0
MTEXT
  5
192
100
AcDbEntity
  8
0
 62
             1
100
AcDbMText
 10
-24.12099663574792
 20
77.61666882296458
 30
0.0
 40
10.0
 41
0.0
 71
             7
 72
             1
  1
\C1;150\C1;x150
  7
CONVERTER_1
 11
0.99999999999706
 21
0.00000242406841
 31
0.0
  0
ENDBLK
  5
193
100
AcDbEntity
  8
0
100
AcDbBlockEnd
  0
BLOCK
  5
197
100
AcDbEntity
  8
0
100
AcDbBlockBegin
  2
*D8
 70
             1
 10
0.0
 20
0.0
 30
0.0
  3
*D8
  1

  0
LINE
  5
198
100
AcDbEntity
  8
0
  6
CONTINUOUS
 62
             4
100
AcDbLine
 10
-94.77203235023022
 20
-238.80625991910347
 11
94.77073925332257
 21
-238.80662707253506
  0
LINE
  5
199
100
AcDbEntity
  8
0
  6
CONTINUOUS
 62
             4
100
AcDbLine
 10
94.77082446480021
 20
-194.81624524478397
 11
94.77073537922674
 21
-240.80662707253131
  0
LINE
  5
19A
100
AcDbEntity
  8
0
  6
CONTINUOUS
 62
             4
100
AcDbLine
 10
94.77117014756965
 20
-16.35769200000001
 11
94.77089520707939
 21
-158.29557973350447
  0
LINE
  5
19B
100
AcDbEntity
  8
0
  6
CONTINUOUS
 62
             4
100
AcDbLine
 10
-94.77160145669433
 20
-16.35769200000001
 11
-94.77203622432606
 21
-240.80625991909972
  0
SOLID
  5
19C
100
AcDbEntity
  8
0
 62
             4
100
AcDbTrace
 10
-79.77202852500039
 20
-236.83150151101515
 11
-79.77203617551632
 21
-240.78107643862961
 12
-94.77203235023022
 22
-238.80625991910347
 13
-94.77203235023022
 23
-238.80625991910347
  0
SOLID
  5
19D
100
AcDbEntity
  8
0
 62
             4
100
AcDbTrace
 10
79.77073542809275
 20
-240.78138548062338
 11
79.77074307860868
 21
-236.83181055300892
 12
94.77073925332257
 22
-238.80662707253506
 13
94.77073925332257
 23
-238.80662707253506
  0
MTEXT
  5
19E
100
AcDbEntity
  8
0
 62
             1
100
AcDbMText
 10
-20.09152449206928
 20
-236.80645822055294
 30
0.0
 40
15.0
 41
0.0
 71
             7
 72
             1
  1
\C1;Ø\C1;190
  7
CONVERTER_1
 11
0.99999999999706
 21
0.00000242406841
 31
0.0
  0
ENDBLK
  5
19F
100
AcDbEntity
  8
0
100
AcDbBlockEnd
  0
BLOCK
  5
1A3
100
AcDbEntity
  8
0
100
AcDbBlockBegin
  2
*D9
 70
             1
 10
0.0
 20
0.0
 30
0.0
  3
*D9
  1

  0
LINE
  5
1A4
100
AcDbEntity
  8
0
  6
CONTINUOUS
 62
             4
100
AcDbLine
 10
-80.50043508602215
 20
-212.98421236498211
 11
80.4995687874696
 21
-212.98452422970482
  0
LINE
  5
1A5
100
AcDbEntity
  8
0
  6
CONTINUOUS
 62
             4
100
AcDbLine
 10
80.49960332475519
 20
-195.1546681768869
 11
80.49956491337376
 21
-214.98452422970107
  0
LINE
  5
1A6
100
AcDbEntity
  8
0
  6
CONTINUOUS
 62
             4
100
AcDbLine
 10
80.49978454330568
 20
-101.600684
 11
80.49967431889009
 21
-158.50398228133901
  0
LINE
  5
1A7
100
AcDbEntity
  8
0
  6
CONTINUOUS
 62
             4
100
AcDbLine
 10
-80.50021545669432
 20
-99.600684
 11
-80.50043896011799
 21
-214.98421236497836
  0
SOLID
  5
1A8
100
AcDbEntity
  8
0
 62
             4
100
AcDbTrace
 10
-65.50043126079233
 20
-211.00945395689379
 11
-65.50043891130825
 21
-214.95902888450826
 12
-80.50043508602215
 22
-212.98421236498211
 13
-80.50043508602215
 23
-212.98421236498211
  0
SOLID
  5
1A9
100
AcDbEntity
  8
0
 62
             4
100
AcDbTrace
 10
65.49956496223977
 20
-214.95928263779314
 11
65.4995726127557
 21
-211.00970771017867
 12
80.4995687874696
 22
-212.98452422970482
 13
80.4995687874696
 23
-212.98452422970482
  0
MTEXT
  5
1AA
100
AcDbEntity
  8
0
 62
             1
100
AcDbMText
 10
-19.25855437641186
 20
-210.98438463516683
 30
0.0
 40
15.0
 41
0.0
 71
             7
 72
             1
  1
\C1;Ø\C1;160
  7
CONVERTER_1
 11
0.99999999999706
 21
0.00000242406841
 31
0.0
  0
ENDBLK
  5
1AB
100
AcDbEntity
  8
0
100
AcDbBlockEnd
  0
BLOCK
  5
1AF
100
AcDbEntity
  8
0
100
AcDbBlockBegin
  2
*D10
 70
             1
 10
0.0
 20
0.0
 30
0.0
  3
*D10
  1

  0
LINE
  5
1B0
100
AcDbEntity
  8
0
  6
CONTINUOUS
 62
             4
100
AcDbLine
 10
37.49973922485359
 20
-185.49631175480673
 11
99.59880501886349
 21
-185.49643204367297
  0
LINE
  5
1B1
100
AcDbEntity
  8
0
  6
CONTINUOUS
 62
             4
100
AcDbLine
 10
-37.50026077486501
 20
-185.49616647621269
 11
37.49973922485359
 21
-185.49631175480673
  0
LINE
  5
1B2
100
AcDbEntity
  8
0
  6
CONTINUOUS
 62
             4
100
AcDbLine
 10
37.49978454330568
 20
-162.10068400000003
 11
37.49973535075775
 21
-187.49631175480297
  0
LINE
  5
1B3
100
AcDbEntity
  8
0
  6
CONTINUOUS
 62
             4
100
AcDbLine
 10
-37.50021545669432
 20
-162.10068400000003
 11
-37.50026464896081
 21
-187.49616647620894
  0
SOLID
  5
1B4
100
AcDbEntity
  8
0
 62
             4
100
AcDbTrace
 10
-22.50025694963519
 20
-183.52140806812437
 11
-22.50026460015111
 21
-187.47098299573884
 12
-37.50026077486501
 22
-185.49616647621269
 13
-37.50026077486501
 23
-185.49616647621269
  0
SOLID
  5
1B5
100
AcDbEntity
  8
0
 62
             4
100
AcDbTrace
 10
22.49973539962376
 20
-187.47107016289505
 11
22.49974305013969
 21
-183.52149523528058
 12
37.49973922485359
 22
-185.49631175480673
 13
37.49973922485359
 23
-185.49631175480673
  0
MTEXT
  5
1B6
100
AcDbEntity
  8
0
 62
             1
100
AcDbMText
 10
52.49880889307381
 20
-183.49644809218131
 30
0.0
 40
15.0
 41
0.0
 71
             7
 72
             1
  1
\C1;DN\C1;75
  7
CONVERTER_1
 11
0.99999999999706
 21
0.00000242406841
 31
0.0
  0
ENDBLK
  5
1B7
100
AcDbEntity
  8
0
100
AcDbBlockEnd
  0
BLOCK
  5
1BB
100
AcDbEntity
  8
0
100
AcDbBlockBegin
  2
*D11
 70
             1
 10
0.0
 20
0.0
 30
0.0
  3
*D11
  1

  0
LINE
  5
1BC
100
AcDbEntity
  8
0
  6
CONTINUOUS
 62
             4
100
AcDbLine
 10
-187.00215719783981
 20
-109.60046220425187
 11
-187.00195845667554
 21
-7.00043762952078
  0
LINE
  5
1BD
100
AcDbEntity
  8
0
  6
CONTINUOUS
 62
             4
100
AcDbLine
 10
-177.0019584566943
 20
-7.00045699999998
 11
-189.00195845667179
 21
-7.00043375542493
  0
LINE
  5
1BE
100
AcDbEntity
  8
0
  6
CONTINUOUS
 62
             4
100
AcDbLine
 10
-72.50021545669429
 20
-109.600684
 11
-189.00215719783606
 21
-109.60045833015603
  0
SOLID
  5
1BF
100
AcDbEntity
  8
0
 62
             4
100
AcDbTrace
 10
-188.97691560592816
 20
-94.60045837902204
 11
-185.02734067831369
 21
-94.60046602953797
 12
-187.00215719783981
 22
-109.60046220425187
 13
-187.00215719783981
 23
-109.60046220425187
  0
SOLID
  5
1C0
100
AcDbEntity
  8
0
 62
             4
100
AcDbTrace
 10
-185.02720004858722
 20
-22.0004414547506
 11
-188.97677497620168
 21
-22.00043380423468
 12
-187.00195845667554
 22
-7.00043762952078
 13
-187.00195845667554
 23
-7.00043762952078
  0
MTEXT
  5
1C1
100
AcDbEntity
  8
0
 62
             1
100
AcDbMText
 10
-189.00208186260821
 20
-70.70868542582549
 30
0.0
 40
15.0
 41
0.0
 71
             7
 72
             1
  1
100
  7
CONVERTER_1
 11
0.00000193704792
 21
0.99999999999812
 31
0.0
  0
ENDBLK
  5
1C2
100
AcDbEntity
  8
0
100
AcDbBlockEnd
  0
ENDSEC
  0
SECTION
  2
ENTITIES
  0
DIMENSION
  5
1C4
100
AcDbEntity
  8
1
100
AcDbDimension
  2
*D11
 10
-187.00215719783981
 20
-109.60046220425187
 11
-196.50205135408939
 21
-54.95867089799563
 31
0.0
 53
89.99988901532944
  1
100
  3
ME10_DIM_7
100
AcDbAlignedDimension
 13
-177.0019584566943
 23
-7.00045699999998
 14
-72.50021545669432
 24
-109.600684
 50
89.99988901532944
100
AcDbRotatedDimension
  0
DIMENSION
  5
1B9
100
AcDbEntity
  8
1
100
AcDbDimension
  2
*D10
 10
-37.50026077486501
 20
-185.49616647621269
 11
71.84882342087079
 21
-175.99637829061101
 31
0.0
 70
           128
 53
179.99988901532942
  1
<>
  3
ME10_DIM_6
100
AcDbAlignedDimension
 13
37.49978454330568
 23
-162.100684
 14
-37.50021545669432
 24
-162.100684
 50
179.99988901532942
100
AcDbRotatedDimension
  0
DIMENSION
  5
1AD
100
AcDbEntity
  8
1
100
AcDbDimension
  2
*D9
 10
-80.50043508602215
 20
-212.98421236498211
 11
-0.20853984860126
 21
-203.48436789421299
 31
0.0
 53
179.99988901532942
  1
Ø160
  3
ME10_DIM_5
100
AcDbAlignedDimension
 13
80.49978454330568
 23
-101.600684
 14
-80.50021545669432
 24
-99.600684
 50
179.99988901532942
100
AcDbRotatedDimension
  0
DIMENSION
  5
1A1
100
AcDbEntity
  8
1
100
AcDbDimension
  2
*D8
 10
-94.77203235023022
 20
-238.80625991910347
 11
-1.04150996425867
 21
-229.3064414795991
 31
0.0
 53
179.99988901532942
  1
Ø190
  3
ME10_DIM_4
100
AcDbAlignedDimension
 13
94.77117014756965
 23
-16.35769199999999
 14
-94.77160145669433
 24
-16.35769199999999
 50
179.99988901532942
100
AcDbRotatedDimension
  0
DIMENSION
  5
195
100
AcDbEntity
  8
1
100
AcDbDimension
  2
*D7
 10
73.50000000000001
 20
75.61666882296458
 11
3.87900336425208
 21
82.61666882296458
 31
0.0
 53
180.0
  1
150
  3
ME10_DIM_3
100
AcDbAlignedDimension
 13
-73.49999999999997
 23
65.0
 14
73.50000000000001
 24
65.0
 50
180.0
100
AcDbRotatedDimension
  0
DIMENSION
  5
18A
100
AcDbEntity
  8
1
100
AcDbDimension
  2
*D6
 10
-177.00175412266987
 20
98.48687881100948
 11
-19.25763365708398
 21
105.48657325310209
 31
0.0
 53
179.99988901532942
  1
<>
  3
ME10_DIM_2
100
AcDbAlignedDimension
 13
177.00152654330569
 23
-4.0
 14
-177.0019584566943
 24
-7.00045699999998
 50
179.99988901532942
100
AcDbRotatedDimension
  0
DIMENSION
  5
17F
100
AcDbEntity
  8
1
100
AcDbDimension
  2
*D5
 10
-249.99997553110501
 20
123.8614629774025
 11
22.88961024397879
 21
130.86093437721101
 31
0.0
 53
179.99988901532942
  1
<>
  3
ME10_DIM_1
100
AcDbAlignedDimension
 13
249.99978454330551
 23
0.0
 14
-250.00021545669429
 24
0.0
 50
179.99988901532942
100
AcDbRotatedDimension
  0
DIMENSION
  5
174
100
AcDbEntity
  8
1
100
AcDbDimension
  2
*D4
 10
-260.00021545667562
 20
0.0000193704792
 11
-267.00014774823961
 21
34.95447167189097
 31
0.0
 53
89.99988901532944
  1
12-65
  3
ME10_DIM_0
100
AcDbAlignedDimension
 13
-73.49999999999997
 23
65.0
 14
-250.00021545669429
 24
0.0
 50
89.99988901532944
100
AcDbRotatedDimension
  0
INSERT
  5
38
100
AcDbEntity
  8
0
100
AcDbBlockReference
  2
HL_66_0_AUFSATZRAHMEN
 10
-3.92514290157587
 20
-323.25037612649521
  0
INSERT
  5
39
100
AcDbEntity
  8
0
100
AcDbBlockReference
  2
HL_60H_7_FLACHDACHABLAUF
 10
-2.92535735827005
 20
-388.24755912649499
  0
ENDSEC
  0
SECTION
  2
OBJECTS
  0
DICTIONARY
  5
19
100
AcDbDictionary
  3
ACAD_GROUP
350
1A
  3
ACAD_MLINESTYLE
350
1B
  0
DICTIONARY
  5
1A
102
{ACAD_REACTORS
330
19
102
}
100
AcDbDictionary
  0
DICTIONARY
  5
1B
102
{ACAD_REACTORS
330
19
102
}
100
AcDbDictionary
  3
STANDARD
350
1C
  0
MLINESTYLE
  5
1C
102
{ACAD_REACTORS
330
1B
102
}
100
AcDbMlineStyle
  2
STANDARD
 70
             0
  3

 62
             0
 51
90.0
 52
90.0
 71
             2
 49
0.5
 62
           256
  6
BYLAYER
 49
-0.5
 62
           256
  6
BYLAYER
  0
ENDSEC
  0
EOF
