  0
SECTION
  2
HEADER
  9
$ACADVER
  1
AC1014
  9
$ACADMAINTVER
 70
             0
  9
$DWGCODEPAGE
  3
ANSI_1252
  9
$INSBASE
 10
0.0
 20
0.0
 30
0.0
  9
$EXTMIN
 10
-203.999987
 20
-250.98021671318611
 30
0.0
  9
$EXTMAX
 10
176.99999800000001
 20
116.0628396929679
 30
0.0
  9
$LIMMIN
 10
0.0
 20
0.0
  9
$LIMMAX
 10
0.0
 20
0.0
  9
$ORTHOMODE
 70
             0
  9
$REGENMODE
 70
             1
  9
$FILLMODE
 70
             1
  9
$QTEXTMODE
 70
             0
  9
$MIRRTEXT
 70
             1
  9
$DRAGMODE
 70
             2
  9
$LTSCALE
 40
1.0
  9
$OSMODE
 70
             0
  9
$ATTMODE
 70
             1
  9
$TEXTSIZE
 40
0.2
  9
$TRACEWID
 40
0.05
  9
$TEXTSTYLE
  7
STANDARD
  9
$CLAYER
  8
0
  9
$CELTYPE
  6
CONTINUOUS
  9
$CECOLOR
 62
           256
  9
$CELTSCALE
 40
1.0
  9
$DELOBJ
 70
             1
  9
$DISPSILH
 70
             0
  9
$DIMSCALE
 40
1.0
  9
$DIMASZ
 40
0.18
  9
$DIMEXO
 40
0.0625
  9
$DIMDLI
 40
0.38
  9
$DIMRND
 40
0.0
  9
$DIMDLE
 40
0.0
  9
$DIMEXE
 40
0.18
  9
$DIMTP
 40
0.0
  9
$DIMTM
 40
0.0
  9
$DIMTXT
 40
0.18
  9
$DIMCEN
 40
0.09
  9
$DIMTSZ
 40
0.0
  9
$DIMTOL
 70
             0
  9
$DIMLIM
 70
             0
  9
$DIMTIH
 70
             1
  9
$DIMTOH
 70
             1
  9
$DIMSE1
 70
             0
  9
$DIMSE2
 70
             0
  9
$DIMTAD
 70
             0
  9
$DIMZIN
 70
             0
  9
$DIMBLK
  1

  9
$DIMASO
 70
             1
  9
$DIMSHO
 70
             1
  9
$DIMPOST
  1

  9
$DIMAPOST
  1

  9
$DIMALT
 70
             0
  9
$DIMALTD
 70
             2
  9
$DIMALTF
 40
25.4
  9
$DIMLFAC
 40
1.0
  9
$DIMTOFL
 70
             0
  9
$DIMTVP
 40
0.0
  9
$DIMTIX
 70
             0
  9
$DIMSOXD
 70
             0
  9
$DIMSAH
 70
             0
  9
$DIMBLK1
  1

  9
$DIMBLK2
  1

  9
$DIMSTYLE
  2
STANDARD
  9
$DIMCLRD
 70
             0
  9
$DIMCLRE
 70
             0
  9
$DIMCLRT
 70
             0
  9
$DIMTFAC
 40
1.0
  9
$DIMGAP
 40
0.09
  9
$DIMJUST
 70
             0
  9
$DIMSD1
 70
             0
  9
$DIMSD2
 70
             0
  9
$DIMTOLJ
 70
             1
  9
$DIMTZIN
 70
             0
  9
$DIMALTZ
 70
             0
  9
$DIMALTTZ
 70
             0
  9
$DIMFIT
 70
             3
  9
$DIMUPT
 70
             0
  9
$DIMUNIT
 70
             2
  9
$DIMDEC
 70
             4
  9
$DIMTDEC
 70
             4
  9
$DIMALTU
 70
             2
  9
$DIMALTTD
 70
             2
  9
$DIMTXSTY
  7
STANDARD
  9
$DIMAUNIT
 70
             0
  9
$LUNITS
 70
             2
  9
$LUPREC
 70
             4
  9
$SKETCHINC
 40
0.1
  9
$FILLETRAD
 40
0.0
  9
$AUNITS
 70
             0
  9
$AUPREC
 70
             0
  9
$MENU
  1
acad
  9
$ELEVATION
 40
0.0
  9
$PELEVATION
 40
0.0
  9
$THICKNESS
 40
0.0
  9
$LIMCHECK
 70
             0
  9
$BLIPMODE
 70
             1
  9
$CHAMFERA
 40
0.0
  9
$CHAMFERB
 40
0.0
  9
$CHAMFERC
 40
0.0
  9
$CHAMFERD
 40
0.0
  9
$SKPOLY
 70
             0
  9
$TDCREATE
 40
0.000000000
  9
$TDUPDATE
 40
0.000000000
  9
$TDINDWG
 40
0.0000000000
  9
$TDUSRTIMER
 40
0.0000000000
  9
$USRTIMER
 70
             1
  9
$ANGBASE
 50
0.0
  9
$ANGDIR
 70
             0
  9
$PDMODE
 70
             0
  9
$PDSIZE
 40
0.0
  9
$PLINEWID
 40
0.0
  9
$COORDS
 70
             0
  9
$SPLFRAME
 70
             0
  9
$SPLINETYPE
 70
             6
  9
$SPLINESEGS
 70
             8
  9
$ATTDIA
 70
             0
  9
$ATTREQ
 70
             1
  9
$HANDLING
 70
             1
  9
$HANDSEED
  5
35A
  9
$SURFTAB1
 70
             6
  9
$SURFTAB2
 70
             6
  9
$SURFTYPE
 70
             6
  9
$SURFU
 70
             6
  9
$SURFV
 70
             6
  9
$UCSNAME
  2

  9
$UCSORG
 10
0.0
 20
0.0
 30
0.0
  9
$UCSXDIR
 10
1.0
 20
0.0
 30
0.0
  9
$UCSYDIR
 10
0.0
 20
1.0
 30
0.0
  9
$PUCSNAME
  2

  9
$PUCSORG
 10
0.0
 20
0.0
 30
0.0
  9
$PUCSXDIR
 10
1.0
 20
0.0
 30
0.0
  9
$PUCSYDIR
 10
0.0
 20
1.0
 30
0.0
  9
$USERI1
 70
             0
  9
$USERI2
 70
             0
  9
$USERI3
 70
             0
  9
$USERI4
 70
             0
  9
$USERI5
 70
             0
  9
$USERR1
 40
12.01
  9
$USERR2
 40
0.0
  9
$USERR3
 40
0.0
  9
$USERR4
 40
0.0
  9
$USERR5
 40
0.0
  9
$WORLDVIEW
 70
             1
  9
$SHADEDGE
 70
             3
  9
$SHADEDIF
 70
            70
  9
$TILEMODE
 70
             1
  9
$MAXACTVP
 70
            16
  9
$PINSBASE
 10
0.0
 20
0.0
 30
0.0
  9
$PLIMCHECK
 70
             0
  9
$PEXTMIN
 10
1.00000000000000E+20
 20
1.00000000000000E+20
 30
1.00000000000000E+20
  9
$PEXTMAX
 10
-1.00000000000000E+20
 20
-1.00000000000000E+20
 30
-1.00000000000000E+20
  9
$PLIMMIN
 10
0.0
 20
0.0
  9
$PLIMMAX
 10
12.0
 20
9.0
  9
$UNITMODE
 70
             0
  9
$VISRETAIN
 70
             0
  9
$PLINEGEN
 70
             1
  9
$PSLTSCALE
 70
             0
  9
$TREEDEPTH
 70
          3020
  9
$PICKSTYLE
 70
             1
  9
$CMLSTYLE
  2
STANDARD
  9
$CMLJUST
 70
             0
  9
$CMLSCALE
 40
1.0
  9
$PROXYGRAPHICS
 70
             0
  9
$MEASUREMENT
 70
             1
  0
ENDSEC
  0
SECTION
  2
CLASSES
  0
CLASS
  1
LWPOLYLINE
  2
AcDbPolyline
  3
"AutoCAD"
 90
        0
280
             0
281
             1
  0
CLASS
  1
IMAGE
  2
AcDbRasterImage
  3
ISM
 90
      127
280
             0
281
             1
  0
CLASS
  1
OLE2FRAME
  2
AcDbOle2Frame
  3
""
 90
        0
280
             0
281
             1
  0
CLASS
  1
HATCH
  2
AcDbHatch
  3
"ACAD_SEDONA"
 90
        0
280
             0
281
             1
  0
CLASS
  1
DICTIONARYVAR
  2
AcDbDictionaryVar
  3
"AutoCAD"
 90
        0
280
             0
281
             0
  0
CLASS
  1
RASTERVARIABLES
  2
AcDbRasterVariables
  3
ISM
 90
        0
280
             0
281
             0
  0
CLASS
  1
IMAGEDEF
  2
AcDbRasterImageDef
  3
ISM
 90
        0
280
             0
281
             0
  0
CLASS
  1
IMAGEDEF_REACTOR
  2
AcDbRasterImageDefReactor
  3
ISM
 90
        1
280
             0
281
             0
  0
CLASS
  1
IDBUFFER
  2
AcDbIdBuffer
  3
"Acad"
 90
        0
280
             0
281
             0
  0
CLASS
  1
SPATIAL_FILTER
  2
AcDbSpatialFilter
  3
"Acad"
 90
        0
280
             0
281
             0
  0
CLASS
  1
XRECORD
  2
AcDbXrecord
  3
"<Built In>"
 90
        0
280
             0
281
             0
  0
CLASS
  1
SORTENTSTABLE
  2
AcDbSortentsTable
  3
"AutoCAD"
 90
        0
280
             0
281
             0
  0
CLASS
  1
LAYER_INDEX
  2
AcDbLayerIndex
  3
"Acad"
 90
        0
280
             0
281
             0
  0
CLASS
  1
SPATIAL_INDEX
  2
AcDbSpatialIndex
  3
"Acad"
 90
        0
280
             0
281
             0
  0
CLASS
  1
OBJECT_PTR
  2
CAseDLPNTableRecord
  3
"ASE-LPNTableRecord"
 90
        1
280
             0
281
             0
  0
CLASS
  1
LAYOUT
  2
AcDbLayout
  3
"AutoCAD 2000"
 90
        0
280
             0
281
             0
  0
CLASS
  1
PLOTSETTINGS
  2
AcDbPlotSettings
  3
"AutoCAD 2000"
 90
        0
280
             0
281
             0
  0
CLASS
  1
ACDBDICTIONARYWDFLT
  2
AcDbDictionaryWithDefault
  3
"AutoCAD 2000"
 90
        0
280
             0
281
             0
  0
CLASS
  1
ACDBPLACEHOLDER
  2
AcDbPlaceHolder
  3
"AutoCAD 2000"
 90
        0
280
             0
281
             0
  0
ENDSEC
  0
SECTION
  2
TABLES
  0
TABLE
  2
VPORT
  5
7
100
AcDbSymbolTable
 70
             1
  0
VPORT
  5
15
100
AcDbSymbolTableRecord
100
AcDbViewportTableRecord
  2
*ACTIVE
 70
             0
 10
0.0
 20
0.0
 11
1.0
 21
1.0
 12
-13.4999945
 22
-67.45868851010911
 13
0.0
 23
0.0
 14
1.0
 24
1.0
 15
0.0
 25
0.0
 16
0.0
 26
0.0
 36
1.0
 17
0.0
 27
0.0
 37
0.0
 40
403.74736204676941
 41
1.60267857142857
 42
50.0
 43
0.0
 44
0.0
 50
0.0
 51
0.0
 71
             0
 72
           100
 73
             1
 74
             1
 75
             0
 76
             0
 77
             0
 78
             0
  0
ENDTAB
  0
TABLE
  2
LTYPE
  5
4
100
AcDbSymbolTable
 70
            11
  0
LTYPE
  5
11
100
AcDbSymbolTableRecord
100
AcDbLinetypeTableRecord
  2
BYBLOCK
 70
            64
  3

 72
            65
 73
             0
 40
0.0
  0
LTYPE
  5
12
100
AcDbSymbolTableRecord
100
AcDbLinetypeTableRecord
  2
BYLAYER
 70
            64
  3

 72
            65
 73
             0
 40
0.0
  0
LTYPE
  5
13
100
AcDbSymbolTableRecord
100
AcDbLinetypeTableRecord
  2
CONTINUOUS
 70
            64
  3
Solid line
 72
            65
 73
             0
 40
0.0
  0
LTYPE
  5
1D
100
AcDbSymbolTableRecord
100
AcDbLinetypeTableRecord
  2
DASHED
 70
            64
  3
Dashed
 72
            65
 73
             2
 40
15.0
 49
7.0
 74
             0
 49
-8.0
 74
             0
  0
LTYPE
  5
1E
100
AcDbSymbolTableRecord
100
AcDbLinetypeTableRecord
  2
DOTTED
 70
            64
  3
Dotted
 72
            65
 73
             2
 40
1.0
 49
0.0
 74
             0
 49
-1.0
 74
             0
  0
LTYPE
  5
1F
100
AcDbSymbolTableRecord
100
AcDbLinetypeTableRecord
  2
DOT_CENTER
 70
            64
  3
Dot_Center
 72
            65
 73
             4
 40
14.0
 49
12.0
 74
             0
 49
-1.0
 74
             0
 49
0.0
 74
             0
 49
-1.0
 74
             0
  0
LTYPE
  5
20
100
AcDbSymbolTableRecord
100
AcDbLinetypeTableRecord
  2
LONG_DASHED
 70
            64
  3
Long_Dashed
 72
            65
 73
             2
 40
15.0
 49
10.0
 74
             0
 49
-5.0
 74
             0
  0
LTYPE
  5
21
100
AcDbSymbolTableRecord
100
AcDbLinetypeTableRecord
  2
DASH_CENTER
 70
            64
  3
Dash_Center
 72
            65
 73
             4
 40
14.0
 49
11.0
 74
             0
 49
-1.0
 74
             0
 49
1.0
 74
             0
 49
-1.0
 74
             0
  0
LTYPE
  5
22
100
AcDbSymbolTableRecord
100
AcDbLinetypeTableRecord
  2
PHANTOM
 70
            64
  3
Phantom
 72
            65
 73
             6
 40
13.0
 49
10.0
 74
             0
 49
-1.0
 74
             0
 49
0.0
 74
             0
 49
-1.0
 74
             0
 49
0.0
 74
             0
 49
-1.0
 74
             0
  0
LTYPE
  5
23
100
AcDbSymbolTableRecord
100
AcDbLinetypeTableRecord
  2
CENTER_DASH_DASH
 70
            64
  3
Center_Dash_Dash
 72
            65
 73
             6
 40
14.0
 49
9.0
 74
             0
 49
-1.0
 74
             0
 49
1.0
 74
             0
 49
-1.0
 74
             0
 49
1.0
 74
             0
 49
-1.0
 74
             0
  0
LTYPE
  5
24
100
AcDbSymbolTableRecord
100
AcDbLinetypeTableRecord
  2
DASHDOT
 70
            64
  3
DASHDOT
 72
            65
 73
             4
 40
16.0
 49
10.0
 74
             0
 49
-3.0
 74
             0
 49
0.0
 74
             0
 49
-3.0
 74
             0
  0
ENDTAB
  0
TABLE
  2
LAYER
  5
2
100
AcDbSymbolTable
 70
             7
  0
LAYER
  5
14
100
AcDbSymbolTableRecord
100
AcDbLayerTableRecord
  2
0
 70
             0
 62
             7
  6
CONTINUOUS
  0
LAYER
  5
25
100
AcDbSymbolTableRecord
100
AcDbLayerTableRecord
  2
1
 70
             0
 62
             7
  6
CONTINUOUS
  0
LAYER
  5
26
100
AcDbSymbolTableRecord
100
AcDbLayerTableRecord
  2
LC-001-002-----0
 70
             0
 62
             7
  6
CONTINUOUS
  0
LAYER
  5
27
100
AcDbSymbolTableRecord
100
AcDbLayerTableRecord
  2
LC-002-002-RND-0
 70
             0
 62
             7
  6
CONTINUOUS
  0
LAYER
  5
28
100
AcDbSymbolTableRecord
100
AcDbLayerTableRecord
  2
LC-004-003-----0
 70
             0
 62
             7
  6
CONTINUOUS
  0
LAYER
  5
29
100
AcDbSymbolTableRecord
100
AcDbLayerTableRecord
  2
LC-007-005-----0
 70
             0
 62
             7
  6
CONTINUOUS
  0
LAYER
  5
2A
100
AcDbSymbolTableRecord
100
AcDbLayerTableRecord
  2
LC-010-006-MLN-0
 70
             0
 62
             7
  6
CONTINUOUS
  0
ENDTAB
  0
TABLE
  2
STYLE
  5
3
100
AcDbSymbolTable
 70
             2
  0
STYLE
  5
17
100
AcDbSymbolTableRecord
100
AcDbTextStyleTableRecord
  2
STANDARD
 70
             0
 40
0.0
 41
1.0
 50
0.0
 71
             0
 42
0.0
  3
txt
  4

  0
STYLE
  5
328
100
AcDbSymbolTableRecord
100
AcDbTextStyleTableRecord
  2
CONVERTER_1
 70
             0
 40
0.0
 41
0.9
 50
0.0
 71
             0
 42
0.0
  3
txt.shx
  4

  0
ENDTAB
  0
TABLE
  2
VIEW
  5
5
100
AcDbSymbolTable
 70
             0
  0
ENDTAB
  0
TABLE
  2
UCS
  5
6
100
AcDbSymbolTable
 70
             0
  0
ENDTAB
  0
TABLE
  2
APPID
  5
8
100
AcDbSymbolTable
 70
             1
  0
APPID
  5
16
100
AcDbSymbolTableRecord
100
AcDbRegAppTableRecord
  2
ACAD
 70
             0
  0
ENDTAB
  0
TABLE
  2
DIMSTYLE
  5
9
100
AcDbSymbolTable
 70
             6
  0
DIMSTYLE
105
18
100
AcDbSymbolTableRecord
100
AcDbDimStyleTableRecord
  2
STANDARD
 70
             0
  3

  4

  5

  6

  7

 40
1.0
 41
0.18
 42
0.0625
 43
0.38
 44
0.18
 45
0.0
 46
0.0
 47
0.0
 48
0.0
 71
             0
 72
             0
 73
             1
 74
             1
 75
             0
 76
             0
 77
             0
 78
             0
140
0.18
141
0.09
142
0.0
143
25.4
144
1.0
145
0.0
146
1.0
147
0.09
170
             0
171
             2
172
             0
173
             0
174
             0
175
             0
176
             0
177
             0
178
             0
270
             2
271
             4
272
             4
273
             2
274
             2
275
             0
280
             0
281
             0
282
             0
283
             1
284
             0
285
             0
286
             0
287
             3
288
             0
340
17
  0
DIMSTYLE
105
32B
100
AcDbSymbolTableRecord
100
AcDbDimStyleTableRecord
  2
ME10_DIM_0
 70
             0
  3

  4

  5

  6

  7

 40
1.0
 41
15.0
 42
0.0
 43
0.38
 44
2.0
 45
0.0
 46
0.0
 47
0.0
 48
0.0
 71
             0
 72
             0
 73
             0
 74
             0
 75
             0
 76
             0
 77
             1
 78
             8
140
15.0
141
0.09
142
0.0
143
25.4
144
1.0
145
0.0
146
1.0
147
0.625
170
             0
171
             2
172
             1
173
             1
174
             0
175
             0
176
             4
177
             4
178
             1
270
             2
271
             2
272
             4
273
             2
274
             2
275
             0
280
             0
281
             0
282
             0
283
             1
284
             0
285
             0
286
             0
287
             3
288
             0
340
328
  0
DIMSTYLE
105
336
100
AcDbSymbolTableRecord
100
AcDbDimStyleTableRecord
  2
ME10_DIM_1
 70
             0
  3
Ø<>
  4

  5

  6

  7

 40
1.0
 41
15.0
 42
0.0
 43
0.38
 44
2.0
 45
0.0
 46
0.0
 47
0.0
 48
0.0
 71
             0
 72
             0
 73
             0
 74
             0
 75
             0
 76
             0
 77
             1
 78
             8
140
15.0
141
0.09
142
0.0
143
25.4
144
1.0
145
0.0
146
1.0
147
0.625
170
             0
171
             2
172
             1
173
             1
174
             0
175
             0
176
             4
177
             4
178
             1
270
             2
271
             2
272
             4
273
             2
274
             2
275
             0
280
             0
281
             0
282
             0
283
             1
284
             0
285
             0
286
             0
287
             3
288
             0
340
328
  0
DIMSTYLE
105
341
100
AcDbSymbolTableRecord
100
AcDbDimStyleTableRecord
  2
ME10_DIM_2
 70
             0
  3
Ø<>
  4

  5

  6

  7

 40
1.0
 41
15.0
 42
0.0
 43
0.38
 44
2.0
 45
0.0
 46
0.0
 47
0.0
 48
0.0
 71
             0
 72
             0
 73
             0
 74
             0
 75
             0
 76
             0
 77
             1
 78
             8
140
15.0
141
0.09
142
0.0
143
25.4
144
1.0
145
0.0
146
1.0
147
0.625
170
             0
171
             2
172
             1
173
             1
174
             0
175
             0
176
             4
177
             4
178
             1
270
             2
271
             2
272
             4
273
             2
274
             2
275
             0
280
             0
281
             0
282
             0
283
             1
284
             0
285
             0
286
             0
287
             3
288
             0
340
328
  0
DIMSTYLE
105
34C
100
AcDbSymbolTableRecord
100
AcDbDimStyleTableRecord
  2
ME10_DIM_3
 70
             0
  3
Ø<>
  4

  5

  6

  7

 40
1.0
 41
15.0
 42
0.0
 43
0.38
 44
2.0
 45
0.0
 46
0.0
 47
0.0
 48
0.0
 71
             0
 72
             0
 73
             0
 74
             0
 75
             0
 76
             0
 77
             1
 78
             8
140
15.0
141
0.09
142
0.0
143
25.4
144
1.0
145
0.0
146
1.0
147
0.625
170
             0
171
             2
172
             1
173
             1
174
             0
175
             0
176
             4
177
             4
178
             1
270
             2
271
             2
272
             4
273
             2
274
             2
275
             0
280
             0
281
             0
282
             0
283
             1
284
             0
285
             0
286
             0
287
             3
288
             0
340
328
  0
DIMSTYLE
105
357
100
AcDbSymbolTableRecord
100
AcDbDimStyleTableRecord
  2
ME10_DIM_4
 70
             0
  3
DN<>
  4

  5

  6

  7

 40
1.0
 41
15.0
 42
0.0
 43
0.38
 44
2.0
 45
0.0
 46
0.0
 47
0.0
 48
0.0
 71
             0
 72
             0
 73
             0
 74
             0
 75
             0
 76
             0
 77
             1
 78
             8
140
15.0
141
0.09
142
0.0
143
25.4
144
1.0
145
0.0
146
1.0
147
0.625
170
             0
171
             2
172
             1
173
             1
174
             0
175
             0
176
             4
177
             4
178
             1
270
             2
271
             2
272
             4
273
             2
274
             2
275
             0
280
             0
281
             0
282
             0
283
             1
284
             0
285
             0
286
             0
287
             3
288
             0
340
328
  0
ENDTAB
  0
TABLE
  2
BLOCK_RECORD
  5
1
100
AcDbSymbolTable
 70
            55
  0
BLOCK_RECORD
  5
A
100
AcDbSymbolTableRecord
100
AcDbBlockTableRecord
  2
*MODEL_SPACE
  0
BLOCK_RECORD
  5
B
100
AcDbSymbolTableRecord
100
AcDbBlockTableRecord
  2
*PAPER_SPACE
  0
BLOCK_RECORD
  5
2B
100
AcDbSymbolTableRecord
100
AcDbBlockTableRecord
  2
062_1E_LAUBFANGKORB
  0
BLOCK_RECORD
  5
2D
100
AcDbSymbolTableRecord
100
AcDbBlockTableRecord
  2
BLK17
  0
BLOCK_RECORD
  5
2F
100
AcDbSymbolTableRecord
100
AcDbBlockTableRecord
  2
BLK18
  0
BLOCK_RECORD
  5
31
100
AcDbSymbolTableRecord
100
AcDbBlockTableRecord
  2
BLK19
  0
BLOCK_RECORD
  5
33
100
AcDbSymbolTableRecord
100
AcDbBlockTableRecord
  2
BLK20
  0
BLOCK_RECORD
  5
35
100
AcDbSymbolTableRecord
100
AcDbBlockTableRecord
  2
BLK21
  0
BLOCK_RECORD
  5
37
100
AcDbSymbolTableRecord
100
AcDbBlockTableRecord
  2
BLK22
  0
BLOCK_RECORD
  5
39
100
AcDbSymbolTableRecord
100
AcDbBlockTableRecord
  2
BLK23
  0
BLOCK_RECORD
  5
3B
100
AcDbSymbolTableRecord
100
AcDbBlockTableRecord
  2
BLK24
  0
BLOCK_RECORD
  5
3D
100
AcDbSymbolTableRecord
100
AcDbBlockTableRecord
  2
BLK26
  0
BLOCK_RECORD
  5
3F
100
AcDbSymbolTableRecord
100
AcDbBlockTableRecord
  2
BLK27
  0
BLOCK_RECORD
  5
41
100
AcDbSymbolTableRecord
100
AcDbBlockTableRecord
  2
BLK29
  0
BLOCK_RECORD
  5
43
100
AcDbSymbolTableRecord
100
AcDbBlockTableRecord
  2
BLK30
  0
BLOCK_RECORD
  5
45
100
AcDbSymbolTableRecord
100
AcDbBlockTableRecord
  2
BLK32
  0
BLOCK_RECORD
  5
47
100
AcDbSymbolTableRecord
100
AcDbBlockTableRecord
  2
BLK33
  0
BLOCK_RECORD
  5
49
100
AcDbSymbolTableRecord
100
AcDbBlockTableRecord
  2
BLK34
  0
BLOCK_RECORD
  5
4B
100
AcDbSymbolTableRecord
100
AcDbBlockTableRecord
  2
BLK35
  0
BLOCK_RECORD
  5
4D
100
AcDbSymbolTableRecord
100
AcDbBlockTableRecord
  2
BLK36
  0
BLOCK_RECORD
  5
4F
100
AcDbSymbolTableRecord
100
AcDbBlockTableRecord
  2
BLK37
  0
BLOCK_RECORD
  5
51
100
AcDbSymbolTableRecord
100
AcDbBlockTableRecord
  2
BLK38
  0
BLOCK_RECORD
  5
53
100
AcDbSymbolTableRecord
100
AcDbBlockTableRecord
  2
BLK39
  0
BLOCK_RECORD
  5
55
100
AcDbSymbolTableRecord
100
AcDbBlockTableRecord
  2
BLK41
  0
BLOCK_RECORD
  5
57
100
AcDbSymbolTableRecord
100
AcDbBlockTableRecord
  2
BLK42
  0
BLOCK_RECORD
  5
59
100
AcDbSymbolTableRecord
100
AcDbBlockTableRecord
  2
BLK44
  0
BLOCK_RECORD
  5
5B
100
AcDbSymbolTableRecord
100
AcDbBlockTableRecord
  2
BLK45
  0
BLOCK_RECORD
  5
5D
100
AcDbSymbolTableRecord
100
AcDbBlockTableRecord
  2
BLK51
  0
BLOCK_RECORD
  5
5F
100
AcDbSymbolTableRecord
100
AcDbBlockTableRecord
  2
BLK52
  0
BLOCK_RECORD
  5
61
100
AcDbSymbolTableRecord
100
AcDbBlockTableRecord
  2
BLK53
  0
BLOCK_RECORD
  5
63
100
AcDbSymbolTableRecord
100
AcDbBlockTableRecord
  2
BLK54
  0
BLOCK_RECORD
  5
65
100
AcDbSymbolTableRecord
100
AcDbBlockTableRecord
  2
BLK55
  0
BLOCK_RECORD
  5
67
100
AcDbSymbolTableRecord
100
AcDbBlockTableRecord
  2
BLK56
  0
BLOCK_RECORD
  5
69
100
AcDbSymbolTableRecord
100
AcDbBlockTableRecord
  2
BLK57
  0
BLOCK_RECORD
  5
6B
100
AcDbSymbolTableRecord
100
AcDbBlockTableRecord
  2
BLK58
  0
BLOCK_RECORD
  5
6D
100
AcDbSymbolTableRecord
100
AcDbBlockTableRecord
  2
BLK59
  0
BLOCK_RECORD
  5
6F
100
AcDbSymbolTableRecord
100
AcDbBlockTableRecord
  2
BLK60
  0
BLOCK_RECORD
  5
71
100
AcDbSymbolTableRecord
100
AcDbBlockTableRecord
  2
BLK61
  0
BLOCK_RECORD
  5
73
100
AcDbSymbolTableRecord
100
AcDbBlockTableRecord
  2
BLK62
  0
BLOCK_RECORD
  5
75
100
AcDbSymbolTableRecord
100
AcDbBlockTableRecord
  2
BLK67
  0
BLOCK_RECORD
  5
77
100
AcDbSymbolTableRecord
100
AcDbBlockTableRecord
  2
BLK68
  0
BLOCK_RECORD
  5
79
100
AcDbSymbolTableRecord
100
AcDbBlockTableRecord
  2
BLK69
  0
BLOCK_RECORD
  5
7B
100
AcDbSymbolTableRecord
100
AcDbBlockTableRecord
  2
BLK70
  0
BLOCK_RECORD
  5
7D
100
AcDbSymbolTableRecord
100
AcDbBlockTableRecord
  2
BLK71
  0
BLOCK_RECORD
  5
7F
100
AcDbSymbolTableRecord
100
AcDbBlockTableRecord
  2
BLK72
  0
BLOCK_RECORD
  5
81
100
AcDbSymbolTableRecord
100
AcDbBlockTableRecord
  2
BLK73
  0
BLOCK_RECORD
  5
83
100
AcDbSymbolTableRecord
100
AcDbBlockTableRecord
  2
BLK74
  0
BLOCK_RECORD
  5
85
100
AcDbSymbolTableRecord
100
AcDbBlockTableRecord
  2
BLK75
  0
BLOCK_RECORD
  5
87
100
AcDbSymbolTableRecord
100
AcDbBlockTableRecord
  2
BLK76
  0
BLOCK_RECORD
  5
89
100
AcDbSymbolTableRecord
100
AcDbBlockTableRecord
  2
BLK77
  0
BLOCK_RECORD
  5
8B
100
AcDbSymbolTableRecord
100
AcDbBlockTableRecord
  2
BLK78
  0
BLOCK_RECORD
  5
8D
100
AcDbSymbolTableRecord
100
AcDbBlockTableRecord
  2
HL_62_1_7_DACHABLAUF
  0
BLOCK_RECORD
  5
321
100
AcDbSymbolTableRecord
100
AcDbBlockTableRecord
  2
*D50
  0
BLOCK_RECORD
  5
32D
100
AcDbSymbolTableRecord
100
AcDbBlockTableRecord
  2
*D51
  0
BLOCK_RECORD
  5
338
100
AcDbSymbolTableRecord
100
AcDbBlockTableRecord
  2
*D52
  0
BLOCK_RECORD
  5
343
100
AcDbSymbolTableRecord
100
AcDbBlockTableRecord
  2
*D53
  0
BLOCK_RECORD
  5
34E
100
AcDbSymbolTableRecord
100
AcDbBlockTableRecord
  2
*D54
  0
ENDTAB
  0
ENDSEC
  0
SECTION
  2
BLOCKS
  0
BLOCK
  5
D
100
AcDbEntity
  8
0
100
AcDbBlockBegin
  2
*MODEL_SPACE
 70
             0
 10
0.0
 20
0.0
 30
0.0
  3
*MODEL_SPACE
  1

  0
ENDBLK
  5
E
100
AcDbEntity
  8
0
100
AcDbBlockEnd
  0
BLOCK
  5
F
100
AcDbEntity
 67
             1
  8
0
100
AcDbBlockBegin
  2
*PAPER_SPACE
 70
             0
 10
0.0
 20
0.0
 30
0.0
  3
*PAPER_SPACE
  1

  0
ENDBLK
  5
10
100
AcDbEntity
 67
             1
  8
0
100
AcDbBlockEnd
  0
BLOCK
  5
2C
100
AcDbEntity
  8
0
100
AcDbBlockBegin
  2
062_1E_LAUBFANGKORB
 70
             0
 10
-79.44585800000002
 20
-157.00212400000009
 30
0.0
  3
062_1E_LAUBFANGKORB
  1

  0
ARC
  5
113
100
AcDbEntity
  8
LC-002-002-RND-0
  6
CONTINUOUS
 62
             7
100
AcDbCircle
 10
-48.448688
 20
57.66125099999999
 40
15.00000000000016
100
AcDbArc
 50
90.00007899999987
 51
160.00000000000014
  0
ARC
  5
112
100
AcDbEntity
  8
LC-002-002-RND-0
  6
CONTINUOUS
 62
             7
100
AcDbCircle
 10
48.44852299999999
 20
57.661384
 40
14.99999999999985
100
AcDbArc
 50
20.0001569999986
 51
90.00007899999987
  0
LINE
  5
111
100
AcDbEntity
  8
LC-001-002-----0
  6
CONTINUOUS
 62
             7
100
AcDbLine
 10
-3.30541700000001
 20
57.86131299999988
 11
-3.30541700000001
 21
72.66131299999995
  0
LINE
  5
110
100
AcDbEntity
  8
LC-001-002-----0
  6
CONTINUOUS
 62
             7
100
AcDbLine
 10
3.305251
 20
57.86132199999997
 11
3.30521
 21
72.66132199999993
  0
LINE
  5
10F
100
AcDbEntity
  8
LC-001-002-----0
  6
CONTINUOUS
 62
             7
100
AcDbLine
 10
57.89255599999999
 20
32.29909299999997
 11
-0.00004800000001
 21
32.29893399999992
  0
LINE
  5
10E
100
AcDbEntity
  8
LC-001-002-----0
  6
CONTINUOUS
 62
             7
100
AcDbLine
 10
-25.871642
 20
36.96125199999995
 11
-21.416436
 21
57.86128799999995
  0
LINE
  5
10D
100
AcDbEntity
  8
LC-001-002-----0
  6
CONTINUOUS
 62
             7
100
AcDbLine
 10
-48.448709
 20
72.66125099999999
 11
-0.000103
 21
72.66131699999994
  0
LINE
  5
10C
100
AcDbEntity
  8
LC-001-002-----0
  6
CONTINUOUS
 62
             7
100
AcDbLine
 10
-42.486971
 20
68.57612599999993
 11
-41.000103
 21
72.66126099999997
  0
LINE
  5
10B
100
AcDbEntity
  8
LC-001-002-----0
  6
CONTINUOUS
 62
             7
100
AcDbLine
 10
-44.83983600000001
 20
68.16125199999999
 11
-42.486971
 21
68.57612599999993
  0
LINE
  5
10A
100
AcDbEntity
  8
LC-001-002-----0
  6
CONTINUOUS
 62
             7
100
AcDbLine
 10
25.871533
 20
36.96132299999999
 11
21.41627
 21
57.86134700000002
  0
LINE
  5
109
100
AcDbEntity
  8
LC-001-002-----0
  6
CONTINUOUS
 62
             7
100
AcDbLine
 10
42.48677599999999
 20
68.57624199999998
 11
40.999897
 21
72.66137299999991
  0
LINE
  5
108
100
AcDbEntity
  8
LC-001-002-----0
  6
CONTINUOUS
 62
             7
100
AcDbLine
 10
44.839641
 20
68.16137499999991
 11
42.48677599999999
 21
68.57624199999998
  0
LINE
  5
107
100
AcDbEntity
  8
LC-001-002-----0
  6
CONTINUOUS
 62
             7
100
AcDbLine
 10
45.96107499999999
 20
36.96137799999997
 11
38.24438000000001
 21
57.86136999999997
  0
LINE
  5
106
100
AcDbEntity
  8
LC-001-002-----0
  6
CONTINUOUS
 62
             7
100
AcDbLine
 10
47.111074
 20
36.96138099999996
 11
39.39438
 21
57.86137099999996
  0
LINE
  5
105
100
AcDbEntity
  8
LC-001-002-----0
  6
CONTINUOUS
 62
             7
100
AcDbLine
 10
52.20192900000001
 20
36.96139500000004
 11
43.59508299999999
 21
57.86137699999995
  0
LINE
  5
104
100
AcDbEntity
  8
LC-001-002-----0
  6
CONTINUOUS
 62
             7
100
AcDbLine
 10
-1.14974
 20
57.86131599999999
 11
-1.14974
 21
36.96125199999995
  0
LINE
  5
103
100
AcDbEntity
  8
LC-001-002-----0
  6
CONTINUOUS
 62
             7
100
AcDbLine
 10
-56.19570700000001
 20
36.96125199999995
 11
-56.19570700000001
 21
32.59815200000003
  0
LINE
  5
102
100
AcDbEntity
  8
LC-001-002-----0
  6
CONTINUOUS
 62
             7
100
AcDbLine
 10
-37.162736
 20
36.96125199999995
 11
-30.851128
 21
57.86127499999998
  0
LINE
  5
101
100
AcDbEntity
  8
LC-001-002-----0
  6
CONTINUOUS
 62
             7
100
AcDbLine
 10
-57.89265200000001
 20
32.29893399999992
 11
-56.19570700000001
 21
32.59815200000003
  0
LINE
  5
100
100
AcDbEntity
  8
LC-001-002-----0
  6
CONTINUOUS
 62
             7
100
AcDbLine
 10
-38.809761
 20
36.96125199999995
 11
-32.509151
 21
57.86127299999998
  0
LINE
  5
FF
100
AcDbEntity
  8
LC-001-002-----0
  6
CONTINUOUS
 62
             7
100
AcDbLine
 10
-48.58873000000001
 20
57.86125100000004
 11
-0.000083
 21
57.86131699999999
  0
LINE
  5
FE
100
AcDbEntity
  8
LC-001-002-----0
  6
CONTINUOUS
 62
             7
100
AcDbLine
 10
-27.8635
 20
36.96125199999995
 11
-23.408294
 21
57.86128499999995
  0
LINE
  5
FD
100
AcDbEntity
  8
LC-001-002-----0
  6
CONTINUOUS
 62
             7
100
AcDbLine
 10
-56.19570700000001
 20
36.96125199999995
 11
-0.00005400000001
 21
36.96125199999995
  0
LINE
  5
FC
100
AcDbEntity
  8
LC-001-002-----0
  6
CONTINUOUS
 62
             7
100
AcDbLine
 10
-57.89265200000001
 20
32.29893399999992
 11
-0.00004800000001
 21
32.29893399999992
  0
LINE
  5
FB
100
AcDbEntity
  8
LC-001-002-----0
  6
CONTINUOUS
 62
             7
100
AcDbLine
 10
-15.018368
 20
36.96125199999995
 11
-12.712183
 21
57.86130000000003
  0
LINE
  5
FA
100
AcDbEntity
  8
LC-001-002-----0
  6
CONTINUOUS
 62
             7
100
AcDbLine
 10
-12.796739
 20
36.96125199999995
 11
-10.490554
 21
57.86130299999991
  0
LINE
  5
F9
100
AcDbEntity
  8
LC-001-002-----0
  6
CONTINUOUS
 62
             7
100
AcDbLine
 10
51.60664599999998
 20
36.96139399999993
 11
42.999799
 21
57.86137599999995
  0
LINE
  5
F8
100
AcDbEntity
  8
LC-001-002-----0
  6
CONTINUOUS
 62
             7
100
AcDbLine
 10
-51.606755
 20
36.96125199999995
 11
-42.999965
 21
57.86125799999991
  0
LINE
  5
F7
100
AcDbEntity
  8
LC-001-002-----0
  6
CONTINUOUS
 62
             7
100
AcDbLine
 10
-52.202038
 20
36.96125199999995
 11
-43.595249
 21
57.86125700000002
  0
LINE
  5
F6
100
AcDbEntity
  8
LC-001-002-----0
  6
CONTINUOUS
 62
             7
100
AcDbLine
 10
-47.111183
 20
36.96125199999995
 11
-39.39454600000001
 21
57.86126300000001
  0
LINE
  5
F5
100
AcDbEntity
  8
LC-001-002-----0
  6
CONTINUOUS
 62
             7
100
AcDbLine
 10
-45.961184
 20
36.96125199999995
 11
-38.244546
 21
57.861265
  0
LINE
  5
F4
100
AcDbEntity
  8
LC-001-002-----0
  6
CONTINUOUS
 62
             7
100
AcDbLine
 10
1.149574
 20
57.86131899999998
 11
1.149631
 21
36.96125499999994
  0
LINE
  5
F3
100
AcDbEntity
  8
LC-001-002-----0
  6
CONTINUOUS
 62
             7
100
AcDbLine
 10
56.19559799999999
 20
36.9614059999999
 11
56.19560999999999
 21
32.59830599999998
  0
LINE
  5
F2
100
AcDbEntity
  8
LC-001-002-----0
  6
CONTINUOUS
 62
             7
100
AcDbLine
 10
37.162628
 20
36.96135400000003
 11
30.850962
 21
57.86135999999999
  0
LINE
  5
F1
100
AcDbEntity
  8
LC-001-002-----0
  6
CONTINUOUS
 62
             7
100
AcDbLine
 10
57.89255599999999
 20
32.29909299999997
 11
56.19560999999999
 21
32.59830599999998
  0
LINE
  5
F0
100
AcDbEntity
  8
LC-001-002-----0
  6
CONTINUOUS
 62
             7
100
AcDbLine
 10
38.809653
 20
36.96135800000002
 11
32.508985
 21
57.86136199999999
  0
LINE
  5
EF
100
AcDbEntity
  8
LC-001-002-----0
  6
CONTINUOUS
 62
             7
100
AcDbLine
 10
48.44850199999999
 20
72.661384
 11
-0.000103
 21
72.66131699999994
  0
LINE
  5
EE
100
AcDbEntity
  8
LC-001-002-----0
  6
CONTINUOUS
 62
             7
100
AcDbLine
 10
27.86339100000001
 20
36.96132799999998
 11
23.40812800000001
 21
57.86134900000002
  0
LINE
  5
ED
100
AcDbEntity
  8
LC-001-002-----0
  6
CONTINUOUS
 62
             7
100
AcDbLine
 10
48.58856399999999
 20
57.86138400000004
 11
-0.000083
 21
57.86131699999999
  0
LINE
  5
EC
100
AcDbEntity
  8
LC-001-002-----0
  6
CONTINUOUS
 62
             7
100
AcDbLine
 10
56.19559799999999
 20
36.9614059999999
 11
-0.00005400000001
 21
36.96125199999995
  0
LINE
  5
EB
100
AcDbEntity
  8
LC-001-002-----0
  6
CONTINUOUS
 62
             7
100
AcDbLine
 10
12.79662999999999
 20
36.96128699999997
 11
10.490388
 21
57.86133199999995
  0
LINE
  5
EA
100
AcDbEntity
  8
LC-001-002-----0
  6
CONTINUOUS
 62
             7
100
AcDbLine
 10
15.01826
 20
36.96129299999996
 11
12.712017
 21
57.86133499999994
  0
LINE
  5
E9
100
AcDbEntity
  8
LC-007-005-----0
  6
CONTINUOUS
 62
             2
100
AcDbLine
 10
-56.250563
 20
36.81053799999995
 11
-56.19570700000001
 21
36.86539399999992
  0
LINE
  5
E8
100
AcDbEntity
  8
LC-007-005-----0
  6
CONTINUOUS
 62
             2
100
AcDbLine
 10
-43.301945
 20
72.386573
 11
-43.02726
 21
72.66125799999998
  0
LINE
  5
E7
100
AcDbEntity
  8
LC-001-002-----0
  6
CONTINUOUS
 62
             7
100
AcDbLine
 10
-79.44585800000002
 20
16.35429299999998
 11
-62.544078
 21
62.79155300000002
  0
LINE
  5
E6
100
AcDbEntity
  8
LC-001-002-----0
  6
CONTINUOUS
 62
             7
100
AcDbLine
 10
-68.556941
 20
2.99904199999992
 11
-43.201968
 21
72.66125799999998
  0
LINE
  5
E5
100
AcDbEntity
  8
LC-001-002-----0
  6
CONTINUOUS
 62
             7
100
AcDbLine
 10
68.55680899999999
 20
2.99954899999989
 11
43.20176100000001
 21
72.66137600000002
  0
LINE
  5
E4
100
AcDbEntity
  8
LC-001-002-----0
  6
CONTINUOUS
 62
             7
100
AcDbLine
 10
79.44588200000001
 20
16.35430199999996
 11
62.54389799999998
 21
62.79172399999993
  0
LINE
  5
E3
100
AcDbEntity
  8
LC-001-002-----0
  6
CONTINUOUS
 62
             7
100
AcDbLine
 10
-59.54263200000001
 20
17.69043199999999
 11
-53.52673400000001
 21
32.29893399999992
  0
LINE
  5
E2
100
AcDbEntity
  8
LC-001-002-----0
  6
CONTINUOUS
 62
             7
100
AcDbLine
 10
-60.312927
 20
17.26544999999999
 11
-54.122018
 21
32.29893399999992
  0
LINE
  5
E1
100
AcDbEntity
  8
LC-001-002-----0
  6
CONTINUOUS
 62
             7
100
AcDbLine
 10
-54.47729800000001
 20
17.01060800000005
 11
-48.83259
 21
32.29893399999992
  0
LINE
  5
E0
100
AcDbEntity
  8
LC-001-002-----0
  6
CONTINUOUS
 62
             7
100
AcDbLine
 10
-53.71657800000001
 20
15.95627100000002
 11
-47.68259000000001
 21
32.29893399999992
  0
LINE
  5
DF
100
AcDbEntity
  8
LC-001-002-----0
  6
CONTINUOUS
 62
             7
100
AcDbLine
 10
-45.250359
 20
15.59687199999996
 11
-40.215284
 21
32.29893399999992
  0
LINE
  5
DE
100
AcDbEntity
  8
LC-001-002-----0
  6
CONTINUOUS
 62
             7
100
AcDbLine
 10
-43.930273
 20
14.55148399999996
 11
-38.570712
 21
32.29893399999992
  0
LINE
  5
DD
100
AcDbEntity
  8
LC-001-002-----0
  6
CONTINUOUS
 62
             7
100
AcDbLine
 10
-32.30221400000001
 20
16.13858400000004
 11
-28.857354
 21
32.29893399999992
  0
LINE
  5
DC
100
AcDbEntity
  8
LC-001-002-----0
  6
CONTINUOUS
 62
             7
100
AcDbLine
 10
-33.11125
 20
2.99917299999993
 11
-26.865496
 21
32.29893399999992
  0
LINE
  5
DB
100
AcDbEntity
  8
LC-001-002-----0
  6
CONTINUOUS
 62
             7
100
AcDbLine
 10
-18.765859
 20
2.99922599999991
 11
-15.532825
 21
32.29893399999992
  0
LINE
  5
DA
100
AcDbEntity
  8
LC-001-002-----0
  6
CONTINUOUS
 62
             7
100
AcDbLine
 10
-16.544228
 20
2.99923399999989
 11
-13.311196
 21
32.29893399999992
  0
LINE
  5
D9
100
AcDbEntity
  8
LC-001-002-----0
  6
CONTINUOUS
 62
             7
100
AcDbLine
 10
-1.14974
 20
32.29893399999992
 11
-1.14974
 21
2.99929099999997
  0
LINE
  5
D8
100
AcDbEntity
  8
LC-001-002-----0
  6
CONTINUOUS
 62
             7
100
AcDbLine
 10
1.149644
 20
32.29893799999991
 11
1.149724
 21
2.99929999999995
  0
LINE
  5
D7
100
AcDbEntity
  8
LC-001-002-----0
  6
CONTINUOUS
 62
             7
100
AcDbLine
 10
16.54420399999999
 20
2.99935600000003
 11
13.3111
 21
32.29897099999994
  0
LINE
  5
D6
100
AcDbEntity
  8
LC-001-002-----0
  6
CONTINUOUS
 62
             7
100
AcDbLine
 10
18.765833
 20
2.9993649999999
 11
15.532729
 21
32.29897699999992
  0
LINE
  5
D5
100
AcDbEntity
  8
LC-001-002-----0
  6
CONTINUOUS
 62
             7
100
AcDbLine
 10
33.11120099999999
 20
2.99941799999999
 11
26.86539999999999
 21
32.29900799999996
  0
LINE
  5
D4
100
AcDbEntity
  8
LC-001-002-----0
  6
CONTINUOUS
 62
             7
100
AcDbLine
 10
32.291583
 20
16.18830200000002
 11
28.857258
 21
32.29901399999994
  0
LINE
  5
D3
100
AcDbEntity
  8
LC-001-002-----0
  6
CONTINUOUS
 62
             7
100
AcDbLine
 10
43.930272
 20
14.55145100000004
 11
38.570616
 21
32.29903999999999
  0
LINE
  5
D2
100
AcDbEntity
  8
LC-001-002-----0
  6
CONTINUOUS
 62
             7
100
AcDbLine
 10
45.25034600000001
 20
15.59687199999996
 11
40.215188
 21
32.29904499999998
  0
LINE
  5
D1
100
AcDbEntity
  8
LC-001-002-----0
  6
DASHDOT
 62
             2
100
AcDbLine
 10
0.0
 20
72.66131299999995
 11
0.0
 21
-157.00212400000009
  0
LINE
  5
D0
100
AcDbEntity
  8
LC-001-002-----0
  6
CONTINUOUS
 62
             7
100
AcDbLine
 10
35.103059
 20
2.99942499999997
 11
33.70122699999999
 21
9.57554200000004
  0
LINE
  5
CF
100
AcDbEntity
  8
LC-001-002-----0
  6
CONTINUOUS
 62
             7
100
AcDbLine
 10
53.716579
 20
15.95627500000001
 11
47.68249399999999
 21
32.29906499999993
  0
LINE
  5
CE
100
AcDbEntity
  8
LC-001-002-----0
  6
CONTINUOUS
 62
             7
100
AcDbLine
 10
54.47729899999999
 20
17.01061000000004
 11
48.832494
 21
32.29906800000003
  0
LINE
  5
CD
100
AcDbEntity
  8
LC-001-002-----0
  6
CONTINUOUS
 62
             7
100
AcDbLine
 10
60.31294499999999
 20
17.26543700000002
 11
54.12192199999998
 21
32.29908299999988
  0
LINE
  5
CC
100
AcDbEntity
  8
LC-001-002-----0
  6
CONTINUOUS
 62
             7
100
AcDbLine
 10
59.54264599999999
 20
17.69042500000001
 11
53.52663799999999
 21
32.29908099999989
  0
LINE
  5
CB
100
AcDbEntity
  8
LC-001-002-----0
  6
CONTINUOUS
 62
             7
100
AcDbLine
 10
59.650475
 20
2.99951599999997
 11
58.107675
 21
7.17805399999997
  0
LINE
  5
CA
100
AcDbEntity
  8
LC-001-002-----0
  6
CONTINUOUS
 62
             7
100
AcDbLine
 10
58.50047499999999
 20
2.99951199999998
 11
57.303774
 21
6.2406719999999
  0
LINE
  5
C9
100
AcDbEntity
  8
LC-001-002-----0
  6
CONTINUOUS
 62
             7
100
AcDbLine
 10
65.59251799999998
 20
2.99953800000003
 11
61.96332200000001
 21
11.81230499999992
  0
LINE
  5
C8
100
AcDbEntity
  8
LC-001-002-----0
  6
CONTINUOUS
 62
             7
100
AcDbLine
 10
66.18780200000001
 20
2.99954000000003
 11
62.262753
 21
12.53072399999996
  0
LINE
  5
C7
100
AcDbEntity
  8
LC-001-002-----0
  6
CONTINUOUS
 62
             7
100
AcDbLine
 10
-66.187944
 20
2.99905100000001
 11
-62.262742
 21
12.53068299999995
  0
LINE
  5
C6
100
AcDbEntity
  8
LC-001-002-----0
  6
CONTINUOUS
 62
             7
100
AcDbLine
 10
-65.592659
 20
2.999053
 11
-61.96330500000001
 21
11.81227300000001
  0
LINE
  5
C5
100
AcDbEntity
  8
LC-001-002-----0
  6
CONTINUOUS
 62
             7
100
AcDbLine
 10
-59.650593
 20
2.99907499999995
 11
-58.106997
 21
7.17980499999999
  0
LINE
  5
C4
100
AcDbEntity
  8
LC-001-002-----0
  6
CONTINUOUS
 62
             7
100
AcDbLine
 10
-58.500591
 20
2.99907899999994
 11
-57.303095
 21
6.24242099999992
  0
LINE
  5
C3
100
AcDbEntity
  8
LC-001-002-----0
  6
CONTINUOUS
 62
             7
100
AcDbLine
 10
-35.10311
 20
2.99916599999995
 11
-33.701245
 21
9.57552199999998
  0
ENDBLK
  5
114
100
AcDbEntity
  8
0
100
AcDbBlockEnd
  0
BLOCK
  5
2E
100
AcDbEntity
  8
0
100
AcDbBlockBegin
  2
BLK17
 70
             0
 10
29.8699440028038
 20
399.90174184251902
 30
0.0
  3
BLK17
  1

  0
ARC
  5
118
100
AcDbEntity
  8
LC-001-002-----0
  6
CONTINUOUS
 62
             1
100
AcDbCircle
 10
-97.26379299999999
 20
-25.93636600000002
 40
0.37354699999999
100
AcDbArc
 50
0.65755899996946
 51
42.03020200000151
  0
ARC
  5
117
100
AcDbEntity
  8
LC-001-002-----0
  6
CONTINUOUS
 62
             1
100
AcDbCircle
 10
-97.64607000000001
 20
-26.27225700000008
 40
0.88240999999987
100
AcDbArc
 50
41.61165799999221
 51
64.78609900000107
  0
ARC
  5
116
100
AcDbEntity
  8
LC-001-002-----0
  6
CONTINUOUS
 62
             1
100
AcDbCircle
 10
-98.09770600000002
 20
-27.16909200000009
 40
1.88638100000026
100
AcDbArc
 50
63.97949900000491
 51
77.89818299999992
  0
ARC
  5
115
100
AcDbEntity
  8
LC-001-002-----0
  6
CONTINUOUS
 62
             1
100
AcDbCircle
 10
-98.31585100000001
 20
-28.10291200000006
 40
2.84523599999995
100
AcDbArc
 50
77.54533099999864
 51
88.11559499999932
  0
ENDBLK
  5
119
100
AcDbEntity
  8
0
100
AcDbBlockEnd
  0
BLOCK
  5
30
100
AcDbEntity
  8
0
100
AcDbBlockBegin
  2
BLK18
 70
             0
 10
29.8699440028038
 20
399.90174184251902
 30
0.0
  3
BLK18
  1

  0
ARC
  5
11D
100
AcDbEntity
  8
LC-001-002-----0
  6
CONTINUOUS
 62
             1
100
AcDbCircle
 10
-88.614915
 20
-25.93991900000003
 40
0.38519100000003
100
AcDbArc
 50
2.01890900003686
 51
44.42719699996501
  0
ARC
  5
11C
100
AcDbEntity
  8
LC-001-002-----0
  6
CONTINUOUS
 62
             1
100
AcDbCircle
 10
-89.03100900000001
 20
-26.33247100000006
 40
0.95719000000023
100
AcDbArc
 50
43.77289900001166
 51
66.72101100001055
  0
ARC
  5
11B
100
AcDbEntity
  8
LC-001-002-----0
  6
CONTINUOUS
 62
             1
100
AcDbCircle
 10
-89.48507000000001
 20
-27.31192499999997
 40
2.03657800000007
100
AcDbArc
 50
65.87678400000021
 51
79.70170400000001
  0
ARC
  5
11A
100
AcDbEntity
  8
LC-001-002-----0
  6
CONTINUOUS
 62
             1
100
AcDbCircle
 10
-89.66704899999999
 20
-28.20947700000011
 40
2.95226200000022
100
AcDbArc
 50
79.3409280000002
 51
90.12210499999989
  0
ENDBLK
  5
11E
100
AcDbEntity
  8
0
100
AcDbBlockEnd
  0
BLOCK
  5
32
100
AcDbEntity
  8
0
100
AcDbBlockBegin
  2
BLK19
 70
             0
 10
29.8699440028038
 20
399.90174184251902
 30
0.0
  3
BLK19
  1

  0
ARC
  5
122
100
AcDbEntity
  8
LC-001-002-----0
  6
CONTINUOUS
 62
             1
100
AcDbCircle
 10
-90.730864
 20
-29.77362300000004
 40
0.38632600000003
100
AcDbArc
 50
-177.00404000001393
 51
-136.02385800004595
  0
ARC
  5
121
100
AcDbEntity
  8
LC-001-002-----0
  6
CONTINUOUS
 62
             1
100
AcDbCircle
 10
-90.32897500000001
 20
-29.39925900000003
 40
0.93552900000027
100
AcDbArc
 50
-136.61497399998515
 51
-114.04075600001005
  0
ARC
  5
120
100
AcDbEntity
  8
LC-001-002-----0
  6
CONTINUOUS
 62
             1
100
AcDbCircle
 10
-89.881531
 20
-28.46327100000008
 40
1.97279800000017
100
AcDbArc
 50
-114.83429699999692
 51
-101.15082800000204
  0
ARC
  5
11F
100
AcDbEntity
  8
LC-001-002-----0
  6
CONTINUOUS
 62
             1
100
AcDbCircle
 10
-89.68454199999999
 20
-27.55429400000003
 40
2.90276399999985
100
AcDbArc
 50
-101.49586600000087
 51
-90.93044799999967
  0
ENDBLK
  5
123
100
AcDbEntity
  8
0
100
AcDbBlockEnd
  0
BLOCK
  5
34
100
AcDbEntity
  8
0
100
AcDbBlockBegin
  2
BLK20
 70
             0
 10
29.8699440028038
 20
399.90174184251902
 30
0.0
  3
BLK20
  1

  0
ARC
  5
127
100
AcDbEntity
  8
LC-001-002-----0
  6
CONTINUOUS
 62
             1
100
AcDbCircle
 10
-99.39201800000001
 20
-29.77452400000004
 40
0.38518899999999
100
AcDbArc
 50
-177.98132500007597
 51
-135.57295500001555
  0
ARC
  5
126
100
AcDbEntity
  8
LC-001-002-----0
  6
CONTINUOUS
 62
             1
100
AcDbCircle
 10
-98.97592499999999
 20
-29.38197600000001
 40
0.95718599999985
100
AcDbArc
 50
-136.22724000000912
 51
-113.27906499999855
  0
ARC
  5
125
100
AcDbEntity
  8
LC-001-002-----0
  6
CONTINUOUS
 62
             1
100
AcDbCircle
 10
-98.52186399999999
 20
-28.40252299999997
 40
2.03657300000006
100
AcDbArc
 50
-114.12329499999859
 51
-100.29835200000049
  0
ARC
  5
124
100
AcDbEntity
  8
LC-001-002-----0
  6
CONTINUOUS
 62
             1
100
AcDbCircle
 10
-98.33988300000002
 20
-27.50496900000007
 40
2.95225999999982
100
AcDbArc
 50
-100.6591290000011
 51
-89.8779470000009
  0
ENDBLK
  5
128
100
AcDbEntity
  8
0
100
AcDbBlockEnd
  0
BLOCK
  5
36
100
AcDbEntity
  8
0
100
AcDbBlockBegin
  2
BLK21
 70
             0
 10
29.8699440028038
 20
399.90174184251902
 30
0.0
  3
BLK21
  1

  0
ARC
  5
12C
100
AcDbEntity
  8
LC-001-002-----0
  6
CONTINUOUS
 62
             1
100
AcDbCircle
 10
-91.41693900000001
 20
-25.97096800000008
 40
0.30262800000006
100
AcDbArc
 50
7.38371100004854
 51
67.14240800002783
  0
ARC
  5
12B
100
AcDbEntity
  8
LC-001-002-----0
  6
CONTINUOUS
 62
             1
100
AcDbCircle
 10
-92.30175700000001
 20
-27.48334100000011
 40
2.05262700000011
100
AcDbArc
 50
60.76873700000077
 51
77.01552200000292
  0
ARC
  5
12A
100
AcDbEntity
  8
LC-001-002-----0
  6
CONTINUOUS
 62
             1
100
AcDbCircle
 10
-93.37859700000001
 20
-31.60722299999998
 40
6.31421000000037
100
AcDbArc
 50
75.9018480000009
 51
83.54348499999973
  0
ARC
  5
129
100
AcDbEntity
  8
LC-001-002-----0
  6
CONTINUOUS
 62
             1
100
AcDbCircle
 10
-93.94127700000001
 20
-36.1300920000001
 40
10.87178399999961
100
AcDbArc
 50
83.27724299999991
 51
88.58922300000008
  0
ENDBLK
  5
12D
100
AcDbEntity
  8
0
100
AcDbBlockEnd
  0
BLOCK
  5
38
100
AcDbEntity
  8
0
100
AcDbBlockBegin
  2
BLK22
 70
             0
 10
29.8699440028038
 20
399.90174184251902
 30
0.0
  3
BLK22
  1

  0
ARC
  5
131
100
AcDbEntity
  8
LC-001-002-----0
  6
CONTINUOUS
 62
             1
100
AcDbCircle
 10
-96.562421
 20
-29.72674700000005
 40
0.33348700000007
100
AcDbArc
 50
-169.39993499994839
 51
-110.5914300000006
  0
ARC
  5
130
100
AcDbEntity
  8
LC-001-002-----0
  6
CONTINUOUS
 62
             1
100
AcDbCircle
 10
-95.59244699999999
 20
-27.93951200000004
 40
2.3642520000002
100
AcDbArc
 50
-117.37907199999697
 51
-101.87322700000065
  0
ARC
  5
12F
100
AcDbEntity
  8
LC-001-002-----0
  6
CONTINUOUS
 62
             1
100
AcDbCircle
 10
-94.50296900000001
 20
-23.38965200000007
 40
7.0421269999995
100
AcDbArc
 50
-102.93139100000093
 51
-95.47912400000061
  0
ARC
  5
12E
100
AcDbEntity
  8
LC-001-002-----0
  6
CONTINUOUS
 62
             1
100
AcDbCircle
 10
-94.02853300000001
 20
-18.98452700000007
 40
11.47254199999943
100
AcDbArc
 50
-95.73709000000022
 51
-90.361636
  0
ENDBLK
  5
132
100
AcDbEntity
  8
0
100
AcDbBlockEnd
  0
BLOCK
  5
3A
100
AcDbEntity
  8
0
100
AcDbBlockBegin
  2
BLK23
 70
             0
 10
29.8699440028038
 20
399.90174184251902
 30
0.0
  3
BLK23
  1

  0
ARC
  5
136
100
AcDbEntity
  8
LC-001-002-----0
  6
CONTINUOUS
 62
             1
100
AcDbCircle
 10
-98.33988300000002
 20
-28.209476
 40
2.95226099999954
100
AcDbArc
 50
89.8779250000006
 51
100.65910499999914
  0
ARC
  5
135
100
AcDbEntity
  8
LC-001-002-----0
  6
CONTINUOUS
 62
             1
100
AcDbCircle
 10
-98.521863
 20
-27.3119220000001
 40
2.03657500000058
100
AcDbArc
 50
100.29832799999716
 51
114.12326199999838
  0
ARC
  5
134
100
AcDbEntity
  8
LC-001-002-----0
  6
CONTINUOUS
 62
             1
100
AcDbCircle
 10
-98.97592399999999
 20
-26.33246900000006
 40
0.95718699999994
100
AcDbArc
 50
113.27903400000112
 51
136.22718300001128
  0
ARC
  5
133
100
AcDbEntity
  8
LC-001-002-----0
  6
CONTINUOUS
 62
             1
100
AcDbCircle
 10
-99.39201800000001
 20
-25.93991900000003
 40
0.38518999999984
100
AcDbArc
 50
135.57289300002839
 51
177.9812309999873
  0
ENDBLK
  5
137
100
AcDbEntity
  8
0
100
AcDbBlockEnd
  0
BLOCK
  5
3C
100
AcDbEntity
  8
0
100
AcDbBlockBegin
  2
BLK24
 70
             0
 10
29.8699440028038
 20
399.90174184251902
 30
0.0
  3
BLK24
  1

  0
ARC
  5
13B
100
AcDbEntity
  8
LC-001-002-----0
  6
CONTINUOUS
 62
             1
100
AcDbCircle
 10
-94.03458900000001
 20
-36.61580400000003
 40
11.35831099999976
100
AcDbArc
 50
90.5650959999999
 51
95.95115599999971
  0
ARC
  5
13A
100
AcDbEntity
  8
LC-001-002-----0
  6
CONTINUOUS
 62
             1
100
AcDbCircle
 10
-94.532139
 20
-32.14814500000011
 40
6.86321699999964
100
AcDbArc
 50
95.68686300000019
 51
103.23288200000063
  0
ARC
  5
139
100
AcDbEntity
  8
LC-001-002-----0
  6
CONTINUOUS
 62
             1
100
AcDbCircle
 10
-95.62786500000001
 20
-27.67853500000001
 40
2.26188200000029
100
AcDbArc
 50
102.13100999999817
 51
118.02968499999844
  0
ARC
  5
138
100
AcDbEntity
  8
LC-001-002-----0
  6
CONTINUOUS
 62
             1
100
AcDbCircle
 10
-96.57655400000002
 20
-25.97748000000001
 40
0.31682899999952
100
AcDbArc
 50
111.13452400002478
 51
171.76010299991884
  0
ENDBLK
  5
13C
100
AcDbEntity
  8
0
100
AcDbBlockEnd
  0
BLOCK
  5
3E
100
AcDbEntity
  8
0
100
AcDbBlockBegin
  2
BLK26
 70
             0
 10
29.8699440028038
 20
399.90174184251902
 30
0.0
  3
BLK26
  1

  0
ARC
  5
140
100
AcDbEntity
  8
LC-001-002-----0
  6
CONTINUOUS
 62
             1
100
AcDbCircle
 10
-89.69271499999999
 20
-28.09111500000006
 40
2.83334599999964
100
AcDbArc
 50
92.16196500000022
 51
102.56848400000133
  0
ARC
  5
13F
100
AcDbEntity
  8
LC-001-002-----0
  6
CONTINUOUS
 62
             1
100
AcDbCircle
 10
-89.90951799999999
 20
-27.16949100000011
 40
1.88666099999978
100
AcDbArc
 50
102.23272400000218
 51
115.89549300000041
  0
ARC
  5
13E
100
AcDbEntity
  8
LC-001-002-----0
  6
CONTINUOUS
 62
             1
100
AcDbCircle
 10
-90.35239300000001
 20
-26.28441300000009
 40
0.8971130000003
100
AcDbArc
 50
115.13766899999416
 51
137.63430800001316
  0
ARC
  5
13D
100
AcDbEntity
  8
LC-001-002-----0
  6
CONTINUOUS
 62
             1
100
AcDbCircle
 10
-90.73521
 20
-25.93960100000004
 40
0.38192400000017
100
AcDbArc
 50
137.15458699997336
 51
177.15170800003949
  0
ENDBLK
  5
141
100
AcDbEntity
  8
0
100
AcDbBlockEnd
  0
BLOCK
  5
40
100
AcDbEntity
  8
0
100
AcDbBlockBegin
  2
BLK27
 70
             0
 10
29.8699440028038
 20
399.90174184251902
 30
0.0
  3
BLK27
  1

  0
ARC
  5
145
100
AcDbEntity
  8
LC-001-002-----0
  6
CONTINUOUS
 62
             1
100
AcDbCircle
 10
-98.31898000000001
 20
-27.58518700000002
 40
2.87172799999973
100
AcDbArc
 50
-88.5367679999996
 51
-77.97851600000101
  0
ARC
  5
144
100
AcDbEntity
  8
LC-001-002-----0
  6
CONTINUOUS
 62
             1
100
AcDbCircle
 10
-98.11048400000001
 20
-28.50806000000011
 40
1.92570499999983
100
AcDbArc
 50
-78.32691199999808
 51
-64.52943100000448
  0
ARC
  5
143
100
AcDbEntity
  8
LC-001-002-----0
  6
CONTINUOUS
 62
             1
100
AcDbCircle
 10
-97.66091900000001
 20
-29.42244300000004
 40
0.90694700000026
100
AcDbArc
 50
-65.32808400000988
 51
-42.46043400000656
  0
ARC
  5
142
100
AcDbEntity
  8
LC-001-002-----0
  6
CONTINUOUS
 62
             1
100
AcDbCircle
 10
-97.26959700000001
 20
-29.77602300000001
 40
0.37957099999975
100
AcDbArc
 50
-42.96205899996649
 51
-1.82232999997952
  0
ENDBLK
  5
146
100
AcDbEntity
  8
0
100
AcDbBlockEnd
  0
BLOCK
  5
42
100
AcDbEntity
  8
0
100
AcDbBlockBegin
  2
BLK29
 70
             0
 10
29.8699440028038
 20
399.90174184251902
 30
0.0
  3
BLK29
  1

  0
ARC
  5
14A
100
AcDbEntity
  8
LC-001-002-----0
  6
CONTINUOUS
 62
             1
100
AcDbCircle
 10
-93.99565100000001
 20
-18.59683100000007
 40
11.86047599999994
100
AcDbArc
 50
-90.50710500000015
 51
-85.04972799999989
  0
ARC
  5
149
100
AcDbEntity
  8
LC-001-002-----0
  6
CONTINUOUS
 62
             1
100
AcDbCircle
 10
-93.59908400000001
 20
-22.78407800000002
 40
7.65470200000028
100
AcDbArc
 50
-85.30246800000047
 51
-77.98609900000068
  0
ARC
  5
148
100
AcDbEntity
  8
LC-001-002-----0
  6
CONTINUOUS
 62
             1
100
AcDbCircle
 10
-92.51210800000001
 20
-27.66742199999999
 40
2.6524749999998
100
AcDbArc
 50
-78.99501999999825
 51
-64.0911699999989
  0
ARC
  5
147
100
AcDbEntity
  8
LC-001-002-----0
  6
CONTINUOUS
 62
             1
100
AcDbCircle
 10
-91.47124300000002
 20
-29.70838600000002
 40
0.36457400000008
100
AcDbArc
 50
-71.09714100000977
 51
-13.55235300002164
  0
ENDBLK
  5
14B
100
AcDbEntity
  8
0
100
AcDbBlockEnd
  0
BLOCK
  5
44
100
AcDbEntity
  8
0
100
AcDbBlockBegin
  2
BLK30
 70
             0
 10
29.8699440028038
 20
399.90174184251902
 30
0.0
  3
BLK30
  1

  0
ARC
  5
14F
100
AcDbEntity
  8
LC-001-002-----0
  6
CONTINUOUS
 62
             1
100
AcDbCircle
 10
-89.66704899999999
 20
-27.50496799999996
 40
2.95226099999977
100
AcDbArc
 50
-90.1220749999994
 51
-79.34089000000229
  0
ARC
  5
14E
100
AcDbEntity
  8
LC-001-002-----0
  6
CONTINUOUS
 62
             1
100
AcDbCircle
 10
-89.48506800000001
 20
-28.40252200000009
 40
2.03657400000009
100
AcDbArc
 50
-79.70166700000033
 51
-65.87672400000044
  0
ARC
  5
14D
100
AcDbEntity
  8
LC-001-002-----0
  6
CONTINUOUS
 62
             1
100
AcDbCircle
 10
-89.03100699999999
 20
-29.38197600000001
 40
0.95718599999972
100
AcDbArc
 50
-66.72095399999638
 51
-43.77277800000615
  0
ARC
  5
14C
100
AcDbEntity
  8
LC-001-002-----0
  6
CONTINUOUS
 62
             1
100
AcDbCircle
 10
-88.614914
 20
-29.77452400000004
 40
0.38519000000006
100
AcDbArc
 50
-44.42706500000679
 51
-2.01867800005205
  0
ENDBLK
  5
150
100
AcDbEntity
  8
0
100
AcDbBlockEnd
  0
BLOCK
  5
46
100
AcDbEntity
  8
0
100
AcDbBlockBegin
  2
BLK32
 70
             0
 10
29.8699440028038
 20
399.90174184251902
 30
0.0
  3
BLK32
  1

  0
ARC
  5
154
100
AcDbEntity
  8
LC-001-002-----0
  6
CONTINUOUS
 62
             1
100
AcDbCircle
 10
98.31585000000001
 20
-28.10291200000006
 40
2.84523600000038
100
AcDbArc
 50
91.88440500000299
 51
102.45466900000919
  0
ARC
  5
153
100
AcDbEntity
  8
LC-001-002-----0
  6
CONTINUOUS
 62
             1
100
AcDbCircle
 10
98.09770499999999
 20
-27.16909200000009
 40
1.88638099999983
100
AcDbArc
 50
102.10181699999924
 51
116.02050099998888
  0
ARC
  5
152
100
AcDbEntity
  8
LC-001-002-----0
  6
CONTINUOUS
 62
             1
100
AcDbCircle
 10
97.64606900000001
 20
-26.27225700000008
 40
0.88240999999994
100
AcDbArc
 50
115.21390099997721
 51
138.38834200002984
  0
ARC
  5
151
100
AcDbEntity
  8
LC-001-002-----0
  6
CONTINUOUS
 62
             1
100
AcDbCircle
 10
97.263792
 20
-25.93636600000002
 40
0.3735470000003
100
AcDbArc
 50
137.96979800003936
 51
179.34244100003005
  0
ENDBLK
  5
155
100
AcDbEntity
  8
0
100
AcDbBlockEnd
  0
BLOCK
  5
48
100
AcDbEntity
  8
0
100
AcDbBlockBegin
  2
BLK33
 70
             0
 10
29.8699440028038
 20
399.90174184251902
 30
0.0
  3
BLK33
  1

  0
ARC
  5
159
100
AcDbEntity
  8
LC-001-002-----0
  6
CONTINUOUS
 62
             1
100
AcDbCircle
 10
89.66704799999999
 20
-28.20947700000011
 40
2.95226199999993
100
AcDbArc
 50
89.87789499999073
 51
100.65907200000359
  0
ARC
  5
158
100
AcDbEntity
  8
LC-001-002-----0
  6
CONTINUOUS
 62
             1
100
AcDbCircle
 10
89.48506900000001
 20
-27.31192499999997
 40
2.03657799999991
100
AcDbArc
 50
100.29829599999212
 51
114.12321599998739
  0
ARC
  5
157
100
AcDbEntity
  8
LC-001-002-----0
  6
CONTINUOUS
 62
             1
100
AcDbCircle
 10
89.03100799999999
 20
-26.33247100000006
 40
0.95719000000048
100
AcDbArc
 50
113.27898900000979
 51
136.22710099999188
  0
ARC
  5
156
100
AcDbEntity
  8
LC-001-002-----0
  6
CONTINUOUS
 62
             1
100
AcDbCircle
 10
88.614914
 20
-25.93991900000003
 40
0.38519099999981
100
AcDbArc
 50
135.57280300004388
 51
177.98109099996361
  0
ENDBLK
  5
15A
100
AcDbEntity
  8
0
100
AcDbBlockEnd
  0
BLOCK
  5
4A
100
AcDbEntity
  8
0
100
AcDbBlockBegin
  2
BLK34
 70
             0
 10
29.8699440028038
 20
399.90174184251902
 30
0.0
  3
BLK34
  1

  0
ARC
  5
15E
100
AcDbEntity
  8
LC-001-002-----0
  6
CONTINUOUS
 62
             1
100
AcDbCircle
 10
89.684541
 20
-27.55429400000003
 40
2.90276399999974
100
AcDbArc
 50
-89.06955200000257
 51
-78.50413400000133
  0
ARC
  5
15D
100
AcDbEntity
  8
LC-001-002-----0
  6
CONTINUOUS
 62
             1
100
AcDbCircle
 10
89.88153
 20
-28.46327100000008
 40
1.97279799999995
100
AcDbArc
 50
-78.84917199998907
 51
-65.16570300000832
  0
ARC
  5
15C
100
AcDbEntity
  8
LC-001-002-----0
  6
CONTINUOUS
 62
             1
100
AcDbCircle
 10
90.32897399999999
 20
-29.39925900000003
 40
0.93552899999951
100
AcDbArc
 50
-65.95924399998994
 51
-43.3850260000352
  0
ARC
  5
15B
100
AcDbEntity
  8
LC-001-002-----0
  6
CONTINUOUS
 62
             1
100
AcDbCircle
 10
90.730863
 20
-29.77362300000004
 40
0.38632599999949
100
AcDbArc
 50
-43.97614199998625
 51
-2.99595999998829
  0
ENDBLK
  5
15F
100
AcDbEntity
  8
0
100
AcDbBlockEnd
  0
BLOCK
  5
4C
100
AcDbEntity
  8
0
100
AcDbBlockBegin
  2
BLK35
 70
             0
 10
29.8699440028038
 20
399.90174184251902
 30
0.0
  3
BLK35
  1

  0
ARC
  5
163
100
AcDbEntity
  8
LC-001-002-----0
  6
CONTINUOUS
 62
             1
100
AcDbCircle
 10
98.33988199999999
 20
-27.50496900000007
 40
2.95226000000027
100
AcDbArc
 50
-90.1220529999969
 51
-79.34087099999674
  0
ARC
  5
162
100
AcDbEntity
  8
LC-001-002-----0
  6
CONTINUOUS
 62
             1
100
AcDbCircle
 10
98.521863
 20
-28.40252299999997
 40
2.03657299999997
100
AcDbArc
 50
-79.70164799998615
 51
-65.87670500000142
  0
ARC
  5
161
100
AcDbEntity
  8
LC-001-002-----0
  6
CONTINUOUS
 62
             1
100
AcDbCircle
 10
98.97592399999999
 20
-29.38197600000001
 40
0.95718600000016
100
AcDbArc
 50
-66.72093500000146
 51
-43.7727599999709
  0
ARC
  5
160
100
AcDbEntity
  8
LC-001-002-----0
  6
CONTINUOUS
 62
             1
100
AcDbCircle
 10
99.39201700000001
 20
-29.77452400000004
 40
0.38518899999982
100
AcDbArc
 50
-44.42704499999331
 51
-2.01867499992299
  0
ENDBLK
  5
164
100
AcDbEntity
  8
0
100
AcDbBlockEnd
  0
BLOCK
  5
4E
100
AcDbEntity
  8
0
100
AcDbBlockBegin
  2
BLK36
 70
             0
 10
29.8699440028038
 20
399.90174184251902
 30
0.0
  3
BLK36
  1

  0
ARC
  5
168
100
AcDbEntity
  8
LC-001-002-----0
  6
CONTINUOUS
 62
             1
100
AcDbCircle
 10
93.94127599999999
 20
-36.1300920000001
 40
10.8717839999999
100
AcDbArc
 50
91.41077699999933
 51
96.72275700000159
  0
ARC
  5
167
100
AcDbEntity
  8
LC-001-002-----0
  6
CONTINUOUS
 62
             1
100
AcDbCircle
 10
93.37859599999999
 20
-31.60722299999998
 40
6.31420999999946
100
AcDbArc
 50
96.45651499999643
 51
104.09815200000162
  0
ARC
  5
166
100
AcDbEntity
  8
LC-001-002-----0
  6
CONTINUOUS
 62
             1
100
AcDbCircle
 10
92.30175600000001
 20
-27.48334100000011
 40
2.05262700000064
100
AcDbArc
 50
102.9844780000025
 51
119.23126300000892
  0
ARC
  5
165
100
AcDbEntity
  8
LC-001-002-----0
  6
CONTINUOUS
 62
             1
100
AcDbCircle
 10
91.41693799999999
 20
-25.97096800000008
 40
0.3026280000003
100
AcDbArc
 50
112.85759199991763
 51
172.61628899995145
  0
ENDBLK
  5
169
100
AcDbEntity
  8
0
100
AcDbBlockEnd
  0
BLOCK
  5
50
100
AcDbEntity
  8
0
100
AcDbBlockBegin
  2
BLK37
 70
             0
 10
29.8699440028038
 20
399.90174184251902
 30
0.0
  3
BLK37
  1

  0
ARC
  5
16D
100
AcDbEntity
  8
LC-001-002-----0
  6
CONTINUOUS
 62
             1
100
AcDbCircle
 10
94.02853199999998
 20
-18.98452700000007
 40
11.47254199999989
100
AcDbArc
 50
-89.63836400000184
 51
-84.26291000000219
  0
ARC
  5
16C
100
AcDbEntity
  8
LC-001-002-----0
  6
CONTINUOUS
 62
             1
100
AcDbCircle
 10
94.50296800000001
 20
-23.38965200000007
 40
7.04212699999954
100
AcDbArc
 50
-84.52087600000193
 51
-77.06860900000224
  0
ARC
  5
16B
100
AcDbEntity
  8
LC-001-002-----0
  6
CONTINUOUS
 62
             1
100
AcDbCircle
 10
95.592446
 20
-27.93951200000004
 40
2.36425199999968
100
AcDbArc
 50
-78.12677300000406
 51
-62.62092800000121
  0
ARC
  5
16A
100
AcDbEntity
  8
LC-001-002-----0
  6
CONTINUOUS
 62
             1
100
AcDbCircle
 10
96.56242
 20
-29.72674700000005
 40
0.33348700000006
100
AcDbArc
 50
-69.40857000003142
 51
-10.60006500006779
  0
ENDBLK
  5
16E
100
AcDbEntity
  8
0
100
AcDbBlockEnd
  0
BLOCK
  5
52
100
AcDbEntity
  8
0
100
AcDbBlockBegin
  2
BLK38
 70
             0
 10
29.8699440028038
 20
399.90174184251902
 30
0.0
  3
BLK38
  1

  0
ARC
  5
172
100
AcDbEntity
  8
LC-001-002-----0
  6
CONTINUOUS
 62
             1
100
AcDbCircle
 10
99.39201700000001
 20
-25.93991900000003
 40
0.38518999999978
100
AcDbArc
 50
2.01876900001389
 51
44.42710699998347
  0
ARC
  5
171
100
AcDbEntity
  8
LC-001-002-----0
  6
CONTINUOUS
 62
             1
100
AcDbCircle
 10
98.975923
 20
-26.33246900000006
 40
0.95718699999995
100
AcDbArc
 50
43.77281699998401
 51
66.720965999977
  0
ARC
  5
170
100
AcDbEntity
  8
LC-001-002-----0
  6
CONTINUOUS
 62
             1
100
AcDbCircle
 10
98.521862
 20
-27.3119220000001
 40
2.03657500000024
100
AcDbArc
 50
65.87673799999871
 51
79.70167199999499
  0
ARC
  5
16F
100
AcDbEntity
  8
LC-001-002-----0
  6
CONTINUOUS
 62
             1
100
AcDbCircle
 10
98.33988199999999
 20
-28.209476
 40
2.95226100000016
100
AcDbArc
 50
79.34089499999057
 51
90.12207500000658
  0
ENDBLK
  5
173
100
AcDbEntity
  8
0
100
AcDbBlockEnd
  0
BLOCK
  5
54
100
AcDbEntity
  8
0
100
AcDbBlockBegin
  2
BLK39
 70
             0
 10
29.8699440028038
 20
399.90174184251902
 30
0.0
  3
BLK39
  1

  0
ARC
  5
177
100
AcDbEntity
  8
LC-001-002-----0
  6
CONTINUOUS
 62
             1
100
AcDbCircle
 10
96.57655299999999
 20
-25.97748000000001
 40
0.31682900000055
100
AcDbArc
 50
8.23989700006718
 51
68.86547599998961
  0
ARC
  5
176
100
AcDbEntity
  8
LC-001-002-----0
  6
CONTINUOUS
 62
             1
100
AcDbCircle
 10
95.62786399999999
 20
-27.67853500000001
 40
2.26188200000014
100
AcDbArc
 50
61.97031500000349
 51
77.86899000001098
  0
ARC
  5
175
100
AcDbEntity
  8
LC-001-002-----0
  6
CONTINUOUS
 62
             1
100
AcDbCircle
 10
94.532138
 20
-32.14814500000011
 40
6.86321699999944
100
AcDbArc
 50
76.76711800000263
 51
84.31313700000311
  0
ARC
  5
174
100
AcDbEntity
  8
LC-001-002-----0
  6
CONTINUOUS
 62
             1
100
AcDbCircle
 10
94.03458799999999
 20
-36.61580400000003
 40
11.3583110000004
100
AcDbArc
 50
84.04884399999872
 51
89.43490400000097
  0
ENDBLK
  5
178
100
AcDbEntity
  8
0
100
AcDbBlockEnd
  0
BLOCK
  5
56
100
AcDbEntity
  8
0
100
AcDbBlockBegin
  2
BLK41
 70
             0
 10
29.8699440028038
 20
399.90174184251902
 30
0.0
  3
BLK41
  1

  0
ARC
  5
17C
100
AcDbEntity
  8
LC-001-002-----0
  6
CONTINUOUS
 62
             1
100
AcDbCircle
 10
90.735209
 20
-25.93960100000004
 40
0.38192400000011
100
AcDbArc
 50
2.84829199995986
 51
42.84541299999766
  0
ARC
  5
17B
100
AcDbEntity
  8
LC-001-002-----0
  6
CONTINUOUS
 62
             1
100
AcDbCircle
 10
90.35239200000001
 20
-26.28441300000009
 40
0.89711299999943
100
AcDbArc
 50
42.36569200000519
 51
64.86233099998943
  0
ARC
  5
17A
100
AcDbEntity
  8
LC-001-002-----0
  6
CONTINUOUS
 62
             1
100
AcDbCircle
 10
89.90951699999999
 20
-27.16949100000011
 40
1.88666100000021
100
AcDbArc
 50
64.10450699999184
 51
77.7672760000071
  0
ARC
  5
179
100
AcDbEntity
  8
LC-001-002-----0
  6
CONTINUOUS
 62
             1
100
AcDbCircle
 10
89.692714
 20
-28.09111500000006
 40
2.83334599999983
100
AcDbArc
 50
77.4315160000026
 51
87.83803499999405
  0
ENDBLK
  5
17D
100
AcDbEntity
  8
0
100
AcDbBlockEnd
  0
BLOCK
  5
58
100
AcDbEntity
  8
0
100
AcDbBlockBegin
  2
BLK42
 70
             0
 10
29.8699440028038
 20
399.90174184251902
 30
0.0
  3
BLK42
  1

  0
ARC
  5
181
100
AcDbEntity
  8
LC-001-002-----0
  6
CONTINUOUS
 62
             1
100
AcDbCircle
 10
97.26959600000001
 20
-29.77602300000001
 40
0.37957099999997
100
AcDbArc
 50
-178.1776700000205
 51
-137.03794100004521
  0
ARC
  5
180
100
AcDbEntity
  8
LC-001-002-----0
  6
CONTINUOUS
 62
             1
100
AcDbCircle
 10
97.66091800000001
 20
-29.42244300000004
 40
0.90694700000042
100
AcDbArc
 50
-137.53956600001041
 51
-114.67191599999502
  0
ARC
  5
17F
100
AcDbEntity
  8
LC-001-002-----0
  6
CONTINUOUS
 62
             1
100
AcDbCircle
 10
98.11048299999999
 20
-28.50806000000011
 40
1.92570500000033
100
AcDbArc
 50
-115.47056900000011
 51
-101.67308799999863
  0
ARC
  5
17E
100
AcDbEntity
  8
LC-001-002-----0
  6
CONTINUOUS
 62
             1
100
AcDbCircle
 10
98.31897899999999
 20
-27.58518700000002
 40
2.87172800000048
100
AcDbArc
 50
-102.02148399999456
 51
-91.46323200000381
  0
ENDBLK
  5
182
100
AcDbEntity
  8
0
100
AcDbBlockEnd
  0
BLOCK
  5
5A
100
AcDbEntity
  8
0
100
AcDbBlockBegin
  2
BLK44
 70
             0
 10
29.8699440028038
 20
399.90174184251902
 30
0.0
  3
BLK44
  1

  0
ARC
  5
186
100
AcDbEntity
  8
LC-001-002-----0
  6
CONTINUOUS
 62
             1
100
AcDbCircle
 10
91.47124199999999
 20
-29.70838600000002
 40
0.36457400000028
100
AcDbArc
 50
-166.4476469999878
 51
-108.90285900000292
  0
ARC
  5
185
100
AcDbEntity
  8
LC-001-002-----0
  6
CONTINUOUS
 62
             1
100
AcDbCircle
 10
92.51210699999999
 20
-27.66742199999999
 40
2.65247500000019
100
AcDbArc
 50
-115.90883000000829
 51
-101.00498000000357
  0
ARC
  5
184
100
AcDbEntity
  8
LC-001-002-----0
  6
CONTINUOUS
 62
             1
100
AcDbCircle
 10
93.59908300000001
 20
-22.78407800000002
 40
7.65470200000026
100
AcDbArc
 50
-102.01390099999871
 51
-94.69753200000186
  0
ARC
  5
183
100
AcDbEntity
  8
LC-001-002-----0
  6
CONTINUOUS
 62
             1
100
AcDbCircle
 10
93.99564999999998
 20
-18.59683100000007
 40
11.86047599999947
100
AcDbArc
 50
-94.95027200000052
 51
-89.49289499999834
  0
ENDBLK
  5
187
100
AcDbEntity
  8
0
100
AcDbBlockEnd
  0
BLOCK
  5
5C
100
AcDbEntity
  8
0
100
AcDbBlockBegin
  2
BLK45
 70
             0
 10
29.8699440028038
 20
399.90174184251902
 30
0.0
  3
BLK45
  1

  0
ARC
  5
18B
100
AcDbEntity
  8
LC-001-002-----0
  6
CONTINUOUS
 62
             1
100
AcDbCircle
 10
88.614913
 20
-29.77452400000004
 40
0.38519000000027
100
AcDbArc
 50
-177.98132199994944
 51
-135.57293500002578
  0
ARC
  5
18A
100
AcDbEntity
  8
LC-001-002-----0
  6
CONTINUOUS
 62
             1
100
AcDbCircle
 10
89.03100599999999
 20
-29.38197600000001
 40
0.95718599999999
100
AcDbArc
 50
-136.22722199999035
 51
-113.27904600003176
  0
ARC
  5
189
100
AcDbEntity
  8
LC-001-002-----0
  6
CONTINUOUS
 62
             1
100
AcDbCircle
 10
89.48506699999999
 20
-28.40252200000009
 40
2.03657399999999
100
AcDbArc
 50
-114.12327600000103
 51
-100.29833300000676
  0
ARC
  5
188
100
AcDbEntity
  8
LC-001-002-----0
  6
CONTINUOUS
 62
             1
100
AcDbCircle
 10
89.66704799999999
 20
-27.50496799999996
 40
2.95226100000035
100
AcDbArc
 50
-100.65910999999014
 51
-89.87792499999344
  0
ENDBLK
  5
18C
100
AcDbEntity
  8
0
100
AcDbBlockEnd
  0
BLOCK
  5
5E
100
AcDbEntity
  8
0
100
AcDbBlockBegin
  2
BLK51
 70
             0
 10
29.8699440028038
 20
399.90174184251902
 30
0.0
  3
BLK51
  1

  0
ARC
  5
190
100
AcDbEntity
  8
LC-001-002-----0
  6
CONTINUOUS
 62
             1
100
AcDbCircle
 10
-50.1906
 20
-26.08228499999996
 40
0.37354700000001
100
AcDbArc
 50
0.65755899995253
 51
42.0302019999871
  0
ARC
  5
18F
100
AcDbEntity
  8
LC-001-002-----0
  6
CONTINUOUS
 62
             1
100
AcDbCircle
 10
-50.572878
 20
-26.41817700000001
 40
0.88240999999986
100
AcDbArc
 50
41.61165799999201
 51
64.78609900000066
  0
ARC
  5
18E
100
AcDbEntity
  8
LC-001-002-----0
  6
CONTINUOUS
 62
             1
100
AcDbCircle
 10
-51.024513
 20
-27.31501100000003
 40
1.8863810000002
100
AcDbArc
 50
63.97949900000121
 51
77.89818299999693
  0
ARC
  5
18D
100
AcDbEntity
  8
LC-001-002-----0
  6
CONTINUOUS
 62
             1
100
AcDbCircle
 10
-51.24265800000001
 20
-28.24883100000011
 40
2.84523599999995
100
AcDbArc
 50
77.54533099999864
 51
88.11559500000125
  0
ENDBLK
  5
191
100
AcDbEntity
  8
0
100
AcDbBlockEnd
  0
BLOCK
  5
60
100
AcDbEntity
  8
0
100
AcDbBlockBegin
  2
BLK52
 70
             0
 10
29.8699440028038
 20
399.90174184251902
 30
0.0
  3
BLK52
  1

  0
ARC
  5
195
100
AcDbEntity
  8
LC-001-002-----0
  6
CONTINUOUS
 62
             1
100
AcDbCircle
 10
-41.54172200000001
 20
-26.08583900000008
 40
0.38519100000003
100
AcDbArc
 50
2.01890900005429
 51
44.42719699997785
  0
ARC
  5
194
100
AcDbEntity
  8
LC-001-002-----0
  6
CONTINUOUS
 62
             1
100
AcDbCircle
 10
-41.95781700000001
 20
-26.47838999999999
 40
0.95719000000014
100
AcDbArc
 50
43.77289900000717
 51
66.72101100001095
  0
ARC
  5
193
100
AcDbEntity
  8
LC-001-002-----0
  6
CONTINUOUS
 62
             1
100
AcDbCircle
 10
-42.411877
 20
-27.45784500000002
 40
2.03657800000017
100
AcDbArc
 50
65.87678400000178
 51
79.70170400000001
  0
ARC
  5
192
100
AcDbEntity
  8
LC-001-002-----0
  6
CONTINUOUS
 62
             1
100
AcDbCircle
 10
-42.593856
 20
-28.35539700000004
 40
2.95226200000022
100
AcDbArc
 50
79.34092799999995
 51
90.12210499999976
  0
ENDBLK
  5
196
100
AcDbEntity
  8
0
100
AcDbBlockEnd
  0
BLOCK
  5
62
100
AcDbEntity
  8
0
100
AcDbBlockBegin
  2
BLK53
 70
             0
 10
29.8699440028038
 20
399.90174184251902
 30
0.0
  3
BLK53
  1

  0
ARC
  5
19A
100
AcDbEntity
  8
LC-001-002-----0
  6
CONTINUOUS
 62
             1
100
AcDbCircle
 10
-43.65767100000001
 20
-29.91954299999998
 40
0.38632600000004
100
AcDbArc
 50
-177.00403999999762
 51
-136.02385800003202
  0
ARC
  5
199
100
AcDbEntity
  8
LC-001-002-----0
  6
CONTINUOUS
 62
             1
100
AcDbCircle
 10
-43.255783
 20
-29.54517899999996
 40
0.93552900000043
100
AcDbArc
 50
-136.61497399997532
 51
-114.0407560000081
  0
ARC
  5
198
100
AcDbEntity
  8
LC-001-002-----0
  6
CONTINUOUS
 62
             1
100
AcDbCircle
 10
-42.80833800000001
 20
-28.60919000000001
 40
1.97279800000027
100
AcDbArc
 50
-114.83429699999489
 51
-101.15082800000181
  0
ARC
  5
197
100
AcDbEntity
  8
LC-001-002-----0
  6
CONTINUOUS
 62
             1
100
AcDbCircle
 10
-42.61135
 20
-27.70021399999996
 40
2.90276399999985
100
AcDbArc
 50
-101.49586600000087
 51
-90.93044799999936
  0
ENDBLK
  5
19B
100
AcDbEntity
  8
0
100
AcDbBlockEnd
  0
BLOCK
  5
64
100
AcDbEntity
  8
0
100
AcDbBlockBegin
  2
BLK54
 70
             0
 10
29.8699440028038
 20
399.90174184251902
 30
0.0
  3
BLK54
  1

  0
ARC
  5
19F
100
AcDbEntity
  8
LC-001-002-----0
  6
CONTINUOUS
 62
             1
100
AcDbCircle
 10
-52.318825
 20
-29.92044400000009
 40
0.385189
100
AcDbArc
 50
-177.98132500009402
 51
-135.57295500001894
  0
ARC
  5
19E
100
AcDbEntity
  8
LC-001-002-----0
  6
CONTINUOUS
 62
             1
100
AcDbCircle
 10
-51.902732
 20
-29.52789600000006
 40
0.95718599999976
100
AcDbArc
 50
-136.2272400000133
 51
-113.27906500000115
  0
ARC
  5
19D
100
AcDbEntity
  8
LC-001-002-----0
  6
CONTINUOUS
 62
             1
100
AcDbCircle
 10
-51.448671
 20
-28.54844300000002
 40
2.03657300000005
100
AcDbArc
 50
-114.12329499999889
 51
-100.29835200000035
  0
ARC
  5
19C
100
AcDbEntity
  8
LC-001-002-----0
  6
CONTINUOUS
 62
             1
100
AcDbCircle
 10
-51.26669
 20
-27.65088800000001
 40
2.95225999999982
100
AcDbArc
 50
-100.6591290000014
 51
-89.87794699999925
  0
ENDBLK
  5
1A0
100
AcDbEntity
  8
0
100
AcDbBlockEnd
  0
BLOCK
  5
66
100
AcDbEntity
  8
0
100
AcDbBlockBegin
  2
BLK55
 70
             0
 10
29.8699440028038
 20
399.90174184251902
 30
0.0
  3
BLK55
  1

  0
ARC
  5
1A4
100
AcDbEntity
  8
LC-001-002-----0
  6
CONTINUOUS
 62
             1
100
AcDbCircle
 10
-44.343746
 20
-26.11688700000002
 40
0.30262800000003
100
AcDbArc
 50
7.38371100002821
 51
67.14240800003083
  0
ARC
  5
1A3
100
AcDbEntity
  8
LC-001-002-----0
  6
CONTINUOUS
 62
             1
100
AcDbCircle
 10
-45.22856400000001
 20
-27.62926100000004
 40
2.05262700000011
100
AcDbArc
 50
60.76873700000045
 51
77.01552200000147
  0
ARC
  5
1A2
100
AcDbEntity
  8
LC-001-002-----0
  6
CONTINUOUS
 62
             1
100
AcDbCircle
 10
-46.305404
 20
-31.75314200000003
 40
6.31421000000037
100
AcDbArc
 50
75.9018480000009
 51
83.54348499999979
  0
ARC
  5
1A1
100
AcDbEntity
  8
LC-001-002-----0
  6
CONTINUOUS
 62
             1
100
AcDbCircle
 10
-46.868085
 20
-36.27601200000004
 40
10.87178399999961
100
AcDbArc
 50
83.27724299999991
 51
88.58922300000015
  0
ENDBLK
  5
1A5
100
AcDbEntity
  8
0
100
AcDbBlockEnd
  0
BLOCK
  5
68
100
AcDbEntity
  8
0
100
AcDbBlockBegin
  2
BLK56
 70
             0
 10
29.8699440028038
 20
399.90174184251902
 30
0.0
  3
BLK56
  1

  0
ARC
  5
1A9
100
AcDbEntity
  8
LC-001-002-----0
  6
CONTINUOUS
 62
             1
100
AcDbCircle
 10
-49.489228
 20
-29.87266700000009
 40
0.33348700000008
100
AcDbArc
 50
-169.39993499994682
 51
-110.59143000000704
  0
ARC
  5
1A8
100
AcDbEntity
  8
LC-001-002-----0
  6
CONTINUOUS
 62
             1
100
AcDbCircle
 10
-48.519255
 20
-28.08543200000008
 40
2.3642520000001
100
AcDbArc
 50
-117.37907199999819
 51
-101.87322700000061
  0
ARC
  5
1A7
100
AcDbEntity
  8
LC-001-002-----0
  6
CONTINUOUS
 62
             1
100
AcDbCircle
 10
-47.429776
 20
-23.53557100000012
 40
7.04212699999949
100
AcDbArc
 50
-102.931391000001
 51
-95.47912400000067
  0
ARC
  5
1A6
100
AcDbEntity
  8
LC-001-002-----0
  6
CONTINUOUS
 62
             1
100
AcDbCircle
 10
-46.95534
 20
-19.130447
 40
11.47254200000045
100
AcDbArc
 50
-95.73708999999978
 51
-90.36163600000008
  0
ENDBLK
  5
1AA
100
AcDbEntity
  8
0
100
AcDbBlockEnd
  0
BLOCK
  5
6A
100
AcDbEntity
  8
0
100
AcDbBlockBegin
  2
BLK57
 70
             0
 10
29.8699440028038
 20
399.90174184251902
 30
0.0
  3
BLK57
  1

  0
ARC
  5
1AE
100
AcDbEntity
  8
LC-001-002-----0
  6
CONTINUOUS
 62
             1
100
AcDbCircle
 10
-51.26669
 20
-28.35539600000004
 40
2.95226099999965
100
AcDbArc
 50
89.87792500000117
 51
100.65910499999984
  0
ARC
  5
1AD
100
AcDbEntity
  8
LC-001-002-----0
  6
CONTINUOUS
 62
             1
100
AcDbCircle
 10
-51.44867
 20
-27.45784200000003
 40
2.03657500000046
100
AcDbArc
 50
100.29832799999734
 51
114.1232619999987
  0
ARC
  5
1AC
100
AcDbEntity
  8
LC-001-002-----0
  6
CONTINUOUS
 62
             1
100
AcDbCircle
 10
-51.902731
 20
-26.478388
 40
0.95718699999994
100
AcDbArc
 50
113.27903400000073
 51
136.22718300001159
  0
ARC
  5
1AB
100
AcDbEntity
  8
LC-001-002-----0
  6
CONTINUOUS
 62
             1
100
AcDbCircle
 10
-52.318825
 20
-26.08583900000008
 40
0.38518999999993
100
AcDbArc
 50
135.57289300001628
 51
177.98123099998574
  0
ENDBLK
  5
1AF
100
AcDbEntity
  8
0
100
AcDbBlockEnd
  0
BLOCK
  5
6C
100
AcDbEntity
  8
0
100
AcDbBlockBegin
  2
BLK58
 70
             0
 10
29.8699440028038
 20
399.90174184251902
 30
0.0
  3
BLK58
  1

  0
ARC
  5
1B3
100
AcDbEntity
  8
LC-001-002-----0
  6
CONTINUOUS
 62
             1
100
AcDbCircle
 10
-46.961396
 20
-36.76172300000008
 40
11.35831099999976
100
AcDbArc
 50
90.565096
 51
95.95115599999974
  0
ARC
  5
1B2
100
AcDbEntity
  8
LC-001-002-----0
  6
CONTINUOUS
 62
             1
100
AcDbCircle
 10
-47.45894600000001
 20
-32.29406500000005
 40
6.86321699999953
100
AcDbArc
 50
95.68686300000029
 51
103.23288200000063
  0
ARC
  5
1B1
100
AcDbEntity
  8
LC-001-002-----0
  6
CONTINUOUS
 62
             1
100
AcDbCircle
 10
-48.554673
 20
-27.82445500000006
 40
2.26188200000041
100
AcDbArc
 50
102.13100999999789
 51
118.02968499999859
  0
ARC
  5
1B0
100
AcDbEntity
  8
LC-001-002-----0
  6
CONTINUOUS
 62
             1
100
AcDbCircle
 10
-49.50336100000001
 20
-26.12340000000006
 40
0.31682899999962
100
AcDbArc
 50
111.13452400001474
 51
171.76010300008215
  0
ENDBLK
  5
1B4
100
AcDbEntity
  8
0
100
AcDbBlockEnd
  0
BLOCK
  5
6E
100
AcDbEntity
  8
0
100
AcDbBlockBegin
  2
BLK59
 70
             0
 10
29.8699440028038
 20
399.90174184251902
 30
0.0
  3
BLK59
  1

  0
ARC
  5
1B8
100
AcDbEntity
  8
LC-001-002-----0
  6
CONTINUOUS
 62
             1
100
AcDbCircle
 10
-42.619523
 20
-28.23703500000011
 40
2.83334599999976
100
AcDbArc
 50
92.16196499999985
 51
102.56848400000105
  0
ARC
  5
1B7
100
AcDbEntity
  8
LC-001-002-----0
  6
CONTINUOUS
 62
             1
100
AcDbCircle
 10
-42.836326
 20
-27.31541100000004
 40
1.88666099999966
100
AcDbArc
 50
102.23272400000255
 51
115.89549300000161
  0
ARC
  5
1B6
100
AcDbEntity
  8
LC-001-002-----0
  6
CONTINUOUS
 62
             1
100
AcDbCircle
 10
-43.2792
 20
-26.43033200000002
 40
0.89711300000029
100
AcDbArc
 50
115.13766899999362
 51
137.63430800002297
  0
ARC
  5
1B5
100
AcDbEntity
  8
LC-001-002-----0
  6
CONTINUOUS
 62
             1
100
AcDbCircle
 10
-43.66201700000001
 20
-26.08552099999997
 40
0.38192400000009
100
AcDbArc
 50
137.15458699998288
 51
177.15170800003875
  0
ENDBLK
  5
1B9
100
AcDbEntity
  8
0
100
AcDbBlockEnd
  0
BLOCK
  5
70
100
AcDbEntity
  8
0
100
AcDbBlockBegin
  2
BLK60
 70
             0
 10
29.8699440028038
 20
399.90174184251902
 30
0.0
  3
BLK60
  1

  0
ARC
  5
1BD
100
AcDbEntity
  8
LC-001-002-----0
  6
CONTINUOUS
 62
             1
100
AcDbCircle
 10
-51.24578800000001
 20
-27.73110599999995
 40
2.87172799999973
100
AcDbArc
 50
-88.53676799999974
 51
-77.9785159999969
  0
ARC
  5
1BC
100
AcDbEntity
  8
LC-001-002-----0
  6
CONTINUOUS
 62
             1
100
AcDbCircle
 10
-51.037291
 20
-28.65397900000005
 40
1.92570499999983
100
AcDbArc
 50
-78.32691199999808
 51
-64.52943100000229
  0
ARC
  5
1BB
100
AcDbEntity
  8
LC-001-002-----0
  6
CONTINUOUS
 62
             1
100
AcDbCircle
 10
-50.587726
 20
-29.56836300000009
 40
0.90694700000014
100
AcDbArc
 50
-65.32808400000792
 51
-42.46043400000716
  0
ARC
  5
1BA
100
AcDbEntity
  8
LC-001-002-----0
  6
CONTINUOUS
 62
             1
100
AcDbCircle
 10
-50.196404
 20
-29.92194200000006
 40
0.37957099999968
100
AcDbArc
 50
-42.9620589999536
 51
-1.82232999997906
  0
ENDBLK
  5
1BE
100
AcDbEntity
  8
0
100
AcDbBlockEnd
  0
BLOCK
  5
72
100
AcDbEntity
  8
0
100
AcDbBlockBegin
  2
BLK61
 70
             0
 10
29.8699440028038
 20
399.90174184251902
 30
0.0
  3
BLK61
  1

  0
ARC
  5
1C2
100
AcDbEntity
  8
LC-001-002-----0
  6
CONTINUOUS
 62
             1
100
AcDbCircle
 10
-46.922459
 20
-18.74275000000012
 40
11.86047599999993
100
AcDbArc
 50
-90.50710500000018
 51
-85.04972800000031
  0
ARC
  5
1C1
100
AcDbEntity
  8
LC-001-002-----0
  6
CONTINUOUS
 62
             1
100
AcDbCircle
 10
-46.525891
 20
-22.92999800000007
 40
7.65470200000028
100
AcDbArc
 50
-85.30246800000037
 51
-77.98609900000085
  0
ARC
  5
1C0
100
AcDbEntity
  8
LC-001-002-----0
  6
CONTINUOUS
 62
             1
100
AcDbCircle
 10
-45.438915
 20
-27.81334200000003
 40
2.6524749999998
100
AcDbArc
 50
-78.99501999999809
 51
-64.09116999999831
  0
ARC
  5
1BF
100
AcDbEntity
  8
LC-001-002-----0
  6
CONTINUOUS
 62
             1
100
AcDbCircle
 10
-44.398051
 20
-29.85430599999995
 40
0.36457400000007
100
AcDbArc
 50
-71.09714100001065
 51
-13.55235300002351
  0
ENDBLK
  5
1C3
100
AcDbEntity
  8
0
100
AcDbBlockEnd
  0
BLOCK
  5
74
100
AcDbEntity
  8
0
100
AcDbBlockBegin
  2
BLK62
 70
             0
 10
29.8699440028038
 20
399.90174184251902
 30
0.0
  3
BLK62
  1

  0
ARC
  5
1C7
100
AcDbEntity
  8
LC-001-002-----0
  6
CONTINUOUS
 62
             1
100
AcDbCircle
 10
-42.593856
 20
-27.65088700000001
 40
2.95226099999976
100
AcDbArc
 50
-90.12207500000076
 51
-79.34089000000228
  0
ARC
  5
1C6
100
AcDbEntity
  8
LC-001-002-----0
  6
CONTINUOUS
 62
             1
100
AcDbCircle
 10
-42.41187600000001
 20
-28.54844100000003
 40
2.03657400000019
100
AcDbArc
 50
-79.70166700000128
 51
-65.87672400000209
  0
ARC
  5
1C5
100
AcDbEntity
  8
LC-001-002-----0
  6
CONTINUOUS
 62
             1
100
AcDbCircle
 10
-41.957815
 20
-29.52789500000006
 40
0.95718599999961
100
AcDbArc
 50
-66.72095399999266
 51
-43.7727780000057
  0
ARC
  5
1C4
100
AcDbEntity
  8
LC-001-002-----0
  6
CONTINUOUS
 62
             1
100
AcDbCircle
 10
-41.541721
 20
-29.92044400000009
 40
0.38519000000007
100
AcDbArc
 50
-44.42706500000531
 51
-2.01867800003572
  0
ENDBLK
  5
1C8
100
AcDbEntity
  8
0
100
AcDbBlockEnd
  0
BLOCK
  5
76
100
AcDbEntity
  8
0
100
AcDbBlockBegin
  2
BLK67
 70
             0
 10
29.8699440028038
 20
399.90174184251902
 30
0.0
  3
BLK67
  1

  0
ARC
  5
1CC
100
AcDbEntity
  8
LC-001-002-----0
  6
CONTINUOUS
 62
             1
100
AcDbCircle
 10
51.24265800000001
 20
-28.24883100000011
 40
2.84523600000049
100
AcDbArc
 50
91.88440500000075
 51
102.45466900000164
  0
ARC
  5
1CB
100
AcDbEntity
  8
LC-001-002-----0
  6
CONTINUOUS
 62
             1
100
AcDbCircle
 10
51.02451199999999
 20
-27.31501100000003
 40
1.88638099999974
100
AcDbArc
 50
102.10181700000221
 51
116.02050099999879
  0
ARC
  5
1CA
100
AcDbEntity
  8
LC-001-002-----0
  6
CONTINUOUS
 62
             1
100
AcDbCircle
 10
50.57287700000001
 20
-26.41817700000001
 40
0.8824100000001
100
AcDbArc
 50
115.21390099999977
 51
138.38834200000832
  0
ARC
  5
1C9
100
AcDbEntity
  8
LC-001-002-----0
  6
CONTINUOUS
 62
             1
100
AcDbCircle
 10
50.19059899999999
 20
-26.08228499999996
 40
0.37354699999993
100
AcDbArc
 50
137.96979800001216
 51
179.34244100004744
  0
ENDBLK
  5
1CD
100
AcDbEntity
  8
0
100
AcDbBlockEnd
  0
BLOCK
  5
78
100
AcDbEntity
  8
0
100
AcDbBlockBegin
  2
BLK68
 70
             0
 10
29.8699440028038
 20
399.90174184251902
 30
0.0
  3
BLK68
  1

  0
ARC
  5
1D1
100
AcDbEntity
  8
LC-001-002-----0
  6
CONTINUOUS
 62
             1
100
AcDbCircle
 10
42.59385499999999
 20
-28.35539700000004
 40
2.95226199999981
100
AcDbArc
 50
89.87789500000011
 51
100.6590719999998
  0
ARC
  5
1D0
100
AcDbEntity
  8
LC-001-002-----0
  6
CONTINUOUS
 62
             1
100
AcDbCircle
 10
42.41187600000001
 20
-27.45784500000002
 40
2.03657799999997
100
AcDbArc
 50
100.29829600000038
 51
114.12321599999859
  0
ARC
  5
1CF
100
AcDbEntity
  8
LC-001-002-----0
  6
CONTINUOUS
 62
             1
100
AcDbCircle
 10
41.95781600000001
 20
-26.47838999999999
 40
0.95719000000033
100
AcDbArc
 50
113.27898899998907
 51
136.2271009999937
  0
ARC
  5
1CE
100
AcDbEntity
  8
LC-001-002-----0
  6
CONTINUOUS
 62
             1
100
AcDbCircle
 10
41.541721
 20
-26.08583900000008
 40
0.38519099999984
100
AcDbArc
 50
135.5728030000229
 51
177.98109099994576
  0
ENDBLK
  5
1D2
100
AcDbEntity
  8
0
100
AcDbBlockEnd
  0
BLOCK
  5
7A
100
AcDbEntity
  8
0
100
AcDbBlockBegin
  2
BLK69
 70
             0
 10
29.8699440028038
 20
399.90174184251902
 30
0.0
  3
BLK69
  1

  0
ARC
  5
1D6
100
AcDbEntity
  8
LC-001-002-----0
  6
CONTINUOUS
 62
             1
100
AcDbCircle
 10
42.61134899999999
 20
-27.70021399999996
 40
2.90276399999985
100
AcDbArc
 50
-89.06955200000036
 51
-78.50413399999898
  0
ARC
  5
1D5
100
AcDbEntity
  8
LC-001-002-----0
  6
CONTINUOUS
 62
             1
100
AcDbCircle
 10
42.808337
 20
-28.60919000000001
 40
1.97279799999988
100
AcDbArc
 50
-78.84917200000044
 51
-65.16570300000473
  0
ARC
  5
1D4
100
AcDbEntity
  8
LC-001-002-----0
  6
CONTINUOUS
 62
             1
100
AcDbCircle
 10
43.255782
 20
-29.54517899999996
 40
0.93552899999962
100
AcDbArc
 50
-65.9592439999923
 51
-43.3850260000247
  0
ARC
  5
1D3
100
AcDbEntity
  8
LC-001-002-----0
  6
CONTINUOUS
 62
             1
100
AcDbCircle
 10
43.65767
 20
-29.91954299999998
 40
0.38632599999978
100
AcDbArc
 50
-43.97614199996799
 51
-2.99596000000245
  0
ENDBLK
  5
1D7
100
AcDbEntity
  8
0
100
AcDbBlockEnd
  0
BLOCK
  5
7C
100
AcDbEntity
  8
0
100
AcDbBlockBegin
  2
BLK70
 70
             0
 10
29.8699440028038
 20
399.90174184251902
 30
0.0
  3
BLK70
  1

  0
ARC
  5
1DB
100
AcDbEntity
  8
LC-001-002-----0
  6
CONTINUOUS
 62
             1
100
AcDbCircle
 10
51.26668899999999
 20
-27.65088800000001
 40
2.95226000000038
100
AcDbArc
 50
-90.12205300000089
 51
-79.34087099999888
  0
ARC
  5
1DA
100
AcDbEntity
  8
LC-001-002-----0
  6
CONTINUOUS
 62
             1
100
AcDbCircle
 10
51.44866999999999
 20
-28.54844300000002
 40
2.03657299999987
100
AcDbArc
 50
-79.70164799999947
 51
-65.87670500000129
  0
ARC
  5
1D9
100
AcDbEntity
  8
LC-001-002-----0
  6
CONTINUOUS
 62
             1
100
AcDbCircle
 10
51.90273099999999
 20
-29.52789600000006
 40
0.95718600000006
100
AcDbArc
 50
-66.72093499999885
 51
-43.77275999998615
  0
ARC
  5
1D8
100
AcDbEntity
  8
LC-001-002-----0
  6
CONTINUOUS
 62
             1
100
AcDbCircle
 10
52.31882400000001
 20
-29.92044400000009
 40
0.38518899999987
100
AcDbArc
 50
-44.42704499998404
 51
-2.01867499990611
  0
ENDBLK
  5
1DC
100
AcDbEntity
  8
0
100
AcDbBlockEnd
  0
BLOCK
  5
7E
100
AcDbEntity
  8
0
100
AcDbBlockBegin
  2
BLK71
 70
             0
 10
29.8699440028038
 20
399.90174184251902
 30
0.0
  3
BLK71
  1

  0
ARC
  5
1E0
100
AcDbEntity
  8
LC-001-002-----0
  6
CONTINUOUS
 62
             1
100
AcDbCircle
 10
46.868084
 20
-36.27601200000004
 40
10.87178399999992
100
AcDbArc
 50
91.4107769999999
 51
96.7227570000001
  0
ARC
  5
1DF
100
AcDbEntity
  8
LC-001-002-----0
  6
CONTINUOUS
 62
             1
100
AcDbCircle
 10
46.305403
 20
-31.75314200000003
 40
6.31420999999951
100
AcDbArc
 50
96.45651500000008
 51
104.09815199999912
  0
ARC
  5
1DE
100
AcDbEntity
  8
LC-001-002-----0
  6
CONTINUOUS
 62
             1
100
AcDbCircle
 10
45.22856300000001
 20
-27.62926100000004
 40
2.05262700000037
100
AcDbArc
 50
102.98447799999853
 51
119.23126299999939
  0
ARC
  5
1DD
100
AcDbEntity
  8
LC-001-002-----0
  6
CONTINUOUS
 62
             1
100
AcDbCircle
 10
44.343745
 20
-26.11688700000002
 40
0.30262800000042
100
AcDbArc
 50
112.85759199996794
 51
172.61628899997197
  0
ENDBLK
  5
1E1
100
AcDbEntity
  8
0
100
AcDbBlockEnd
  0
BLOCK
  5
80
100
AcDbEntity
  8
0
100
AcDbBlockBegin
  2
BLK72
 70
             0
 10
29.8699440028038
 20
399.90174184251902
 30
0.0
  3
BLK72
  1

  0
ARC
  5
1E5
100
AcDbEntity
  8
LC-001-002-----0
  6
CONTINUOUS
 62
             1
100
AcDbCircle
 10
46.955339
 20
-19.130447
 40
11.47254200000012
100
AcDbArc
 50
-89.63836399999998
 51
-84.26291000000026
  0
ARC
  5
1E4
100
AcDbEntity
  8
LC-001-002-----0
  6
CONTINUOUS
 62
             1
100
AcDbCircle
 10
47.42977500000001
 20
-23.53557100000012
 40
7.04212699999957
100
AcDbArc
 50
-84.5208759999994
 51
-77.06860899999906
  0
ARC
  5
1E3
100
AcDbEntity
  8
LC-001-002-----0
  6
CONTINUOUS
 62
             1
100
AcDbCircle
 10
48.51925399999999
 20
-28.08543200000008
 40
2.36425199999973
100
AcDbArc
 50
-78.12677299999906
 51
-62.62092800000183
  0
ARC
  5
1E2
100
AcDbEntity
  8
LC-001-002-----0
  6
CONTINUOUS
 62
             1
100
AcDbCircle
 10
49.489227
 20
-29.87266700000009
 40
0.33348700000003
100
AcDbArc
 50
-69.40856999999298
 51
-10.60006500005342
  0
ENDBLK
  5
1E6
100
AcDbEntity
  8
0
100
AcDbBlockEnd
  0
BLOCK
  5
82
100
AcDbEntity
  8
0
100
AcDbBlockBegin
  2
BLK73
 70
             0
 10
29.8699440028038
 20
399.90174184251902
 30
0.0
  3
BLK73
  1

  0
ARC
  5
1EA
100
AcDbEntity
  8
LC-001-002-----0
  6
CONTINUOUS
 62
             1
100
AcDbCircle
 10
52.31882400000001
 20
-26.08583900000008
 40
0.38519
100
AcDbArc
 50
2.01876900001432
 51
44.42710699998594
  0
ARC
  5
1E9
100
AcDbEntity
  8
LC-001-002-----0
  6
CONTINUOUS
 62
             1
100
AcDbCircle
 10
51.90272999999999
 20
-26.478388
 40
0.95718699999987
100
AcDbArc
 50
43.77281699998871
 51
66.72096599999888
  0
ARC
  5
1E8
100
AcDbEntity
  8
LC-001-002-----0
  6
CONTINUOUS
 62
             1
100
AcDbCircle
 10
51.448669
 20
-27.45784200000003
 40
2.03657500000019
100
AcDbArc
 50
65.87673800000187
 51
79.70167200000248
  0
ARC
  5
1E7
100
AcDbEntity
  8
LC-001-002-----0
  6
CONTINUOUS
 62
             1
100
AcDbCircle
 10
51.26668899999999
 20
-28.35539600000004
 40
2.95226100000006
100
AcDbArc
 50
79.34089500000057
 51
90.12207500000051
  0
ENDBLK
  5
1EB
100
AcDbEntity
  8
0
100
AcDbBlockEnd
  0
BLOCK
  5
84
100
AcDbEntity
  8
0
100
AcDbBlockBegin
  2
BLK74
 70
             0
 10
29.8699440028038
 20
399.90174184251902
 30
0.0
  3
BLK74
  1

  0
ARC
  5
1EF
100
AcDbEntity
  8
LC-001-002-----0
  6
CONTINUOUS
 62
             1
100
AcDbCircle
 10
49.50336
 20
-26.12340000000006
 40
0.31682899999989
100
AcDbArc
 50
8.23989699991822
 51
68.86547599998286
  0
ARC
  5
1EE
100
AcDbEntity
  8
LC-001-002-----0
  6
CONTINUOUS
 62
             1
100
AcDbCircle
 10
48.554672
 20
-27.82445500000006
 40
2.26188200000019
100
AcDbArc
 50
61.97031500000142
 51
77.86899000000196
  0
ARC
  5
1ED
100
AcDbEntity
  8
LC-001-002-----0
  6
CONTINUOUS
 62
             1
100
AcDbCircle
 10
47.458945
 20
-32.29406500000005
 40
6.86321699999953
100
AcDbArc
 50
76.76711799999939
 51
84.31313699999971
  0
ARC
  5
1EC
100
AcDbEntity
  8
LC-001-002-----0
  6
CONTINUOUS
 62
             1
100
AcDbCircle
 10
46.961395
 20
-36.76172300000008
 40
11.35831100000037
100
AcDbArc
 50
84.04884400000026
 51
89.43490400000007
  0
ENDBLK
  5
1F0
100
AcDbEntity
  8
0
100
AcDbBlockEnd
  0
BLOCK
  5
86
100
AcDbEntity
  8
0
100
AcDbBlockBegin
  2
BLK75
 70
             0
 10
29.8699440028038
 20
399.90174184251902
 30
0.0
  3
BLK75
  1

  0
ARC
  5
1F4
100
AcDbEntity
  8
LC-001-002-----0
  6
CONTINUOUS
 62
             1
100
AcDbCircle
 10
43.66201599999999
 20
-26.08552099999997
 40
0.38192400000004
100
AcDbArc
 50
2.84829199996092
 51
42.84541300001349
  0
ARC
  5
1F3
100
AcDbEntity
  8
LC-001-002-----0
  6
CONTINUOUS
 62
             1
100
AcDbCircle
 10
43.27919900000001
 20
-26.43033200000002
 40
0.89711299999973
100
AcDbArc
 50
42.36569199997764
 51
64.86233100000681
  0
ARC
  5
1F2
100
AcDbEntity
  8
LC-001-002-----0
  6
CONTINUOUS
 62
             1
100
AcDbCircle
 10
42.83632499999999
 20
-27.31541100000004
 40
1.88666099999998
100
AcDbArc
 50
64.10450699999799
 51
77.76727599999684
  0
ARC
  5
1F1
100
AcDbEntity
  8
LC-001-002-----0
  6
CONTINUOUS
 62
             1
100
AcDbCircle
 10
42.61952199999999
 20
-28.23703500000011
 40
2.83334599999987
100
AcDbArc
 50
77.43151599999868
 51
87.83803499999988
  0
ENDBLK
  5
1F5
100
AcDbEntity
  8
0
100
AcDbBlockEnd
  0
BLOCK
  5
88
100
AcDbEntity
  8
0
100
AcDbBlockBegin
  2
BLK76
 70
             0
 10
29.8699440028038
 20
399.90174184251902
 30
0.0
  3
BLK76
  1

  0
ARC
  5
1F9
100
AcDbEntity
  8
LC-001-002-----0
  6
CONTINUOUS
 62
             1
100
AcDbCircle
 10
50.196403
 20
-29.92194200000006
 40
0.37957099999996
100
AcDbArc
 50
-178.17767000002098
 51
-137.0379410000464
  0
ARC
  5
1F8
100
AcDbEntity
  8
LC-001-002-----0
  6
CONTINUOUS
 62
             1
100
AcDbCircle
 10
50.58772500000001
 20
-29.56836300000009
 40
0.90694700000013
100
AcDbArc
 50
-137.53956599999375
 51
-114.67191599999373
  0
ARC
  5
1F7
100
AcDbEntity
  8
LC-001-002-----0
  6
CONTINUOUS
 62
             1
100
AcDbCircle
 10
51.03728999999999
 20
-28.65397900000005
 40
1.92570500000028
100
AcDbArc
 50
-115.47056899999733
 51
-101.6730880000013
  0
ARC
  5
1F6
100
AcDbEntity
  8
LC-001-002-----0
  6
CONTINUOUS
 62
             1
100
AcDbCircle
 10
51.24578700000001
 20
-27.73110599999995
 40
2.87172799999952
100
AcDbArc
 50
-102.02148400000326
 51
-91.46323200000042
  0
ENDBLK
  5
1FA
100
AcDbEntity
  8
0
100
AcDbBlockEnd
  0
BLOCK
  5
8A
100
AcDbEntity
  8
0
100
AcDbBlockBegin
  2
BLK77
 70
             0
 10
29.8699440028038
 20
399.90174184251902
 30
0.0
  3
BLK77
  1

  0
ARC
  5
1FE
100
AcDbEntity
  8
LC-001-002-----0
  6
CONTINUOUS
 62
             1
100
AcDbCircle
 10
44.39805
 20
-29.85430599999995
 40
0.36457400000002
100
AcDbArc
 50
-166.44764699997677
 51
-108.9028589999883
  0
ARC
  5
1FD
100
AcDbEntity
  8
LC-001-002-----0
  6
CONTINUOUS
 62
             1
100
AcDbCircle
 10
45.438914
 20
-27.81334200000003
 40
2.65247499999993
100
AcDbArc
 50
-115.90883000000183
 51
-101.00498000000177
  0
ARC
  5
1FC
100
AcDbEntity
  8
LC-001-002-----0
  6
CONTINUOUS
 62
             1
100
AcDbCircle
 10
46.52589
 20
-22.92999800000007
 40
7.65470200000038
100
AcDbArc
 50
-102.01390099999915
 51
-94.69753199999958
  0
ARC
  5
1FB
100
AcDbEntity
  8
LC-001-002-----0
  6
CONTINUOUS
 62
             1
100
AcDbCircle
 10
46.92245800000001
 20
-18.74275000000012
 40
11.86047600000037
100
AcDbArc
 50
-94.95027199999974
 51
-89.49289499999989
  0
ENDBLK
  5
1FF
100
AcDbEntity
  8
0
100
AcDbBlockEnd
  0
BLOCK
  5
8C
100
AcDbEntity
  8
0
100
AcDbBlockBegin
  2
BLK78
 70
             0
 10
29.8699440028038
 20
399.90174184251902
 30
0.0
  3
BLK78
  1

  0
ARC
  5
203
100
AcDbEntity
  8
LC-001-002-----0
  6
CONTINUOUS
 62
             1
100
AcDbCircle
 10
41.54172
 20
-29.92044400000009
 40
0.38518999999998
100
AcDbArc
 50
-177.98132199996434
 51
-135.57293499999469
  0
ARC
  5
202
100
AcDbEntity
  8
LC-001-002-----0
  6
CONTINUOUS
 62
             1
100
AcDbCircle
 10
41.957814
 20
-29.52789500000006
 40
0.95718600000006
100
AcDbArc
 50
-136.22722199999458
 51
-113.27904600000774
  0
ARC
  5
201
100
AcDbEntity
  8
LC-001-002-----0
  6
CONTINUOUS
 62
             1
100
AcDbCircle
 10
42.411875
 20
-28.54844100000003
 40
2.0365740000001
100
AcDbArc
 50
-114.12327600000029
 51
-100.29833299999854
  0
ARC
  5
200
100
AcDbEntity
  8
LC-001-002-----0
  6
CONTINUOUS
 62
             1
100
AcDbCircle
 10
42.59385499999999
 20
-27.65088700000001
 40
2.95226100000042
100
AcDbArc
 50
-100.65910999999774
 51
-89.87792499999895
  0
ENDBLK
  5
204
100
AcDbEntity
  8
0
100
AcDbBlockEnd
  0
BLOCK
  5
8E
100
AcDbEntity
  8
0
100
AcDbBlockBegin
  2
HL_62_1_7_DACHABLAUF
 70
             0
 10
29.8699440028038
 20
399.90174184251902
 30
0.0
  3
HL_62_1_7_DACHABLAUF
  1

  0
ARC
  5
31E
100
AcDbEntity
  8
LC-002-002-RND-0
  6
CONTINUOUS
 62
             7
100
AcDbCircle
 10
-104.30697499999999
 20
14.36450500000001
 40
3.92500000000014
100
AcDbArc
 50
24.10589500000362
 51
90.12740999999978
  0
ARC
  5
31D
100
AcDbEntity
  8
LC-002-002-RND-0
  6
CONTINUOUS
 62
             7
100
AcDbCircle
 10
-82.428031
 20
13.81999699999994
 40
3.92499999999979
100
AcDbArc
 50
-44.49581399999722
 51
40.08825099999822
  0
ARC
  5
31C
100
AcDbEntity
  8
LC-002-002-RND-0
  6
CONTINUOUS
 62
             7
100
AcDbCircle
 10
-83.70004299999999
 20
14.36450500000001
 40
3.9250000000003
100
AcDbArc
 50
89.87259000000063
 51
155.89410499999656
  0
ARC
  5
31B
100
AcDbEntity
  8
LC-001-002-----0
  6
CONTINUOUS
 62
             7
100
AcDbCircle
 10
-83.69121799999999
 20
12.75673800000004
 40
5.5761090000002
100
AcDbArc
 50
40.08825100000185
 51
90.09138399999991
  0
ARC
  5
31A
100
AcDbEntity
  8
LC-002-002-RND-0
  6
CONTINUOUS
 62
             7
100
AcDbCircle
 10
-72.500044
 20
-93.00212400000009
 40
8.0
100
AcDbArc
 50
180.0
 51
-90.0
  0
ARC
  5
319
100
AcDbEntity
  8
LC-002-002-RND-0
  6
CONTINUOUS
 62
             7
100
AcDbCircle
 10
72.499956
 20
-93.00212400000009
 40
8.0
100
AcDbArc
 50
-90.0
 51
0.0
  0
ARC
  5
318
100
AcDbEntity
  8
LC-002-002-RND-0
  6
CONTINUOUS
 62
             7
100
AcDbCircle
 10
101.999928
 20
-12.16370500000005
 40
0.49999999999973
100
AcDbArc
 50
110.0003590000666
 51
-179.99964099999733
  0
ARC
  5
317
100
AcDbEntity
  8
LC-002-002-RND-0
  6
CONTINUOUS
 62
             7
100
AcDbCircle
 10
-83.702223
 20
14.36450500000001
 40
3.9250000000003
100
AcDbArc
 50
89.87259000000022
 51
155.89410499999639
  0
ARC
  5
316
100
AcDbEntity
  8
LC-001-002-----0
  6
CONTINUOUS
 62
             7
100
AcDbCircle
 10
-83.693399
 20
12.75673800000004
 40
5.5761090000002
100
AcDbArc
 50
40.08825100000185
 51
90.09138399999991
  0
ARC
  5
315
100
AcDbEntity
  8
LC-002-002-RND-0
  6
CONTINUOUS
 62
             7
100
AcDbCircle
 10
-82.43021200000001
 20
13.81999699999994
 40
3.92499999999981
100
AcDbArc
 50
-44.49581399999693
 51
40.08825099999902
  0
ARC
  5
314
100
AcDbEntity
  8
LC-002-002-RND-0
  6
CONTINUOUS
 62
             7
100
AcDbCircle
 10
-105.58116699999999
 20
13.81999699999994
 40
3.9249999999999
100
AcDbArc
 50
139.91174900000087
 51
-135.50418600000293
  0
ARC
  5
313
100
AcDbEntity
  8
LC-001-002-----0
  6
CONTINUOUS
 62
             7
100
AcDbCircle
 10
100.00000799999999
 20
-23.756891
 40
1.50000000000045
100
AcDbArc
 50
-89.99964100000045
 51
0.00035899999805
  0
ARC
  5
312
100
AcDbEntity
  8
LC-001-002-----0
  6
CONTINUOUS
 62
             7
100
AcDbCircle
 10
-100.000005
 20
-23.75751800000012
 40
1.5
100
AcDbArc
 50
180.0
 51
-90.0
  0
ARC
  5
311
100
AcDbEntity
  8
LC-001-002-----0
  6
CONTINUOUS
 62
             7
100
AcDbCircle
 10
-86.999989
 20
-25.75751800000012
 40
0.5
100
AcDbArc
 50
0.0
 51
90.0
  0
ARC
  5
310
100
AcDbEntity
  8
LC-001-002-----0
  6
CONTINUOUS
 62
             7
100
AcDbCircle
 10
-84.999989
 20
-27.23710400000005
 40
1.5
100
AcDbArc
 50
180.0
 51
-89.99987500000154
  0
ARC
  5
30F
100
AcDbEntity
  8
LC-001-002-----0
  6
CONTINUOUS
 62
             7
100
AcDbCircle
 10
87.00000399999999
 20
-25.75697300000002
 40
0.49999999999981
100
AcDbArc
 50
90.00035899999901
 51
-179.99964099999855
  0
ARC
  5
30E
100
AcDbEntity
  8
LC-001-002-----0
  6
CONTINUOUS
 62
             7
100
AcDbCircle
 10
85.00000599999999
 20
-27.23657200000002
 40
1.49999999999955
100
AcDbArc
 50
-89.99976599999839
 51
0.00035899999765
  0
ARC
  5
30D
100
AcDbEntity
  8
LC-002-002-RND-0
  6
CONTINUOUS
 62
             7
100
AcDbCircle
 10
-102.000005
 20
-12.16434400000003
 40
0.5
100
AcDbArc
 50
0.0
 51
70.00000000000486
  0
ARC
  5
30C
100
AcDbEntity
  8
LC-002-002-RND-0
  6
CONTINUOUS
 62
             7
100
AcDbCircle
 10
-104.309156
 20
14.36450500000001
 40
3.92500000000015
100
AcDbArc
 50
24.10589500000354
 51
90.12740999999959
  0
ARC
  5
30B
100
AcDbEntity
  8
LC-002-002-RND-0
  6
CONTINUOUS
 62
             7
100
AcDbCircle
 10
105.581166
 20
13.81999699999994
 40
3.92499999999987
100
AcDbArc
 50
-44.49581399999605
 51
40.08825100000289
  0
ARC
  5
30A
100
AcDbEntity
  8
LC-001-002-----0
  6
CONTINUOUS
 62
             7
100
AcDbCircle
 10
104.31797899999999
 20
12.75673800000004
 40
5.57610900000005
100
AcDbArc
 50
40.08825100000306
 51
90.09138399999975
  0
ARC
  5
309
100
AcDbEntity
  8
LC-002-002-RND-0
  6
CONTINUOUS
 62
             7
100
AcDbCircle
 10
83.70222200000001
 20
14.36450500000001
 40
3.92500000000042
100
AcDbArc
 50
24.10589500000176
 51
90.12740999999978
  0
ARC
  5
308
100
AcDbEntity
  8
LC-001-002-----0
  6
CONTINUOUS
 62
             7
100
AcDbCircle
 10
83.693398
 20
12.75673800000004
 40
5.57610900000012
100
AcDbArc
 50
89.90861600000011
 51
139.91174899999817
  0
ARC
  5
307
100
AcDbEntity
  8
LC-002-002-RND-0
  6
CONTINUOUS
 62
             7
100
AcDbCircle
 10
82.43021099999999
 20
13.81999699999994
 40
3.92499999999995
100
AcDbArc
 50
139.91174900000152
 51
-135.50418600000279
  0
ARC
  5
306
100
AcDbEntity
  8
LC-002-002-RND-0
  6
CONTINUOUS
 62
             7
100
AcDbCircle
 10
104.31175
 20
14.36267699999996
 40
3.92499999999947
100
AcDbArc
 50
89.86242599999731
 51
155.88394099999422
  0
ARC
  5
305
100
AcDbEntity
  8
LC-001-002-----0
  6
CONTINUOUS
 62
             7
100
AcDbCircle
 10
-104.315713
 20
12.75673800000004
 40
5.57610900000012
100
AcDbArc
 50
89.90861600000025
 51
139.91174899999817
  0
ARC
  5
304
100
AcDbEntity
  8
LC-001-002-----0
  6
CONTINUOUS
 62
             7
100
AcDbCircle
 10
174.99999800000001
 20
0.99935299999993
 40
2.0
100
AcDbArc
 50
0.0
 51
90.0
  0
ARC
  5
303
100
AcDbEntity
  8
LC-001-002-----0
  6
CONTINUOUS
 62
             7
100
AcDbCircle
 10
-174.99999299999999
 20
0.99864899999989
 40
1.99999999999982
100
AcDbArc
 50
90.00021199999952
 51
-179.9997520000037
  0
ARC
  5
302
100
AcDbEntity
  8
LC-002-002-RND-0
  6
CONTINUOUS
 62
             7
100
AcDbCircle
 10
-114.24929400000001
 20
-178.50456700000009
 40
46.5
100
AcDbArc
 50
-90.0
 51
0.0
  0
ARC
  5
301
100
AcDbEntity
  8
LC-002-002-RND-0
  6
CONTINUOUS
 62
             7
100
AcDbCircle
 10
-114.24929400000001
 20
-178.50456700000009
 40
40.0
100
AcDbArc
 50
-90.0
 51
0.0
  0
ARC
  5
300
100
AcDbEntity
  8
LC-002-002-RND-0
  6
CONTINUOUS
 62
             7
100
AcDbCircle
 10
-36.62685000000001
 20
14.21858599999996
 40
3.9250000000003
100
AcDbArc
 50
89.8725900000001
 51
155.89410499999633
  0
ARC
  5
2FF
100
AcDbEntity
  8
LC-001-002-----0
  6
CONTINUOUS
 62
             7
100
AcDbCircle
 10
-36.618026
 20
12.61081799999988
 40
5.57610900000027
100
AcDbArc
 50
40.08825100000266
 51
90.09138399999983
  0
ARC
  5
2FE
100
AcDbEntity
  8
LC-002-002-RND-0
  6
CONTINUOUS
 62
             7
100
AcDbCircle
 10
-36.629031
 20
14.21858599999996
 40
3.9250000000003
100
AcDbArc
 50
89.87259000000053
 51
155.89410499999644
  0
ARC
  5
2FD
100
AcDbEntity
  8
LC-001-002-----0
  6
CONTINUOUS
 62
             7
100
AcDbCircle
 10
-36.620206
 20
12.61081799999988
 40
5.57610900000027
100
AcDbArc
 50
40.08825100000271
 51
90.09138399999991
  0
ARC
  5
2FC
100
AcDbEntity
  8
LC-002-002-RND-0
  6
CONTINUOUS
 62
             7
100
AcDbCircle
 10
-35.357019
 20
13.6740769999999
 40
3.9249999999998
100
AcDbArc
 50
-44.49581399999717
 51
40.08825100000047
  0
ARC
  5
2FB
100
AcDbEntity
  8
LC-002-002-RND-0
  6
CONTINUOUS
 62
             7
100
AcDbCircle
 10
-58.507975
 20
13.6740769999999
 40
3.92500000000004
100
AcDbArc
 50
139.91174900000047
 51
-135.50418600000276
  0
ARC
  5
2FA
100
AcDbEntity
  8
LC-002-002-RND-0
  6
CONTINUOUS
 62
             7
100
AcDbCircle
 10
-57.23596300000001
 20
14.21858599999996
 40
3.92500000000015
100
AcDbArc
 50
24.10589500000358
 51
90.12740999999969
  0
ARC
  5
2F9
100
AcDbEntity
  8
LC-001-002-----0
  6
CONTINUOUS
 62
             7
100
AcDbCircle
 10
-57.242521
 20
12.61081799999988
 40
5.57610900000024
100
AcDbArc
 50
89.90861600000018
 51
139.91174899999734
  0
ARC
  5
2F8
100
AcDbEntity
  8
LC-002-002-RND-0
  6
CONTINUOUS
 62
             7
100
AcDbCircle
 10
36.62684899999999
 20
14.21858599999996
 40
3.92500000000015
100
AcDbArc
 50
24.10589500000354
 51
90.12740999999959
  0
ARC
  5
2F7
100
AcDbEntity
  8
LC-001-002-----0
  6
CONTINUOUS
 62
             7
100
AcDbCircle
 10
36.61802499999999
 20
12.61081799999988
 40
5.57610900000024
100
AcDbArc
 50
89.90861600000011
 51
139.91174899999729
  0
ARC
  5
2F6
100
AcDbEntity
  8
LC-002-002-RND-0
  6
CONTINUOUS
 62
             7
100
AcDbCircle
 10
36.62903
 20
14.21858599999996
 40
3.92500000000014
100
AcDbArc
 50
24.10589500000362
 51
90.12740999999988
  0
ARC
  5
2F5
100
AcDbEntity
  8
LC-001-002-----0
  6
CONTINUOUS
 62
             7
100
AcDbCircle
 10
36.620205
 20
12.61081799999988
 40
5.57610900000024
100
AcDbArc
 50
89.90861600000032
 51
139.91174899999729
  0
ARC
  5
2F4
100
AcDbEntity
  8
LC-002-002-RND-0
  6
CONTINUOUS
 62
             7
100
AcDbCircle
 10
35.357018
 20
13.6740769999999
 40
3.92500000000004
100
AcDbArc
 50
139.91174900000047
 51
-135.50418600000282
  0
ARC
  5
2F3
100
AcDbEntity
  8
LC-002-002-RND-0
  6
CONTINUOUS
 62
             7
100
AcDbCircle
 10
58.50797399999999
 20
13.6740769999999
 40
3.92499999999981
100
AcDbArc
 50
-44.49581399999703
 51
40.08825099999947
  0
ARC
  5
2F2
100
AcDbEntity
  8
LC-002-002-RND-0
  6
CONTINUOUS
 62
             7
100
AcDbCircle
 10
57.235962
 20
14.21858599999996
 40
3.9250000000003
100
AcDbArc
 50
89.87259000000022
 51
155.89410499999639
  0
ARC
  5
2F1
100
AcDbEntity
  8
LC-001-002-----0
  6
CONTINUOUS
 62
             7
100
AcDbCircle
 10
57.24251999999999
 20
12.61081799999988
 40
5.57610900000029
100
AcDbArc
 50
40.08825100000252
 51
90.09138399999968
  0
LINE
  5
2F0
100
AcDbEntity
  8
LC-001-002-----0
  6
CONTINUOUS
 62
             7
100
AcDbLine
 10
-89.00350900000001
 20
10.28949599999999
 11
-99.00350900000001
 21
10.28949599999999
  0
LINE
  5
2EF
100
AcDbEntity
  8
LC-001-002-----0
  6
CONTINUOUS
 62
             7
100
AcDbLine
 10
-100.69140899999999
 20
15.97732199999996
 11
-99.00350900000001
 21
10.28949599999999
  0
LINE
  5
2EE
100
AcDbEntity
  8
LC-001-002-----0
  6
CONTINUOUS
 62
             7
100
AcDbLine
 10
-88.19345100000001
 20
2.99896999999999
 11
-89.00350900000001
 21
10.28949599999999
  0
LINE
  5
2ED
100
AcDbEntity
  8
LC-001-002-----0
  6
CONTINUOUS
 62
             7
100
AcDbLine
 10
-99.00350900000001
 20
10.28949599999999
 11
-99.81357199999999
 21
2.99892699999998
  0
LINE
  5
2EC
100
AcDbEntity
  8
LC-001-002-----0
  6
CONTINUOUS
 62
             7
100
AcDbLine
 10
-87.315609
 20
15.97732199999996
 11
-89.00350900000001
 21
10.28949599999999
  0
LINE
  5
2EB
100
AcDbEntity
  8
LC-001-002-----0
  6
CONTINUOUS
 62
             7
100
AcDbLine
 10
-79.44862499999999
 20
11.2648529999999
 11
-86.53745599999999
 21
2.99897599999997
  0
LINE
  5
2EA
100
AcDbEntity
  8
LC-001-002-----0
  6
CONTINUOUS
 62
             7
100
AcDbLine
 10
-108.558393
 20
11.2648529999999
 11
-101.469515
 21
2.99892
  0
LINE
  5
2E9
100
AcDbEntity
  8
LC-001-002-----0
  6
CONTINUOUS
 62
             7
100
AcDbLine
 10
96.75351900000001
 20
-25.25691200000006
 11
90.50000900000001
 21
-25.25695100000007
  0
LINE
  5
2E8
100
AcDbEntity
  8
LC-001-002-----0
  6
CONTINUOUS
 62
             7
100
AcDbLine
 10
84.306727
 20
2.99935299999993
 11
82.66054700000001
 21
7.52215699999999
  0
LINE
  5
2E7
100
AcDbEntity
  8
LC-001-002-----0
  6
CONTINUOUS
 62
             7
100
AcDbLine
 10
-84.306793
 20
2.99898399999995
 11
-82.660451
 21
7.52226999999994
  0
LINE
  5
2E6
100
AcDbEntity
  8
LC-001-002-----0
  6
CONTINUOUS
 62
             7
100
AcDbLine
 10
-80.500044
 20
-91.00212400000009
 11
-77.500044
 21
-91.00212400000009
  0
LINE
  5
2E5
100
AcDbEntity
  8
LC-001-002-----0
  6
CONTINUOUS
 62
             7
100
AcDbLine
 10
-80.500044
 20
-93.00212400000009
 11
-80.500044
 21
-91.00212400000009
  0
LINE
  5
2E4
100
AcDbEntity
  8
LC-001-002-----0
  6
CONTINUOUS
 62
             7
100
AcDbLine
 10
80.499956
 20
-93.00212400000009
 11
80.499956
 21
-91.00212400000009
  0
LINE
  5
2E3
100
AcDbEntity
  8
LC-001-002-----0
  6
CONTINUOUS
 62
             7
100
AcDbLine
 10
80.499956
 20
-91.00212400000009
 11
77.499956
 21
-91.00212400000009
  0
LINE
  5
2E2
100
AcDbEntity
  8
LC-001-002-----0
  6
CONTINUOUS
 62
             7
100
AcDbLine
 10
-100.000005
 20
-25.25751800000012
 11
-98.33942400000001
 21
-25.25751800000012
  0
LINE
  5
2E1
100
AcDbEntity
  8
LC-001-002-----0
  6
CONTINUOUS
 62
             7
100
AcDbLine
 10
-72.500044
 20
-101.00212400000009
 11
-67.49263600000001
 21
-101.00212400000009
  0
LINE
  5
2E0
100
AcDbEntity
  8
LC-001-002-----0
  6
CONTINUOUS
 62
             7
100
AcDbLine
 10
-67.49263600000001
 20
-101.00212400000009
 11
-67.49263600000001
 21
-103.50212400000009
  0
LINE
  5
2DF
100
AcDbEntity
  8
LC-001-002-----0
  6
CONTINUOUS
 62
             7
100
AcDbLine
 10
-67.49263600000001
 20
-103.50212400000009
 11
-57.49134700000001
 21
-103.50212400000009
  0
LINE
  5
2DE
100
AcDbEntity
  8
LC-001-002-----0
  6
CONTINUOUS
 62
             7
100
AcDbLine
 10
57.49126000000001
 20
-103.50212400000009
 11
67.492548
 21
-103.50212400000009
  0
LINE
  5
2DD
100
AcDbEntity
  8
LC-001-002-----0
  6
CONTINUOUS
 62
             7
100
AcDbLine
 10
67.492548
 20
-103.50212400000009
 11
67.492548
 21
-101.00212400000009
  0
LINE
  5
2DC
100
AcDbEntity
  8
LC-001-002-----0
  6
CONTINUOUS
 62
             7
100
AcDbLine
 10
67.492548
 20
-101.00212400000009
 11
72.499956
 21
-101.00212400000009
  0
LINE
  5
2DB
100
AcDbEntity
  8
LC-001-002-----0
  6
CONTINUOUS
 62
             7
100
AcDbLine
 10
124.999932
 20
-3.26013499999999
 11
101.82891499999999
 21
-11.69386000000009
  0
LINE
  5
2DA
100
AcDbEntity
  8
LC-001-002-----0
  6
CONTINUOUS
 62
             7
100
AcDbLine
 10
-89.667509
 20
-25.25751800000012
 11
-86.999989
 21
-25.25751800000012
  0
LINE
  5
2D9
100
AcDbEntity
  8
LC-001-002-----0
  6
CONTINUOUS
 62
             7
100
AcDbLine
 10
-99.00569000000002
 20
10.28949599999999
 11
-89.00569000000002
 21
10.28949599999999
  0
LINE
  5
2D8
100
AcDbEntity
  8
LC-001-002-----0
  6
CONTINUOUS
 62
             7
100
AcDbLine
 10
124.999932
 20
-3.26013499999999
 11
124.657906
 21
-2.32044500000006
  0
LINE
  5
2D7
100
AcDbEntity
  8
LC-001-002-----0
  6
CONTINUOUS
 62
             7
100
AcDbLine
 10
-87.31779
 20
15.97732199999996
 11
-89.00569000000002
 21
10.28949599999999
  0
LINE
  5
2D6
100
AcDbEntity
  8
LC-001-002-----0
  6
CONTINUOUS
 62
             7
100
AcDbLine
 10
-125.00006500000001
 20
-3.26091800000006
 11
-124.658044
 21
-2.32122600000002
  0
LINE
  5
2D5
100
AcDbEntity
  8
LC-001-002-----0
  6
CONTINUOUS
 62
             7
100
AcDbLine
 10
-99.815753
 20
2.99892699999998
 11
-99.00569000000002
 21
10.28949599999999
  0
LINE
  5
2D4
100
AcDbEntity
  8
LC-001-002-----0
  6
CONTINUOUS
 62
             7
100
AcDbLine
 10
-89.00569000000002
 20
10.28949599999999
 11
-88.19563099999999
 21
2.99896999999999
  0
LINE
  5
2D3
100
AcDbEntity
  8
LC-001-002-----0
  6
CONTINUOUS
 62
             7
100
AcDbLine
 10
101.499928
 20
-12.16370800000004
 11
101.50000799999999
 21
-23.75688200000002
  0
LINE
  5
2D2
100
AcDbEntity
  8
LC-001-002-----0
  6
CONTINUOUS
 62
             7
100
AcDbLine
 10
-100.693589
 20
15.97732199999996
 11
-99.00569000000002
 21
10.28949599999999
  0
LINE
  5
2D1
100
AcDbEntity
  8
LC-001-002-----0
  6
CONTINUOUS
 62
             7
100
AcDbLine
 10
100.000017
 20
-25.256891
 11
97.50000900000001
 21
-25.25690699999996
  0
LINE
  5
2D0
100
AcDbEntity
  8
LC-001-002-----0
  6
CONTINUOUS
 62
             7
100
AcDbLine
 10
-108.560574
 20
11.2648529999999
 11
-101.471695
 21
2.99892
  0
LINE
  5
2CF
100
AcDbEntity
  8
LC-001-002-----0
  6
CONTINUOUS
 62
             7
100
AcDbLine
 10
-79.450806
 20
11.2648529999999
 11
-86.539637
 21
2.99897599999997
  0
LINE
  5
2CE
100
AcDbEntity
  8
LC-001-002-----0
  6
CONTINUOUS
 62
             7
100
AcDbLine
 10
-125.00006500000001
 20
-3.26091800000006
 11
-101.82899500000001
 21
-11.69449800000007
  0
LINE
  5
2CD
100
AcDbEntity
  8
LC-001-002-----0
  6
CONTINUOUS
 62
             7
100
AcDbLine
 10
97.50000900000001
 20
-25.25690699999996
 11
96.75351900000001
 21
-25.25691200000006
  0
LINE
  5
2CC
100
AcDbEntity
  8
LC-001-002-----0
  6
CONTINUOUS
 62
             7
100
AcDbLine
 10
-101.500005
 20
-12.16434400000003
 11
-101.500005
 21
-23.75751800000012
  0
LINE
  5
2CB
100
AcDbEntity
  8
LC-001-002-----0
  6
CONTINUOUS
 62
             7
100
AcDbLine
 10
90.50000900000001
 20
-25.25695100000007
 11
87.000001
 21
-25.25697300000002
  0
LINE
  5
2CA
100
AcDbEntity
  8
LC-001-002-----0
  6
CONTINUOUS
 62
             7
100
AcDbLine
 10
-86.499989
 20
-25.75751800000012
 11
-86.499989
 21
-27.23710400000005
  0
LINE
  5
2C9
100
AcDbEntity
  8
LC-001-002-----0
  6
CONTINUOUS
 62
             7
100
AcDbLine
 10
-84.99998600000001
 20
-28.73710400000005
 11
-81.49998500000001
 21
-28.73709699999995
  0
LINE
  5
2C8
100
AcDbEntity
  8
LC-001-002-----0
  6
CONTINUOUS
 62
             7
100
AcDbLine
 10
86.50000399999999
 20
-25.75697600000001
 11
86.50000599999999
 21
-27.23656200000005
  0
LINE
  5
2C7
100
AcDbEntity
  8
LC-001-002-----0
  6
CONTINUOUS
 62
             7
100
AcDbLine
 10
85.000013
 20
-28.73657200000002
 11
81.500632
 21
-28.73658799999998
  0
LINE
  5
2C6
100
AcDbEntity
  8
LC-001-002-----0
  6
CONTINUOUS
 62
             7
100
AcDbLine
 10
99.81570500000001
 20
2.99935299999993
 11
99.00568899999999
 21
10.28949599999999
  0
LINE
  5
2C5
100
AcDbEntity
  8
LC-001-002-----0
  6
CONTINUOUS
 62
             7
100
AcDbLine
 10
108.56057300000001
 20
11.2648529999999
 11
101.472065
 21
2.99935299999993
  0
LINE
  5
2C4
100
AcDbEntity
  8
LC-001-002-----0
  6
CONTINUOUS
 62
             7
100
AcDbLine
 10
100.69358800000001
 20
15.97732199999996
 11
99.00568899999999
 21
10.28949599999999
  0
LINE
  5
2C3
100
AcDbEntity
  8
LC-001-002-----0
  6
CONTINUOUS
 62
             7
100
AcDbLine
 10
99.00568899999999
 20
10.28949599999999
 11
89.00568899999999
 21
10.28949599999999
  0
LINE
  5
2C2
100
AcDbEntity
  8
LC-001-002-----0
  6
CONTINUOUS
 62
             7
100
AcDbLine
 10
87.31778900000001
 20
15.97732199999996
 11
89.00568899999999
 21
10.28949599999999
  0
LINE
  5
2C1
100
AcDbEntity
  8
LC-001-002-----0
  6
CONTINUOUS
 62
             7
100
AcDbLine
 10
79.450805
 20
11.2648529999999
 11
86.539312
 21
2.99935299999993
  0
LINE
  5
2C0
100
AcDbEntity
  8
LC-001-002-----0
  6
CONTINUOUS
 62
             7
100
AcDbLine
 10
89.00568899999999
 20
10.28949599999999
 11
88.195673
 21
2.99935299999993
  0
LINE
  5
2BF
100
AcDbEntity
  8
LC-001-002-----0
  6
CONTINUOUS
 62
             7
100
AcDbLine
 10
-98.33359400000001
 20
-30.457222
 11
-89.673339
 21
-30.457222
  0
LINE
  5
2BE
100
AcDbEntity
  8
LC-001-002-----0
  6
CONTINUOUS
 62
             7
100
AcDbLine
 10
-98.33359400000001
 20
-25.25722199999996
 11
-89.67334
 21
-25.25722199999996
  0
LINE
  5
2BD
100
AcDbEntity
  8
LC-001-002-----0
  6
CONTINUOUS
 62
             7
100
AcDbLine
 10
-99.77696800000001
 20
-25.92634999999996
 11
-99.77696800000001
 21
-29.78809300000012
  0
LINE
  5
2BC
100
AcDbEntity
  8
LC-001-002-----0
  6
CONTINUOUS
 62
             7
100
AcDbLine
 10
-88.229963
 20
-25.92634999999996
 11
-88.229963
 21
-29.78809300000012
  0
LINE
  5
2BB
100
AcDbEntity
  8
LC-001-002-----0
  6
CONTINUOUS
 62
             7
100
AcDbLine
 10
-96.89021700000001
 20
-29.78814499999999
 11
-96.89021700000001
 21
-25.92062200000009
  0
LINE
  5
2BA
100
AcDbEntity
  8
LC-001-002-----0
  6
CONTINUOUS
 62
             7
100
AcDbLine
 10
-91.116714
 20
-29.788094
 11
-91.116714
 21
-25.926377
  0
LINE
  5
2B9
100
AcDbEntity
  8
LC-001-002-----0
  6
CONTINUOUS
 62
             7
100
AcDbLine
 10
-97.003466
 20
-33.7572090000001
 11
-97.003466
 21
-30.457222
  0
LINE
  5
2B8
100
AcDbEntity
  8
LC-001-002-----0
  6
CONTINUOUS
 62
             7
100
AcDbLine
 10
-91.503466
 20
-34.2572090000001
 11
-96.503466
 21
-34.2572090000001
  0
LINE
  5
2B7
100
AcDbEntity
  8
LC-001-002-----0
  6
CONTINUOUS
 62
             7
100
AcDbLine
 10
-91.003466
 20
-33.7572090000001
 11
-91.003466
 21
-30.457222
  0
LINE
  5
2B6
100
AcDbEntity
  8
LC-001-002-----0
  6
CONTINUOUS
 62
             7
100
AcDbLine
 10
-96.503466
 20
15.7427909999999
 11
-91.503466
 21
15.7427909999999
  0
LINE
  5
2B5
100
AcDbEntity
  8
LC-001-002-----0
  6
CONTINUOUS
 62
             7
100
AcDbLine
 10
-96.503466
 20
15.7427909999999
 11
-97.003466
 21
15.2427909999999
  0
LINE
  5
2B4
100
AcDbEntity
  8
LC-001-002-----0
  6
CONTINUOUS
 62
             7
100
AcDbLine
 10
-91.503466
 20
15.7427909999999
 11
-91.003466
 21
15.2427909999999
  0
LINE
  5
2B3
100
AcDbEntity
  8
LC-001-002-----0
  6
CONTINUOUS
 62
             7
100
AcDbLine
 10
-97.003466
 20
15.2427909999999
 11
-91.003466
 21
15.2427909999999
  0
LINE
  5
2B2
100
AcDbEntity
  8
LC-001-002-----0
  6
CONTINUOUS
 62
             7
100
AcDbLine
 10
-91.503466
 20
-34.2572090000001
 11
-91.003466
 21
-33.7572090000001
  0
LINE
  5
2B1
100
AcDbEntity
  8
LC-001-002-----0
  6
CONTINUOUS
 62
             7
100
AcDbLine
 10
-96.503466
 20
-34.2572090000001
 11
-97.003466
 21
-33.7572090000001
  0
LINE
  5
2B0
100
AcDbEntity
  8
LC-001-002-----0
  6
CONTINUOUS
 62
             7
100
AcDbLine
 10
-91.003466
 20
-33.7572090000001
 11
-97.003466
 21
-33.7572090000001
  0
LINE
  5
2AF
100
AcDbEntity
  8
LC-004-003-----0
  6
CONTINUOUS
 62
             2
100
AcDbLine
 10
-96.503466
 20
-34.2572090000001
 11
-96.503466
 21
-30.457222
  0
LINE
  5
2AE
100
AcDbEntity
  8
LC-004-003-----0
  6
CONTINUOUS
 62
             2
100
AcDbLine
 10
-91.503466
 20
-34.2572090000001
 11
-91.503466
 21
-30.457222
  0
LINE
  5
2AD
100
AcDbEntity
  8
LC-010-006-MLN-0
  6
DASHDOT
 62
             2
100
AcDbLine
 10
-94.003466
 20
25.7427909999999
 11
-94.003466
 21
-44.2572090000001
  0
LINE
  5
2AC
100
AcDbEntity
  8
LC-001-002-----0
  6
CONTINUOUS
 62
             7
100
AcDbLine
 10
-97.003466
 20
10.28949599999999
 11
-97.003466
 21
15.2427909999999
  0
LINE
  5
2AB
100
AcDbEntity
  8
LC-001-002-----0
  6
CONTINUOUS
 62
             7
100
AcDbLine
 10
-91.003466
 20
10.28949599999999
 11
-91.003466
 21
15.2427909999999
  0
LINE
  5
2AA
100
AcDbEntity
  8
LC-004-003-----0
  6
CONTINUOUS
 62
             2
100
AcDbLine
 10
-91.503466
 20
10.28949599999999
 11
-91.503466
 21
15.7427909999999
  0
LINE
  5
2A9
100
AcDbEntity
  8
LC-004-003-----0
  6
CONTINUOUS
 62
             2
100
AcDbLine
 10
-96.503466
 20
10.28949599999999
 11
-96.503466
 21
15.7427909999999
  0
LINE
  5
2A8
100
AcDbEntity
  8
LC-001-002-----0
  6
CONTINUOUS
 62
             7
100
AcDbLine
 10
97.00346500000001
 20
-33.7572090000001
 11
97.00346500000001
 21
-30.457222
  0
LINE
  5
2A7
100
AcDbEntity
  8
LC-001-002-----0
  6
CONTINUOUS
 62
             7
100
AcDbLine
 10
97.00346500000001
 20
-25.25722199999996
 11
97.00346500000001
 21
-25.25691000000006
  0
LINE
  5
2A6
100
AcDbEntity
  8
LC-001-002-----0
  6
CONTINUOUS
 62
             7
100
AcDbLine
 10
91.50346500000001
 20
-34.2572090000001
 11
96.50346500000001
 21
-34.2572090000001
  0
LINE
  5
2A5
100
AcDbEntity
  8
LC-001-002-----0
  6
CONTINUOUS
 62
             7
100
AcDbLine
 10
91.00346500000001
 20
-33.7572090000001
 11
91.00346500000001
 21
-30.457222
  0
LINE
  5
2A4
100
AcDbEntity
  8
LC-001-002-----0
  6
CONTINUOUS
 62
             7
100
AcDbLine
 10
91.00346500000001
 20
-25.25722199999996
 11
91.00346500000001
 21
-25.25694799999997
  0
LINE
  5
2A3
100
AcDbEntity
  8
LC-001-002-----0
  6
CONTINUOUS
 62
             7
100
AcDbLine
 10
96.50346500000001
 20
15.7427909999999
 11
91.50346500000001
 21
15.7427909999999
  0
LINE
  5
2A2
100
AcDbEntity
  8
LC-001-002-----0
  6
CONTINUOUS
 62
             7
100
AcDbLine
 10
96.50346500000001
 20
15.7427909999999
 11
97.00346500000001
 21
15.2427909999999
  0
LINE
  5
2A1
100
AcDbEntity
  8
LC-001-002-----0
  6
CONTINUOUS
 62
             7
100
AcDbLine
 10
91.50346500000001
 20
15.7427909999999
 11
91.00346500000001
 21
15.2427909999999
  0
LINE
  5
2A0
100
AcDbEntity
  8
LC-001-002-----0
  6
CONTINUOUS
 62
             7
100
AcDbLine
 10
97.00346500000001
 20
15.2427909999999
 11
91.00346500000001
 21
15.2427909999999
  0
LINE
  5
29F
100
AcDbEntity
  8
LC-001-002-----0
  6
CONTINUOUS
 62
             7
100
AcDbLine
 10
91.50346500000001
 20
-34.2572090000001
 11
91.00346500000001
 21
-33.7572090000001
  0
LINE
  5
29E
100
AcDbEntity
  8
LC-001-002-----0
  6
CONTINUOUS
 62
             7
100
AcDbLine
 10
96.50346500000001
 20
-34.2572090000001
 11
97.00346500000001
 21
-33.7572090000001
  0
LINE
  5
29D
100
AcDbEntity
  8
LC-001-002-----0
  6
CONTINUOUS
 62
             7
100
AcDbLine
 10
91.00346500000001
 20
-33.7572090000001
 11
97.00346500000001
 21
-33.7572090000001
  0
LINE
  5
29C
100
AcDbEntity
  8
LC-004-003-----0
  6
CONTINUOUS
 62
             2
100
AcDbLine
 10
96.50346500000001
 20
-34.2572090000001
 11
96.50346500000001
 21
-30.457222
  0
LINE
  5
29B
100
AcDbEntity
  8
LC-004-003-----0
  6
CONTINUOUS
 62
             2
100
AcDbLine
 10
91.50346500000001
 20
-34.2572090000001
 11
91.50346500000001
 21
-30.457222
  0
LINE
  5
29A
100
AcDbEntity
  8
LC-004-003-----0
  6
CONTINUOUS
 62
             2
100
AcDbLine
 10
91.50346500000001
 20
-25.25722199999996
 11
91.50346500000001
 21
-25.25694500000009
  0
LINE
  5
299
100
AcDbEntity
  8
LC-010-006-MLN-0
  6
DASHDOT
 62
             2
100
AcDbLine
 10
94.00346500000001
 20
25.7427909999999
 11
94.00346500000001
 21
-44.2572090000001
  0
LINE
  5
298
100
AcDbEntity
  8
LC-001-002-----0
  6
CONTINUOUS
 62
             7
100
AcDbLine
 10
98.33359300000001
 20
-30.457222
 11
89.673338
 21
-30.457222
  0
LINE
  5
297
100
AcDbEntity
  8
LC-001-002-----0
  6
CONTINUOUS
 62
             7
100
AcDbLine
 10
98.33359300000001
 20
-25.25722199999996
 11
89.673339
 21
-25.25722199999996
  0
LINE
  5
296
100
AcDbEntity
  8
LC-001-002-----0
  6
CONTINUOUS
 62
             7
100
AcDbLine
 10
99.77696699999999
 20
-25.92634999999996
 11
99.77696699999999
 21
-29.78809300000012
  0
LINE
  5
295
100
AcDbEntity
  8
LC-001-002-----0
  6
CONTINUOUS
 62
             7
100
AcDbLine
 10
88.229962
 20
-25.92634999999996
 11
88.229962
 21
-29.78809300000012
  0
LINE
  5
294
100
AcDbEntity
  8
LC-001-002-----0
  6
CONTINUOUS
 62
             7
100
AcDbLine
 10
96.89021600000001
 20
-29.78814499999999
 11
96.89021600000001
 21
-25.92062200000009
  0
LINE
  5
293
100
AcDbEntity
  8
LC-001-002-----0
  6
CONTINUOUS
 62
             7
100
AcDbLine
 10
91.116713
 20
-29.788094
 11
91.116713
 21
-25.926377
  0
LINE
  5
292
100
AcDbEntity
  8
LC-001-002-----0
  6
CONTINUOUS
 62
             7
100
AcDbLine
 10
-62.5
 20
-103.50212400000009
 11
-62.5
 21
-153.50212400000009
  0
LINE
  5
291
100
AcDbEntity
  8
LC-001-002-----0
  6
CONTINUOUS
 62
             7
100
AcDbLine
 10
-80.0
 20
-91.00212400000009
 11
77.499956
 21
-91.00212400000009
  0
LINE
  5
290
100
AcDbEntity
  8
LC-001-002-----0
  6
CONTINUOUS
 62
             7
100
AcDbLine
 10
-61.562178
 20
-157.00212400000009
 11
0.0
 21
-157.00212400000009
  0
LINE
  5
28F
100
AcDbEntity
  8
LC-001-002-----0
  6
CONTINUOUS
 62
             7
100
AcDbLine
 10
0.0
 20
-157.00212400000009
 11
61.56217699999999
 21
-157.00212400000009
  0
LINE
  5
28E
100
AcDbEntity
  8
LC-001-002-----0
  6
CONTINUOUS
 62
             7
100
AcDbLine
 10
62.5
 20
-103.50212400000009
 11
62.5
 21
-153.50212400000009
  0
LINE
  5
28D
100
AcDbEntity
  8
LC-001-002-----0
  6
CONTINUOUS
 62
             7
100
AcDbLine
 10
-176.99999299999999
 20
0.99864000000002
 11
-176.999989
 21
-0.00924899999995
  0
LINE
  5
28C
100
AcDbEntity
  8
LC-001-002-----0
  6
CONTINUOUS
 62
             7
100
AcDbLine
 10
-128.014825
 20
-0.00117799999998
 11
-121.64046
 21
-2.32122600000002
  0
LINE
  5
28B
100
AcDbEntity
  8
LC-001-002-----0
  6
CONTINUOUS
 62
             7
100
AcDbLine
 10
-175.0
 20
2.99864899999989
 11
-86.53745599999999
 21
2.99897599999997
  0
LINE
  5
28A
100
AcDbEntity
  8
LC-001-002-----0
  6
CONTINUOUS
 62
             7
100
AcDbLine
 10
176.99999800000001
 20
0.99935299999993
 11
176.99999800000001
 21
0.00025099999993
  0
LINE
  5
289
100
AcDbEntity
  8
LC-001-002-----0
  6
CONTINUOUS
 62
             7
100
AcDbLine
 10
128.01296099999999
 20
0.000182
 11
121.632963
 21
-2.32122600000002
  0
LINE
  5
288
100
AcDbEntity
  8
LC-001-002-----0
  6
CONTINUOUS
 62
             7
100
AcDbLine
 10
80.0
 20
-28.73658799999998
 11
80.0
 21
-91.00212400000009
  0
LINE
  5
287
100
AcDbEntity
  8
LC-001-002-----0
  6
CONTINUOUS
 62
             7
100
AcDbLine
 10
62.5
 20
-153.50212400000009
 11
61.56217699999999
 21
-157.00212400000009
  0
LINE
  5
286
100
AcDbEntity
  8
LC-001-002-----0
  6
CONTINUOUS
 62
             7
100
AcDbLine
 10
-62.5
 20
-153.50212400000009
 11
-61.562178
 21
-157.00212400000009
  0
LINE
  5
285
100
AcDbEntity
  8
LC-001-002-----0
  6
CONTINUOUS
 62
             7
100
AcDbLine
 10
-80.0
 20
-28.73658799999998
 11
-80.0
 21
-91.00212400000009
  0
LINE
  5
284
100
AcDbEntity
  8
LC-001-002-----0
  6
CONTINUOUS
 62
             7
100
AcDbLine
 10
-176.999987
 20
-0.00135900000009
 11
0.0
 21
-0.00070500000004
  0
LINE
  5
283
100
AcDbEntity
  8
LC-001-002-----0
  6
CONTINUOUS
 62
             7
100
AcDbLine
 10
176.99981500000001
 20
0.00025099999993
 11
0.0
 21
0.0
  0
LINE
  5
282
100
AcDbEntity
  8
LC-001-002-----0
  6
CONTINUOUS
 62
             7
100
AcDbLine
 10
84.306727
 20
2.99935299999993
 11
86.539312
 21
2.99935299999993
  0
LINE
  5
281
100
AcDbEntity
  8
LC-001-002-----0
  6
CONTINUOUS
 62
             7
100
AcDbLine
 10
-86.53745599999999
 20
2.99897599999997
 11
84.306727
 21
2.99960699999997
  0
LINE
  5
280
100
AcDbEntity
  8
LC-001-002-----0
  6
CONTINUOUS
 62
             7
100
AcDbLine
 10
86.539312
 20
2.99935299999993
 11
174.99999800000001
 21
2.99935299999993
  0
LINE
  5
27F
100
AcDbEntity
  8
LC-001-002-----0
  6
CONTINUOUS
 62
             7
100
AcDbLine
 10
-116.24929400000001
 20
-225.00456700000009
 11
-168.61810299999999
 21
-225.00456700000009
  0
LINE
  5
27E
100
AcDbEntity
  8
LC-001-002-----0
  6
CONTINUOUS
 62
             7
100
AcDbLine
 10
-116.24929400000001
 20
-218.50456700000009
 11
-168.61810299999999
 21
-218.50456700000009
  0
LINE
  5
27D
100
AcDbEntity
  8
LC-001-002-----0
  6
CONTINUOUS
 62
             7
100
AcDbLine
 10
-168.61810299999999
 20
-218.50456700000009
 11
-168.61810299999999
 21
-225.00456700000009
  0
LINE
  5
27C
100
AcDbEntity
  8
LC-001-002-----0
  6
CONTINUOUS
 62
             7
100
AcDbLine
 10
-168.61810299999999
 20
-219.50250800000001
 11
-193.364915
 21
-218.2055830000001
  0
LINE
  5
27B
100
AcDbEntity
  8
LC-001-002-----0
  6
CONTINUOUS
 62
             7
100
AcDbLine
 10
-168.61810299999999
 20
-221.00456700000009
 11
-193.53343699999999
 21
-219.69880900000001
  0
LINE
  5
27A
100
AcDbEntity
  8
LC-001-002-----0
  6
CONTINUOUS
 62
             7
100
AcDbLine
 10
-168.61810299999999
 20
-221.00456700000009
 11
-193.61810299999999
 21
-221.00456700000009
  0
LINE
  5
279
100
AcDbEntity
  8
LC-001-002-----0
  6
CONTINUOUS
 62
             7
100
AcDbLine
 10
-168.61810299999999
 20
-222.50456700000009
 11
-193.61810299999999
 21
-222.50456700000009
  0
LINE
  5
278
100
AcDbEntity
  8
LC-001-002-----0
  6
CONTINUOUS
 62
             7
100
AcDbLine
 10
-168.61810299999999
 20
-222.50456700000009
 11
-193.53343699999999
 21
-223.81032400000001
  0
LINE
  5
277
100
AcDbEntity
  8
LC-001-002-----0
  6
CONTINUOUS
 62
             7
100
AcDbLine
 10
-168.61810299999999
 20
-224.00662500000001
 11
-193.364915
 21
-225.303551
  0
LINE
  5
276
100
AcDbEntity
  8
LC-001-002-----0
  6
CONTINUOUS
 62
             7
100
AcDbLine
 10
-193.393002
 20
-225.05467999999999
 11
-200.407219
 21
-225.422279
  0
LINE
  5
275
100
AcDbEntity
  8
LC-001-002-----0
  6
CONTINUOUS
 62
             7
100
AcDbLine
 10
-193.50534999999999
 20
-224.0591950000001
 11
-200.50639100000001
 21
-224.42610400000001
  0
LINE
  5
274
100
AcDbEntity
  8
LC-001-002-----0
  6
CONTINUOUS
 62
             7
100
AcDbLine
 10
-193.61810299999999
 20
-222.25456700000009
 11
-200.61810299999999
 21
-222.25456700000009
  0
LINE
  5
273
100
AcDbEntity
  8
LC-001-002-----0
  6
CONTINUOUS
 62
             7
100
AcDbLine
 10
-193.61810299999999
 20
-221.25456700000009
 11
-200.61810299999999
 21
-221.25456700000009
  0
LINE
  5
272
100
AcDbEntity
  8
LC-001-002-----0
  6
CONTINUOUS
 62
             7
100
AcDbLine
 10
-193.50534999999999
 20
-219.449938
 11
-200.50639100000001
 21
-219.08302900000001
  0
LINE
  5
271
100
AcDbEntity
  8
LC-001-002-----0
  6
CONTINUOUS
 62
             7
100
AcDbLine
 10
-193.393002
 20
-218.45445400000011
 11
-200.407219
 21
-218.08685399999999
  0
LINE
  5
270
100
AcDbEntity
  8
LC-001-002-----0
  6
CONTINUOUS
 62
             7
100
AcDbLine
 10
-193.364915
 20
-218.2055830000001
 11
-193.53343699999999
 21
-219.69880900000001
  0
LINE
  5
26F
100
AcDbEntity
  8
LC-001-002-----0
  6
CONTINUOUS
 62
             7
100
AcDbLine
 10
-193.61810299999999
 20
-221.00456700000009
 11
-193.61810299999999
 21
-222.50456700000009
  0
LINE
  5
26E
100
AcDbEntity
  8
LC-001-002-----0
  6
CONTINUOUS
 62
             7
100
AcDbLine
 10
-193.364915
 20
-225.303551
 11
-193.53343699999999
 21
-223.81032400000001
  0
LINE
  5
26D
100
AcDbEntity
  8
LC-001-002-----0
  6
CONTINUOUS
 62
             7
100
AcDbLine
 10
-200.407219
 20
-225.422279
 11
-200.50639100000001
 21
-224.42610400000001
  0
LINE
  5
26C
100
AcDbEntity
  8
LC-001-002-----0
  6
CONTINUOUS
 62
             7
100
AcDbLine
 10
-200.61810299999999
 20
-221.25456700000009
 11
-200.61810299999999
 21
-222.25456700000009
  0
LINE
  5
26B
100
AcDbEntity
  8
LC-001-002-----0
  6
CONTINUOUS
 62
             7
100
AcDbLine
 10
-200.407219
 20
-218.08685399999999
 11
-200.50639100000001
 21
-219.08302900000001
  0
LINE
  5
26A
100
AcDbEntity
  8
LC-001-002-----0
  6
DASHDOT
 62
             2
100
AcDbLine
 10
-116.24929400000001
 20
-208.9649720000001
 11
-116.24929400000001
 21
-236.62436199999999
  0
LINE
  5
269
100
AcDbEntity
  8
LC-001-002-----0
  6
DASHDOT
 62
             2
100
AcDbLine
 10
-114.24929400000001
 20
-208.9649720000001
 11
-114.24929400000001
 21
-236.62436199999999
  0
LINE
  5
268
100
AcDbEntity
  8
LC-001-002-----0
  6
DASHDOT
 62
             2
100
AcDbLine
 10
-76.92108
 20
-135.43154699999999
 11
-65.13664700000001
 21
-135.43154699999999
  0
LINE
  5
267
100
AcDbEntity
  8
LC-001-002-----0
  6
DASHDOT
 62
             2
100
AcDbLine
 10
-76.92108
 20
-136.93154699999999
 11
-65.13664700000001
 21
-136.93154699999999
  0
LINE
  5
266
100
AcDbEntity
  8
LC-001-002-----0
  6
CONTINUOUS
 62
             7
100
AcDbLine
 10
-67.74929399999999
 20
-136.93154699999999
 11
-67.74929399999999
 21
-178.50456700000009
  0
LINE
  5
265
100
AcDbEntity
  8
LC-001-002-----0
  6
CONTINUOUS
 62
             7
100
AcDbLine
 10
-74.24929399999999
 20
-136.93154699999999
 11
-74.24929399999999
 21
-178.50456700000009
  0
LINE
  5
264
100
AcDbEntity
  8
LC-001-002-----0
  6
CONTINUOUS
 62
             7
100
AcDbLine
 10
-67.74929399999999
 20
-101.00212400000009
 11
-67.74929399999999
 21
-135.43154699999999
  0
LINE
  5
263
100
AcDbEntity
  8
LC-001-002-----0
  6
CONTINUOUS
 62
             7
100
AcDbLine
 10
-74.24929399999999
 20
-100.80853999999999
 11
-74.24929399999999
 21
-135.43154699999999
  0
LINE
  5
262
100
AcDbEntity
  8
LC-007-005-----0
  6
CONTINUOUS
 62
             2
100
AcDbLine
 10
-57.97029600000001
 20
-103.50212400000009
 11
-57.49134700000001
 21
-103.02317600000001
  0
LINE
  5
261
100
AcDbEntity
  8
LC-001-002-----0
  6
CONTINUOUS
 62
             7
100
AcDbLine
 10
-57.49134700000001
 20
-103.50212400000009
 11
57.49126000000001
 21
-103.50212400000009
  0
LINE
  5
260
100
AcDbEntity
  8
LC-001-002-----0
  6
CONTINUOUS
 62
             7
100
AcDbLine
 10
67.492548
 20
-101.00212400000009
 11
-67.49263600000001
 21
-101.00212400000009
  0
LINE
  5
25F
100
AcDbEntity
  8
LC-001-002-----0
  6
CONTINUOUS
 62
             7
100
AcDbLine
 10
-124.658044
 20
-2.32122600000002
 11
124.657906
 21
-2.32122600000002
  0
LINE
  5
25E
100
AcDbEntity
  8
LC-001-002-----0
  6
CONTINUOUS
 62
             7
100
AcDbLine
 10
124.999932
 20
-3.26013499999999
 11
-125.00006500000001
 21
-3.26013499999999
  0
LINE
  5
25D
100
AcDbEntity
  8
LC-001-002-----0
  6
CONTINUOUS
 62
             7
100
AcDbLine
 10
-101.82899500000001
 20
-11.69449800000007
 11
101.999928
 21
-11.69449800000007
  0
LINE
  5
25C
100
AcDbEntity
  8
LC-001-002-----0
  6
CONTINUOUS
 62
             7
100
AcDbLine
 10
-86.646435
 20
-25.40396499999997
 11
86.64644899999999
 21
-25.40396499999997
  0
LINE
  5
25B
100
AcDbEntity
  8
LC-001-002-----0
  6
CONTINUOUS
 62
             7
100
AcDbLine
 10
81.500632
 20
-28.73658799999998
 11
52.70377500000001
 21
-28.73658799999998
  0
LINE
  5
25A
100
AcDbEntity
  8
LC-001-002-----0
  6
CONTINUOUS
 62
             7
100
AcDbLine
 10
91.00346500000001
 20
10.28949599999999
 11
91.00346500000001
 21
15.2427909999999
  0
LINE
  5
259
100
AcDbEntity
  8
LC-004-003-----0
  6
CONTINUOUS
 62
             2
100
AcDbLine
 10
91.50346500000001
 20
10.28949599999999
 11
91.50346500000001
 21
15.7427909999999
  0
LINE
  5
258
100
AcDbEntity
  8
LC-004-003-----0
  6
CONTINUOUS
 62
             2
100
AcDbLine
 10
96.50346500000001
 20
10.28949599999999
 11
96.50346500000001
 21
15.7427909999999
  0
LINE
  5
257
100
AcDbEntity
  8
LC-001-002-----0
  6
CONTINUOUS
 62
             7
100
AcDbLine
 10
97.00346500000001
 20
10.28949599999999
 11
97.00346500000001
 21
15.2427909999999
  0
LINE
  5
256
100
AcDbEntity
  8
LC-001-002-----0
  6
DASHDOT
 62
             2
100
AcDbLine
 10
-47.009871
 20
15.59687199999996
 11
-47.087367
 21
-34.40312800000004
  0
LINE
  5
255
100
AcDbEntity
  8
LC-001-002-----0
  6
CONTINUOUS
 62
             7
100
AcDbLine
 10
-51.260401
 20
-30.60314100000005
 11
-42.600146
 21
-30.60314100000005
  0
LINE
  5
254
100
AcDbEntity
  8
LC-001-002-----0
  6
CONTINUOUS
 62
             7
100
AcDbLine
 10
-52.70377600000001
 20
-26.07227000000012
 11
-52.70377600000001
 21
-29.93401200000005
  0
LINE
  5
253
100
AcDbEntity
  8
LC-001-002-----0
  6
CONTINUOUS
 62
             7
100
AcDbLine
 10
-41.15677
 20
-26.07227000000012
 11
-41.15677
 21
-29.93401200000005
  0
LINE
  5
252
100
AcDbEntity
  8
LC-001-002-----0
  6
CONTINUOUS
 62
             7
100
AcDbLine
 10
-49.817025
 20
-29.93406500000003
 11
-49.817025
 21
-26.06654100000003
  0
LINE
  5
251
100
AcDbEntity
  8
LC-001-002-----0
  6
CONTINUOUS
 62
             7
100
AcDbLine
 10
-44.043522
 20
-29.93401400000005
 11
-44.043522
 21
-26.07229700000005
  0
LINE
  5
250
100
AcDbEntity
  8
LC-001-002-----0
  6
CONTINUOUS
 62
             7
100
AcDbLine
 10
-49.930273
 20
-33.90312800000004
 11
-49.930273
 21
-30.60314100000005
  0
LINE
  5
24F
100
AcDbEntity
  8
LC-001-002-----0
  6
CONTINUOUS
 62
             7
100
AcDbLine
 10
-44.430273
 20
-34.40312800000004
 11
-49.430273
 21
-34.40312800000004
  0
LINE
  5
24E
100
AcDbEntity
  8
LC-001-002-----0
  6
CONTINUOUS
 62
             7
100
AcDbLine
 10
-43.930273
 20
-33.90312800000004
 11
-43.930273
 21
-30.60314100000005
  0
LINE
  5
24D
100
AcDbEntity
  8
LC-001-002-----0
  6
CONTINUOUS
 62
             7
100
AcDbLine
 10
-44.430273
 20
-34.40312800000004
 11
-43.930273
 21
-33.90312800000004
  0
LINE
  5
24C
100
AcDbEntity
  8
LC-001-002-----0
  6
CONTINUOUS
 62
             7
100
AcDbLine
 10
-49.430273
 20
-34.40312800000004
 11
-49.930273
 21
-33.90312800000004
  0
LINE
  5
24B
100
AcDbEntity
  8
LC-001-002-----0
  6
CONTINUOUS
 62
             7
100
AcDbLine
 10
-43.930273
 20
-33.90312800000004
 11
-49.930273
 21
-33.90312800000004
  0
LINE
  5
24A
100
AcDbEntity
  8
LC-004-003-----0
  6
CONTINUOUS
 62
             2
100
AcDbLine
 10
-49.430273
 20
-34.40312800000004
 11
-49.430273
 21
-30.60314100000005
  0
LINE
  5
249
100
AcDbEntity
  8
LC-004-003-----0
  6
CONTINUOUS
 62
             2
100
AcDbLine
 10
-44.430273
 20
-34.40312800000004
 11
-44.430273
 21
-30.60314100000005
  0
LINE
  5
248
100
AcDbEntity
  8
LC-001-002-----0
  6
CONTINUOUS
 62
             7
100
AcDbLine
 10
-41.93031600000001
 20
10.14357599999994
 11
-51.93031600000001
 21
10.14357599999994
  0
LINE
  5
247
100
AcDbEntity
  8
LC-001-002-----0
  6
CONTINUOUS
 62
             7
100
AcDbLine
 10
-41.12025800000001
 20
2.85304999999994
 11
-41.93031600000001
 21
10.14357599999994
  0
LINE
  5
246
100
AcDbEntity
  8
LC-001-002-----0
  6
CONTINUOUS
 62
             7
100
AcDbLine
 10
-40.242417
 20
15.83140200000003
 11
-41.93031600000001
 21
10.14357599999994
  0
LINE
  5
245
100
AcDbEntity
  8
LC-001-002-----0
  6
CONTINUOUS
 62
             7
100
AcDbLine
 10
-32.375432
 20
11.11893299999997
 11
-39.464263
 21
2.85305599999992
  0
LINE
  5
244
100
AcDbEntity
  8
LC-001-002-----0
  6
CONTINUOUS
 62
             7
100
AcDbLine
 10
-61.4852
 20
11.11893299999997
 11
-54.39632200000001
 21
2.85300099999995
  0
LINE
  5
243
100
AcDbEntity
  8
LC-001-002-----0
  6
CONTINUOUS
 62
             7
100
AcDbLine
 10
-51.93249700000001
 20
10.14357599999994
 11
-41.932497
 21
10.14357599999994
  0
LINE
  5
242
100
AcDbEntity
  8
LC-001-002-----0
  6
CONTINUOUS
 62
             7
100
AcDbLine
 10
-40.244597
 20
15.83140200000003
 11
-41.932497
 21
10.14357599999994
  0
LINE
  5
241
100
AcDbEntity
  8
LC-001-002-----0
  6
CONTINUOUS
 62
             7
100
AcDbLine
 10
-52.74256000000001
 20
2.85300699999993
 11
-51.93249700000001
 21
10.14357599999994
  0
LINE
  5
240
100
AcDbEntity
  8
LC-001-002-----0
  6
CONTINUOUS
 62
             7
100
AcDbLine
 10
-41.932497
 20
10.14357599999994
 11
-41.122439
 21
2.85304999999994
  0
LINE
  5
23F
100
AcDbEntity
  8
LC-001-002-----0
  6
CONTINUOUS
 62
             7
100
AcDbLine
 10
-53.620397
 20
15.83140200000003
 11
-51.93249700000001
 21
10.14357599999994
  0
LINE
  5
23E
100
AcDbEntity
  8
LC-001-002-----0
  6
CONTINUOUS
 62
             7
100
AcDbLine
 10
-61.487381
 20
11.11893299999997
 11
-54.39850300000001
 21
2.85300099999995
  0
LINE
  5
23D
100
AcDbEntity
  8
LC-001-002-----0
  6
CONTINUOUS
 62
             7
100
AcDbLine
 10
-32.377613
 20
11.11893299999997
 11
-39.466444
 21
2.85305599999992
  0
LINE
  5
23C
100
AcDbEntity
  8
LC-001-002-----0
  6
CONTINUOUS
 62
             7
100
AcDbLine
 10
-49.430273
 20
15.59687199999996
 11
-44.430273
 21
15.59687199999996
  0
LINE
  5
23B
100
AcDbEntity
  8
LC-001-002-----0
  6
CONTINUOUS
 62
             7
100
AcDbLine
 10
-49.430273
 20
15.59687199999996
 11
-49.930273
 21
15.09687199999996
  0
LINE
  5
23A
100
AcDbEntity
  8
LC-001-002-----0
  6
CONTINUOUS
 62
             7
100
AcDbLine
 10
-44.430273
 20
15.59687199999996
 11
-43.930273
 21
15.09687199999996
  0
LINE
  5
239
100
AcDbEntity
  8
LC-001-002-----0
  6
CONTINUOUS
 62
             7
100
AcDbLine
 10
-49.930273
 20
15.09687199999996
 11
-43.930273
 21
15.09687199999996
  0
LINE
  5
238
100
AcDbEntity
  8
LC-001-002-----0
  6
CONTINUOUS
 62
             7
100
AcDbLine
 10
-49.930273
 20
10.14357599999994
 11
-49.930273
 21
15.09687199999996
  0
LINE
  5
237
100
AcDbEntity
  8
LC-001-002-----0
  6
CONTINUOUS
 62
             7
100
AcDbLine
 10
-43.930273
 20
10.14357599999994
 11
-43.930273
 21
15.09687199999996
  0
LINE
  5
236
100
AcDbEntity
  8
LC-004-003-----0
  6
CONTINUOUS
 62
             2
100
AcDbLine
 10
-44.430273
 20
10.14357599999994
 11
-44.430273
 21
15.59687199999996
  0
LINE
  5
235
100
AcDbEntity
  8
LC-004-003-----0
  6
CONTINUOUS
 62
             2
100
AcDbLine
 10
-49.430273
 20
10.14357599999994
 11
-49.430273
 21
15.59687199999996
  0
LINE
  5
234
100
AcDbEntity
  8
LC-001-002-----0
  6
CONTINUOUS
 62
             7
100
AcDbLine
 10
-52.70377600000001
 20
-28.73658799999998
 11
-81.49998500000001
 21
-28.73658799999998
  0
LINE
  5
233
100
AcDbEntity
  8
LC-001-002-----0
  6
CONTINUOUS
 62
             7
100
AcDbLine
 10
51.2604
 20
-30.60314100000005
 11
42.600146
 21
-30.60314100000005
  0
LINE
  5
232
100
AcDbEntity
  8
LC-001-002-----0
  6
CONTINUOUS
 62
             7
100
AcDbLine
 10
52.70377500000001
 20
-26.07227000000012
 11
52.70377500000001
 21
-29.93401200000005
  0
LINE
  5
231
100
AcDbEntity
  8
LC-001-002-----0
  6
CONTINUOUS
 62
             7
100
AcDbLine
 10
41.15677
 20
-26.07227000000012
 11
41.15677
 21
-29.93401200000005
  0
LINE
  5
230
100
AcDbEntity
  8
LC-001-002-----0
  6
CONTINUOUS
 62
             7
100
AcDbLine
 10
49.817024
 20
-29.93406500000003
 11
49.817024
 21
-26.06654100000003
  0
LINE
  5
22F
100
AcDbEntity
  8
LC-001-002-----0
  6
CONTINUOUS
 62
             7
100
AcDbLine
 10
44.043521
 20
-29.93401400000005
 11
44.043521
 21
-26.07229700000005
  0
LINE
  5
22E
100
AcDbEntity
  8
LC-001-002-----0
  6
CONTINUOUS
 62
             7
100
AcDbLine
 10
49.930272
 20
-33.90312800000004
 11
49.930272
 21
-30.60314100000005
  0
LINE
  5
22D
100
AcDbEntity
  8
LC-001-002-----0
  6
CONTINUOUS
 62
             7
100
AcDbLine
 10
44.430272
 20
-34.40312800000004
 11
49.430272
 21
-34.40312800000004
  0
LINE
  5
22C
100
AcDbEntity
  8
LC-001-002-----0
  6
CONTINUOUS
 62
             7
100
AcDbLine
 10
43.930272
 20
-33.90312800000004
 11
43.930272
 21
-30.60314100000005
  0
LINE
  5
22B
100
AcDbEntity
  8
LC-001-002-----0
  6
CONTINUOUS
 62
             7
100
AcDbLine
 10
44.430272
 20
-34.40312800000004
 11
43.930272
 21
-33.90312800000004
  0
LINE
  5
22A
100
AcDbEntity
  8
LC-001-002-----0
  6
CONTINUOUS
 62
             7
100
AcDbLine
 10
49.430272
 20
-34.40312800000004
 11
49.930272
 21
-33.90312800000004
  0
LINE
  5
229
100
AcDbEntity
  8
LC-001-002-----0
  6
CONTINUOUS
 62
             7
100
AcDbLine
 10
43.930272
 20
-33.90312800000004
 11
49.930272
 21
-33.90312800000004
  0
LINE
  5
228
100
AcDbEntity
  8
LC-004-003-----0
  6
CONTINUOUS
 62
             2
100
AcDbLine
 10
49.430272
 20
-34.40312800000004
 11
49.430272
 21
-30.60314100000005
  0
LINE
  5
227
100
AcDbEntity
  8
LC-004-003-----0
  6
CONTINUOUS
 62
             2
100
AcDbLine
 10
44.430272
 20
-34.40312800000004
 11
44.430272
 21
-30.60314100000005
  0
LINE
  5
226
100
AcDbEntity
  8
LC-001-002-----0
  6
CONTINUOUS
 62
             7
100
AcDbLine
 10
86.53745499999999
 20
2.99897599999997
 11
-84.30672799999999
 21
2.99960699999997
  0
LINE
  5
225
100
AcDbEntity
  8
LC-001-002-----0
  6
CONTINUOUS
 62
             7
100
AcDbLine
 10
41.93031500000001
 20
10.14357599999994
 11
51.93031500000001
 21
10.14357599999994
  0
LINE
  5
224
100
AcDbEntity
  8
LC-001-002-----0
  6
CONTINUOUS
 62
             7
100
AcDbLine
 10
41.120257
 20
2.85304999999994
 11
41.93031500000001
 21
10.14357599999994
  0
LINE
  5
223
100
AcDbEntity
  8
LC-001-002-----0
  6
CONTINUOUS
 62
             7
100
AcDbLine
 10
40.24241599999999
 20
15.83140200000003
 11
41.93031500000001
 21
10.14357599999994
  0
LINE
  5
222
100
AcDbEntity
  8
LC-001-002-----0
  6
CONTINUOUS
 62
             7
100
AcDbLine
 10
32.37543099999999
 20
11.11893299999997
 11
39.46426199999999
 21
2.85305599999992
  0
LINE
  5
221
100
AcDbEntity
  8
LC-001-002-----0
  6
CONTINUOUS
 62
             7
100
AcDbLine
 10
61.48519899999999
 20
11.11893299999997
 11
54.396321
 21
2.85300099999995
  0
LINE
  5
220
100
AcDbEntity
  8
LC-001-002-----0
  6
CONTINUOUS
 62
             7
100
AcDbLine
 10
51.93249599999999
 20
10.14357599999994
 11
41.932496
 21
10.14357599999994
  0
LINE
  5
21F
100
AcDbEntity
  8
LC-001-002-----0
  6
CONTINUOUS
 62
             7
100
AcDbLine
 10
40.244596
 20
15.83140200000003
 11
41.932496
 21
10.14357599999994
  0
LINE
  5
21E
100
AcDbEntity
  8
LC-001-002-----0
  6
CONTINUOUS
 62
             7
100
AcDbLine
 10
52.742559
 20
2.85300699999993
 11
51.93249599999999
 21
10.14357599999994
  0
LINE
  5
21D
100
AcDbEntity
  8
LC-001-002-----0
  6
CONTINUOUS
 62
             7
100
AcDbLine
 10
41.932496
 20
10.14357599999994
 11
41.12243799999999
 21
2.85304999999994
  0
LINE
  5
21C
100
AcDbEntity
  8
LC-001-002-----0
  6
CONTINUOUS
 62
             7
100
AcDbLine
 10
53.620396
 20
15.83140200000003
 11
51.93249599999999
 21
10.14357599999994
  0
LINE
  5
21B
100
AcDbEntity
  8
LC-001-002-----0
  6
CONTINUOUS
 62
             7
100
AcDbLine
 10
61.48738
 20
11.11893299999997
 11
54.39850200000001
 21
2.85300099999995
  0
LINE
  5
21A
100
AcDbEntity
  8
LC-001-002-----0
  6
CONTINUOUS
 62
             7
100
AcDbLine
 10
32.377612
 20
11.11893299999997
 11
39.466443
 21
2.85305599999992
  0
LINE
  5
219
100
AcDbEntity
  8
LC-001-002-----0
  6
CONTINUOUS
 62
             7
100
AcDbLine
 10
49.430272
 20
15.59687199999996
 11
44.430272
 21
15.59687199999996
  0
LINE
  5
218
100
AcDbEntity
  8
LC-001-002-----0
  6
CONTINUOUS
 62
             7
100
AcDbLine
 10
49.430272
 20
15.59687199999996
 11
49.930272
 21
15.09687199999996
  0
LINE
  5
217
100
AcDbEntity
  8
LC-001-002-----0
  6
CONTINUOUS
 62
             7
100
AcDbLine
 10
44.430272
 20
15.59687199999996
 11
43.930272
 21
15.09687199999996
  0
LINE
  5
216
100
AcDbEntity
  8
LC-001-002-----0
  6
CONTINUOUS
 62
             7
100
AcDbLine
 10
49.930272
 20
15.09687199999996
 11
43.930272
 21
15.09687199999996
  0
LINE
  5
215
100
AcDbEntity
  8
LC-001-002-----0
  6
CONTINUOUS
 62
             7
100
AcDbLine
 10
49.930272
 20
10.14357599999994
 11
49.930272
 21
15.09687199999996
  0
LINE
  5
214
100
AcDbEntity
  8
LC-001-002-----0
  6
CONTINUOUS
 62
             7
100
AcDbLine
 10
43.930272
 20
10.14357599999994
 11
43.930272
 21
15.09687199999996
  0
LINE
  5
213
100
AcDbEntity
  8
LC-004-003-----0
  6
CONTINUOUS
 62
             2
100
AcDbLine
 10
44.430272
 20
10.14357599999994
 11
44.430272
 21
15.59687199999996
  0
LINE
  5
212
100
AcDbEntity
  8
LC-004-003-----0
  6
CONTINUOUS
 62
             2
100
AcDbLine
 10
49.430272
 20
10.14357599999994
 11
49.430272
 21
15.59687199999996
  0
LINE
  5
211
100
AcDbEntity
  8
LC-001-002-----0
  6
DASHDOT
 62
             2
100
AcDbLine
 10
47.00987000000001
 20
15.59687199999996
 11
47.087366
 21
-34.40312800000004
  0
LINE
  5
210
100
AcDbEntity
  8
LC-001-002-----0
  6
CONTINUOUS
 62
             7
100
AcDbLine
 10
41.15677
 20
-28.73658799999998
 11
-41.15677
 21
-28.73658799999998
  0
LINE
  5
20F
100
AcDbEntity
  8
1
  6
CONTINUOUS
 62
             7
100
AcDbLine
 10
-62.500044
 20
-153.50212400000009
 11
62.5
 21
-153.50212400000009
  0
POINT
  5
20E
100
AcDbEntity
  8
LC-004-003-----0
 62
             7
100
AcDbPoint
 10
-62.500044
 20
-153.50212400000009
  0
POINT
  5
20D
100
AcDbEntity
  8
LC-004-003-----0
 62
             7
100
AcDbPoint
 10
62.499956
 20
-153.50212400000009
  0
POINT
  5
20C
100
AcDbEntity
  8
LC-004-003-----0
 62
             7
100
AcDbPoint
 10
-80.000044
 20
-88.6028080000001
  0
POINT
  5
20B
100
AcDbEntity
  8
LC-004-003-----0
 62
             7
100
AcDbPoint
 10
79.999956
 20
-91.00212400000009
  0
POINT
  5
20A
100
AcDbEntity
  8
LC-004-003-----0
 62
             7
100
AcDbPoint
 10
-176.999989
 20
-0.00924899999995
  0
POINT
  5
209
100
AcDbEntity
  8
LC-004-003-----0
 62
             7
100
AcDbPoint
 10
176.99981500000001
 20
0.00025099999993
  0
POINT
  5
208
100
AcDbEntity
  8
LC-004-003-----0
 62
             7
100
AcDbPoint
 10
-176.999989
 20
-0.00924899999995
  0
POINT
  5
207
100
AcDbEntity
  8
LC-004-003-----0
 62
             7
100
AcDbPoint
 10
-72.500044
 20
-101.00212400000009
  0
POINT
  5
206
100
AcDbEntity
  8
LC-004-003-----0
 62
             7
100
AcDbPoint
 10
-101.500005
 20
-17.96093100000007
  0
POINT
  5
205
100
AcDbEntity
  8
LC-004-003-----0
 62
             7
100
AcDbPoint
 10
101.499968
 20
-17.96029500000009
  0
INSERT
  5
8F
100
AcDbEntity
  8
LC-001-002-----0
100
AcDbBlockReference
  2
BLK17
 10
29.8699440028038
 20
399.90174184251902
  0
INSERT
  5
90
100
AcDbEntity
  8
LC-001-002-----0
100
AcDbBlockReference
  2
BLK18
 10
29.8699440028038
 20
399.90174184251902
  0
INSERT
  5
91
100
AcDbEntity
  8
LC-001-002-----0
100
AcDbBlockReference
  2
BLK19
 10
29.8699440028038
 20
399.90174184251902
  0
INSERT
  5
92
100
AcDbEntity
  8
LC-001-002-----0
100
AcDbBlockReference
  2
BLK20
 10
29.8699440028038
 20
399.90174184251902
  0
INSERT
  5
93
100
AcDbEntity
  8
LC-001-002-----0
100
AcDbBlockReference
  2
BLK21
 10
29.8699440028038
 20
399.90174184251902
  0
INSERT
  5
94
100
AcDbEntity
  8
LC-001-002-----0
100
AcDbBlockReference
  2
BLK22
 10
29.8699440028038
 20
399.90174184251902
  0
INSERT
  5
95
100
AcDbEntity
  8
LC-001-002-----0
100
AcDbBlockReference
  2
BLK23
 10
29.8699440028038
 20
399.90174184251902
  0
INSERT
  5
96
100
AcDbEntity
  8
LC-001-002-----0
100
AcDbBlockReference
  2
BLK24
 10
29.8699440028038
 20
399.90174184251902
  0
INSERT
  5
97
100
AcDbEntity
  8
LC-001-002-----0
100
AcDbBlockReference
  2
BLK26
 10
29.8699440028038
 20
399.90174184251902
  0
INSERT
  5
98
100
AcDbEntity
  8
LC-001-002-----0
100
AcDbBlockReference
  2
BLK27
 10
29.8699440028038
 20
399.90174184251902
  0
INSERT
  5
99
100
AcDbEntity
  8
LC-001-002-----0
100
AcDbBlockReference
  2
BLK29
 10
29.8699440028038
 20
399.90174184251902
  0
INSERT
  5
9A
100
AcDbEntity
  8
LC-001-002-----0
100
AcDbBlockReference
  2
BLK30
 10
29.8699440028038
 20
399.90174184251902
  0
INSERT
  5
9B
100
AcDbEntity
  8
LC-001-002-----0
100
AcDbBlockReference
  2
BLK32
 10
29.8699440028038
 20
399.90174184251902
  0
INSERT
  5
9C
100
AcDbEntity
  8
LC-001-002-----0
100
AcDbBlockReference
  2
BLK33
 10
29.8699440028038
 20
399.90174184251902
  0
INSERT
  5
9D
100
AcDbEntity
  8
LC-001-002-----0
100
AcDbBlockReference
  2
BLK34
 10
29.8699440028038
 20
399.90174184251902
  0
INSERT
  5
9E
100
AcDbEntity
  8
LC-001-002-----0
100
AcDbBlockReference
  2
BLK35
 10
29.8699440028038
 20
399.90174184251902
  0
INSERT
  5
9F
100
AcDbEntity
  8
LC-001-002-----0
100
AcDbBlockReference
  2
BLK36
 10
29.8699440028038
 20
399.90174184251902
  0
INSERT
  5
A0
100
AcDbEntity
  8
LC-001-002-----0
100
AcDbBlockReference
  2
BLK37
 10
29.8699440028038
 20
399.90174184251902
  0
INSERT
  5
A1
100
AcDbEntity
  8
LC-001-002-----0
100
AcDbBlockReference
  2
BLK38
 10
29.8699440028038
 20
399.90174184251902
  0
INSERT
  5
A2
100
AcDbEntity
  8
LC-001-002-----0
100
AcDbBlockReference
  2
BLK39
 10
29.8699440028038
 20
399.90174184251902
  0
INSERT
  5
A3
100
AcDbEntity
  8
LC-001-002-----0
100
AcDbBlockReference
  2
BLK41
 10
29.8699440028038
 20
399.90174184251902
  0
INSERT
  5
A4
100
AcDbEntity
  8
LC-001-002-----0
100
AcDbBlockReference
  2
BLK42
 10
29.8699440028038
 20
399.90174184251902
  0
INSERT
  5
A5
100
AcDbEntity
  8
LC-001-002-----0
100
AcDbBlockReference
  2
BLK44
 10
29.8699440028038
 20
399.90174184251902
  0
INSERT
  5
A6
100
AcDbEntity
  8
LC-001-002-----0
100
AcDbBlockReference
  2
BLK45
 10
29.8699440028038
 20
399.90174184251902
  0
INSERT
  5
A7
100
AcDbEntity
  8
LC-001-002-----0
100
AcDbBlockReference
  2
BLK51
 10
29.8699440028038
 20
399.90174184251902
  0
INSERT
  5
A8
100
AcDbEntity
  8
LC-001-002-----0
100
AcDbBlockReference
  2
BLK52
 10
29.8699440028038
 20
399.90174184251902
  0
INSERT
  5
A9
100
AcDbEntity
  8
LC-001-002-----0
100
AcDbBlockReference
  2
BLK53
 10
29.8699440028038
 20
399.90174184251902
  0
INSERT
  5
AA
100
AcDbEntity
  8
LC-001-002-----0
100
AcDbBlockReference
  2
BLK54
 10
29.8699440028038
 20
399.90174184251902
  0
INSERT
  5
AB
100
AcDbEntity
  8
LC-001-002-----0
100
AcDbBlockReference
  2
BLK55
 10
29.8699440028038
 20
399.90174184251902
  0
INSERT
  5
AC
100
AcDbEntity
  8
LC-001-002-----0
100
AcDbBlockReference
  2
BLK56
 10
29.8699440028038
 20
399.90174184251902
  0
INSERT
  5
AD
100
AcDbEntity
  8
LC-001-002-----0
100
AcDbBlockReference
  2
BLK57
 10
29.8699440028038
 20
399.90174184251902
  0
INSERT
  5
AE
100
AcDbEntity
  8
LC-001-002-----0
100
AcDbBlockReference
  2
BLK58
 10
29.8699440028038
 20
399.90174184251902
  0
INSERT
  5
AF
100
AcDbEntity
  8
LC-001-002-----0
100
AcDbBlockReference
  2
BLK59
 10
29.8699440028038
 20
399.90174184251902
  0
INSERT
  5
B0
100
AcDbEntity
  8
LC-001-002-----0
100
AcDbBlockReference
  2
BLK60
 10
29.8699440028038
 20
399.90174184251902
  0
INSERT
  5
B1
100
AcDbEntity
  8
LC-001-002-----0
100
AcDbBlockReference
  2
BLK61
 10
29.8699440028038
 20
399.90174184251902
  0
INSERT
  5
B2
100
AcDbEntity
  8
LC-001-002-----0
100
AcDbBlockReference
  2
BLK62
 10
29.8699440028038
 20
399.90174184251902
  0
INSERT
  5
B3
100
AcDbEntity
  8
LC-001-002-----0
100
AcDbBlockReference
  2
BLK67
 10
29.8699440028038
 20
399.90174184251902
  0
INSERT
  5
B4
100
AcDbEntity
  8
LC-001-002-----0
100
AcDbBlockReference
  2
BLK68
 10
29.8699440028038
 20
399.90174184251902
  0
INSERT
  5
B5
100
AcDbEntity
  8
LC-001-002-----0
100
AcDbBlockReference
  2
BLK69
 10
29.8699440028038
 20
399.90174184251902
  0
INSERT
  5
B6
100
AcDbEntity
  8
LC-001-002-----0
100
AcDbBlockReference
  2
BLK70
 10
29.8699440028038
 20
399.90174184251902
  0
INSERT
  5
B7
100
AcDbEntity
  8
LC-001-002-----0
100
AcDbBlockReference
  2
BLK71
 10
29.8699440028038
 20
399.90174184251902
  0
INSERT
  5
B8
100
AcDbEntity
  8
LC-001-002-----0
100
AcDbBlockReference
  2
BLK72
 10
29.8699440028038
 20
399.90174184251902
  0
INSERT
  5
B9
100
AcDbEntity
  8
LC-001-002-----0
100
AcDbBlockReference
  2
BLK73
 10
29.8699440028038
 20
399.90174184251902
  0
INSERT
  5
BA
100
AcDbEntity
  8
LC-001-002-----0
100
AcDbBlockReference
  2
BLK74
 10
29.8699440028038
 20
399.90174184251902
  0
INSERT
  5
BB
100
AcDbEntity
  8
LC-001-002-----0
100
AcDbBlockReference
  2
BLK75
 10
29.8699440028038
 20
399.90174184251902
  0
INSERT
  5
BC
100
AcDbEntity
  8
LC-001-002-----0
100
AcDbBlockReference
  2
BLK76
 10
29.8699440028038
 20
399.90174184251902
  0
INSERT
  5
BD
100
AcDbEntity
  8
LC-001-002-----0
100
AcDbBlockReference
  2
BLK77
 10
29.8699440028038
 20
399.90174184251902
  0
INSERT
  5
BE
100
AcDbEntity
  8
LC-001-002-----0
100
AcDbBlockReference
  2
BLK78
 10
29.8699440028038
 20
399.90174184251902
  0
ENDBLK
  5
31F
100
AcDbEntity
  8
0
100
AcDbBlockEnd
  0
BLOCK
  5
322
100
AcDbEntity
  8
0
100
AcDbBlockBegin
  2
*D50
 70
             1
 10
0.0
 20
0.0
 30
0.0
  3
*D50
  1

  0
LINE
  5
323
100
AcDbEntity
  8
0
  6
CONTINUOUS
 62
             4
100
AcDbLine
 10
-186.999987
 20
-0.00135900000009
 11
-186.999987
 21
-101.00212400000009
  0
LINE
  5
324
100
AcDbEntity
  8
0
  6
CONTINUOUS
 62
             4
100
AcDbLine
 10
-72.500044
 20
-101.00212400000009
 11
-188.999987
 21
-101.00212400000009
  0
LINE
  5
325
100
AcDbEntity
  8
0
  6
CONTINUOUS
 62
             4
100
AcDbLine
 10
-176.999987
 20
-0.00135900000009
 11
-188.999987
 21
-0.00135900000009
  0
SOLID
  5
326
100
AcDbEntity
  8
0
 62
             4
100
AcDbTrace
 10
-185.02519953618906
 20
-15.00135900000009
 11
-188.97477446381095
 21
-15.00135900000009
 12
-186.999987
 22
-0.00135900000009
 13
-186.999987
 23
-0.00135900000009
  0
SOLID
  5
327
100
AcDbEntity
  8
0
 62
             4
100
AcDbTrace
 10
-188.97477446381095
 20
-86.00212400000009
 11
-185.02519953618906
 21
-86.00212400000009
 12
-186.999987
 22
-101.00212400000009
 13
-186.999987
 23
-101.00212400000009
  0
MTEXT
  5
329
100
AcDbEntity
  8
0
 62
             1
100
AcDbMText
 10
-188.999987
 20
-65.9100926241241
 30
0.0
 40
15.0
 41
0.0
 71
             7
 72
             1
  1
100
  7
CONVERTER_1
 11
0.0
 21
1.0
 31
0.0
  0
ENDBLK
  5
32A
100
AcDbEntity
  8
0
100
AcDbBlockEnd
  0
BLOCK
  5
32E
100
AcDbEntity
  8
0
100
AcDbBlockBegin
  2
*D51
 70
             1
 10
0.0
 20
0.0
 30
0.0
  3
*D51
  1

  0
LINE
  5
32F
100
AcDbEntity
  8
0
  6
CONTINUOUS
 62
             4
100
AcDbLine
 10
-176.999992999981
 20
99.0628396929679
 11
176.99999800000001
 21
99.0628396929679
  0
LINE
  5
330
100
AcDbEntity
  8
0
  6
CONTINUOUS
 62
             4
100
AcDbLine
 10
176.99999800000001
 20
0.00025099999989
 11
176.99999800000001
 21
101.0628396929679
  0
LINE
  5
331
100
AcDbEntity
  8
0
  6
CONTINUOUS
 62
             4
100
AcDbLine
 10
-176.999992999981
 20
0.9986403431669
 11
-176.999992999981
 21
101.0628396929679
  0
SOLID
  5
332
100
AcDbEntity
  8
0
 62
             4
100
AcDbTrace
 10
-161.999992999981
 20
101.03762715677884
 11
-161.999992999981
 21
97.08805222915696
 12
-176.999992999981
 22
99.0628396929679
 13
-176.999992999981
 23
99.0628396929679
  0
SOLID
  5
333
100
AcDbEntity
  8
0
 62
             4
100
AcDbTrace
 10
161.99999800000001
 20
97.08805222915697
 11
161.99999800000001
 21
101.03762715677884
 12
176.99999800000001
 22
99.0628396929679
 13
176.99999800000001
 23
99.0628396929679
  0
MTEXT
  5
334
100
AcDbEntity
  8
0
 62
             1
100
AcDbMText
 10
-23.04735814990466
 20
101.06280987692651
 30
0.0
 40
15.0
 41
0.0
 71
             7
 72
             1
  1
\C1;Ø\C1;354
  7
CONVERTER_1
 11
0.99999999999706
 21
0.00000242406841
 31
0.0
  0
ENDBLK
  5
335
100
AcDbEntity
  8
0
100
AcDbBlockEnd
  0
BLOCK
  5
339
100
AcDbEntity
  8
0
100
AcDbBlockBegin
  2
*D52
 70
             1
 10
0.0
 20
0.0
 30
0.0
  3
*D52
  1

  0
LINE
  5
33A
100
AcDbEntity
  8
0
  6
CONTINUOUS
 62
             4
100
AcDbLine
 10
-101.50000499999999
 20
-248.98021671318611
 11
101.50000800000001
 21
-248.98021671318611
  0
LINE
  5
33B
100
AcDbEntity
  8
0
  6
CONTINUOUS
 62
             4
100
AcDbLine
 10
101.50000800000001
 20
-23.7568820000001
 11
101.50000800000001
 21
-250.98021671318611
  0
LINE
  5
33C
100
AcDbEntity
  8
0
  6
CONTINUOUS
 62
             4
100
AcDbLine
 10
-101.50000499999999
 20
-23.7575180000002
 11
-101.50000499999999
 21
-250.98021671318611
  0
SOLID
  5
33D
100
AcDbEntity
  8
0
 62
             4
100
AcDbTrace
 10
-86.50000499999999
 20
-247.00542924937517
 11
-86.50000499999999
 21
-250.95500417699705
 12
-101.50000499999999
 22
-248.98021671318611
 13
-101.50000499999999
 23
-248.98021671318611
  0
SOLID
  5
33E
100
AcDbEntity
  8
0
 62
             4
100
AcDbTrace
 10
86.50000800000001
 20
-250.95500417699705
 11
86.50000800000001
 21
-247.00542924937517
 12
101.50000800000001
 22
-248.98021671318611
 13
101.50000800000001
 23
-248.98021671318611
  0
MTEXT
  5
33F
100
AcDbEntity
  8
0
 62
             1
100
AcDbMText
 10
-21.13503366415656
 20
-246.98024652922749
 30
0.0
 40
15.0
 41
0.0
 71
             7
 72
             1
  1
\C1;Ø\C1;203
  7
CONVERTER_1
 11
0.99999999999706
 21
0.00000242406841
 31
0.0
  0
ENDBLK
  5
340
100
AcDbEntity
  8
0
100
AcDbBlockEnd
  0
BLOCK
  5
344
100
AcDbEntity
  8
0
100
AcDbBlockBegin
  2
*D53
 70
             1
 10
0.0
 20
0.0
 30
0.0
  3
*D53
  1

  0
LINE
  5
345
100
AcDbEntity
  8
0
  6
CONTINUOUS
 62
             4
100
AcDbLine
 10
-80.50004399999999
 20
-219.33918718409009
 11
80.49995600000001
 21
-219.33918718409009
  0
LINE
  5
346
100
AcDbEntity
  8
0
  6
CONTINUOUS
 62
             4
100
AcDbLine
 10
80.49995600000001
 20
-93.00212400000009
 11
80.49995600000001
 21
-221.33918718409009
  0
LINE
  5
347
100
AcDbEntity
  8
0
  6
CONTINUOUS
 62
             4
100
AcDbLine
 10
-80.50004399999999
 20
-93.00212400000009
 11
-80.50004399999999
 21
-221.33918718409009
  0
SOLID
  5
348
100
AcDbEntity
  8
0
 62
             4
100
AcDbTrace
 10
-65.50004399999999
 20
-217.36439972027915
 11
-65.50004399999999
 21
-221.31397464790103
 12
-80.50004399999999
 22
-219.33918718409009
 13
-80.50004399999999
 23
-219.33918718409009
  0
SOLID
  5
349
100
AcDbEntity
  8
0
 62
             4
100
AcDbTrace
 10
65.49995600000001
 20
-221.31397464790103
 11
65.49995600000001
 21
-217.36439972027915
 12
80.49995600000001
 22
-219.33918718409009
 13
80.49995600000001
 23
-219.33918718409009
  0
MTEXT
  5
34A
100
AcDbEntity
  8
0
 62
             1
100
AcDbMText
 10
-17.92887142128256
 20
-217.33921700013147
 30
0.0
 40
15.0
 41
0.0
 71
             7
 72
             1
  1
\C1;Ø\C1;160
  7
CONVERTER_1
 11
0.99999999999706
 21
0.00000242406841
 31
0.0
  0
ENDBLK
  5
34B
100
AcDbEntity
  8
0
100
AcDbBlockEnd
  0
BLOCK
  5
34F
100
AcDbEntity
  8
0
100
AcDbBlockBegin
  2
*D54
 70
             1
 10
0.0
 20
0.0
 30
0.0
  3
*D54
  1

  0
LINE
  5
350
100
AcDbEntity
  8
0
  6
CONTINUOUS
 62
             4
100
AcDbLine
 10
-62.49999999999999
 20
-186.8296709263731
 11
62.50000000000001
 21
-186.8296709263731
  0
LINE
  5
351
100
AcDbEntity
  8
0
  6
CONTINUOUS
 62
             4
100
AcDbLine
 10
62.50000000000001
 20
-153.50212400000009
 11
62.50000000000001
 21
-188.8296709263731
  0
LINE
  5
352
100
AcDbEntity
  8
0
  6
CONTINUOUS
 62
             4
100
AcDbLine
 10
-62.49999999999999
 20
-153.50212400000009
 11
-62.49999999999999
 21
-188.8296709263731
  0
SOLID
  5
353
100
AcDbEntity
  8
0
 62
             4
100
AcDbTrace
 10
-47.49999999999999
 20
-184.85488346256216
 11
-47.49999999999999
 21
-188.80445839018404
 12
-62.49999999999999
 22
-186.8296709263731
 13
-62.49999999999999
 23
-186.8296709263731
  0
SOLID
  5
354
100
AcDbEntity
  8
0
 62
             4
100
AcDbTrace
 10
47.50000000000001
 20
-188.80445839018404
 11
47.50000000000001
 21
-184.85488346256216
 12
62.50000000000001
 22
-186.8296709263731
 13
62.50000000000001
 23
-186.8296709263731
  0
MTEXT
  5
355
100
AcDbEntity
  8
0
 62
             1
100
AcDbMText
 10
-23.57505610691556
 20
-184.82973055845588
 30
0.0
 40
15.0
 41
0.0
 71
             7
 72
             1
  1
\C1;DN\C1;125
  7
CONVERTER_1
 11
0.99999999999706
 21
0.00000242406841
 31
0.0
  0
ENDBLK
  5
356
100
AcDbEntity
  8
0
100
AcDbBlockEnd
  0
ENDSEC
  0
SECTION
  2
ENTITIES
  0
DIMENSION
  5
358
100
AcDbEntity
  8
1
100
AcDbDimension
  2
*D54
 10
-62.49999999999999
 20
-186.8296709263731
 11
0.27494389301216
 21
-177.3296709263731
 31
0.0
 53
180.0
  1
<>
  3
ME10_DIM_4
100
AcDbAlignedDimension
 13
62.5
 23
-153.50212400000009
 14
-62.5
 24
-153.50212400000009
 50
180.0
100
AcDbRotatedDimension
  0
DIMENSION
  5
34D
100
AcDbEntity
  8
1
100
AcDbDimension
  2
*D53
 10
-80.50004399999999
 20
-219.33918718409009
 11
1.1211285786813
 21
-209.83918718409009
 31
0.0
 53
180.0
  1
Ø160
  3
ME10_DIM_3
100
AcDbAlignedDimension
 13
80.499956
 23
-93.00212400000009
 14
-80.500044
 24
-93.00212400000009
 50
180.0
100
AcDbRotatedDimension
  0
DIMENSION
  5
342
100
AcDbEntity
  8
1
100
AcDbDimension
  2
*D52
 10
-101.50000499999999
 20
-248.98021671318611
 11
0.1649663358073
 21
-239.48021671318611
 31
0.0
 53
180.0
  1
<>
  3
ME10_DIM_2
100
AcDbAlignedDimension
 13
101.50000799999999
 23
-23.75688200000002
 14
-101.500005
 24
-23.75751800000012
 50
180.0
100
AcDbRotatedDimension
  0
DIMENSION
  5
337
100
AcDbEntity
  8
1
100
AcDbDimension
  2
*D51
 10
-176.999992999981
 20
99.0628396929679
 11
-1.7473581499408
 21
108.5628396929679
 31
0.0
 53
180.0
  1
<>
  3
ME10_DIM_1
100
AcDbAlignedDimension
 13
176.99999800000001
 23
0.00025099999993
 14
-176.999992999981
 24
0.99864034316693
 50
180.0
100
AcDbRotatedDimension
  0
DIMENSION
  5
32C
100
AcDbEntity
  8
1
100
AcDbDimension
  2
*D50
 10
-186.999987
 20
-0.00135900000009
 11
-196.499987
 21
-50.1600926241241
 31
0.0
 53
90.0
  1
100
  3
ME10_DIM_0
100
AcDbAlignedDimension
 13
-72.500044
 23
-101.00212400000009
 14
-176.999987
 24
-0.00135900000009
 50
90.0
100
AcDbRotatedDimension
  0
INSERT
  5
C1
100
AcDbEntity
  8
1
100
AcDbBlockReference
  2
062_1E_LAUBFANGKORB
 10
-79.44585800000002
 20
-157.00212400000009
  0
INSERT
  5
C2
100
AcDbEntity
  8
0
100
AcDbBlockReference
  2
HL_62_1_7_DACHABLAUF
 10
29.8699440028038
 20
399.90174184251902
  0
ENDSEC
  0
SECTION
  2
OBJECTS
  0
DICTIONARY
  5
19
100
AcDbDictionary
  3
ACAD_GROUP
350
1A
  3
ACAD_MLINESTYLE
350
1B
  0
DICTIONARY
  5
1A
102
{ACAD_REACTORS
330
19
102
}
100
AcDbDictionary
  0
DICTIONARY
  5
1B
102
{ACAD_REACTORS
330
19
102
}
100
AcDbDictionary
  3
STANDARD
350
1C
  0
MLINESTYLE
  5
1C
102
{ACAD_REACTORS
330
1B
102
}
100
AcDbMlineStyle
  2
STANDARD
 70
             0
  3

 62
             0
 51
90.0
 52
90.0
 71
             2
 49
0.5
 62
           256
  6
BYLAYER
 49
-0.5
 62
           256
  6
BYLAYER
  0
ENDSEC
  0
EOF
