  0
SECTION
  2
HEADER
  9
$ACADVER
  1
AC1014
  9
$ACADMAINTVER
 70
             0
  9
$DWGCODEPAGE
  3
ANSI_1252
  9
$INSBASE
 10
0.0
 20
0.0
 30
0.0
  9
$EXTMIN
 10
-204.00003424531789
 20
-225.29793442151899
 30
0.0
  9
$EXTMAX
 10
176.9999880907433
 20
113.833934582438
 30
0.0
  9
$LIMMIN
 10
0.0
 20
0.0
  9
$LIMMAX
 10
0.0
 20
0.0
  9
$ORTHOMODE
 70
             0
  9
$REGENMODE
 70
             1
  9
$FILLMODE
 70
             1
  9
$QTEXTMODE
 70
             0
  9
$MIRRTEXT
 70
             1
  9
$DRAGMODE
 70
             2
  9
$LTSCALE
 40
1.0
  9
$OSMODE
 70
             0
  9
$ATTMODE
 70
             1
  9
$TEXTSIZE
 40
0.2
  9
$TRACEWID
 40
0.05
  9
$TEXTSTYLE
  7
STANDARD
  9
$CLAYER
  8
0
  9
$CELTYPE
  6
CONTINUOUS
  9
$CECOLOR
 62
           256
  9
$CELTSCALE
 40
1.0
  9
$DELOBJ
 70
             1
  9
$DISPSILH
 70
             0
  9
$DIMSCALE
 40
1.0
  9
$DIMASZ
 40
0.18
  9
$DIMEXO
 40
0.0625
  9
$DIMDLI
 40
0.38
  9
$DIMRND
 40
0.0
  9
$DIMDLE
 40
0.0
  9
$DIMEXE
 40
0.18
  9
$DIMTP
 40
0.0
  9
$DIMTM
 40
0.0
  9
$DIMTXT
 40
0.18
  9
$DIMCEN
 40
0.09
  9
$DIMTSZ
 40
0.0
  9
$DIMTOL
 70
             0
  9
$DIMLIM
 70
             0
  9
$DIMTIH
 70
             1
  9
$DIMTOH
 70
             1
  9
$DIMSE1
 70
             0
  9
$DIMSE2
 70
             0
  9
$DIMTAD
 70
             0
  9
$DIMZIN
 70
             0
  9
$DIMBLK
  1

  9
$DIMASO
 70
             1
  9
$DIMSHO
 70
             1
  9
$DIMPOST
  1

  9
$DIMAPOST
  1

  9
$DIMALT
 70
             0
  9
$DIMALTD
 70
             2
  9
$DIMALTF
 40
25.4
  9
$DIMLFAC
 40
1.0
  9
$DIMTOFL
 70
             0
  9
$DIMTVP
 40
0.0
  9
$DIMTIX
 70
             0
  9
$DIMSOXD
 70
             0
  9
$DIMSAH
 70
             0
  9
$DIMBLK1
  1

  9
$DIMBLK2
  1

  9
$DIMSTYLE
  2
STANDARD
  9
$DIMCLRD
 70
             0
  9
$DIMCLRE
 70
             0
  9
$DIMCLRT
 70
             0
  9
$DIMTFAC
 40
1.0
  9
$DIMGAP
 40
0.09
  9
$DIMJUST
 70
             0
  9
$DIMSD1
 70
             0
  9
$DIMSD2
 70
             0
  9
$DIMTOLJ
 70
             1
  9
$DIMTZIN
 70
             0
  9
$DIMALTZ
 70
             0
  9
$DIMALTTZ
 70
             0
  9
$DIMFIT
 70
             3
  9
$DIMUPT
 70
             0
  9
$DIMUNIT
 70
             2
  9
$DIMDEC
 70
             4
  9
$DIMTDEC
 70
             4
  9
$DIMALTU
 70
             2
  9
$DIMALTTD
 70
             2
  9
$DIMTXSTY
  7
STANDARD
  9
$DIMAUNIT
 70
             0
  9
$LUNITS
 70
             2
  9
$LUPREC
 70
             4
  9
$SKETCHINC
 40
0.1
  9
$FILLETRAD
 40
0.0
  9
$AUNITS
 70
             0
  9
$AUPREC
 70
             0
  9
$MENU
  1
acad
  9
$ELEVATION
 40
0.0
  9
$PELEVATION
 40
0.0
  9
$THICKNESS
 40
0.0
  9
$LIMCHECK
 70
             0
  9
$BLIPMODE
 70
             1
  9
$CHAMFERA
 40
0.0
  9
$CHAMFERB
 40
0.0
  9
$CHAMFERC
 40
0.0
  9
$CHAMFERD
 40
0.0
  9
$SKPOLY
 70
             0
  9
$TDCREATE
 40
0.000000000
  9
$TDUPDATE
 40
0.000000000
  9
$TDINDWG
 40
0.0000000000
  9
$TDUSRTIMER
 40
0.0000000000
  9
$USRTIMER
 70
             1
  9
$ANGBASE
 50
0.0
  9
$ANGDIR
 70
             0
  9
$PDMODE
 70
             0
  9
$PDSIZE
 40
0.0
  9
$PLINEWID
 40
0.0
  9
$COORDS
 70
             0
  9
$SPLFRAME
 70
             0
  9
$SPLINETYPE
 70
             6
  9
$SPLINESEGS
 70
             8
  9
$ATTDIA
 70
             0
  9
$ATTREQ
 70
             1
  9
$HANDLING
 70
             1
  9
$HANDSEED
  5
252
  9
$SURFTAB1
 70
             6
  9
$SURFTAB2
 70
             6
  9
$SURFTYPE
 70
             6
  9
$SURFU
 70
             6
  9
$SURFV
 70
             6
  9
$UCSNAME
  2

  9
$UCSORG
 10
0.0
 20
0.0
 30
0.0
  9
$UCSXDIR
 10
1.0
 20
0.0
 30
0.0
  9
$UCSYDIR
 10
0.0
 20
1.0
 30
0.0
  9
$PUCSNAME
  2

  9
$PUCSORG
 10
0.0
 20
0.0
 30
0.0
  9
$PUCSXDIR
 10
1.0
 20
0.0
 30
0.0
  9
$PUCSYDIR
 10
0.0
 20
1.0
 30
0.0
  9
$USERI1
 70
             0
  9
$USERI2
 70
             0
  9
$USERI3
 70
             0
  9
$USERI4
 70
             0
  9
$USERI5
 70
             0
  9
$USERR1
 40
12.01
  9
$USERR2
 40
0.0
  9
$USERR3
 40
0.0
  9
$USERR4
 40
0.0
  9
$USERR5
 40
0.0
  9
$WORLDVIEW
 70
             1
  9
$SHADEDGE
 70
             3
  9
$SHADEDIF
 70
            70
  9
$TILEMODE
 70
             1
  9
$MAXACTVP
 70
            16
  9
$PINSBASE
 10
0.0
 20
0.0
 30
0.0
  9
$PLIMCHECK
 70
             0
  9
$PEXTMIN
 10
1.00000000000000E+20
 20
1.00000000000000E+20
 30
1.00000000000000E+20
  9
$PEXTMAX
 10
-1.00000000000000E+20
 20
-1.00000000000000E+20
 30
-1.00000000000000E+20
  9
$PLIMMIN
 10
0.0
 20
0.0
  9
$PLIMMAX
 10
12.0
 20
9.0
  9
$UNITMODE
 70
             0
  9
$VISRETAIN
 70
             0
  9
$PLINEGEN
 70
             1
  9
$PSLTSCALE
 70
             0
  9
$TREEDEPTH
 70
          3020
  9
$PICKSTYLE
 70
             1
  9
$CMLSTYLE
  2
STANDARD
  9
$CMLJUST
 70
             0
  9
$CMLSCALE
 40
1.0
  9
$PROXYGRAPHICS
 70
             0
  9
$MEASUREMENT
 70
             1
  0
ENDSEC
  0
SECTION
  2
CLASSES
  0
CLASS
  1
LWPOLYLINE
  2
AcDbPolyline
  3
"AutoCAD"
 90
        0
280
             0
281
             1
  0
CLASS
  1
IMAGE
  2
AcDbRasterImage
  3
ISM
 90
      127
280
             0
281
             1
  0
CLASS
  1
OLE2FRAME
  2
AcDbOle2Frame
  3
""
 90
        0
280
             0
281
             1
  0
CLASS
  1
HATCH
  2
AcDbHatch
  3
"ACAD_SEDONA"
 90
        0
280
             0
281
             1
  0
CLASS
  1
DICTIONARYVAR
  2
AcDbDictionaryVar
  3
"AutoCAD"
 90
        0
280
             0
281
             0
  0
CLASS
  1
RASTERVARIABLES
  2
AcDbRasterVariables
  3
ISM
 90
        0
280
             0
281
             0
  0
CLASS
  1
IMAGEDEF
  2
AcDbRasterImageDef
  3
ISM
 90
        0
280
             0
281
             0
  0
CLASS
  1
IMAGEDEF_REACTOR
  2
AcDbRasterImageDefReactor
  3
ISM
 90
        1
280
             0
281
             0
  0
CLASS
  1
IDBUFFER
  2
AcDbIdBuffer
  3
"Acad"
 90
        0
280
             0
281
             0
  0
CLASS
  1
SPATIAL_FILTER
  2
AcDbSpatialFilter
  3
"Acad"
 90
        0
280
             0
281
             0
  0
CLASS
  1
XRECORD
  2
AcDbXrecord
  3
"<Built In>"
 90
        0
280
             0
281
             0
  0
CLASS
  1
SORTENTSTABLE
  2
AcDbSortentsTable
  3
"AutoCAD"
 90
        0
280
             0
281
             0
  0
CLASS
  1
LAYER_INDEX
  2
AcDbLayerIndex
  3
"Acad"
 90
        0
280
             0
281
             0
  0
CLASS
  1
SPATIAL_INDEX
  2
AcDbSpatialIndex
  3
"Acad"
 90
        0
280
             0
281
             0
  0
CLASS
  1
OBJECT_PTR
  2
CAseDLPNTableRecord
  3
"ASE-LPNTableRecord"
 90
        1
280
             0
281
             0
  0
CLASS
  1
LAYOUT
  2
AcDbLayout
  3
"AutoCAD 2000"
 90
        0
280
             0
281
             0
  0
CLASS
  1
PLOTSETTINGS
  2
AcDbPlotSettings
  3
"AutoCAD 2000"
 90
        0
280
             0
281
             0
  0
CLASS
  1
ACDBDICTIONARYWDFLT
  2
AcDbDictionaryWithDefault
  3
"AutoCAD 2000"
 90
        0
280
             0
281
             0
  0
CLASS
  1
ACDBPLACEHOLDER
  2
AcDbPlaceHolder
  3
"AutoCAD 2000"
 90
        0
280
             0
281
             0
  0
ENDSEC
  0
SECTION
  2
TABLES
  0
TABLE
  2
VPORT
  5
7
100
AcDbSymbolTable
 70
             1
  0
VPORT
  5
15
100
AcDbSymbolTableRecord
100
AcDbViewportTableRecord
  2
*ACTIVE
 70
             0
 10
0.0
 20
0.0
 11
1.0
 21
1.0
 12
-13.5000230772873
 22
-55.73199991954049
 13
0.0
 23
0.0
 14
1.0
 24
1.0
 15
0.0
 25
0.0
 16
0.0
 26
0.0
 36
1.0
 17
0.0
 27
0.0
 37
0.0
 40
373.04505590435269
 41
1.60267857142857
 42
50.0
 43
0.0
 44
0.0
 50
0.0
 51
0.0
 71
             0
 72
           100
 73
             1
 74
             1
 75
             0
 76
             0
 77
             0
 78
             0
  0
ENDTAB
  0
TABLE
  2
LTYPE
  5
4
100
AcDbSymbolTable
 70
            11
  0
LTYPE
  5
11
100
AcDbSymbolTableRecord
100
AcDbLinetypeTableRecord
  2
BYBLOCK
 70
            64
  3

 72
            65
 73
             0
 40
0.0
  0
LTYPE
  5
12
100
AcDbSymbolTableRecord
100
AcDbLinetypeTableRecord
  2
BYLAYER
 70
            64
  3

 72
            65
 73
             0
 40
0.0
  0
LTYPE
  5
13
100
AcDbSymbolTableRecord
100
AcDbLinetypeTableRecord
  2
CONTINUOUS
 70
            64
  3
Solid line
 72
            65
 73
             0
 40
0.0
  0
LTYPE
  5
1D
100
AcDbSymbolTableRecord
100
AcDbLinetypeTableRecord
  2
DASHED
 70
            64
  3
Dashed
 72
            65
 73
             2
 40
15.0
 49
7.0
 74
             0
 49
-8.0
 74
             0
  0
LTYPE
  5
1E
100
AcDbSymbolTableRecord
100
AcDbLinetypeTableRecord
  2
DOTTED
 70
            64
  3
Dotted
 72
            65
 73
             2
 40
1.0
 49
0.0
 74
             0
 49
-1.0
 74
             0
  0
LTYPE
  5
1F
100
AcDbSymbolTableRecord
100
AcDbLinetypeTableRecord
  2
DOT_CENTER
 70
            64
  3
Dot_Center
 72
            65
 73
             4
 40
14.0
 49
12.0
 74
             0
 49
-1.0
 74
             0
 49
0.0
 74
             0
 49
-1.0
 74
             0
  0
LTYPE
  5
20
100
AcDbSymbolTableRecord
100
AcDbLinetypeTableRecord
  2
LONG_DASHED
 70
            64
  3
Long_Dashed
 72
            65
 73
             2
 40
15.0
 49
10.0
 74
             0
 49
-5.0
 74
             0
  0
LTYPE
  5
21
100
AcDbSymbolTableRecord
100
AcDbLinetypeTableRecord
  2
DASH_CENTER
 70
            64
  3
Dash_Center
 72
            65
 73
             4
 40
14.0
 49
11.0
 74
             0
 49
-1.0
 74
             0
 49
1.0
 74
             0
 49
-1.0
 74
             0
  0
LTYPE
  5
22
100
AcDbSymbolTableRecord
100
AcDbLinetypeTableRecord
  2
PHANTOM
 70
            64
  3
Phantom
 72
            65
 73
             6
 40
13.0
 49
10.0
 74
             0
 49
-1.0
 74
             0
 49
0.0
 74
             0
 49
-1.0
 74
             0
 49
0.0
 74
             0
 49
-1.0
 74
             0
  0
LTYPE
  5
23
100
AcDbSymbolTableRecord
100
AcDbLinetypeTableRecord
  2
CENTER_DASH_DASH
 70
            64
  3
Center_Dash_Dash
 72
            65
 73
             6
 40
14.0
 49
9.0
 74
             0
 49
-1.0
 74
             0
 49
1.0
 74
             0
 49
-1.0
 74
             0
 49
1.0
 74
             0
 49
-1.0
 74
             0
  0
LTYPE
  5
24
100
AcDbSymbolTableRecord
100
AcDbLinetypeTableRecord
  2
DASHDOT
 70
            64
  3
DASHDOT
 72
            65
 73
             4
 40
16.0
 49
10.0
 74
             0
 49
-3.0
 74
             0
 49
0.0
 74
             0
 49
-3.0
 74
             0
  0
ENDTAB
  0
TABLE
  2
LAYER
  5
2
100
AcDbSymbolTable
 70
             8
  0
LAYER
  5
14
100
AcDbSymbolTableRecord
100
AcDbLayerTableRecord
  2
0
 70
             0
 62
             7
  6
CONTINUOUS
  0
LAYER
  5
25
100
AcDbSymbolTableRecord
100
AcDbLayerTableRecord
  2
1
 70
             0
 62
             7
  6
CONTINUOUS
  0
LAYER
  5
26
100
AcDbSymbolTableRecord
100
AcDbLayerTableRecord
  2
LC-001-002-----0
 70
             0
 62
             7
  6
CONTINUOUS
  0
LAYER
  5
27
100
AcDbSymbolTableRecord
100
AcDbLayerTableRecord
  2
LC-002-002-RND-0
 70
             0
 62
             7
  6
CONTINUOUS
  0
LAYER
  5
28
100
AcDbSymbolTableRecord
100
AcDbLayerTableRecord
  2
LC-004-005-----0
 70
             0
 62
             7
  6
CONTINUOUS
  0
LAYER
  5
29
100
AcDbSymbolTableRecord
100
AcDbLayerTableRecord
  2
LC-006-003-----0
 70
             0
 62
             7
  6
CONTINUOUS
  0
LAYER
  5
2A
100
AcDbSymbolTableRecord
100
AcDbLayerTableRecord
  2
LC-007-005-----0
 70
             0
 62
             7
  6
CONTINUOUS
  0
LAYER
  5
2B
100
AcDbSymbolTableRecord
100
AcDbLayerTableRecord
  2
LC-009-006-MLN-0
 70
             0
 62
             7
  6
CONTINUOUS
  0
ENDTAB
  0
TABLE
  2
STYLE
  5
3
100
AcDbSymbolTable
 70
             2
  0
STYLE
  5
17
100
AcDbSymbolTableRecord
100
AcDbTextStyleTableRecord
  2
STANDARD
 70
             0
 40
0.0
 41
1.0
 50
0.0
 71
             0
 42
0.0
  3
txt
  4

  0
STYLE
  5
22B
100
AcDbSymbolTableRecord
100
AcDbTextStyleTableRecord
  2
CONVERTER_1
 70
             0
 40
0.0
 41
0.9
 50
0.0
 71
             0
 42
0.0
  3
txt.shx
  4

  0
ENDTAB
  0
TABLE
  2
VIEW
  5
5
100
AcDbSymbolTable
 70
             0
  0
ENDTAB
  0
TABLE
  2
UCS
  5
6
100
AcDbSymbolTable
 70
             0
  0
ENDTAB
  0
TABLE
  2
APPID
  5
8
100
AcDbSymbolTable
 70
             1
  0
APPID
  5
16
100
AcDbSymbolTableRecord
100
AcDbRegAppTableRecord
  2
ACAD
 70
             0
  0
ENDTAB
  0
TABLE
  2
DIMSTYLE
  5
9
100
AcDbSymbolTable
 70
             5
  0
DIMSTYLE
105
18
100
AcDbSymbolTableRecord
100
AcDbDimStyleTableRecord
  2
STANDARD
 70
             0
  3

  4

  5

  6

  7

 40
1.0
 41
0.18
 42
0.0625
 43
0.38
 44
0.18
 45
0.0
 46
0.0
 47
0.0
 48
0.0
 71
             0
 72
             0
 73
             1
 74
             1
 75
             0
 76
             0
 77
             0
 78
             0
140
0.18
141
0.09
142
0.0
143
25.4
144
1.0
145
0.0
146
1.0
147
0.09
170
             0
171
             2
172
             0
173
             0
174
             0
175
             0
176
             0
177
             0
178
             0
270
             2
271
             4
272
             4
273
             2
274
             2
275
             0
280
             0
281
             0
282
             0
283
             1
284
             0
285
             0
286
             0
287
             3
288
             0
340
17
  0
DIMSTYLE
105
22E
100
AcDbSymbolTableRecord
100
AcDbDimStyleTableRecord
  2
ME10_DIM_0
 70
             0
  3
Ø<>
  4

  5

  6

  7

 40
1.0
 41
15.0
 42
0.0
 43
0.38
 44
2.0
 45
0.0
 46
0.0
 47
0.0
 48
0.0
 71
             0
 72
             0
 73
             0
 74
             0
 75
             0
 76
             0
 77
             1
 78
             8
140
15.0
141
0.09
142
0.0
143
25.4
144
1.0
145
0.0
146
1.0
147
0.625
170
             0
171
             2
172
             1
173
             1
174
             0
175
             0
176
             4
177
             4
178
             1
270
             2
271
             2
272
             4
273
             2
274
             2
275
             0
280
             0
281
             0
282
             0
283
             1
284
             0
285
             0
286
             0
287
             3
288
             0
340
22B
  0
DIMSTYLE
105
239
100
AcDbSymbolTableRecord
100
AcDbDimStyleTableRecord
  2
ME10_DIM_1
 70
             0
  3
DN<>
  4

  5

  6

  7

 40
1.0
 41
15.0
 42
0.0
 43
0.38
 44
2.0
 45
0.0
 46
0.0
 47
0.0
 48
0.0
 71
             0
 72
             0
 73
             0
 74
             0
 75
             0
 76
             0
 77
             1
 78
             8
140
15.0
141
0.09
142
0.0
143
25.4
144
1.0
145
0.0
146
1.0
147
0.625
170
             0
171
             2
172
             1
173
             1
174
             0
175
             0
176
             4
177
             4
178
             1
270
             2
271
             2
272
             4
273
             2
274
             2
275
             0
280
             0
281
             0
282
             0
283
             1
284
             0
285
             0
286
             0
287
             3
288
             0
340
22B
  0
DIMSTYLE
105
244
100
AcDbSymbolTableRecord
100
AcDbDimStyleTableRecord
  2
ME10_DIM_2
 70
             0
  3
Ø<>
  4

  5

  6

  7

 40
1.0
 41
15.0
 42
0.0
 43
0.38
 44
2.0
 45
0.0
 46
0.0
 47
0.0
 48
0.0
 71
             0
 72
             0
 73
             0
 74
             0
 75
             0
 76
             0
 77
             1
 78
             8
140
15.0
141
0.09
142
0.0
143
25.4
144
1.0
145
0.0
146
1.0
147
0.625
170
             0
171
             2
172
             1
173
             1
174
             0
175
             0
176
             4
177
             4
178
             1
270
             2
271
             2
272
             4
273
             2
274
             2
275
             0
280
             0
281
             0
282
             0
283
             1
284
             0
285
             0
286
             0
287
             3
288
             0
340
22B
  0
DIMSTYLE
105
24F
100
AcDbSymbolTableRecord
100
AcDbDimStyleTableRecord
  2
ME10_DIM_3
 70
             0
  3

  4

  5

  6

  7

 40
1.0
 41
15.0
 42
0.0
 43
0.38
 44
2.0
 45
0.0
 46
0.0
 47
0.0
 48
0.0
 71
             0
 72
             0
 73
             0
 74
             0
 75
             0
 76
             0
 77
             1
 78
             8
140
15.0
141
0.09
142
0.0
143
25.4
144
1.0
145
0.0
146
1.0
147
0.625
170
             0
171
             2
172
             1
173
             1
174
             0
175
             0
176
             4
177
             4
178
             1
270
             2
271
             2
272
             4
273
             2
274
             2
275
             0
280
             0
281
             0
282
             0
283
             1
284
             0
285
             0
286
             0
287
             3
288
             0
340
22B
  0
ENDTAB
  0
TABLE
  2
BLOCK_RECORD
  5
1
100
AcDbSymbolTable
 70
             6
  0
BLOCK_RECORD
  5
A
100
AcDbSymbolTableRecord
100
AcDbBlockTableRecord
  2
*MODEL_SPACE
  0
BLOCK_RECORD
  5
B
100
AcDbSymbolTableRecord
100
AcDbBlockTableRecord
  2
*PAPER_SPACE
  0
BLOCK_RECORD
  5
2C
100
AcDbSymbolTableRecord
100
AcDbBlockTableRecord
  2
062_1E_LAUBFANGKORB
  0
BLOCK_RECORD
  5
2E
100
AcDbSymbolTableRecord
100
AcDbBlockTableRecord
  2
K_RPER
  0
BLOCK_RECORD
  5
224
100
AcDbSymbolTableRecord
100
AcDbBlockTableRecord
  2
*D2
  0
BLOCK_RECORD
  5
230
100
AcDbSymbolTableRecord
100
AcDbBlockTableRecord
  2
*D3
  0
BLOCK_RECORD
  5
23B
100
AcDbSymbolTableRecord
100
AcDbBlockTableRecord
  2
*D4
  0
BLOCK_RECORD
  5
246
100
AcDbSymbolTableRecord
100
AcDbBlockTableRecord
  2
*D5
  0
ENDTAB
  0
ENDSEC
  0
SECTION
  2
BLOCKS
  0
BLOCK
  5
D
100
AcDbEntity
  8
0
100
AcDbBlockBegin
  2
*MODEL_SPACE
 70
             0
 10
0.0
 20
0.0
 30
0.0
  3
*MODEL_SPACE
  1

  0
ENDBLK
  5
E
100
AcDbEntity
  8
0
100
AcDbBlockEnd
  0
BLOCK
  5
F
100
AcDbEntity
 67
             1
  8
0
100
AcDbBlockBegin
  2
*PAPER_SPACE
 70
             0
 10
0.0
 20
0.0
 30
0.0
  3
*PAPER_SPACE
  1

  0
ENDBLK
  5
10
100
AcDbEntity
 67
             1
  8
0
100
AcDbBlockEnd
  0
BLOCK
  5
2D
100
AcDbEntity
  8
0
100
AcDbBlockBegin
  2
062_1E_LAUBFANGKORB
 70
             0
 10
-79.44585800000002
 20
-157.00212400000009
 30
0.0
  3
062_1E_LAUBFANGKORB
  1

  0
ARC
  5
83
100
AcDbEntity
  8
LC-002-002-RND-0
  6
CONTINUOUS
 62
             7
100
AcDbCircle
 10
48.4485039714404
 20
57.66188911411047
 40
14.99999999999986
100
AcDbArc
 50
20.00015699999858
 51
90.00007899999973
  0
ARC
  5
82
100
AcDbEntity
  8
LC-002-002-RND-0
  6
CONTINUOUS
 62
             7
100
AcDbCircle
 10
-48.44870702855958
 20
57.66175611411046
 40
15.00000000000016
100
AcDbArc
 50
90.00007899999989
 51
160.00000000000014
  0
LINE
  5
81
100
AcDbEntity
  8
LC-001-002-----0
  6
CONTINUOUS
 62
             7
100
AcDbLine
 10
-35.10312902855959
 20
2.99967111411041
 11
-33.7012640285596
 21
9.57602711411045
  0
LINE
  5
80
100
AcDbEntity
  8
LC-001-002-----0
  6
CONTINUOUS
 62
             7
100
AcDbLine
 10
-58.50061002855956
 20
2.99958411411041
 11
-57.30311402855956
 21
6.24292611411039
  0
LINE
  5
7F
100
AcDbEntity
  8
LC-001-002-----0
  6
CONTINUOUS
 62
             7
100
AcDbLine
 10
-59.65061202855959
 20
2.99958011411041
 11
-58.10701602855955
 21
7.18031011411045
  0
LINE
  5
7E
100
AcDbEntity
  8
LC-001-002-----0
  6
CONTINUOUS
 62
             7
100
AcDbLine
 10
-65.59267802855955
 20
2.99955811411047
 11
-61.96332402855956
 21
11.81277811411047
  0
LINE
  5
7D
100
AcDbEntity
  8
LC-001-002-----0
  6
CONTINUOUS
 62
             7
100
AcDbLine
 10
-66.18796302855959
 20
2.99955611411048
 11
-62.26276102855957
 21
12.53118811411042
  0
LINE
  5
7C
100
AcDbEntity
  8
LC-001-002-----0
  6
CONTINUOUS
 62
             7
100
AcDbLine
 10
66.1877829714404
 20
3.00004511411049
 11
62.26273397144046
 21
12.53122911411043
  0
LINE
  5
7B
100
AcDbEntity
  8
LC-001-002-----0
  6
CONTINUOUS
 62
             7
100
AcDbLine
 10
65.59249897144041
 20
3.0000431141105
 11
61.96330297144043
 21
11.81281011411039
  0
LINE
  5
7A
100
AcDbEntity
  8
LC-001-002-----0
  6
CONTINUOUS
 62
             7
100
AcDbLine
 10
58.50045597144042
 20
3.00001711411045
 11
57.30375497144046
 21
6.24117711411037
  0
LINE
  5
79
100
AcDbEntity
  8
LC-001-002-----0
  6
CONTINUOUS
 62
             7
100
AcDbLine
 10
59.6504559714404
 20
3.00002111411044
 11
58.10765597144046
 21
7.17855911411044
  0
LINE
  5
78
100
AcDbEntity
  8
LC-001-002-----0
  6
CONTINUOUS
 62
             7
100
AcDbLine
 10
59.54262697144048
 20
17.69093011411047
 11
53.52661897144042
 21
32.29958611411036
  0
LINE
  5
77
100
AcDbEntity
  8
LC-001-002-----0
  6
CONTINUOUS
 62
             7
100
AcDbLine
 10
60.31292597144039
 20
17.26594211411049
 11
54.12190297144041
 21
32.29958811411035
  0
LINE
  5
76
100
AcDbEntity
  8
LC-001-002-----0
  6
CONTINUOUS
 62
             7
100
AcDbLine
 10
54.47727997144039
 20
17.01111511411051
 11
48.83247497144043
 21
32.2995731141105
  0
LINE
  5
75
100
AcDbEntity
  8
LC-001-002-----0
  6
CONTINUOUS
 62
             7
100
AcDbLine
 10
53.7165599714404
 20
15.95678011411047
 11
47.68247497144039
 21
32.2995701141104
  0
LINE
  5
74
100
AcDbEntity
  8
LC-001-002-----0
  6
CONTINUOUS
 62
             7
100
AcDbLine
 10
35.1030399714404
 20
2.99993011411044
 11
33.70120797144039
 21
9.57604711411051
  0
LINE
  5
73
100
AcDbEntity
  8
LC-001-002-----0
  6
CONTINUOUS
 62
             7
100
AcDbLine
 10
45.25032697144041
 20
15.59737711411043
 11
40.21516897144044
 21
32.29955011411045
  0
LINE
  5
72
100
AcDbEntity
  8
LC-001-002-----0
  6
CONTINUOUS
 62
             7
100
AcDbLine
 10
43.93025297144043
 20
14.55195611411051
 11
38.57059697144046
 21
32.29954511411046
  0
LINE
  5
71
100
AcDbEntity
  8
LC-001-002-----0
  6
CONTINUOUS
 62
             7
100
AcDbLine
 10
32.29156397144043
 20
16.18880711411049
 11
28.85723897144043
 21
32.29951911411041
  0
LINE
  5
70
100
AcDbEntity
  8
LC-001-002-----0
  6
CONTINUOUS
 62
             7
100
AcDbLine
 10
33.11118197144042
 20
2.99992311411046
 11
26.8653809714404
 21
32.29951311411043
  0
LINE
  5
6F
100
AcDbEntity
  8
LC-001-002-----0
  6
CONTINUOUS
 62
             7
100
AcDbLine
 10
18.76581397144042
 20
2.99987011411037
 11
15.53270997144045
 21
32.29948211411039
  0
LINE
  5
6E
100
AcDbEntity
  8
LC-001-002-----0
  6
CONTINUOUS
 62
             7
100
AcDbLine
 10
16.54418497144041
 20
2.9998611141105
 11
13.31108097144044
 21
32.29947611411041
  0
LINE
  5
6D
100
AcDbEntity
  8
LC-001-002-----0
  6
CONTINUOUS
 62
             7
100
AcDbLine
 10
1.14962497144045
 20
32.29944311411038
 11
1.14970497144042
 21
2.99980511411042
  0
LINE
  5
6C
100
AcDbEntity
  8
LC-001-002-----0
  6
CONTINUOUS
 62
             7
100
AcDbLine
 10
-1.14975902855958
 20
32.29943911411039
 11
-1.14975902855958
 21
2.99979611411044
  0
LINE
  5
6B
100
AcDbEntity
  8
LC-001-002-----0
  6
CONTINUOUS
 62
             7
100
AcDbLine
 10
-16.54424702855955
 20
2.99973911411035
 11
-13.31121502855957
 21
32.29943911411039
  0
LINE
  5
6A
100
AcDbEntity
  8
LC-001-002-----0
  6
CONTINUOUS
 62
             7
100
AcDbLine
 10
-18.76587802855955
 20
2.99973111411038
 11
-15.53284402855957
 21
32.29943911411039
  0
LINE
  5
69
100
AcDbEntity
  8
LC-001-002-----0
  6
CONTINUOUS
 62
             7
100
AcDbLine
 10
-33.11126902855956
 20
2.9996781141104
 11
-26.86551502855958
 21
32.29943911411039
  0
LINE
  5
68
100
AcDbEntity
  8
LC-001-002-----0
  6
CONTINUOUS
 62
             7
100
AcDbLine
 10
-32.30223302855956
 20
16.1390891141105
 11
-28.85737302855956
 21
32.29943911411039
  0
LINE
  5
67
100
AcDbEntity
  8
LC-001-002-----0
  6
CONTINUOUS
 62
             7
100
AcDbLine
 10
-43.93029202855957
 20
14.55198911411043
 11
-38.57073102855959
 21
32.29943911411039
  0
LINE
  5
66
100
AcDbEntity
  8
LC-001-002-----0
  6
CONTINUOUS
 62
             7
100
AcDbLine
 10
-45.25037802855957
 20
15.59737711411043
 11
-40.21530302855957
 21
32.29943911411039
  0
LINE
  5
65
100
AcDbEntity
  8
LC-001-002-----0
  6
CONTINUOUS
 62
             7
100
AcDbLine
 10
-53.7165970285596
 20
15.95677611411048
 11
-47.68260902855958
 21
32.29943911411039
  0
LINE
  5
64
100
AcDbEntity
  8
LC-001-002-----0
  6
CONTINUOUS
 62
             7
100
AcDbLine
 10
-54.47731702855959
 20
17.01111311411052
 11
-48.83260902855955
 21
32.29943911411039
  0
LINE
  5
63
100
AcDbEntity
  8
LC-001-002-----0
  6
CONTINUOUS
 62
             7
100
AcDbLine
 10
-60.31294602855957
 20
17.26595511411045
 11
-54.12203702855954
 21
32.29943911411039
  0
LINE
  5
62
100
AcDbEntity
  8
LC-001-002-----0
  6
CONTINUOUS
 62
             7
100
AcDbLine
 10
-59.5426510285596
 20
17.69093711411045
 11
-53.5267530285596
 21
32.29943911411039
  0
LINE
  5
61
100
AcDbEntity
  8
LC-001-002-----0
  6
CONTINUOUS
 62
             7
100
AcDbLine
 10
79.44586297144046
 20
16.35480711411043
 11
62.54387897144039
 21
62.7922291141104
  0
LINE
  5
60
100
AcDbEntity
  8
LC-001-002-----0
  6
CONTINUOUS
 62
             7
100
AcDbLine
 10
68.55678997144041
 20
3.00005411411035
 11
43.20174197144046
 21
72.66188111411049
  0
LINE
  5
5F
100
AcDbEntity
  8
LC-001-002-----0
  6
CONTINUOUS
 62
             7
100
AcDbLine
 10
-68.55696002855957
 20
2.99954711411038
 11
-43.20198702855959
 21
72.66176311411044
  0
LINE
  5
5E
100
AcDbEntity
  8
LC-001-002-----0
  6
CONTINUOUS
 62
             7
100
AcDbLine
 10
-79.44587702855957
 20
16.35479811411045
 11
-62.54409702855958
 21
62.79205811411049
  0
LINE
  5
5D
100
AcDbEntity
  8
LC-007-005-----0
  6
CONTINUOUS
 62
             2
100
AcDbLine
 10
-43.30196402855956
 20
72.38707811411047
 11
-43.02727902855958
 21
72.66176311411044
  0
LINE
  5
5C
100
AcDbEntity
  8
LC-007-005-----0
  6
CONTINUOUS
 62
             2
100
AcDbLine
 10
-56.25058202855957
 20
36.81104311411042
 11
-56.1957260285596
 21
36.86589911411039
  0
LINE
  5
5B
100
AcDbEntity
  8
LC-001-002-----0
  6
CONTINUOUS
 62
             7
100
AcDbLine
 10
15.01824097144043
 20
36.96179811411042
 11
12.71199797144043
 21
57.86184011411041
  0
LINE
  5
5A
100
AcDbEntity
  8
LC-001-002-----0
  6
CONTINUOUS
 62
             7
100
AcDbLine
 10
12.79661097144042
 20
36.96179211411044
 11
10.49036897144043
 21
57.86183711411042
  0
LINE
  5
59
100
AcDbEntity
  8
LC-001-002-----0
  6
CONTINUOUS
 62
             7
100
AcDbLine
 10
56.19557897144039
 20
36.96191111411036
 11
-0.00007302855961
 21
36.96175711411041
  0
LINE
  5
58
100
AcDbEntity
  8
LC-001-002-----0
  6
CONTINUOUS
 62
             7
100
AcDbLine
 10
48.58854497144039
 20
57.86188911411051
 11
-0.00010202855959
 21
57.86182211411045
  0
LINE
  5
57
100
AcDbEntity
  8
LC-001-002-----0
  6
CONTINUOUS
 62
             7
100
AcDbLine
 10
27.86337197144047
 20
36.96183311411045
 11
23.40810897144046
 21
57.86185411411049
  0
LINE
  5
56
100
AcDbEntity
  8
LC-001-002-----0
  6
CONTINUOUS
 62
             7
100
AcDbLine
 10
48.44848297144045
 20
72.66188911411047
 11
-0.0001220285596
 21
72.66182211411041
  0
LINE
  5
55
100
AcDbEntity
  8
LC-001-002-----0
  6
CONTINUOUS
 62
             7
100
AcDbLine
 10
38.8096339714404
 20
36.96186311411049
 11
32.50896597144043
 21
57.86186711411045
  0
LINE
  5
54
100
AcDbEntity
  8
LC-001-002-----0
  6
CONTINUOUS
 62
             7
100
AcDbLine
 10
57.89253697144039
 20
32.29959811411044
 11
56.19559097144036
 21
32.59881111411045
  0
LINE
  5
53
100
AcDbEntity
  8
LC-001-002-----0
  6
CONTINUOUS
 62
             7
100
AcDbLine
 10
37.16260897144041
 20
36.9618591141105
 11
30.85094297144041
 21
57.86186511411046
  0
LINE
  5
52
100
AcDbEntity
  8
LC-001-002-----0
  6
CONTINUOUS
 62
             7
100
AcDbLine
 10
56.19557897144039
 20
36.96191111411036
 11
56.19559097144036
 21
32.59881111411045
  0
LINE
  5
51
100
AcDbEntity
  8
LC-001-002-----0
  6
CONTINUOUS
 62
             7
100
AcDbLine
 10
1.1495549714404
 20
57.86182411411045
 11
1.14961197144043
 21
36.96176011411041
  0
LINE
  5
50
100
AcDbEntity
  8
LC-001-002-----0
  6
CONTINUOUS
 62
             7
100
AcDbLine
 10
-45.96120302855957
 20
36.96175711411041
 11
-38.24456502855959
 21
57.86177011411047
  0
LINE
  5
4F
100
AcDbEntity
  8
LC-001-002-----0
  6
CONTINUOUS
 62
             7
100
AcDbLine
 10
-47.11120202855955
 20
36.96175711411041
 11
-39.39456502855956
 21
57.86176811411048
  0
LINE
  5
4E
100
AcDbEntity
  8
LC-001-002-----0
  6
CONTINUOUS
 62
             7
100
AcDbLine
 10
-52.20205702855959
 20
36.96175711411041
 11
-43.5952680285596
 21
57.86176211411049
  0
LINE
  5
4D
100
AcDbEntity
  8
LC-001-002-----0
  6
CONTINUOUS
 62
             7
100
AcDbLine
 10
-51.60677402855959
 20
36.96175711411041
 11
-42.9999840285596
 21
57.86176311411037
  0
LINE
  5
4C
100
AcDbEntity
  8
LC-001-002-----0
  6
CONTINUOUS
 62
             7
100
AcDbLine
 10
51.60662697144038
 20
36.9618991141104
 11
42.99977997144043
 21
57.86188111411042
  0
LINE
  5
4B
100
AcDbEntity
  8
LC-001-002-----0
  6
CONTINUOUS
 62
             7
100
AcDbLine
 10
-12.79675802855957
 20
36.96175711411041
 11
-10.49057302855955
 21
57.86180811411037
  0
LINE
  5
4A
100
AcDbEntity
  8
LC-001-002-----0
  6
CONTINUOUS
 62
             7
100
AcDbLine
 10
-15.01838702855958
 20
36.96175711411041
 11
-12.71220202855955
 21
57.8618051141105
  0
LINE
  5
49
100
AcDbEntity
  8
LC-001-002-----0
  6
CONTINUOUS
 62
             7
100
AcDbLine
 10
-57.89267102855957
 20
32.29943911411039
 11
-0.00006702855956
 21
32.29943911411039
  0
LINE
  5
48
100
AcDbEntity
  8
LC-001-002-----0
  6
CONTINUOUS
 62
             7
100
AcDbLine
 10
-56.1957260285596
 20
36.96175711411041
 11
-0.00007302855961
 21
36.96175711411041
  0
LINE
  5
47
100
AcDbEntity
  8
LC-001-002-----0
  6
CONTINUOUS
 62
             7
100
AcDbLine
 10
-27.86351902855956
 20
36.96175711411041
 11
-23.40831302855958
 21
57.86179011411042
  0
LINE
  5
46
100
AcDbEntity
  8
LC-001-002-----0
  6
CONTINUOUS
 62
             7
100
AcDbLine
 10
-48.58874902855957
 20
57.86175611411051
 11
-0.00010202855959
 21
57.86182211411045
  0
LINE
  5
45
100
AcDbEntity
  8
LC-001-002-----0
  6
CONTINUOUS
 62
             7
100
AcDbLine
 10
-38.80978002855955
 20
36.96175711411041
 11
-32.5091700285596
 21
57.86177811411045
  0
LINE
  5
44
100
AcDbEntity
  8
LC-001-002-----0
  6
CONTINUOUS
 62
             7
100
AcDbLine
 10
-57.89267102855957
 20
32.29943911411039
 11
-56.1957260285596
 21
32.5986571141105
  0
LINE
  5
43
100
AcDbEntity
  8
LC-001-002-----0
  6
CONTINUOUS
 62
             7
100
AcDbLine
 10
-37.16275502855957
 20
36.96175711411041
 11
-30.85114702855959
 21
57.86178011411045
  0
LINE
  5
42
100
AcDbEntity
  8
LC-001-002-----0
  6
CONTINUOUS
 62
             7
100
AcDbLine
 10
-56.1957260285596
 20
36.96175711411041
 11
-56.1957260285596
 21
32.5986571141105
  0
LINE
  5
41
100
AcDbEntity
  8
LC-001-002-----0
  6
CONTINUOUS
 62
             7
100
AcDbLine
 10
-1.14975902855958
 20
57.86182111411046
 11
-1.14975902855958
 21
36.96175711411041
  0
LINE
  5
40
100
AcDbEntity
  8
LC-001-002-----0
  6
CONTINUOUS
 62
             7
100
AcDbLine
 10
52.20190997144044
 20
36.96190011411051
 11
43.59506397144042
 21
57.86188211411042
  0
LINE
  5
3F
100
AcDbEntity
  8
LC-001-002-----0
  6
CONTINUOUS
 62
             7
100
AcDbLine
 10
47.1110549714404
 20
36.96188611411043
 11
39.39436097144044
 21
57.86187611411043
  0
LINE
  5
3E
100
AcDbEntity
  8
LC-001-002-----0
  6
CONTINUOUS
 62
             7
100
AcDbLine
 10
45.96105597144042
 20
36.96188311411044
 11
38.24436097144046
 21
57.86187511411043
  0
LINE
  5
3D
100
AcDbEntity
  8
LC-001-002-----0
  6
CONTINUOUS
 62
             7
100
AcDbLine
 10
44.8396219714404
 20
68.16188011411038
 11
42.48675697144045
 21
68.57674711411045
  0
LINE
  5
3C
100
AcDbEntity
  8
LC-001-002-----0
  6
CONTINUOUS
 62
             7
100
AcDbLine
 10
42.48675697144045
 20
68.57674711411045
 11
40.99987797144041
 21
72.66187811411038
  0
LINE
  5
3B
100
AcDbEntity
  8
LC-001-002-----0
  6
CONTINUOUS
 62
             7
100
AcDbLine
 10
25.87151397144043
 20
36.96182811411046
 11
21.41625097144043
 21
57.86185211411049
  0
LINE
  5
3A
100
AcDbEntity
  8
LC-001-002-----0
  6
CONTINUOUS
 62
             7
100
AcDbLine
 10
-44.83985502855956
 20
68.16175711411046
 11
-42.48699002855955
 21
68.5766311141104
  0
LINE
  5
39
100
AcDbEntity
  8
LC-001-002-----0
  6
CONTINUOUS
 62
             7
100
AcDbLine
 10
-42.48699002855955
 20
68.5766311141104
 11
-41.0001220285596
 21
72.66176611411044
  0
LINE
  5
38
100
AcDbEntity
  8
LC-001-002-----0
  6
CONTINUOUS
 62
             7
100
AcDbLine
 10
-48.44872802855958
 20
72.66175611411046
 11
-0.0001220285596
 21
72.66182211411041
  0
LINE
  5
37
100
AcDbEntity
  8
LC-001-002-----0
  6
CONTINUOUS
 62
             7
100
AcDbLine
 10
-25.87166102855958
 20
36.96175711411041
 11
-21.41645502855955
 21
57.86179311411041
  0
LINE
  5
36
100
AcDbEntity
  8
LC-001-002-----0
  6
CONTINUOUS
 62
             7
100
AcDbLine
 10
57.89253697144039
 20
32.29959811411044
 11
-0.00006702855956
 21
32.29943911411039
  0
LINE
  5
35
100
AcDbEntity
  8
LC-001-002-----0
  6
CONTINUOUS
 62
             7
100
AcDbLine
 10
3.30523197144043
 20
57.86182711411044
 11
3.30519097144042
 21
72.6618271141104
  0
LINE
  5
34
100
AcDbEntity
  8
LC-001-002-----0
  6
CONTINUOUS
 62
             7
100
AcDbLine
 10
-3.30543602855961
 20
57.86181811411035
 11
-3.30543602855961
 21
72.66181811411042
  0
ENDBLK
  5
84
100
AcDbEntity
  8
0
100
AcDbBlockEnd
  0
BLOCK
  5
2F
100
AcDbEntity
  8
0
100
AcDbBlockBegin
  2
K_RPER
 70
             0
 10
281.42027148779101
 20
-157.0006941141105
 30
0.0
  3
K_RPER
  1

  0
ARC
  5
221
100
AcDbEntity
  8
LC-001-002-----0
  6
CONTINUOUS
 62
             1
100
AcDbCircle
 10
42.50039555472153
 20
-27.52219199999999
 40
2.95226099999982
100
AcDbArc
 50
-100.65913200000081
 51
-89.87794699999901
  0
ARC
  5
220
100
AcDbEntity
  8
LC-001-002-----0
  6
CONTINUOUS
 62
             1
100
AcDbCircle
 10
42.31841455472152
 20
-28.419746
 40
2.03657399999974
100
AcDbArc
 50
-114.12329800000111
 51
-100.29835499999717
  0
ARC
  5
21F
100
AcDbEntity
  8
LC-001-002-----0
  6
CONTINUOUS
 62
             1
100
AcDbCircle
 10
41.86435355472155
 20
-29.39920000000001
 40
0.9571860000003
100
AcDbArc
 50
-136.22724299997824
 51
-113.27906799999215
  0
ARC
  5
21E
100
AcDbEntity
  8
LC-001-002-----0
  6
CONTINUOUS
 62
             1
100
AcDbCircle
 10
41.44825955472157
 20
-29.79174799999998
 40
0.38518999999999
100
AcDbArc
 50
-177.98134400002073
 51
-135.57295599995911
  0
ARC
  5
21D
100
AcDbEntity
  8
LC-001-002-----0
  6
CONTINUOUS
 62
             1
100
AcDbCircle
 10
46.82900155472157
 20
-18.614057
 40
11.86047600000024
100
AcDbArc
 50
-94.95029400000007
 51
-89.49291699999994
  0
ARC
  5
21C
100
AcDbEntity
  8
LC-001-002-----0
  6
CONTINUOUS
 62
             1
100
AcDbCircle
 10
46.43243255472157
 20
-22.80130399999999
 40
7.65470200000031
100
AcDbArc
 50
-102.01392299999978
 51
-94.69755400000061
  0
ARC
  5
21B
100
AcDbEntity
  8
LC-001-002-----0
  6
CONTINUOUS
 62
             1
100
AcDbCircle
 10
45.34545455472158
 20
-27.68464800000001
 40
2.65247499999996
100
AcDbArc
 50
-115.90885200000179
 51
-101.00500199999858
  0
ARC
  5
21A
100
AcDbEntity
  8
LC-001-002-----0
  6
CONTINUOUS
 62
             1
100
AcDbCircle
 10
44.30458955472152
 20
-29.72561099999999
 40
0.36457399999988
100
AcDbArc
 50
-166.44766900004245
 51
-108.90288100001048
  0
ARC
  5
219
100
AcDbEntity
  8
LC-001-002-----0
  6
CONTINUOUS
 62
             1
100
AcDbCircle
 10
51.15232655472158
 20
-27.60241400000001
 40
2.87172799999991
100
AcDbArc
 50
-102.02150600000073
 51
-91.46325399999978
  0
ARC
  5
218
100
AcDbEntity
  8
LC-001-002-----0
  6
CONTINUOUS
 62
             1
100
AcDbCircle
 10
50.94383055472155
 20
-28.52528699999999
 40
1.92570500000021
100
AcDbArc
 50
-115.47058999999777
 51
-101.67310999999611
  0
ARC
  5
217
100
AcDbEntity
  8
LC-001-002-----0
  6
CONTINUOUS
 62
             1
100
AcDbCircle
 10
50.49426455472155
 20
-29.439671
 40
0.90694700000002
100
AcDbArc
 50
-137.53958799999671
 51
-114.6719370000021
  0
ARC
  5
216
100
AcDbEntity
  8
LC-001-002-----0
  6
CONTINUOUS
 62
             1
100
AcDbCircle
 10
50.10294255472154
 20
-29.79325
 40
0.37957099999996
100
AcDbArc
 50
-178.17769200000873
 51
-137.03796299995309
  0
ARC
  5
215
100
AcDbEntity
  8
LC-001-002-----0
  6
CONTINUOUS
 62
             1
100
AcDbCircle
 10
42.52606155472153
 20
-28.10834
 40
2.83334599999986
100
AcDbArc
 50
77.43149399999798
 51
87.83801299999942
  0
ARC
  5
214
100
AcDbEntity
  8
LC-001-002-----0
  6
CONTINUOUS
 62
             1
100
AcDbCircle
 10
42.74286455472156
 20
-27.18671599999999
 40
1.88666100000027
100
AcDbArc
 50
64.10448500000379
 51
77.76725400000264
  0
ARC
  5
213
100
AcDbEntity
  8
LC-001-002-----0
  6
CONTINUOUS
 62
             1
100
AcDbCircle
 10
43.18573955472157
 20
-26.301637
 40
0.89711299999993
100
AcDbArc
 50
42.3656699999992
 51
64.86230999999242
  0
ARC
  5
212
100
AcDbEntity
  8
LC-001-002-----0
  6
CONTINUOUS
 62
             1
100
AcDbCircle
 10
43.56855655472156
 20
-25.95682600000001
 40
0.38192399999994
100
AcDbArc
 50
2.84826999998604
 51
42.845391000059
  0
ARC
  5
211
100
AcDbEntity
  8
LC-001-002-----0
  6
CONTINUOUS
 62
             1
100
AcDbCircle
 10
46.86793255472156
 20
-36.63302999999999
 40
11.35831100000018
100
AcDbArc
 50
84.04882199999997
 51
89.4348820000002
  0
ARC
  5
210
100
AcDbEntity
  8
LC-001-002-----0
  6
CONTINUOUS
 62
             1
100
AcDbCircle
 10
47.36548355472154
 20
-32.16537199999999
 40
6.86321700000019
100
AcDbArc
 50
76.76709600000061
 51
84.31311499999958
  0
ARC
  5
20F
100
AcDbEntity
  8
LC-001-002-----0
  6
CONTINUOUS
 62
             1
100
AcDbCircle
 10
48.46121255472155
 20
-27.695762
 40
2.26188199999984
100
AcDbArc
 50
61.97029299999851
 51
77.86896799999823
  0
ARC
  5
20E
100
AcDbEntity
  8
LC-001-002-----0
  6
CONTINUOUS
 62
             1
100
AcDbCircle
 10
49.40990055472155
 20
-25.99470700000001
 40
0.31682900000005
100
AcDbArc
 50
8.23987500003757
 51
68.86545399999396
  0
ARC
  5
20D
100
AcDbEntity
  8
LC-001-002-----0
  6
CONTINUOUS
 62
             1
100
AcDbCircle
 10
51.17322955472155
 20
-28.22670399999998
 40
2.95226100000045
100
AcDbArc
 50
79.34087300000053
 51
90.12205299999988
  0
ARC
  5
20C
100
AcDbEntity
  8
LC-001-002-----0
  6
CONTINUOUS
 62
             1
100
AcDbCircle
 10
51.35520955472156
 20
-27.32915
 40
2.03657499999991
100
AcDbArc
 50
65.87671599999931
 51
79.70165000000333
  0
ARC
  5
20B
100
AcDbEntity
  8
LC-001-002-----0
  6
CONTINUOUS
 62
             1
100
AcDbCircle
 10
51.80927055472153
 20
-26.34969699999999
 40
0.95718700000035
100
AcDbArc
 50
43.77279500001929
 51
66.72094500000397
  0
ARC
  5
20A
100
AcDbEntity
  8
LC-001-002-----0
  6
CONTINUOUS
 62
             1
100
AcDbCircle
 10
52.22536455472157
 20
-25.95714699999999
 40
0.38518999999997
100
AcDbArc
 50
2.01874699994632
 51
44.42708499999825
  0
ARC
  5
209
100
AcDbEntity
  8
LC-001-002-----0
  6
CONTINUOUS
 62
             1
100
AcDbCircle
 10
49.39576655472154
 20
-29.74397400000001
 40
0.33348699999981
100
AcDbArc
 50
-69.40859199997684
 51
-10.60008699993749
  0
ARC
  5
208
100
AcDbEntity
  8
LC-001-002-----0
  6
CONTINUOUS
 62
             1
100
AcDbCircle
 10
48.42579355472156
 20
-27.956739
 40
2.36425200000024
100
AcDbArc
 50
-78.12679400000089
 51
-62.62094999999789
  0
ARC
  5
207
100
AcDbEntity
  8
LC-001-002-----0
  6
CONTINUOUS
 62
             1
100
AcDbCircle
 10
47.33631655472157
 20
-23.40687800000001
 40
7.04212700000021
100
AcDbArc
 50
-84.52089700000011
 51
-77.06863099999904
  0
ARC
  5
206
100
AcDbEntity
  8
LC-001-002-----0
  6
CONTINUOUS
 62
             1
100
AcDbCircle
 10
46.86188255472154
 20
-19.00175300000001
 40
11.47254199999993
100
AcDbArc
 50
-89.6383860000003
 51
-84.26293199999996
  0
ARC
  5
205
100
AcDbEntity
  8
LC-001-002-----0
  6
CONTINUOUS
 62
             1
100
AcDbCircle
 10
44.25028555472152
 20
-25.988193
 40
0.30262799999983
100
AcDbArc
 50
112.85757100000161
 51
172.61626800000454
  0
ARC
  5
204
100
AcDbEntity
  8
LC-001-002-----0
  6
CONTINUOUS
 62
             1
100
AcDbCircle
 10
45.13510355472152
 20
-27.50056699999999
 40
2.05262699999995
100
AcDbArc
 50
102.98445599999758
 51
119.2312409999975
  0
ARC
  5
203
100
AcDbEntity
  8
LC-001-002-----0
  6
CONTINUOUS
 62
             1
100
AcDbCircle
 10
46.21194155472153
 20
-31.624449
 40
6.31421000000011
100
AcDbArc
 50
96.45649299999973
 51
104.09813099999911
  0
ARC
  5
202
100
AcDbEntity
  8
LC-001-002-----0
  6
CONTINUOUS
 62
             1
100
AcDbCircle
 10
46.77462055472153
 20
-36.14731900000001
 40
10.87178400000047
100
AcDbArc
 50
91.41075499999991
 51
96.72273499999993
  0
ARC
  5
201
100
AcDbEntity
  8
LC-001-002-----0
  6
CONTINUOUS
 62
             1
100
AcDbCircle
 10
52.22536355472158
 20
-29.791753
 40
0.38518899999985
100
AcDbArc
 50
-44.42706699998274
 51
-2.01869700005043
  0
ARC
  5
200
100
AcDbEntity
  8
LC-001-002-----0
  6
CONTINUOUS
 62
             1
100
AcDbCircle
 10
51.80927055472153
 20
-29.399204
 40
0.95718600000042
100
AcDbArc
 50
-66.72095700001117
 51
-43.77278200000767
  0
ARC
  5
1FF
100
AcDbEntity
  8
LC-001-002-----0
  6
CONTINUOUS
 62
             1
100
AcDbCircle
 10
51.35520955472156
 20
-28.41975099999999
 40
2.03657299999999
100
AcDbArc
 50
-79.70166999999891
 51
-65.87672699999354
  0
ARC
  5
1FE
100
AcDbEntity
  8
LC-001-002-----0
  6
CONTINUOUS
 62
             1
100
AcDbCircle
 10
51.17322955472155
 20
-27.52219600000001
 40
2.95226000000037
100
AcDbArc
 50
-90.12207499999944
 51
-79.34089300000153
  0
ARC
  5
1FD
100
AcDbEntity
  8
LC-001-002-----0
  6
CONTINUOUS
 62
             1
100
AcDbCircle
 10
43.56420955472157
 20
-29.79084800000001
 40
0.38632599999991
100
AcDbArc
 50
-43.97616399999303
 51
-2.99598200002253
  0
ARC
  5
1FC
100
AcDbEntity
  8
LC-001-002-----0
  6
CONTINUOUS
 62
             1
100
AcDbCircle
 10
43.16232155472152
 20
-29.416484
 40
0.93552900000029
100
AcDbArc
 50
-65.95926600000811
 51
-43.38504700000917
  0
ARC
  5
1FB
100
AcDbEntity
  8
LC-001-002-----0
  6
CONTINUOUS
 62
             1
100
AcDbCircle
 10
42.71487755472156
 20
-28.48049499999999
 40
1.97279800000007
100
AcDbArc
 50
-78.84919300000149
 51
-65.16572499999896
  0
ARC
  5
1FA
100
AcDbEntity
  8
LC-001-002-----0
  6
CONTINUOUS
 62
             1
100
AcDbCircle
 10
42.51788955472153
 20
-27.571518
 40
2.90276399999967
100
AcDbArc
 50
-89.06957399999993
 51
-78.50415599999978
  0
ARC
  5
1F9
100
AcDbEntity
  8
LC-001-002-----0
  6
CONTINUOUS
 62
             1
100
AcDbCircle
 10
41.44826155472156
 20
-25.957144
 40
0.38519100000029
100
AcDbArc
 50
135.57278099995634
 51
177.98106899994656
  0
ARC
  5
1F8
100
AcDbEntity
  8
LC-001-002-----0
  6
CONTINUOUS
 62
             1
100
AcDbCircle
 10
41.86435655472155
 20
-26.349695
 40
0.95718999999961
100
AcDbArc
 50
113.27896700000979
 51
136.22707899999426
  0
ARC
  5
1F7
100
AcDbEntity
  8
LC-001-002-----0
  6
CONTINUOUS
 62
             1
100
AcDbCircle
 10
42.31841655472152
 20
-27.32915
 40
2.03657800000047
100
AcDbArc
 50
100.29827399999654
 51
114.12319400000061
  0
ARC
  5
1F6
100
AcDbEntity
  8
LC-001-002-----0
  6
CONTINUOUS
 62
             1
100
AcDbCircle
 10
42.50039555472153
 20
-28.22670199999999
 40
2.95226199999987
100
AcDbArc
 50
89.87787299999972
 51
100.65904999999952
  0
ARC
  5
1F5
100
AcDbEntity
  8
LC-001-002-----0
  6
CONTINUOUS
 62
             1
100
AcDbCircle
 10
50.09713955472153
 20
-25.95359299999998
 40
0.37354699999988
100
AcDbArc
 50
137.96977700002705
 51
179.34241899993469
  0
ARC
  5
1F4
100
AcDbEntity
  8
LC-001-002-----0
  6
CONTINUOUS
 62
             1
100
AcDbCircle
 10
50.47941755472157
 20
-26.28948499999999
 40
0.8824099999997
100
AcDbArc
 50
115.21387900000624
 51
138.3883200000115
  0
ARC
  5
1F3
100
AcDbEntity
  8
LC-001-002-----0
  6
CONTINUOUS
 62
             1
100
AcDbCircle
 10
50.93105255472153
 20
-27.186319
 40
1.88638099999987
100
AcDbArc
 50
102.10179500000118
 51
116.02047899999778
  0
ARC
  5
1F2
100
AcDbEntity
  8
LC-001-002-----0
  6
CONTINUOUS
 62
             1
100
AcDbCircle
 10
51.14919755472152
 20
-28.12013999999999
 40
2.84523600000005
100
AcDbArc
 50
91.88438299999959
 51
102.45464799999891
  0
ARC
  5
1F1
100
AcDbEntity
  8
LC-001-002-----0
  6
CONTINUOUS
 62
             1
100
AcDbCircle
 10
-41.44827044527847
 20
-29.79173299999999
 40
0.38519000000015
100
AcDbArc
 50
-44.42706500001104
 51
-2.01867800004405
  0
ARC
  5
1F0
100
AcDbEntity
  8
LC-001-002-----0
  6
CONTINUOUS
 62
             1
100
AcDbCircle
 10
-41.86436444527846
 20
-29.39918399999999
 40
0.95718599999965
100
AcDbArc
 50
-66.72095399999263
 51
-43.77277800000767
  0
ARC
  5
1EF
100
AcDbEntity
  8
LC-001-002-----0
  6
CONTINUOUS
 62
             1
100
AcDbCircle
 10
-42.31842544527843
 20
-28.41972999999999
 40
2.03657400000019
100
AcDbArc
 50
-79.70166700000146
 51
-65.87672400000176
  0
ARC
  5
1EE
100
AcDbEntity
  8
LC-001-002-----0
  6
CONTINUOUS
 62
             1
100
AcDbCircle
 10
-42.50040544527844
 20
-27.522176
 40
2.95226099999965
100
AcDbArc
 50
-90.12207500000174
 51
-79.34089000000195
  0
ARC
  5
1ED
100
AcDbEntity
  8
LC-001-002-----0
  6
CONTINUOUS
 62
             1
100
AcDbCircle
 10
-44.30460044527843
 20
-29.725594
 40
0.36457400000001
100
AcDbArc
 50
-71.09714100001075
 51
-13.55235300001481
  0
ARC
  5
1EC
100
AcDbEntity
  8
LC-001-002-----0
  6
CONTINUOUS
 62
             1
100
AcDbCircle
 10
-45.34546444527843
 20
-27.68463
 40
2.65247499999977
100
AcDbArc
 50
-78.99501999999875
 51
-64.09116999999819
  0
ARC
  5
1EB
100
AcDbEntity
  8
LC-001-002-----0
  6
CONTINUOUS
 62
             1
100
AcDbCircle
 10
-46.43244044527848
 20
-22.801287
 40
7.65470200000026
100
AcDbArc
 50
-85.30246800000003
 51
-77.98609900000034
  0
ARC
  5
1EA
100
AcDbEntity
  8
LC-001-002-----0
  6
CONTINUOUS
 62
             1
100
AcDbCircle
 10
-46.82900844527848
 20
-18.61403899999999
 40
11.86047600000003
100
AcDbArc
 50
-90.50710500000018
 51
-85.04972800000031
  0
ARC
  5
1E9
100
AcDbEntity
  8
LC-001-002-----0
  6
CONTINUOUS
 62
             1
100
AcDbCircle
 10
-50.10295344527845
 20
-29.79323099999999
 40
0.37957099999974
100
AcDbArc
 50
-42.96205899996004
 51
-1.82232999997909
  0
ARC
  5
1E8
100
AcDbEntity
  8
LC-001-002-----0
  6
CONTINUOUS
 62
             1
100
AcDbCircle
 10
-50.49427644527845
 20
-29.439651
 40
0.90694700000025
100
AcDbArc
 50
-65.32808400000576
 51
-42.46043400000819
  0
ARC
  5
1E7
100
AcDbEntity
  8
LC-001-002-----0
  6
CONTINUOUS
 62
             1
100
AcDbCircle
 10
-50.94384044527846
 20
-28.52526800000001
 40
1.92570499999989
100
AcDbArc
 50
-78.32691199999755
 51
-64.52943100000294
  0
ARC
  5
1E6
100
AcDbEntity
  8
LC-001-002-----0
  6
CONTINUOUS
 62
             1
100
AcDbCircle
 10
-51.15233744527843
 20
-27.602395
 40
2.87172799999963
100
AcDbArc
 50
-88.53676800000068
 51
-77.97851600000202
  0
ARC
  5
1E5
100
AcDbEntity
  8
LC-001-002-----0
  6
CONTINUOUS
 62
             1
100
AcDbCircle
 10
-43.56856644527847
 20
-25.95680899999999
 40
0.38192400000012
100
AcDbArc
 50
137.1545869999714
 51
177.15170800003446
  0
ARC
  5
1E4
100
AcDbEntity
  8
LC-001-002-----0
  6
CONTINUOUS
 62
             1
100
AcDbCircle
 10
-43.18574944527843
 20
-26.30162100000001
 40
0.89711300000026
100
AcDbArc
 50
115.13766899999439
 51
137.63430800002166
  0
ARC
  5
1E3
100
AcDbEntity
  8
LC-001-002-----0
  6
CONTINUOUS
 62
             1
100
AcDbCircle
 10
-42.74287544527846
 20
-27.186699
 40
1.88666099999962
100
AcDbArc
 50
102.23272400000188
 51
115.89549300000144
  0
ARC
  5
1E2
100
AcDbEntity
  8
LC-001-002-----0
  6
CONTINUOUS
 62
             1
100
AcDbCircle
 10
-42.52607244527844
 20
-28.10832400000001
 40
2.83334599999967
100
AcDbArc
 50
92.16196500000019
 51
102.56848400000146
  0
ARC
  5
1E1
100
AcDbEntity
  8
LC-001-002-----0
  6
CONTINUOUS
 62
             1
100
AcDbCircle
 10
-49.40991044527846
 20
-25.99468899999999
 40
0.31682899999957
100
AcDbArc
 50
111.13452400002107
 51
171.76010299991574
  0
ARC
  5
1E0
100
AcDbEntity
  8
LC-001-002-----0
  6
CONTINUOUS
 62
             1
100
AcDbCircle
 10
-48.46122244527846
 20
-27.69574299999999
 40
2.26188200000038
100
AcDbArc
 50
102.1310099999984
 51
118.02968499999885
  0
ARC
  5
1DF
100
AcDbEntity
  8
LC-001-002-----0
  6
CONTINUOUS
 62
             1
100
AcDbCircle
 10
-47.36549544527845
 20
-32.16535400000001
 40
6.86321699999956
100
AcDbArc
 50
95.68686300000056
 51
103.23288200000091
  0
ARC
  5
1DE
100
AcDbEntity
  8
LC-001-002-----0
  6
CONTINUOUS
 62
             1
100
AcDbCircle
 10
-46.86794644527846
 20
-36.63301200000001
 40
11.35831099999978
100
AcDbArc
 50
90.5650959999999
 51
95.95115599999967
  0
ARC
  5
1DD
100
AcDbEntity
  8
LC-001-002-----0
  6
CONTINUOUS
 62
             1
100
AcDbCircle
 10
-52.22537444527843
 20
-25.95712800000001
 40
0.38518999999986
100
AcDbArc
 50
135.5728930000306
 51
177.98123099998253
  0
ARC
  5
1DC
100
AcDbEntity
  8
LC-001-002-----0
  6
CONTINUOUS
 62
             1
100
AcDbCircle
 10
-51.80928044527844
 20
-26.34967699999999
 40
0.95718699999992
100
AcDbArc
 50
113.27903400000227
 51
136.22718300001253
  0
ARC
  5
1DB
100
AcDbEntity
  8
LC-001-002-----0
  6
CONTINUOUS
 62
             1
100
AcDbCircle
 10
-51.35522044527847
 20
-27.32913099999999
 40
2.03657500000049
100
AcDbArc
 50
100.29832799999778
 51
114.12326199999846
  0
ARC
  5
1DA
100
AcDbEntity
  8
LC-001-002-----0
  6
CONTINUOUS
 62
             1
100
AcDbCircle
 10
-51.17324044527846
 20
-28.22668400000001
 40
2.95226099999969
100
AcDbArc
 50
89.8779249999984
 51
100.65910499999893
  0
ARC
  5
1D9
100
AcDbEntity
  8
LC-001-002-----0
  6
CONTINUOUS
 62
             1
100
AcDbCircle
 10
-46.86189044527846
 20
-19.001735
 40
11.47254199999949
100
AcDbArc
 50
-95.73709000000029
 51
-90.36163599999993
  0
ARC
  5
1D8
100
AcDbEntity
  8
LC-001-002-----0
  6
CONTINUOUS
 62
             1
100
AcDbCircle
 10
-47.33632544527843
 20
-23.40686
 40
7.04212699999959
100
AcDbArc
 50
-102.93139100000118
 51
-95.47912400000071
  0
ARC
  5
1D7
100
AcDbEntity
  8
LC-001-002-----0
  6
CONTINUOUS
 62
             1
100
AcDbCircle
 10
-48.42580444527847
 20
-27.95672099999999
 40
2.36425200000014
100
AcDbArc
 50
-117.37907199999748
 51
-101.87322700000018
  0
ARC
  5
1D6
100
AcDbEntity
  8
LC-001-002-----0
  6
CONTINUOUS
 62
             1
100
AcDbCircle
 10
-49.39577744527845
 20
-29.743955
 40
0.33348700000008
100
AcDbArc
 50
-169.39993499994682
 51
-110.59142999999773
  0
ARC
  5
1D5
100
AcDbEntity
  8
LC-001-002-----0
  6
CONTINUOUS
 62
             1
100
AcDbCircle
 10
-46.77463444527843
 20
-36.147301
 40
10.87178399999958
100
AcDbArc
 50
83.27724299999989
 51
88.58922300000037
  0
ARC
  5
1D4
100
AcDbEntity
  8
LC-001-002-----0
  6
CONTINUOUS
 62
             1
100
AcDbCircle
 10
-46.21195444527843
 20
-31.62443099999999
 40
6.31421000000043
100
AcDbArc
 50
75.90184800000102
 51
83.54348500000027
  0
ARC
  5
1D3
100
AcDbEntity
  8
LC-001-002-----0
  6
CONTINUOUS
 62
             1
100
AcDbCircle
 10
-45.13511444527848
 20
-27.50055
 40
2.05262700000012
100
AcDbArc
 50
60.76873700000014
 51
77.01552200000199
  0
ARC
  5
1D2
100
AcDbEntity
  8
LC-001-002-----0
  6
CONTINUOUS
 62
             1
100
AcDbCircle
 10
-44.25029544527843
 20
-25.98817600000001
 40
0.30262800000005
100
AcDbArc
 50
7.38371100003387
 51
67.14240800002997
  0
ARC
  5
1D1
100
AcDbEntity
  8
LC-001-002-----0
  6
CONTINUOUS
 62
             1
100
AcDbCircle
 10
-51.17324044527846
 20
-27.522177
 40
2.95225999999982
100
AcDbArc
 50
-100.65912900000112
 51
-89.87794699999884
  0
ARC
  5
1D0
100
AcDbEntity
  8
LC-001-002-----0
  6
CONTINUOUS
 62
             1
100
AcDbCircle
 10
-51.35522044527847
 20
-28.41973200000001
 40
2.03657299999999
100
AcDbArc
 50
-114.12329499999855
 51
-100.29835199999987
  0
ARC
  5
1CF
100
AcDbEntity
  8
LC-001-002-----0
  6
CONTINUOUS
 62
             1
100
AcDbCircle
 10
-51.80928144527844
 20
-29.39918399999999
 40
0.95718599999981
100
AcDbArc
 50
-136.22724000001139
 51
-113.27906499999982
  0
ARC
  5
1CE
100
AcDbEntity
  8
LC-001-002-----0
  6
CONTINUOUS
 62
             1
100
AcDbCircle
 10
-52.22537544527842
 20
-29.79173299999999
 40
0.38518900000005
100
AcDbArc
 50
-177.98132500007208
 51
-135.57295500002223
  0
ARC
  5
1CD
100
AcDbEntity
  8
LC-001-002-----0
  6
CONTINUOUS
 62
             1
100
AcDbCircle
 10
-42.51789944527844
 20
-27.57150200000001
 40
2.9027639999998
100
AcDbArc
 50
-101.49586600000163
 51
-90.93044799999967
  0
ARC
  5
1CC
100
AcDbEntity
  8
LC-001-002-----0
  6
CONTINUOUS
 62
             1
100
AcDbCircle
 10
-42.71488844527847
 20
-28.480479
 40
1.9727980000002
100
AcDbArc
 50
-114.83429699999624
 51
-101.15082800000158
  0
ARC
  5
1CB
100
AcDbEntity
  8
LC-001-002-----0
  6
CONTINUOUS
 62
             1
100
AcDbCircle
 10
-43.16233244527843
 20
-29.41646800000001
 40
0.93552900000033
100
AcDbArc
 50
-136.61497399998379
 51
-114.04075600001005
  0
ARC
  5
1CA
100
AcDbEntity
  8
LC-001-002-----0
  6
CONTINUOUS
 62
             1
100
AcDbCircle
 10
-43.56422144527847
 20
-29.790832
 40
0.38632600000001
100
AcDbArc
 50
-177.00404000000634
 51
-136.02385800003822
  0
ARC
  5
1C9
100
AcDbEntity
  8
LC-001-002-----0
  6
CONTINUOUS
 62
             1
100
AcDbCircle
 10
-42.50040544527844
 20
-28.226686
 40
2.95226200000022
100
AcDbArc
 50
79.34092800000022
 51
90.12210499999935
  0
ARC
  5
1C8
100
AcDbEntity
  8
LC-001-002-----0
  6
CONTINUOUS
 62
             1
100
AcDbCircle
 10
-42.31842644527848
 20
-27.32913400000001
 40
2.0365780000002
100
AcDbArc
 50
65.87678400000013
 51
79.70170399999923
  0
ARC
  5
1C7
100
AcDbEntity
  8
LC-001-002-----0
  6
CONTINUOUS
 62
             1
100
AcDbCircle
 10
-41.86436644527846
 20
-26.34967900000001
 40
0.95719000000017
100
AcDbArc
 50
43.77289900000753
 51
66.72101100001015
  0
ARC
  5
1C6
100
AcDbEntity
  8
LC-001-002-----0
  6
CONTINUOUS
 62
             1
100
AcDbCircle
 10
-41.44827144527847
 20
-25.95712800000001
 40
0.38519100000006
100
AcDbArc
 50
2.01890900004093
 51
44.42719699997519
  0
ARC
  5
1C5
100
AcDbEntity
  8
LC-001-002-----0
  6
CONTINUOUS
 62
             1
100
AcDbCircle
 10
-51.14920844527848
 20
-28.12011999999999
 40
2.84523599999988
100
AcDbArc
 50
77.54533099999773
 51
88.11559499999875
  0
ARC
  5
1C4
100
AcDbEntity
  8
LC-001-002-----0
  6
CONTINUOUS
 62
             1
100
AcDbCircle
 10
-50.93106344527843
 20
-27.18629999999999
 40
1.88638100000017
100
AcDbArc
 50
63.97949900000456
 51
77.89818299999752
  0
ARC
  5
1C3
100
AcDbEntity
  8
LC-001-002-----0
  6
CONTINUOUS
 62
             1
100
AcDbCircle
 10
-50.47942744527843
 20
-26.28946500000001
 40
0.88240999999982
100
AcDbArc
 50
41.61165799998989
 51
64.78609900000095
  0
ARC
  5
1C2
100
AcDbEntity
  8
LC-001-002-----0
  6
CONTINUOUS
 62
             1
100
AcDbCircle
 10
-50.09714944527844
 20
-25.953574
 40
0.37354699999998
100
AcDbArc
 50
0.65755899996021
 51
42.03020200000475
  0
ARC
  5
1C1
100
AcDbEntity
  8
LC-001-002-----0
  6
CONTINUOUS
 62
             1
100
AcDbCircle
 10
89.66701855472154
 20
-27.522616
 40
2.95226100000027
100
AcDbArc
 50
-100.65910999999156
 51
-89.87792499999289
  0
ARC
  5
1C0
100
AcDbEntity
  8
LC-001-002-----0
  6
CONTINUOUS
 62
             1
100
AcDbCircle
 10
89.48503855472158
 20
-28.42016999999999
 40
2.03657400000004
100
AcDbArc
 50
-114.12327600000123
 51
-100.29833300000921
  0
ARC
  5
1BF
100
AcDbEntity
  8
LC-001-002-----0
  6
CONTINUOUS
 62
             1
100
AcDbCircle
 10
89.03097655472156
 20
-29.39962399999999
 40
0.95718600000003
100
AcDbArc
 50
-136.22722199999029
 51
-113.27904600003855
  0
ARC
  5
1BE
100
AcDbEntity
  8
LC-001-002-----0
  6
CONTINUOUS
 62
             1
100
AcDbCircle
 10
88.61488355472152
 20
-29.79217299999999
 40
0.38519000000024
100
AcDbArc
 50
-177.9813219999572
 51
-135.5729350000193
  0
ARC
  5
1BD
100
AcDbEntity
  8
LC-001-002-----0
  6
CONTINUOUS
 62
             1
100
AcDbCircle
 10
93.99562055472158
 20
-18.61447899999999
 40
11.86047600000047
100
AcDbArc
 50
-94.95027200000024
 51
-89.49289499999847
  0
ARC
  5
1BC
100
AcDbEntity
  8
LC-001-002-----0
  6
CONTINUOUS
 62
             1
100
AcDbCircle
 10
93.59905355472158
 20
-22.801727
 40
7.65470200000031
100
AcDbArc
 50
-102.01390099999884
 51
-94.6975320000021
  0
ARC
  5
1BB
100
AcDbEntity
  8
LC-001-002-----0
  6
CONTINUOUS
 62
             1
100
AcDbCircle
 10
92.51207755472153
 20
-27.68507
 40
2.65247500000007
100
AcDbArc
 50
-115.90883000000956
 51
-101.00498000000368
  0
ARC
  5
1BA
100
AcDbEntity
  8
LC-001-002-----0
  6
CONTINUOUS
 62
             1
100
AcDbCircle
 10
91.47121255472159
 20
-29.726034
 40
0.36457400000038
100
AcDbArc
 50
-166.44764699999959
 51
-108.90285900000598
  0
ARC
  5
1B9
100
AcDbEntity
  8
LC-001-002-----0
  6
CONTINUOUS
 62
             1
100
AcDbCircle
 10
98.31894955472153
 20
-27.602835
 40
2.87172800000044
100
AcDbArc
 50
-102.02148399999358
 51
-91.46323200000384
  0
ARC
  5
1B8
100
AcDbEntity
  8
LC-001-002-----0
  6
CONTINUOUS
 62
             1
100
AcDbCircle
 10
98.11045355472156
 20
-28.52570800000001
 40
1.92570500000037
100
AcDbArc
 50
-115.47056900000135
 51
-101.67308799999913
  0
ARC
  5
1B7
100
AcDbEntity
  8
LC-001-002-----0
  6
CONTINUOUS
 62
             1
100
AcDbCircle
 10
97.66088855472155
 20
-29.440091
 40
0.90694700000047
100
AcDbArc
 50
-137.53956600001186
 51
-114.67191599999441
  0
ARC
  5
1B6
100
AcDbEntity
  8
LC-001-002-----0
  6
CONTINUOUS
 62
             1
100
AcDbCircle
 10
97.26956655472149
 20
-29.79367099999999
 40
0.37957099999988
100
AcDbArc
 50
-178.17767000002007
 51
-137.03794100004541
  0
ARC
  5
1B5
100
AcDbEntity
  8
LC-001-002-----0
  6
CONTINUOUS
 62
             1
100
AcDbCircle
 10
89.69268555472154
 20
-28.10876400000001
 40
2.83334599999979
100
AcDbArc
 50
77.43151600000304
 51
87.83803499999407
  0
ARC
  5
1B4
100
AcDbEntity
  8
LC-001-002-----0
  6
CONTINUOUS
 62
             1
100
AcDbCircle
 10
89.90948755472157
 20
-27.187139
 40
1.88666100000007
100
AcDbArc
 50
64.10450699999251
 51
77.7672760000053
  0
ARC
  5
1B3
100
AcDbEntity
  8
LC-001-002-----0
  6
CONTINUOUS
 62
             1
100
AcDbCircle
 10
90.35236255472152
 20
-26.30206100000001
 40
0.89711299999939
100
AcDbArc
 50
42.36569200000234
 51
64.86233099998856
  0
ARC
  5
1B2
100
AcDbEntity
  8
LC-001-002-----0
  6
CONTINUOUS
 62
             1
100
AcDbCircle
 10
90.73517955472157
 20
-25.95724899999999
 40
0.38192400000005
100
AcDbArc
 50
2.84829199996508
 51
42.84541299999454
  0
ARC
  5
1B1
100
AcDbEntity
  8
LC-001-002-----0
  6
CONTINUOUS
 62
             1
100
AcDbCircle
 10
94.0345585547215
 20
-36.63345200000001
 40
11.3583110000004
100
AcDbArc
 50
84.04884399999888
 51
89.43490400000097
  0
ARC
  5
1B0
100
AcDbEntity
  8
LC-001-002-----0
  6
CONTINUOUS
 62
             1
100
AcDbCircle
 10
94.53210855472155
 20
-32.16579300000001
 40
6.86321699999944
100
AcDbArc
 50
76.76711800000238
 51
84.31313700000281
  0
ARC
  5
1AF
100
AcDbEntity
  8
LC-001-002-----0
  6
CONTINUOUS
 62
             1
100
AcDbCircle
 10
95.62783455472156
 20
-27.69618299999999
 40
2.26188200000017
100
AcDbArc
 50
61.97031500000383
 51
77.86899000001145
  0
ARC
  5
1AE
100
AcDbEntity
  8
LC-001-002-----0
  6
CONTINUOUS
 62
             1
100
AcDbCircle
 10
96.5765235547215
 20
-25.99512799999999
 40
0.31682900000055
100
AcDbArc
 50
8.239897000071
 51
68.86547599999811
  0
ARC
  5
1AD
100
AcDbEntity
  8
LC-001-002-----0
  6
CONTINUOUS
 62
             1
100
AcDbCircle
 10
98.3398525547215
 20
-28.227124
 40
2.95226100000021
100
AcDbArc
 50
79.34089499999129
 51
90.12207500000491
  0
ARC
  5
1AC
100
AcDbEntity
  8
LC-001-002-----0
  6
CONTINUOUS
 62
             1
100
AcDbCircle
 10
98.52183255472157
 20
-27.32957099999999
 40
2.03657500000019
100
AcDbArc
 50
65.87673799999985
 51
79.70167199999612
  0
ARC
  5
1AB
100
AcDbEntity
  8
LC-001-002-----0
  6
CONTINUOUS
 62
             1
100
AcDbCircle
 10
98.97589355472148
 20
-26.35011700000001
 40
0.95718699999999
100
AcDbArc
 50
43.77281699998181
 51
66.7209659999737
  0
ARC
  5
1AA
100
AcDbEntity
  8
LC-001-002-----0
  6
CONTINUOUS
 62
             1
100
AcDbCircle
 10
99.39198755472152
 20
-25.95756700000001
 40
0.38518999999984
100
AcDbArc
 50
2.01876900001835
 51
44.42710699997458
  0
ARC
  5
1A9
100
AcDbEntity
  8
LC-001-002-----0
  6
CONTINUOUS
 62
             1
100
AcDbCircle
 10
96.56239055472149
 20
-29.744395
 40
0.33348700000003
100
AcDbArc
 50
-69.40857000002949
 51
-10.60006500003665
  0
ARC
  5
1A8
100
AcDbEntity
  8
LC-001-002-----0
  6
CONTINUOUS
 62
             1
100
AcDbCircle
 10
95.59241655472151
 20
-27.95715999999999
 40
2.36425199999974
100
AcDbArc
 50
-78.1267730000037
 51
-62.62092799999993
  0
ARC
  5
1A7
100
AcDbEntity
  8
LC-001-002-----0
  6
CONTINUOUS
 62
             1
100
AcDbCircle
 10
94.50293855472152
 20
-23.40729999999999
 40
7.04212699999966
100
AcDbArc
 50
-84.52087600000202
 51
-77.06860900000193
  0
ARC
  5
1A6
100
AcDbEntity
  8
LC-001-002-----0
  6
CONTINUOUS
 62
             1
100
AcDbCircle
 10
94.02850255472156
 20
-19.00217499999999
 40
11.472542
100
AcDbArc
 50
-89.63836400000199
 51
-84.26290999999713
  0
ARC
  5
1A5
100
AcDbEntity
  8
LC-001-002-----0
  6
CONTINUOUS
 62
             1
100
AcDbCircle
 10
91.41690855472159
 20
-25.98861600000001
 40
0.30262800000028
100
AcDbArc
 50
112.85759199991921
 51
172.61628899996614
  0
ARC
  5
1A4
100
AcDbEntity
  8
LC-001-002-----0
  6
CONTINUOUS
 62
             1
100
AcDbCircle
 10
92.30172655472158
 20
-27.500989
 40
2.0526270000005
100
AcDbArc
 50
102.9844780000042
 51
119.23126300000972
  0
ARC
  5
1A3
100
AcDbEntity
  8
LC-001-002-----0
  6
CONTINUOUS
 62
             1
100
AcDbCircle
 10
93.37856655472153
 20
-31.62487099999999
 40
6.31420999999949
100
AcDbArc
 50
96.45651499999615
 51
104.09815200000197
  0
ARC
  5
1A2
100
AcDbEntity
  8
LC-001-002-----0
  6
CONTINUOUS
 62
             1
100
AcDbCircle
 10
93.94124655472153
 20
-36.147741
 40
10.87178399999989
100
AcDbArc
 50
91.41077699999904
 51
96.72275700000159
  0
ARC
  5
1A1
100
AcDbEntity
  8
LC-001-002-----0
  6
CONTINUOUS
 62
             1
100
AcDbCircle
 10
99.39198755472152
 20
-29.79217299999999
 40
0.38518899999984
100
AcDbArc
 50
-44.42704499998997
 51
-2.01867499992548
  0
ARC
  5
1A0
100
AcDbEntity
  8
LC-001-002-----0
  6
CONTINUOUS
 62
             1
100
AcDbCircle
 10
98.97589455472159
 20
-29.39962399999999
 40
0.9571860000001
100
AcDbArc
 50
-66.72093500000341
 51
-43.77275999997228
  0
ARC
  5
19F
100
AcDbEntity
  8
LC-001-002-----0
  6
CONTINUOUS
 62
             1
100
AcDbCircle
 10
98.52183355472157
 20
-28.42017100000001
 40
2.03657299999993
100
AcDbArc
 50
-79.70164799998757
 51
-65.87670500000147
  0
ARC
  5
19E
100
AcDbEntity
  8
LC-001-002-----0
  6
CONTINUOUS
 62
             1
100
AcDbCircle
 10
98.3398525547215
 20
-27.522617
 40
2.95226000000038
100
AcDbArc
 50
-90.12205299999688
 51
-79.34087099999562
  0
ARC
  5
19D
100
AcDbEntity
  8
LC-001-002-----0
  6
CONTINUOUS
 62
             1
100
AcDbCircle
 10
90.73083355472151
 20
-29.79127199999999
 40
0.38632599999949
100
AcDbArc
 50
-43.97614199999221
 51
-2.99595999999701
  0
ARC
  5
19C
100
AcDbEntity
  8
LC-001-002-----0
  6
CONTINUOUS
 62
             1
100
AcDbCircle
 10
90.32894455472153
 20
-29.41690800000001
 40
0.93552899999953
100
AcDbArc
 50
-65.95924399999039
 51
-43.38502600003725
  0
ARC
  5
19B
100
AcDbEntity
  8
LC-001-002-----0
  6
CONTINUOUS
 62
             1
100
AcDbCircle
 10
89.88150055472151
 20
-28.480919
 40
1.97279799999993
100
AcDbArc
 50
-78.84917199998891
 51
-65.16570300000797
  0
ARC
  5
19A
100
AcDbEntity
  8
LC-001-002-----0
  6
CONTINUOUS
 62
             1
100
AcDbCircle
 10
89.68451255472148
 20
-27.57194200000001
 40
2.90276399999977
100
AcDbArc
 50
-89.06955200000147
 51
-78.50413399999944
  0
ARC
  5
199
100
AcDbEntity
  8
LC-001-002-----0
  6
CONTINUOUS
 62
             1
100
AcDbCircle
 10
88.61488455472151
 20
-25.95756800000001
 40
0.38519099999987
100
AcDbArc
 50
135.57280300004078
 51
177.98109099995992
  0
ARC
  5
198
100
AcDbEntity
  8
LC-001-002-----0
  6
CONTINUOUS
 62
             1
100
AcDbCircle
 10
89.03097855472156
 20
-26.35011900000001
 40
0.95719000000051
100
AcDbArc
 50
113.27898900001446
 51
136.22710099999455
  0
ARC
  5
197
100
AcDbEntity
  8
LC-001-002-----0
  6
CONTINUOUS
 62
             1
100
AcDbCircle
 10
89.48503955472158
 20
-27.32957400000001
 40
2.03657799999992
100
AcDbArc
 50
100.29829599999292
 51
114.12321599998528
  0
ARC
  5
196
100
AcDbEntity
  8
LC-001-002-----0
  6
CONTINUOUS
 62
             1
100
AcDbCircle
 10
89.66701855472154
 20
-28.227126
 40
2.95226199999984
100
AcDbArc
 50
89.87789499998962
 51
100.65907200000305
  0
ARC
  5
195
100
AcDbEntity
  8
LC-001-002-----0
  6
CONTINUOUS
 62
             1
100
AcDbCircle
 10
97.26376255472148
 20
-25.954014
 40
0.37354700000027
100
AcDbArc
 50
137.96979800003029
 51
179.3424410000392
  0
ARC
  5
194
100
AcDbEntity
  8
LC-001-002-----0
  6
CONTINUOUS
 62
             1
100
AcDbCircle
 10
97.64603955472153
 20
-26.28990500000001
 40
0.88240999999989
100
AcDbArc
 50
115.21390099997859
 51
138.38834200003103
  0
ARC
  5
193
100
AcDbEntity
  8
LC-001-002-----0
  6
CONTINUOUS
 62
             1
100
AcDbCircle
 10
98.09767555472153
 20
-27.18673999999999
 40
1.88638099999972
100
AcDbArc
 50
102.10181699999906
 51
116.0205009999892
  0
ARC
  5
192
100
AcDbEntity
  8
LC-001-002-----0
  6
CONTINUOUS
 62
             1
100
AcDbCircle
 10
98.31582055472158
 20
-28.12056000000001
 40
2.84523600000043
100
AcDbArc
 50
91.88440500000466
 51
102.45466900001
  0
ARC
  5
191
100
AcDbEntity
  8
LC-001-002-----0
  6
CONTINUOUS
 62
             1
100
AcDbCircle
 10
-88.61494244527849
 20
-29.79217299999999
 40
0.38519000000016
100
AcDbArc
 50
-44.42706500001031
 51
-2.01867800004398
  0
ARC
  5
190
100
AcDbEntity
  8
LC-001-002-----0
  6
CONTINUOUS
 62
             1
100
AcDbCircle
 10
-89.03103644527847
 20
-29.39962399999999
 40
0.95718599999965
100
AcDbArc
 50
-66.72095399999272
 51
-43.77277800000738
  0
ARC
  5
18F
100
AcDbEntity
  8
LC-001-002-----0
  6
CONTINUOUS
 62
             1
100
AcDbCircle
 10
-89.48509744527844
 20
-28.42016999999999
 40
2.03657400000022
100
AcDbArc
 50
-79.70166700000181
 51
-65.87672399999879
  0
ARC
  5
18E
100
AcDbEntity
  8
LC-001-002-----0
  6
CONTINUOUS
 62
             1
100
AcDbCircle
 10
-89.66707844527845
 20
-27.522616
 40
2.95226099999965
100
AcDbArc
 50
-90.1220750000016
 51
-79.34089000000195
  0
ARC
  5
18D
100
AcDbEntity
  8
LC-001-002-----0
  6
CONTINUOUS
 62
             1
100
AcDbCircle
 10
-91.47127244527844
 20
-29.726034
 40
0.36457400000001
100
AcDbArc
 50
-71.09714100001092
 51
-13.55235300001509
  0
ARC
  5
18C
100
AcDbEntity
  8
LC-001-002-----0
  6
CONTINUOUS
 62
             1
100
AcDbCircle
 10
-92.51213744527844
 20
-27.68507
 40
2.65247499999976
100
AcDbArc
 50
-78.99501999999873
 51
-64.09116999999819
  0
ARC
  5
18B
100
AcDbEntity
  8
LC-001-002-----0
  6
CONTINUOUS
 62
             1
100
AcDbCircle
 10
-93.59911344527843
 20
-22.801727
 40
7.65470200000026
100
AcDbArc
 50
-85.30246800000046
 51
-77.98609900000116
  0
ARC
  5
18A
100
AcDbEntity
  8
LC-001-002-----0
  6
CONTINUOUS
 62
             1
100
AcDbCircle
 10
-93.99568044527844
 20
-18.61447899999999
 40
11.86047600000003
100
AcDbArc
 50
-90.50710500000042
 51
-85.04972800000031
  0
ARC
  5
189
100
AcDbEntity
  8
LC-001-002-----0
  6
CONTINUOUS
 62
             1
100
AcDbCircle
 10
-97.26962544527846
 20
-29.79367099999999
 40
0.37957099999975
100
AcDbArc
 50
-42.96205899996043
 51
-1.82232999997966
  0
ARC
  5
188
100
AcDbEntity
  8
LC-001-002-----0
  6
CONTINUOUS
 62
             1
100
AcDbCircle
 10
-97.66094844527846
 20
-29.440091
 40
0.90694700000022
100
AcDbArc
 50
-65.32808400000884
 51
-42.46043400000755
  0
ARC
  5
187
100
AcDbEntity
  8
LC-001-002-----0
  6
CONTINUOUS
 62
             1
100
AcDbCircle
 10
-98.11051344527847
 20
-28.52570800000001
 40
1.92570499999989
100
AcDbArc
 50
-78.32691199999756
 51
-64.52943100000323
  0
ARC
  5
186
100
AcDbEntity
  8
LC-001-002-----0
  6
CONTINUOUS
 62
             1
100
AcDbCircle
 10
-98.3190094452785
 20
-27.602835
 40
2.87172799999964
100
AcDbArc
 50
-88.53676799999842
 51
-77.97851600000087
  0
ARC
  5
185
100
AcDbEntity
  8
LC-001-002-----0
  6
CONTINUOUS
 62
             1
100
AcDbCircle
 10
-90.73523844527843
 20
-25.95724899999999
 40
0.3819240000002
100
AcDbArc
 50
137.15458699998229
 51
177.15170800003492
  0
ARC
  5
184
100
AcDbEntity
  8
LC-001-002-----0
  6
CONTINUOUS
 62
             1
100
AcDbCircle
 10
-90.35242244527849
 20
-26.30206100000001
 40
0.89711300000025
100
AcDbArc
 50
115.13766899999173
 51
137.6343080000197
  0
ARC
  5
183
100
AcDbEntity
  8
LC-001-002-----0
  6
CONTINUOUS
 62
             1
100
AcDbCircle
 10
-89.90954744527848
 20
-27.187139
 40
1.88666099999963
100
AcDbArc
 50
102.23272400000315
 51
115.89549300000128
  0
ARC
  5
182
100
AcDbEntity
  8
LC-001-002-----0
  6
CONTINUOUS
 62
             1
100
AcDbCircle
 10
-89.69274444527845
 20
-28.10876400000001
 40
2.83334599999967
100
AcDbArc
 50
92.16196500000019
 51
102.56848400000146
  0
ARC
  5
181
100
AcDbEntity
  8
LC-001-002-----0
  6
CONTINUOUS
 62
             1
100
AcDbCircle
 10
-96.57658344527847
 20
-25.99512799999999
 40
0.31682899999957
100
AcDbArc
 50
111.13452400002107
 51
171.76010299991574
  0
ARC
  5
180
100
AcDbEntity
  8
LC-001-002-----0
  6
CONTINUOUS
 62
             1
100
AcDbCircle
 10
-95.62789444527847
 20
-27.69618299999999
 40
2.26188200000038
100
AcDbArc
 50
102.1310099999984
 51
118.02968499999744
  0
ARC
  5
17F
100
AcDbEntity
  8
LC-001-002-----0
  6
CONTINUOUS
 62
             1
100
AcDbCircle
 10
-94.53216744527846
 20
-32.16579300000001
 40
6.86321699999956
100
AcDbArc
 50
95.6868630000005
 51
103.23288200000087
  0
ARC
  5
17E
100
AcDbEntity
  8
LC-001-002-----0
  6
CONTINUOUS
 62
             1
100
AcDbCircle
 10
-94.03461844527847
 20
-36.63345200000001
 40
11.35831099999979
100
AcDbArc
 50
90.5650959999999
 51
95.95115599999971
  0
ARC
  5
17D
100
AcDbEntity
  8
LC-001-002-----0
  6
CONTINUOUS
 62
             1
100
AcDbCircle
 10
-99.3920464452785
 20
-25.95756700000001
 40
0.38518999999982
100
AcDbArc
 50
135.57289300002543
 51
177.98123099998224
  0
ARC
  5
17C
100
AcDbEntity
  8
LC-001-002-----0
  6
CONTINUOUS
 62
             1
100
AcDbCircle
 10
-98.97595344527845
 20
-26.35011700000001
 40
0.95718699999994
100
AcDbArc
 50
113.2790340000013
 51
136.22718300001114
  0
ARC
  5
17B
100
AcDbEntity
  8
LC-001-002-----0
  6
CONTINUOUS
 62
             1
100
AcDbCircle
 10
-98.52189244527848
 20
-27.32957099999999
 40
2.03657500000048
100
AcDbArc
 50
100.29832799999602
 51
114.1232619999987
  0
ARC
  5
17A
100
AcDbEntity
  8
LC-001-002-----0
  6
CONTINUOUS
 62
             1
100
AcDbCircle
 10
-98.33991244527847
 20
-28.227124
 40
2.95226099999965
100
AcDbArc
 50
89.87792499999949
 51
100.65910499999896
  0
ARC
  5
179
100
AcDbEntity
  8
LC-001-002-----0
  6
CONTINUOUS
 62
             1
100
AcDbCircle
 10
-94.02856244527847
 20
-19.00217499999999
 40
11.4725419999995
100
AcDbArc
 50
-95.73709000000032
 51
-90.36163599999999
  0
ARC
  5
178
100
AcDbEntity
  8
LC-001-002-----0
  6
CONTINUOUS
 62
             1
100
AcDbCircle
 10
-94.50299844527849
 20
-23.40729999999999
 40
7.04212699999958
100
AcDbArc
 50
-102.93139100000077
 51
-95.47912400000028
  0
ARC
  5
177
100
AcDbEntity
  8
LC-001-002-----0
  6
CONTINUOUS
 62
             1
100
AcDbCircle
 10
-95.59247644527848
 20
-27.95715999999999
 40
2.36425200000014
100
AcDbArc
 50
-117.37907199999763
 51
-101.87322700000037
  0
ARC
  5
176
100
AcDbEntity
  8
LC-001-002-----0
  6
CONTINUOUS
 62
             1
100
AcDbCircle
 10
-96.56245044527846
 20
-29.744395
 40
0.33348700000007
100
AcDbArc
 50
-169.39993499994719
 51
-110.59143000000709
  0
ARC
  5
175
100
AcDbEntity
  8
LC-001-002-----0
  6
CONTINUOUS
 62
             1
100
AcDbCircle
 10
-93.94130644527844
 20
-36.147741
 40
10.8717839999996
100
AcDbArc
 50
83.2772429999999
 51
88.58922300000037
  0
ARC
  5
174
100
AcDbEntity
  8
LC-001-002-----0
  6
CONTINUOUS
 62
             1
100
AcDbCircle
 10
-93.37862644527844
 20
-31.62487099999999
 40
6.31421000000043
100
AcDbArc
 50
75.90184800000104
 51
83.54348500000027
  0
ARC
  5
173
100
AcDbEntity
  8
LC-001-002-----0
  6
CONTINUOUS
 62
             1
100
AcDbCircle
 10
-92.30178644527844
 20
-27.500989
 40
2.05262700000009
100
AcDbArc
 50
60.76873700000137
 51
77.01552200000199
  0
ARC
  5
172
100
AcDbEntity
  8
LC-001-002-----0
  6
CONTINUOUS
 62
             1
100
AcDbCircle
 10
-91.41696844527844
 20
-25.98861600000001
 40
0.30262800000005
100
AcDbArc
 50
7.38371100003387
 51
67.14240800003121
  0
ARC
  5
171
100
AcDbEntity
  8
LC-001-002-----0
  6
CONTINUOUS
 62
             1
100
AcDbCircle
 10
-98.33991244527847
 20
-27.522617
 40
2.95225999999982
100
AcDbArc
 50
-100.65912900000112
 51
-89.8779469999987
  0
ARC
  5
170
100
AcDbEntity
  8
LC-001-002-----0
  6
CONTINUOUS
 62
             1
100
AcDbCircle
 10
-98.52189244527848
 20
-28.42017100000001
 40
2.03657299999999
100
AcDbArc
 50
-114.12329499999855
 51
-100.29835199999987
  0
ARC
  5
16F
100
AcDbEntity
  8
LC-001-002-----0
  6
CONTINUOUS
 62
             1
100
AcDbCircle
 10
-98.97595444527845
 20
-29.39962399999999
 40
0.95718599999981
100
AcDbArc
 50
-136.22724000001125
 51
-113.27906499999973
  0
ARC
  5
16E
100
AcDbEntity
  8
LC-001-002-----0
  6
CONTINUOUS
 62
             1
100
AcDbCircle
 10
-99.39204744527849
 20
-29.79217299999999
 40
0.38518899999999
100
AcDbArc
 50
-177.98132500007333
 51
-135.57295500001595
  0
ARC
  5
16D
100
AcDbEntity
  8
LC-001-002-----0
  6
CONTINUOUS
 62
             1
100
AcDbCircle
 10
-89.68457144527845
 20
-27.57194200000001
 40
2.90276399999978
100
AcDbArc
 50
-101.49586600000058
 51
-90.93044799999967
  0
ARC
  5
16C
100
AcDbEntity
  8
LC-001-002-----0
  6
CONTINUOUS
 62
             1
100
AcDbCircle
 10
-89.88156044527848
 20
-28.480919
 40
1.97279800000017
100
AcDbArc
 50
-114.83429699999503
 51
-101.15082800000137
  0
ARC
  5
16B
100
AcDbEntity
  8
LC-001-002-----0
  6
CONTINUOUS
 62
             1
100
AcDbCircle
 10
-90.32900444527844
 20
-29.41690800000001
 40
0.93552900000033
100
AcDbArc
 50
-136.61497399998427
 51
-114.04075600001279
  0
ARC
  5
16A
100
AcDbEntity
  8
LC-001-002-----0
  6
CONTINUOUS
 62
             1
100
AcDbCircle
 10
-90.73089344527848
 20
-29.79127199999999
 40
0.3863259999999
100
AcDbArc
 50
-177.00404000000387
 51
-136.02385800003708
  0
ARC
  5
169
100
AcDbEntity
  8
LC-001-002-----0
  6
CONTINUOUS
 62
             1
100
AcDbCircle
 10
-89.66707844527845
 20
-28.227126
 40
2.95226200000022
100
AcDbArc
 50
79.3409280000002
 51
90.12210500000046
  0
ARC
  5
168
100
AcDbEntity
  8
LC-001-002-----0
  6
CONTINUOUS
 62
             1
100
AcDbCircle
 10
-89.48509944527844
 20
-27.32957400000001
 40
2.03657800000015
100
AcDbArc
 50
65.87678400000306
 51
79.7017040000008
  0
ARC
  5
167
100
AcDbEntity
  8
LC-001-002-----0
  6
CONTINUOUS
 62
             1
100
AcDbCircle
 10
-89.03103844527847
 20
-26.35011900000001
 40
0.95719000000017
100
AcDbArc
 50
43.77289900000782
 51
66.72101100001055
  0
ARC
  5
166
100
AcDbEntity
  8
LC-001-002-----0
  6
CONTINUOUS
 62
             1
100
AcDbCircle
 10
-88.61494444527848
 20
-25.95756800000001
 40
0.38519100000006
100
AcDbArc
 50
2.0189090000404
 51
44.42719699997105
  0
ARC
  5
165
100
AcDbEntity
  8
LC-001-002-----0
  6
CONTINUOUS
 62
             1
100
AcDbCircle
 10
-98.31588044527844
 20
-28.12056000000001
 40
2.84523599999987
100
AcDbArc
 50
77.5453310000012
 51
88.11559499999991
  0
ARC
  5
164
100
AcDbEntity
  8
LC-001-002-----0
  6
CONTINUOUS
 62
             1
100
AcDbCircle
 10
-98.09773544527845
 20
-27.18673999999999
 40
1.88638100000017
100
AcDbArc
 50
63.97949900000461
 51
77.89818299999757
  0
ARC
  5
163
100
AcDbEntity
  8
LC-001-002-----0
  6
CONTINUOUS
 62
             1
100
AcDbCircle
 10
-97.64609944527849
 20
-26.28990500000001
 40
0.88240999999986
100
AcDbArc
 50
41.61165799998857
 51
64.78609899999803
  0
ARC
  5
162
100
AcDbEntity
  8
LC-001-002-----0
  6
CONTINUOUS
 62
             1
100
AcDbCircle
 10
-97.26382244527845
 20
-25.954014
 40
0.37354699999999
100
AcDbArc
 50
0.65755899996019
 51
42.03020200000475
  0
ARC
  5
161
100
AcDbEntity
  8
LC-001-002-----0
  6
CONTINUOUS
 62
             7
100
AcDbCircle
 10
36.52457255472154
 20
12.369123
 40
5.57610900000046
100
AcDbArc
 50
89.90859400000025
 51
139.91172700000081
  0
ARC
  5
160
100
AcDbEntity
  8
LC-002-002-RND-0
  6
CONTINUOUS
 62
             7
100
AcDbCircle
 10
36.53339855472154
 20
13.976891
 40
3.92499999999997
100
AcDbArc
 50
24.10587299999937
 51
90.12738799999956
  0
ARC
  5
15F
100
AcDbEntity
  8
LC-002-002-RND-0
  6
CONTINUOUS
 62
             7
100
AcDbCircle
 10
35.26138655472158
 20
13.43238300000002
 40
3.92500000000022
100
AcDbArc
 50
139.91172699999785
 51
-135.50420800000015
  0
ARC
  5
15E
100
AcDbEntity
  8
LC-002-002-RND-0
  6
CONTINUOUS
 62
             7
100
AcDbCircle
 10
58.41234155472153
 20
13.43237400000001
 40
3.925
100
AcDbArc
 50
-44.49583499999928
 51
40.08822999999374
  0
ARC
  5
15D
100
AcDbEntity
  8
LC-001-002-----0
  6
CONTINUOUS
 62
             7
100
AcDbCircle
 10
57.14915455472151
 20
12.36911499999999
 40
5.5761090000001
100
AcDbArc
 50
40.08823000000003
 51
90.09136199999941
  0
ARC
  5
15C
100
AcDbEntity
  8
LC-002-002-RND-0
  6
CONTINUOUS
 62
             7
100
AcDbCircle
 10
57.14033055472151
 20
13.97688300000002
 40
3.92499999999991
100
AcDbArc
 50
89.87256799999891
 51
155.89408300000309
  0
ARC
  5
15B
100
AcDbEntity
  8
LC-001-002-----0
  6
CONTINUOUS
 62
             7
100
AcDbCircle
 10
-36.52456844527848
 20
12.369137
 40
5.57610900000025
100
AcDbArc
 50
40.08825100000166
 51
90.09138399999954
  0
ARC
  5
15A
100
AcDbEntity
  8
LC-002-002-RND-0
  6
CONTINUOUS
 62
             7
100
AcDbCircle
 10
-36.53339244527843
 20
13.97690399999999
 40
3.9250000000003
100
AcDbArc
 50
89.87259000000063
 51
155.89410499999696
  0
ARC
  5
159
100
AcDbEntity
  8
LC-002-002-RND-0
  6
CONTINUOUS
 62
             7
100
AcDbCircle
 10
-35.26138144527847
 20
13.43239600000001
 40
3.92499999999981
100
AcDbArc
 50
-44.49581399999753
 51
40.08825099999954
  0
ARC
  5
158
100
AcDbEntity
  8
LC-002-002-RND-0
  6
CONTINUOUS
 62
             7
100
AcDbCircle
 10
-58.41233644527848
 20
13.43239600000001
 40
3.92499999999995
100
AcDbArc
 50
139.91174900000098
 51
-135.50418600000248
  0
ARC
  5
157
100
AcDbEntity
  8
LC-001-002-----0
  6
CONTINUOUS
 62
             7
100
AcDbCircle
 10
-57.14914944527846
 20
12.369137
 40
5.57610900000015
100
AcDbArc
 50
89.90861599999981
 51
139.911748999998
  0
ARC
  5
156
100
AcDbEntity
  8
LC-002-002-RND-0
  6
CONTINUOUS
 62
             7
100
AcDbCircle
 10
-57.14032544527846
 20
13.97690399999999
 40
3.92500000000015
100
AcDbArc
 50
24.10589500000309
 51
90.12740999999949
  0
ARC
  5
155
100
AcDbEntity
  8
LC-002-002-RND-0
  6
CONTINUOUS
 62
             7
100
AcDbCircle
 10
174.9999695547215
 20
1.001104
 40
2.0
100
AcDbArc
 50
0.0
 51
90.00021199999625
  0
ARC
  5
154
100
AcDbEntity
  8
LC-002-002-RND-0
  6
CONTINUOUS
 62
             7
100
AcDbCircle
 10
-175.00002244527849
 20
0.99981099999999
 40
1.99999999999971
100
AcDbArc
 50
90.00021199999625
 51
-179.9997520000029
  0
ARC
  5
153
100
AcDbEntity
  8
LC-001-002-----0
  6
CONTINUOUS
 62
             7
100
AcDbCircle
 10
104.31220855472149
 20
12.368697
 40
5.57610900000012
100
AcDbArc
 50
40.08825100000233
 51
90.09138399999975
  0
ARC
  5
152
100
AcDbEntity
  8
LC-002-002-RND-0
  6
CONTINUOUS
 62
             7
100
AcDbCircle
 10
104.3033845547215
 20
13.97646499999999
 40
3.92500000000033
100
AcDbArc
 50
89.87258999999317
 51
155.89410499999866
  0
ARC
  5
151
100
AcDbEntity
  8
LC-002-002-RND-0
  6
CONTINUOUS
 62
             7
100
AcDbCircle
 10
105.5753955547215
 20
13.43195600000001
 40
3.92499999999989
100
AcDbArc
 50
-44.49581399999637
 51
40.08825100000198
  0
ARC
  5
150
100
AcDbEntity
  8
LC-002-002-RND-0
  6
CONTINUOUS
 62
             7
100
AcDbCircle
 10
82.42444055472156
 20
13.43195600000001
 40
3.92499999999989
100
AcDbArc
 50
139.9117490000007
 51
-135.50418600000248
  0
ARC
  5
14F
100
AcDbEntity
  8
LC-001-002-----0
  6
CONTINUOUS
 62
             7
100
AcDbCircle
 10
83.68762755472157
 20
12.368697
 40
5.57610900000012
100
AcDbArc
 50
89.90861600000039
 51
139.91174899999825
  0
ARC
  5
14E
100
AcDbEntity
  8
LC-002-002-RND-0
  6
CONTINUOUS
 62
             7
100
AcDbCircle
 10
83.69645155472158
 20
13.97646499999999
 40
3.92500000000036
100
AcDbArc
 50
24.10589500000169
 51
90.12740999999939
  0
ARC
  5
14D
100
AcDbEntity
  8
LC-001-002-----0
  6
CONTINUOUS
 62
             7
100
AcDbCircle
 10
-83.69124044527844
 20
12.368697
 40
5.57610900000019
100
AcDbArc
 50
40.08825100000178
 51
90.0913840000002
  0
ARC
  5
14C
100
AcDbEntity
  8
LC-002-002-RND-0
  6
CONTINUOUS
 62
             7
100
AcDbCircle
 10
-83.70006544527844
 20
13.97646499999999
 40
3.92500000000033
100
AcDbArc
 50
89.87259000000063
 51
155.89410499999696
  0
ARC
  5
14B
100
AcDbEntity
  8
LC-002-002-RND-0
  6
CONTINUOUS
 62
             7
100
AcDbCircle
 10
-82.42805344527848
 20
13.43195600000001
 40
3.92499999999985
100
AcDbArc
 50
-44.49581399999696
 51
40.08825099999877
  0
ARC
  5
14A
100
AcDbEntity
  8
LC-002-002-RND-0
  6
CONTINUOUS
 62
             7
100
AcDbCircle
 10
-105.5790084452785
 20
13.43195600000001
 40
3.92499999999996
100
AcDbArc
 50
139.91174900000163
 51
-135.50418600000248
  0
ARC
  5
149
100
AcDbEntity
  8
LC-001-002-----0
  6
CONTINUOUS
 62
             7
100
AcDbCircle
 10
-104.3158214452785
 20
12.368697
 40
5.57610900000012
100
AcDbArc
 50
89.90861600000025
 51
139.91174899999825
  0
ARC
  5
148
100
AcDbEntity
  8
LC-002-002-RND-0
  6
CONTINUOUS
 62
             7
100
AcDbCircle
 10
-104.3069974452785
 20
13.97646499999999
 40
3.92500000000013
100
AcDbArc
 50
24.10589500000322
 51
90.12740999999978
  0
ARC
  5
147
100
AcDbEntity
  8
LC-002-002-RND-0
  6
CONTINUOUS
 62
             7
100
AcDbCircle
 10
-100.0035184452784
 20
-23.77443
 40
1.5
100
AcDbArc
 50
180.0
 51
-90.0
  0
ARC
  5
146
100
AcDbEntity
  8
LC-002-002-RND-0
  6
CONTINUOUS
 62
             7
100
AcDbCircle
 10
-102.0035184452784
 20
-9.77443
 40
0.5
100
AcDbArc
 50
0.0
 51
90.0
  0
ARC
  5
145
100
AcDbEntity
  8
LC-002-002-RND-0
  6
CONTINUOUS
 62
             7
100
AcDbCircle
 10
102.0034585547216
 20
-9.77443
 40
0.5
100
AcDbArc
 50
90.0
 51
180.0
  0
ARC
  5
144
100
AcDbEntity
  8
LC-002-002-RND-0
  6
CONTINUOUS
 62
             7
100
AcDbCircle
 10
100.0034585547216
 20
-23.77443
 40
1.5
100
AcDbArc
 50
-90.0
 51
0.0
  0
LINE
  5
143
100
AcDbEntity
  8
LC-001-002-----0
  6
CONTINUOUS
 62
             7
100
AcDbLine
 10
43.83682555472154
 20
9.90187800000001
 11
43.83682955472153
 21
18.74537199999998
  0
LINE
  5
142
100
AcDbEntity
  8
LC-006-003-----0
  6
CONTINUOUS
 62
             2
100
AcDbLine
 10
44.33682555472154
 20
9.90187800000001
 11
44.33682955472153
 21
19.24537199999998
  0
LINE
  5
141
100
AcDbEntity
  8
LC-006-003-----0
  6
CONTINUOUS
 62
             2
100
AcDbLine
 10
49.33682555472154
 20
9.90187600000002
 11
49.33682955472153
 21
19.24536999999998
  0
LINE
  5
140
100
AcDbEntity
  8
LC-001-002-----0
  6
CONTINUOUS
 62
             7
100
AcDbLine
 10
49.83682555472154
 20
9.90187600000002
 11
49.83682955472153
 21
18.74536999999998
  0
LINE
  5
13F
100
AcDbEntity
  8
LC-001-002-----0
  6
CONTINUOUS
 62
             7
100
AcDbLine
 10
49.83682955472153
 20
18.74536999999998
 11
43.83682955472153
 21
18.74537199999998
  0
LINE
  5
13E
100
AcDbEntity
  8
LC-001-002-----0
  6
CONTINUOUS
 62
             7
100
AcDbLine
 10
44.33682955472153
 20
19.24537199999998
 11
43.83682955472153
 21
18.74537199999998
  0
LINE
  5
13D
100
AcDbEntity
  8
LC-001-002-----0
  6
CONTINUOUS
 62
             7
100
AcDbLine
 10
49.33682955472153
 20
19.24536999999998
 11
49.83682955472153
 21
18.74536999999998
  0
LINE
  5
13C
100
AcDbEntity
  8
LC-001-002-----0
  6
CONTINUOUS
 62
             7
100
AcDbLine
 10
49.33682955472153
 20
19.24536999999998
 11
44.33682955472153
 21
19.24537199999998
  0
LINE
  5
13B
100
AcDbEntity
  8
LC-001-002-----0
  6
CONTINUOUS
 62
             7
100
AcDbLine
 10
61.39174755472157
 20
10.877229
 11
54.63664555472149
 21
3.00049999999999
  0
LINE
  5
13A
100
AcDbEntity
  8
LC-001-002-----0
  6
CONTINUOUS
 62
             7
100
AcDbLine
 10
32.28197955472154
 20
10.87724
 11
39.03702555472153
 21
3.000564
  0
LINE
  5
139
100
AcDbEntity
  8
LC-001-002-----0
  6
CONTINUOUS
 62
             7
100
AcDbLine
 10
40.14896555472154
 20
15.58970600000001
 11
41.83686255472156
 21
9.90187900000001
  0
LINE
  5
138
100
AcDbEntity
  8
LC-001-002-----0
  6
CONTINUOUS
 62
             7
100
AcDbLine
 10
51.83686255472156
 20
9.90187499999999
 11
52.60367855472156
 21
3.00050899999999
  0
LINE
  5
137
100
AcDbEntity
  8
LC-001-002-----0
  6
CONTINUOUS
 62
             7
100
AcDbLine
 10
41.07004655472155
 20
3.00055599999999
 11
41.83686255472156
 21
9.90187900000001
  0
LINE
  5
136
100
AcDbEntity
  8
LC-001-002-----0
  6
CONTINUOUS
 62
             7
100
AcDbLine
 10
53.52476455472156
 20
15.58969999999999
 11
51.83686255472156
 21
9.90187499999999
  0
LINE
  5
135
100
AcDbEntity
  8
LC-001-002-----0
  6
CONTINUOUS
 62
             7
100
AcDbLine
 10
41.83686255472156
 20
9.90187900000001
 11
51.83686255472156
 21
9.90187499999999
  0
LINE
  5
134
100
AcDbEntity
  8
LC-001-002-----0
  6
DASHDOT
 62
             2
100
AcDbLine
 10
46.83912255472153
 20
19.24537099999998
 11
46.83645155472157
 21
-32.25462899999999
  0
LINE
  5
133
100
AcDbEntity
  8
LC-001-002-----0
  6
CONTINUOUS
 62
             7
100
AcDbLine
 10
43.95006055472157
 20
-29.805319
 11
43.95006155472157
 21
-25.943602
  0
LINE
  5
132
100
AcDbEntity
  8
LC-001-002-----0
  6
CONTINUOUS
 62
             7
100
AcDbLine
 10
49.72356255472158
 20
-29.80537200000001
 11
49.72356455472157
 21
-25.937849
  0
LINE
  5
131
100
AcDbEntity
  8
LC-001-002-----0
  6
CONTINUOUS
 62
             7
100
AcDbLine
 10
41.06331055472156
 20
-25.94357399999998
 11
41.06330855472157
 21
-29.805317
  0
LINE
  5
130
100
AcDbEntity
  8
LC-001-002-----0
  6
CONTINUOUS
 62
             7
100
AcDbLine
 10
52.61031555472157
 20
-25.943579
 11
52.61031455472158
 21
-29.80532099999999
  0
LINE
  5
12F
100
AcDbEntity
  8
LC-001-002-----0
  6
CONTINUOUS
 62
             7
100
AcDbLine
 10
51.16694155472151
 20
-25.274449
 11
42.50668755472156
 21
-25.27444600000001
  0
LINE
  5
12E
100
AcDbEntity
  8
LC-001-002-----0
  6
CONTINUOUS
 62
             7
100
AcDbLine
 10
51.16693955472152
 20
-30.47444899999999
 11
42.50668455472157
 21
-30.474446
  0
LINE
  5
12D
100
AcDbEntity
  8
LC-006-003-----0
  6
CONTINUOUS
 62
             2
100
AcDbLine
 10
44.33680955472158
 20
-32.254628
 11
44.33681055472157
 21
-30.474447
  0
LINE
  5
12C
100
AcDbEntity
  8
LC-006-003-----0
  6
CONTINUOUS
 62
             2
100
AcDbLine
 10
49.33680955472158
 20
-32.25462999999999
 11
49.33681055472157
 21
-30.47444899999999
  0
LINE
  5
12B
100
AcDbEntity
  8
LC-001-002-----0
  6
CONTINUOUS
 62
             7
100
AcDbLine
 10
43.83680955472158
 20
-31.754628
 11
49.83680955472158
 21
-31.75462999999999
  0
LINE
  5
12A
100
AcDbEntity
  8
LC-001-002-----0
  6
CONTINUOUS
 62
             7
100
AcDbLine
 10
49.33680955472158
 20
-32.25462999999999
 11
49.83680955472158
 21
-31.75462999999999
  0
LINE
  5
129
100
AcDbEntity
  8
LC-001-002-----0
  6
CONTINUOUS
 62
             7
100
AcDbLine
 10
44.33680955472158
 20
-32.254628
 11
43.83680955472158
 21
-31.754628
  0
LINE
  5
128
100
AcDbEntity
  8
LC-001-002-----0
  6
CONTINUOUS
 62
             7
100
AcDbLine
 10
43.83680955472158
 20
-31.754628
 11
43.83681055472157
 21
-30.474447
  0
LINE
  5
127
100
AcDbEntity
  8
LC-001-002-----0
  6
CONTINUOUS
 62
             7
100
AcDbLine
 10
44.33680955472158
 20
-32.254628
 11
49.33680955472158
 21
-32.25462999999999
  0
LINE
  5
126
100
AcDbEntity
  8
LC-001-002-----0
  6
CONTINUOUS
 62
             7
100
AcDbLine
 10
49.83680955472158
 20
-31.75462999999999
 11
49.83681055472157
 21
-30.47444899999999
  0
LINE
  5
125
100
AcDbEntity
  8
LC-001-002-----0
  6
DASHDOT
 62
             2
100
AcDbLine
 10
-46.83911444527843
 20
19.24538899999999
 11
-46.83646344527848
 21
-32.25461100000001
  0
LINE
  5
124
100
AcDbEntity
  8
LC-001-002-----0
  6
CONTINUOUS
 62
             7
100
AcDbLine
 10
-43.83682144527842
 20
9.901895
 11
-43.83682144527842
 21
18.74538899999999
  0
LINE
  5
123
100
AcDbEntity
  8
LC-006-003-----0
  6
CONTINUOUS
 62
             2
100
AcDbLine
 10
-44.33682144527842
 20
9.901895
 11
-44.33682144527842
 21
19.24538899999999
  0
LINE
  5
122
100
AcDbEntity
  8
LC-006-003-----0
  6
CONTINUOUS
 62
             2
100
AcDbLine
 10
-49.33682144527842
 20
9.901895
 11
-49.33682144527842
 21
19.24538899999999
  0
LINE
  5
121
100
AcDbEntity
  8
LC-001-002-----0
  6
CONTINUOUS
 62
             7
100
AcDbLine
 10
-49.83682144527842
 20
9.901895
 11
-49.83682144527842
 21
18.74538899999999
  0
LINE
  5
120
100
AcDbEntity
  8
LC-001-002-----0
  6
CONTINUOUS
 62
             7
100
AcDbLine
 10
-49.83682144527842
 20
18.74538899999999
 11
-43.83682144527842
 21
18.74538899999999
  0
LINE
  5
11F
100
AcDbEntity
  8
LC-001-002-----0
  6
CONTINUOUS
 62
             7
100
AcDbLine
 10
-44.33682144527842
 20
19.24538899999999
 11
-43.83682144527842
 21
18.74538899999999
  0
LINE
  5
11E
100
AcDbEntity
  8
LC-001-002-----0
  6
CONTINUOUS
 62
             7
100
AcDbLine
 10
-49.33682144527842
 20
19.24538899999999
 11
-49.83682144527842
 21
18.74538899999999
  0
LINE
  5
11D
100
AcDbEntity
  8
LC-001-002-----0
  6
CONTINUOUS
 62
             7
100
AcDbLine
 10
-49.33682144527842
 20
19.24538899999999
 11
-44.33682144527842
 21
19.24538899999999
  0
LINE
  5
11C
100
AcDbEntity
  8
LC-001-002-----0
  6
CONTINUOUS
 62
             7
100
AcDbLine
 10
-61.39174344527846
 20
10.877252
 11
-54.63664444527849
 21
3.00052099999999
  0
LINE
  5
11B
100
AcDbEntity
  8
LC-001-002-----0
  6
CONTINUOUS
 62
             7
100
AcDbLine
 10
-32.28197444527843
 20
10.877252
 11
-39.03702344527847
 21
3.00057900000002
  0
LINE
  5
11A
100
AcDbEntity
  8
LC-001-002-----0
  6
CONTINUOUS
 62
             7
100
AcDbLine
 10
-40.14895944527843
 20
15.589721
 11
-41.83685944527844
 21
9.901895
  0
LINE
  5
119
100
AcDbEntity
  8
LC-001-002-----0
  6
CONTINUOUS
 62
             7
100
AcDbLine
 10
-51.83685944527844
 20
9.901895
 11
-52.60367744527844
 21
3.000529
  0
LINE
  5
118
100
AcDbEntity
  8
LC-001-002-----0
  6
CONTINUOUS
 62
             7
100
AcDbLine
 10
-41.07004544527843
 20
3.00057100000001
 11
-41.83685944527844
 21
9.901895
  0
LINE
  5
117
100
AcDbEntity
  8
LC-001-002-----0
  6
CONTINUOUS
 62
             7
100
AcDbLine
 10
-53.52475844527846
 20
15.589721
 11
-51.83685944527844
 21
9.901895
  0
LINE
  5
116
100
AcDbEntity
  8
LC-001-002-----0
  6
CONTINUOUS
 62
             7
100
AcDbLine
 10
-41.83685944527844
 20
9.901895
 11
-51.83685944527844
 21
9.901895
  0
LINE
  5
115
100
AcDbEntity
  8
LC-001-002-----0
  6
CONTINUOUS
 62
             7
100
AcDbLine
 10
-43.95007144527848
 20
-29.80530300000001
 11
-43.95007144527848
 21
-25.94358499999999
  0
LINE
  5
114
100
AcDbEntity
  8
LC-001-002-----0
  6
CONTINUOUS
 62
             7
100
AcDbLine
 10
-49.72357444527842
 20
-29.805353
 11
-49.72357444527842
 21
-25.93782999999999
  0
LINE
  5
113
100
AcDbEntity
  8
LC-001-002-----0
  6
CONTINUOUS
 62
             7
100
AcDbLine
 10
-41.06332044527847
 20
-25.943558
 11
-41.06332044527847
 21
-29.80530099999999
  0
LINE
  5
112
100
AcDbEntity
  8
LC-001-002-----0
  6
CONTINUOUS
 62
             7
100
AcDbLine
 10
-52.61032544527843
 20
-25.94355899999999
 11
-52.61032544527843
 21
-29.80530099999999
  0
LINE
  5
111
100
AcDbEntity
  8
LC-001-002-----0
  6
CONTINUOUS
 62
             7
100
AcDbLine
 10
-51.16695144527848
 20
-25.27443
 11
-42.50669744527847
 21
-25.27443
  0
LINE
  5
110
100
AcDbEntity
  8
LC-001-002-----0
  6
CONTINUOUS
 62
             7
100
AcDbLine
 10
-51.16695044527848
 20
-30.47442999999998
 11
-42.50669644527847
 21
-30.47442999999998
  0
LINE
  5
10F
100
AcDbEntity
  8
LC-006-003-----0
  6
CONTINUOUS
 62
             2
100
AcDbLine
 10
-44.33682144527842
 20
-32.25461100000001
 11
-44.33682144527842
 21
-30.47442999999998
  0
LINE
  5
10E
100
AcDbEntity
  8
LC-006-003-----0
  6
CONTINUOUS
 62
             2
100
AcDbLine
 10
-49.33682144527842
 20
-32.25461100000001
 11
-49.33682144527842
 21
-30.47442999999998
  0
LINE
  5
10D
100
AcDbEntity
  8
LC-001-002-----0
  6
CONTINUOUS
 62
             7
100
AcDbLine
 10
-43.83682144527842
 20
-31.75461100000001
 11
-49.83682144527842
 21
-31.75461100000001
  0
LINE
  5
10C
100
AcDbEntity
  8
LC-001-002-----0
  6
CONTINUOUS
 62
             7
100
AcDbLine
 10
-49.33682144527842
 20
-32.25461100000001
 11
-49.83682144527842
 21
-31.75461100000001
  0
LINE
  5
10B
100
AcDbEntity
  8
LC-001-002-----0
  6
CONTINUOUS
 62
             7
100
AcDbLine
 10
-44.33682144527842
 20
-32.25461100000001
 11
-43.83682144527842
 21
-31.75461100000001
  0
LINE
  5
10A
100
AcDbEntity
  8
LC-001-002-----0
  6
CONTINUOUS
 62
             7
100
AcDbLine
 10
-43.83682144527842
 20
-31.75461100000001
 11
-43.83682144527842
 21
-30.47442999999998
  0
LINE
  5
109
100
AcDbEntity
  8
LC-001-002-----0
  6
CONTINUOUS
 62
             7
100
AcDbLine
 10
-44.33682144527842
 20
-32.25461100000001
 11
-49.33682144527842
 21
-32.25461100000001
  0
LINE
  5
108
100
AcDbEntity
  8
LC-001-002-----0
  6
CONTINUOUS
 62
             7
100
AcDbLine
 10
-49.83682144527842
 20
-31.75461100000001
 11
-49.83682144527842
 21
-30.47442999999998
  0
LINE
  5
107
100
AcDbEntity
  8
LC-001-002-----0
  6
CONTINUOUS
 62
             7
100
AcDbLine
 10
97.00348255472152
 20
-31.755088
 11
97.00348255472152
 21
-30.47487000000001
  0
LINE
  5
106
100
AcDbEntity
  8
LC-001-002-----0
  6
CONTINUOUS
 62
             7
100
AcDbLine
 10
91.00348255472152
 20
-31.75508600000001
 11
97.00348255472152
 21
-31.755088
  0
LINE
  5
105
100
AcDbEntity
  8
LC-001-002-----0
  6
CONTINUOUS
 62
             7
100
AcDbLine
 10
96.50348155472152
 20
-32.255088
 11
97.00348255472152
 21
-31.755088
  0
LINE
  5
104
100
AcDbEntity
  8
LC-001-002-----0
  6
CONTINUOUS
 62
             7
100
AcDbLine
 10
91.50348155472152
 20
-32.25508600000001
 11
91.00348255472152
 21
-31.75508600000001
  0
LINE
  5
103
100
AcDbEntity
  8
LC-001-002-----0
  6
CONTINUOUS
 62
             7
100
AcDbLine
 10
91.50348155472152
 20
-32.25508600000001
 11
96.50348155472152
 21
-32.255088
  0
LINE
  5
102
100
AcDbEntity
  8
LC-009-006-MLN-0
  6
DASHDOT
 62
             2
100
AcDbLine
 10
-94.00826344527845
 20
28.74498499999999
 11
-94.00217244527848
 21
-40.75501499999999
  0
LINE
  5
101
100
AcDbEntity
  8
LC-001-002-----0
  6
CONTINUOUS
 62
             7
100
AcDbLine
 10
128.0127235547215
 20
-0.00004899999999
 11
124.4399585547216
 21
-1.30042800000001
  0
LINE
  5
100
100
AcDbEntity
  8
LC-001-002-----0
  6
CONTINUOUS
 62
             7
100
AcDbLine
 10
-128.01272344527851
 20
0.0
 11
128.00966755472149
 21
0.0
  0
LINE
  5
FF
100
AcDbEntity
  8
LC-001-002-----0
  6
CONTINUOUS
 62
             7
100
AcDbLine
 10
-124.43995844527851
 20
-1.30037999999999
 11
124.4399585547216
 21
-1.30037999999999
  0
LINE
  5
FE
100
AcDbEntity
  8
LC-001-002-----0
  6
CONTINUOUS
 62
             7
100
AcDbLine
 10
-124.7338034452785
 20
-2.107711
 11
124.45244455472159
 21
-2.107711
  0
LINE
  5
FD
100
AcDbEntity
  8
LC-001-002-----0
  6
CONTINUOUS
 62
             7
100
AcDbLine
 10
-91.00349444527849
 20
9.901455
 11
-91.00349444527849
 21
18.74494900000002
  0
LINE
  5
FC
100
AcDbEntity
  8
LC-006-003-----0
  6
CONTINUOUS
 62
             2
100
AcDbLine
 10
-91.50349444527849
 20
9.901455
 11
-91.50349444527849
 21
19.24494900000002
  0
LINE
  5
FB
100
AcDbEntity
  8
LC-006-003-----0
  6
CONTINUOUS
 62
             2
100
AcDbLine
 10
-96.50349444527849
 20
9.901455
 11
-96.50349444527849
 21
19.24494900000002
  0
LINE
  5
FA
100
AcDbEntity
  8
LC-001-002-----0
  6
CONTINUOUS
 62
             7
100
AcDbLine
 10
-97.00349444527849
 20
9.901455
 11
-97.00349444527849
 21
18.74494900000002
  0
LINE
  5
F9
100
AcDbEntity
  8
LC-001-002-----0
  6
CONTINUOUS
 62
             7
100
AcDbLine
 10
97.00343655472152
 20
9.901455
 11
97.00343655472152
 21
18.74494900000002
  0
LINE
  5
F8
100
AcDbEntity
  8
LC-006-003-----0
  6
CONTINUOUS
 62
             2
100
AcDbLine
 10
96.50343655472152
 20
9.901455
 11
96.50343655472152
 21
19.24494900000002
  0
LINE
  5
F7
100
AcDbEntity
  8
LC-006-003-----0
  6
CONTINUOUS
 62
             2
100
AcDbLine
 10
91.50343655472152
 20
9.901455
 11
91.50343655472152
 21
19.24494900000002
  0
LINE
  5
F6
100
AcDbEntity
  8
LC-001-002-----0
  6
CONTINUOUS
 62
             7
100
AcDbLine
 10
91.00343655472152
 20
9.901455
 11
91.00343655472152
 21
18.74494900000002
  0
LINE
  5
F5
100
AcDbEntity
  8
LC-001-002-----0
  6
CONTINUOUS
 62
             7
100
AcDbLine
 10
-80.00002944527849
 20
-151.00018900000001
 11
80.06701255472153
 21
-151.00018900000001
  0
LINE
  5
F4
100
AcDbEntity
  8
LC-001-002-----0
  6
CONTINUOUS
 62
             7
100
AcDbLine
 10
-79.99983944527845
 20
-76.11203499999999
 11
-80.00002944527849
 21
-151.00018900000001
  0
LINE
  5
F3
100
AcDbEntity
  8
LC-004-005-----0
  6
CONTINUOUS
 62
             2
100
AcDbLine
 10
-78.26148044527845
 20
-157.00018900000001
 11
-76.50002944527849
 21
-155.23873900000001
  0
LINE
  5
F2
100
AcDbEntity
  8
LC-001-002-----0
  6
CONTINUOUS
 62
             7
100
AcDbLine
 10
-163.15724844527841
 20
-75.694323
 11
-163.25641944527851
 21
-76.69049799999999
  0
LINE
  5
F1
100
AcDbEntity
  8
LC-001-002-----0
  6
CONTINUOUS
 62
             7
100
AcDbLine
 10
-163.36813244527841
 20
-78.86203599999999
 11
-163.36813244527841
 21
-79.86203599999999
  0
LINE
  5
F0
100
AcDbEntity
  8
LC-001-002-----0
  6
CONTINUOUS
 62
             7
100
AcDbLine
 10
-163.15724844527841
 20
-83.02974799999998
 11
-163.25641944527851
 21
-82.03357299999999
  0
LINE
  5
EF
100
AcDbEntity
  8
LC-001-002-----0
  6
CONTINUOUS
 62
             7
100
AcDbLine
 10
-156.1149444452785
 20
-82.91102000000001
 11
-156.28346644527841
 21
-81.41779299999999
  0
LINE
  5
EE
100
AcDbEntity
  8
LC-001-002-----0
  6
CONTINUOUS
 62
             7
100
AcDbLine
 10
-156.36813244527841
 20
-78.61203599999999
 11
-156.36813244527841
 21
-80.11203599999999
  0
LINE
  5
ED
100
AcDbEntity
  8
LC-001-002-----0
  6
CONTINUOUS
 62
             7
100
AcDbLine
 10
-156.1149444452785
 20
-75.813052
 11
-156.28346644527841
 21
-77.30627899999999
  0
LINE
  5
EC
100
AcDbEntity
  8
LC-001-002-----0
  6
CONTINUOUS
 62
             7
100
AcDbLine
 10
-156.14303144527841
 20
-76.06192300000001
 11
-163.15724844527841
 21
-75.694323
  0
LINE
  5
EB
100
AcDbEntity
  8
LC-001-002-----0
  6
CONTINUOUS
 62
             7
100
AcDbLine
 10
-156.25537944527841
 20
-77.05740700000001
 11
-163.25641944527851
 21
-76.69049799999999
  0
LINE
  5
EA
100
AcDbEntity
  8
LC-001-002-----0
  6
CONTINUOUS
 62
             7
100
AcDbLine
 10
-156.36813244527841
 20
-78.86203599999999
 11
-163.36813244527841
 21
-78.86203599999999
  0
LINE
  5
E9
100
AcDbEntity
  8
LC-001-002-----0
  6
CONTINUOUS
 62
             7
100
AcDbLine
 10
-156.36813244527841
 20
-79.86203599999999
 11
-163.36813244527841
 21
-79.86203599999999
  0
LINE
  5
E8
100
AcDbEntity
  8
LC-001-002-----0
  6
CONTINUOUS
 62
             7
100
AcDbLine
 10
-156.25537944527841
 20
-81.666664
 11
-163.25641944527851
 21
-82.03357299999999
  0
LINE
  5
E7
100
AcDbEntity
  8
LC-001-002-----0
  6
CONTINUOUS
 62
             7
100
AcDbLine
 10
-156.14303144527841
 20
-82.662149
 11
-163.15724844527841
 21
-83.02974799999998
  0
LINE
  5
E6
100
AcDbEntity
  8
LC-001-002-----0
  6
CONTINUOUS
 62
             7
100
AcDbLine
 10
-131.36813244527841
 20
-81.61409399999999
 11
-156.1149444452785
 21
-82.91102000000001
  0
LINE
  5
E5
100
AcDbEntity
  8
LC-001-002-----0
  6
CONTINUOUS
 62
             7
100
AcDbLine
 10
-131.36813244527841
 20
-80.11203599999999
 11
-156.28346644527841
 21
-81.41779299999999
  0
LINE
  5
E4
100
AcDbEntity
  8
LC-001-002-----0
  6
CONTINUOUS
 62
             7
100
AcDbLine
 10
-131.36813244527841
 20
-80.11203599999999
 11
-156.36813244527841
 21
-80.11203599999999
  0
LINE
  5
E3
100
AcDbEntity
  8
LC-001-002-----0
  6
CONTINUOUS
 62
             7
100
AcDbLine
 10
-131.36813244527841
 20
-78.61203599999999
 11
-156.36813244527841
 21
-78.61203599999999
  0
LINE
  5
E2
100
AcDbEntity
  8
LC-001-002-----0
  6
CONTINUOUS
 62
             7
100
AcDbLine
 10
-131.36813244527841
 20
-78.61203599999999
 11
-156.28346644527841
 21
-77.30627899999999
  0
LINE
  5
E1
100
AcDbEntity
  8
LC-001-002-----0
  6
CONTINUOUS
 62
             7
100
AcDbLine
 10
-131.36813244527841
 20
-77.10997699999999
 11
-156.1149444452785
 21
-75.813052
  0
LINE
  5
E0
100
AcDbEntity
  8
LC-001-002-----0
  6
CONTINUOUS
 62
             7
100
AcDbLine
 10
-131.36813244527841
 20
-76.11203599999999
 11
-131.36813244527841
 21
-82.61203599999999
  0
LINE
  5
DF
100
AcDbEntity
  8
LC-001-002-----0
  6
CONTINUOUS
 62
             7
100
AcDbLine
 10
-117.99932244527849
 20
-76.11203599999999
 11
-131.36813244527841
 21
-76.11203599999999
  0
LINE
  5
DE
100
AcDbEntity
  8
LC-001-002-----0
  6
CONTINUOUS
 62
             7
100
AcDbLine
 10
-117.99932244527849
 20
-82.61203599999999
 11
-131.36813244527841
 21
-82.61203599999999
  0
LINE
  5
DD
100
AcDbEntity
  8
LC-001-002-----0
  6
DASHDOT
 62
             2
100
AcDbLine
 10
-115.99932244527849
 20
-70.99896699999999
 11
-115.99932244527849
 21
-84.682489
  0
LINE
  5
DC
100
AcDbEntity
  8
LC-001-002-----0
  6
DASHDOT
 62
             2
100
AcDbLine
 10
-117.99932244527849
 20
-70.99896699999999
 11
-117.99932244527849
 21
-84.682489
  0
LINE
  5
DB
100
AcDbEntity
  8
LC-001-002-----0
  6
CONTINUOUS
 62
             7
100
AcDbLine
 10
-115.99932244527849
 20
-82.61203599999999
 11
-79.49932244527845
 21
-82.61203599999999
  0
LINE
  5
DA
100
AcDbEntity
  8
LC-001-002-----0
  6
CONTINUOUS
 62
             7
100
AcDbLine
 10
-115.99932244527849
 20
-76.11203599999999
 11
-79.49932244527845
 21
-76.11203599999999
  0
LINE
  5
D9
100
AcDbEntity
  8
LC-001-002-----0
  6
CONTINUOUS
 62
             7
100
AcDbLine
 10
91.50343655472152
 20
19.24494900000002
 11
96.50343655472152
 21
19.24494900000002
  0
LINE
  5
D8
100
AcDbEntity
  8
LC-001-002-----0
  6
CONTINUOUS
 62
             7
100
AcDbLine
 10
97.00343655472152
 20
9.901455
 11
88.99991755472153
 21
9.901455
  0
LINE
  5
D7
100
AcDbEntity
  8
LC-001-002-----0
  6
CONTINUOUS
 62
             7
100
AcDbLine
 10
-101.8033164452784
 20
3.00008099999999
 11
127.51787855472161
 21
3.00092900000001
  0
LINE
  5
D6
100
AcDbEntity
  8
LC-001-002-----0
  6
CONTINUOUS
 62
             7
100
AcDbLine
 10
-90.50351844527843
 20
-25.27443
 11
86.95285355472156
 21
-25.27443
  0
LINE
  5
D5
100
AcDbEntity
  8
LC-001-002-----0
  6
CONTINUOUS
 62
             7
100
AcDbLine
 10
-97.00349444527849
 20
-25.27443
 11
-91.00349444527849
 21
-25.27443
  0
LINE
  5
D4
100
AcDbEntity
  8
LC-001-002-----0
  6
CONTINUOUS
 62
             7
100
AcDbLine
 10
127.5167425547216
 20
3.00092900000001
 11
174.99996155472161
 21
3.001104
  0
LINE
  5
D3
100
AcDbEntity
  8
LC-001-002-----0
  6
CONTINUOUS
 62
             7
100
AcDbLine
 10
128.00966755472149
 20
0.00092900000001
 11
176.9999695547215
 21
0.00111000000001
  0
LINE
  5
D2
100
AcDbEntity
  8
LC-001-002-----0
  6
CONTINUOUS
 62
             7
100
AcDbLine
 10
176.9999695547215
 20
1.001104
 11
176.9999695547215
 21
0.00141400000001
  0
LINE
  5
D1
100
AcDbEntity
  8
LC-001-002-----0
  6
CONTINUOUS
 62
             7
100
AcDbLine
 10
-177.00002244527849
 20
0.99980199999999
 11
-177.00001744527839
 21
-0.00808699999999
  0
LINE
  5
D0
100
AcDbEntity
  8
LC-001-002-----0
  6
CONTINUOUS
 62
             7
100
AcDbLine
 10
-177.00001744527839
 20
-0.00019699999999
 11
-128.0127294452785
 21
-0.00001599999999
  0
LINE
  5
CF
100
AcDbEntity
  8
LC-001-002-----0
  6
CONTINUOUS
 62
             7
100
AcDbLine
 10
-175.0000294452785
 20
2.99981099999999
 11
-101.8033164452784
 21
3.00008099999999
  0
LINE
  5
CE
100
AcDbEntity
  8
LC-001-002-----0
  6
CONTINUOUS
 62
             7
100
AcDbLine
 10
-79.99970944527844
 20
-25.27443
 11
-79.99983944527845
 21
-76.11203599999999
  0
LINE
  5
CD
100
AcDbEntity
  8
LC-001-002-----0
  6
CONTINUOUS
 62
             7
100
AcDbLine
 10
79.99997055472151
 20
-151.00018900000001
 11
79.99967255472159
 21
-25.27443
  0
LINE
  5
CC
100
AcDbEntity
  8
LC-009-006-MLN-0
  6
DASHDOT
 62
             2
100
AcDbLine
 10
94.00827455472158
 20
28.74494900000002
 11
94.00215755472156
 21
-40.75505100000001
  0
LINE
  5
CB
100
AcDbEntity
  8
LC-001-002-----0
  6
CONTINUOUS
 62
             7
100
AcDbLine
 10
-76.50002944527849
 20
-157.00018900000001
 11
76.49997055472151
 21
-157.00018900000001
  0
LINE
  5
CA
100
AcDbEntity
  8
LC-001-002-----0
  6
CONTINUOUS
 62
             7
100
AcDbLine
 10
76.49997055472151
 20
-157.00018900000001
 11
78.39227455472148
 21
-157.00018900000001
  0
LINE
  5
C9
100
AcDbEntity
  8
LC-001-002-----0
  6
CONTINUOUS
 62
             7
100
AcDbLine
 10
-76.50002944527849
 20
-157.00018900000001
 11
-78.39233444527845
 21
-157.00018900000001
  0
LINE
  5
C8
100
AcDbEntity
  8
LC-001-002-----0
  6
CONTINUOUS
 62
             7
100
AcDbLine
 10
-78.39233444527845
 20
-157.00018900000001
 11
-80.00002944527849
 21
-151.00018900000001
  0
LINE
  5
C7
100
AcDbEntity
  8
LC-001-002-----0
  6
CONTINUOUS
 62
             7
100
AcDbLine
 10
78.39227455472148
 20
-157.00018900000001
 11
80.06701255472153
 21
-150.74998500000001
  0
LINE
  5
C6
100
AcDbEntity
  8
LC-001-002-----0
  6
DASHDOT
 62
             2
100
AcDbLine
 10
-0.00002944527848
 20
-157.00018900000001
 11
0.00001355472153
 21
72.27283799999998
  0
LINE
  5
C5
100
AcDbEntity
  8
LC-001-002-----0
  6
CONTINUOUS
 62
             7
100
AcDbLine
 10
91.11668455472152
 20
-29.80574200000001
 11
91.11668455472152
 21
-25.94402500000001
  0
LINE
  5
C4
100
AcDbEntity
  8
LC-001-002-----0
  6
CONTINUOUS
 62
             7
100
AcDbLine
 10
96.89018655472152
 20
-29.80579299999999
 11
96.89018655472152
 21
-25.93826999999999
  0
LINE
  5
C3
100
AcDbEntity
  8
LC-001-002-----0
  6
CONTINUOUS
 62
             7
100
AcDbLine
 10
88.22993255472152
 20
-25.94399799999999
 11
88.22993255472152
 21
-29.80574100000001
  0
LINE
  5
C2
100
AcDbEntity
  8
LC-001-002-----0
  6
CONTINUOUS
 62
             7
100
AcDbLine
 10
99.77693855472153
 20
-25.94399799999999
 11
99.77693855472153
 21
-29.80574100000001
  0
LINE
  5
C1
100
AcDbEntity
  8
LC-001-002-----0
  6
CONTINUOUS
 62
             7
100
AcDbLine
 10
98.33356355472158
 20
-25.27486999999999
 11
89.67331055472157
 21
-25.27486999999999
  0
LINE
  5
C0
100
AcDbEntity
  8
LC-001-002-----0
  6
CONTINUOUS
 62
             7
100
AcDbLine
 10
98.33356355472158
 20
-30.47487000000001
 11
89.67330855472157
 21
-30.47487000000001
  0
LINE
  5
BF
100
AcDbEntity
  8
LC-001-002-----0
  6
CONTINUOUS
 62
             7
100
AcDbLine
 10
-91.11674344527849
 20
-29.80574200000001
 11
-91.11674344527849
 21
-25.94402500000001
  0
LINE
  5
BE
100
AcDbEntity
  8
LC-001-002-----0
  6
CONTINUOUS
 62
             7
100
AcDbLine
 10
-96.89024644527849
 20
-29.80579299999999
 11
-96.89024644527849
 21
-25.93826999999999
  0
LINE
  5
BD
100
AcDbEntity
  8
LC-001-002-----0
  6
CONTINUOUS
 62
             7
100
AcDbLine
 10
-88.22999244527848
 20
-25.94399799999999
 11
-88.22999244527848
 21
-29.80574100000001
  0
LINE
  5
BC
100
AcDbEntity
  8
LC-001-002-----0
  6
CONTINUOUS
 62
             7
100
AcDbLine
 10
-99.7769974452785
 20
-25.94399799999999
 11
-99.7769974452785
 21
-29.80574100000001
  0
LINE
  5
BB
100
AcDbEntity
  8
LC-001-002-----0
  6
CONTINUOUS
 62
             7
100
AcDbLine
 10
-98.33362344527843
 20
-25.27486999999999
 11
-89.67336944527848
 21
-25.27486999999999
  0
LINE
  5
BA
100
AcDbEntity
  8
LC-001-002-----0
  6
CONTINUOUS
 62
             7
100
AcDbLine
 10
-98.33362344527843
 20
-30.47487000000001
 11
-89.67336844527843
 21
-30.47487000000001
  0
LINE
  5
B9
100
AcDbEntity
  8
LC-006-003-----0
  6
CONTINUOUS
 62
             2
100
AcDbLine
 10
91.50343655472152
 20
-32.25508600000001
 11
91.50343655472152
 21
-30.47487000000001
  0
LINE
  5
B8
100
AcDbEntity
  8
LC-006-003-----0
  6
CONTINUOUS
 62
             2
100
AcDbLine
 10
96.50343655472152
 20
-32.255088
 11
96.50343655472152
 21
-30.47487000000001
  0
LINE
  5
B7
100
AcDbEntity
  8
LC-001-002-----0
  6
CONTINUOUS
 62
             7
100
AcDbLine
 10
97.00343655472152
 20
18.74494900000002
 11
91.00343655472152
 21
18.74494900000002
  0
LINE
  5
B6
100
AcDbEntity
  8
LC-001-002-----0
  6
CONTINUOUS
 62
             7
100
AcDbLine
 10
91.50343655472152
 20
19.24494900000002
 11
91.00343655472152
 21
18.74494900000002
  0
LINE
  5
B5
100
AcDbEntity
  8
LC-001-002-----0
  6
CONTINUOUS
 62
             7
100
AcDbLine
 10
96.50343655472152
 20
19.24494900000002
 11
97.00343655472152
 21
18.74494900000002
  0
LINE
  5
B4
100
AcDbEntity
  8
LC-001-002-----0
  6
CONTINUOUS
 62
             7
100
AcDbLine
 10
91.00343655472152
 20
-31.75508600000001
 11
91.00343655472152
 21
-30.47487000000001
  0
LINE
  5
B3
100
AcDbEntity
  8
LC-006-003-----0
  6
CONTINUOUS
 62
             2
100
AcDbLine
 10
-91.50349444527849
 20
-32.25505100000001
 11
-91.50349444527849
 21
-30.47487000000001
  0
LINE
  5
B2
100
AcDbEntity
  8
LC-006-003-----0
  6
CONTINUOUS
 62
             2
100
AcDbLine
 10
-96.50349444527849
 20
-32.25505100000001
 11
-96.50349444527849
 21
-30.47487000000001
  0
LINE
  5
B1
100
AcDbEntity
  8
LC-001-002-----0
  6
CONTINUOUS
 62
             7
100
AcDbLine
 10
-91.00349444527849
 20
-31.75505100000001
 11
-97.00349444527849
 21
-31.75505100000001
  0
LINE
  5
B0
100
AcDbEntity
  8
LC-001-002-----0
  6
CONTINUOUS
 62
             7
100
AcDbLine
 10
-96.50349444527849
 20
-32.25505100000001
 11
-97.00349444527849
 21
-31.75505100000001
  0
LINE
  5
AF
100
AcDbEntity
  8
LC-001-002-----0
  6
CONTINUOUS
 62
             7
100
AcDbLine
 10
-91.50349444527849
 20
-32.25505100000001
 11
-91.00349444527849
 21
-31.75505100000001
  0
LINE
  5
AE
100
AcDbEntity
  8
LC-001-002-----0
  6
CONTINUOUS
 62
             7
100
AcDbLine
 10
-97.00349444527849
 20
18.74494900000002
 11
-91.00349444527849
 21
18.74494900000002
  0
LINE
  5
AD
100
AcDbEntity
  8
LC-001-002-----0
  6
CONTINUOUS
 62
             7
100
AcDbLine
 10
-91.50349444527849
 20
19.24494900000002
 11
-91.00349444527849
 21
18.74494900000002
  0
LINE
  5
AC
100
AcDbEntity
  8
LC-001-002-----0
  6
CONTINUOUS
 62
             7
100
AcDbLine
 10
-96.50349444527849
 20
19.24494900000002
 11
-97.00349444527849
 21
18.74494900000002
  0
LINE
  5
AB
100
AcDbEntity
  8
LC-001-002-----0
  6
CONTINUOUS
 62
             7
100
AcDbLine
 10
-96.50349444527849
 20
19.24494900000002
 11
-91.50349444527849
 21
19.24494900000002
  0
LINE
  5
AA
100
AcDbEntity
  8
LC-001-002-----0
  6
CONTINUOUS
 62
             7
100
AcDbLine
 10
-91.00349444527849
 20
-31.75505100000001
 11
-91.00349444527849
 21
-30.47487000000001
  0
LINE
  5
A9
100
AcDbEntity
  8
LC-001-002-----0
  6
CONTINUOUS
 62
             7
100
AcDbLine
 10
-91.50349444527849
 20
-32.25505100000001
 11
-96.50349444527849
 21
-32.25505100000001
  0
LINE
  5
A8
100
AcDbEntity
  8
LC-001-002-----0
  6
CONTINUOUS
 62
             7
100
AcDbLine
 10
-97.00349444527849
 20
-31.75505100000001
 11
-97.00349444527849
 21
-30.47487000000001
  0
LINE
  5
A7
100
AcDbEntity
  8
LC-001-002-----0
  6
CONTINUOUS
 62
             7
100
AcDbLine
 10
-44.43814244527847
 20
9.901895
 11
-44.33682144527842
 21
10.237405
  0
LINE
  5
A6
100
AcDbEntity
  8
LC-001-002-----0
  6
CONTINUOUS
 62
             7
100
AcDbLine
 10
79.44503355472152
 20
10.876812
 11
86.19953655472152
 21
3.000776
  0
LINE
  5
A5
100
AcDbEntity
  8
LC-001-002-----0
  6
CONTINUOUS
 62
             7
100
AcDbLine
 10
108.55480155472161
 20
10.876812
 11
101.8003485547215
 21
3.000834
  0
LINE
  5
A4
100
AcDbEntity
  8
LC-001-002-----0
  6
CONTINUOUS
 62
             7
100
AcDbLine
 10
100.6878175547216
 20
15.589281
 11
98.99991755472153
 21
9.901455
  0
LINE
  5
A3
100
AcDbEntity
  8
LC-001-002-----0
  6
CONTINUOUS
 62
             7
100
AcDbLine
 10
88.99991755472153
 20
9.901455
 11
88.23317655472151
 21
3.00078300000001
  0
LINE
  5
A2
100
AcDbEntity
  8
LC-001-002-----0
  6
CONTINUOUS
 62
             7
100
AcDbLine
 10
99.76665455472157
 20
3.00082599999999
 11
98.99991755472153
 21
9.901455
  0
LINE
  5
A1
100
AcDbEntity
  8
LC-001-002-----0
  6
CONTINUOUS
 62
             7
100
AcDbLine
 10
87.31201855472152
 20
15.589281
 11
88.99991755472153
 21
9.901455
  0
LINE
  5
A0
100
AcDbEntity
  8
LC-001-002-----0
  6
CONTINUOUS
 62
             7
100
AcDbLine
 10
98.99991755472153
 20
9.901455
 11
97.00343655472152
 21
9.901455
  0
LINE
  5
9F
100
AcDbEntity
  8
LC-001-002-----0
  6
CONTINUOUS
 62
             7
100
AcDbLine
 10
-108.5584154452785
 20
10.876812
 11
-101.8033164452784
 21
3.00008099999999
  0
LINE
  5
9E
100
AcDbEntity
  8
LC-001-002-----0
  6
CONTINUOUS
 62
             7
100
AcDbLine
 10
-79.4486474452785
 20
10.876812
 11
-86.20369644527848
 21
3.00013899999999
  0
LINE
  5
9D
100
AcDbEntity
  8
LC-001-002-----0
  6
CONTINUOUS
 62
             7
100
AcDbLine
 10
-87.31563144527844
 20
15.589281
 11
-89.00353144527846
 21
9.901455
  0
LINE
  5
9C
100
AcDbEntity
  8
LC-001-002-----0
  6
CONTINUOUS
 62
             7
100
AcDbLine
 10
-99.00353144527846
 20
9.901455
 11
-99.77034944527846
 21
3.000089
  0
LINE
  5
9B
100
AcDbEntity
  8
LC-001-002-----0
  6
CONTINUOUS
 62
             7
100
AcDbLine
 10
-88.23671744527844
 20
3.00013100000001
 11
-89.00353144527846
 21
9.901455
  0
LINE
  5
9A
100
AcDbEntity
  8
LC-001-002-----0
  6
CONTINUOUS
 62
             7
100
AcDbLine
 10
-100.6914304452785
 20
15.589281
 11
-99.00353144527846
 21
9.901455
  0
LINE
  5
99
100
AcDbEntity
  8
LC-001-002-----0
  6
CONTINUOUS
 62
             7
100
AcDbLine
 10
-89.00353144527846
 20
9.901455
 11
-99.00353144527846
 21
9.901455
  0
LINE
  5
98
100
AcDbEntity
  8
LC-004-005-----0
  6
CONTINUOUS
 62
             2
100
AcDbLine
 10
-124.3937914452785
 20
-2.23146600000001
 11
-124.4524574452784
 21
-2.1728
  0
LINE
  5
97
100
AcDbEntity
  8
LC-001-002-----0
  6
CONTINUOUS
 62
             7
100
AcDbLine
 10
124.7337435547216
 20
-2.107711
 11
124.43989855472149
 21
-1.30037999999999
  0
LINE
  5
96
100
AcDbEntity
  8
LC-001-002-----0
  6
CONTINUOUS
 62
             7
100
AcDbLine
 10
102.0034585547216
 20
-9.27443
 11
105.0433455547215
 21
-9.27443
  0
LINE
  5
95
100
AcDbEntity
  8
LC-001-002-----0
  6
CONTINUOUS
 62
             7
100
AcDbLine
 10
-124.7338034452785
 20
-2.107711
 11
-124.43995844527851
 21
-1.30037999999999
  0
LINE
  5
94
100
AcDbEntity
  8
LC-001-002-----0
  6
CONTINUOUS
 62
             7
100
AcDbLine
 10
124.7337435547216
 20
-2.107711
 11
105.0433455547215
 21
-9.27443
  0
LINE
  5
93
100
AcDbEntity
  8
LC-001-002-----0
  6
CONTINUOUS
 62
             7
100
AcDbLine
 10
-124.7338034452785
 20
-2.107711
 11
-105.04340544527849
 21
-9.27443
  0
LINE
  5
92
100
AcDbEntity
  8
LC-001-002-----0
  6
CONTINUOUS
 62
             7
100
AcDbLine
 10
102.0034585547216
 20
-9.27443
 11
-105.04340544527849
 21
-9.27443
  0
LINE
  5
91
100
AcDbEntity
  8
LC-001-002-----0
  6
CONTINUOUS
 62
             7
100
AcDbLine
 10
-128.01272344527851
 20
0.0
 11
-124.43995844527851
 21
-1.30037999999999
  0
LINE
  5
90
100
AcDbEntity
  8
LC-001-002-----0
  6
CONTINUOUS
 62
             7
100
AcDbLine
 10
100.0034585547216
 20
-25.27443
 11
86.95285355472156
 21
-25.27443
  0
LINE
  5
8F
100
AcDbEntity
  8
LC-001-002-----0
  6
CONTINUOUS
 62
             7
100
AcDbLine
 10
101.5034585547216
 20
-23.77443
 11
101.5034585547216
 21
-9.77443
  0
LINE
  5
8E
100
AcDbEntity
  8
LC-001-002-----0
  6
CONTINUOUS
 62
             7
100
AcDbLine
 10
-100.0035184452784
 20
-25.27443
 11
-97.50351844527843
 21
-25.27443
  0
LINE
  5
8D
100
AcDbEntity
  8
LC-001-002-----0
  6
CONTINUOUS
 62
             7
100
AcDbLine
 10
-101.5035184452784
 20
-23.77443
 11
-101.5035184452784
 21
-9.77443
  0
POINT
  5
8C
100
AcDbEntity
  8
LC-006-003-----0
 62
             7
100
AcDbPoint
 10
101.5034585547216
 20
-18.825108
  0
POINT
  5
8B
100
AcDbEntity
  8
LC-006-003-----0
 62
             7
100
AcDbPoint
 10
-101.5035184452784
 20
-19.46488399999998
  0
POINT
  5
8A
100
AcDbEntity
  8
LC-006-003-----0
 62
             7
100
AcDbPoint
 10
-78.39233444527845
 20
-157.00018900000001
  0
POINT
  5
89
100
AcDbEntity
  8
LC-006-003-----0
 62
             7
100
AcDbPoint
 10
-177.00001744527839
 20
-0.00808699999999
  0
POINT
  5
88
100
AcDbEntity
  8
LC-006-003-----0
 62
             7
100
AcDbPoint
 10
176.9999695547215
 20
0.00111000000001
  0
POINT
  5
87
100
AcDbEntity
  8
LC-006-003-----0
 62
             7
100
AcDbPoint
 10
-177.00001744527839
 20
-0.00808699999999
  0
POINT
  5
86
100
AcDbEntity
  8
LC-006-003-----0
 62
             7
100
AcDbPoint
 10
79.99997055472151
 20
-151.00018900000001
  0
POINT
  5
85
100
AcDbEntity
  8
LC-006-003-----0
 62
             7
100
AcDbPoint
 10
-80.00002944527849
 20
-151.00018900000001
  0
ENDBLK
  5
222
100
AcDbEntity
  8
0
100
AcDbBlockEnd
  0
BLOCK
  5
225
100
AcDbEntity
  8
0
100
AcDbBlockBegin
  2
*D2
 70
             1
 10
0.0
 20
0.0
 30
0.0
  3
*D2
  1

  0
LINE
  5
226
100
AcDbEntity
  8
0
  6
CONTINUOUS
 62
             4
100
AcDbLine
 10
-176.99999928261806
 20
96.83396251806335
 11
176.99998771564464
 21
96.83389612560698
  0
LINE
  5
227
100
AcDbEntity
  8
0
  6
CONTINUOUS
 62
             4
100
AcDbLine
 10
-177.00001744527847
 20
-0.008087
 11
-176.99999890751937
 21
98.83396251806332
  0
LINE
  5
228
100
AcDbEntity
  8
0
  6
CONTINUOUS
 62
             4
100
AcDbLine
 10
176.99996955472153
 20
0.00111
 11
176.99998809074333
 21
98.83389612560696
  0
SOLID
  5
229
100
AcDbEntity
  8
0
 62
             4
100
AcDbTrace
 10
-161.99999891224829
 20
98.80874716863447
 11
-161.99999965298838
 21
94.85917224101267
 12
-176.99999928261806
 22
96.83396251806335
 13
-176.99999928261806
 23
96.83396251806335
  0
SOLID
  5
22A
100
AcDbEntity
  8
0
 62
             4
100
AcDbTrace
 10
161.99998734527486
 20
94.85911147503586
 11
161.99998808601495
 21
98.80868640265766
 12
176.99998771564464
 22
96.83389612560698
 13
176.99998771564464
 23
96.83389612560698
  0
MTEXT
  5
22C
100
AcDbEntity
  8
0
 62
             1
100
AcDbMText
 10
-22.34917745565407
 20
98.83390139050911
 30
0.0
 40
15.0
 41
0.0
 71
             7
 72
             1
  1
\C1;Ø\C1;354
  7
CONVERTER_1
 11
0.99999999999706
 21
0.00000242406841
 31
0.0
  0
ENDBLK
  5
22D
100
AcDbEntity
  8
0
100
AcDbBlockEnd
  0
BLOCK
  5
231
100
AcDbEntity
  8
0
100
AcDbBlockBegin
  2
*D3
 70
             1
 10
0.0
 20
0.0
 30
0.0
  3
*D3
  1

  0
LINE
  5
232
100
AcDbEntity
  8
0
  6
CONTINUOUS
 62
             4
100
AcDbLine
 10
-80.00003676668997
 20
-190.03744887964234
 11
79.9999632333044
 21
-190.03747888753333
  0
LINE
  5
233
100
AcDbEntity
  8
0
  6
CONTINUOUS
 62
             4
100
AcDbLine
 10
-80.00002944527849
 20
-151.00018899999998
 11
-80.00003714178861
 21
-192.03744887964231
  0
LINE
  5
234
100
AcDbEntity
  8
0
  6
CONTINUOUS
 62
             4
100
AcDbLine
 10
79.99997055472151
 20
-151.00018899999998
 11
79.99996285820571
 21
-192.0374788875333
  0
SOLID
  5
235
100
AcDbEntity
  8
0
 62
             4
100
AcDbTrace
 10
-65.0000363963202
 20
-188.06266422907123
 11
-65.00003713706028
 21
-192.01223915669303
 12
-80.00003676668997
 22
-190.03744887964234
 13
-80.00003676668997
 23
-190.03744887964234
  0
SOLID
  5
236
100
AcDbEntity
  8
0
 62
             4
100
AcDbTrace
 10
64.99996286293462
 20
-192.01226353810446
 11
64.9999636036747
 21
-188.06268861048264
 12
79.9999632333044
 22
-190.03747888753333
 13
79.9999632333044
 23
-190.03747888753333
  0
MTEXT
  5
237
100
AcDbEntity
  8
0
 62
             1
100
AcDbMText
 10
-25.59210352584809
 20
-188.03752332960914
 30
0.0
 40
15.0
 41
0.0
 71
             7
 72
             1
  1
\C1;DN\C1;160
  7
CONVERTER_1
 11
0.99999999999706
 21
0.00000242406841
 31
0.0
  0
ENDBLK
  5
238
100
AcDbEntity
  8
0
100
AcDbBlockEnd
  0
BLOCK
  5
23C
100
AcDbEntity
  8
0
100
AcDbBlockBegin
  2
*D4
 70
             1
 10
0.0
 20
0.0
 30
0.0
  3
*D4
  1

  0
LINE
  5
23D
100
AcDbEntity
  8
0
  6
CONTINUOUS
 62
             4
100
AcDbLine
 10
-101.5035558657686
 20
-223.29789634769884
 11
101.50342113422433
 21
-223.29793442151905
  0
LINE
  5
23E
100
AcDbEntity
  8
0
  6
CONTINUOUS
 62
             4
100
AcDbLine
 10
-101.50351844527843
 20
-23.77443
 11
-101.50355624086724
 21
-225.29789634769881
  0
LINE
  5
23F
100
AcDbEntity
  8
0
  6
CONTINUOUS
 62
             4
100
AcDbLine
 10
101.50345855472162
 20
-23.77443
 11
101.50342075912562
 21
-225.29793442151902
  0
SOLID
  5
240
100
AcDbEntity
  8
0
 62
             4
100
AcDbTrace
 10
-86.50355549539883
 20
-221.32311169712773
 11
-86.50355623613891
 21
-225.27268662474953
 12
-101.5035558657686
 22
-223.29789634769884
 13
-101.5035558657686
 23
-223.29789634769884
  0
SOLID
  5
241
100
AcDbEntity
  8
0
 62
             4
100
AcDbTrace
 10
86.50342076385455
 20
-225.27271907209018
 11
86.50342150459463
 21
-221.32314414446836
 12
101.50342113422433
 22
-223.29793442151905
 13
101.50342113422433
 23
-223.29793442151905
  0
MTEXT
  5
242
100
AcDbEntity
  8
0
 62
             1
100
AcDbMText
 10
-23.73502959611507
 20
-221.29794305603087
 30
0.0
 40
15.0
 41
0.0
 71
             7
 72
             1
  1
\C1;Ø\C1;203
  7
CONVERTER_1
 11
0.99999999999706
 21
0.00000242406841
 31
0.0
  0
ENDBLK
  5
243
100
AcDbEntity
  8
0
100
AcDbBlockEnd
  0
BLOCK
  5
247
100
AcDbEntity
  8
0
100
AcDbBlockBegin
  2
*D5
 70
             1
 10
0.0
 20
0.0
 30
0.0
  3
*D5
  1

  0
LINE
  5
248
100
AcDbEntity
  8
0
  6
CONTINUOUS
 62
             4
100
AcDbLine
 10
-187.00004689051639
 20
-157.00016863069754
 11
-187.00001744527827
 21
-0.0001951245068
  0
LINE
  5
249
100
AcDbEntity
  8
0
  6
CONTINUOUS
 62
             4
100
AcDbLine
 10
-78.39233444527839
 20
-157.00018900000001
 11
-189.00004689051633
 21
-157.00016825559891
  0
LINE
  5
24A
100
AcDbEntity
  8
0
  6
CONTINUOUS
 62
             4
100
AcDbLine
 10
-177.00001744527844
 20
-0.00019699999999
 11
-189.00001744527822
 21
-0.00019474940817
  0
SOLID
  5
24B
100
AcDbEntity
  8
0
 62
             4
100
AcDbTrace
 10
-188.97483154108753
 20
-142.00016826032777
 11
-185.0252566134657
 21
-142.00016900106786
 12
-187.00004689051639
 22
-157.00016863069754
 13
-187.00004689051639
 23
-157.00016863069754
  0
SOLID
  5
24C
100
AcDbEntity
  8
0
 62
             4
100
AcDbTrace
 10
-185.02523279470716
 20
-15.00019549487658
 11
-188.97480772232896
 21
-15.0001947541365
 12
-187.00001744527827
 22
-0.0001951245068
 13
-187.00001744527827
 23
-0.0001951245068
  0
MTEXT
  5
24D
100
AcDbEntity
  8
0
 62
             1
100
AcDbMText
 10
-189.0000342453182
 20
-89.57684611070729
 30
0.0
 40
15.0
 41
0.0
 71
             7
 72
             1
  1
157
  7
CONVERTER_1
 11
0.00000018754932
 21
0.99999999999998
 31
0.0
  0
ENDBLK
  5
24E
100
AcDbEntity
  8
0
100
AcDbBlockEnd
  0
ENDSEC
  0
SECTION
  2
ENTITIES
  0
DIMENSION
  5
250
100
AcDbEntity
  8
1
100
AcDbDimension
  2
*D5
 10
-187.00004689051639
 20
-157.00016863069754
 11
-196.50003129141629
 21
-73.82684470408769
 31
0.0
 53
89.99998925421559
  1
<>
  3
ME10_DIM_3
100
AcDbAlignedDimension
 13
-177.00001744527839
 23
-0.00019699999999
 14
-78.39233444527845
 24
-157.00018900000001
 50
89.99998925421559
100
AcDbRotatedDimension
  0
DIMENSION
  5
245
100
AcDbEntity
  8
1
100
AcDbDimension
  2
*D4
 10
-101.5035558657686
 20
-223.29789634769884
 11
-2.43502818953147
 21
-213.7979149279335
 31
0.0
 53
179.99998925421559
  1
Ø203
  3
ME10_DIM_2
100
AcDbAlignedDimension
 13
101.5034585547216
 23
-23.77443
 14
-101.5035184452784
 24
-23.77443
 50
179.99998925421559
100
AcDbRotatedDimension
  0
DIMENSION
  5
23A
100
AcDbEntity
  8
1
100
AcDbDimension
  2
*D3
 10
-80.00003676668997
 20
-190.03744887964234
 11
-1.74210211930046
 21
-180.53746355686451
 31
0.0
 53
179.99998925421559
  1
<>
  3
ME10_DIM_1
100
AcDbAlignedDimension
 13
79.99997055472151
 23
-151.00018900000001
 14
-80.00002944527849
 24
-151.00018900000001
 50
179.99998925421559
100
AcDbRotatedDimension
  0
DIMENSION
  5
22F
100
AcDbEntity
  8
1
100
AcDbDimension
  2
*D2
 10
-176.99999928261806
 20
96.83396251806335
 11
-1.04917604907048
 21
106.3339295186065
 31
0.0
 53
179.99998925421559
  1
<>
  3
ME10_DIM_0
100
AcDbAlignedDimension
 13
176.9999695547215
 23
0.00111000000001
 14
-177.00001744527839
 24
-0.00808699999999
 50
179.99998925421559
100
AcDbRotatedDimension
  0
INSERT
  5
32
100
AcDbEntity
  8
1
100
AcDbBlockReference
  2
062_1E_LAUBFANGKORB
 10
-79.44585800000002
 20
-157.00212400000009
  0
INSERT
  5
33
100
AcDbEntity
  8
1
100
AcDbBlockReference
  2
K_RPER
 10
281.42027148779101
 20
-157.0006941141105
  0
ENDSEC
  0
SECTION
  2
OBJECTS
  0
DICTIONARY
  5
19
100
AcDbDictionary
  3
ACAD_GROUP
350
1A
  3
ACAD_MLINESTYLE
350
1B
  0
DICTIONARY
  5
1A
102
{ACAD_REACTORS
330
19
102
}
100
AcDbDictionary
  0
DICTIONARY
  5
1B
102
{ACAD_REACTORS
330
19
102
}
100
AcDbDictionary
  3
STANDARD
350
1C
  0
MLINESTYLE
  5
1C
102
{ACAD_REACTORS
330
1B
102
}
100
AcDbMlineStyle
  2
STANDARD
 70
             0
  3

 62
             0
 51
90.0
 52
90.0
 71
             2
 49
0.5
 62
           256
  6
BYLAYER
 49
-0.5
 62
           256
  6
BYLAYER
  0
ENDSEC
  0
EOF
