  0
SECTION
  2
HEADER
  9
$ACADVER
  1
AC1014
  9
$ACADMAINTVER
 70
             0
  9
$DWGCODEPAGE
  3
ANSI_1252
  9
$INSBASE
 10
0.0
 20
0.0
 30
0.0
  9
$EXTMIN
 10
-82.55695832253601
 20
-612.56513507156512
 30
0.0
  9
$EXTMAX
 10
298.44302667746399
 20
-245.5220786654111
 30
0.0
  9
$LIMMIN
 10
0.0
 20
0.0
  9
$LIMMAX
 10
0.0
 20
0.0
  9
$ORTHOMODE
 70
             0
  9
$REGENMODE
 70
             1
  9
$FILLMODE
 70
             1
  9
$QTEXTMODE
 70
             0
  9
$MIRRTEXT
 70
             1
  9
$DRAGMODE
 70
             2
  9
$LTSCALE
 40
1.0
  9
$OSMODE
 70
             0
  9
$ATTMODE
 70
             1
  9
$TEXTSIZE
 40
0.2
  9
$TRACEWID
 40
0.05
  9
$TEXTSTYLE
  7
STANDARD
  9
$CLAYER
  8
0
  9
$CELTYPE
  6
CONTINUOUS
  9
$CECOLOR
 62
           256
  9
$CELTSCALE
 40
1.0
  9
$DELOBJ
 70
             1
  9
$DISPSILH
 70
             0
  9
$DIMSCALE
 40
1.0
  9
$DIMASZ
 40
0.18
  9
$DIMEXO
 40
0.0625
  9
$DIMDLI
 40
0.38
  9
$DIMRND
 40
0.0
  9
$DIMDLE
 40
0.0
  9
$DIMEXE
 40
0.18
  9
$DIMTP
 40
0.0
  9
$DIMTM
 40
0.0
  9
$DIMTXT
 40
0.18
  9
$DIMCEN
 40
0.09
  9
$DIMTSZ
 40
0.0
  9
$DIMTOL
 70
             0
  9
$DIMLIM
 70
             0
  9
$DIMTIH
 70
             1
  9
$DIMTOH
 70
             1
  9
$DIMSE1
 70
             0
  9
$DIMSE2
 70
             0
  9
$DIMTAD
 70
             0
  9
$DIMZIN
 70
             0
  9
$DIMBLK
  1

  9
$DIMASO
 70
             1
  9
$DIMSHO
 70
             1
  9
$DIMPOST
  1

  9
$DIMAPOST
  1

  9
$DIMALT
 70
             0
  9
$DIMALTD
 70
             2
  9
$DIMALTF
 40
25.4
  9
$DIMLFAC
 40
1.0
  9
$DIMTOFL
 70
             0
  9
$DIMTVP
 40
0.0
  9
$DIMTIX
 70
             0
  9
$DIMSOXD
 70
             0
  9
$DIMSAH
 70
             0
  9
$DIMBLK1
  1

  9
$DIMBLK2
  1

  9
$DIMSTYLE
  2
STANDARD
  9
$DIMCLRD
 70
             0
  9
$DIMCLRE
 70
             0
  9
$DIMCLRT
 70
             0
  9
$DIMTFAC
 40
1.0
  9
$DIMGAP
 40
0.09
  9
$DIMJUST
 70
             0
  9
$DIMSD1
 70
             0
  9
$DIMSD2
 70
             0
  9
$DIMTOLJ
 70
             1
  9
$DIMTZIN
 70
             0
  9
$DIMALTZ
 70
             0
  9
$DIMALTTZ
 70
             0
  9
$DIMFIT
 70
             3
  9
$DIMUPT
 70
             0
  9
$DIMUNIT
 70
             2
  9
$DIMDEC
 70
             4
  9
$DIMTDEC
 70
             4
  9
$DIMALTU
 70
             2
  9
$DIMALTTD
 70
             2
  9
$DIMTXSTY
  7
STANDARD
  9
$DIMAUNIT
 70
             0
  9
$LUNITS
 70
             2
  9
$LUPREC
 70
             4
  9
$SKETCHINC
 40
0.1
  9
$FILLETRAD
 40
0.0
  9
$AUNITS
 70
             0
  9
$AUPREC
 70
             0
  9
$MENU
  1
acad
  9
$ELEVATION
 40
0.0
  9
$PELEVATION
 40
0.0
  9
$THICKNESS
 40
0.0
  9
$LIMCHECK
 70
             0
  9
$BLIPMODE
 70
             1
  9
$CHAMFERA
 40
0.0
  9
$CHAMFERB
 40
0.0
  9
$CHAMFERC
 40
0.0
  9
$CHAMFERD
 40
0.0
  9
$SKPOLY
 70
             0
  9
$TDCREATE
 40
0.000000000
  9
$TDUPDATE
 40
0.000000000
  9
$TDINDWG
 40
0.0000000000
  9
$TDUSRTIMER
 40
0.0000000000
  9
$USRTIMER
 70
             1
  9
$ANGBASE
 50
0.0
  9
$ANGDIR
 70
             0
  9
$PDMODE
 70
             0
  9
$PDSIZE
 40
0.0
  9
$PLINEWID
 40
0.0
  9
$COORDS
 70
             0
  9
$SPLFRAME
 70
             0
  9
$SPLINETYPE
 70
             6
  9
$SPLINESEGS
 70
             8
  9
$ATTDIA
 70
             0
  9
$ATTREQ
 70
             1
  9
$HANDLING
 70
             1
  9
$HANDSEED
  5
33E
  9
$SURFTAB1
 70
             6
  9
$SURFTAB2
 70
             6
  9
$SURFTYPE
 70
             6
  9
$SURFU
 70
             6
  9
$SURFV
 70
             6
  9
$UCSNAME
  2

  9
$UCSORG
 10
0.0
 20
0.0
 30
0.0
  9
$UCSXDIR
 10
1.0
 20
0.0
 30
0.0
  9
$UCSYDIR
 10
0.0
 20
1.0
 30
0.0
  9
$PUCSNAME
  2

  9
$PUCSORG
 10
0.0
 20
0.0
 30
0.0
  9
$PUCSXDIR
 10
1.0
 20
0.0
 30
0.0
  9
$PUCSYDIR
 10
0.0
 20
1.0
 30
0.0
  9
$USERI1
 70
             0
  9
$USERI2
 70
             0
  9
$USERI3
 70
             0
  9
$USERI4
 70
             0
  9
$USERI5
 70
             0
  9
$USERR1
 40
12.01
  9
$USERR2
 40
0.0
  9
$USERR3
 40
0.0
  9
$USERR4
 40
0.0
  9
$USERR5
 40
0.0
  9
$WORLDVIEW
 70
             1
  9
$SHADEDGE
 70
             3
  9
$SHADEDIF
 70
            70
  9
$TILEMODE
 70
             1
  9
$MAXACTVP
 70
            16
  9
$PINSBASE
 10
0.0
 20
0.0
 30
0.0
  9
$PLIMCHECK
 70
             0
  9
$PEXTMIN
 10
1.00000000000000E+20
 20
1.00000000000000E+20
 30
1.00000000000000E+20
  9
$PEXTMAX
 10
-1.00000000000000E+20
 20
-1.00000000000000E+20
 30
-1.00000000000000E+20
  9
$PLIMMIN
 10
0.0
 20
0.0
  9
$PLIMMAX
 10
12.0
 20
9.0
  9
$UNITMODE
 70
             0
  9
$VISRETAIN
 70
             0
  9
$PLINEGEN
 70
             1
  9
$PSLTSCALE
 70
             0
  9
$TREEDEPTH
 70
          3020
  9
$PICKSTYLE
 70
             1
  9
$CMLSTYLE
  2
STANDARD
  9
$CMLJUST
 70
             0
  9
$CMLSCALE
 40
1.0
  9
$PROXYGRAPHICS
 70
             0
  9
$MEASUREMENT
 70
             1
  0
ENDSEC
  0
SECTION
  2
CLASSES
  0
CLASS
  1
LWPOLYLINE
  2
AcDbPolyline
  3
"AutoCAD"
 90
        0
280
             0
281
             1
  0
CLASS
  1
IMAGE
  2
AcDbRasterImage
  3
ISM
 90
      127
280
             0
281
             1
  0
CLASS
  1
OLE2FRAME
  2
AcDbOle2Frame
  3
""
 90
        0
280
             0
281
             1
  0
CLASS
  1
HATCH
  2
AcDbHatch
  3
"ACAD_SEDONA"
 90
        0
280
             0
281
             1
  0
CLASS
  1
DICTIONARYVAR
  2
AcDbDictionaryVar
  3
"AutoCAD"
 90
        0
280
             0
281
             0
  0
CLASS
  1
RASTERVARIABLES
  2
AcDbRasterVariables
  3
ISM
 90
        0
280
             0
281
             0
  0
CLASS
  1
IMAGEDEF
  2
AcDbRasterImageDef
  3
ISM
 90
        0
280
             0
281
             0
  0
CLASS
  1
IMAGEDEF_REACTOR
  2
AcDbRasterImageDefReactor
  3
ISM
 90
        1
280
             0
281
             0
  0
CLASS
  1
IDBUFFER
  2
AcDbIdBuffer
  3
"Acad"
 90
        0
280
             0
281
             0
  0
CLASS
  1
SPATIAL_FILTER
  2
AcDbSpatialFilter
  3
"Acad"
 90
        0
280
             0
281
             0
  0
CLASS
  1
XRECORD
  2
AcDbXrecord
  3
"<Built In>"
 90
        0
280
             0
281
             0
  0
CLASS
  1
SORTENTSTABLE
  2
AcDbSortentsTable
  3
"AutoCAD"
 90
        0
280
             0
281
             0
  0
CLASS
  1
LAYER_INDEX
  2
AcDbLayerIndex
  3
"Acad"
 90
        0
280
             0
281
             0
  0
CLASS
  1
SPATIAL_INDEX
  2
AcDbSpatialIndex
  3
"Acad"
 90
        0
280
             0
281
             0
  0
CLASS
  1
OBJECT_PTR
  2
CAseDLPNTableRecord
  3
"ASE-LPNTableRecord"
 90
        1
280
             0
281
             0
  0
CLASS
  1
LAYOUT
  2
AcDbLayout
  3
"AutoCAD 2000"
 90
        0
280
             0
281
             0
  0
CLASS
  1
PLOTSETTINGS
  2
AcDbPlotSettings
  3
"AutoCAD 2000"
 90
        0
280
             0
281
             0
  0
CLASS
  1
ACDBDICTIONARYWDFLT
  2
AcDbDictionaryWithDefault
  3
"AutoCAD 2000"
 90
        0
280
             0
281
             0
  0
CLASS
  1
ACDBPLACEHOLDER
  2
AcDbPlaceHolder
  3
"AutoCAD 2000"
 90
        0
280
             0
281
             0
  0
ENDSEC
  0
SECTION
  2
TABLES
  0
TABLE
  2
VPORT
  5
7
100
AcDbSymbolTable
 70
             1
  0
VPORT
  5
15
100
AcDbSymbolTableRecord
100
AcDbViewportTableRecord
  2
*ACTIVE
 70
             0
 10
0.0
 20
0.0
 11
1.0
 21
1.0
 12
107.943034177464
 22
-429.0436068684881
 13
0.0
 23
0.0
 14
1.0
 24
1.0
 15
0.0
 25
0.0
 16
0.0
 26
0.0
 36
1.0
 17
0.0
 27
0.0
 37
0.0
 40
403.74736204676947
 41
1.60267857142857
 42
50.0
 43
0.0
 44
0.0
 50
0.0
 51
0.0
 71
             0
 72
           100
 73
             1
 74
             1
 75
             0
 76
             0
 77
             0
 78
             0
  0
ENDTAB
  0
TABLE
  2
LTYPE
  5
4
100
AcDbSymbolTable
 70
            11
  0
LTYPE
  5
11
100
AcDbSymbolTableRecord
100
AcDbLinetypeTableRecord
  2
BYBLOCK
 70
            64
  3

 72
            65
 73
             0
 40
0.0
  0
LTYPE
  5
12
100
AcDbSymbolTableRecord
100
AcDbLinetypeTableRecord
  2
BYLAYER
 70
            64
  3

 72
            65
 73
             0
 40
0.0
  0
LTYPE
  5
13
100
AcDbSymbolTableRecord
100
AcDbLinetypeTableRecord
  2
CONTINUOUS
 70
            64
  3
Solid line
 72
            65
 73
             0
 40
0.0
  0
LTYPE
  5
1D
100
AcDbSymbolTableRecord
100
AcDbLinetypeTableRecord
  2
DASHED
 70
            64
  3
Dashed
 72
            65
 73
             2
 40
15.0
 49
7.0
 74
             0
 49
-8.0
 74
             0
  0
LTYPE
  5
1E
100
AcDbSymbolTableRecord
100
AcDbLinetypeTableRecord
  2
DOTTED
 70
            64
  3
Dotted
 72
            65
 73
             2
 40
1.0
 49
0.0
 74
             0
 49
-1.0
 74
             0
  0
LTYPE
  5
1F
100
AcDbSymbolTableRecord
100
AcDbLinetypeTableRecord
  2
DOT_CENTER
 70
            64
  3
Dot_Center
 72
            65
 73
             4
 40
14.0
 49
12.0
 74
             0
 49
-1.0
 74
             0
 49
0.0
 74
             0
 49
-1.0
 74
             0
  0
LTYPE
  5
20
100
AcDbSymbolTableRecord
100
AcDbLinetypeTableRecord
  2
LONG_DASHED
 70
            64
  3
Long_Dashed
 72
            65
 73
             2
 40
15.0
 49
10.0
 74
             0
 49
-5.0
 74
             0
  0
LTYPE
  5
21
100
AcDbSymbolTableRecord
100
AcDbLinetypeTableRecord
  2
DASH_CENTER
 70
            64
  3
Dash_Center
 72
            65
 73
             4
 40
14.0
 49
11.0
 74
             0
 49
-1.0
 74
             0
 49
1.0
 74
             0
 49
-1.0
 74
             0
  0
LTYPE
  5
22
100
AcDbSymbolTableRecord
100
AcDbLinetypeTableRecord
  2
PHANTOM
 70
            64
  3
Phantom
 72
            65
 73
             6
 40
13.0
 49
10.0
 74
             0
 49
-1.0
 74
             0
 49
0.0
 74
             0
 49
-1.0
 74
             0
 49
0.0
 74
             0
 49
-1.0
 74
             0
  0
LTYPE
  5
23
100
AcDbSymbolTableRecord
100
AcDbLinetypeTableRecord
  2
CENTER_DASH_DASH
 70
            64
  3
Center_Dash_Dash
 72
            65
 73
             6
 40
14.0
 49
9.0
 74
             0
 49
-1.0
 74
             0
 49
1.0
 74
             0
 49
-1.0
 74
             0
 49
1.0
 74
             0
 49
-1.0
 74
             0
  0
LTYPE
  5
24
100
AcDbSymbolTableRecord
100
AcDbLinetypeTableRecord
  2
DASHDOT
 70
            64
  3
DASHDOT
 72
            65
 73
             4
 40
16.0
 49
10.0
 74
             0
 49
-3.0
 74
             0
 49
0.0
 74
             0
 49
-3.0
 74
             0
  0
ENDTAB
  0
TABLE
  2
LAYER
  5
2
100
AcDbSymbolTable
 70
             7
  0
LAYER
  5
14
100
AcDbSymbolTableRecord
100
AcDbLayerTableRecord
  2
0
 70
             0
 62
             7
  6
CONTINUOUS
  0
LAYER
  5
25
100
AcDbSymbolTableRecord
100
AcDbLayerTableRecord
  2
1
 70
             0
 62
             7
  6
CONTINUOUS
  0
LAYER
  5
26
100
AcDbSymbolTableRecord
100
AcDbLayerTableRecord
  2
LC-001-002-----0
 70
             0
 62
             7
  6
CONTINUOUS
  0
LAYER
  5
27
100
AcDbSymbolTableRecord
100
AcDbLayerTableRecord
  2
LC-002-002-RND-0
 70
             0
 62
             7
  6
CONTINUOUS
  0
LAYER
  5
28
100
AcDbSymbolTableRecord
100
AcDbLayerTableRecord
  2
LC-004-003-----0
 70
             0
 62
             7
  6
CONTINUOUS
  0
LAYER
  5
29
100
AcDbSymbolTableRecord
100
AcDbLayerTableRecord
  2
LC-007-005-----0
 70
             0
 62
             7
  6
CONTINUOUS
  0
LAYER
  5
2A
100
AcDbSymbolTableRecord
100
AcDbLayerTableRecord
  2
LC-010-006-MLN-0
 70
             0
 62
             7
  6
CONTINUOUS
  0
ENDTAB
  0
TABLE
  2
STYLE
  5
3
100
AcDbSymbolTable
 70
             2
  0
STYLE
  5
17
100
AcDbSymbolTableRecord
100
AcDbTextStyleTableRecord
  2
STANDARD
 70
             0
 40
0.0
 41
1.0
 50
0.0
 71
             0
 42
0.0
  3
txt
  4

  0
STYLE
  5
30A
100
AcDbSymbolTableRecord
100
AcDbTextStyleTableRecord
  2
CONVERTER_1
 70
             0
 40
0.0
 41
0.9
 50
0.0
 71
             0
 42
0.0
  3
txt.shx
  4

  0
ENDTAB
  0
TABLE
  2
VIEW
  5
5
100
AcDbSymbolTable
 70
             0
  0
ENDTAB
  0
TABLE
  2
UCS
  5
6
100
AcDbSymbolTable
 70
             0
  0
ENDTAB
  0
TABLE
  2
APPID
  5
8
100
AcDbSymbolTable
 70
             1
  0
APPID
  5
16
100
AcDbSymbolTableRecord
100
AcDbRegAppTableRecord
  2
ACAD
 70
             0
  0
ENDTAB
  0
TABLE
  2
DIMSTYLE
  5
9
100
AcDbSymbolTable
 70
             6
  0
DIMSTYLE
105
18
100
AcDbSymbolTableRecord
100
AcDbDimStyleTableRecord
  2
STANDARD
 70
             0
  3

  4

  5

  6

  7

 40
1.0
 41
0.18
 42
0.0625
 43
0.38
 44
0.18
 45
0.0
 46
0.0
 47
0.0
 48
0.0
 71
             0
 72
             0
 73
             1
 74
             1
 75
             0
 76
             0
 77
             0
 78
             0
140
0.18
141
0.09
142
0.0
143
25.4
144
1.0
145
0.0
146
1.0
147
0.09
170
             0
171
             2
172
             0
173
             0
174
             0
175
             0
176
             0
177
             0
178
             0
270
             2
271
             4
272
             4
273
             2
274
             2
275
             0
280
             0
281
             0
282
             0
283
             1
284
             0
285
             0
286
             0
287
             3
288
             0
340
17
  0
DIMSTYLE
105
30D
100
AcDbSymbolTableRecord
100
AcDbDimStyleTableRecord
  2
ME10_DIM_0
 70
             0
  3
DN<>
  4

  5

  6

  7

 40
1.0
 41
15.0
 42
0.0
 43
0.38
 44
2.0
 45
0.0
 46
0.0
 47
0.0
 48
0.0
 71
             0
 72
             0
 73
             0
 74
             0
 75
             0
 76
             0
 77
             1
 78
             8
140
15.0
141
0.09
142
0.0
143
25.4
144
1.0
145
0.0
146
1.0
147
0.625
170
             0
171
             2
172
             1
173
             1
174
             0
175
             0
176
             4
177
             4
178
             1
270
             2
271
             2
272
             4
273
             2
274
             2
275
             0
280
             0
281
             0
282
             0
283
             1
284
             0
285
             0
286
             0
287
             3
288
             0
340
30A
  0
DIMSTYLE
105
318
100
AcDbSymbolTableRecord
100
AcDbDimStyleTableRecord
  2
ME10_DIM_1
 70
             0
  3
Ø<>
  4

  5

  6

  7

 40
1.0
 41
15.0
 42
0.0
 43
0.38
 44
2.0
 45
0.0
 46
0.0
 47
0.0
 48
0.0
 71
             0
 72
             0
 73
             0
 74
             0
 75
             0
 76
             0
 77
             1
 78
             8
140
15.0
141
0.09
142
0.0
143
25.4
144
1.0
145
0.0
146
1.0
147
0.625
170
             0
171
             2
172
             1
173
             1
174
             0
175
             0
176
             4
177
             4
178
             1
270
             2
271
             2
272
             4
273
             2
274
             2
275
             0
280
             0
281
             0
282
             0
283
             1
284
             0
285
             0
286
             0
287
             3
288
             0
340
30A
  0
DIMSTYLE
105
323
100
AcDbSymbolTableRecord
100
AcDbDimStyleTableRecord
  2
ME10_DIM_2
 70
             0
  3
Ø<>
  4

  5

  6

  7

 40
1.0
 41
15.0
 42
0.0
 43
0.38
 44
2.0
 45
0.0
 46
0.0
 47
0.0
 48
0.0
 71
             0
 72
             0
 73
             0
 74
             0
 75
             0
 76
             0
 77
             1
 78
             8
140
15.0
141
0.09
142
0.0
143
25.4
144
1.0
145
0.0
146
1.0
147
0.625
170
             0
171
             2
172
             1
173
             1
174
             0
175
             0
176
             4
177
             4
178
             1
270
             2
271
             2
272
             4
273
             2
274
             2
275
             0
280
             0
281
             0
282
             0
283
             1
284
             0
285
             0
286
             0
287
             3
288
             0
340
30A
  0
DIMSTYLE
105
32E
100
AcDbSymbolTableRecord
100
AcDbDimStyleTableRecord
  2
ME10_DIM_3
 70
             0
  3
Ø<>
  4

  5

  6

  7

 40
1.0
 41
15.0
 42
0.0
 43
0.38
 44
2.0
 45
0.0
 46
0.0
 47
0.0
 48
0.0
 71
             0
 72
             0
 73
             0
 74
             0
 75
             0
 76
             0
 77
             1
 78
             8
140
15.0
141
0.09
142
0.0
143
25.4
144
1.0
145
0.0
146
1.0
147
0.625
170
             0
171
             2
172
             1
173
             1
174
             0
175
             0
176
             4
177
             4
178
             1
270
             2
271
             2
272
             4
273
             2
274
             2
275
             0
280
             0
281
             0
282
             0
283
             1
284
             0
285
             0
286
             0
287
             3
288
             0
340
30A
  0
DIMSTYLE
105
339
100
AcDbSymbolTableRecord
100
AcDbDimStyleTableRecord
  2
ME10_DIM_4
 70
             0
  3

  4

  5

  6

  7

 40
1.0
 41
15.0
 42
0.0
 43
0.38
 44
2.0
 45
0.0
 46
0.0
 47
0.0
 48
0.0
 71
             0
 72
             0
 73
             0
 74
             0
 75
             0
 76
             0
 77
             1
 78
             8
140
15.0
141
0.09
142
0.0
143
25.4
144
1.0
145
0.0
146
1.0
147
0.625
170
             0
171
             2
172
             1
173
             1
174
             0
175
             0
176
             4
177
             4
178
             1
270
             2
271
             2
272
             4
273
             2
274
             2
275
             0
280
             0
281
             0
282
             0
283
             1
284
             0
285
             0
286
             0
287
             3
288
             0
340
30A
  0
ENDTAB
  0
TABLE
  2
BLOCK_RECORD
  5
1
100
AcDbSymbolTable
 70
            56
  0
BLOCK_RECORD
  5
A
100
AcDbSymbolTableRecord
100
AcDbBlockTableRecord
  2
*MODEL_SPACE
  0
BLOCK_RECORD
  5
B
100
AcDbSymbolTableRecord
100
AcDbBlockTableRecord
  2
*PAPER_SPACE
  0
BLOCK_RECORD
  5
2B
100
AcDbSymbolTableRecord
100
AcDbBlockTableRecord
  2
062_1E_LAUBFANGKORB
  0
BLOCK_RECORD
  5
2D
100
AcDbSymbolTableRecord
100
AcDbBlockTableRecord
  2
BLK17
  0
BLOCK_RECORD
  5
2F
100
AcDbSymbolTableRecord
100
AcDbBlockTableRecord
  2
BLK18
  0
BLOCK_RECORD
  5
31
100
AcDbSymbolTableRecord
100
AcDbBlockTableRecord
  2
BLK19
  0
BLOCK_RECORD
  5
33
100
AcDbSymbolTableRecord
100
AcDbBlockTableRecord
  2
BLK20
  0
BLOCK_RECORD
  5
35
100
AcDbSymbolTableRecord
100
AcDbBlockTableRecord
  2
BLK21
  0
BLOCK_RECORD
  5
37
100
AcDbSymbolTableRecord
100
AcDbBlockTableRecord
  2
BLK22
  0
BLOCK_RECORD
  5
39
100
AcDbSymbolTableRecord
100
AcDbBlockTableRecord
  2
BLK23
  0
BLOCK_RECORD
  5
3B
100
AcDbSymbolTableRecord
100
AcDbBlockTableRecord
  2
BLK24
  0
BLOCK_RECORD
  5
3D
100
AcDbSymbolTableRecord
100
AcDbBlockTableRecord
  2
BLK26
  0
BLOCK_RECORD
  5
3F
100
AcDbSymbolTableRecord
100
AcDbBlockTableRecord
  2
BLK27
  0
BLOCK_RECORD
  5
41
100
AcDbSymbolTableRecord
100
AcDbBlockTableRecord
  2
BLK29
  0
BLOCK_RECORD
  5
43
100
AcDbSymbolTableRecord
100
AcDbBlockTableRecord
  2
BLK30
  0
BLOCK_RECORD
  5
45
100
AcDbSymbolTableRecord
100
AcDbBlockTableRecord
  2
BLK32
  0
BLOCK_RECORD
  5
47
100
AcDbSymbolTableRecord
100
AcDbBlockTableRecord
  2
BLK33
  0
BLOCK_RECORD
  5
49
100
AcDbSymbolTableRecord
100
AcDbBlockTableRecord
  2
BLK34
  0
BLOCK_RECORD
  5
4B
100
AcDbSymbolTableRecord
100
AcDbBlockTableRecord
  2
BLK35
  0
BLOCK_RECORD
  5
4D
100
AcDbSymbolTableRecord
100
AcDbBlockTableRecord
  2
BLK36
  0
BLOCK_RECORD
  5
4F
100
AcDbSymbolTableRecord
100
AcDbBlockTableRecord
  2
BLK37
  0
BLOCK_RECORD
  5
51
100
AcDbSymbolTableRecord
100
AcDbBlockTableRecord
  2
BLK38
  0
BLOCK_RECORD
  5
53
100
AcDbSymbolTableRecord
100
AcDbBlockTableRecord
  2
BLK39
  0
BLOCK_RECORD
  5
55
100
AcDbSymbolTableRecord
100
AcDbBlockTableRecord
  2
BLK41
  0
BLOCK_RECORD
  5
57
100
AcDbSymbolTableRecord
100
AcDbBlockTableRecord
  2
BLK42
  0
BLOCK_RECORD
  5
59
100
AcDbSymbolTableRecord
100
AcDbBlockTableRecord
  2
BLK44
  0
BLOCK_RECORD
  5
5B
100
AcDbSymbolTableRecord
100
AcDbBlockTableRecord
  2
BLK45
  0
BLOCK_RECORD
  5
5D
100
AcDbSymbolTableRecord
100
AcDbBlockTableRecord
  2
BLK51
  0
BLOCK_RECORD
  5
5F
100
AcDbSymbolTableRecord
100
AcDbBlockTableRecord
  2
BLK52
  0
BLOCK_RECORD
  5
61
100
AcDbSymbolTableRecord
100
AcDbBlockTableRecord
  2
BLK53
  0
BLOCK_RECORD
  5
63
100
AcDbSymbolTableRecord
100
AcDbBlockTableRecord
  2
BLK54
  0
BLOCK_RECORD
  5
65
100
AcDbSymbolTableRecord
100
AcDbBlockTableRecord
  2
BLK55
  0
BLOCK_RECORD
  5
67
100
AcDbSymbolTableRecord
100
AcDbBlockTableRecord
  2
BLK56
  0
BLOCK_RECORD
  5
69
100
AcDbSymbolTableRecord
100
AcDbBlockTableRecord
  2
BLK57
  0
BLOCK_RECORD
  5
6B
100
AcDbSymbolTableRecord
100
AcDbBlockTableRecord
  2
BLK58
  0
BLOCK_RECORD
  5
6D
100
AcDbSymbolTableRecord
100
AcDbBlockTableRecord
  2
BLK59
  0
BLOCK_RECORD
  5
6F
100
AcDbSymbolTableRecord
100
AcDbBlockTableRecord
  2
BLK60
  0
BLOCK_RECORD
  5
71
100
AcDbSymbolTableRecord
100
AcDbBlockTableRecord
  2
BLK61
  0
BLOCK_RECORD
  5
73
100
AcDbSymbolTableRecord
100
AcDbBlockTableRecord
  2
BLK62
  0
BLOCK_RECORD
  5
75
100
AcDbSymbolTableRecord
100
AcDbBlockTableRecord
  2
BLK67
  0
BLOCK_RECORD
  5
77
100
AcDbSymbolTableRecord
100
AcDbBlockTableRecord
  2
BLK68
  0
BLOCK_RECORD
  5
79
100
AcDbSymbolTableRecord
100
AcDbBlockTableRecord
  2
BLK69
  0
BLOCK_RECORD
  5
7B
100
AcDbSymbolTableRecord
100
AcDbBlockTableRecord
  2
BLK70
  0
BLOCK_RECORD
  5
7D
100
AcDbSymbolTableRecord
100
AcDbBlockTableRecord
  2
BLK71
  0
BLOCK_RECORD
  5
7F
100
AcDbSymbolTableRecord
100
AcDbBlockTableRecord
  2
BLK72
  0
BLOCK_RECORD
  5
81
100
AcDbSymbolTableRecord
100
AcDbBlockTableRecord
  2
BLK73
  0
BLOCK_RECORD
  5
83
100
AcDbSymbolTableRecord
100
AcDbBlockTableRecord
  2
BLK74
  0
BLOCK_RECORD
  5
85
100
AcDbSymbolTableRecord
100
AcDbBlockTableRecord
  2
BLK75
  0
BLOCK_RECORD
  5
87
100
AcDbSymbolTableRecord
100
AcDbBlockTableRecord
  2
BLK76
  0
BLOCK_RECORD
  5
89
100
AcDbSymbolTableRecord
100
AcDbBlockTableRecord
  2
BLK77
  0
BLOCK_RECORD
  5
8B
100
AcDbSymbolTableRecord
100
AcDbBlockTableRecord
  2
BLK78
  0
BLOCK_RECORD
  5
8D
100
AcDbSymbolTableRecord
100
AcDbBlockTableRecord
  2
HL_62_1_7_DACHABLAUF
  0
BLOCK_RECORD
  5
BF
100
AcDbSymbolTableRecord
100
AcDbBlockTableRecord
  2
HL_62_1_7_DACHABLAU0
  0
BLOCK_RECORD
  5
303
100
AcDbSymbolTableRecord
100
AcDbBlockTableRecord
  2
*D51
  0
BLOCK_RECORD
  5
30F
100
AcDbSymbolTableRecord
100
AcDbBlockTableRecord
  2
*D52
  0
BLOCK_RECORD
  5
31A
100
AcDbSymbolTableRecord
100
AcDbBlockTableRecord
  2
*D53
  0
BLOCK_RECORD
  5
325
100
AcDbSymbolTableRecord
100
AcDbBlockTableRecord
  2
*D54
  0
BLOCK_RECORD
  5
330
100
AcDbSymbolTableRecord
100
AcDbBlockTableRecord
  2
*D55
  0
ENDTAB
  0
ENDSEC
  0
SECTION
  2
BLOCKS
  0
BLOCK
  5
D
100
AcDbEntity
  8
0
100
AcDbBlockBegin
  2
*MODEL_SPACE
 70
             0
 10
0.0
 20
0.0
 30
0.0
  3
*MODEL_SPACE
  1

  0
ENDBLK
  5
E
100
AcDbEntity
  8
0
100
AcDbBlockEnd
  0
BLOCK
  5
F
100
AcDbEntity
 67
             1
  8
0
100
AcDbBlockBegin
  2
*PAPER_SPACE
 70
             0
 10
0.0
 20
0.0
 30
0.0
  3
*PAPER_SPACE
  1

  0
ENDBLK
  5
10
100
AcDbEntity
 67
             1
  8
0
100
AcDbBlockEnd
  0
BLOCK
  5
2C
100
AcDbEntity
  8
0
100
AcDbBlockBegin
  2
062_1E_LAUBFANGKORB
 70
             0
 10
41.99717067746398
 20
-518.58704235837911
 30
0.0
  3
062_1E_LAUBFANGKORB
  1

  0
ARC
  5
116
100
AcDbEntity
  8
LC-002-002-RND-0
  6
CONTINUOUS
 62
             7
100
AcDbCircle
 10
169.89155167746401
 20
-303.92353435837902
 40
14.99999999999984
100
AcDbArc
 50
20.00015699999887
 51
90.00007899999991
  0
ARC
  5
115
100
AcDbEntity
  8
LC-002-002-RND-0
  6
CONTINUOUS
 62
             7
100
AcDbCircle
 10
72.99434067746401
 20
-303.92366735837902
 40
15.00000000000016
100
AcDbArc
 50
90.00007899999991
 51
159.99999999999997
  0
LINE
  5
114
100
AcDbEntity
  8
LC-001-002-----0
  6
CONTINUOUS
 62
             7
100
AcDbLine
 10
86.339918677464
 20
-358.58575235837912
 11
87.741783677464
 21
-352.00939635837898
  0
LINE
  5
113
100
AcDbEntity
  8
LC-001-002-----0
  6
CONTINUOUS
 62
             7
100
AcDbLine
 10
62.942437677464
 20
-358.58583935837908
 11
64.139933677464
 21
-355.34249735837909
  0
LINE
  5
112
100
AcDbEntity
  8
LC-001-002-----0
  6
CONTINUOUS
 62
             7
100
AcDbLine
 10
61.792435677464
 20
-358.58584335837912
 11
63.336031677464
 21
-354.40511335837903
  0
LINE
  5
111
100
AcDbEntity
  8
LC-001-002-----0
  6
CONTINUOUS
 62
             7
100
AcDbLine
 10
55.850369677464
 20
-358.58586535837901
 11
59.47972367746399
 21
-349.77264535837901
  0
LINE
  5
110
100
AcDbEntity
  8
LC-001-002-----0
  6
CONTINUOUS
 62
             7
100
AcDbLine
 10
55.255084677464
 20
-358.58586735837901
 11
59.180286677464
 21
-349.05423535837912
  0
LINE
  5
10F
100
AcDbEntity
  8
LC-001-002-----0
  6
CONTINUOUS
 62
             7
100
AcDbLine
 10
187.63083067746399
 20
-358.58537835837899
 11
183.70578167746399
 21
-349.05419435837911
  0
LINE
  5
10E
100
AcDbEntity
  8
LC-001-002-----0
  6
CONTINUOUS
 62
             7
100
AcDbLine
 10
187.035546677464
 20
-358.58538035837898
 11
183.40635067746399
 21
-349.77261335837909
  0
LINE
  5
10D
100
AcDbEntity
  8
LC-001-002-----0
  6
CONTINUOUS
 62
             7
100
AcDbLine
 10
179.94350367746401
 20
-358.58540635837898
 11
178.74680267746399
 21
-355.34424635837911
  0
LINE
  5
10C
100
AcDbEntity
  8
LC-001-002-----0
  6
CONTINUOUS
 62
             7
100
AcDbLine
 10
181.09350367746401
 20
-358.58540235837899
 11
179.55070367746401
 21
-354.40686435837898
  0
LINE
  5
10B
100
AcDbEntity
  8
LC-001-002-----0
  6
CONTINUOUS
 62
             7
100
AcDbLine
 10
180.985674677464
 20
-343.89449335837901
 11
174.96966667746401
 21
-329.28583735837913
  0
LINE
  5
10A
100
AcDbEntity
  8
LC-001-002-----0
  6
CONTINUOUS
 62
             7
100
AcDbLine
 10
181.755973677464
 20
-344.31948135837899
 11
175.564950677464
 21
-329.28583535837907
  0
LINE
  5
109
100
AcDbEntity
  8
LC-001-002-----0
  6
CONTINUOUS
 62
             7
100
AcDbLine
 10
175.920327677464
 20
-344.57430835837903
 11
170.27552267746401
 21
-329.28585035837898
  0
LINE
  5
108
100
AcDbEntity
  8
LC-001-002-----0
  6
CONTINUOUS
 62
             7
100
AcDbLine
 10
175.15960767746401
 20
-345.62864335837901
 11
169.12552267746401
 21
-329.28585335837909
  0
LINE
  5
107
100
AcDbEntity
  8
LC-001-002-----0
  6
CONTINUOUS
 62
             7
100
AcDbLine
 10
156.54608767746399
 20
-358.58549335837898
 11
155.144255677464
 21
-352.00937635837897
  0
LINE
  5
106
100
AcDbEntity
  8
LC-001-002-----0
  6
DASHDOT
 62
             2
100
AcDbLine
 10
121.443028677464
 20
-288.92360535837912
 11
121.443028677464
 21
-518.58704235837911
  0
LINE
  5
105
100
AcDbEntity
  8
LC-001-002-----0
  6
CONTINUOUS
 62
             7
100
AcDbLine
 10
166.69337467746399
 20
-345.98804635837911
 11
161.658216677464
 21
-329.28587335837898
  0
LINE
  5
104
100
AcDbEntity
  8
LC-001-002-----0
  6
CONTINUOUS
 62
             7
100
AcDbLine
 10
165.37330067746399
 20
-347.03346735837903
 11
160.01364467746399
 21
-329.28587835837902
  0
LINE
  5
103
100
AcDbEntity
  8
LC-001-002-----0
  6
CONTINUOUS
 62
             7
100
AcDbLine
 10
153.73461167746399
 20
-345.39661635837899
 11
150.30028667746399
 21
-329.28590435837913
  0
LINE
  5
102
100
AcDbEntity
  8
LC-001-002-----0
  6
CONTINUOUS
 62
             7
100
AcDbLine
 10
154.55422967746401
 20
-358.58550035837902
 11
148.30842867746401
 21
-329.28591035837911
  0
LINE
  5
101
100
AcDbEntity
  8
LC-001-002-----0
  6
CONTINUOUS
 62
             7
100
AcDbLine
 10
140.208861677464
 20
-358.58555335837912
 11
136.975757677464
 21
-329.28594135837909
  0
LINE
  5
100
100
AcDbEntity
  8
LC-001-002-----0
  6
CONTINUOUS
 62
             7
100
AcDbLine
 10
137.98723267746399
 20
-358.58556235837898
 11
134.754128677464
 21
-329.28594735837908
  0
LINE
  5
FF
100
AcDbEntity
  8
LC-001-002-----0
  6
CONTINUOUS
 62
             7
100
AcDbLine
 10
122.59267267746399
 20
-329.28598035837911
 11
122.59275267746401
 21
-358.58561835837912
  0
LINE
  5
FE
100
AcDbEntity
  8
LC-001-002-----0
  6
CONTINUOUS
 62
             7
100
AcDbLine
 10
120.29328867746401
 20
-329.2859843583791
 11
120.29328867746401
 21
-358.58562735837899
  0
LINE
  5
FD
100
AcDbEntity
  8
LC-001-002-----0
  6
CONTINUOUS
 62
             7
100
AcDbLine
 10
104.898800677464
 20
-358.58568435837913
 11
108.131832677464
 21
-329.2859843583791
  0
LINE
  5
FC
100
AcDbEntity
  8
LC-001-002-----0
  6
CONTINUOUS
 62
             7
100
AcDbLine
 10
102.67716967746399
 20
-358.58569235837911
 11
105.910203677464
 21
-329.2859843583791
  0
LINE
  5
FB
100
AcDbEntity
  8
LC-001-002-----0
  6
CONTINUOUS
 62
             7
100
AcDbLine
 10
88.331778677464
 20
-358.58574535837909
 11
94.57753267746401
 21
-329.2859843583791
  0
LINE
  5
FA
100
AcDbEntity
  8
LC-001-002-----0
  6
CONTINUOUS
 62
             7
100
AcDbLine
 10
89.14081467746399
 20
-345.44633435837898
 11
92.585674677464
 21
-329.2859843583791
  0
LINE
  5
F9
100
AcDbEntity
  8
LC-001-002-----0
  6
CONTINUOUS
 62
             7
100
AcDbLine
 10
77.512755677464
 20
-347.03343435837911
 11
82.872316677464
 21
-329.2859843583791
  0
LINE
  5
F8
100
AcDbEntity
  8
LC-001-002-----0
  6
CONTINUOUS
 62
             7
100
AcDbLine
 10
76.192669677464
 20
-345.98804635837911
 11
81.227744677464
 21
-329.2859843583791
  0
LINE
  5
F7
100
AcDbEntity
  8
LC-001-002-----0
  6
CONTINUOUS
 62
             7
100
AcDbLine
 10
67.72645067746399
 20
-345.628647358379
 11
73.76043867746398
 21
-329.2859843583791
  0
LINE
  5
F6
100
AcDbEntity
  8
LC-001-002-----0
  6
CONTINUOUS
 62
             7
100
AcDbLine
 10
66.965730677464
 20
-344.57431035837902
 11
72.610438677464
 21
-329.2859843583791
  0
LINE
  5
F5
100
AcDbEntity
  8
LC-001-002-----0
  6
CONTINUOUS
 62
             7
100
AcDbLine
 10
61.130101677464
 20
-344.31946835837903
 11
67.321010677464
 21
-329.2859843583791
  0
LINE
  5
F4
100
AcDbEntity
  8
LC-001-002-----0
  6
CONTINUOUS
 62
             7
100
AcDbLine
 10
61.90039667746399
 20
-343.89448635837903
 11
67.91629467746398
 21
-329.2859843583791
  0
LINE
  5
F3
100
AcDbEntity
  8
LC-001-002-----0
  6
CONTINUOUS
 62
             7
100
AcDbLine
 10
200.888910677464
 20
-345.23061635837911
 11
183.986926677464
 21
-298.79319435837908
  0
LINE
  5
F2
100
AcDbEntity
  8
LC-001-002-----0
  6
CONTINUOUS
 62
             7
100
AcDbLine
 10
189.999837677464
 20
-358.58536935837913
 11
164.64478967746399
 21
-288.923542358379
  0
LINE
  5
F1
100
AcDbEntity
  8
LC-001-002-----0
  6
CONTINUOUS
 62
             7
100
AcDbLine
 10
52.88608767746401
 20
-358.5858763583791
 11
78.24106067746399
 21
-288.92366035837898
  0
LINE
  5
F0
100
AcDbEntity
  8
LC-001-002-----0
  6
CONTINUOUS
 62
             7
100
AcDbLine
 10
41.99717067746398
 20
-345.23062535837897
 11
58.898950677464
 21
-298.79336535837899
  0
LINE
  5
EF
100
AcDbEntity
  8
LC-007-005-----0
  6
CONTINUOUS
 62
             2
100
AcDbLine
 10
78.141083677464
 20
-289.19834535837902
 11
78.415768677464
 21
-288.92366035837898
  0
LINE
  5
EE
100
AcDbEntity
  8
LC-007-005-----0
  6
CONTINUOUS
 62
             2
100
AcDbLine
 10
65.192465677464
 20
-324.77438035837912
 11
65.24732167746399
 21
-324.71952435837909
  0
LINE
  5
ED
100
AcDbEntity
  8
LC-001-002-----0
  6
CONTINUOUS
 62
             7
100
AcDbLine
 10
136.46128867746401
 20
-324.62362535837912
 11
134.15504567746399
 21
-303.72358335837907
  0
LINE
  5
EC
100
AcDbEntity
  8
LC-001-002-----0
  6
CONTINUOUS
 62
             7
100
AcDbLine
 10
134.23965867746401
 20
-324.62363135837899
 11
131.93341667746401
 21
-303.72358635837912
  0
LINE
  5
EB
100
AcDbEntity
  8
LC-001-002-----0
  6
CONTINUOUS
 62
             7
100
AcDbLine
 10
177.638626677464
 20
-324.62351235837912
 11
121.44297467746399
 21
-324.62366635837913
  0
LINE
  5
EA
100
AcDbEntity
  8
LC-001-002-----0
  6
CONTINUOUS
 62
             7
100
AcDbLine
 10
170.031592677464
 20
-303.72353435837903
 11
121.442945677464
 21
-303.72360135837903
  0
LINE
  5
E9
100
AcDbEntity
  8
LC-001-002-----0
  6
CONTINUOUS
 62
             7
100
AcDbLine
 10
149.30641967746399
 20
-324.62359035837898
 11
144.85115667746399
 21
-303.723569358379
  0
LINE
  5
E8
100
AcDbEntity
  8
LC-001-002-----0
  6
CONTINUOUS
 62
             7
100
AcDbLine
 10
169.891530677464
 20
-288.92353435837902
 11
121.442925677464
 21
-288.92360135837907
  0
LINE
  5
E7
100
AcDbEntity
  8
LC-001-002-----0
  6
CONTINUOUS
 62
             7
100
AcDbLine
 10
160.25268167746401
 20
-324.623560358379
 11
153.95201367746401
 21
-303.72355635837903
  0
LINE
  5
E6
100
AcDbEntity
  8
LC-001-002-----0
  6
CONTINUOUS
 62
             7
100
AcDbLine
 10
179.335584677464
 20
-329.28582535837899
 11
177.638638677464
 21
-328.98661235837898
  0
LINE
  5
E5
100
AcDbEntity
  8
LC-001-002-----0
  6
CONTINUOUS
 62
             7
100
AcDbLine
 10
158.605656677464
 20
-324.62356435837899
 11
152.293990677464
 21
-303.72355835837902
  0
LINE
  5
E4
100
AcDbEntity
  8
LC-001-002-----0
  6
CONTINUOUS
 62
             7
100
AcDbLine
 10
177.638626677464
 20
-324.62351235837912
 11
177.638638677464
 21
-328.98661235837898
  0
LINE
  5
E3
100
AcDbEntity
  8
LC-001-002-----0
  6
CONTINUOUS
 62
             7
100
AcDbLine
 10
122.592602677464
 20
-303.72359935837898
 11
122.592659677464
 21
-324.62366335837908
  0
LINE
  5
E2
100
AcDbEntity
  8
LC-001-002-----0
  6
CONTINUOUS
 62
             7
100
AcDbLine
 10
75.481844677464
 20
-324.62366635837913
 11
83.198482677464
 21
-303.72365335837901
  0
LINE
  5
E1
100
AcDbEntity
  8
LC-001-002-----0
  6
CONTINUOUS
 62
             7
100
AcDbLine
 10
74.331845677464
 20
-324.62366635837913
 11
82.04848267746399
 21
-303.72365535837901
  0
LINE
  5
E0
100
AcDbEntity
  8
LC-001-002-----0
  6
CONTINUOUS
 62
             7
100
AcDbLine
 10
69.240990677464
 20
-324.62366635837913
 11
77.84777967746399
 21
-303.72366135837899
  0
LINE
  5
DF
100
AcDbEntity
  8
LC-001-002-----0
  6
CONTINUOUS
 62
             7
100
AcDbLine
 10
69.83627367746399
 20
-324.62366635837913
 11
78.443063677464
 21
-303.72366035837911
  0
LINE
  5
DE
100
AcDbEntity
  8
LC-001-002-----0
  6
CONTINUOUS
 62
             7
100
AcDbLine
 10
173.049674677464
 20
-324.62352435837909
 11
164.44282767746401
 21
-303.72354235837912
  0
LINE
  5
DD
100
AcDbEntity
  8
LC-001-002-----0
  6
CONTINUOUS
 62
             7
100
AcDbLine
 10
108.646289677464
 20
-324.62366635837913
 11
110.952474677464
 21
-303.72361535837911
  0
LINE
  5
DC
100
AcDbEntity
  8
LC-001-002-----0
  6
CONTINUOUS
 62
             7
100
AcDbLine
 10
106.424660677464
 20
-324.62366635837913
 11
108.730845677464
 21
-303.72361835837899
  0
LINE
  5
DB
100
AcDbEntity
  8
LC-001-002-----0
  6
CONTINUOUS
 62
             7
100
AcDbLine
 10
63.55037667746399
 20
-329.2859843583791
 11
121.44298067746401
 21
-329.2859843583791
  0
LINE
  5
DA
100
AcDbEntity
  8
LC-001-002-----0
  6
CONTINUOUS
 62
             7
100
AcDbLine
 10
65.24732167746399
 20
-324.62366635837913
 11
121.44297467746399
 21
-324.62366635837913
  0
LINE
  5
D9
100
AcDbEntity
  8
LC-001-002-----0
  6
CONTINUOUS
 62
             7
100
AcDbLine
 10
93.579528677464
 20
-324.62366635837913
 11
98.034734677464
 21
-303.72363335837912
  0
LINE
  5
D8
100
AcDbEntity
  8
LC-001-002-----0
  6
CONTINUOUS
 62
             7
100
AcDbLine
 10
72.85429867746399
 20
-303.72366735837898
 11
121.442945677464
 21
-303.72360135837903
  0
LINE
  5
D7
100
AcDbEntity
  8
LC-001-002-----0
  6
CONTINUOUS
 62
             7
100
AcDbLine
 10
82.63326767746401
 20
-324.62366635837913
 11
88.933877677464
 21
-303.72364535837897
  0
LINE
  5
D6
100
AcDbEntity
  8
LC-001-002-----0
  6
CONTINUOUS
 62
             7
100
AcDbLine
 10
63.55037667746399
 20
-329.2859843583791
 11
65.24732167746399
 21
-328.98676635837899
  0
LINE
  5
D5
100
AcDbEntity
  8
LC-001-002-----0
  6
CONTINUOUS
 62
             7
100
AcDbLine
 10
84.28029267746399
 20
-324.62366635837913
 11
90.591900677464
 21
-303.72364335837898
  0
LINE
  5
D4
100
AcDbEntity
  8
LC-001-002-----0
  6
CONTINUOUS
 62
             7
100
AcDbLine
 10
65.24732167746399
 20
-324.62366635837913
 11
65.24732167746399
 21
-328.98676635837899
  0
LINE
  5
D3
100
AcDbEntity
  8
LC-001-002-----0
  6
CONTINUOUS
 62
             7
100
AcDbLine
 10
120.29328867746401
 20
-303.72360235837903
 11
120.29328867746401
 21
-324.62366635837913
  0
LINE
  5
D2
100
AcDbEntity
  8
LC-001-002-----0
  6
CONTINUOUS
 62
             7
100
AcDbLine
 10
173.64495767746399
 20
-324.62352335837897
 11
165.038111677464
 21
-303.72354135837912
  0
LINE
  5
D1
100
AcDbEntity
  8
LC-001-002-----0
  6
CONTINUOUS
 62
             7
100
AcDbLine
 10
168.55410267746399
 20
-324.62353735837911
 11
160.837408677464
 21
-303.72354735837911
  0
LINE
  5
D0
100
AcDbEntity
  8
LC-001-002-----0
  6
CONTINUOUS
 62
             7
100
AcDbLine
 10
167.40410367746401
 20
-324.6235403583791
 11
159.68740867746399
 21
-303.72354835837911
  0
LINE
  5
CF
100
AcDbEntity
  8
LC-001-002-----0
  6
CONTINUOUS
 62
             7
100
AcDbLine
 10
166.28266967746401
 20
-293.42354335837911
 11
163.92980467746401
 21
-293.00867635837898
  0
LINE
  5
CE
100
AcDbEntity
  8
LC-001-002-----0
  6
CONTINUOUS
 62
             7
100
AcDbLine
 10
163.92980467746401
 20
-293.00867635837898
 11
162.44292567746399
 21
-288.9235453583791
  0
LINE
  5
CD
100
AcDbEntity
  8
LC-001-002-----0
  6
CONTINUOUS
 62
             7
100
AcDbLine
 10
147.31456167746401
 20
-324.62359535837902
 11
142.85929867746401
 21
-303.72357135837899
  0
LINE
  5
CC
100
AcDbEntity
  8
LC-001-002-----0
  6
CONTINUOUS
 62
             7
100
AcDbLine
 10
76.60319267746399
 20
-293.42366635837902
 11
78.956057677464
 21
-293.00879235837908
  0
LINE
  5
CB
100
AcDbEntity
  8
LC-001-002-----0
  6
CONTINUOUS
 62
             7
100
AcDbLine
 10
78.956057677464
 20
-293.00879235837908
 11
80.44292567746399
 21
-288.9236573583791
  0
LINE
  5
CA
100
AcDbEntity
  8
LC-001-002-----0
  6
CONTINUOUS
 62
             7
100
AcDbLine
 10
72.99431967746401
 20
-288.92366735837902
 11
121.442925677464
 21
-288.92360135837907
  0
LINE
  5
C9
100
AcDbEntity
  8
LC-001-002-----0
  6
CONTINUOUS
 62
             7
100
AcDbLine
 10
95.57138667746401
 20
-324.62366635837913
 11
100.026592677464
 21
-303.72363035837913
  0
LINE
  5
C8
100
AcDbEntity
  8
LC-001-002-----0
  6
CONTINUOUS
 62
             7
100
AcDbLine
 10
179.335584677464
 20
-329.28582535837899
 11
121.44298067746401
 21
-329.2859843583791
  0
LINE
  5
C7
100
AcDbEntity
  8
LC-001-002-----0
  6
CONTINUOUS
 62
             7
100
AcDbLine
 10
124.748279677464
 20
-303.72359635837898
 11
124.748238677464
 21
-288.92359635837909
  0
LINE
  5
C6
100
AcDbEntity
  8
LC-001-002-----0
  6
CONTINUOUS
 62
             7
100
AcDbLine
 10
118.13761167746399
 20
-303.72360535837907
 11
118.13761167746399
 21
-288.92360535837912
  0
ENDBLK
  5
117
100
AcDbEntity
  8
0
100
AcDbBlockEnd
  0
BLOCK
  5
2E
100
AcDbEntity
  8
0
100
AcDbBlockBegin
  2
BLK17
 70
             0
 10
151.31297268026779
 20
38.31682348414
 30
0.0
  3
BLK17
  1

  0
ARC
  5
11B
100
AcDbEntity
  8
LC-001-002-----0
  6
CONTINUOUS
 62
             1
100
AcDbCircle
 10
23.12717767746399
 20
-389.68783035837907
 40
2.84523599999995
100
AcDbArc
 50
77.54533099999871
 51
88.11559499999937
  0
ARC
  5
11A
100
AcDbEntity
  8
LC-001-002-----0
  6
CONTINUOUS
 62
             1
100
AcDbCircle
 10
23.34532267746398
 20
-388.75401035837911
 40
1.88638100000032
100
AcDbArc
 50
63.97949900000553
 51
77.89818299999972
  0
ARC
  5
119
100
AcDbEntity
  8
LC-001-002-----0
  6
CONTINUOUS
 62
             1
100
AcDbCircle
 10
23.79695867746399
 20
-387.8571753583791
 40
0.8824099999999
100
AcDbArc
 50
41.6116579999948
 51
64.78609900000254
  0
ARC
  5
118
100
AcDbEntity
  8
LC-001-002-----0
  6
CONTINUOUS
 62
             1
100
AcDbCircle
 10
24.17923567746401
 20
-387.52128435837898
 40
0.37354699999998
100
AcDbArc
 50
0.65755899996021
 51
42.03020199998929
  0
ENDBLK
  5
11C
100
AcDbEntity
  8
0
100
AcDbBlockEnd
  0
BLOCK
  5
30
100
AcDbEntity
  8
0
100
AcDbBlockBegin
  2
BLK18
 70
             0
 10
151.31297268026779
 20
38.31682348414
 30
0.0
  3
BLK18
  1

  0
ARC
  5
120
100
AcDbEntity
  8
LC-001-002-----0
  6
CONTINUOUS
 62
             1
100
AcDbCircle
 10
31.77597967746401
 20
-389.79439535837912
 40
2.95226200000022
100
AcDbArc
 50
79.34092800000029
 51
90.12210499999998
  0
ARC
  5
11F
100
AcDbEntity
  8
LC-001-002-----0
  6
CONTINUOUS
 62
             1
100
AcDbCircle
 10
31.95795867746399
 20
-388.89684335837899
 40
2.03657800000007
100
AcDbArc
 50
65.8767840000002
 51
79.70170399999974
  0
ARC
  5
11E
100
AcDbEntity
  8
LC-001-002-----0
  6
CONTINUOUS
 62
             1
100
AcDbCircle
 10
32.41201967746399
 20
-387.91738935837913
 40
0.95719000000027
100
AcDbArc
 50
43.77289900001411
 51
66.72101100001055
  0
ARC
  5
11D
100
AcDbEntity
  8
LC-001-002-----0
  6
CONTINUOUS
 62
             1
100
AcDbCircle
 10
32.828113677464
 20
-387.5248373583791
 40
0.38519100000003
100
AcDbArc
 50
2.01890900003686
 51
44.42719699997105
  0
ENDBLK
  5
121
100
AcDbEntity
  8
0
100
AcDbBlockEnd
  0
BLOCK
  5
32
100
AcDbEntity
  8
0
100
AcDbBlockBegin
  2
BLK19
 70
             0
 10
151.31297268026779
 20
38.31682348414
 30
0.0
  3
BLK19
  1

  0
ARC
  5
125
100
AcDbEntity
  8
LC-001-002-----0
  6
CONTINUOUS
 62
             1
100
AcDbCircle
 10
31.75848667746401
 20
-389.13921235837898
 40
2.90276399999991
100
AcDbArc
 50
-101.49586600000072
 51
-90.93044799999979
  0
ARC
  5
124
100
AcDbEntity
  8
LC-001-002-----0
  6
CONTINUOUS
 62
             1
100
AcDbCircle
 10
31.561497677464
 20
-390.04818935837909
 40
1.97279800000022
100
AcDbArc
 50
-114.83429699999606
 51
-101.15082800000182
  0
ARC
  5
123
100
AcDbEntity
  8
LC-001-002-----0
  6
CONTINUOUS
 62
             1
100
AcDbCircle
 10
31.11405367746399
 20
-390.98417735837899
 40
0.93552900000031
100
AcDbArc
 50
-136.61497399998277
 51
-114.04075600000893
  0
ARC
  5
122
100
AcDbEntity
  8
LC-001-002-----0
  6
CONTINUOUS
 62
             1
100
AcDbCircle
 10
30.712164677464
 20
-391.35854135837911
 40
0.38632600000002
100
AcDbArc
 50
-177.00404000002229
 51
-136.02385800005734
  0
ENDBLK
  5
126
100
AcDbEntity
  8
0
100
AcDbBlockEnd
  0
BLOCK
  5
34
100
AcDbEntity
  8
0
100
AcDbBlockBegin
  2
BLK20
 70
             0
 10
151.31297268026779
 20
38.31682348414
 30
0.0
  3
BLK20
  1

  0
ARC
  5
12A
100
AcDbEntity
  8
LC-001-002-----0
  6
CONTINUOUS
 62
             1
100
AcDbCircle
 10
23.10314567746399
 20
-389.08988735837909
 40
2.95225999999982
100
AcDbArc
 50
-100.65912900000126
 51
-89.8779470000009
  0
ARC
  5
129
100
AcDbEntity
  8
LC-001-002-----0
  6
CONTINUOUS
 62
             1
100
AcDbCircle
 10
22.92116467746401
 20
-389.98744135837899
 40
2.03657300000005
100
AcDbArc
 50
-114.12329499999866
 51
-100.29835200000052
  0
ARC
  5
128
100
AcDbEntity
  8
LC-001-002-----0
  6
CONTINUOUS
 62
             1
100
AcDbCircle
 10
22.46710367746401
 20
-390.96689435837902
 40
0.95718599999985
100
AcDbArc
 50
-136.22724000000881
 51
-113.27906499999828
  0
ARC
  5
127
100
AcDbEntity
  8
LC-001-002-----0
  6
CONTINUOUS
 62
             1
100
AcDbCircle
 10
22.05101067746399
 20
-391.35944235837911
 40
0.38518899999998
100
AcDbArc
 50
-177.9813250000939
 51
-135.57295500001595
  0
ENDBLK
  5
12B
100
AcDbEntity
  8
0
100
AcDbBlockEnd
  0
BLOCK
  5
36
100
AcDbEntity
  8
0
100
AcDbBlockBegin
  2
BLK21
 70
             0
 10
151.31297268026779
 20
38.31682348414
 30
0.0
  3
BLK21
  1

  0
ARC
  5
12F
100
AcDbEntity
  8
LC-001-002-----0
  6
CONTINUOUS
 62
             1
100
AcDbCircle
 10
27.50175167746399
 20
-397.71501035837912
 40
10.87178399999961
100
AcDbArc
 50
83.27724299999991
 51
88.5892230000001
  0
ARC
  5
12E
100
AcDbEntity
  8
LC-001-002-----0
  6
CONTINUOUS
 62
             1
100
AcDbCircle
 10
28.06443167746399
 20
-393.19214135837899
 40
6.31421000000032
100
AcDbArc
 50
75.90184800000077
 51
83.54348499999985
  0
ARC
  5
12D
100
AcDbEntity
  8
LC-001-002-----0
  6
CONTINUOUS
 62
             1
100
AcDbCircle
 10
29.14127167746399
 20
-389.06825935837912
 40
2.05262700000011
100
AcDbArc
 50
60.76873700000072
 51
77.01552200000256
  0
ARC
  5
12C
100
AcDbEntity
  8
LC-001-002-----0
  6
CONTINUOUS
 62
             1
100
AcDbCircle
 10
30.02608967746399
 20
-387.5558863583791
 40
0.30262800000005
100
AcDbArc
 50
7.38371100004996
 51
67.14240800002514
  0
ENDBLK
  5
130
100
AcDbEntity
  8
0
100
AcDbBlockEnd
  0
BLOCK
  5
38
100
AcDbEntity
  8
0
100
AcDbBlockBegin
  2
BLK22
 70
             0
 10
151.31297268026779
 20
38.31682348414
 30
0.0
  3
BLK22
  1

  0
ARC
  5
134
100
AcDbEntity
  8
LC-001-002-----0
  6
CONTINUOUS
 62
             1
100
AcDbCircle
 10
27.41449567746399
 20
-380.56944535837908
 40
11.47254199999943
100
AcDbArc
 50
-95.73709000000019
 51
-90.361636
  0
ARC
  5
133
100
AcDbEntity
  8
LC-001-002-----0
  6
CONTINUOUS
 62
             1
100
AcDbCircle
 10
26.94005967746399
 20
-384.97457035837908
 40
7.0421269999995
100
AcDbArc
 50
-102.93139100000087
 51
-95.47912400000055
  0
ARC
  5
132
100
AcDbEntity
  8
LC-001-002-----0
  6
CONTINUOUS
 62
             1
100
AcDbCircle
 10
25.85058167746401
 20
-389.52443035837911
 40
2.36425200000015
100
AcDbArc
 50
-117.37907199999755
 51
-101.87322700000099
  0
ARC
  5
131
100
AcDbEntity
  8
LC-001-002-----0
  6
CONTINUOUS
 62
             1
100
AcDbCircle
 10
24.880607677464
 20
-391.31166535837912
 40
0.33348700000007
100
AcDbArc
 50
-169.39993499994719
 51
-110.59143000000346
  0
ENDBLK
  5
135
100
AcDbEntity
  8
0
100
AcDbBlockEnd
  0
BLOCK
  5
3A
100
AcDbEntity
  8
0
100
AcDbBlockBegin
  2
BLK23
 70
             0
 10
151.31297268026779
 20
38.31682348414
 30
0.0
  3
BLK23
  1

  0
ARC
  5
139
100
AcDbEntity
  8
LC-001-002-----0
  6
CONTINUOUS
 62
             1
100
AcDbCircle
 10
22.05101067746399
 20
-387.5248373583791
 40
0.38518999999992
100
AcDbArc
 50
135.5728930000152
 51
177.98123099998674
  0
ARC
  5
138
100
AcDbEntity
  8
LC-001-002-----0
  6
CONTINUOUS
 62
             1
100
AcDbCircle
 10
22.46710467746401
 20
-387.91738735837907
 40
0.95718699999989
100
AcDbArc
 50
113.27903400000275
 51
136.22718300001375
  0
ARC
  5
137
100
AcDbEntity
  8
LC-001-002-----0
  6
CONTINUOUS
 62
             1
100
AcDbCircle
 10
22.921165677464
 20
-388.89684035837911
 40
2.03657500000057
100
AcDbArc
 50
100.29832799999697
 51
114.12326199999823
  0
ARC
  5
136
100
AcDbEntity
  8
LC-001-002-----0
  6
CONTINUOUS
 62
             1
100
AcDbCircle
 10
23.10314567746399
 20
-389.79439435837901
 40
2.95226099999959
100
AcDbArc
 50
89.8779250000006
 51
100.65910499999936
  0
ENDBLK
  5
13A
100
AcDbEntity
  8
0
100
AcDbBlockEnd
  0
BLOCK
  5
3C
100
AcDbEntity
  8
0
100
AcDbBlockBegin
  2
BLK24
 70
             0
 10
151.31297268026779
 20
38.31682348414
 30
0.0
  3
BLK24
  1

  0
ARC
  5
13E
100
AcDbEntity
  8
LC-001-002-----0
  6
CONTINUOUS
 62
             1
100
AcDbCircle
 10
24.86647467746398
 20
-387.56239835837903
 40
0.31682899999952
100
AcDbArc
 50
111.13452400002311
 51
171.76010299992882
  0
ARC
  5
13D
100
AcDbEntity
  8
LC-001-002-----0
  6
CONTINUOUS
 62
             1
100
AcDbCircle
 10
25.81516367746399
 20
-389.26345335837902
 40
2.26188200000029
100
AcDbArc
 50
102.13100999999824
 51
118.0296849999993
  0
ARC
  5
13C
100
AcDbEntity
  8
LC-001-002-----0
  6
CONTINUOUS
 62
             1
100
AcDbCircle
 10
26.910889677464
 20
-393.73306335837913
 40
6.86321699999964
100
AcDbArc
 50
95.68686300000019
 51
103.23288200000063
  0
ARC
  5
13B
100
AcDbEntity
  8
LC-001-002-----0
  6
CONTINUOUS
 62
             1
100
AcDbCircle
 10
27.40843967746399
 20
-398.20072235837898
 40
11.35831099999964
100
AcDbArc
 50
90.5650959999999
 51
95.95115599999973
  0
ENDBLK
  5
13F
100
AcDbEntity
  8
0
100
AcDbBlockEnd
  0
BLOCK
  5
3E
100
AcDbEntity
  8
0
100
AcDbBlockBegin
  2
BLK26
 70
             0
 10
151.31297268026779
 20
38.31682348414
 30
0.0
  3
BLK26
  1

  0
ARC
  5
143
100
AcDbEntity
  8
LC-001-002-----0
  6
CONTINUOUS
 62
             1
100
AcDbCircle
 10
30.70781867746401
 20
-387.52451935837911
 40
0.38192400000022
100
AcDbArc
 50
137.15458699996779
 51
177.15170800003054
  0
ARC
  5
142
100
AcDbEntity
  8
LC-001-002-----0
  6
CONTINUOUS
 62
             1
100
AcDbCircle
 10
31.09063567746399
 20
-387.8693313583791
 40
0.89711300000025
100
AcDbArc
 50
115.13766899999588
 51
137.63430800001032
  0
ARC
  5
141
100
AcDbEntity
  8
LC-001-002-----0
  6
CONTINUOUS
 62
             1
100
AcDbCircle
 10
31.53351067746401
 20
-388.75440935837912
 40
1.88666099999977
100
AcDbArc
 50
102.23272400000231
 51
115.89549300000047
  0
ARC
  5
140
100
AcDbEntity
  8
LC-001-002-----0
  6
CONTINUOUS
 62
             1
100
AcDbCircle
 10
31.75031367746401
 20
-389.67603335837907
 40
2.83334599999964
100
AcDbArc
 50
92.16196500000022
 51
102.56848400000146
  0
ENDBLK
  5
144
100
AcDbEntity
  8
0
100
AcDbBlockEnd
  0
BLOCK
  5
40
100
AcDbEntity
  8
0
100
AcDbBlockBegin
  2
BLK27
 70
             0
 10
151.31297268026779
 20
38.31682348414
 30
0.0
  3
BLK27
  1

  0
ARC
  5
148
100
AcDbEntity
  8
LC-001-002-----0
  6
CONTINUOUS
 62
             1
100
AcDbCircle
 10
24.173431677464
 20
-391.36094135837902
 40
0.37957099999978
100
AcDbArc
 50
-42.96205899997278
 51
-1.82232999997954
  0
ARC
  5
147
100
AcDbEntity
  8
LC-001-002-----0
  6
CONTINUOUS
 62
             1
100
AcDbCircle
 10
23.78210967746399
 20
-391.00736135837911
 40
0.90694700000021
100
AcDbArc
 50
-65.32808400000788
 51
-42.46043400000095
  0
ARC
  5
146
100
AcDbEntity
  8
LC-001-002-----0
  6
CONTINUOUS
 62
             1
100
AcDbCircle
 10
23.33254467746399
 20
-390.09297835837913
 40
1.92570499999989
100
AcDbArc
 50
-78.3269119999984
 51
-64.52943100000452
  0
ARC
  5
145
100
AcDbEntity
  8
LC-001-002-----0
  6
CONTINUOUS
 62
             1
100
AcDbCircle
 10
23.12404867746399
 20
-389.17010535837898
 40
2.87172799999978
100
AcDbArc
 50
-88.53676799999957
 51
-77.97851600000142
  0
ENDBLK
  5
149
100
AcDbEntity
  8
0
100
AcDbBlockEnd
  0
BLOCK
  5
42
100
AcDbEntity
  8
0
100
AcDbBlockBegin
  2
BLK29
 70
             0
 10
151.31297268026779
 20
38.31682348414
 30
0.0
  3
BLK29
  1

  0
ARC
  5
14D
100
AcDbEntity
  8
LC-001-002-----0
  6
CONTINUOUS
 62
             1
100
AcDbCircle
 10
29.97178567746398
 20
-391.29330435837898
 40
0.36457400000013
100
AcDbArc
 50
-71.09714100001249
 51
-13.55235300003061
  0
ARC
  5
14C
100
AcDbEntity
  8
LC-001-002-----0
  6
CONTINUOUS
 62
             1
100
AcDbCircle
 10
28.93092067746399
 20
-389.252340358379
 40
2.65247499999974
100
AcDbArc
 50
-78.99501999999815
 51
-64.09116999999847
  0
ARC
  5
14B
100
AcDbEntity
  8
LC-001-002-----0
  6
CONTINUOUS
 62
             1
100
AcDbCircle
 10
27.843944677464
 20
-384.36899635837898
 40
7.6547020000004
100
AcDbArc
 50
-85.30246800000055
 51
-77.98609900000086
  0
ARC
  5
14A
100
AcDbEntity
  8
LC-001-002-----0
  6
CONTINUOUS
 62
             1
100
AcDbCircle
 10
27.44737767746399
 20
-380.18174935837908
 40
11.86047599999994
100
AcDbArc
 50
-90.50710500000014
 51
-85.04972799999989
  0
ENDBLK
  5
14E
100
AcDbEntity
  8
0
100
AcDbBlockEnd
  0
BLOCK
  5
44
100
AcDbEntity
  8
0
100
AcDbBlockBegin
  2
BLK30
 70
             0
 10
151.31297268026779
 20
38.31682348414
 30
0.0
  3
BLK30
  1

  0
ARC
  5
152
100
AcDbEntity
  8
LC-001-002-----0
  6
CONTINUOUS
 62
             1
100
AcDbCircle
 10
32.828114677464
 20
-391.35944235837911
 40
0.38519000000002
100
AcDbArc
 50
-44.42706500000001
 51
-2.0186780000436
  0
ARC
  5
151
100
AcDbEntity
  8
LC-001-002-----0
  6
CONTINUOUS
 62
             1
100
AcDbCircle
 10
32.41202167746401
 20
-390.96689435837902
 40
0.95718599999972
100
AcDbArc
 50
-66.7209539999963
 51
-43.772778000006
  0
ARC
  5
150
100
AcDbEntity
  8
LC-001-002-----0
  6
CONTINUOUS
 62
             1
100
AcDbCircle
 10
31.95796067746399
 20
-389.9874403583791
 40
2.03657400000009
100
AcDbArc
 50
-79.70166700000046
 51
-65.87672400000119
  0
ARC
  5
14F
100
AcDbEntity
  8
LC-001-002-----0
  6
CONTINUOUS
 62
             1
100
AcDbCircle
 10
31.77597967746401
 20
-389.08988635837898
 40
2.95226099999976
100
AcDbArc
 50
-90.1220749999994
 51
-79.34089000000253
  0
ENDBLK
  5
153
100
AcDbEntity
  8
0
100
AcDbBlockEnd
  0
BLOCK
  5
46
100
AcDbEntity
  8
0
100
AcDbBlockBegin
  2
BLK32
 70
             0
 10
151.31297268026779
 20
38.31682348414
 30
0.0
  3
BLK32
  1

  0
ARC
  5
157
100
AcDbEntity
  8
LC-001-002-----0
  6
CONTINUOUS
 62
             1
100
AcDbCircle
 10
218.70682067746401
 20
-387.52128435837898
 40
0.37354700000024
100
AcDbArc
 50
137.96979800005522
 51
179.34244100003932
  0
ARC
  5
156
100
AcDbEntity
  8
LC-001-002-----0
  6
CONTINUOUS
 62
             1
100
AcDbCircle
 10
219.089097677464
 20
-387.8571753583791
 40
0.88240999999998
100
AcDbArc
 50
115.21390099997389
 51
138.38834200002603
  0
ARC
  5
155
100
AcDbEntity
  8
LC-001-002-----0
  6
CONTINUOUS
 62
             1
100
AcDbCircle
 10
219.540733677464
 20
-388.75401035837911
 40
1.88638099999983
100
AcDbArc
 50
102.10181699999922
 51
116.02050099998885
  0
ARC
  5
154
100
AcDbEntity
  8
LC-001-002-----0
  6
CONTINUOUS
 62
             1
100
AcDbCircle
 10
219.758878677464
 20
-389.68783035837907
 40
2.84523600000037
100
AcDbArc
 50
91.88440500000242
 51
102.45466900000919
  0
ENDBLK
  5
158
100
AcDbEntity
  8
0
100
AcDbBlockEnd
  0
BLOCK
  5
48
100
AcDbEntity
  8
0
100
AcDbBlockBegin
  2
BLK33
 70
             0
 10
151.31297268026779
 20
38.31682348414
 30
0.0
  3
BLK33
  1

  0
ARC
  5
15C
100
AcDbEntity
  8
LC-001-002-----0
  6
CONTINUOUS
 62
             1
100
AcDbCircle
 10
210.05794267746401
 20
-387.5248373583791
 40
0.38519099999987
100
AcDbArc
 50
135.57280300004078
 51
177.98109099996375
  0
ARC
  5
15B
100
AcDbEntity
  8
LC-001-002-----0
  6
CONTINUOUS
 62
             1
100
AcDbCircle
 10
210.474036677464
 20
-387.91738935837913
 40
0.95719000000049
100
AcDbArc
 50
113.27898900001134
 51
136.22710099998943
  0
ARC
  5
15A
100
AcDbEntity
  8
LC-001-002-----0
  6
CONTINUOUS
 62
             1
100
AcDbCircle
 10
210.928097677464
 20
-388.89684335837899
 40
2.03657799999992
100
AcDbArc
 50
100.29829599999211
 51
114.12321599998658
  0
ARC
  5
159
100
AcDbEntity
  8
LC-001-002-----0
  6
CONTINUOUS
 62
             1
100
AcDbCircle
 10
211.11007667746401
 20
-389.79439535837912
 40
2.95226199999993
100
AcDbArc
 50
89.87789499999073
 51
100.65907200000413
  0
ENDBLK
  5
15D
100
AcDbEntity
  8
0
100
AcDbBlockEnd
  0
BLOCK
  5
4A
100
AcDbEntity
  8
0
100
AcDbBlockBegin
  2
BLK34
 70
             0
 10
151.31297268026779
 20
38.31682348414
 30
0.0
  3
BLK34
  1

  0
ARC
  5
161
100
AcDbEntity
  8
LC-001-002-----0
  6
CONTINUOUS
 62
             1
100
AcDbCircle
 10
212.17389167746401
 20
-391.35854135837911
 40
0.38632599999939
100
AcDbArc
 50
-43.97614199997704
 51
-2.99595999998009
  0
ARC
  5
160
100
AcDbEntity
  8
LC-001-002-----0
  6
CONTINUOUS
 62
             1
100
AcDbCircle
 10
211.772002677464
 20
-390.98417735837899
 40
0.93552899999956
100
AcDbArc
 50
-65.95924399999127
 51
-43.38502600003757
  0
ARC
  5
15F
100
AcDbEntity
  8
LC-001-002-----0
  6
CONTINUOUS
 62
             1
100
AcDbCircle
 10
211.32455867746401
 20
-390.04818935837909
 40
1.97279799999995
100
AcDbArc
 50
-78.84917199998988
 51
-65.16570300000984
  0
ARC
  5
15E
100
AcDbEntity
  8
LC-001-002-----0
  6
CONTINUOUS
 62
             1
100
AcDbCircle
 10
211.12756967746401
 20
-389.13921235837898
 40
2.90276399999979
100
AcDbArc
 50
-89.06955200000259
 51
-78.50413400000157
  0
ENDBLK
  5
162
100
AcDbEntity
  8
0
100
AcDbBlockEnd
  0
BLOCK
  5
4C
100
AcDbEntity
  8
0
100
AcDbBlockBegin
  2
BLK35
 70
             0
 10
151.31297268026779
 20
38.31682348414
 30
0.0
  3
BLK35
  1

  0
ARC
  5
166
100
AcDbEntity
  8
LC-001-002-----0
  6
CONTINUOUS
 62
             1
100
AcDbCircle
 10
220.835045677464
 20
-391.35944235837911
 40
0.38518899999982
100
AcDbArc
 50
-44.42704499999255
 51
-2.01867499990488
  0
ARC
  5
165
100
AcDbEntity
  8
LC-001-002-----0
  6
CONTINUOUS
 62
             1
100
AcDbCircle
 10
220.41895267746401
 20
-390.96689435837902
 40
0.95718600000016
100
AcDbArc
 50
-66.7209350000031
 51
-43.77275999997106
  0
ARC
  5
164
100
AcDbEntity
  8
LC-001-002-----0
  6
CONTINUOUS
 62
             1
100
AcDbCircle
 10
219.96489167746401
 20
-389.98744135837899
 40
2.03657299999996
100
AcDbArc
 50
-79.70164799998611
 51
-65.87670500000208
  0
ARC
  5
163
100
AcDbEntity
  8
LC-001-002-----0
  6
CONTINUOUS
 62
             1
100
AcDbCircle
 10
219.782910677464
 20
-389.08988735837909
 40
2.95226000000026
100
AcDbArc
 50
-90.1220529999969
 51
-79.34087099999725
  0
ENDBLK
  5
167
100
AcDbEntity
  8
0
100
AcDbBlockEnd
  0
BLOCK
  5
4E
100
AcDbEntity
  8
0
100
AcDbBlockBegin
  2
BLK36
 70
             0
 10
151.31297268026779
 20
38.31682348414
 30
0.0
  3
BLK36
  1

  0
ARC
  5
16B
100
AcDbEntity
  8
LC-001-002-----0
  6
CONTINUOUS
 62
             1
100
AcDbCircle
 10
212.859966677464
 20
-387.5558863583791
 40
0.30262800000025
100
AcDbArc
 50
112.85759199992155
 51
172.61628899995014
  0
ARC
  5
16A
100
AcDbEntity
  8
LC-001-002-----0
  6
CONTINUOUS
 62
             1
100
AcDbCircle
 10
213.744784677464
 20
-389.06825935837912
 40
2.05262700000058
100
AcDbArc
 50
102.98447800000285
 51
119.23126300000898
  0
ARC
  5
169
100
AcDbEntity
  8
LC-001-002-----0
  6
CONTINUOUS
 62
             1
100
AcDbCircle
 10
214.821624677464
 20
-393.19214135837899
 40
6.31420999999952
100
AcDbArc
 50
96.45651499999663
 51
104.09815200000199
  0
ARC
  5
168
100
AcDbEntity
  8
LC-001-002-----0
  6
CONTINUOUS
 62
             1
100
AcDbCircle
 10
215.384304677464
 20
-397.71501035837912
 40
10.87178399999991
100
AcDbArc
 50
91.41077699999933
 51
96.72275700000174
  0
ENDBLK
  5
16C
100
AcDbEntity
  8
0
100
AcDbBlockEnd
  0
BLOCK
  5
50
100
AcDbEntity
  8
0
100
AcDbBlockBegin
  2
BLK37
 70
             0
 10
151.31297268026779
 20
38.31682348414
 30
0.0
  3
BLK37
  1

  0
ARC
  5
170
100
AcDbEntity
  8
LC-001-002-----0
  6
CONTINUOUS
 62
             1
100
AcDbCircle
 10
218.00544867746399
 20
-391.31166535837912
 40
0.333487
100
AcDbArc
 50
-69.40857000002798
 51
-10.60006500006809
  0
ARC
  5
16F
100
AcDbEntity
  8
LC-001-002-----0
  6
CONTINUOUS
 62
             1
100
AcDbCircle
 10
217.03547467746401
 20
-389.52443035837911
 40
2.36425199999963
100
AcDbArc
 50
-78.12677300000382
 51
-62.62092800000063
  0
ARC
  5
16E
100
AcDbEntity
  8
LC-001-002-----0
  6
CONTINUOUS
 62
             1
100
AcDbCircle
 10
215.945996677464
 20
-384.97457035837908
 40
7.04212699999955
100
AcDbArc
 50
-84.52087600000171
 51
-77.06860900000223
  0
ARC
  5
16D
100
AcDbEntity
  8
LC-001-002-----0
  6
CONTINUOUS
 62
             1
100
AcDbCircle
 10
215.471560677464
 20
-380.56944535837908
 40
11.47254199999994
100
AcDbArc
 50
-89.63836400000199
 51
-84.26291000000219
  0
ENDBLK
  5
171
100
AcDbEntity
  8
0
100
AcDbBlockEnd
  0
BLOCK
  5
52
100
AcDbEntity
  8
0
100
AcDbBlockBegin
  2
BLK38
 70
             0
 10
151.31297268026779
 20
38.31682348414
 30
0.0
  3
BLK38
  1

  0
ARC
  5
175
100
AcDbEntity
  8
LC-001-002-----0
  6
CONTINUOUS
 62
             1
100
AcDbCircle
 10
219.782910677464
 20
-389.79439435837901
 40
2.9522610000001
100
AcDbArc
 50
79.34089499999089
 51
90.12207500000658
  0
ARC
  5
174
100
AcDbEntity
  8
LC-001-002-----0
  6
CONTINUOUS
 62
             1
100
AcDbCircle
 10
219.96489067746401
 20
-388.89684035837911
 40
2.03657500000022
100
AcDbArc
 50
65.87673799999941
 51
79.70167199999497
  0
ARC
  5
173
100
AcDbEntity
  8
LC-001-002-----0
  6
CONTINUOUS
 62
             1
100
AcDbCircle
 10
220.41895167746401
 20
-387.91738735837907
 40
0.95718699999989
100
AcDbArc
 50
43.77281699998273
 51
66.72096599997714
  0
ARC
  5
172
100
AcDbEntity
  8
LC-001-002-----0
  6
CONTINUOUS
 62
             1
100
AcDbCircle
 10
220.835045677464
 20
-387.5248373583791
 40
0.38518999999981
100
AcDbArc
 50
2.01876900001427
 51
44.42710699999258
  0
ENDBLK
  5
176
100
AcDbEntity
  8
0
100
AcDbBlockEnd
  0
BLOCK
  5
54
100
AcDbEntity
  8
0
100
AcDbBlockBegin
  2
BLK39
 70
             0
 10
151.31297268026779
 20
38.31682348414
 30
0.0
  3
BLK39
  1

  0
ARC
  5
17A
100
AcDbEntity
  8
LC-001-002-----0
  6
CONTINUOUS
 62
             1
100
AcDbCircle
 10
215.477616677464
 20
-398.20072235837898
 40
11.35831100000034
100
AcDbArc
 50
84.0488439999987
 51
89.43490400000111
  0
ARC
  5
179
100
AcDbEntity
  8
LC-001-002-----0
  6
CONTINUOUS
 62
             1
100
AcDbCircle
 10
215.97516667746399
 20
-393.73306335837913
 40
6.86321699999944
100
AcDbArc
 50
76.76711800000238
 51
84.31313700000288
  0
ARC
  5
178
100
AcDbEntity
  8
LC-001-002-----0
  6
CONTINUOUS
 62
             1
100
AcDbCircle
 10
217.070892677464
 20
-389.26345335837902
 40
2.26188200000009
100
AcDbArc
 50
61.97031500000277
 51
77.86899000001171
  0
ARC
  5
177
100
AcDbEntity
  8
LC-001-002-----0
  6
CONTINUOUS
 62
             1
100
AcDbCircle
 10
218.019581677464
 20
-387.56239835837903
 40
0.31682900000051
100
AcDbArc
 50
8.23989700005775
 51
68.86547599999486
  0
ENDBLK
  5
17B
100
AcDbEntity
  8
0
100
AcDbBlockEnd
  0
BLOCK
  5
56
100
AcDbEntity
  8
0
100
AcDbBlockBegin
  2
BLK41
 70
             0
 10
151.31297268026779
 20
38.31682348414
 30
0.0
  3
BLK41
  1

  0
ARC
  5
17F
100
AcDbEntity
  8
LC-001-002-----0
  6
CONTINUOUS
 62
             1
100
AcDbCircle
 10
211.13574267746401
 20
-389.67603335837907
 40
2.83334599999982
100
AcDbArc
 50
77.43151600000316
 51
87.83803499999405
  0
ARC
  5
17E
100
AcDbEntity
  8
LC-001-002-----0
  6
CONTINUOUS
 62
             1
100
AcDbCircle
 10
211.35254567746401
 20
-388.75440935837912
 40
1.88666100000021
100
AcDbArc
 50
64.10450699999178
 51
77.76727600000707
  0
ARC
  5
17D
100
AcDbEntity
  8
LC-001-002-----0
  6
CONTINUOUS
 62
             1
100
AcDbCircle
 10
211.79542067746399
 20
-387.8693313583791
 40
0.89711299999949
100
AcDbArc
 50
42.36569200000665
 51
64.86233099998769
  0
ARC
  5
17C
100
AcDbEntity
  8
LC-001-002-----0
  6
CONTINUOUS
 62
             1
100
AcDbCircle
 10
212.17823767746401
 20
-387.52451935837911
 40
0.38192400000011
100
AcDbArc
 50
2.84829199996891
 51
42.84541300000431
  0
ENDBLK
  5
180
100
AcDbEntity
  8
0
100
AcDbBlockEnd
  0
BLOCK
  5
58
100
AcDbEntity
  8
0
100
AcDbBlockBegin
  2
BLK42
 70
             0
 10
151.31297268026779
 20
38.31682348414
 30
0.0
  3
BLK42
  1

  0
ARC
  5
184
100
AcDbEntity
  8
LC-001-002-----0
  6
CONTINUOUS
 62
             1
100
AcDbCircle
 10
219.762007677464
 20
-389.17010535837898
 40
2.87172800000059
100
AcDbArc
 50
-102.02148399999409
 51
-91.46323200000434
  0
ARC
  5
183
100
AcDbEntity
  8
LC-001-002-----0
  6
CONTINUOUS
 62
             1
100
AcDbCircle
 10
219.553511677464
 20
-390.09297835837913
 40
1.92570500000032
100
AcDbArc
 50
-115.47056900000015
 51
-101.6730879999983
  0
ARC
  5
182
100
AcDbEntity
  8
LC-001-002-----0
  6
CONTINUOUS
 62
             1
100
AcDbCircle
 10
219.10394667746399
 20
-391.00736135837911
 40
0.90694700000034
100
AcDbArc
 50
-137.53956600001572
 51
-114.67191599999663
  0
ARC
  5
181
100
AcDbEntity
  8
LC-001-002-----0
  6
CONTINUOUS
 62
             1
100
AcDbCircle
 10
218.71262467746399
 20
-391.36094135837902
 40
0.37957099999994
100
AcDbArc
 50
-178.17767000002033
 51
-137.03794100003893
  0
ENDBLK
  5
185
100
AcDbEntity
  8
0
100
AcDbBlockEnd
  0
BLOCK
  5
5A
100
AcDbEntity
  8
0
100
AcDbBlockBegin
  2
BLK44
 70
             0
 10
151.31297268026779
 20
38.31682348414
 30
0.0
  3
BLK44
  1

  0
ARC
  5
189
100
AcDbEntity
  8
LC-001-002-----0
  6
CONTINUOUS
 62
             1
100
AcDbCircle
 10
215.438678677464
 20
-380.18174935837908
 40
11.86047599999948
100
AcDbArc
 50
-94.95027200000052
 51
-89.49289499999834
  0
ARC
  5
188
100
AcDbEntity
  8
LC-001-002-----0
  6
CONTINUOUS
 62
             1
100
AcDbCircle
 10
215.04211167746399
 20
-384.36899635837898
 40
7.65470200000036
100
AcDbArc
 50
-102.01390099999833
 51
-94.6975320000018
  0
ARC
  5
187
100
AcDbEntity
  8
LC-001-002-----0
  6
CONTINUOUS
 62
             1
100
AcDbCircle
 10
213.955135677464
 20
-389.252340358379
 40
2.65247500000014
100
AcDbArc
 50
-115.90883000000878
 51
-101.00498000000441
  0
ARC
  5
186
100
AcDbEntity
  8
LC-001-002-----0
  6
CONTINUOUS
 62
             1
100
AcDbCircle
 10
212.914270677464
 20
-391.29330435837898
 40
0.36457400000032
100
AcDbArc
 50
-166.44764699997961
 51
-108.90285900000019
  0
ENDBLK
  5
18A
100
AcDbEntity
  8
0
100
AcDbBlockEnd
  0
BLOCK
  5
5C
100
AcDbEntity
  8
0
100
AcDbBlockBegin
  2
BLK45
 70
             0
 10
151.31297268026779
 20
38.31682348414
 30
0.0
  3
BLK45
  1

  0
ARC
  5
18E
100
AcDbEntity
  8
LC-001-002-----0
  6
CONTINUOUS
 62
             1
100
AcDbCircle
 10
211.11007667746401
 20
-389.08988635837898
 40
2.9522610000004
100
AcDbArc
 50
-100.65910999998995
 51
-89.87792499999344
  0
ARC
  5
18D
100
AcDbEntity
  8
LC-001-002-----0
  6
CONTINUOUS
 62
             1
100
AcDbCircle
 10
210.928095677464
 20
-389.9874403583791
 40
2.03657400000005
100
AcDbArc
 50
-114.1232760000011
 51
-100.29833300000753
  0
ARC
  5
18C
100
AcDbEntity
  8
LC-001-002-----0
  6
CONTINUOUS
 62
             1
100
AcDbCircle
 10
210.474034677464
 20
-390.96689435837902
 40
0.95718599999999
100
AcDbArc
 50
-136.22722199999049
 51
-113.2790460000334
  0
ARC
  5
18B
100
AcDbEntity
  8
LC-001-002-----0
  6
CONTINUOUS
 62
             1
100
AcDbCircle
 10
210.05794167746399
 20
-391.35944235837911
 40
0.38519000000027
100
AcDbArc
 50
-177.98132199995788
 51
-135.5729350000318
  0
ENDBLK
  5
18F
100
AcDbEntity
  8
0
100
AcDbBlockEnd
  0
BLOCK
  5
5E
100
AcDbEntity
  8
0
100
AcDbBlockBegin
  2
BLK51
 70
             0
 10
151.31297268026779
 20
38.31682348414
 30
0.0
  3
BLK51
  1

  0
ARC
  5
193
100
AcDbEntity
  8
LC-001-002-----0
  6
CONTINUOUS
 62
             1
100
AcDbCircle
 10
70.20037067746398
 20
-389.83374935837912
 40
2.84523600000001
100
AcDbArc
 50
77.5453309999989
 51
88.11559500000105
  0
ARC
  5
192
100
AcDbEntity
  8
LC-001-002-----0
  6
CONTINUOUS
 62
             1
100
AcDbCircle
 10
70.418515677464
 20
-388.89992935837898
 40
1.88638100000015
100
AcDbArc
 50
63.97949900000036
 51
77.89818299999595
  0
ARC
  5
191
100
AcDbEntity
  8
LC-001-002-----0
  6
CONTINUOUS
 62
             1
100
AcDbCircle
 10
70.870150677464
 20
-388.00309535837903
 40
0.88240999999982
100
AcDbArc
 50
41.61165799998989
 51
64.78609900000033
  0
ARC
  5
190
100
AcDbEntity
  8
LC-001-002-----0
  6
CONTINUOUS
 62
             1
100
AcDbCircle
 10
71.252428677464
 20
-387.66720335837903
 40
0.37354700000002
100
AcDbArc
 50
0.65755899996014
 51
42.03020199999357
  0
ENDBLK
  5
194
100
AcDbEntity
  8
0
100
AcDbBlockEnd
  0
BLOCK
  5
60
100
AcDbEntity
  8
0
100
AcDbBlockBegin
  2
BLK52
 70
             0
 10
151.31297268026779
 20
38.31682348414
 30
0.0
  3
BLK52
  1

  0
ARC
  5
198
100
AcDbEntity
  8
LC-001-002-----0
  6
CONTINUOUS
 62
             1
100
AcDbCircle
 10
78.849172677464
 20
-389.94031535837911
 40
2.95226200000033
100
AcDbArc
 50
79.34092800000035
 51
90.12210499999991
  0
ARC
  5
197
100
AcDbEntity
  8
LC-001-002-----0
  6
CONTINUOUS
 62
             1
100
AcDbCircle
 10
79.03115167746401
 20
-389.04276335837898
 40
2.03657800000017
100
AcDbArc
 50
65.87678400000196
 51
79.70170399999975
  0
ARC
  5
196
100
AcDbEntity
  8
LC-001-002-----0
  6
CONTINUOUS
 62
             1
100
AcDbCircle
 10
79.48521167746398
 20
-388.063308358379
 40
0.95719000000019
100
AcDbArc
 50
43.7728990000092
 51
66.72101100001055
  0
ARC
  5
195
100
AcDbEntity
  8
LC-001-002-----0
  6
CONTINUOUS
 62
             1
100
AcDbCircle
 10
79.90130667746399
 20
-387.67075735837909
 40
0.38519100000003
100
AcDbArc
 50
2.01890900005376
 51
44.42719699998312
  0
ENDBLK
  5
199
100
AcDbEntity
  8
0
100
AcDbBlockEnd
  0
BLOCK
  5
62
100
AcDbEntity
  8
0
100
AcDbBlockBegin
  2
BLK53
 70
             0
 10
151.31297268026779
 20
38.31682348414
 30
0.0
  3
BLK53
  1

  0
ARC
  5
19D
100
AcDbEntity
  8
LC-001-002-----0
  6
CONTINUOUS
 62
             1
100
AcDbCircle
 10
78.831678677464
 20
-389.28513235837897
 40
2.90276399999985
100
AcDbArc
 50
-101.49586600000086
 51
-90.93044799999935
  0
ARC
  5
19C
100
AcDbEntity
  8
LC-001-002-----0
  6
CONTINUOUS
 62
             1
100
AcDbCircle
 10
78.63469067746399
 20
-390.19410835837903
 40
1.97279800000027
100
AcDbArc
 50
-114.83429699999509
 51
-101.1508280000017
  0
ARC
  5
19B
100
AcDbEntity
  8
LC-001-002-----0
  6
CONTINUOUS
 62
             1
100
AcDbCircle
 10
78.18724567746401
 20
-391.13009735837898
 40
0.9355290000004
100
AcDbArc
 50
-136.6149739999783
 51
-114.04075600000749
  0
ARC
  5
19A
100
AcDbEntity
  8
LC-001-002-----0
  6
CONTINUOUS
 62
             1
100
AcDbCircle
 10
77.78535767746399
 20
-391.50446135837899
 40
0.38632600000004
100
AcDbArc
 50
-177.00403999998866
 51
-136.02385800003088
  0
ENDBLK
  5
19E
100
AcDbEntity
  8
0
100
AcDbBlockEnd
  0
BLOCK
  5
64
100
AcDbEntity
  8
0
100
AcDbBlockBegin
  2
BLK54
 70
             0
 10
151.31297268026779
 20
38.31682348414
 30
0.0
  3
BLK54
  1

  0
ARC
  5
1A2
100
AcDbEntity
  8
LC-001-002-----0
  6
CONTINUOUS
 62
             1
100
AcDbCircle
 10
70.176338677464
 20
-389.23580635837902
 40
2.95225999999976
100
AcDbArc
 50
-100.6591290000016
 51
-89.87794699999925
  0
ARC
  5
1A1
100
AcDbEntity
  8
LC-001-002-----0
  6
CONTINUOUS
 62
             1
100
AcDbCircle
 10
69.994357677464
 20
-390.13336135837898
 40
2.03657300000015
100
AcDbArc
 50
-114.12329499999736
 51
-100.29835200000014
  0
ARC
  5
1A0
100
AcDbEntity
  8
LC-001-002-----0
  6
CONTINUOUS
 62
             1
100
AcDbCircle
 10
69.540296677464
 20
-391.11281435837913
 40
0.95718599999972
100
AcDbArc
 50
-136.22724000001574
 51
-113.27906500000385
  0
ARC
  5
19F
100
AcDbEntity
  8
LC-001-002-----0
  6
CONTINUOUS
 62
             1
100
AcDbCircle
 10
69.12420367746401
 20
-391.5053623583791
 40
0.38518900000001
100
AcDbArc
 50
-177.9813250000941
 51
-135.57295500001928
  0
ENDBLK
  5
1A3
100
AcDbEntity
  8
0
100
AcDbBlockEnd
  0
BLOCK
  5
66
100
AcDbEntity
  8
0
100
AcDbBlockBegin
  2
BLK55
 70
             0
 10
151.31297268026779
 20
38.31682348414
 30
0.0
  3
BLK55
  1

  0
ARC
  5
1A7
100
AcDbEntity
  8
LC-001-002-----0
  6
CONTINUOUS
 62
             1
100
AcDbCircle
 10
74.57494367746401
 20
-397.86093035837911
 40
10.87178399999973
100
AcDbArc
 50
83.27724299999998
 51
88.58922300000023
  0
ARC
  5
1A6
100
AcDbEntity
  8
LC-001-002-----0
  6
CONTINUOUS
 62
             1
100
AcDbCircle
 10
75.137624677464
 20
-393.33806035837898
 40
6.31421000000032
100
AcDbArc
 50
75.90184800000077
 51
83.54348499999979
  0
ARC
  5
1A5
100
AcDbEntity
  8
LC-001-002-----0
  6
CONTINUOUS
 62
             1
100
AcDbCircle
 10
76.21446467746398
 20
-389.21417935837911
 40
2.05262700000022
100
AcDbArc
 50
60.76873700000193
 51
77.01552200000185
  0
ARC
  5
1A4
100
AcDbEntity
  8
LC-001-002-----0
  6
CONTINUOUS
 62
             1
100
AcDbCircle
 10
77.099282677464
 20
-387.70180535837898
 40
0.30262800000001
100
AcDbArc
 50
7.38371100002922
 51
67.14240800002887
  0
ENDBLK
  5
1A8
100
AcDbEntity
  8
0
100
AcDbBlockEnd
  0
BLOCK
  5
68
100
AcDbEntity
  8
0
100
AcDbBlockBegin
  2
BLK56
 70
             0
 10
151.31297268026779
 20
38.31682348414
 30
0.0
  3
BLK56
  1

  0
ARC
  5
1AC
100
AcDbEntity
  8
LC-001-002-----0
  6
CONTINUOUS
 62
             1
100
AcDbCircle
 10
74.48768867746401
 20
-380.71536535837902
 40
11.47254200000045
100
AcDbArc
 50
-95.73708999999985
 51
-90.36163600000013
  0
ARC
  5
1AB
100
AcDbEntity
  8
LC-001-002-----0
  6
CONTINUOUS
 62
             1
100
AcDbCircle
 10
74.01325267746401
 20
-385.12048935837907
 40
7.0421269999995
100
AcDbArc
 50
-102.93139100000104
 51
-95.47912400000071
  0
ARC
  5
1AA
100
AcDbEntity
  8
LC-001-002-----0
  6
CONTINUOUS
 62
             1
100
AcDbCircle
 10
72.923773677464
 20
-389.6703503583791
 40
2.36425200000015
100
AcDbArc
 50
-117.37907199999755
 51
-101.87322700000034
  0
ARC
  5
1A9
100
AcDbEntity
  8
LC-001-002-----0
  6
CONTINUOUS
 62
             1
100
AcDbCircle
 10
71.953800677464
 20
-391.45758535837911
 40
0.33348700000008
100
AcDbArc
 50
-169.39993499994762
 51
-110.59143000000746
  0
ENDBLK
  5
1AD
100
AcDbEntity
  8
0
100
AcDbBlockEnd
  0
BLOCK
  5
6A
100
AcDbEntity
  8
0
100
AcDbBlockBegin
  2
BLK57
 70
             0
 10
151.31297268026779
 20
38.31682348414
 30
0.0
  3
BLK57
  1

  0
ARC
  5
1B1
100
AcDbEntity
  8
LC-001-002-----0
  6
CONTINUOUS
 62
             1
100
AcDbCircle
 10
69.12420367746401
 20
-387.67075735837909
 40
0.38518999999993
100
AcDbArc
 50
135.57289300001779
 51
177.98123099998676
  0
ARC
  5
1B0
100
AcDbEntity
  8
LC-001-002-----0
  6
CONTINUOUS
 62
             1
100
AcDbCircle
 10
69.540297677464
 20
-388.06330635837901
 40
0.95718699999994
100
AcDbArc
 50
113.2790340000012
 51
136.22718300001128
  0
ARC
  5
1AF
100
AcDbEntity
  8
LC-001-002-----0
  6
CONTINUOUS
 62
             1
100
AcDbCircle
 10
69.99435867746399
 20
-389.04276035837898
 40
2.03657500000034
100
AcDbArc
 50
100.29832799999753
 51
114.12326199999842
  0
ARC
  5
1AE
100
AcDbEntity
  8
LC-001-002-----0
  6
CONTINUOUS
 62
             1
100
AcDbCircle
 10
70.176338677464
 20
-389.94031435837911
 40
2.95226099999965
100
AcDbArc
 50
89.87792500000117
 51
100.65910499999949
  0
ENDBLK
  5
1B2
100
AcDbEntity
  8
0
100
AcDbBlockEnd
  0
BLOCK
  5
6C
100
AcDbEntity
  8
0
100
AcDbBlockBegin
  2
BLK58
 70
             0
 10
151.31297268026779
 20
38.31682348414
 30
0.0
  3
BLK58
  1

  0
ARC
  5
1B6
100
AcDbEntity
  8
LC-001-002-----0
  6
CONTINUOUS
 62
             1
100
AcDbCircle
 10
71.93966767746399
 20
-387.70831835837907
 40
0.31682899999963
100
AcDbArc
 50
111.13452400001451
 51
171.76010300008195
  0
ARC
  5
1B5
100
AcDbEntity
  8
LC-001-002-----0
  6
CONTINUOUS
 62
             1
100
AcDbCircle
 10
72.88835567746401
 20
-389.40937335837913
 40
2.26188200000052
100
AcDbArc
 50
102.13100999999766
 51
118.02968499999811
  0
ARC
  5
1B4
100
AcDbEntity
  8
LC-001-002-----0
  6
CONTINUOUS
 62
             1
100
AcDbCircle
 10
73.98408267746399
 20
-393.87898335837912
 40
6.86321699999953
100
AcDbArc
 50
95.68686300000029
 51
103.23288200000063
  0
ARC
  5
1B3
100
AcDbEntity
  8
LC-001-002-----0
  6
CONTINUOUS
 62
             1
100
AcDbCircle
 10
74.48163267746401
 20
-398.34664135837909
 40
11.35831099999976
100
AcDbArc
 50
90.56509600000004
 51
95.95115599999981
  0
ENDBLK
  5
1B7
100
AcDbEntity
  8
0
100
AcDbBlockEnd
  0
BLOCK
  5
6E
100
AcDbEntity
  8
0
100
AcDbBlockBegin
  2
BLK59
 70
             0
 10
151.31297268026779
 20
38.31682348414
 30
0.0
  3
BLK59
  1

  0
ARC
  5
1BB
100
AcDbEntity
  8
LC-001-002-----0
  6
CONTINUOUS
 62
             1
100
AcDbCircle
 10
77.78101167746399
 20
-387.67043935837899
 40
0.38192400000005
100
AcDbArc
 50
137.15458699999027
 51
177.15170800003875
  0
ARC
  5
1BA
100
AcDbEntity
  8
LC-001-002-----0
  6
CONTINUOUS
 62
             1
100
AcDbCircle
 10
78.163828677464
 20
-388.01525035837898
 40
0.89711300000024
100
AcDbArc
 50
115.13766899999507
 51
137.6343080000255
  0
ARC
  5
1B9
100
AcDbEntity
  8
LC-001-002-----0
  6
CONTINUOUS
 62
             1
100
AcDbCircle
 10
78.606702677464
 20
-388.90032935837911
 40
1.88666099999971
100
AcDbArc
 50
102.23272400000215
 51
115.89549300000158
  0
ARC
  5
1B8
100
AcDbEntity
  8
LC-001-002-----0
  6
CONTINUOUS
 62
             1
100
AcDbCircle
 10
78.823505677464
 20
-389.82195335837912
 40
2.83334599999976
100
AcDbArc
 50
92.16196499999985
 51
102.56848400000129
  0
ENDBLK
  5
1BC
100
AcDbEntity
  8
0
100
AcDbBlockEnd
  0
BLOCK
  5
70
100
AcDbEntity
  8
0
100
AcDbBlockBegin
  2
BLK60
 70
             0
 10
151.31297268026779
 20
38.31682348414
 30
0.0
  3
BLK60
  1

  0
ARC
  5
1C0
100
AcDbEntity
  8
LC-001-002-----0
  6
CONTINUOUS
 62
             1
100
AcDbCircle
 10
71.246624677464
 20
-391.50686035837907
 40
0.37957099999968
100
AcDbArc
 50
-42.96205899995248
 51
-1.82232999997959
  0
ARC
  5
1BF
100
AcDbEntity
  8
LC-001-002-----0
  6
CONTINUOUS
 62
             1
100
AcDbCircle
 10
70.855302677464
 20
-391.1532813583791
 40
0.90694700000015
100
AcDbArc
 50
-65.32808400000759
 51
-42.46043400000716
  0
ARC
  5
1BE
100
AcDbEntity
  8
LC-001-002-----0
  6
CONTINUOUS
 62
             1
100
AcDbCircle
 10
70.405737677464
 20
-390.23889735837912
 40
1.92570499999977
100
AcDbArc
 50
-78.32691199999772
 51
-64.52943100000107
  0
ARC
  5
1BD
100
AcDbEntity
  8
LC-001-002-----0
  6
CONTINUOUS
 62
             1
100
AcDbCircle
 10
70.19724067746398
 20
-389.31602435837902
 40
2.87172799999972
100
AcDbArc
 50
-88.5367679999996
 51
-77.97851599999652
  0
ENDBLK
  5
1C1
100
AcDbEntity
  8
0
100
AcDbBlockEnd
  0
BLOCK
  5
72
100
AcDbEntity
  8
0
100
AcDbBlockBegin
  2
BLK61
 70
             0
 10
151.31297268026779
 20
38.31682348414
 30
0.0
  3
BLK61
  1

  0
ARC
  5
1C5
100
AcDbEntity
  8
LC-001-002-----0
  6
CONTINUOUS
 62
             1
100
AcDbCircle
 10
77.044977677464
 20
-391.43922435837902
 40
0.36457400000002
100
AcDbArc
 50
-71.09714100000882
 51
-13.55235300000586
  0
ARC
  5
1C4
100
AcDbEntity
  8
LC-001-002-----0
  6
CONTINUOUS
 62
             1
100
AcDbCircle
 10
76.00411367746401
 20
-389.3982603583791
 40
2.65247499999974
100
AcDbArc
 50
-78.99501999999801
 51
-64.09116999999841
  0
ARC
  5
1C3
100
AcDbEntity
  8
LC-001-002-----0
  6
CONTINUOUS
 62
             1
100
AcDbCircle
 10
74.917137677464
 20
-384.51491635837908
 40
7.65470200000028
100
AcDbArc
 50
-85.30246800000037
 51
-77.98609900000075
  0
ARC
  5
1C2
100
AcDbEntity
  8
LC-001-002-----0
  6
CONTINUOUS
 62
             1
100
AcDbCircle
 10
74.520569677464
 20
-380.32766835837913
 40
11.860476
100
AcDbArc
 50
-90.50710500000022
 51
-85.04972800000037
  0
ENDBLK
  5
1C6
100
AcDbEntity
  8
0
100
AcDbBlockEnd
  0
BLOCK
  5
74
100
AcDbEntity
  8
0
100
AcDbBlockBegin
  2
BLK62
 70
             0
 10
151.31297268026779
 20
38.31682348414
 30
0.0
  3
BLK62
  1

  0
ARC
  5
1CA
100
AcDbEntity
  8
LC-001-002-----0
  6
CONTINUOUS
 62
             1
100
AcDbCircle
 10
79.90130767746399
 20
-391.5053623583791
 40
0.38519000000004
100
AcDbArc
 50
-44.4270649999978
 51
-2.0186780000436
  0
ARC
  5
1C9
100
AcDbEntity
  8
LC-001-002-----0
  6
CONTINUOUS
 62
             1
100
AcDbCircle
 10
79.485213677464
 20
-391.11281335837913
 40
0.95718599999962
100
AcDbArc
 50
-66.72095399999283
 51
-43.77277800000108
  0
ARC
  5
1C8
100
AcDbEntity
  8
LC-001-002-----0
  6
CONTINUOUS
 62
             1
100
AcDbCircle
 10
79.03115267746399
 20
-390.13335935837898
 40
2.0365740000002
100
AcDbArc
 50
-79.70166700000132
 51
-65.87672400000277
  0
ARC
  5
1C7
100
AcDbEntity
  8
LC-001-002-----0
  6
CONTINUOUS
 62
             1
100
AcDbCircle
 10
78.849172677464
 20
-389.23580535837903
 40
2.95226099999971
100
AcDbArc
 50
-90.12207500000078
 51
-79.34089000000226
  0
ENDBLK
  5
1CB
100
AcDbEntity
  8
0
100
AcDbBlockEnd
  0
BLOCK
  5
76
100
AcDbEntity
  8
0
100
AcDbBlockBegin
  2
BLK67
 70
             0
 10
151.31297268026779
 20
38.31682348414
 30
0.0
  3
BLK67
  1

  0
ARC
  5
1CF
100
AcDbEntity
  8
LC-001-002-----0
  6
CONTINUOUS
 62
             1
100
AcDbCircle
 10
171.63362767746401
 20
-387.66720335837903
 40
0.37354699999999
100
AcDbArc
 50
137.9697980000079
 51
179.34244100003986
  0
ARC
  5
1CE
100
AcDbEntity
  8
LC-001-002-----0
  6
CONTINUOUS
 62
             1
100
AcDbCircle
 10
172.01590567746399
 20
-388.00309535837903
 40
0.8824100000001
100
AcDbArc
 50
115.21390099999884
 51
138.38834200000949
  0
ARC
  5
1CD
100
AcDbEntity
  8
LC-001-002-----0
  6
CONTINUOUS
 62
             1
100
AcDbCircle
 10
172.467540677464
 20
-388.89992935837898
 40
1.88638099999963
100
AcDbArc
 50
102.10181700000403
 51
116.02050099999965
  0
ARC
  5
1CC
100
AcDbEntity
  8
LC-001-002-----0
  6
CONTINUOUS
 62
             1
100
AcDbCircle
 10
172.68568667746399
 20
-389.83374935837912
 40
2.84523600000043
100
AcDbArc
 50
91.88440500000066
 51
102.45466900000056
  0
ENDBLK
  5
1D0
100
AcDbEntity
  8
0
100
AcDbBlockEnd
  0
BLOCK
  5
78
100
AcDbEntity
  8
0
100
AcDbBlockBegin
  2
BLK68
 70
             0
 10
151.31297268026779
 20
38.31682348414
 30
0.0
  3
BLK68
  1

  0
ARC
  5
1D4
100
AcDbEntity
  8
LC-001-002-----0
  6
CONTINUOUS
 62
             1
100
AcDbCircle
 10
162.98474967746401
 20
-387.67075735837909
 40
0.38519099999987
100
AcDbArc
 50
135.57280300001688
 51
177.98109099994625
  0
ARC
  5
1D3
100
AcDbEntity
  8
LC-001-002-----0
  6
CONTINUOUS
 62
             1
100
AcDbCircle
 10
163.40084467746399
 20
-388.063308358379
 40
0.95719000000032
100
AcDbArc
 50
113.2789889999879
 51
136.22710099998963
  0
ARC
  5
1D2
100
AcDbEntity
  8
LC-001-002-----0
  6
CONTINUOUS
 62
             1
100
AcDbCircle
 10
163.85490467746399
 20
-389.04276335837898
 40
2.03657799999991
100
AcDbArc
 50
100.29829600000026
 51
114.12321599999842
  0
ARC
  5
1D1
100
AcDbEntity
  8
LC-001-002-----0
  6
CONTINUOUS
 62
             1
100
AcDbCircle
 10
164.036883677464
 20
-389.94031535837911
 40
2.95226199999981
100
AcDbArc
 50
89.87789500000065
 51
100.65907199999938
  0
ENDBLK
  5
1D5
100
AcDbEntity
  8
0
100
AcDbBlockEnd
  0
BLOCK
  5
7A
100
AcDbEntity
  8
0
100
AcDbBlockBegin
  2
BLK69
 70
             0
 10
151.31297268026779
 20
38.31682348414
 30
0.0
  3
BLK69
  1

  0
ARC
  5
1D9
100
AcDbEntity
  8
LC-001-002-----0
  6
CONTINUOUS
 62
             1
100
AcDbCircle
 10
165.10069867746401
 20
-391.50446135837899
 40
0.38632599999978
100
AcDbArc
 50
-43.97614199996911
 51
-2.99596000001134
  0
ARC
  5
1D8
100
AcDbEntity
  8
LC-001-002-----0
  6
CONTINUOUS
 62
             1
100
AcDbCircle
 10
164.698810677464
 20
-391.13009735837898
 40
0.93552899999966
100
AcDbArc
 50
-65.95924399999412
 51
-43.3850260000223
  0
ARC
  5
1D7
100
AcDbEntity
  8
LC-001-002-----0
  6
CONTINUOUS
 62
             1
100
AcDbCircle
 10
164.25136567746401
 20
-390.19410835837903
 40
1.97279799999993
100
AcDbArc
 50
-78.84917200000155
 51
-65.16570300000456
  0
ARC
  5
1D6
100
AcDbEntity
  8
LC-001-002-----0
  6
CONTINUOUS
 62
             1
100
AcDbCircle
 10
164.054377677464
 20
-389.28513235837897
 40
2.90276399999991
100
AcDbArc
 50
-89.06955200000094
 51
-78.50413399999914
  0
ENDBLK
  5
1DA
100
AcDbEntity
  8
0
100
AcDbBlockEnd
  0
BLOCK
  5
7C
100
AcDbEntity
  8
0
100
AcDbBlockBegin
  2
BLK70
 70
             0
 10
151.31297268026779
 20
38.31682348414
 30
0.0
  3
BLK70
  1

  0
ARC
  5
1DE
100
AcDbEntity
  8
LC-001-002-----0
  6
CONTINUOUS
 62
             1
100
AcDbCircle
 10
173.76185267746399
 20
-391.5053623583791
 40
0.3851889999999
100
AcDbArc
 50
-44.42704499998072
 51
-2.01867499990592
  0
ARC
  5
1DD
100
AcDbEntity
  8
LC-001-002-----0
  6
CONTINUOUS
 62
             1
100
AcDbCircle
 10
173.345759677464
 20
-391.11281435837913
 40
0.95718599999995
100
AcDbArc
 50
-66.72093499999772
 51
-43.77275999998486
  0
ARC
  5
1DC
100
AcDbEntity
  8
LC-001-002-----0
  6
CONTINUOUS
 62
             1
100
AcDbCircle
 10
172.89169867746401
 20
-390.13336135837898
 40
2.03657299999987
100
AcDbArc
 50
-79.70164800000028
 51
-65.87670500000338
  0
ARC
  5
1DB
100
AcDbEntity
  8
LC-001-002-----0
  6
CONTINUOUS
 62
             1
100
AcDbCircle
 10
172.709717677464
 20
-389.23580635837902
 40
2.95226000000038
100
AcDbArc
 50
-90.12205300000076
 51
-79.34087099999867
  0
ENDBLK
  5
1DF
100
AcDbEntity
  8
0
100
AcDbBlockEnd
  0
BLOCK
  5
7E
100
AcDbEntity
  8
0
100
AcDbBlockBegin
  2
BLK71
 70
             0
 10
151.31297268026779
 20
38.31682348414
 30
0.0
  3
BLK71
  1

  0
ARC
  5
1E3
100
AcDbEntity
  8
LC-001-002-----0
  6
CONTINUOUS
 62
             1
100
AcDbCircle
 10
165.786773677464
 20
-387.70180535837898
 40
0.30262800000036
100
AcDbArc
 50
112.85759199997115
 51
172.61628899997149
  0
ARC
  5
1E2
100
AcDbEntity
  8
LC-001-002-----0
  6
CONTINUOUS
 62
             1
100
AcDbCircle
 10
166.67159167746399
 20
-389.21417935837911
 40
2.05262700000042
100
AcDbArc
 50
102.98447799999738
 51
119.23126299999704
  0
ARC
  5
1E1
100
AcDbEntity
  8
LC-001-002-----0
  6
CONTINUOUS
 62
             1
100
AcDbCircle
 10
167.748431677464
 20
-393.33806035837898
 40
6.31420999999945
100
AcDbArc
 50
96.45651500000034
 51
104.09815199999925
  0
ARC
  5
1E0
100
AcDbEntity
  8
LC-001-002-----0
  6
CONTINUOUS
 62
             1
100
AcDbCircle
 10
168.311112677464
 20
-397.86093035837911
 40
10.87178399999997
100
AcDbArc
 50
91.41077699999978
 51
96.72275700000003
  0
ENDBLK
  5
1E4
100
AcDbEntity
  8
0
100
AcDbBlockEnd
  0
BLOCK
  5
80
100
AcDbEntity
  8
0
100
AcDbBlockBegin
  2
BLK72
 70
             0
 10
151.31297268026779
 20
38.31682348414
 30
0.0
  3
BLK72
  1

  0
ARC
  5
1E8
100
AcDbEntity
  8
LC-001-002-----0
  6
CONTINUOUS
 62
             1
100
AcDbCircle
 10
170.93225567746401
 20
-391.45758535837911
 40
0.33348700000001
100
AcDbArc
 50
-69.40856999999711
 51
-10.60006500005372
  0
ARC
  5
1E7
100
AcDbEntity
  8
LC-001-002-----0
  6
CONTINUOUS
 62
             1
100
AcDbCircle
 10
169.962282677464
 20
-389.6703503583791
 40
2.36425199999978
100
AcDbArc
 50
-78.12677299999966
 51
-62.62092800000307
  0
ARC
  5
1E6
100
AcDbEntity
  8
LC-001-002-----0
  6
CONTINUOUS
 62
             1
100
AcDbCircle
 10
168.87280367746399
 20
-385.12048935837907
 40
7.04212699999957
100
AcDbArc
 50
-84.5208759999994
 51
-77.06860899999907
  0
ARC
  5
1E5
100
AcDbEntity
  8
LC-001-002-----0
  6
CONTINUOUS
 62
             1
100
AcDbCircle
 10
168.39836767746399
 20
-380.71536535837902
 40
11.47254200000006
100
AcDbArc
 50
-89.63836399999987
 51
-84.26291000000016
  0
ENDBLK
  5
1E9
100
AcDbEntity
  8
0
100
AcDbBlockEnd
  0
BLOCK
  5
82
100
AcDbEntity
  8
0
100
AcDbBlockBegin
  2
BLK73
 70
             0
 10
151.31297268026779
 20
38.31682348414
 30
0.0
  3
BLK73
  1

  0
ARC
  5
1ED
100
AcDbEntity
  8
LC-001-002-----0
  6
CONTINUOUS
 62
             1
100
AcDbCircle
 10
172.709717677464
 20
-389.94031435837911
 40
2.95226100000012
100
AcDbArc
 50
79.34089500000052
 51
90.12207500000105
  0
ARC
  5
1EC
100
AcDbEntity
  8
LC-001-002-----0
  6
CONTINUOUS
 62
             1
100
AcDbCircle
 10
172.89169767746401
 20
-389.04276035837898
 40
2.03657500000019
100
AcDbArc
 50
65.8767380000016
 51
79.70167200000248
  0
ARC
  5
1EB
100
AcDbEntity
  8
LC-001-002-----0
  6
CONTINUOUS
 62
             1
100
AcDbCircle
 10
173.345758677464
 20
-388.06330635837901
 40
0.95718699999987
100
AcDbArc
 50
43.77281699998871
 51
66.72096600000036
  0
ARC
  5
1EA
100
AcDbEntity
  8
LC-001-002-----0
  6
CONTINUOUS
 62
             1
100
AcDbCircle
 10
173.76185267746399
 20
-387.67075735837909
 40
0.38519000000001
100
AcDbArc
 50
2.01876900001323
 51
44.4271069999837
  0
ENDBLK
  5
1EE
100
AcDbEntity
  8
0
100
AcDbBlockEnd
  0
BLOCK
  5
84
100
AcDbEntity
  8
0
100
AcDbBlockBegin
  2
BLK74
 70
             0
 10
151.31297268026779
 20
38.31682348414
 30
0.0
  3
BLK74
  1

  0
ARC
  5
1F2
100
AcDbEntity
  8
LC-001-002-----0
  6
CONTINUOUS
 62
             1
100
AcDbCircle
 10
168.404423677464
 20
-398.34664135837909
 40
11.35831100000031
100
AcDbArc
 50
84.04884400000026
 51
89.43490399999996
  0
ARC
  5
1F1
100
AcDbEntity
  8
LC-001-002-----0
  6
CONTINUOUS
 62
             1
100
AcDbCircle
 10
168.90197367746401
 20
-393.87898335837912
 40
6.86321699999952
100
AcDbArc
 50
76.76711799999937
 51
84.31313699999971
  0
ARC
  5
1F0
100
AcDbEntity
  8
LC-001-002-----0
  6
CONTINUOUS
 62
             1
100
AcDbCircle
 10
169.997700677464
 20
-389.40937335837913
 40
2.26188200000023
100
AcDbArc
 50
61.97031500000221
 51
77.86899000000236
  0
ARC
  5
1EF
100
AcDbEntity
  8
LC-001-002-----0
  6
CONTINUOUS
 62
             1
100
AcDbCircle
 10
170.946388677464
 20
-387.70831835837907
 40
0.31682899999991
100
AcDbArc
 50
8.23989699991767
 51
68.8654759999831
  0
ENDBLK
  5
1F3
100
AcDbEntity
  8
0
100
AcDbBlockEnd
  0
BLOCK
  5
86
100
AcDbEntity
  8
0
100
AcDbBlockBegin
  2
BLK75
 70
             0
 10
151.31297268026779
 20
38.31682348414
 30
0.0
  3
BLK75
  1

  0
ARC
  5
1F7
100
AcDbEntity
  8
LC-001-002-----0
  6
CONTINUOUS
 62
             1
100
AcDbCircle
 10
164.062550677464
 20
-389.82195335837912
 40
2.83334599999981
100
AcDbArc
 50
77.43151599999899
 51
87.83803500000046
  0
ARC
  5
1F6
100
AcDbEntity
  8
LC-001-002-----0
  6
CONTINUOUS
 62
             1
100
AcDbCircle
 10
164.279353677464
 20
-388.90032935837911
 40
1.88666099999997
100
AcDbArc
 50
64.10450699999882
 51
77.76727599999829
  0
ARC
  5
1F5
100
AcDbEntity
  8
LC-001-002-----0
  6
CONTINUOUS
 62
             1
100
AcDbCircle
 10
164.72222767746399
 20
-388.01525035837898
 40
0.89711299999971
100
AcDbArc
 50
42.36569199997391
 51
64.86233100000413
  0
ARC
  5
1F4
100
AcDbEntity
  8
LC-001-002-----0
  6
CONTINUOUS
 62
             1
100
AcDbCircle
 10
165.10504467746401
 20
-387.67043935837899
 40
0.38192399999999
100
AcDbArc
 50
2.84829199996124
 51
42.84541300001119
  0
ENDBLK
  5
1F8
100
AcDbEntity
  8
0
100
AcDbBlockEnd
  0
BLOCK
  5
88
100
AcDbEntity
  8
0
100
AcDbBlockBegin
  2
BLK76
 70
             0
 10
151.31297268026779
 20
38.31682348414
 30
0.0
  3
BLK76
  1

  0
ARC
  5
1FC
100
AcDbEntity
  8
LC-001-002-----0
  6
CONTINUOUS
 62
             1
100
AcDbCircle
 10
172.68881567746399
 20
-389.31602435837902
 40
2.87172799999946
100
AcDbArc
 50
-102.02148400000293
 51
-91.46323200000042
  0
ARC
  5
1FB
100
AcDbEntity
  8
LC-001-002-----0
  6
CONTINUOUS
 62
             1
100
AcDbCircle
 10
172.480318677464
 20
-390.23889735837912
 40
1.92570500000019
100
AcDbArc
 50
-115.47056899999932
 51
-101.67308800000229
  0
ARC
  5
1FA
100
AcDbEntity
  8
LC-001-002-----0
  6
CONTINUOUS
 62
             1
100
AcDbCircle
 10
172.03075367746399
 20
-391.1532813583791
 40
0.90694700000012
100
AcDbArc
 50
-137.53956599999344
 51
-114.67191599999158
  0
ARC
  5
1F9
100
AcDbEntity
  8
LC-001-002-----0
  6
CONTINUOUS
 62
             1
100
AcDbCircle
 10
171.63943167746399
 20
-391.50686035837907
 40
0.37957099999994
100
AcDbArc
 50
-178.17767000002033
 51
-137.03794100004609
  0
ENDBLK
  5
1FD
100
AcDbEntity
  8
0
100
AcDbBlockEnd
  0
BLOCK
  5
8A
100
AcDbEntity
  8
0
100
AcDbBlockBegin
  2
BLK77
 70
             0
 10
151.31297268026779
 20
38.31682348414
 30
0.0
  3
BLK77
  1

  0
ARC
  5
201
100
AcDbEntity
  8
LC-001-002-----0
  6
CONTINUOUS
 62
             1
100
AcDbCircle
 10
168.36548667746399
 20
-380.32766835837913
 40
11.86047600000043
100
AcDbArc
 50
-94.95027199999957
 51
-89.49289499999971
  0
ARC
  5
200
100
AcDbEntity
  8
LC-001-002-----0
  6
CONTINUOUS
 62
             1
100
AcDbCircle
 10
167.96891867746399
 20
-384.51491635837908
 40
7.65470200000033
100
AcDbArc
 50
-102.01390099999925
 51
-94.69753199999953
  0
ARC
  5
1FF
100
AcDbEntity
  8
LC-001-002-----0
  6
CONTINUOUS
 62
             1
100
AcDbCircle
 10
166.881942677464
 20
-389.3982603583791
 40
2.65247499999992
100
AcDbArc
 50
-115.9088300000016
 51
-101.00498000000199
  0
ARC
  5
1FE
100
AcDbEntity
  8
LC-001-002-----0
  6
CONTINUOUS
 62
             1
100
AcDbCircle
 10
165.841078677464
 20
-391.43922435837902
 40
0.36457399999998
100
AcDbArc
 50
-166.44764699999416
 51
-108.90285899999331
  0
ENDBLK
  5
202
100
AcDbEntity
  8
0
100
AcDbBlockEnd
  0
BLOCK
  5
8C
100
AcDbEntity
  8
0
100
AcDbBlockBegin
  2
BLK78
 70
             0
 10
151.31297268026779
 20
38.31682348414
 30
0.0
  3
BLK78
  1

  0
ARC
  5
206
100
AcDbEntity
  8
LC-001-002-----0
  6
CONTINUOUS
 62
             1
100
AcDbCircle
 10
164.036883677464
 20
-389.23580535837903
 40
2.95226100000042
100
AcDbArc
 50
-100.65910999999775
 51
-89.87792499999895
  0
ARC
  5
205
100
AcDbEntity
  8
LC-001-002-----0
  6
CONTINUOUS
 62
             1
100
AcDbCircle
 10
163.85490367746399
 20
-390.13335935837898
 40
2.03657400000016
100
AcDbArc
 50
-114.12327599999979
 51
-100.29833299999831
  0
ARC
  5
204
100
AcDbEntity
  8
LC-001-002-----0
  6
CONTINUOUS
 62
             1
100
AcDbCircle
 10
163.400842677464
 20
-391.11281335837913
 40
0.95718599999997
100
AcDbArc
 50
-136.2272219999989
 51
-113.27904600000797
  0
ARC
  5
203
100
AcDbEntity
  8
LC-001-002-----0
  6
CONTINUOUS
 62
             1
100
AcDbCircle
 10
162.98474867746401
 20
-391.5053623583791
 40
0.38518999999998
100
AcDbArc
 50
-177.98132199995641
 51
-135.57293500000222
  0
ENDBLK
  5
207
100
AcDbEntity
  8
0
100
AcDbBlockEnd
  0
BLOCK
  5
8E
100
AcDbEntity
  8
0
100
AcDbBlockBegin
  2
HL_62_1_7_DACHABLAUF
 70
             0
 10
151.31297268026779
 20
38.31682348414
 30
0.0
  3
HL_62_1_7_DACHABLAUF
  1

  0
ARC
  5
301
100
AcDbEntity
  8
LC-001-002-----0
  6
CONTINUOUS
 62
             7
100
AcDbCircle
 10
178.685548677464
 20
-348.97410035837908
 40
5.57610900000023
100
AcDbArc
 50
40.08825100000225
 51
90.09138399999991
  0
ARC
  5
300
100
AcDbEntity
  8
LC-002-002-RND-0
  6
CONTINUOUS
 62
             7
100
AcDbCircle
 10
178.67899067746399
 20
-347.36633235837911
 40
3.92500000000042
100
AcDbArc
 50
89.87259000000023
 51
155.89410499999559
  0
ARC
  5
2FF
100
AcDbEntity
  8
LC-002-002-RND-0
  6
CONTINUOUS
 62
             7
100
AcDbCircle
 10
179.951002677464
 20
-347.91084135837912
 40
3.92499999999979
100
AcDbArc
 50
-44.49581399999726
 51
40.08825099999945
  0
ARC
  5
2FE
100
AcDbEntity
  8
LC-002-002-RND-0
  6
CONTINUOUS
 62
             7
100
AcDbCircle
 10
156.800046677464
 20
-347.91084135837912
 40
3.92500000000004
100
AcDbArc
 50
139.91174900000055
 51
-135.50418600000276
  0
ARC
  5
2FD
100
AcDbEntity
  8
LC-001-002-----0
  6
CONTINUOUS
 62
             7
100
AcDbCircle
 10
158.06323367746401
 20
-348.97410035837908
 40
5.57610900000018
100
AcDbArc
 50
89.90861600000039
 51
139.91174899999797
  0
ARC
  5
2FC
100
AcDbEntity
  8
LC-002-002-RND-0
  6
CONTINUOUS
 62
             7
100
AcDbCircle
 10
158.07205867746401
 20
-347.36633235837911
 40
3.92500000000016
100
AcDbArc
 50
24.1058950000044
 51
90.12740999999978
  0
ARC
  5
2FB
100
AcDbEntity
  8
LC-001-002-----0
  6
CONTINUOUS
 62
             7
100
AcDbCircle
 10
158.061053677464
 20
-348.97410035837908
 40
5.57610900000018
100
AcDbArc
 50
89.90861600000011
 51
139.91174899999774
  0
ARC
  5
2FA
100
AcDbEntity
  8
LC-002-002-RND-0
  6
CONTINUOUS
 62
             7
100
AcDbCircle
 10
158.06987767746401
 20
-347.36633235837911
 40
3.92500000000016
100
AcDbArc
 50
24.1058950000044
 51
90.12740999999978
  0
ARC
  5
2F9
100
AcDbEntity
  8
LC-001-002-----0
  6
CONTINUOUS
 62
             7
100
AcDbCircle
 10
64.200507677464
 20
-348.97410035837908
 40
5.57610900000018
100
AcDbArc
 50
89.90861600000025
 51
139.91174899999785
  0
ARC
  5
2F8
100
AcDbEntity
  8
LC-002-002-RND-0
  6
CONTINUOUS
 62
             7
100
AcDbCircle
 10
64.20706567746399
 20
-347.36633235837911
 40
3.92500000000016
100
AcDbArc
 50
24.1058950000044
 51
90.12740999999978
  0
ARC
  5
2F7
100
AcDbEntity
  8
LC-002-002-RND-0
  6
CONTINUOUS
 62
             7
100
AcDbCircle
 10
62.935053677464
 20
-347.91084135837912
 40
3.92500000000004
100
AcDbArc
 50
139.9117490000005
 51
-135.50418600000282
  0
ARC
  5
2F6
100
AcDbEntity
  8
LC-002-002-RND-0
  6
CONTINUOUS
 62
             7
100
AcDbCircle
 10
86.08600967746401
 20
-347.91084135837912
 40
3.92499999999979
100
AcDbArc
 50
-44.49581399999726
 51
40.08825100000051
  0
ARC
  5
2F5
100
AcDbEntity
  8
LC-001-002-----0
  6
CONTINUOUS
 62
             7
100
AcDbCircle
 10
84.82282267746399
 20
-348.97410035837908
 40
5.57610900000023
100
AcDbArc
 50
40.08825100000225
 51
90.09138399999991
  0
ARC
  5
2F4
100
AcDbEntity
  8
LC-002-002-RND-0
  6
CONTINUOUS
 62
             7
100
AcDbCircle
 10
84.813997677464
 20
-347.36633235837911
 40
3.92500000000042
100
AcDbArc
 50
89.87259000000043
 51
155.8941049999957
  0
ARC
  5
2F3
100
AcDbEntity
  8
LC-001-002-----0
  6
CONTINUOUS
 62
             7
100
AcDbCircle
 10
84.825002677464
 20
-348.97410035837908
 40
5.57610900000023
100
AcDbArc
 50
40.08825100000225
 51
90.09138399999991
  0
ARC
  5
2F2
100
AcDbEntity
  8
LC-002-002-RND-0
  6
CONTINUOUS
 62
             7
100
AcDbCircle
 10
84.816178677464
 20
-347.36633235837911
 40
3.92500000000042
100
AcDbArc
 50
89.87259000000023
 51
155.89410499999559
  0
ARC
  5
2F1
100
AcDbEntity
  8
LC-001-002-----0
  6
CONTINUOUS
 62
             7
100
AcDbCircle
 10
-53.55696432253599
 20
-360.58626935837913
 40
1.99999999999982
100
AcDbArc
 50
90.00021199999952
 51
-179.9997520000037
  0
ARC
  5
2F0
100
AcDbEntity
  8
LC-001-002-----0
  6
CONTINUOUS
 62
             7
100
AcDbCircle
 10
296.44302667746399
 20
-360.58556535837909
 40
2.0
100
AcDbArc
 50
0.0
 51
90.0
  0
ARC
  5
2EF
100
AcDbEntity
  8
LC-001-002-----0
  6
CONTINUOUS
 62
             7
100
AcDbCircle
 10
17.127315677464
 20
-348.82818035837897
 40
5.57610900000012
100
AcDbArc
 50
89.90861600000032
 51
139.91174899999822
  0
ARC
  5
2EE
100
AcDbEntity
  8
LC-002-002-RND-0
  6
CONTINUOUS
 62
             7
100
AcDbCircle
 10
225.754778677464
 20
-347.22224135837911
 40
3.92499999999953
100
AcDbArc
 50
89.86242599999731
 51
155.88394099999419
  0
ARC
  5
2ED
100
AcDbEntity
  8
LC-002-002-RND-0
  6
CONTINUOUS
 62
             7
100
AcDbCircle
 10
203.873239677464
 20
-347.76492135837913
 40
3.92500000000001
100
AcDbArc
 50
139.91174900000118
 51
-135.50418600000276
  0
ARC
  5
2EC
100
AcDbEntity
  8
LC-001-002-----0
  6
CONTINUOUS
 62
             7
100
AcDbCircle
 10
205.13642667746399
 20
-348.82818035837897
 40
5.57610900000012
100
AcDbArc
 50
89.90861600000011
 51
139.91174899999822
  0
ARC
  5
2EB
100
AcDbEntity
  8
LC-002-002-RND-0
  6
CONTINUOUS
 62
             7
100
AcDbCircle
 10
205.14525067746399
 20
-347.22041335837901
 40
3.92500000000043
100
AcDbArc
 50
24.10589500000178
 51
90.12740999999939
  0
ARC
  5
2EA
100
AcDbEntity
  8
LC-001-002-----0
  6
CONTINUOUS
 62
             7
100
AcDbCircle
 10
225.76100767746399
 20
-348.82818035837897
 40
5.57610900000004
100
AcDbArc
 50
40.08825100000312
 51
90.09138399999961
  0
ARC
  5
2E9
100
AcDbEntity
  8
LC-002-002-RND-0
  6
CONTINUOUS
 62
             7
100
AcDbCircle
 10
227.02419467746401
 20
-347.76492135837913
 40
3.92499999999987
100
AcDbArc
 50
-44.4958139999961
 51
40.08825100000362
  0
ARC
  5
2E8
100
AcDbEntity
  8
LC-002-002-RND-0
  6
CONTINUOUS
 62
             7
100
AcDbCircle
 10
17.133872677464
 20
-347.22041335837901
 40
3.92500000000016
100
AcDbArc
 50
24.10589500000354
 51
90.12740999999959
  0
ARC
  5
2E7
100
AcDbEntity
  8
LC-002-002-RND-0
  6
CONTINUOUS
 62
             7
100
AcDbCircle
 10
19.443023677464
 20
-373.74926235837899
 40
0.5
100
AcDbArc
 50
0.0
 51
70.00000000000095
  0
ARC
  5
2E6
100
AcDbEntity
  8
LC-001-002-----0
  6
CONTINUOUS
 62
             7
100
AcDbCircle
 10
206.443034677464
 20
-388.82149035837898
 40
1.49999999999961
100
AcDbArc
 50
-89.99976599999947
 51
0.00035899999358
  0
ARC
  5
2E5
100
AcDbEntity
  8
LC-001-002-----0
  6
CONTINUOUS
 62
             7
100
AcDbCircle
 10
208.443032677464
 20
-387.34189135837897
 40
0.49999999999981
100
AcDbArc
 50
90.00035899999901
 51
-179.99964099998471
  0
ARC
  5
2E4
100
AcDbEntity
  8
LC-001-002-----0
  6
CONTINUOUS
 62
             7
100
AcDbCircle
 10
36.443039677464
 20
-388.82202235837912
 40
1.5
100
AcDbArc
 50
180.0
 51
-89.99987500000154
  0
ARC
  5
2E3
100
AcDbEntity
  8
LC-001-002-----0
  6
CONTINUOUS
 62
             7
100
AcDbCircle
 10
34.443039677464
 20
-387.34243635837908
 40
0.5
100
AcDbArc
 50
0.0
 51
90.0
  0
ARC
  5
2E2
100
AcDbEntity
  8
LC-001-002-----0
  6
CONTINUOUS
 62
             7
100
AcDbCircle
 10
21.443023677464
 20
-385.34243635837908
 40
1.5
100
AcDbArc
 50
180.0
 51
-90.0
  0
ARC
  5
2E1
100
AcDbEntity
  8
LC-001-002-----0
  6
CONTINUOUS
 62
             7
100
AcDbCircle
 10
221.44303667746399
 20
-385.34180935837901
 40
1.50000000000045
100
AcDbArc
 50
-89.99964100000099
 51
0.00035900000009
  0
ARC
  5
2E0
100
AcDbEntity
  8
LC-002-002-RND-0
  6
CONTINUOUS
 62
             7
100
AcDbCircle
 10
15.86186167746401
 20
-347.76492135837913
 40
3.92499999999993
100
AcDbArc
 50
139.91174900000027
 51
-135.50418600000296
  0
ARC
  5
2DF
100
AcDbEntity
  8
LC-002-002-RND-0
  6
CONTINUOUS
 62
             7
100
AcDbCircle
 10
39.01281667746399
 20
-347.76492135837913
 40
3.92499999999981
100
AcDbArc
 50
-44.49581399999696
 51
40.08825099999961
  0
ARC
  5
2DE
100
AcDbEntity
  8
LC-001-002-----0
  6
CONTINUOUS
 62
             7
100
AcDbCircle
 10
37.749629677464
 20
-348.82818035837897
 40
5.57610900000019
100
AcDbArc
 50
40.0882510000018
 51
90.09138399999991
  0
ARC
  5
2DD
100
AcDbEntity
  8
LC-002-002-RND-0
  6
CONTINUOUS
 62
             7
100
AcDbCircle
 10
37.740805677464
 20
-347.22041335837901
 40
3.9250000000003
100
AcDbArc
 50
89.87259000000032
 51
155.89410499999642
  0
ARC
  5
2DC
100
AcDbEntity
  8
LC-002-002-RND-0
  6
CONTINUOUS
 62
             7
100
AcDbCircle
 10
223.442956677464
 20
-373.74862335837912
 40
0.49999999999973
100
AcDbArc
 50
110.00035900006667
 51
-179.99964100000426
  0
ARC
  5
2DB
100
AcDbEntity
  8
LC-002-002-RND-0
  6
CONTINUOUS
 62
             7
100
AcDbCircle
 10
193.94298467746401
 20
-454.58704235837911
 40
8.0
100
AcDbArc
 50
-90.0
 51
0.0
  0
ARC
  5
2DA
100
AcDbEntity
  8
LC-002-002-RND-0
  6
CONTINUOUS
 62
             7
100
AcDbCircle
 10
48.942984677464
 20
-454.58704235837911
 40
8.0
100
AcDbArc
 50
180.0
 51
-90.0
  0
ARC
  5
2D9
100
AcDbEntity
  8
LC-001-002-----0
  6
CONTINUOUS
 62
             7
100
AcDbCircle
 10
37.75181067746401
 20
-348.82818035837897
 40
5.57610900000019
100
AcDbArc
 50
40.0882510000018
 51
90.09138399999991
  0
ARC
  5
2D8
100
AcDbEntity
  8
LC-002-002-RND-0
  6
CONTINUOUS
 62
             7
100
AcDbCircle
 10
37.74298567746401
 20
-347.22041335837901
 40
3.9250000000003
100
AcDbArc
 50
89.87259000000084
 51
155.89410499999653
  0
ARC
  5
2D7
100
AcDbEntity
  8
LC-002-002-RND-0
  6
CONTINUOUS
 62
             7
100
AcDbCircle
 10
39.014997677464
 20
-347.76492135837913
 40
3.92499999999979
100
AcDbArc
 50
-44.49581399999726
 51
40.08825099999888
  0
ARC
  5
2D6
100
AcDbEntity
  8
LC-002-002-RND-0
  6
CONTINUOUS
 62
             7
100
AcDbCircle
 10
17.13605367746401
 20
-347.22041335837901
 40
3.92500000000014
100
AcDbArc
 50
24.10589500000365
 51
90.12740999999984
  0
LINE
  5
2D5
100
AcDbEntity
  8
1
  6
CONTINUOUS
 62
             7
100
AcDbLine
 10
83.942984677464
 20
-515.08704235837911
 11
158.94302867746401
 21
-515.08704235837911
  0
LINE
  5
2D4
100
AcDbEntity
  8
LC-001-002-----0
  6
CONTINUOUS
 62
             7
100
AcDbLine
 10
162.59979867746401
 20
-390.321506358379
 11
80.28625867746399
 21
-390.321506358379
  0
LINE
  5
2D3
100
AcDbEntity
  8
LC-001-002-----0
  6
DASHDOT
 62
             2
100
AcDbLine
 10
168.45289867746399
 20
-345.98804635837911
 11
168.53039467746399
 21
-395.98804635837911
  0
LINE
  5
2D2
100
AcDbEntity
  8
LC-004-003-----0
  6
CONTINUOUS
 62
             2
100
AcDbLine
 10
170.87330067746399
 20
-351.44134235837907
 11
170.87330067746399
 21
-345.98804635837911
  0
LINE
  5
2D1
100
AcDbEntity
  8
LC-004-003-----0
  6
CONTINUOUS
 62
             2
100
AcDbLine
 10
165.87330067746399
 20
-351.44134235837907
 11
165.87330067746399
 21
-345.98804635837911
  0
LINE
  5
2D0
100
AcDbEntity
  8
LC-001-002-----0
  6
CONTINUOUS
 62
             7
100
AcDbLine
 10
165.37330067746399
 20
-351.44134235837907
 11
165.37330067746399
 21
-346.48804635837911
  0
LINE
  5
2CF
100
AcDbEntity
  8
LC-001-002-----0
  6
CONTINUOUS
 62
             7
100
AcDbLine
 10
171.37330067746399
 20
-351.44134235837907
 11
171.37330067746399
 21
-346.48804635837911
  0
LINE
  5
2CE
100
AcDbEntity
  8
LC-001-002-----0
  6
CONTINUOUS
 62
             7
100
AcDbLine
 10
171.37330067746399
 20
-346.48804635837911
 11
165.37330067746399
 21
-346.48804635837911
  0
LINE
  5
2CD
100
AcDbEntity
  8
LC-001-002-----0
  6
CONTINUOUS
 62
             7
100
AcDbLine
 10
165.87330067746399
 20
-345.98804635837911
 11
165.37330067746399
 21
-346.48804635837911
  0
LINE
  5
2CC
100
AcDbEntity
  8
LC-001-002-----0
  6
CONTINUOUS
 62
             7
100
AcDbLine
 10
170.87330067746399
 20
-345.98804635837911
 11
171.37330067746399
 21
-346.48804635837911
  0
LINE
  5
2CB
100
AcDbEntity
  8
LC-001-002-----0
  6
CONTINUOUS
 62
             7
100
AcDbLine
 10
170.87330067746399
 20
-345.98804635837911
 11
165.87330067746399
 21
-345.98804635837911
  0
LINE
  5
2CA
100
AcDbEntity
  8
LC-001-002-----0
  6
CONTINUOUS
 62
             7
100
AcDbLine
 10
153.82064067746401
 20
-350.46598535837899
 11
160.90947167746401
 21
-358.73186235837909
  0
LINE
  5
2C9
100
AcDbEntity
  8
LC-001-002-----0
  6
CONTINUOUS
 62
             7
100
AcDbLine
 10
182.93040867746399
 20
-350.46598535837899
 11
175.84153067746399
 21
-358.73191735837912
  0
LINE
  5
2C8
100
AcDbEntity
  8
LC-001-002-----0
  6
CONTINUOUS
 62
             7
100
AcDbLine
 10
175.06342467746401
 20
-345.75351635837899
 11
173.375524677464
 21
-351.44134235837907
  0
LINE
  5
2C7
100
AcDbEntity
  8
LC-001-002-----0
  6
CONTINUOUS
 62
             7
100
AcDbLine
 10
163.375524677464
 20
-351.44134235837907
 11
162.565466677464
 21
-358.73186835837907
  0
LINE
  5
2C6
100
AcDbEntity
  8
LC-001-002-----0
  6
CONTINUOUS
 62
             7
100
AcDbLine
 10
174.18558767746401
 20
-358.73191135837908
 11
173.375524677464
 21
-351.44134235837907
  0
LINE
  5
2C5
100
AcDbEntity
  8
LC-001-002-----0
  6
CONTINUOUS
 62
             7
100
AcDbLine
 10
161.68762467746399
 20
-345.75351635837899
 11
163.375524677464
 21
-351.44134235837907
  0
LINE
  5
2C4
100
AcDbEntity
  8
LC-001-002-----0
  6
CONTINUOUS
 62
             7
100
AcDbLine
 10
173.375524677464
 20
-351.44134235837907
 11
163.375524677464
 21
-351.44134235837907
  0
LINE
  5
2C3
100
AcDbEntity
  8
LC-001-002-----0
  6
CONTINUOUS
 62
             7
100
AcDbLine
 10
182.92822767746401
 20
-350.46598535837899
 11
175.83934967746401
 21
-358.73191735837912
  0
LINE
  5
2C2
100
AcDbEntity
  8
LC-001-002-----0
  6
CONTINUOUS
 62
             7
100
AcDbLine
 10
153.81845967746401
 20
-350.46598535837899
 11
160.907290677464
 21
-358.73186235837909
  0
LINE
  5
2C1
100
AcDbEntity
  8
LC-001-002-----0
  6
CONTINUOUS
 62
             7
100
AcDbLine
 10
161.68544467746401
 20
-345.75351635837899
 11
163.37334367746399
 21
-351.44134235837907
  0
LINE
  5
2C0
100
AcDbEntity
  8
LC-001-002-----0
  6
CONTINUOUS
 62
             7
100
AcDbLine
 10
162.56328567746399
 20
-358.73186835837907
 11
163.37334367746399
 21
-351.44134235837907
  0
LINE
  5
2BF
100
AcDbEntity
  8
LC-001-002-----0
  6
CONTINUOUS
 62
             7
100
AcDbLine
 10
163.37334367746399
 20
-351.44134235837907
 11
173.37334367746399
 21
-351.44134235837907
  0
LINE
  5
2BE
100
AcDbEntity
  8
LC-001-002-----0
  6
CONTINUOUS
 62
             7
100
AcDbLine
 10
207.98048367746401
 20
-358.58594235837899
 11
37.13630067746401
 21
-358.58531135837899
  0
LINE
  5
2BD
100
AcDbEntity
  8
LC-004-003-----0
  6
CONTINUOUS
 62
             2
100
AcDbLine
 10
165.87330067746399
 20
-395.98804635837911
 11
165.87330067746399
 21
-392.18805935837912
  0
LINE
  5
2BC
100
AcDbEntity
  8
LC-004-003-----0
  6
CONTINUOUS
 62
             2
100
AcDbLine
 10
170.87330067746399
 20
-395.98804635837911
 11
170.87330067746399
 21
-392.18805935837912
  0
LINE
  5
2BB
100
AcDbEntity
  8
LC-001-002-----0
  6
CONTINUOUS
 62
             7
100
AcDbLine
 10
165.37330067746399
 20
-395.48804635837911
 11
171.37330067746399
 21
-395.48804635837911
  0
LINE
  5
2BA
100
AcDbEntity
  8
LC-001-002-----0
  6
CONTINUOUS
 62
             7
100
AcDbLine
 10
170.87330067746399
 20
-395.98804635837911
 11
171.37330067746399
 21
-395.48804635837911
  0
LINE
  5
2B9
100
AcDbEntity
  8
LC-001-002-----0
  6
CONTINUOUS
 62
             7
100
AcDbLine
 10
165.87330067746399
 20
-395.98804635837911
 11
165.37330067746399
 21
-395.48804635837911
  0
LINE
  5
2B8
100
AcDbEntity
  8
LC-001-002-----0
  6
CONTINUOUS
 62
             7
100
AcDbLine
 10
165.37330067746399
 20
-395.48804635837911
 11
165.37330067746399
 21
-392.18805935837912
  0
LINE
  5
2B7
100
AcDbEntity
  8
LC-001-002-----0
  6
CONTINUOUS
 62
             7
100
AcDbLine
 10
165.87330067746399
 20
-395.98804635837911
 11
170.87330067746399
 21
-395.98804635837911
  0
LINE
  5
2B6
100
AcDbEntity
  8
LC-001-002-----0
  6
CONTINUOUS
 62
             7
100
AcDbLine
 10
171.37330067746399
 20
-395.48804635837911
 11
171.37330067746399
 21
-392.18805935837912
  0
LINE
  5
2B5
100
AcDbEntity
  8
LC-001-002-----0
  6
CONTINUOUS
 62
             7
100
AcDbLine
 10
165.48654967746401
 20
-391.51893235837912
 11
165.48654967746401
 21
-387.65721535837912
  0
LINE
  5
2B4
100
AcDbEntity
  8
LC-001-002-----0
  6
CONTINUOUS
 62
             7
100
AcDbLine
 10
171.26005267746399
 20
-391.5189833583791
 11
171.26005267746399
 21
-387.65145935837899
  0
LINE
  5
2B3
100
AcDbEntity
  8
LC-001-002-----0
  6
CONTINUOUS
 62
             7
100
AcDbLine
 10
162.59979867746401
 20
-387.65718835837907
 11
162.59979867746401
 21
-391.51893035837912
  0
LINE
  5
2B2
100
AcDbEntity
  8
LC-001-002-----0
  6
CONTINUOUS
 62
             7
100
AcDbLine
 10
174.14680367746399
 20
-387.65718835837907
 11
174.14680367746399
 21
-391.51893035837912
  0
LINE
  5
2B1
100
AcDbEntity
  8
LC-001-002-----0
  6
CONTINUOUS
 62
             7
100
AcDbLine
 10
172.70342867746399
 20
-392.18805935837912
 11
164.04317467746401
 21
-392.18805935837912
  0
LINE
  5
2B0
100
AcDbEntity
  8
LC-001-002-----0
  6
CONTINUOUS
 62
             7
100
AcDbLine
 10
68.73925267746398
 20
-390.321506358379
 11
39.94304367746399
 21
-390.321506358379
  0
LINE
  5
2AF
100
AcDbEntity
  8
LC-004-003-----0
  6
CONTINUOUS
 62
             2
100
AcDbLine
 10
72.012755677464
 20
-351.44134235837907
 11
72.012755677464
 21
-345.98804635837911
  0
LINE
  5
2AE
100
AcDbEntity
  8
LC-004-003-----0
  6
CONTINUOUS
 62
             2
100
AcDbLine
 10
77.012755677464
 20
-351.44134235837907
 11
77.012755677464
 21
-345.98804635837911
  0
LINE
  5
2AD
100
AcDbEntity
  8
LC-001-002-----0
  6
CONTINUOUS
 62
             7
100
AcDbLine
 10
77.512755677464
 20
-351.44134235837907
 11
77.512755677464
 21
-346.48804635837911
  0
LINE
  5
2AC
100
AcDbEntity
  8
LC-001-002-----0
  6
CONTINUOUS
 62
             7
100
AcDbLine
 10
71.512755677464
 20
-351.44134235837907
 11
71.512755677464
 21
-346.48804635837911
  0
LINE
  5
2AB
100
AcDbEntity
  8
LC-001-002-----0
  6
CONTINUOUS
 62
             7
100
AcDbLine
 10
71.512755677464
 20
-346.48804635837911
 11
77.512755677464
 21
-346.48804635837911
  0
LINE
  5
2AA
100
AcDbEntity
  8
LC-001-002-----0
  6
CONTINUOUS
 62
             7
100
AcDbLine
 10
77.012755677464
 20
-345.98804635837911
 11
77.512755677464
 21
-346.48804635837911
  0
LINE
  5
2A9
100
AcDbEntity
  8
LC-001-002-----0
  6
CONTINUOUS
 62
             7
100
AcDbLine
 10
72.012755677464
 20
-345.98804635837911
 11
71.512755677464
 21
-346.48804635837911
  0
LINE
  5
2A8
100
AcDbEntity
  8
LC-001-002-----0
  6
CONTINUOUS
 62
             7
100
AcDbLine
 10
72.012755677464
 20
-345.98804635837911
 11
77.012755677464
 21
-345.98804635837911
  0
LINE
  5
2A7
100
AcDbEntity
  8
LC-001-002-----0
  6
CONTINUOUS
 62
             7
100
AcDbLine
 10
89.065415677464
 20
-350.46598535837899
 11
81.97658467746399
 21
-358.73186235837909
  0
LINE
  5
2A6
100
AcDbEntity
  8
LC-001-002-----0
  6
CONTINUOUS
 62
             7
100
AcDbLine
 10
59.955647677464
 20
-350.46598535837899
 11
67.04452567746398
 21
-358.73191735837912
  0
LINE
  5
2A5
100
AcDbEntity
  8
LC-001-002-----0
  6
CONTINUOUS
 62
             7
100
AcDbLine
 10
67.822631677464
 20
-345.75351635837899
 11
69.51053167746399
 21
-351.44134235837907
  0
LINE
  5
2A4
100
AcDbEntity
  8
LC-001-002-----0
  6
CONTINUOUS
 62
             7
100
AcDbLine
 10
79.510531677464
 20
-351.44134235837907
 11
80.320589677464
 21
-358.73186835837907
  0
LINE
  5
2A3
100
AcDbEntity
  8
LC-001-002-----0
  6
CONTINUOUS
 62
             7
100
AcDbLine
 10
68.70046867746399
 20
-358.73191135837908
 11
69.51053167746399
 21
-351.44134235837907
  0
LINE
  5
2A2
100
AcDbEntity
  8
LC-001-002-----0
  6
CONTINUOUS
 62
             7
100
AcDbLine
 10
81.198431677464
 20
-345.75351635837899
 11
79.510531677464
 21
-351.44134235837907
  0
LINE
  5
2A1
100
AcDbEntity
  8
LC-001-002-----0
  6
CONTINUOUS
 62
             7
100
AcDbLine
 10
69.51053167746399
 20
-351.44134235837907
 11
79.510531677464
 21
-351.44134235837907
  0
LINE
  5
2A0
100
AcDbEntity
  8
LC-001-002-----0
  6
CONTINUOUS
 62
             7
100
AcDbLine
 10
59.957828677464
 20
-350.46598535837899
 11
67.04670667746399
 21
-358.73191735837912
  0
LINE
  5
29F
100
AcDbEntity
  8
LC-001-002-----0
  6
CONTINUOUS
 62
             7
100
AcDbLine
 10
89.067596677464
 20
-350.46598535837899
 11
81.978765677464
 21
-358.73186235837909
  0
LINE
  5
29E
100
AcDbEntity
  8
LC-001-002-----0
  6
CONTINUOUS
 62
             7
100
AcDbLine
 10
81.200611677464
 20
-345.75351635837899
 11
79.51271267746398
 21
-351.44134235837907
  0
LINE
  5
29D
100
AcDbEntity
  8
LC-001-002-----0
  6
CONTINUOUS
 62
             7
100
AcDbLine
 10
80.32277067746399
 20
-358.73186835837907
 11
79.51271267746398
 21
-351.44134235837907
  0
LINE
  5
29C
100
AcDbEntity
  8
LC-001-002-----0
  6
CONTINUOUS
 62
             7
100
AcDbLine
 10
79.51271267746398
 20
-351.44134235837907
 11
69.51271267746398
 21
-351.44134235837907
  0
LINE
  5
29B
100
AcDbEntity
  8
LC-004-003-----0
  6
CONTINUOUS
 62
             2
100
AcDbLine
 10
77.012755677464
 20
-395.98804635837911
 11
77.012755677464
 21
-392.18805935837912
  0
LINE
  5
29A
100
AcDbEntity
  8
LC-004-003-----0
  6
CONTINUOUS
 62
             2
100
AcDbLine
 10
72.012755677464
 20
-395.98804635837911
 11
72.012755677464
 21
-392.18805935837912
  0
LINE
  5
299
100
AcDbEntity
  8
LC-001-002-----0
  6
CONTINUOUS
 62
             7
100
AcDbLine
 10
77.512755677464
 20
-395.48804635837911
 11
71.512755677464
 21
-395.48804635837911
  0
LINE
  5
298
100
AcDbEntity
  8
LC-001-002-----0
  6
CONTINUOUS
 62
             7
100
AcDbLine
 10
72.012755677464
 20
-395.98804635837911
 11
71.512755677464
 21
-395.48804635837911
  0
LINE
  5
297
100
AcDbEntity
  8
LC-001-002-----0
  6
CONTINUOUS
 62
             7
100
AcDbLine
 10
77.012755677464
 20
-395.98804635837911
 11
77.512755677464
 21
-395.48804635837911
  0
LINE
  5
296
100
AcDbEntity
  8
LC-001-002-----0
  6
CONTINUOUS
 62
             7
100
AcDbLine
 10
77.512755677464
 20
-395.48804635837911
 11
77.512755677464
 21
-392.18805935837912
  0
LINE
  5
295
100
AcDbEntity
  8
LC-001-002-----0
  6
CONTINUOUS
 62
             7
100
AcDbLine
 10
77.012755677464
 20
-395.98804635837911
 11
72.012755677464
 21
-395.98804635837911
  0
LINE
  5
294
100
AcDbEntity
  8
LC-001-002-----0
  6
CONTINUOUS
 62
             7
100
AcDbLine
 10
71.512755677464
 20
-395.48804635837911
 11
71.512755677464
 21
-392.18805935837912
  0
LINE
  5
293
100
AcDbEntity
  8
LC-001-002-----0
  6
CONTINUOUS
 62
             7
100
AcDbLine
 10
77.39950667746399
 20
-391.51893235837912
 11
77.39950667746399
 21
-387.65721535837912
  0
LINE
  5
292
100
AcDbEntity
  8
LC-001-002-----0
  6
CONTINUOUS
 62
             7
100
AcDbLine
 10
71.626003677464
 20
-391.5189833583791
 11
71.626003677464
 21
-387.65145935837899
  0
LINE
  5
291
100
AcDbEntity
  8
LC-001-002-----0
  6
CONTINUOUS
 62
             7
100
AcDbLine
 10
80.28625867746399
 20
-387.65718835837907
 11
80.28625867746399
 21
-391.51893035837912
  0
LINE
  5
290
100
AcDbEntity
  8
LC-001-002-----0
  6
CONTINUOUS
 62
             7
100
AcDbLine
 10
68.73925267746398
 20
-387.65718835837907
 11
68.73925267746398
 21
-391.51893035837912
  0
LINE
  5
28F
100
AcDbEntity
  8
LC-001-002-----0
  6
CONTINUOUS
 62
             7
100
AcDbLine
 10
70.182627677464
 20
-392.18805935837912
 11
78.84288267746399
 21
-392.18805935837912
  0
LINE
  5
28E
100
AcDbEntity
  8
LC-001-002-----0
  6
DASHDOT
 62
             2
100
AcDbLine
 10
74.43315767746401
 20
-345.98804635837911
 11
74.355661677464
 21
-395.98804635837911
  0
LINE
  5
28D
100
AcDbEntity
  8
LC-001-002-----0
  6
CONTINUOUS
 62
             7
100
AcDbLine
 10
218.44649367746399
 20
-351.29542235837903
 11
218.44649367746399
 21
-346.34212735837912
  0
LINE
  5
28C
100
AcDbEntity
  8
LC-004-003-----0
  6
CONTINUOUS
 62
             2
100
AcDbLine
 10
217.94649367746399
 20
-351.29542235837903
 11
217.94649367746399
 21
-345.84212735837912
  0
LINE
  5
28B
100
AcDbEntity
  8
LC-004-003-----0
  6
CONTINUOUS
 62
             2
100
AcDbLine
 10
212.94649367746399
 20
-351.29542235837903
 11
212.94649367746399
 21
-345.84212735837912
  0
LINE
  5
28A
100
AcDbEntity
  8
LC-001-002-----0
  6
CONTINUOUS
 62
             7
100
AcDbLine
 10
212.44649367746399
 20
-351.29542235837903
 11
212.44649367746399
 21
-346.34212735837912
  0
LINE
  5
289
100
AcDbEntity
  8
LC-001-002-----0
  6
CONTINUOUS
 62
             7
100
AcDbLine
 10
202.94366067746401
 20
-390.321506358379
 11
174.14680367746399
 21
-390.321506358379
  0
LINE
  5
288
100
AcDbEntity
  8
LC-001-002-----0
  6
CONTINUOUS
 62
             7
100
AcDbLine
 10
34.796593677464
 20
-386.98888335837898
 11
208.089477677464
 21
-386.98888335837898
  0
LINE
  5
287
100
AcDbEntity
  8
LC-001-002-----0
  6
CONTINUOUS
 62
             7
100
AcDbLine
 10
19.61403367746399
 20
-373.27941635837908
 11
223.442956677464
 21
-373.27941635837908
  0
LINE
  5
286
100
AcDbEntity
  8
LC-001-002-----0
  6
CONTINUOUS
 62
             7
100
AcDbLine
 10
246.44296067746399
 20
-364.845053358379
 11
-3.55703632253601
 21
-364.845053358379
  0
LINE
  5
285
100
AcDbEntity
  8
LC-001-002-----0
  6
CONTINUOUS
 62
             7
100
AcDbLine
 10
-3.215015322536
 20
-363.90614435837898
 11
246.10093467746401
 21
-363.90614435837898
  0
LINE
  5
284
100
AcDbEntity
  8
LC-001-002-----0
  6
CONTINUOUS
 62
             7
100
AcDbLine
 10
188.93557667746401
 20
-462.58704235837911
 11
53.950392677464
 21
-462.58704235837911
  0
LINE
  5
283
100
AcDbEntity
  8
LC-001-002-----0
  6
CONTINUOUS
 62
             7
100
AcDbLine
 10
63.95168167746399
 20
-465.08704235837911
 11
178.934288677464
 21
-465.08704235837911
  0
LINE
  5
282
100
AcDbEntity
  8
LC-001-002-----0
  6
CONTINUOUS
 62
             7
100
AcDbLine
 10
207.98234067746401
 20
-358.58556535837909
 11
296.44302667746399
 21
-358.58556535837909
  0
LINE
  5
281
100
AcDbEntity
  8
LC-001-002-----0
  6
CONTINUOUS
 62
             7
100
AcDbLine
 10
34.90557267746401
 20
-358.58594235837899
 11
205.74975567746401
 21
-358.58531135837899
  0
LINE
  5
280
100
AcDbEntity
  8
LC-001-002-----0
  6
CONTINUOUS
 62
             7
100
AcDbLine
 10
205.74975567746401
 20
-358.58556535837909
 11
207.98234067746401
 21
-358.58556535837909
  0
LINE
  5
27F
100
AcDbEntity
  8
LC-001-002-----0
  6
CONTINUOUS
 62
             7
100
AcDbLine
 10
298.442843677464
 20
-361.58466735837908
 11
121.443028677464
 21
-361.58491835837901
  0
LINE
  5
27E
100
AcDbEntity
  8
LC-001-002-----0
  6
CONTINUOUS
 62
             7
100
AcDbLine
 10
-55.55695832253601
 20
-361.58627735837911
 11
121.443028677464
 21
-361.58562335837911
  0
LINE
  5
27D
100
AcDbEntity
  8
LC-001-002-----0
  6
CONTINUOUS
 62
             7
100
AcDbLine
 10
41.443028677464
 20
-390.321506358379
 11
41.443028677464
 21
-452.58704235837911
  0
LINE
  5
27C
100
AcDbEntity
  8
LC-001-002-----0
  6
CONTINUOUS
 62
             7
100
AcDbLine
 10
83.943028677464
 20
-515.08704235837911
 11
84.880850677464
 21
-518.58704235837911
  0
LINE
  5
27B
100
AcDbEntity
  8
LC-001-002-----0
  6
CONTINUOUS
 62
             7
100
AcDbLine
 10
158.94302867746401
 20
-515.08704235837911
 11
158.00520567746401
 21
-518.58704235837911
  0
LINE
  5
27A
100
AcDbEntity
  8
LC-001-002-----0
  6
CONTINUOUS
 62
             7
100
AcDbLine
 10
201.44302867746401
 20
-390.321506358379
 11
201.44302867746401
 21
-452.58704235837911
  0
LINE
  5
279
100
AcDbEntity
  8
LC-001-002-----0
  6
CONTINUOUS
 62
             7
100
AcDbLine
 10
249.455989677464
 20
-361.58473635837902
 11
243.075991677464
 21
-363.90614435837898
  0
LINE
  5
278
100
AcDbEntity
  8
LC-001-002-----0
  6
CONTINUOUS
 62
             7
100
AcDbLine
 10
298.44302667746399
 20
-360.58556535837909
 11
298.44302667746399
 21
-361.58466735837908
  0
LINE
  5
277
100
AcDbEntity
  8
LC-001-002-----0
  6
CONTINUOUS
 62
             7
100
AcDbLine
 10
-53.556971322536
 20
-358.58626935837913
 11
34.90557267746401
 21
-358.58594235837899
  0
LINE
  5
276
100
AcDbEntity
  8
LC-001-002-----0
  6
CONTINUOUS
 62
             7
100
AcDbLine
 10
-6.571796322536
 20
-361.586096358379
 11
-0.197431322536
 21
-363.90614435837898
  0
LINE
  5
275
100
AcDbEntity
  8
LC-001-002-----0
  6
CONTINUOUS
 62
             7
100
AcDbLine
 10
-55.55696432253599
 20
-360.58627835837899
 11
-55.556960322536
 21
-361.59416735837902
  0
LINE
  5
274
100
AcDbEntity
  8
LC-001-002-----0
  6
CONTINUOUS
 62
             7
100
AcDbLine
 10
158.94302867746401
 20
-465.08704235837911
 11
158.94302867746401
 21
-515.08704235837911
  0
LINE
  5
273
100
AcDbEntity
  8
LC-001-002-----0
  6
CONTINUOUS
 62
             7
100
AcDbLine
 10
121.443028677464
 20
-518.58704235837911
 11
158.00520567746401
 21
-518.58704235837911
  0
LINE
  5
272
100
AcDbEntity
  8
LC-001-002-----0
  6
CONTINUOUS
 62
             7
100
AcDbLine
 10
84.880850677464
 20
-518.58704235837911
 11
121.443028677464
 21
-518.58704235837911
  0
LINE
  5
271
100
AcDbEntity
  8
LC-001-002-----0
  6
CONTINUOUS
 62
             7
100
AcDbLine
 10
41.443028677464
 20
-452.58704235837911
 11
198.94298467746401
 21
-452.58704235837911
  0
LINE
  5
270
100
AcDbEntity
  8
LC-001-002-----0
  6
CONTINUOUS
 62
             7
100
AcDbLine
 10
83.943028677464
 20
-465.08704235837911
 11
83.943028677464
 21
-515.08704235837911
  0
LINE
  5
26F
100
AcDbEntity
  8
LC-001-002-----0
  6
CONTINUOUS
 62
             7
100
AcDbLine
 10
212.55974167746399
 20
-391.37301235837901
 11
212.55974167746399
 21
-387.51129535837902
  0
LINE
  5
26E
100
AcDbEntity
  8
LC-001-002-----0
  6
CONTINUOUS
 62
             7
100
AcDbLine
 10
218.33324467746399
 20
-391.373063358379
 11
218.33324467746399
 21
-387.50554035837911
  0
LINE
  5
26D
100
AcDbEntity
  8
LC-001-002-----0
  6
CONTINUOUS
 62
             7
100
AcDbLine
 10
209.67299067746401
 20
-387.51126835837903
 11
209.67299067746401
 21
-391.37301135837907
  0
LINE
  5
26C
100
AcDbEntity
  8
LC-001-002-----0
  6
CONTINUOUS
 62
             7
100
AcDbLine
 10
221.219995677464
 20
-387.51126835837903
 11
221.219995677464
 21
-391.37301135837907
  0
LINE
  5
26B
100
AcDbEntity
  8
LC-001-002-----0
  6
CONTINUOUS
 62
             7
100
AcDbLine
 10
219.77662167746399
 20
-386.84214035837903
 11
211.11636767746401
 21
-386.84214035837903
  0
LINE
  5
26A
100
AcDbEntity
  8
LC-001-002-----0
  6
CONTINUOUS
 62
             7
100
AcDbLine
 10
219.77662167746399
 20
-392.04214035837902
 11
211.11636667746399
 21
-392.04214035837902
  0
LINE
  5
269
100
AcDbEntity
  8
LC-010-006-MLN-0
  6
DASHDOT
 62
             2
100
AcDbLine
 10
215.44649367746399
 20
-335.84212735837912
 11
215.44649367746399
 21
-405.84212735837912
  0
LINE
  5
268
100
AcDbEntity
  8
LC-004-003-----0
  6
CONTINUOUS
 62
             2
100
AcDbLine
 10
212.94649367746399
 20
-386.84214035837903
 11
212.94649367746399
 21
-386.8418633583791
  0
LINE
  5
267
100
AcDbEntity
  8
LC-004-003-----0
  6
CONTINUOUS
 62
             2
100
AcDbLine
 10
212.94649367746399
 20
-395.84212735837912
 11
212.94649367746399
 21
-392.04214035837902
  0
LINE
  5
266
100
AcDbEntity
  8
LC-004-003-----0
  6
CONTINUOUS
 62
             2
100
AcDbLine
 10
217.94649367746399
 20
-395.84212735837912
 11
217.94649367746399
 21
-392.04214035837902
  0
LINE
  5
265
100
AcDbEntity
  8
LC-001-002-----0
  6
CONTINUOUS
 62
             7
100
AcDbLine
 10
212.44649367746399
 20
-395.34212735837912
 11
218.44649367746399
 21
-395.34212735837912
  0
LINE
  5
264
100
AcDbEntity
  8
LC-001-002-----0
  6
CONTINUOUS
 62
             7
100
AcDbLine
 10
217.94649367746399
 20
-395.84212735837912
 11
218.44649367746399
 21
-395.34212735837912
  0
LINE
  5
263
100
AcDbEntity
  8
LC-001-002-----0
  6
CONTINUOUS
 62
             7
100
AcDbLine
 10
212.94649367746399
 20
-395.84212735837912
 11
212.44649367746399
 21
-395.34212735837912
  0
LINE
  5
262
100
AcDbEntity
  8
LC-001-002-----0
  6
CONTINUOUS
 62
             7
100
AcDbLine
 10
218.44649367746399
 20
-346.34212735837912
 11
212.44649367746399
 21
-346.34212735837912
  0
LINE
  5
261
100
AcDbEntity
  8
LC-001-002-----0
  6
CONTINUOUS
 62
             7
100
AcDbLine
 10
212.94649367746399
 20
-345.84212735837912
 11
212.44649367746399
 21
-346.34212735837912
  0
LINE
  5
260
100
AcDbEntity
  8
LC-001-002-----0
  6
CONTINUOUS
 62
             7
100
AcDbLine
 10
217.94649367746399
 20
-345.84212735837912
 11
218.44649367746399
 21
-346.34212735837912
  0
LINE
  5
25F
100
AcDbEntity
  8
LC-001-002-----0
  6
CONTINUOUS
 62
             7
100
AcDbLine
 10
217.94649367746399
 20
-345.84212735837912
 11
212.94649367746399
 21
-345.84212735837912
  0
LINE
  5
25E
100
AcDbEntity
  8
LC-001-002-----0
  6
CONTINUOUS
 62
             7
100
AcDbLine
 10
212.44649367746399
 20
-386.84214035837903
 11
212.44649367746399
 21
-386.84186635837898
  0
LINE
  5
25D
100
AcDbEntity
  8
LC-001-002-----0
  6
CONTINUOUS
 62
             7
100
AcDbLine
 10
212.44649367746399
 20
-395.34212735837912
 11
212.44649367746399
 21
-392.04214035837902
  0
LINE
  5
25C
100
AcDbEntity
  8
LC-001-002-----0
  6
CONTINUOUS
 62
             7
100
AcDbLine
 10
212.94649367746399
 20
-395.84212735837912
 11
217.94649367746399
 21
-395.84212735837912
  0
LINE
  5
25B
100
AcDbEntity
  8
LC-001-002-----0
  6
CONTINUOUS
 62
             7
100
AcDbLine
 10
218.44649367746399
 20
-386.84214035837903
 11
218.44649367746399
 21
-386.84182835837908
  0
LINE
  5
25A
100
AcDbEntity
  8
LC-001-002-----0
  6
CONTINUOUS
 62
             7
100
AcDbLine
 10
218.44649367746399
 20
-395.34212735837912
 11
218.44649367746399
 21
-392.04214035837902
  0
LINE
  5
259
100
AcDbEntity
  8
LC-004-003-----0
  6
CONTINUOUS
 62
             2
100
AcDbLine
 10
24.939562677464
 20
-351.29542235837903
 11
24.939562677464
 21
-345.84212735837912
  0
LINE
  5
258
100
AcDbEntity
  8
LC-004-003-----0
  6
CONTINUOUS
 62
             2
100
AcDbLine
 10
29.939562677464
 20
-351.29542235837903
 11
29.939562677464
 21
-345.84212735837912
  0
LINE
  5
257
100
AcDbEntity
  8
LC-001-002-----0
  6
CONTINUOUS
 62
             7
100
AcDbLine
 10
30.439562677464
 20
-351.29542235837903
 11
30.439562677464
 21
-346.34212735837912
  0
LINE
  5
256
100
AcDbEntity
  8
LC-001-002-----0
  6
CONTINUOUS
 62
             7
100
AcDbLine
 10
24.439562677464
 20
-351.29542235837903
 11
24.439562677464
 21
-346.34212735837912
  0
LINE
  5
255
100
AcDbEntity
  8
LC-010-006-MLN-0
  6
DASHDOT
 62
             2
100
AcDbLine
 10
27.439562677464
 20
-335.84212735837912
 11
27.439562677464
 21
-405.84212735837912
  0
LINE
  5
254
100
AcDbEntity
  8
LC-004-003-----0
  6
CONTINUOUS
 62
             2
100
AcDbLine
 10
29.939562677464
 20
-395.84212735837912
 11
29.939562677464
 21
-392.04214035837902
  0
LINE
  5
253
100
AcDbEntity
  8
LC-004-003-----0
  6
CONTINUOUS
 62
             2
100
AcDbLine
 10
24.939562677464
 20
-395.84212735837912
 11
24.939562677464
 21
-392.04214035837902
  0
LINE
  5
252
100
AcDbEntity
  8
LC-001-002-----0
  6
CONTINUOUS
 62
             7
100
AcDbLine
 10
30.439562677464
 20
-395.34212735837912
 11
24.439562677464
 21
-395.34212735837912
  0
LINE
  5
251
100
AcDbEntity
  8
LC-001-002-----0
  6
CONTINUOUS
 62
             7
100
AcDbLine
 10
24.939562677464
 20
-395.84212735837912
 11
24.439562677464
 21
-395.34212735837912
  0
LINE
  5
250
100
AcDbEntity
  8
LC-001-002-----0
  6
CONTINUOUS
 62
             7
100
AcDbLine
 10
29.939562677464
 20
-395.84212735837912
 11
30.439562677464
 21
-395.34212735837912
  0
LINE
  5
24F
100
AcDbEntity
  8
LC-001-002-----0
  6
CONTINUOUS
 62
             7
100
AcDbLine
 10
24.439562677464
 20
-346.34212735837912
 11
30.439562677464
 21
-346.34212735837912
  0
LINE
  5
24E
100
AcDbEntity
  8
LC-001-002-----0
  6
CONTINUOUS
 62
             7
100
AcDbLine
 10
29.939562677464
 20
-345.84212735837912
 11
30.439562677464
 21
-346.34212735837912
  0
LINE
  5
24D
100
AcDbEntity
  8
LC-001-002-----0
  6
CONTINUOUS
 62
             7
100
AcDbLine
 10
24.939562677464
 20
-345.84212735837912
 11
24.439562677464
 21
-346.34212735837912
  0
LINE
  5
24C
100
AcDbEntity
  8
LC-001-002-----0
  6
CONTINUOUS
 62
             7
100
AcDbLine
 10
24.939562677464
 20
-345.84212735837912
 11
29.939562677464
 21
-345.84212735837912
  0
LINE
  5
24B
100
AcDbEntity
  8
LC-001-002-----0
  6
CONTINUOUS
 62
             7
100
AcDbLine
 10
30.439562677464
 20
-395.34212735837912
 11
30.439562677464
 21
-392.04214035837902
  0
LINE
  5
24A
100
AcDbEntity
  8
LC-001-002-----0
  6
CONTINUOUS
 62
             7
100
AcDbLine
 10
29.939562677464
 20
-395.84212735837912
 11
24.939562677464
 21
-395.84212735837912
  0
LINE
  5
249
100
AcDbEntity
  8
LC-001-002-----0
  6
CONTINUOUS
 62
             7
100
AcDbLine
 10
24.439562677464
 20
-395.34212735837912
 11
24.439562677464
 21
-392.04214035837902
  0
LINE
  5
248
100
AcDbEntity
  8
LC-001-002-----0
  6
CONTINUOUS
 62
             7
100
AcDbLine
 10
30.326314677464
 20
-391.37301235837901
 11
30.326314677464
 21
-387.51129535837902
  0
LINE
  5
247
100
AcDbEntity
  8
LC-001-002-----0
  6
CONTINUOUS
 62
             7
100
AcDbLine
 10
24.55281167746399
 20
-391.373063358379
 11
24.55281167746399
 21
-387.50554035837911
  0
LINE
  5
246
100
AcDbEntity
  8
LC-001-002-----0
  6
CONTINUOUS
 62
             7
100
AcDbLine
 10
33.213065677464
 20
-387.51126835837903
 11
33.213065677464
 21
-391.37301135837907
  0
LINE
  5
245
100
AcDbEntity
  8
LC-001-002-----0
  6
CONTINUOUS
 62
             7
100
AcDbLine
 10
21.66606067746399
 20
-387.51126835837903
 11
21.66606067746399
 21
-391.37301135837907
  0
LINE
  5
244
100
AcDbEntity
  8
LC-001-002-----0
  6
CONTINUOUS
 62
             7
100
AcDbLine
 10
23.10943467746399
 20
-386.84214035837903
 11
31.769688677464
 21
-386.84214035837903
  0
LINE
  5
243
100
AcDbEntity
  8
LC-001-002-----0
  6
CONTINUOUS
 62
             7
100
AcDbLine
 10
23.10943467746399
 20
-392.04214035837902
 11
31.769689677464
 21
-392.04214035837902
  0
LINE
  5
242
100
AcDbEntity
  8
LC-001-002-----0
  6
CONTINUOUS
 62
             7
100
AcDbLine
 10
210.448717677464
 20
-351.29542235837903
 11
209.63870167746401
 21
-358.58556535837909
  0
LINE
  5
241
100
AcDbEntity
  8
LC-001-002-----0
  6
CONTINUOUS
 62
             7
100
AcDbLine
 10
200.89383367746399
 20
-350.32006535837911
 11
207.98234067746401
 21
-358.58556535837909
  0
LINE
  5
240
100
AcDbEntity
  8
LC-001-002-----0
  6
CONTINUOUS
 62
             7
100
AcDbLine
 10
208.76081767746399
 20
-345.60759635837911
 11
210.448717677464
 21
-351.29542235837903
  0
LINE
  5
23F
100
AcDbEntity
  8
LC-001-002-----0
  6
CONTINUOUS
 62
             7
100
AcDbLine
 10
220.448717677464
 20
-351.29542235837903
 11
210.448717677464
 21
-351.29542235837903
  0
LINE
  5
23E
100
AcDbEntity
  8
LC-001-002-----0
  6
CONTINUOUS
 62
             7
100
AcDbLine
 10
222.13661667746399
 20
-345.60759635837911
 11
220.448717677464
 21
-351.29542235837903
  0
LINE
  5
23D
100
AcDbEntity
  8
LC-001-002-----0
  6
CONTINUOUS
 62
             7
100
AcDbLine
 10
230.00360167746399
 20
-350.32006535837911
 11
222.915093677464
 21
-358.58556535837909
  0
LINE
  5
23C
100
AcDbEntity
  8
LC-001-002-----0
  6
CONTINUOUS
 62
             7
100
AcDbLine
 10
221.25873367746399
 20
-358.58556535837909
 11
220.448717677464
 21
-351.29542235837903
  0
LINE
  5
23B
100
AcDbEntity
  8
LC-001-002-----0
  6
CONTINUOUS
 62
             7
100
AcDbLine
 10
206.44304167746401
 20
-390.32149035837898
 11
202.94366067746401
 21
-390.321506358379
  0
LINE
  5
23A
100
AcDbEntity
  8
LC-001-002-----0
  6
CONTINUOUS
 62
             7
100
AcDbLine
 10
207.943032677464
 20
-387.34189435837902
 11
207.943034677464
 21
-388.82148035837912
  0
LINE
  5
239
100
AcDbEntity
  8
LC-001-002-----0
  6
CONTINUOUS
 62
             7
100
AcDbLine
 10
36.44304267746399
 20
-390.32202235837912
 11
39.94304367746399
 21
-390.32201535837902
  0
LINE
  5
238
100
AcDbEntity
  8
LC-001-002-----0
  6
CONTINUOUS
 62
             7
100
AcDbLine
 10
34.943039677464
 20
-387.34243635837908
 11
34.943039677464
 21
-388.82202235837912
  0
LINE
  5
237
100
AcDbEntity
  8
LC-001-002-----0
  6
CONTINUOUS
 62
             7
100
AcDbLine
 10
211.94303767746399
 20
-386.84186935837909
 11
208.44302967746401
 21
-386.84189135837897
  0
LINE
  5
236
100
AcDbEntity
  8
LC-001-002-----0
  6
CONTINUOUS
 62
             7
100
AcDbLine
 10
19.943023677464
 20
-373.74926235837899
 11
19.943023677464
 21
-385.34243635837908
  0
LINE
  5
235
100
AcDbEntity
  8
LC-001-002-----0
  6
CONTINUOUS
 62
             7
100
AcDbLine
 10
218.94303767746399
 20
-386.84182535837903
 11
218.196547677464
 21
-386.84183035837913
  0
LINE
  5
234
100
AcDbEntity
  8
LC-001-002-----0
  6
CONTINUOUS
 62
             7
100
AcDbLine
 10
-3.55703632253601
 20
-364.84583635837907
 11
19.61403367746399
 21
-373.27941635837908
  0
LINE
  5
233
100
AcDbEntity
  8
LC-001-002-----0
  6
CONTINUOUS
 62
             7
100
AcDbLine
 10
41.992222677464
 20
-350.32006535837911
 11
34.903391677464
 21
-358.58594235837899
  0
LINE
  5
232
100
AcDbEntity
  8
LC-001-002-----0
  6
CONTINUOUS
 62
             7
100
AcDbLine
 10
12.882454677464
 20
-350.32006535837911
 11
19.971333677464
 21
-358.58599835837902
  0
LINE
  5
231
100
AcDbEntity
  8
LC-001-002-----0
  6
CONTINUOUS
 62
             7
100
AcDbLine
 10
221.443045677464
 20
-386.84180935837901
 11
218.94303767746399
 21
-386.84182535837903
  0
LINE
  5
230
100
AcDbEntity
  8
LC-001-002-----0
  6
CONTINUOUS
 62
             7
100
AcDbLine
 10
20.749439677464
 20
-345.60759635837911
 11
22.43733867746398
 21
-351.29542235837903
  0
LINE
  5
22F
100
AcDbEntity
  8
LC-001-002-----0
  6
CONTINUOUS
 62
             7
100
AcDbLine
 10
222.942956677464
 20
-373.74862635837911
 11
222.94303667746399
 21
-385.34180035837898
  0
LINE
  5
22E
100
AcDbEntity
  8
LC-001-002-----0
  6
CONTINUOUS
 62
             7
100
AcDbLine
 10
32.43733867746398
 20
-351.29542235837903
 11
33.24739767746401
 21
-358.58594835837903
  0
LINE
  5
22D
100
AcDbEntity
  8
LC-001-002-----0
  6
CONTINUOUS
 62
             7
100
AcDbLine
 10
21.627275677464
 20
-358.58599135837898
 11
22.43733867746398
 21
-351.29542235837903
  0
LINE
  5
22C
100
AcDbEntity
  8
LC-001-002-----0
  6
CONTINUOUS
 62
             7
100
AcDbLine
 10
-3.55703632253601
 20
-364.84583635837907
 11
-3.215015322536
 21
-363.90614435837898
  0
LINE
  5
22B
100
AcDbEntity
  8
LC-001-002-----0
  6
CONTINUOUS
 62
             7
100
AcDbLine
 10
34.125238677464
 20
-345.60759635837911
 11
32.43733867746398
 21
-351.29542235837903
  0
LINE
  5
22A
100
AcDbEntity
  8
LC-001-002-----0
  6
CONTINUOUS
 62
             7
100
AcDbLine
 10
246.44296067746399
 20
-364.845053358379
 11
246.10093467746401
 21
-363.90536335837908
  0
LINE
  5
229
100
AcDbEntity
  8
LC-001-002-----0
  6
CONTINUOUS
 62
             7
100
AcDbLine
 10
22.43733867746398
 20
-351.29542235837903
 11
32.43733867746398
 21
-351.29542235837903
  0
LINE
  5
228
100
AcDbEntity
  8
LC-001-002-----0
  6
CONTINUOUS
 62
             7
100
AcDbLine
 10
31.775519677464
 20
-386.84243635837908
 11
34.443039677464
 21
-386.84243635837908
  0
LINE
  5
227
100
AcDbEntity
  8
LC-001-002-----0
  6
CONTINUOUS
 62
             7
100
AcDbLine
 10
246.44296067746399
 20
-364.845053358379
 11
223.27194367746401
 21
-373.2787783583791
  0
LINE
  5
226
100
AcDbEntity
  8
LC-001-002-----0
  6
CONTINUOUS
 62
             7
100
AcDbLine
 10
188.93557667746401
 20
-462.58704235837911
 11
193.94298467746401
 21
-462.58704235837911
  0
LINE
  5
225
100
AcDbEntity
  8
LC-001-002-----0
  6
CONTINUOUS
 62
             7
100
AcDbLine
 10
188.93557667746401
 20
-465.08704235837911
 11
188.93557667746401
 21
-462.58704235837911
  0
LINE
  5
224
100
AcDbEntity
  8
LC-001-002-----0
  6
CONTINUOUS
 62
             7
100
AcDbLine
 10
178.934288677464
 20
-465.08704235837911
 11
188.93557667746401
 21
-465.08704235837911
  0
LINE
  5
223
100
AcDbEntity
  8
LC-001-002-----0
  6
CONTINUOUS
 62
             7
100
AcDbLine
 10
53.950392677464
 20
-465.08704235837911
 11
63.95168167746399
 21
-465.08704235837911
  0
LINE
  5
222
100
AcDbEntity
  8
LC-001-002-----0
  6
CONTINUOUS
 62
             7
100
AcDbLine
 10
53.950392677464
 20
-462.58704235837911
 11
53.950392677464
 21
-465.08704235837911
  0
LINE
  5
221
100
AcDbEntity
  8
LC-001-002-----0
  6
CONTINUOUS
 62
             7
100
AcDbLine
 10
48.942984677464
 20
-462.58704235837911
 11
53.950392677464
 21
-462.58704235837911
  0
LINE
  5
220
100
AcDbEntity
  8
LC-001-002-----0
  6
CONTINUOUS
 62
             7
100
AcDbLine
 10
21.443023677464
 20
-386.84243635837908
 11
23.10360467746399
 21
-386.84243635837908
  0
LINE
  5
21F
100
AcDbEntity
  8
LC-001-002-----0
  6
CONTINUOUS
 62
             7
100
AcDbLine
 10
201.94298467746401
 20
-452.58704235837911
 11
198.94298467746401
 21
-452.58704235837911
  0
LINE
  5
21E
100
AcDbEntity
  8
LC-001-002-----0
  6
CONTINUOUS
 62
             7
100
AcDbLine
 10
201.94298467746401
 20
-454.58704235837911
 11
201.94298467746401
 21
-452.58704235837911
  0
LINE
  5
21D
100
AcDbEntity
  8
LC-001-002-----0
  6
CONTINUOUS
 62
             7
100
AcDbLine
 10
40.942984677464
 20
-454.58704235837911
 11
40.942984677464
 21
-452.58704235837911
  0
LINE
  5
21C
100
AcDbEntity
  8
LC-001-002-----0
  6
CONTINUOUS
 62
             7
100
AcDbLine
 10
40.942984677464
 20
-452.58704235837911
 11
43.942984677464
 21
-452.58704235837911
  0
LINE
  5
21B
100
AcDbEntity
  8
LC-001-002-----0
  6
CONTINUOUS
 62
             7
100
AcDbLine
 10
37.136235677464
 20
-358.58593435837912
 11
38.78257767746401
 21
-354.06264835837908
  0
LINE
  5
21A
100
AcDbEntity
  8
LC-001-002-----0
  6
CONTINUOUS
 62
             7
100
AcDbLine
 10
205.74975567746401
 20
-358.58556535837909
 11
204.10357567746399
 21
-354.06276135837902
  0
LINE
  5
219
100
AcDbEntity
  8
LC-001-002-----0
  6
CONTINUOUS
 62
             7
100
AcDbLine
 10
218.196547677464
 20
-386.84183035837913
 11
211.94303767746399
 21
-386.84186935837909
  0
LINE
  5
218
100
AcDbEntity
  8
LC-001-002-----0
  6
CONTINUOUS
 62
             7
100
AcDbLine
 10
12.884635677464
 20
-350.32006535837911
 11
19.973513677464
 21
-358.58599835837902
  0
LINE
  5
217
100
AcDbEntity
  8
LC-001-002-----0
  6
CONTINUOUS
 62
             7
100
AcDbLine
 10
41.99440367746401
 20
-350.32006535837911
 11
34.90557267746401
 21
-358.58594235837899
  0
LINE
  5
216
100
AcDbEntity
  8
LC-001-002-----0
  6
CONTINUOUS
 62
             7
100
AcDbLine
 10
34.12741967746401
 20
-345.60759635837911
 11
32.43951967746399
 21
-351.29542235837903
  0
LINE
  5
215
100
AcDbEntity
  8
LC-001-002-----0
  6
CONTINUOUS
 62
             7
100
AcDbLine
 10
22.43951967746399
 20
-351.29542235837903
 11
21.62945667746401
 21
-358.58599135837898
  0
LINE
  5
214
100
AcDbEntity
  8
LC-001-002-----0
  6
CONTINUOUS
 62
             7
100
AcDbLine
 10
33.24957767746399
 20
-358.58594835837903
 11
32.43951967746399
 21
-351.29542235837903
  0
LINE
  5
213
100
AcDbEntity
  8
LC-001-002-----0
  6
CONTINUOUS
 62
             7
100
AcDbLine
 10
20.75161967746401
 20
-345.60759635837911
 11
22.43951967746399
 21
-351.29542235837903
  0
LINE
  5
212
100
AcDbEntity
  8
LC-001-002-----0
  6
CONTINUOUS
 62
             7
100
AcDbLine
 10
32.43951967746399
 20
-351.29542235837903
 11
22.43951967746399
 21
-351.29542235837903
  0
POINT
  5
211
100
AcDbEntity
  8
LC-004-003-----0
 62
             7
100
AcDbPoint
 10
222.94299667746401
 20
-379.5452133583791
  0
POINT
  5
210
100
AcDbEntity
  8
LC-004-003-----0
 62
             7
100
AcDbPoint
 10
19.943023677464
 20
-379.54584935837909
  0
POINT
  5
20F
100
AcDbEntity
  8
LC-004-003-----0
 62
             7
100
AcDbPoint
 10
48.942984677464
 20
-462.58704235837911
  0
POINT
  5
20E
100
AcDbEntity
  8
LC-004-003-----0
 62
             7
100
AcDbPoint
 10
-55.556960322536
 20
-361.59416735837902
  0
POINT
  5
20D
100
AcDbEntity
  8
LC-004-003-----0
 62
             7
100
AcDbPoint
 10
298.442843677464
 20
-361.58466735837908
  0
POINT
  5
20C
100
AcDbEntity
  8
LC-004-003-----0
 62
             7
100
AcDbPoint
 10
-55.556960322536
 20
-361.59416735837902
  0
POINT
  5
20B
100
AcDbEntity
  8
LC-004-003-----0
 62
             7
100
AcDbPoint
 10
201.44298467746401
 20
-452.58704235837911
  0
POINT
  5
20A
100
AcDbEntity
  8
LC-004-003-----0
 62
             7
100
AcDbPoint
 10
41.442984677464
 20
-450.18772635837911
  0
POINT
  5
209
100
AcDbEntity
  8
LC-004-003-----0
 62
             7
100
AcDbPoint
 10
158.94298467746401
 20
-515.08704235837911
  0
POINT
  5
208
100
AcDbEntity
  8
LC-004-003-----0
 62
             7
100
AcDbPoint
 10
83.942984677464
 20
-515.08704235837911
  0
INSERT
  5
8F
100
AcDbEntity
  8
LC-001-002-----0
100
AcDbBlockReference
  2
BLK17
 10
151.31297268026779
 20
38.31682348414
  0
INSERT
  5
90
100
AcDbEntity
  8
LC-001-002-----0
100
AcDbBlockReference
  2
BLK18
 10
151.31297268026779
 20
38.31682348414
  0
INSERT
  5
91
100
AcDbEntity
  8
LC-001-002-----0
100
AcDbBlockReference
  2
BLK19
 10
151.31297268026779
 20
38.31682348414
  0
INSERT
  5
92
100
AcDbEntity
  8
LC-001-002-----0
100
AcDbBlockReference
  2
BLK20
 10
151.31297268026779
 20
38.31682348414
  0
INSERT
  5
93
100
AcDbEntity
  8
LC-001-002-----0
100
AcDbBlockReference
  2
BLK21
 10
151.31297268026779
 20
38.31682348414
  0
INSERT
  5
94
100
AcDbEntity
  8
LC-001-002-----0
100
AcDbBlockReference
  2
BLK22
 10
151.31297268026779
 20
38.31682348414
  0
INSERT
  5
95
100
AcDbEntity
  8
LC-001-002-----0
100
AcDbBlockReference
  2
BLK23
 10
151.31297268026779
 20
38.31682348414
  0
INSERT
  5
96
100
AcDbEntity
  8
LC-001-002-----0
100
AcDbBlockReference
  2
BLK24
 10
151.31297268026779
 20
38.31682348414
  0
INSERT
  5
97
100
AcDbEntity
  8
LC-001-002-----0
100
AcDbBlockReference
  2
BLK26
 10
151.31297268026779
 20
38.31682348414
  0
INSERT
  5
98
100
AcDbEntity
  8
LC-001-002-----0
100
AcDbBlockReference
  2
BLK27
 10
151.31297268026779
 20
38.31682348414
  0
INSERT
  5
99
100
AcDbEntity
  8
LC-001-002-----0
100
AcDbBlockReference
  2
BLK29
 10
151.31297268026779
 20
38.31682348414
  0
INSERT
  5
9A
100
AcDbEntity
  8
LC-001-002-----0
100
AcDbBlockReference
  2
BLK30
 10
151.31297268026779
 20
38.31682348414
  0
INSERT
  5
9B
100
AcDbEntity
  8
LC-001-002-----0
100
AcDbBlockReference
  2
BLK32
 10
151.31297268026779
 20
38.31682348414
  0
INSERT
  5
9C
100
AcDbEntity
  8
LC-001-002-----0
100
AcDbBlockReference
  2
BLK33
 10
151.31297268026779
 20
38.31682348414
  0
INSERT
  5
9D
100
AcDbEntity
  8
LC-001-002-----0
100
AcDbBlockReference
  2
BLK34
 10
151.31297268026779
 20
38.31682348414
  0
INSERT
  5
9E
100
AcDbEntity
  8
LC-001-002-----0
100
AcDbBlockReference
  2
BLK35
 10
151.31297268026779
 20
38.31682348414
  0
INSERT
  5
9F
100
AcDbEntity
  8
LC-001-002-----0
100
AcDbBlockReference
  2
BLK36
 10
151.31297268026779
 20
38.31682348414
  0
INSERT
  5
A0
100
AcDbEntity
  8
LC-001-002-----0
100
AcDbBlockReference
  2
BLK37
 10
151.31297268026779
 20
38.31682348414
  0
INSERT
  5
A1
100
AcDbEntity
  8
LC-001-002-----0
100
AcDbBlockReference
  2
BLK38
 10
151.31297268026779
 20
38.31682348414
  0
INSERT
  5
A2
100
AcDbEntity
  8
LC-001-002-----0
100
AcDbBlockReference
  2
BLK39
 10
151.31297268026779
 20
38.31682348414
  0
INSERT
  5
A3
100
AcDbEntity
  8
LC-001-002-----0
100
AcDbBlockReference
  2
BLK41
 10
151.31297268026779
 20
38.31682348414
  0
INSERT
  5
A4
100
AcDbEntity
  8
LC-001-002-----0
100
AcDbBlockReference
  2
BLK42
 10
151.31297268026779
 20
38.31682348414
  0
INSERT
  5
A5
100
AcDbEntity
  8
LC-001-002-----0
100
AcDbBlockReference
  2
BLK44
 10
151.31297268026779
 20
38.31682348414
  0
INSERT
  5
A6
100
AcDbEntity
  8
LC-001-002-----0
100
AcDbBlockReference
  2
BLK45
 10
151.31297268026779
 20
38.31682348414
  0
INSERT
  5
A7
100
AcDbEntity
  8
LC-001-002-----0
100
AcDbBlockReference
  2
BLK51
 10
151.31297268026779
 20
38.31682348414
  0
INSERT
  5
A8
100
AcDbEntity
  8
LC-001-002-----0
100
AcDbBlockReference
  2
BLK52
 10
151.31297268026779
 20
38.31682348414
  0
INSERT
  5
A9
100
AcDbEntity
  8
LC-001-002-----0
100
AcDbBlockReference
  2
BLK53
 10
151.31297268026779
 20
38.31682348414
  0
INSERT
  5
AA
100
AcDbEntity
  8
LC-001-002-----0
100
AcDbBlockReference
  2
BLK54
 10
151.31297268026779
 20
38.31682348414
  0
INSERT
  5
AB
100
AcDbEntity
  8
LC-001-002-----0
100
AcDbBlockReference
  2
BLK55
 10
151.31297268026779
 20
38.31682348414
  0
INSERT
  5
AC
100
AcDbEntity
  8
LC-001-002-----0
100
AcDbBlockReference
  2
BLK56
 10
151.31297268026779
 20
38.31682348414
  0
INSERT
  5
AD
100
AcDbEntity
  8
LC-001-002-----0
100
AcDbBlockReference
  2
BLK57
 10
151.31297268026779
 20
38.31682348414
  0
INSERT
  5
AE
100
AcDbEntity
  8
LC-001-002-----0
100
AcDbBlockReference
  2
BLK58
 10
151.31297268026779
 20
38.31682348414
  0
INSERT
  5
AF
100
AcDbEntity
  8
LC-001-002-----0
100
AcDbBlockReference
  2
BLK59
 10
151.31297268026779
 20
38.31682348414
  0
INSERT
  5
B0
100
AcDbEntity
  8
LC-001-002-----0
100
AcDbBlockReference
  2
BLK60
 10
151.31297268026779
 20
38.31682348414
  0
INSERT
  5
B1
100
AcDbEntity
  8
LC-001-002-----0
100
AcDbBlockReference
  2
BLK61
 10
151.31297268026779
 20
38.31682348414
  0
INSERT
  5
B2
100
AcDbEntity
  8
LC-001-002-----0
100
AcDbBlockReference
  2
BLK62
 10
151.31297268026779
 20
38.31682348414
  0
INSERT
  5
B3
100
AcDbEntity
  8
LC-001-002-----0
100
AcDbBlockReference
  2
BLK67
 10
151.31297268026779
 20
38.31682348414
  0
INSERT
  5
B4
100
AcDbEntity
  8
LC-001-002-----0
100
AcDbBlockReference
  2
BLK68
 10
151.31297268026779
 20
38.31682348414
  0
INSERT
  5
B5
100
AcDbEntity
  8
LC-001-002-----0
100
AcDbBlockReference
  2
BLK69
 10
151.31297268026779
 20
38.31682348414
  0
INSERT
  5
B6
100
AcDbEntity
  8
LC-001-002-----0
100
AcDbBlockReference
  2
BLK70
 10
151.31297268026779
 20
38.31682348414
  0
INSERT
  5
B7
100
AcDbEntity
  8
LC-001-002-----0
100
AcDbBlockReference
  2
BLK71
 10
151.31297268026779
 20
38.31682348414
  0
INSERT
  5
B8
100
AcDbEntity
  8
LC-001-002-----0
100
AcDbBlockReference
  2
BLK72
 10
151.31297268026779
 20
38.31682348414
  0
INSERT
  5
B9
100
AcDbEntity
  8
LC-001-002-----0
100
AcDbBlockReference
  2
BLK73
 10
151.31297268026779
 20
38.31682348414
  0
INSERT
  5
BA
100
AcDbEntity
  8
LC-001-002-----0
100
AcDbBlockReference
  2
BLK74
 10
151.31297268026779
 20
38.31682348414
  0
INSERT
  5
BB
100
AcDbEntity
  8
LC-001-002-----0
100
AcDbBlockReference
  2
BLK75
 10
151.31297268026779
 20
38.31682348414
  0
INSERT
  5
BC
100
AcDbEntity
  8
LC-001-002-----0
100
AcDbBlockReference
  2
BLK76
 10
151.31297268026779
 20
38.31682348414
  0
INSERT
  5
BD
100
AcDbEntity
  8
LC-001-002-----0
100
AcDbBlockReference
  2
BLK77
 10
151.31297268026779
 20
38.31682348414
  0
INSERT
  5
BE
100
AcDbEntity
  8
LC-001-002-----0
100
AcDbBlockReference
  2
BLK78
 10
151.31297268026779
 20
38.31682348414
  0
ENDBLK
  5
302
100
AcDbEntity
  8
0
100
AcDbBlockEnd
  0
BLOCK
  5
C0
100
AcDbEntity
  8
0
100
AcDbBlockBegin
  2
HL_62_1_7_DACHABLAU0
 70
             0
 10
121.443028677464
 20
-361.58491835837901
 30
0.0
  3
HL_62_1_7_DACHABLAU0
  1

  0
DIMENSION
  5
33A
100
AcDbEntity
  8
1
100
AcDbDimension
  2
*D55
 10
-65.55695832253601
 20
-361.58627735837911
 11
-75.05695832253601
 21
-411.74501098250312
 31
0.0
 53
90.0
  1
100
  3
ME10_DIM_4
100
AcDbAlignedDimension
 13
48.942984677464
 23
-462.58704235837911
 14
-55.55695832253601
 24
-361.58627735837911
 50
90.0
100
AcDbRotatedDimension
  0
DIMENSION
  5
32F
100
AcDbEntity
  8
1
100
AcDbDimension
  2
*D54
 10
-55.556964322517
 20
-262.52207866541107
 11
119.69567052752321
 21
-253.0220786654111
 31
0.0
 53
180.0
  1
<>
  3
ME10_DIM_3
100
AcDbAlignedDimension
 13
298.44302667746399
 23
-361.58466735837908
 14
-55.556964322517
 24
-360.58627801521209
 50
180.0
100
AcDbRotatedDimension
  0
DIMENSION
  5
324
100
AcDbEntity
  8
1
100
AcDbDimension
  2
*D53
 10
19.94302367746401
 20
-610.56513507156512
 11
121.60799501327131
 21
-601.06513507156512
 31
0.0
 53
180.0
  1
<>
  3
ME10_DIM_2
100
AcDbAlignedDimension
 13
222.94303667746399
 23
-385.34180035837898
 14
19.943023677464
 24
-385.34243635837908
 50
180.0
100
AcDbRotatedDimension
  0
DIMENSION
  5
319
100
AcDbEntity
  8
1
100
AcDbDimension
  2
*D52
 10
40.942984677464
 20
-580.92410554246908
 11
122.56415725614529
 21
-571.42410554246908
 31
0.0
 53
180.0
  1
Ø160
  3
ME10_DIM_1
100
AcDbAlignedDimension
 13
201.94298467746401
 23
-454.58704235837911
 14
40.942984677464
 24
-454.58704235837911
 50
180.0
100
AcDbRotatedDimension
  0
DIMENSION
  5
30E
100
AcDbEntity
  8
1
100
AcDbDimension
  2
*D51
 10
83.943028677464
 20
-548.41458928475208
 11
121.60799501327131
 21
-538.91458928475208
 31
0.0
 53
180.0
  1
<>
  3
ME10_DIM_0
100
AcDbAlignedDimension
 13
158.94302867746401
 23
-515.08704235837911
 14
83.943028677464
 24
-515.08704235837911
 50
180.0
100
AcDbRotatedDimension
  0
INSERT
  5
C1
100
AcDbEntity
  8
1
100
AcDbBlockReference
  2
062_1E_LAUBFANGKORB
 10
41.99717067746398
 20
-518.58704235837911
  0
INSERT
  5
C2
100
AcDbEntity
  8
0
100
AcDbBlockReference
  2
HL_62_1_7_DACHABLAUF
 10
151.31297268026779
 20
38.31682348414
  0
ENDBLK
  5
33B
100
AcDbEntity
  8
0
100
AcDbBlockEnd
  0
BLOCK
  5
304
100
AcDbEntity
  8
0
100
AcDbBlockBegin
  2
*D51
 70
             1
 10
0.0
 20
0.0
 30
0.0
  3
*D51
  1

  0
LINE
  5
305
100
AcDbEntity
  8
0
  6
CONTINUOUS
 62
             4
100
AcDbLine
 10
83.943028677464
 20
-548.41458928475208
 11
158.94302867746401
 21
-548.41458928475208
  0
LINE
  5
306
100
AcDbEntity
  8
0
  6
CONTINUOUS
 62
             4
100
AcDbLine
 10
83.943028677464
 20
-515.08704235837911
 11
83.943028677464
 21
-550.41458928475208
  0
LINE
  5
307
100
AcDbEntity
  8
0
  6
CONTINUOUS
 62
             4
100
AcDbLine
 10
158.94302867746401
 20
-515.08704235837911
 11
158.94302867746401
 21
-550.41458928475208
  0
SOLID
  5
308
100
AcDbEntity
  8
0
 62
             4
100
AcDbTrace
 10
98.943028677464
 20
-546.43980182094117
 11
98.943028677464
 21
-550.389376748563
 12
83.943028677464
 22
-548.41458928475208
 13
83.943028677464
 23
-548.41458928475208
  0
SOLID
  5
309
100
AcDbEntity
  8
0
 62
             4
100
AcDbTrace
 10
143.94302867746401
 20
-550.389376748563
 11
143.94302867746401
 21
-546.43980182094117
 12
158.94302867746401
 22
-548.41458928475208
 13
158.94302867746401
 23
-548.41458928475208
  0
MTEXT
  5
30B
100
AcDbEntity
  8
0
 62
             1
100
AcDbMText
 10
102.25799501334359
 20
-546.41464891683484
 30
0.0
 40
15.0
 41
0.0
 71
             7
 72
             1
  1
\C1;DN\C1;75
  7
CONVERTER_1
 11
0.99999999999706
 21
0.00000242406841
 31
0.0
  0
ENDBLK
  5
30C
100
AcDbEntity
  8
0
100
AcDbBlockEnd
  0
BLOCK
  5
310
100
AcDbEntity
  8
0
100
AcDbBlockBegin
  2
*D52
 70
             1
 10
0.0
 20
0.0
 30
0.0
  3
*D52
  1

  0
LINE
  5
311
100
AcDbEntity
  8
0
  6
CONTINUOUS
 62
             4
100
AcDbLine
 10
40.942984677464
 20
-580.92410554246908
 11
201.94298467746398
 21
-580.92410554246908
  0
LINE
  5
312
100
AcDbEntity
  8
0
  6
CONTINUOUS
 62
             4
100
AcDbLine
 10
40.942984677464
 20
-454.58704235837911
 11
40.942984677464
 21
-582.92410554246908
  0
LINE
  5
313
100
AcDbEntity
  8
0
  6
CONTINUOUS
 62
             4
100
AcDbLine
 10
201.94298467746398
 20
-454.58704235837911
 11
201.94298467746398
 21
-582.92410554246908
  0
SOLID
  5
314
100
AcDbEntity
  8
0
 62
             4
100
AcDbTrace
 10
55.942984677464
 20
-578.94931807865817
 11
55.942984677464
 21
-582.89889300627999
 12
40.942984677464
 22
-580.92410554246908
 13
40.942984677464
 23
-580.92410554246908
  0
SOLID
  5
315
100
AcDbEntity
  8
0
 62
             4
100
AcDbTrace
 10
186.94298467746398
 20
-582.89889300627999
 11
186.94298467746398
 21
-578.94931807865817
 12
201.94298467746398
 22
-580.92410554246908
 13
201.94298467746398
 23
-580.92410554246908
  0
MTEXT
  5
316
100
AcDbEntity
  8
0
 62
             1
100
AcDbMText
 10
103.51415725618143
 20
-578.92413535851051
 30
0.0
 40
15.0
 41
0.0
 71
             7
 72
             1
  1
\C1;Ø\C1;160
  7
CONVERTER_1
 11
0.99999999999706
 21
0.00000242406841
 31
0.0
  0
ENDBLK
  5
317
100
AcDbEntity
  8
0
100
AcDbBlockEnd
  0
BLOCK
  5
31B
100
AcDbEntity
  8
0
100
AcDbBlockBegin
  2
*D53
 70
             1
 10
0.0
 20
0.0
 30
0.0
  3
*D53
  1

  0
LINE
  5
31C
100
AcDbEntity
  8
0
  6
CONTINUOUS
 62
             4
100
AcDbLine
 10
19.94302367746401
 20
-610.56513507156512
 11
222.94303667746402
 21
-610.56513507156512
  0
LINE
  5
31D
100
AcDbEntity
  8
0
  6
CONTINUOUS
 62
             4
100
AcDbLine
 10
19.94302367746401
 20
-385.34243635837925
 11
19.94302367746401
 21
-612.56513507156512
  0
LINE
  5
31E
100
AcDbEntity
  8
0
  6
CONTINUOUS
 62
             4
100
AcDbLine
 10
222.94303667746402
 20
-385.34180035837915
 11
222.94303667746402
 21
-612.56513507156512
  0
SOLID
  5
31F
100
AcDbEntity
  8
0
 62
             4
100
AcDbTrace
 10
34.94302367746401
 20
-608.59034760775421
 11
34.94302367746401
 21
-612.53992253537604
 12
19.94302367746401
 22
-610.56513507156512
 13
19.94302367746401
 23
-610.56513507156512
  0
SOLID
  5
320
100
AcDbEntity
  8
0
 62
             4
100
AcDbTrace
 10
207.94303667746402
 20
-612.53992253537604
 11
207.94303667746402
 21
-608.59034760775421
 12
222.94303667746402
 22
-610.56513507156512
 13
222.94303667746402
 23
-610.56513507156512
  0
MTEXT
  5
321
100
AcDbEntity
  8
0
 62
             1
100
AcDbMText
 10
100.30799501330745
 20
-608.56516488760656
 30
0.0
 40
15.0
 41
0.0
 71
             7
 72
             1
  1
\C1;Ø\C1;203
  7
CONVERTER_1
 11
0.99999999999706
 21
0.00000242406841
 31
0.0
  0
ENDBLK
  5
322
100
AcDbEntity
  8
0
100
AcDbBlockEnd
  0
BLOCK
  5
326
100
AcDbEntity
  8
0
100
AcDbBlockBegin
  2
*D54
 70
             1
 10
0.0
 20
0.0
 30
0.0
  3
*D54
  1

  0
LINE
  5
327
100
AcDbEntity
  8
0
  6
CONTINUOUS
 62
             4
100
AcDbLine
 10
-55.556964322517
 20
-262.52207866541107
 11
298.44302667746399
 21
-262.52207866541107
  0
LINE
  5
328
100
AcDbEntity
  8
0
  6
CONTINUOUS
 62
             4
100
AcDbLine
 10
-55.556964322517
 20
-360.58627801521209
 11
-55.556964322517
 21
-260.52207866541107
  0
LINE
  5
329
100
AcDbEntity
  8
0
  6
CONTINUOUS
 62
             4
100
AcDbLine
 10
298.44302667746399
 20
-361.58466735837908
 11
298.44302667746399
 21
-260.52207866541107
  0
SOLID
  5
32A
100
AcDbEntity
  8
0
 62
             4
100
AcDbTrace
 10
-40.556964322517
 20
-260.54729120160016
 11
-40.556964322517
 21
-264.49686612922198
 12
-55.556964322517
 22
-262.52207866541107
 13
-55.556964322517
 23
-262.52207866541107
  0
SOLID
  5
32B
100
AcDbEntity
  8
0
 62
             4
100
AcDbTrace
 10
283.44302667746399
 20
-264.49686612922198
 11
283.44302667746399
 21
-260.54729120160016
 12
298.44302667746399
 22
-262.52207866541107
 13
298.44302667746399
 23
-262.52207866541107
  0
MTEXT
  5
32C
100
AcDbEntity
  8
0
 62
             1
100
AcDbMText
 10
98.39567052755935
 20
-260.52210848145245
 30
0.0
 40
15.0
 41
0.0
 71
             7
 72
             1
  1
\C1;Ø\C1;354
  7
CONVERTER_1
 11
0.99999999999706
 21
0.00000242406841
 31
0.0
  0
ENDBLK
  5
32D
100
AcDbEntity
  8
0
100
AcDbBlockEnd
  0
BLOCK
  5
331
100
AcDbEntity
  8
0
100
AcDbBlockBegin
  2
*D55
 70
             1
 10
0.0
 20
0.0
 30
0.0
  3
*D55
  1

  0
LINE
  5
332
100
AcDbEntity
  8
0
  6
CONTINUOUS
 62
             4
100
AcDbLine
 10
-65.55695832253601
 20
-361.58627735837911
 11
-65.55695832253601
 21
-462.58704235837911
  0
LINE
  5
333
100
AcDbEntity
  8
0
  6
CONTINUOUS
 62
             4
100
AcDbLine
 10
-55.55695832253601
 20
-361.58627735837911
 11
-67.55695832253601
 21
-361.58627735837911
  0
LINE
  5
334
100
AcDbEntity
  8
0
  6
CONTINUOUS
 62
             4
100
AcDbLine
 10
48.942984677464
 20
-462.58704235837911
 11
-67.55695832253601
 21
-462.58704235837911
  0
SOLID
  5
335
100
AcDbEntity
  8
0
 62
             4
100
AcDbTrace
 10
-63.58217085872507
 20
-376.58627735837911
 11
-67.53174578634695
 21
-376.58627735837911
 12
-65.55695832253601
 22
-361.58627735837911
 13
-65.55695832253601
 23
-361.58627735837911
  0
SOLID
  5
336
100
AcDbEntity
  8
0
 62
             4
100
AcDbTrace
 10
-67.53174578634695
 20
-447.58704235837911
 11
-63.58217085872506
 21
-447.58704235837911
 12
-65.55695832253601
 22
-462.58704235837911
 13
-65.55695832253601
 23
-462.58704235837911
  0
MTEXT
  5
337
100
AcDbEntity
  8
0
 62
             1
100
AcDbMText
 10
-67.55695832253601
 20
-427.49501098250312
 30
0.0
 40
15.0
 41
0.0
 71
             7
 72
             1
  1
100
  7
CONVERTER_1
 11
0.0
 21
1.0
 31
0.0
  0
ENDBLK
  5
338
100
AcDbEntity
  8
0
100
AcDbBlockEnd
  0
ENDSEC
  0
SECTION
  2
ENTITIES
  0
INSERT
  5
C5
100
AcDbEntity
  8
0
100
AcDbBlockReference
  2
HL_62_1_7_DACHABLAU0
 10
121.443028677464
 20
-361.58491835837901
  0
ENDSEC
  0
SECTION
  2
OBJECTS
  0
DICTIONARY
  5
19
100
AcDbDictionary
  3
ACAD_GROUP
350
1A
  3
ACAD_MLINESTYLE
350
1B
  0
DICTIONARY
  5
1A
102
{ACAD_REACTORS
330
19
102
}
100
AcDbDictionary
  0
DICTIONARY
  5
1B
102
{ACAD_REACTORS
330
19
102
}
100
AcDbDictionary
  3
STANDARD
350
1C
  0
MLINESTYLE
  5
1C
102
{ACAD_REACTORS
330
1B
102
}
100
AcDbMlineStyle
  2
STANDARD
 70
             0
  3

 62
             0
 51
90.0
 52
90.0
 71
             2
 49
0.5
 62
           256
  6
BYLAYER
 49
-0.5
 62
           256
  6
BYLAYER
  0
ENDSEC
  0
EOF
