  0
SECTION
  2
HEADER
  9
$ACADVER
  1
AC1015
  9
$ACADMAINTVER
 70
     6
  9
$DWGCODEPAGE
  3
ANSI_1252
  9
$INSBASE
 10
0.0
 20
0.0
 30
0.0
  9
$EXTMIN
 10
-189.0
 20
-876.5551435446469
 30
0.0
  9
$EXTMAX
 10
260.357288699481
 20
221.3085037777346
 30
0.0
  9
$LIMMIN
 10
0.0
 20
0.0
  9
$LIMMAX
 10
12.0
 20
9.0
  9
$ORTHOMODE
 70
     0
  9
$REGENMODE
 70
     1
  9
$FILLMODE
 70
     1
  9
$QTEXTMODE
 70
     0
  9
$MIRRTEXT
 70
     1
  9
$LTSCALE
 40
1.0
  9
$ATTMODE
 70
     1
  9
$TEXTSIZE
 40
0.2
  9
$TRACEWID
 40
0.05
  9
$TEXTSTYLE
  7
Standard
  9
$CLAYER
  8
0
  9
$CELTYPE
  6
ByLayer
  9
$CECOLOR
 62
   256
  9
$CELTSCALE
 40
1.0
  9
$DISPSILH
 70
     0
  9
$DIMSCALE
 40
1.0
  9
$DIMASZ
 40
0.18
  9
$DIMEXO
 40
0.0625
  9
$DIMDLI
 40
0.38
  9
$DIMRND
 40
0.0
  9
$DIMDLE
 40
0.0
  9
$DIMEXE
 40
0.18
  9
$DIMTP
 40
0.0
  9
$DIMTM
 40
0.0
  9
$DIMTXT
 40
0.18
  9
$DIMCEN
 40
0.09
  9
$DIMTSZ
 40
0.0
  9
$DIMTOL
 70
     0
  9
$DIMLIM
 70
     0
  9
$DIMTIH
 70
     1
  9
$DIMTOH
 70
     1
  9
$DIMSE1
 70
     0
  9
$DIMSE2
 70
     0
  9
$DIMTAD
 70
     0
  9
$DIMZIN
 70
     0
  9
$DIMBLK
  1

  9
$DIMASO
 70
     1
  9
$DIMSHO
 70
     1
  9
$DIMPOST
  1

  9
$DIMAPOST
  1

  9
$DIMALT
 70
     0
  9
$DIMALTD
 70
     2
  9
$DIMALTF
 40
25.4
  9
$DIMLFAC
 40
1.0
  9
$DIMTOFL
 70
     0
  9
$DIMTVP
 40
0.0
  9
$DIMTIX
 70
     0
  9
$DIMSOXD
 70
     0
  9
$DIMSAH
 70
     0
  9
$DIMBLK1
  1

  9
$DIMBLK2
  1

  9
$DIMSTYLE
  2
Standard
  9
$DIMCLRD
 70
     0
  9
$DIMCLRE
 70
     0
  9
$DIMCLRT
 70
     0
  9
$DIMTFAC
 40
1.0
  9
$DIMGAP
 40
0.09
  9
$DIMJUST
 70
     0
  9
$DIMSD1
 70
     0
  9
$DIMSD2
 70
     0
  9
$DIMTOLJ
 70
     1
  9
$DIMTZIN
 70
     0
  9
$DIMALTZ
 70
     0
  9
$DIMALTTZ
 70
     0
  9
$DIMUPT
 70
     0
  9
$DIMDEC
 70
     4
  9
$DIMTDEC
 70
     4
  9
$DIMALTU
 70
     2
  9
$DIMALTTD
 70
     2
  9
$DIMTXSTY
  7
Standard
  9
$DIMAUNIT
 70
     0
  9
$DIMADEC
 70
     0
  9
$DIMALTRND
 40
0.0
  9
$DIMAZIN
 70
     0
  9
$DIMDSEP
 70
    46
  9
$DIMATFIT
 70
     3
  9
$DIMFRAC
 70
     0
  9
$DIMLDRBLK
  1

  9
$DIMLUNIT
 70
     2
  9
$DIMLWD
 70
    -2
  9
$DIMLWE
 70
    -2
  9
$DIMTMOVE
 70
     0
  9
$LUNITS
 70
     2
  9
$LUPREC
 70
     4
  9
$SKETCHINC
 40
0.1
  9
$FILLETRAD
 40
0.5
  9
$AUNITS
 70
     0
  9
$AUPREC
 70
     0
  9
$MENU
  1
.
  9
$ELEVATION
 40
0.0
  9
$PELEVATION
 40
0.0
  9
$THICKNESS
 40
0.0
  9
$LIMCHECK
 70
     0
  9
$CHAMFERA
 40
0.5
  9
$CHAMFERB
 40
0.5
  9
$CHAMFERC
 40
1.0
  9
$CHAMFERD
 40
0.0
  9
$SKPOLY
 70
     0
  9
$TDCREATE
 40
2454721.302127002
  9
$TDUCREATE
 40
2454721.218793669
  9
$TDUPDATE
 40
2454721.302127014
  9
$TDUUPDATE
 40
2454721.21879368
  9
$TDINDWG
 40
0.0000000116
  9
$TDUSRTIMER
 40
0.0000000116
  9
$USRTIMER
 70
     1
  9
$ANGBASE
 50
0.0
  9
$ANGDIR
 70
     0
  9
$PDMODE
 70
     0
  9
$PDSIZE
 40
0.0
  9
$PLINEWID
 40
0.0
  9
$SPLFRAME
 70
     0
  9
$SPLINETYPE
 70
     6
  9
$SPLINESEGS
 70
     8
  9
$HANDSEED
  5
350
  9
$SURFTAB1
 70
     6
  9
$SURFTAB2
 70
     6
  9
$SURFTYPE
 70
     6
  9
$SURFU
 70
     6
  9
$SURFV
 70
     6
  9
$UCSBASE
  2

  9
$UCSNAME
  2

  9
$UCSORG
 10
0.0
 20
0.0
 30
0.0
  9
$UCSXDIR
 10
1.0
 20
0.0
 30
0.0
  9
$UCSYDIR
 10
0.0
 20
1.0
 30
0.0
  9
$UCSORTHOREF
  2

  9
$UCSORTHOVIEW
 70
     0
  9
$UCSORGTOP
 10
0.0
 20
0.0
 30
0.0
  9
$UCSORGBOTTOM
 10
0.0
 20
0.0
 30
0.0
  9
$UCSORGLEFT
 10
0.0
 20
0.0
 30
0.0
  9
$UCSORGRIGHT
 10
0.0
 20
0.0
 30
0.0
  9
$UCSORGFRONT
 10
0.0
 20
0.0
 30
0.0
  9
$UCSORGBACK
 10
0.0
 20
0.0
 30
0.0
  9
$PUCSBASE
  2

  9
$PUCSNAME
  2

  9
$PUCSORG
 10
0.0
 20
0.0
 30
0.0
  9
$PUCSXDIR
 10
1.0
 20
0.0
 30
0.0
  9
$PUCSYDIR
 10
0.0
 20
1.0
 30
0.0
  9
$PUCSORTHOREF
  2

  9
$PUCSORTHOVIEW
 70
     0
  9
$PUCSORGTOP
 10
0.0
 20
0.0
 30
0.0
  9
$PUCSORGBOTTOM
 10
0.0
 20
0.0
 30
0.0
  9
$PUCSORGLEFT
 10
0.0
 20
0.0
 30
0.0
  9
$PUCSORGRIGHT
 10
0.0
 20
0.0
 30
0.0
  9
$PUCSORGFRONT
 10
0.0
 20
0.0
 30
0.0
  9
$PUCSORGBACK
 10
0.0
 20
0.0
 30
0.0
  9
$USERI1
 70
     0
  9
$USERI2
 70
     0
  9
$USERI3
 70
     0
  9
$USERI4
 70
     0
  9
$USERI5
 70
     0
  9
$USERR1
 40
15.5
  9
$USERR2
 40
0.0
  9
$USERR3
 40
0.0
  9
$USERR4
 40
0.0
  9
$USERR5
 40
0.0
  9
$WORLDVIEW
 70
     1
  9
$SHADEDGE
 70
     3
  9
$SHADEDIF
 70
    70
  9
$TILEMODE
 70
     1
  9
$MAXACTVP
 70
    64
  9
$PINSBASE
 10
0.0
 20
0.0
 30
0.0
  9
$PLIMCHECK
 70
     0
  9
$PEXTMIN
 10
1.00000000000000E+20
 20
1.00000000000000E+20
 30
1.00000000000000E+20
  9
$PEXTMAX
 10
-1.00000000000000E+20
 20
-1.00000000000000E+20
 30
-1.00000000000000E+20
  9
$PLIMMIN
 10
0.0
 20
0.0
  9
$PLIMMAX
 10
12.0
 20
9.0
  9
$UNITMODE
 70
     0
  9
$VISRETAIN
 70
     1
  9
$PLINEGEN
 70
     0
  9
$PSLTSCALE
 70
     1
  9
$TREEDEPTH
 70
  3020
  9
$CMLSTYLE
  2
Standard
  9
$CMLJUST
 70
     0
  9
$CMLSCALE
 40
1.0
  9
$PROXYGRAPHICS
 70
     1
  9
$MEASUREMENT
 70
     1
  9
$CELWEIGHT
370
    -1
  9
$ENDCAPS
280
     0
  9
$JOINSTYLE
280
     0
  9
$LWDISPLAY
290
     0
  9
$INSUNITS
 70
     1
  9
$HYPERLINKBASE
  1

  9
$STYLESHEET
  1

  9
$XEDIT
290
     1
  9
$CEPSNTYPE
380
     0
  9
$PSTYLEMODE
290
     1
  9
$FINGERPRINTGUID
  2
{744335CA-3C38-45AC-B609-853720493591}
  9
$VERSIONGUID
  2
{FAEB1C32-E019-11D5-929B-00C0DF256EC4}
  9
$EXTNAMES
290
     1
  9
$PSVPSCALE
 40
0.0
  9
$OLESTARTUP
290
     0
  0
ENDSEC
  0
SECTION
  2
CLASSES
  0
CLASS
  1
ACDBDICTIONARYWDFLT
  2
AcDbDictionaryWithDefault
  3
ObjectDBX Classes
 90
        0
280
     0
281
     0
  0
CLASS
  1
VISUALSTYLE
  2
AcDbVisualStyle
  3
ObjectDBX Classes
 90
     4095
280
     0
281
     0
  0
CLASS
  1

  2
exOdDbCircle
  3

 90
        0
280
     0
281
     1
  0
CLASS
  1
ACDBPLACEHOLDER
  2
AcDbPlaceHolder
  3
ObjectDBX Classes
 90
        0
280
     0
281
     0
  0
CLASS
  1
LAYOUT
  2
AcDbLayout
  3
ObjectDBX Classes
 90
        0
280
     0
281
     0
  0
ENDSEC
  0
SECTION
  2
TABLES
  0
TABLE
  2
VPORT
  5
8
330
0
100
AcDbSymbolTable
 70
     1
  0
VPORT
  5
29
330
8
100
AcDbSymbolTableRecord
100
AcDbViewportTableRecord
  2
*Active
 70
     0
 10
0.0
 20
0.0
 11
1.0
 21
1.0
 12
35.67864434974049
 22
-327.6233198834561
 13
0.0
 23
0.0
 14
0.5
 24
0.5
 15
0.5
 25
0.5
 16
0.0
 26
0.0
 36
1.0
 17
0.0
 27
0.0
 37
0.0
 40
1207.65001205462
 41
1.60267857142857
 42
50.0
 43
0.0
 44
0.0
 50
0.0
 51
0.0
 71
     0
 72
   100
 73
     1
 74
     3
 75
     0
 76
     0
 77
     0
 78
     0
281
     0
 65
     1
110
0.0
120
0.0
130
0.0
111
1.0
121
0.0
131
0.0
112
0.0
122
1.0
132
0.0
 79
     0
146
0.0
  0
ENDTAB
  0
TABLE
  2
LTYPE
  5
5
330
0
100
AcDbSymbolTable
 70
     9
  0
LTYPE
  5
14
330
5
100
AcDbSymbolTableRecord
100
AcDbLinetypeTableRecord
  2
ByBlock
 70
     0
  3

 72
    65
 73
     0
 40
0.0
  0
LTYPE
  5
15
330
5
100
AcDbSymbolTableRecord
100
AcDbLinetypeTableRecord
  2
ByLayer
 70
     0
  3

 72
    65
 73
     0
 40
0.0
  0
LTYPE
  5
16
330
5
100
AcDbSymbolTableRecord
100
AcDbLinetypeTableRecord
  2
Continuous
 70
     0
  3
Solid line
 72
    65
 73
     0
 40
0.0
  0
LTYPE
  5
3B
330
5
100
AcDbSymbolTableRecord
100
AcDbLinetypeTableRecord
  2
DASHED
 70
     0
  3
Dashed
 72
    65
 73
     2
 40
15.0
 49
7.0
 74
     0
 49
-8.0
 74
     0
  0
LTYPE
  5
3C
330
5
100
AcDbSymbolTableRecord
100
AcDbLinetypeTableRecord
  2
DOTTED
 70
     0
  3
Dotted
 72
    65
 73
     2
 40
1.0
 49
0.0
 74
     0
 49
-1.0
 74
     0
  0
LTYPE
  5
3D
330
5
100
AcDbSymbolTableRecord
100
AcDbLinetypeTableRecord
  2
DOT_CENTER
 70
     0
  3
Dot_Center
 72
    65
 73
     4
 40
14.0
 49
12.0
 74
     0
 49
-1.0
 74
     0
 49
0.0
 74
     0
 49
-1.0
 74
     0
  0
LTYPE
  5
3E
330
5
100
AcDbSymbolTableRecord
100
AcDbLinetypeTableRecord
  2
LONG_DASHED
 70
     0
  3
Long_Dashed
 72
    65
 73
     2
 40
15.0
 49
10.0
 74
     0
 49
-5.0
 74
     0
  0
LTYPE
  5
3F
330
5
100
AcDbSymbolTableRecord
100
AcDbLinetypeTableRecord
  2
DASH_CENTER
 70
     0
  3
Dash_Center
 72
    65
 73
     4
 40
14.0
 49
11.0
 74
     0
 49
-1.0
 74
     0
 49
1.0
 74
     0
 49
-1.0
 74
     0
  0
LTYPE
  5
40
330
5
100
AcDbSymbolTableRecord
100
AcDbLinetypeTableRecord
  2
PHANTOM
 70
     0
  3
Phantom
 72
    65
 73
     6
 40
13.0
 49
10.0
 74
     0
 49
-1.0
 74
     0
 49
0.0
 74
     0
 49
-1.0
 74
     0
 49
0.0
 74
     0
 49
-1.0
 74
     0
  0
LTYPE
  5
41
330
5
100
AcDbSymbolTableRecord
100
AcDbLinetypeTableRecord
  2
CENTER_DASH_DASH
 70
     0
  3
Center_Dash_Dash
 72
    65
 73
     6
 40
14.0
 49
9.0
 74
     0
 49
-1.0
 74
     0
 49
1.0
 74
     0
 49
-1.0
 74
     0
 49
1.0
 74
     0
 49
-1.0
 74
     0
  0
LTYPE
  5
42
330
5
100
AcDbSymbolTableRecord
100
AcDbLinetypeTableRecord
  2
DASHDOT
 70
     0
  3
DASHDOT
 72
    65
 73
     4
 40
16.0
 49
10.0
 74
     0
 49
-3.0
 74
     0
 49
0.0
 74
     0
 49
-3.0
 74
     0
  0
ENDTAB
  0
TABLE
  2
LAYER
  5
2
330
0
100
AcDbSymbolTable
 70
    11
  0
LAYER
  5
10
330
2
100
AcDbSymbolTableRecord
100
AcDbLayerTableRecord
  2
0
 70
     0
 62
     7
  6
Continuous
370
    -3
390
F
  0
LAYER
  5
43
330
2
100
AcDbSymbolTableRecord
100
AcDbLayerTableRecord
  2
1
 70
     0
 62
     7
  6
Continuous
370
    -3
390
F
  0
LAYER
  5
44
330
2
100
AcDbSymbolTableRecord
100
AcDbLayerTableRecord
  2
LC-001-002-----0
 70
     0
 62
     7
  6
Continuous
370
    -3
390
F
  0
LAYER
  5
45
330
2
100
AcDbSymbolTableRecord
100
AcDbLayerTableRecord
  2
LC-001-003-----0
 70
     0
 62
     7
  6
Continuous
370
    -3
390
F
  0
LAYER
  5
46
330
2
100
AcDbSymbolTableRecord
100
AcDbLayerTableRecord
  2
LC-002-002-RND-0
 70
     0
 62
     7
  6
Continuous
370
    -3
390
F
  0
LAYER
  5
47
330
2
100
AcDbSymbolTableRecord
100
AcDbLayerTableRecord
  2
LC-004-002-RND-0
 70
     0
 62
     7
  6
Continuous
370
    -3
390
F
  0
LAYER
  5
48
330
2
100
AcDbSymbolTableRecord
100
AcDbLayerTableRecord
  2
LC-005-002-----0
 70
     0
 62
     7
  6
Continuous
370
    -3
390
F
  0
LAYER
  5
49
330
2
100
AcDbSymbolTableRecord
100
AcDbLayerTableRecord
  2
LC-006-002-----0
 70
     0
 62
     7
  6
Continuous
370
    -3
390
F
  0
LAYER
  5
4A
330
2
100
AcDbSymbolTableRecord
100
AcDbLayerTableRecord
  2
LC-007-007-KH--0
 70
     0
 62
     7
  6
Continuous
370
    -3
390
F
  0
LAYER
  5
4B
330
2
100
AcDbSymbolTableRecord
100
AcDbLayerTableRecord
  2
LC-010-006-MLN-0
 70
     0
 62
     7
  6
Continuous
370
    -3
390
F
  0
LAYER
  5
4C
330
2
100
AcDbSymbolTableRecord
100
AcDbLayerTableRecord
  2
LC-013-200-----0
 70
     0
 62
     7
  6
Continuous
370
    -3
390
F
  0
ENDTAB
  0
TABLE
  2
STYLE
  5
3
330
0
100
AcDbSymbolTable
 70
     2
  0
STYLE
  5
11
330
3
100
AcDbSymbolTableRecord
100
AcDbTextStyleTableRecord
  2
Standard
 70
     0
 40
0.0
 41
1.0
 50
0.0
 71
     0
 42
0.2
  3
txt
  4

  0
STYLE
  5
2FC
330
3
100
AcDbSymbolTableRecord
100
AcDbTextStyleTableRecord
  2
CONVERTER_11
 70
     0
 40
0.0
 41
0.9
 50
0.0
 71
     0
 42
0.2
  3
txt.shx
  4

  0
ENDTAB
  0
TABLE
  2
VIEW
  5
6
330
0
100
AcDbSymbolTable
 70
     0
  0
ENDTAB
  0
TABLE
  2
UCS
  5
7
330
0
100
AcDbSymbolTable
 70
     0
  0
ENDTAB
  0
TABLE
  2
APPID
  5
9
330
0
100
AcDbSymbolTable
 70
     1
  0
APPID
  5
12
330
9
100
AcDbSymbolTableRecord
100
AcDbRegAppTableRecord
  2
ACAD
 70
     0
  0
ENDTAB
  0
TABLE
  2
DIMSTYLE
  5
A
330
0
100
AcDbSymbolTable
 70
     9
100
AcDbDimStyleTable
  0
DIMSTYLE
105
27
330
A
100
AcDbSymbolTableRecord
100
AcDbDimStyleTableRecord
  2
Standard
 70
     0
340
11
  0
DIMSTYLE
105
300
102
{ACAD_REACTORS
330
301
102
}
330
A
100
AcDbSymbolTableRecord
100
AcDbDimStyleTableRecord
  2
ME10_DIM_10
 70
     0
 41
10.0
 42
0.0
 44
2.0
 73
     0
 74
     0
 77
     1
 78
     8
140
10.0
147
2.0
172
     1
173
     1
176
     4
177
     4
178
     1
271
     2
340
2FC
  0
DIMSTYLE
105
30B
102
{ACAD_REACTORS
330
30C
102
}
330
A
100
AcDbSymbolTableRecord
100
AcDbDimStyleTableRecord
  2
ME10_DIM_11
 70
     0
  3
Ø<>
 41
12.0
 42
0.0
 44
2.0
 73
     0
 74
     0
 77
     1
 78
     8
140
12.0
147
2.0
172
     1
173
     1
176
     4
177
     4
178
     1
271
     2
340
2FC
  0
DIMSTYLE
105
316
102
{ACAD_REACTORS
330
317
102
}
330
A
100
AcDbSymbolTableRecord
100
AcDbDimStyleTableRecord
  2
ME10_DIM_12
 70
     0
  3
DN<>
 41
12.0
 42
0.0
 44
2.0
 73
     0
 74
     0
 77
     1
 78
     8
140
12.0
147
2.0
172
     1
173
     1
176
     4
177
     4
178
     1
271
     2
340
2FC
  0
DIMSTYLE
105
321
102
{ACAD_REACTORS
330
322
102
}
330
A
100
AcDbSymbolTableRecord
100
AcDbDimStyleTableRecord
  2
ME10_DIM_13
 70
     0
  3
(<>)
 41
12.0
 42
0.0
 44
2.0
 73
     0
 74
     0
 77
     1
 78
     8
140
12.0
147
2.0
172
     1
173
     1
176
     4
177
     4
178
     1
271
     2
340
2FC
  0
DIMSTYLE
105
32C
102
{ACAD_REACTORS
330
32D
102
}
330
A
100
AcDbSymbolTableRecord
100
AcDbDimStyleTableRecord
  2
ME10_DIM_14
 70
     0
 41
12.0
 42
0.0
 44
2.0
 73
     0
 74
     0
 77
     1
 78
     8
140
12.0
147
2.0
172
     1
173
     1
176
     4
177
     4
178
     1
271
     2
340
2FC
  0
DIMSTYLE
105
337
102
{ACAD_REACTORS
330
338
102
}
330
A
100
AcDbSymbolTableRecord
100
AcDbDimStyleTableRecord
  2
ME10_DIM_15
 70
     0
  3
284x<>
 41
12.0
 42
0.0
 44
2.0
 73
     0
 74
     0
 77
     1
 78
     8
140
12.0
147
2.0
172
     1
173
     1
176
     4
177
     4
178
     1
271
     2
340
2FC
  0
DIMSTYLE
105
342
102
{ACAD_REACTORS
330
343
102
}
330
A
100
AcDbSymbolTableRecord
100
AcDbDimStyleTableRecord
  2
ME10_DIM_16
 70
     0
  3
378x<>
 41
12.0
 42
0.0
 44
2.0
 73
     0
 74
     0
 77
     1
 78
     8
140
12.0
147
2.0
172
     1
173
     1
176
     4
177
     4
178
     1
271
     2
340
2FC
  0
DIMSTYLE
105
34D
102
{ACAD_REACTORS
330
34E
102
}
330
A
100
AcDbSymbolTableRecord
100
AcDbDimStyleTableRecord
  2
ME10_DIM_17
 70
     0
  3
Ø<>
 41
12.0
 42
0.0
 44
2.0
 73
     0
 74
     0
 77
     1
 78
     8
140
12.0
147
2.0
172
     1
173
     1
176
     4
177
     4
178
     1
271
     2
340
2FC
  0
ENDTAB
  0
TABLE
  2
BLOCK_RECORD
  5
1
330
0
100
AcDbSymbolTable
 70
    15
  0
BLOCK_RECORD
  5
1F
330
1
100
AcDbSymbolTableRecord
100
AcDbBlockTableRecord
  2
*Model_Space
340
22
  0
BLOCK_RECORD
  5
1B
330
1
100
AcDbSymbolTableRecord
100
AcDbBlockTableRecord
  2
*Paper_Space
340
1E
  0
BLOCK_RECORD
  5
23
330
1
100
AcDbSymbolTableRecord
100
AcDbBlockTableRecord
  2
*Paper_Space0
340
26
  0
BLOCK_RECORD
  5
4D
330
1
100
AcDbSymbolTableRecord
100
AcDbBlockTableRecord
  2
Körper
340
0
102
{BLKREFS
331
60
102
}
  0
BLOCK_RECORD
  5
50
330
1
100
AcDbSymbolTableRecord
100
AcDbBlockTableRecord
  2
PVC_Manschette
340
0
102
{BLKREFS
331
61
102
}
  0
BLOCK_RECORD
  5
53
330
1
100
AcDbSymbolTableRecord
100
AcDbBlockTableRecord
  2
060_1E_Laubfangkorb
340
0
102
{BLKREFS
331
62
102
}
  0
BLOCK_RECORD
  5
56
330
1
100
AcDbSymbolTableRecord
100
AcDbBlockTableRecord
  2
Außenansicht
340
0
102
{BLKREFS
331
5A
102
}
  0
BLOCK_RECORD
  5
59
330
1
100
AcDbSymbolTableRecord
100
AcDbBlockTableRecord
  2
HL_61_7_Flachdachablauf
340
0
102
{BLKREFS
331
63
102
}
  0
BLOCK_RECORD
  5
5D
330
1
100
AcDbSymbolTableRecord
100
AcDbBlockTableRecord
  2
Bauschutz_062_9E
340
0
102
{BLKREFS
331
64
102
}
  0
BLOCK_RECORD
  5
2F6
330
1
100
AcDbSymbolTableRecord
100
AcDbBlockTableRecord
  2
*D7
340
0
  0
BLOCK_RECORD
  5
302
330
1
100
AcDbSymbolTableRecord
100
AcDbBlockTableRecord
  2
*D8
340
0
  0
BLOCK_RECORD
  5
30D
330
1
100
AcDbSymbolTableRecord
100
AcDbBlockTableRecord
  2
*D9
340
0
  0
BLOCK_RECORD
  5
318
330
1
100
AcDbSymbolTableRecord
100
AcDbBlockTableRecord
  2
*D10
340
0
  0
BLOCK_RECORD
  5
323
330
1
100
AcDbSymbolTableRecord
100
AcDbBlockTableRecord
  2
*D11
340
0
  0
BLOCK_RECORD
  5
32E
330
1
100
AcDbSymbolTableRecord
100
AcDbBlockTableRecord
  2
*D12
340
0
  0
BLOCK_RECORD
  5
339
330
1
100
AcDbSymbolTableRecord
100
AcDbBlockTableRecord
  2
*D13
340
0
  0
BLOCK_RECORD
  5
344
330
1
100
AcDbSymbolTableRecord
100
AcDbBlockTableRecord
  2
*D14
340
0
  0
ENDTAB
  0
ENDSEC
  0
SECTION
  2
BLOCKS
  0
BLOCK
  5
20
330
1F
100
AcDbEntity
  8
0
100
AcDbBlockBegin
  2
*Model_Space
 70
     0
 71
     0
 10
0.0
 20
0.0
 30
0.0
  3
*Model_Space
  1

  0
ENDBLK
  5
21
330
1F
100
AcDbEntity
  8
0
100
AcDbBlockEnd
  0
BLOCK
  5
1C
330
1B
100
AcDbEntity
 67
     1
  8
0
100
AcDbBlockBegin
  2
*Paper_Space
 70
     0
 71
     0
 10
0.0
 20
0.0
 30
0.0
  3
*Paper_Space
  1

  0
ENDBLK
  5
1D
330
1B
100
AcDbEntity
 67
     1
  8
0
100
AcDbBlockEnd
  0
BLOCK
  5
24
330
23
100
AcDbEntity
  8
0
100
AcDbBlockBegin
  2
*Paper_Space0
 70
     0
 71
     0
 10
0.0
 20
0.0
 30
0.0
  3
*Paper_Space0
  1

  0
ENDBLK
  5
25
330
23
100
AcDbEntity
  8
0
100
AcDbBlockEnd
  0
BLOCK
  5
4E
330
4D
100
AcDbEntity
  8
0
100
AcDbBlockBegin
  2
Körper
 70
     0
 71
     0
 10
-268.796146379751
 20
-1210.206471934518
 30
0.0
  3
Körper
  1

  0
POINT
  5
65
330
4D
100
AcDbEntity
  8
LC-013-200-----0
 62
     7
100
AcDbPoint
 10
-129.4995913797502
 20
-558.0539625446472
 30
0.0
  0
POINT
  5
66
330
4D
100
AcDbEntity
  8
LC-013-200-----0
 62
     7
100
AcDbPoint
 10
129.5004086202498
 20
-558.0539585446459
 30
0.0
  0
POINT
  5
67
330
4D
100
AcDbEntity
  8
LC-013-200-----0
 62
     7
100
AcDbPoint
 10
-129.4995913797502
 20
-817.0539675446453
 30
0.0
  0
POINT
  5
68
330
4D
100
AcDbEntity
  8
LC-013-200-----0
 62
     7
100
AcDbPoint
 10
129.5004086202498
 20
-817.0539675446453
 30
0.0
  0
POINT
  5
69
330
4D
100
AcDbEntity
  8
0
 62
     7
100
AcDbPoint
 10
-179.9995963797519
 20
-530.5539585446459
 30
0.0
  0
POINT
  5
6A
330
4D
100
AcDbEntity
  8
0
 62
     7
100
AcDbPoint
 10
-188.9999783797503
 20
-508.555165544647
 30
0.0
  0
POINT
  5
6B
330
4D
100
AcDbEntity
  8
0
 62
     7
100
AcDbPoint
 10
189.0000216202498
 20
-508.5535735446465
 30
0.0
  0
LINE
  5
6C
330
4D
100
AcDbEntity
  8
LC-007-007-KH--0
  6
DASHDOT
 62
     7
100
AcDbLine
 10
0.00037062025149
 20
-775.0524385446442
 30
0.0
 11
0.00037062025149
 21
-775.0524385446442
 31
0.0
  0
LINE
  5
6D
330
4D
100
AcDbEntity
  8
LC-001-002-----0
  6
Continuous
 62
     7
100
AcDbLine
 10
-178.9991613797502
 20
-876.5551435446469
 30
0.0
 11
179.0008386202499
 21
-876.5535955446467
 31
0.0
  0
LINE
  5
6E
330
4D
100
AcDbEntity
  8
LC-001-002-----0
  6
Continuous
 62
     7
100
AcDbLine
 10
189.0000216202498
 20
-508.5535735446465
 30
0.0
 11
189.0007956202499
 21
-866.5535735446465
 31
0.0
  0
LINE
  5
6F
330
4D
100
AcDbEntity
  8
LC-007-007-KH--0
  6
DASHDOT
 62
     7
100
AcDbLine
 10
0.00020462024986
 20
-600.0551715446454
 30
0.0
 11
0.00020462024986
 21
-600.0551715446454
 31
0.0
  0
LINE
  5
70
330
4D
100
AcDbEntity
  8
LC-007-007-KH--0
  6
DASHDOT
 62
     7
100
AcDbLine
 10
75.77783462025036
 20
-731.3051715446454
 30
0.0
 11
75.77783462025036
 21
-731.3051715446454
 31
0.0
  0
LINE
  5
71
330
4D
100
AcDbEntity
  8
LC-001-002-----0
  6
Continuous
 62
     7
100
AcDbLine
 10
-179.0000223797506
 20
-498.5551435446469
 30
0.0
 11
178.9999776202494
 21
-498.5535955446467
 31
0.0
  0
LINE
  5
72
330
4D
100
AcDbEntity
  8
LC-001-002-----0
  6
Continuous
 62
     7
100
AcDbLine
 10
-188.9999783797503
 20
-508.555165544647
 30
0.0
 11
-188.9992043797502
 21
-866.555165544647
 31
0.0
  0
LINE
  5
73
330
4D
100
AcDbEntity
  8
LC-001-002-----0
  6
Continuous
 62
     7
100
AcDbLine
 10
-85.59210137974878
 20
-686.4043695446453
 30
0.0
 11
-43.18451737974829
 21
-686.4043695446453
 31
0.0
  0
LINE
  5
74
330
4D
100
AcDbEntity
  8
LC-001-002-----0
  6
Continuous
 62
     7
100
AcDbLine
 10
-85.59210137974878
 20
-688.7043695446446
 30
0.0
 11
-43.18451737974829
 21
-688.7043695446446
 31
0.0
  0
LINE
  5
75
330
4D
100
AcDbEntity
  8
LC-001-002-----0
  6
Continuous
 62
     7
100
AcDbLine
 10
-63.36284837975109
 20
-688.7043695446446
 30
0.0
 11
-43.18451737974829
 21
-688.7043695446446
 31
0.0
  0
LINE
  5
76
330
4D
100
AcDbEntity
  8
LC-001-002-----0
  6
Continuous
 62
     7
100
AcDbLine
 10
-39.94200337975053
 20
-686.4043695446453
 30
0.0
 11
-3.30550337975001
 21
-686.4043695446453
 31
0.0
  0
LINE
  5
77
330
4D
100
AcDbEntity
  8
LC-001-002-----0
  6
Continuous
 62
     7
100
AcDbLine
 10
-82.37797337974916
 20
-664.2906435446457
 30
0.0
 11
-41.41539237974939
 21
-675.2665345446476
 31
0.0
  0
LINE
  5
78
330
4D
100
AcDbEntity
  8
LC-001-002-----0
  6
Continuous
 62
     7
100
AcDbLine
 10
-82.97325737974825
 20
-666.5122735446457
 30
0.0
 11
-42.01067637974848
 21
-677.4881635446473
 31
0.0
  0
LINE
  5
79
330
4D
100
AcDbEntity
  8
LC-001-002-----0
  6
Continuous
 62
     7
100
AcDbLine
 10
-74.69991037974978
 20
-645.7541615446462
 30
0.0
 11
-37.97386537975035
 21
-666.9579535446464
 31
0.0
  0
LINE
  5
7A
330
4D
100
AcDbEntity
  8
LC-001-002-----0
  6
Continuous
 62
     7
100
AcDbLine
 10
-73.54991037974833
 20
-643.7623025446446
 30
0.0
 11
-36.8238653797489
 21
-664.9660945446449
 31
0.0
  0
LINE
  5
7B
330
4D
100
AcDbEntity
  8
LC-001-002-----0
  6
Continuous
 62
     7
100
AcDbLine
 10
-59.70953137975084
 20
-626.2183185446447
 30
0.0
 11
-29.7228413797493
 21
-656.2050095446466
 31
0.0
  0
LINE
  5
7C
330
4D
100
AcDbEntity
  8
LC-001-002-----0
  6
Continuous
 62
     7
100
AcDbLine
 10
-61.33587737974813
 20
-627.8446645446456
 30
0.0
 11
-31.34918637974988
 21
-657.8313545446472
 31
0.0
  0
LINE
  5
7D
330
4D
100
AcDbEntity
  8
LC-001-002-----0
  6
Continuous
 62
     7
100
AcDbLine
 10
-41.80003437975029
 20
-612.8542855446467
 30
0.0
 11
-20.59624237975004
 21
-649.5803305446461
 31
0.0
  0
LINE
  5
7E
330
4D
100
AcDbEntity
  8
LC-001-002-----0
  6
Continuous
 62
     7
100
AcDbLine
 10
-43.79189337975186
 20
-614.0042855446445
 30
0.0
 11
-22.58810137975161
 21
-650.7303305446476
 31
0.0
  0
LINE
  5
7F
330
4D
100
AcDbEntity
  8
LC-001-002-----0
  6
Continuous
 62
     7
100
AcDbLine
 10
-23.26355237975076
 20
-605.1762225446473
 30
0.0
 11
-12.2876613797489
 21
-646.1388035446471
 31
0.0
  0
LINE
  5
80
330
4D
100
AcDbEntity
  8
LC-001-002-----0
  6
Continuous
 62
     7
100
AcDbLine
 10
-21.04192237975076
 20
-604.5809385446446
 30
0.0
 11
-10.06603237974923
 21
-645.5435195446444
 31
0.0
  0
LINE
  5
81
330
4D
100
AcDbEntity
  8
LC-001-002-----0
  6
Continuous
 62
     7
100
AcDbLine
 10
-27.43003837974902
 20
-658.4978125446469
 30
0.0
 11
-1.52412037974864
 21
-684.4037305446473
 31
0.0
  0
LINE
  5
82
330
4D
100
AcDbEntity
  8
LC-001-002-----0
  6
Continuous
 62
     7
100
AcDbLine
 10
-29.05638337974961
 20
-660.1241585446478
 30
0.0
 11
-3.15046537974922
 21
-686.0300755446442
 31
0.0
  0
LINE
  5
83
330
4D
100
AcDbEntity
  8
LC-001-002-----0
  6
Continuous
 62
     7
100
AcDbLine
 10
1.1501736202481
 20
-679.5705005446471
 30
0.0
 11
1.1501736202481
 21
-684.2486925446465
 31
0.0
  0
LINE
  5
84
330
4D
100
AcDbEntity
  8
LC-001-002-----0
  6
Continuous
 62
     7
100
AcDbLine
 10
-1.14982637975117
 20
-647.3686085446461
 30
0.0
 11
-1.14982637975117
 21
-653.5705005446471
 31
0.0
  0
LINE
  5
85
330
4D
100
AcDbEntity
  8
LC-001-002-----0
  6
Continuous
 62
     7
100
AcDbLine
 10
29.05673062025016
 20
-660.1241585446478
 30
0.0
 11
3.15081262024978
 21
-686.0300755446442
 31
0.0
  0
LINE
  5
86
330
4D
100
AcDbEntity
  8
LC-001-002-----0
  6
Continuous
 62
     7
100
AcDbLine
 10
27.43038462024924
 20
-658.4978125446469
 30
0.0
 11
1.5244676202492
 21
-684.4037305446473
 31
0.0
  0
LINE
  5
87
330
4D
100
AcDbEntity
  8
LC-001-002-----0
  6
Continuous
 62
     7
100
AcDbLine
 10
-74.69991037974978
 20
-729.3545775446473
 30
0.0
 11
-37.97386537975035
 21
-708.1507855446471
 31
0.0
  0
LINE
  5
88
330
4D
100
AcDbEntity
  8
LC-001-002-----0
  6
Continuous
 62
     7
100
AcDbLine
 10
39.94235062025109
 20
-688.7043695446446
 30
0.0
 11
3.30585062025057
 21
-688.7043695446446
 31
0.0
  0
LINE
  5
89
330
4D
100
AcDbEntity
  8
LC-001-002-----0
  6
Continuous
 62
     7
100
AcDbLine
 10
39.94235062025109
 20
-686.4043695446453
 30
0.0
 11
3.30585062025057
 21
-686.4043695446453
 31
0.0
  0
LINE
  5
8A
330
4D
100
AcDbEntity
  8
LC-001-002-----0
  6
Continuous
 62
     7
100
AcDbLine
 10
21.04226962025132
 20
-604.5809385446446
 30
0.0
 11
10.06637962024979
 21
-645.5435195446444
 31
0.0
  0
LINE
  5
8B
330
4D
100
AcDbEntity
  8
LC-001-002-----0
  6
Continuous
 62
     7
100
AcDbLine
 10
23.26389862025098
 20
-605.1762225446473
 30
0.0
 11
12.28800862024946
 21
-646.1388035446471
 31
0.0
  0
LINE
  5
8C
330
4D
100
AcDbEntity
  8
LC-001-002-----0
  6
Continuous
 62
     7
100
AcDbLine
 10
41.80038162025085
 20
-612.8542855446467
 30
0.0
 11
20.5965896202506
 21
-649.5803305446461
 31
0.0
  0
LINE
  5
8D
330
4D
100
AcDbEntity
  8
LC-001-002-----0
  6
Continuous
 62
     7
100
AcDbLine
 10
43.79223962024844
 20
-614.0042855446445
 30
0.0
 11
22.58844762024819
 21
-650.7303305446476
 31
0.0
  0
LINE
  5
8E
330
4D
100
AcDbEntity
  8
LC-001-002-----0
  6
Continuous
 62
     7
100
AcDbLine
 10
59.7098786202514
 20
-626.2183185446447
 30
0.0
 11
29.72318862024986
 21
-656.2050095446466
 31
0.0
  0
LINE
  5
8F
330
4D
100
AcDbEntity
  8
LC-001-002-----0
  6
Continuous
 62
     7
100
AcDbLine
 10
61.33622462024869
 20
-627.8446645446456
 30
0.0
 11
31.34953362025044
 21
-657.8313545446472
 31
0.0
  0
LINE
  5
90
330
4D
100
AcDbEntity
  8
LC-001-002-----0
  6
Continuous
 62
     7
100
AcDbLine
 10
74.70025762025034
 20
-645.7541615446462
 30
0.0
 11
37.97421262025091
 21
-666.9579535446464
 31
0.0
  0
LINE
  5
91
330
4D
100
AcDbEntity
  8
LC-001-002-----0
  6
Continuous
 62
     7
100
AcDbLine
 10
73.55025762024889
 20
-643.7623025446446
 30
0.0
 11
36.82421262024946
 21
-664.9660945446449
 31
0.0
  0
LINE
  5
92
330
4D
100
AcDbEntity
  8
LC-001-002-----0
  6
Continuous
 62
     7
100
AcDbLine
 10
82.37832062024972
 20
-664.2906435446457
 30
0.0
 11
41.41573962024995
 21
-675.2665345446476
 31
0.0
  0
LINE
  5
93
330
4D
100
AcDbEntity
  8
LC-001-002-----0
  6
Continuous
 62
     7
100
AcDbLine
 10
82.9736046202488
 20
-666.5122735446457
 30
0.0
 11
42.01102362024903
 21
-677.4881635446473
 31
0.0
  0
LINE
  5
94
330
4D
100
AcDbEntity
  8
LC-001-002-----0
  6
Continuous
 62
     7
100
AcDbLine
 10
85.59244862024934
 20
-686.4043695446453
 30
0.0
 11
43.18486362024851
 21
-686.4043695446453
 31
0.0
  0
LINE
  5
95
330
4D
100
AcDbEntity
  8
LC-001-002-----0
  6
Continuous
 62
     7
100
AcDbLine
 10
85.59244862024934
 20
-688.7043695446446
 30
0.0
 11
43.18486362024851
 21
-688.7043695446446
 31
0.0
  0
LINE
  5
96
330
4D
100
AcDbEntity
  8
LC-001-002-----0
  6
Continuous
 62
     7
100
AcDbLine
 10
-82.97325737974825
 20
-708.5964655446478
 30
0.0
 11
-42.01067637974848
 21
-697.6205755446463
 31
0.0
  0
LINE
  5
97
330
4D
100
AcDbEntity
  8
LC-001-002-----0
  6
Continuous
 62
     7
100
AcDbLine
 10
-82.37797337974916
 20
-710.8180945446475
 30
0.0
 11
-41.41539237974939
 21
-699.8422045446459
 31
0.0
  0
LINE
  5
98
330
4D
100
AcDbEntity
  8
LC-001-002-----0
  6
Continuous
 62
     7
100
AcDbLine
 10
-73.54991037974833
 20
-731.3464365446453
 30
0.0
 11
-36.8238653797489
 21
-710.1426435446447
 31
0.0
  0
LINE
  5
99
330
4D
100
AcDbEntity
  8
LC-001-002-----0
  6
Continuous
 62
     7
100
AcDbLine
 10
-61.33587737974813
 20
-747.2640745446442
 30
0.0
 11
-31.34918637974988
 21
-717.2773845446463
 31
0.0
  0
LINE
  5
9A
330
4D
100
AcDbEntity
  8
LC-001-002-----0
  6
Continuous
 62
     7
100
AcDbLine
 10
-59.70953137975084
 20
-748.8904205446452
 30
0.0
 11
-29.7228413797493
 21
-718.9037295446469
 31
0.0
  0
LINE
  5
9B
330
4D
100
AcDbEntity
  8
LC-001-002-----0
  6
Continuous
 62
     7
100
AcDbLine
 10
-43.79189337975186
 20
-761.1044535446454
 30
0.0
 11
-22.58810137975161
 21
-724.3784085446459
 31
0.0
  0
LINE
  5
9C
330
4D
100
AcDbEntity
  8
LC-001-002-----0
  6
Continuous
 62
     7
100
AcDbLine
 10
-41.80003437975029
 20
-762.2544535446468
 30
0.0
 11
-20.59624237975004
 21
-725.5284085446474
 31
0.0
  0
LINE
  5
9D
330
4D
100
AcDbEntity
  8
LC-001-002-----0
  6
Continuous
 62
     7
100
AcDbLine
 10
-23.26355237975076
 20
-769.9325165446462
 30
0.0
 11
-12.2876613797489
 21
-728.9699355446464
 31
0.0
  0
LINE
  5
9E
330
4D
100
AcDbEntity
  8
LC-001-002-----0
  6
Continuous
 62
     7
100
AcDbLine
 10
-21.04192237975076
 20
-770.5278005446453
 30
0.0
 11
-10.06603237974923
 21
-729.5652195446455
 31
0.0
  0
LINE
  5
9F
330
4D
100
AcDbEntity
  8
LC-001-002-----0
  6
Continuous
 62
     7
100
AcDbLine
 10
1.1501736202481
 20
-773.1466445446458
 30
0.0
 11
1.1501736202481
 21
-730.7390605446453
 31
0.0
  0
LINE
  5
A0
330
4D
100
AcDbEntity
  8
LC-001-002-----0
  6
Continuous
 62
     7
100
AcDbLine
 10
-1.14982637975117
 20
-773.1466445446458
 30
0.0
 11
-1.14982637975117
 21
-730.7390605446453
 31
0.0
  0
LINE
  5
A1
330
4D
100
AcDbEntity
  8
LC-001-002-----0
  6
Continuous
 62
     7
100
AcDbLine
 10
23.26389862025098
 20
-769.9325165446462
 30
0.0
 11
12.28800862024946
 21
-728.9699355446464
 31
0.0
  0
LINE
  5
A2
330
4D
100
AcDbEntity
  8
LC-001-002-----0
  6
Continuous
 62
     7
100
AcDbLine
 10
21.04226962025132
 20
-770.5278005446453
 30
0.0
 11
10.06637962024979
 21
-729.5652195446455
 31
0.0
  0
LINE
  5
A3
330
4D
100
AcDbEntity
  8
LC-001-002-----0
  6
Continuous
 62
     7
100
AcDbLine
 10
41.80038162025085
 20
-762.2544535446468
 30
0.0
 11
20.5965896202506
 21
-725.5284085446474
 31
0.0
  0
LINE
  5
A4
330
4D
100
AcDbEntity
  8
LC-001-002-----0
  6
Continuous
 62
     7
100
AcDbLine
 10
43.79223962024844
 20
-761.1044535446454
 30
0.0
 11
22.58844762024819
 21
-724.3784085446459
 31
0.0
  0
LINE
  5
A5
330
4D
100
AcDbEntity
  8
LC-001-002-----0
  6
Continuous
 62
     7
100
AcDbLine
 10
59.7098786202514
 20
-748.8904205446452
 30
0.0
 11
29.72318862024986
 21
-718.9037295446469
 31
0.0
  0
LINE
  5
A6
330
4D
100
AcDbEntity
  8
LC-001-002-----0
  6
Continuous
 62
     7
100
AcDbLine
 10
61.33622462024869
 20
-747.2640745446442
 30
0.0
 11
31.34953362025044
 21
-717.2773845446463
 31
0.0
  0
LINE
  5
A7
330
4D
100
AcDbEntity
  8
LC-001-002-----0
  6
Continuous
 62
     7
100
AcDbLine
 10
82.9736046202488
 20
-708.5964655446478
 30
0.0
 11
42.01102362024903
 21
-697.6205755446463
 31
0.0
  0
LINE
  5
A8
330
4D
100
AcDbEntity
  8
LC-001-002-----0
  6
Continuous
 62
     7
100
AcDbLine
 10
82.37832062024972
 20
-710.8180945446475
 30
0.0
 11
41.41573962024995
 21
-699.8422045446459
 31
0.0
  0
LINE
  5
A9
330
4D
100
AcDbEntity
  8
LC-001-002-----0
  6
Continuous
 62
     7
100
AcDbLine
 10
74.70025762025034
 20
-729.3545775446473
 30
0.0
 11
37.97421262025091
 21
-708.1507855446471
 31
0.0
  0
LINE
  5
AA
330
4D
100
AcDbEntity
  8
LC-001-002-----0
  6
Continuous
 62
     7
100
AcDbLine
 10
73.55025762024889
 20
-731.3464365446453
 30
0.0
 11
36.82421262024946
 21
-710.1426435446447
 31
0.0
  0
LINE
  5
AB
330
4D
100
AcDbEntity
  8
LC-001-002-----0
  6
Continuous
 62
     7
100
AcDbLine
 10
-29.05638337974961
 20
-714.9845805446457
 30
0.0
 11
-3.15046537974922
 21
-689.0786635446457
 31
0.0
  0
LINE
  5
AC
330
4D
100
AcDbEntity
  8
LC-001-002-----0
  6
Continuous
 62
     7
100
AcDbLine
 10
-27.43003837974902
 20
-716.6109265446466
 30
0.0
 11
-1.52412037974864
 21
-690.7050085446463
 31
0.0
  0
LINE
  5
AD
330
4D
100
AcDbEntity
  8
LC-001-002-----0
  6
Continuous
 62
     7
100
AcDbLine
 10
27.43038462024924
 20
-716.6109265446466
 30
0.0
 11
1.5244676202492
 21
-690.7050085446463
 31
0.0
  0
LINE
  5
AE
330
4D
100
AcDbEntity
  8
LC-001-002-----0
  6
Continuous
 62
     7
100
AcDbLine
 10
29.05673062025016
 20
-714.9845805446457
 30
0.0
 11
3.15081262024978
 21
-689.0786635446457
 31
0.0
  0
LINE
  5
AF
330
4D
100
AcDbEntity
  8
LC-001-002-----0
  6
Continuous
 62
     7
100
AcDbLine
 10
-1.14982637975117
 20
-727.4965465446476
 30
0.0
 11
-1.14982637975117
 21
-721.5382385446464
 31
0.0
  0
LINE
  5
B0
330
4D
100
AcDbEntity
  8
LC-001-002-----0
  6
Continuous
 62
     7
100
AcDbLine
 10
1.1501736202481
 20
-727.4965465446476
 30
0.0
 11
1.1501736202481
 21
-721.5382385446464
 31
0.0
  0
LINE
  5
B1
330
4D
100
AcDbEntity
  8
LC-001-002-----0
  6
Continuous
 62
     7
100
AcDbLine
 10
2.20017362025101
 20
-678.5705005446471
 30
0.0
 11
2.20017362025101
 21
-654.5705005446471
 31
0.0
  0
LINE
  5
B2
330
4D
100
AcDbEntity
  8
LC-001-002-----0
  6
Continuous
 62
     7
100
AcDbLine
 10
-1.19982637975045
 20
-653.5705005446471
 30
0.0
 11
-1.14982637975117
 21
-653.5705005446471
 31
0.0
  0
LINE
  5
B3
330
4D
100
AcDbEntity
  8
LC-001-002-----0
  6
Continuous
 62
     7
100
AcDbLine
 10
-2.19982637975045
 20
-678.5705005446471
 30
0.0
 11
-2.19982637975045
 21
-654.5705005446471
 31
0.0
  0
LINE
  5
B4
330
4D
100
AcDbEntity
  8
LC-001-002-----0
  6
Continuous
 62
     7
100
AcDbLine
 10
1.1501736202481
 20
-653.5705005446471
 30
0.0
 11
1.20017362025101
 21
-653.5705005446471
 31
0.0
  0
LINE
  5
B5
330
4D
100
AcDbEntity
  8
LC-001-002-----0
  6
Continuous
 62
     7
100
AcDbLine
 10
-1.19982637975045
 20
-679.5705005446471
 30
0.0
 11
-1.14982637975117
 21
-679.5705005446471
 31
0.0
  0
LINE
  5
B6
330
4D
100
AcDbEntity
  8
LC-001-002-----0
  6
Continuous
 62
     7
100
AcDbLine
 10
1.20017362025101
 20
-679.5705005446471
 30
0.0
 11
1.1501736202481
 21
-679.5705005446471
 31
0.0
  0
LINE
  5
B7
330
4D
100
AcDbEntity
  8
LC-001-002-----0
  6
Continuous
 62
     7
100
AcDbLine
 10
-1.14982637975117
 20
-679.5705005446471
 30
0.0
 11
-1.14982637975117
 21
-684.2486925446465
 31
0.0
  0
LINE
  5
B8
330
4D
100
AcDbEntity
  8
LC-001-002-----0
  6
Continuous
 62
     7
100
AcDbLine
 10
1.1501736202481
 20
-647.3686085446461
 30
0.0
 11
1.1501736202481
 21
-653.5705005446471
 31
0.0
  0
LINE
  5
B9
330
4D
100
AcDbEntity
  8
LC-001-002-----0
  6
Continuous
 62
     7
100
AcDbLine
 10
2.20017362025101
 20
-696.5382385446464
 30
0.0
 11
2.20017362025101
 21
-720.5382385446464
 31
0.0
  0
LINE
  5
BA
330
4D
100
AcDbEntity
  8
LC-001-002-----0
  6
Continuous
 62
     7
100
AcDbLine
 10
-1.19982637975045
 20
-721.5382385446464
 30
0.0
 11
-1.14982637975117
 21
-721.5382385446464
 31
0.0
  0
LINE
  5
BB
330
4D
100
AcDbEntity
  8
LC-001-002-----0
  6
Continuous
 62
     7
100
AcDbLine
 10
-2.19982637975045
 20
-696.5382385446464
 30
0.0
 11
-2.19982637975045
 21
-720.5382385446464
 31
0.0
  0
LINE
  5
BC
330
4D
100
AcDbEntity
  8
LC-001-002-----0
  6
Continuous
 62
     7
100
AcDbLine
 10
1.1501736202481
 20
-721.5382385446464
 30
0.0
 11
1.20017362025101
 21
-721.5382385446464
 31
0.0
  0
LINE
  5
BD
330
4D
100
AcDbEntity
  8
LC-001-002-----0
  6
Continuous
 62
     7
100
AcDbLine
 10
-1.19982637975045
 20
-695.5382385446464
 30
0.0
 11
-1.14982637975117
 21
-695.5382385446464
 31
0.0
  0
LINE
  5
BE
330
4D
100
AcDbEntity
  8
LC-001-002-----0
  6
Continuous
 62
     7
100
AcDbLine
 10
1.20017362025101
 20
-695.5382385446464
 30
0.0
 11
1.1501736202481
 21
-695.5382385446464
 31
0.0
  0
LINE
  5
BF
330
4D
100
AcDbEntity
  8
LC-001-002-----0
  6
Continuous
 62
     7
100
AcDbLine
 10
-1.14982637975117
 20
-695.5382385446464
 30
0.0
 11
-1.14982637975117
 21
-690.860046544647
 31
0.0
  0
LINE
  5
C0
330
4D
100
AcDbEntity
  8
LC-001-002-----0
  6
Continuous
 62
     7
100
AcDbLine
 10
1.1501736202481
 20
-695.5382385446464
 30
0.0
 11
1.1501736202481
 21
-690.860046544647
 31
0.0
  0
LINE
  5
C1
330
4D
100
AcDbEntity
  8
LC-001-002-----0
  6
Continuous
 62
     7
100
AcDbLine
 10
-74.06587037974896
 20
-675.7543695446475
 30
0.0
 11
-72.03981537975051
 21
-675.7543695446475
 31
0.0
  0
LINE
  5
C2
330
4D
100
AcDbEntity
  8
LC-001-002-----0
  6
Continuous
 62
     7
100
AcDbLine
 10
-74.06587037974896
 20
-699.354369544646
 30
0.0
 11
-72.03981537975051
 21
-699.354369544646
 31
0.0
  0
LINE
  5
C3
330
4D
100
AcDbEntity
  8
LC-001-002-----0
  6
Continuous
 62
     7
100
AcDbLine
 10
11.80017362024955
 20
-613.4880535446464
 30
0.0
 11
11.80017362024955
 21
-615.514380544646
 31
0.0
  0
LINE
  5
C4
330
4D
100
AcDbEntity
  8
LC-001-002-----0
  6
Continuous
 62
     7
100
AcDbLine
 10
-11.79982637974899
 20
-613.4881285446463
 30
0.0
 11
-11.79982637974899
 21
-615.514380544646
 31
0.0
  0
LINE
  5
C5
330
4D
100
AcDbEntity
  8
LC-001-002-----0
  6
Continuous
 62
     7
100
AcDbLine
 10
74.06668662024822
 20
-699.354369544646
 30
0.0
 11
72.04016262025107
 21
-699.354369544646
 31
0.0
  0
LINE
  5
C6
330
4D
100
AcDbEntity
  8
LC-001-002-----0
  6
Continuous
 62
     7
100
AcDbLine
 10
74.06668662024822
 20
-675.7543695446475
 30
0.0
 11
72.04016262025107
 21
-675.7543695446475
 31
0.0
  0
LINE
  5
C7
330
4D
100
AcDbEntity
  8
LC-001-002-----0
  6
Continuous
 62
     7
100
AcDbLine
 10
-11.79982637974899
 20
-761.6206105446472
 30
0.0
 11
-11.79982637974899
 21
-759.5943585446475
 31
0.0
  0
LINE
  5
C8
330
4D
100
AcDbEntity
  8
LC-001-002-----0
  6
Continuous
 62
     7
100
AcDbLine
 10
11.80017362024955
 20
-761.6206855446471
 30
0.0
 11
11.80017362024955
 21
-759.5943585446475
 31
0.0
  0
LINE
  5
C9
330
4D
100
AcDbEntity
  8
LC-001-002-----0
  6
Continuous
 62
     7
100
AcDbLine
 10
-1.14982637975117
 20
-601.9620945446441
 30
0.0
 11
-1.14982637975117
 21
-644.3696785446446
 31
0.0
  0
LINE
  5
CA
330
4D
100
AcDbEntity
  8
LC-001-002-----0
  6
Continuous
 62
     7
100
AcDbLine
 10
1.1501736202481
 20
-601.9620945446441
 30
0.0
 11
1.1501736202481
 21
-644.3696785446446
 31
0.0
  0
LINE
  5
CB
330
4D
100
AcDbEntity
  8
LC-001-002-----0
  6
Continuous
 62
     7
100
AcDbLine
 10
-124.7495913797502
 20
-555.3115495446473
 30
0.0
 11
-129.4995913797502
 21
-552.569135544647
 31
0.0
  0
LINE
  5
CC
330
4D
100
AcDbEntity
  8
LC-001-002-----0
  6
Continuous
 62
     7
100
AcDbLine
 10
-129.4995913797502
 20
-552.569135544647
 30
0.0
 11
-134.2495913797502
 21
-555.3115495446473
 31
0.0
  0
LINE
  5
CD
330
4D
100
AcDbEntity
  8
LC-001-002-----0
  6
Continuous
 62
     7
100
AcDbLine
 10
-134.2495913797502
 20
-555.3115495446473
 30
0.0
 11
-134.2495913797502
 21
-560.7963765446475
 31
0.0
  0
LINE
  5
CE
330
4D
100
AcDbEntity
  8
LC-001-002-----0
  6
Continuous
 62
     7
100
AcDbLine
 10
-134.2495913797502
 20
-560.7963765446475
 30
0.0
 11
-129.4995913797502
 21
-563.5387905446478
 31
0.0
  0
LINE
  5
CF
330
4D
100
AcDbEntity
  8
LC-001-002-----0
  6
Continuous
 62
     7
100
AcDbLine
 10
-129.4995913797502
 20
-563.5387905446478
 30
0.0
 11
-124.7495913797502
 21
-560.7963765446475
 31
0.0
  0
LINE
  5
D0
330
4D
100
AcDbEntity
  8
LC-001-002-----0
  6
Continuous
 62
     7
100
AcDbLine
 10
-124.7495913797502
 20
-560.7963765446475
 30
0.0
 11
-124.7495913797502
 21
-555.3115495446473
 31
0.0
  0
LINE
  5
D1
330
4D
100
AcDbEntity
  8
LC-001-002-----0
  6
Continuous
 62
     7
100
AcDbLine
 10
134.2504086202498
 20
-555.3115455446459
 30
0.0
 11
129.5004086202498
 21
-552.5691315446456
 31
0.0
  0
LINE
  5
D2
330
4D
100
AcDbEntity
  8
LC-001-002-----0
  6
Continuous
 62
     7
100
AcDbLine
 10
129.5004086202498
 20
-552.5691315446456
 30
0.0
 11
124.7504086202498
 21
-555.3115455446459
 31
0.0
  0
LINE
  5
D3
330
4D
100
AcDbEntity
  8
LC-001-002-----0
  6
Continuous
 62
     7
100
AcDbLine
 10
124.7504086202498
 20
-555.3115455446459
 30
0.0
 11
124.7504086202498
 21
-560.7963725446461
 31
0.0
  0
LINE
  5
D4
330
4D
100
AcDbEntity
  8
LC-001-002-----0
  6
Continuous
 62
     7
100
AcDbLine
 10
124.7504086202498
 20
-560.7963725446461
 30
0.0
 11
129.5004086202498
 21
-563.5387865446464
 31
0.0
  0
LINE
  5
D5
330
4D
100
AcDbEntity
  8
LC-001-002-----0
  6
Continuous
 62
     7
100
AcDbLine
 10
129.5004086202498
 20
-563.5387865446464
 30
0.0
 11
134.2504086202498
 21
-560.7963725446461
 31
0.0
  0
LINE
  5
D6
330
4D
100
AcDbEntity
  8
LC-001-002-----0
  6
Continuous
 62
     7
100
AcDbLine
 10
134.2504086202498
 20
-560.7963725446461
 30
0.0
 11
134.2504086202498
 21
-555.3115455446459
 31
0.0
  0
LINE
  5
D7
330
4D
100
AcDbEntity
  8
LC-001-002-----0
  6
Continuous
 62
     7
100
AcDbLine
 10
-124.7495913797502
 20
-814.311553544645
 30
0.0
 11
-129.4995913797502
 21
-811.5691395446447
 31
0.0
  0
LINE
  5
D8
330
4D
100
AcDbEntity
  8
LC-001-002-----0
  6
Continuous
 62
     7
100
AcDbLine
 10
-129.4995913797502
 20
-811.5691395446447
 30
0.0
 11
-134.2495913797502
 21
-814.311553544645
 31
0.0
  0
LINE
  5
D9
330
4D
100
AcDbEntity
  8
LC-001-002-----0
  6
Continuous
 62
     7
100
AcDbLine
 10
-134.2495913797502
 20
-814.311553544645
 30
0.0
 11
-134.2495913797502
 21
-819.7963805446452
 31
0.0
  0
LINE
  5
DA
330
4D
100
AcDbEntity
  8
LC-001-002-----0
  6
Continuous
 62
     7
100
AcDbLine
 10
-134.2495913797502
 20
-819.7963805446452
 30
0.0
 11
-129.4995913797502
 21
-822.5387945446455
 31
0.0
  0
LINE
  5
DB
330
4D
100
AcDbEntity
  8
LC-001-002-----0
  6
Continuous
 62
     7
100
AcDbLine
 10
-129.4995913797502
 20
-822.5387945446455
 30
0.0
 11
-124.7495913797502
 21
-819.7963805446452
 31
0.0
  0
LINE
  5
DC
330
4D
100
AcDbEntity
  8
LC-001-002-----0
  6
Continuous
 62
     7
100
AcDbLine
 10
-124.7495913797502
 20
-819.7963805446452
 30
0.0
 11
-124.7495913797502
 21
-814.311553544645
 31
0.0
  0
LINE
  5
DD
330
4D
100
AcDbEntity
  8
LC-001-002-----0
  6
Continuous
 62
     7
100
AcDbLine
 10
134.2504086202498
 20
-814.311553544645
 30
0.0
 11
129.5004086202498
 21
-811.5691395446447
 31
0.0
  0
LINE
  5
DE
330
4D
100
AcDbEntity
  8
LC-001-002-----0
  6
Continuous
 62
     7
100
AcDbLine
 10
129.5004086202498
 20
-811.5691395446447
 30
0.0
 11
124.7504086202498
 21
-814.311553544645
 31
0.0
  0
LINE
  5
DF
330
4D
100
AcDbEntity
  8
LC-001-002-----0
  6
Continuous
 62
     7
100
AcDbLine
 10
124.7504086202498
 20
-814.311553544645
 30
0.0
 11
124.7504086202498
 21
-819.7963805446452
 31
0.0
  0
LINE
  5
E0
330
4D
100
AcDbEntity
  8
LC-001-002-----0
  6
Continuous
 62
     7
100
AcDbLine
 10
124.7504086202498
 20
-819.7963805446452
 30
0.0
 11
129.5004086202498
 21
-822.5387945446455
 31
0.0
  0
LINE
  5
E1
330
4D
100
AcDbEntity
  8
LC-001-002-----0
  6
Continuous
 62
     7
100
AcDbLine
 10
129.5004086202498
 20
-822.5387945446455
 30
0.0
 11
134.2504086202498
 21
-819.7963805446452
 31
0.0
  0
LINE
  5
E2
330
4D
100
AcDbEntity
  8
LC-001-002-----0
  6
Continuous
 62
     7
100
AcDbLine
 10
134.2504086202498
 20
-819.7963805446452
 30
0.0
 11
134.2504086202498
 21
-814.311553544645
 31
0.0
  0
LINE
  5
E3
330
4D
100
AcDbEntity
  8
LC-001-002-----0
  6
Continuous
 62
     7
100
AcDbLine
 10
-39.94200337975053
 20
-688.7043695446446
 30
0.0
 11
-3.30550337975001
 21
-688.7043695446446
 31
0.0
  0
LINE
  5
E4
330
4D
100
AcDbEntity
  8
LC-007-007-KH--0
  6
DASHDOT
 62
     7
100
AcDbLine
 10
75.77742762025082
 20
-731.3051715446454
 30
0.0
 11
75.77742762025082
 21
-731.3051715446454
 31
0.0
  0
LINE
  5
E5
330
4D
100
AcDbEntity
  8
LC-007-007-KH--0
  6
DASHDOT
 62
     7
100
AcDbLine
 10
75.77742762025082
 20
-731.3051715446454
 30
0.0
 11
75.77742762025082
 21
-731.3051715446454
 31
0.0
  0
LINE
  5
E6
330
4D
100
AcDbEntity
  8
LC-007-007-KH--0
  6
DASHDOT
 62
     7
100
AcDbLine
 10
75.77742762025082
 20
-731.3051715446454
 30
0.0
 11
75.77742762025082
 21
-731.3051715446454
 31
0.0
  0
LINE
  5
E7
330
4D
100
AcDbEntity
  8
LC-007-007-KH--0
  6
DASHDOT
 62
     7
100
AcDbLine
 10
75.77742762025082
 20
-731.3051715446454
 30
0.0
 11
75.77742762025082
 21
-731.3051715446454
 31
0.0
  0
LINE
  5
E8
330
4D
100
AcDbEntity
  8
1
  6
PHANTOM
 62
     2
100
AcDbLine
 10
-188.9996511030622
 20
-687.5551867851245
 30
0.0
 11
189.0003566124215
 21
-687.5535523046456
 31
0.0
  0
LINE
  5
E9
330
4D
100
AcDbEntity
  8
1
  6
PHANTOM
 62
     2
100
AcDbLine
 10
0.0
 20
-498.5543056453098
 30
0.0
 11
0.00081724013944
 21
-876.554267051677
 31
0.0
  0
LINE
  5
EA
330
4D
100
AcDbEntity
  8
LC-010-006-MLN-0
  6
DASHDOT
 62
     2
100
AcDbLine
 10
-142.9996003797496
 20
-558.0539585446459
 30
0.0
 11
-115.9995913797502
 21
-558.0539585446459
 31
0.0
  0
LINE
  5
EB
330
4D
100
AcDbEntity
  8
LC-010-006-MLN-0
  6
DASHDOT
 62
     2
100
AcDbLine
 10
-129.4995963797519
 20
-544.5539545446445
 30
0.0
 11
-129.4995963797519
 21
-571.5539625446472
 31
0.0
  0
LINE
  5
EC
330
4D
100
AcDbEntity
  8
LC-010-006-MLN-0
  6
DASHDOT
 62
     2
100
AcDbLine
 10
143.0004166202489
 20
-558.0539585446459
 30
0.0
 11
116.0004086202498
 21
-558.0539585446459
 31
0.0
  0
LINE
  5
ED
330
4D
100
AcDbEntity
  8
LC-010-006-MLN-0
  6
DASHDOT
 62
     2
100
AcDbLine
 10
129.5004126202512
 20
-544.5539545446445
 30
0.0
 11
129.5004126202512
 21
-571.5539625446472
 31
0.0
  0
LINE
  5
EE
330
4D
100
AcDbEntity
  8
LC-010-006-MLN-0
  6
DASHDOT
 62
     2
100
AcDbLine
 10
-129.4995963797519
 20
-830.5539715446466
 30
0.0
 11
-129.4995963797519
 21
-803.5539625446472
 31
0.0
  0
LINE
  5
EF
330
4D
100
AcDbEntity
  8
LC-010-006-MLN-0
  6
DASHDOT
 62
     2
100
AcDbLine
 10
143.0004166202489
 20
-817.0539675446453
 30
0.0
 11
116.0004086202498
 21
-817.0539675446453
 31
0.0
  0
LINE
  5
F0
330
4D
100
AcDbEntity
  8
LC-010-006-MLN-0
  6
DASHDOT
 62
     2
100
AcDbLine
 10
129.5004126202512
 20
-830.5539715446466
 30
0.0
 11
129.5004126202512
 21
-803.5539625446472
 31
0.0
  0
LINE
  5
F1
330
4D
100
AcDbEntity
  8
LC-001-002-----0
  6
DASHDOT
 62
     3
100
AcDbLine
 10
0.0004086202498
 20
-809.5539625446472
 30
0.0
 11
0.0004086202498
 21
-809.5539625446472
 31
0.0
  0
LINE
  5
F2
330
4D
100
AcDbEntity
  8
LC-001-002-----0
  6
DASHDOT
 62
     2
100
AcDbLine
 10
0.0004086202498
 20
-565.5539625446472
 30
0.0
 11
0.0004086202498
 21
-565.5539625446472
 31
0.0
  0
LINE
  5
F3
330
4D
100
AcDbEntity
  8
LC-010-006-MLN-0
  6
DASHDOT
 62
     2
100
AcDbLine
 10
-114.7495913797502
 20
-817.0539675446453
 30
0.0
 11
-144.2495913797502
 21
-817.0539675446453
 31
0.0
  0
LINE
  5
F4
330
4D
100
AcDbEntity
  8
LC-001-002-----0
  6
Continuous
 62
     7
100
AcDbLine
 10
170.0004126202512
 20
-507.5539585446459
 30
0.0
 11
71.64826262024872
 21
-507.5539585446459
 31
0.0
  0
LINE
  5
F5
330
4D
100
AcDbEntity
  8
1
  6
Continuous
 62
     7
100
AcDbLine
 10
180.0004126202512
 20
-517.5539585446459
 30
0.0
 11
180.0004126202512
 21
-857.5539675446453
 31
0.0
  0
LINE
  5
F6
330
4D
100
AcDbEntity
  8
1
  6
Continuous
 62
     7
100
AcDbLine
 10
-179.9988629292093
 20
-857.5539675446453
 30
0.0
 11
-179.9988629292093
 21
-517.5539585446459
 31
0.0
  0
LINE
  5
F7
330
4D
100
AcDbEntity
  8
1
  6
Continuous
 62
     7
100
AcDbLine
 10
-169.9988629292093
 20
-507.5539585446459
 30
0.0
 11
71.64826262024872
 21
-507.5539585446459
 31
0.0
  0
LINE
  5
F8
330
4D
100
AcDbEntity
  8
1
  6
Continuous
 62
     7
100
AcDbLine
 10
-169.9988629292093
 20
-867.5539675446453
 30
0.0
 11
170.0004126202512
 21
-867.5539675446453
 31
0.0
  0
ARC
  5
F9
330
4D
100
AcDbEntity
  8
LC-002-002-RND-0
  6
Continuous
 62
     7
100
AcDbCircle
 10
-178.9999783797503
 20
-508.5551435446469
 30
0.0
 40
9.999999999999202
100
AcDbArc
 50
90.0002480000038
 51
-179.9998760000087
  0
ARC
  5
FA
330
4D
100
AcDbEntity
  8
LC-002-002-RND-0
  6
Continuous
 62
     7
100
AcDbCircle
 10
179.0000216202498
 20
-508.5535955446467
 30
0.0
 40
10.00000000000151
100
AcDbArc
 50
0.00012400001248
 51
90.00024800002497
  0
ARC
  5
FB
330
4D
100
AcDbEntity
  8
LC-002-002-RND-0
  6
Continuous
 62
     7
100
AcDbCircle
 10
179.0007956202499
 20
-866.5535955446467
 30
0.0
 40
9.999999999999089
100
AcDbArc
 50
-89.99975199997503
 51
0.00012400001248
  0
ARC
  5
FC
330
4D
100
AcDbEntity
  8
LC-002-002-RND-0
  6
Continuous
 62
     7
100
AcDbCircle
 10
-178.9992043797502
 20
-866.5551435446469
 30
0.0
 40
10.00000000000151
100
AcDbArc
 50
-179.9998760000084
 51
-89.99975199999555
  0
ARC
  5
FD
330
4D
100
AcDbEntity
  8
LC-001-002-----0
  6
Continuous
 62
     7
100
AcDbCircle
 10
0.00017362025028
 20
-687.5543695446468
 30
0.0
 40
3.500000000000681
100
AcDbArc
 50
64.18208999999611
 51
70.81791000001483
  0
ARC
  5
FE
330
4D
100
AcDbEntity
  8
LC-001-002-----0
  6
Continuous
 62
     7
100
AcDbCircle
 10
0.00017362025028
 20
-687.5543695446468
 30
0.0
 40
3.499999999998411
100
AcDbArc
 50
19.18209000000472
 51
25.81791000000391
  0
ARC
  5
FF
330
4D
100
AcDbEntity
  8
LC-001-002-----0
  6
Continuous
 62
     7
100
AcDbCircle
 10
0.00017362025028
 20
-687.5543695446468
 30
0.0
 40
3.500000000000681
100
AcDbArc
 50
-25.81791000000391
 51
-19.18209000000472
  0
ARC
  5
100
330
4D
100
AcDbEntity
  8
LC-001-002-----0
  6
Continuous
 62
     7
100
AcDbCircle
 10
0.00017362025028
 20
-687.5543695446468
 30
0.0
 40
3.499999999998411
100
AcDbArc
 50
-70.81790999999527
 51
-64.18208999999611
  0
ARC
  5
101
330
4D
100
AcDbEntity
  8
LC-001-002-----0
  6
Continuous
 62
     7
100
AcDbCircle
 10
0.00017362025028
 20
-687.5543695446468
 30
0.0
 40
3.500000000000682
100
AcDbArc
 50
-115.8179100000039
 51
-109.1820900000047
  0
ARC
  5
102
330
4D
100
AcDbEntity
  8
LC-001-002-----0
  6
Continuous
 62
     7
100
AcDbCircle
 10
0.00017362025028
 20
-687.5543695446468
 30
0.0
 40
3.500000000001846
100
AcDbArc
 50
-160.8179100000148
 51
-154.1820899999961
  0
ARC
  5
103
330
4D
100
AcDbEntity
  8
LC-001-002-----0
  6
Continuous
 62
     7
100
AcDbCircle
 10
0.00017362025028
 20
-687.5543695446468
 30
0.0
 40
3.500000000000682
100
AcDbArc
 50
154.1820899999961
 51
160.8179100000148
  0
ARC
  5
104
330
4D
100
AcDbEntity
  8
LC-001-002-----0
  6
Continuous
 62
     7
100
AcDbCircle
 10
0.00017362025028
 20
-687.5543695446468
 30
0.0
 40
85.60000000000052
100
AcDbArc
 50
164.2302319999992
 51
165.7697680000001
  0
ARC
  5
105
330
4D
100
AcDbEntity
  8
LC-001-002-----0
  6
Continuous
 62
     7
100
AcDbCircle
 10
0.00017362025028
 20
-687.5543695446468
 30
0.0
 40
85.60000000000235
100
AcDbArc
 50
149.2302320000004
 51
150.7697679999989
  0
ARC
  5
106
330
4D
100
AcDbEntity
  8
LC-001-002-----0
  6
Continuous
 62
     7
100
AcDbCircle
 10
0.00017362025028
 20
-687.5543695446468
 30
0.0
 40
85.59999999999894
100
AcDbArc
 50
179.2302319999991
 51
-179.2302320000016
  0
ARC
  5
107
330
4D
100
AcDbEntity
  8
LC-001-002-----0
  6
Continuous
 62
     7
100
AcDbCircle
 10
0.00017362025028
 20
-687.5543695446468
 30
0.0
 40
85.60000000000028
100
AcDbArc
 50
-165.7697680000001
 51
-164.2302320000015
  0
ARC
  5
108
330
4D
100
AcDbEntity
  8
LC-001-002-----0
  6
Continuous
 62
     7
100
AcDbCircle
 10
0.00017362025028
 20
-687.5543695446468
 30
0.0
 40
85.59999999999911
100
AcDbArc
 50
-150.769768000001
 51
-149.2302320000004
  0
ARC
  5
109
330
4D
100
AcDbEntity
  8
LC-001-002-----0
  6
Continuous
 62
     7
100
AcDbCircle
 10
0.00017362025028
 20
-687.5543695446468
 30
0.0
 40
85.59999999999947
100
AcDbArc
 50
-135.7697680000006
 51
-134.2302319999994
  0
ARC
  5
10A
330
4D
100
AcDbEntity
  8
LC-001-002-----0
  6
Continuous
 62
     7
100
AcDbCircle
 10
0.00017362025028
 20
-687.5543695446468
 30
0.0
 40
85.59999999999923
100
AcDbArc
 50
-120.7697680000008
 51
-119.2302320000011
  0
ARC
  5
10B
330
4D
100
AcDbEntity
  8
LC-001-002-----0
  6
Continuous
 62
     7
100
AcDbCircle
 10
0.00017362025028
 20
-687.5543695446468
 30
0.0
 40
85.60000000000052
100
AcDbArc
 50
-105.7697680000008
 51
-104.2302319999999
  0
ARC
  5
10C
330
4D
100
AcDbEntity
  8
LC-001-002-----0
  6
Continuous
 62
     7
100
AcDbCircle
 10
0.00017362025028
 20
-687.5543695446468
 30
0.0
 40
85.59999999999894
100
AcDbArc
 50
-90.76976800000084
 51
-89.23023199999916
  0
ARC
  5
10D
330
4D
100
AcDbEntity
  8
LC-001-002-----0
  6
Continuous
 62
     7
100
AcDbCircle
 10
0.00017362025028
 20
-687.5543695446468
 30
0.0
 40
85.59999999999947
100
AcDbArc
 50
134.2302319999994
 51
135.7697680000006
  0
ARC
  5
10E
330
4D
100
AcDbEntity
  8
LC-001-002-----0
  6
Continuous
 62
     7
100
AcDbCircle
 10
0.00017362025028
 20
-687.5543695446468
 30
0.0
 40
85.60000000000089
100
AcDbArc
 50
119.2302320000011
 51
120.7697679999996
  0
ARC
  5
10F
330
4D
100
AcDbEntity
  8
LC-001-002-----0
  6
Continuous
 62
     7
100
AcDbCircle
 10
0.00017362025028
 20
-687.5543695446468
 30
0.0
 40
85.60000000000028
100
AcDbArc
 50
104.2302319999999
 51
105.7697680000008
  0
ARC
  5
110
330
4D
100
AcDbEntity
  8
LC-001-002-----0
  6
Continuous
 62
     7
100
AcDbCircle
 10
0.00017362025028
 20
-687.5543695446468
 30
0.0
 40
85.59999999999894
100
AcDbArc
 50
89.23023199999916
 51
90.76976800000084
  0
ARC
  5
111
330
4D
100
AcDbEntity
  8
LC-001-002-----0
  6
Continuous
 62
     7
100
AcDbCircle
 10
0.00017362025028
 20
-687.5543695446468
 30
0.0
 40
85.59999999999954
100
AcDbArc
 50
74.23023200000152
 51
75.76976800000011
  0
ARC
  5
112
330
4D
100
AcDbEntity
  8
LC-001-002-----0
  6
Continuous
 62
     7
100
AcDbCircle
 10
0.00017362025028
 20
-687.5543695446468
 30
0.0
 40
85.60000000000235
100
AcDbArc
 50
59.23023200000043
 51
60.769768000001
  0
ARC
  5
113
330
4D
100
AcDbEntity
  8
LC-001-002-----0
  6
Continuous
 62
     7
100
AcDbCircle
 10
0.00017362025028
 20
-687.5543695446468
 30
0.0
 40
85.59999999999947
100
AcDbArc
 50
44.2302319999994
 51
45.7697680000006
  0
ARC
  5
114
330
4D
100
AcDbEntity
  8
LC-001-002-----0
  6
Continuous
 62
     7
100
AcDbCircle
 10
0.00017362025028
 20
-687.5543695446468
 30
0.0
 40
85.60000000000089
100
AcDbArc
 50
29.23023200000113
 51
30.76976800000082
  0
ARC
  5
115
330
4D
100
AcDbEntity
  8
LC-001-002-----0
  6
Continuous
 62
     7
100
AcDbCircle
 10
0.00017362025028
 20
-687.5543695446468
 30
0.0
 40
85.60000000000028
100
AcDbArc
 50
14.2302319999999
 51
15.76976800000082
  0
ARC
  5
116
330
4D
100
AcDbEntity
  8
LC-001-002-----0
  6
Continuous
 62
     7
100
AcDbCircle
 10
0.00017362025028
 20
-687.5543695446468
 30
0.0
 40
85.5999999999989
100
AcDbArc
 50
-0.76976799999841
 51
0.76976800000084
  0
ARC
  5
117
330
4D
100
AcDbEntity
  8
LC-001-002-----0
  6
Continuous
 62
     7
100
AcDbCircle
 10
0.00017362025028
 20
-687.5543695446468
 30
0.0
 40
85.60000000000028
100
AcDbArc
 50
-75.76976800000011
 51
-74.23023200000152
  0
ARC
  5
118
330
4D
100
AcDbEntity
  8
LC-001-002-----0
  6
Continuous
 62
     7
100
AcDbCircle
 10
0.00017362025028
 20
-687.5543695446468
 30
0.0
 40
85.59999999999911
100
AcDbArc
 50
-60.769768000001
 51
-59.23023199999918
  0
ARC
  5
119
330
4D
100
AcDbEntity
  8
LC-001-002-----0
  6
Continuous
 62
     7
100
AcDbCircle
 10
0.00017362025028
 20
-687.5543695446468
 30
0.0
 40
85.59999999999947
100
AcDbArc
 50
-45.7697680000006
 51
-44.2302319999994
  0
ARC
  5
11A
330
4D
100
AcDbEntity
  8
LC-001-002-----0
  6
Continuous
 62
     7
100
AcDbCircle
 10
0.00017362025028
 20
-687.5543695446468
 30
0.0
 40
85.59999999999923
100
AcDbArc
 50
-30.76976800000082
 51
-29.230231999999
  0
ARC
  5
11B
330
4D
100
AcDbEntity
  8
LC-001-002-----0
  6
Continuous
 62
     7
100
AcDbCircle
 10
0.00017362025028
 20
-687.5543695446468
 30
0.0
 40
85.59999999999954
100
AcDbArc
 50
-15.76976799999848
 51
-14.2302319999999
  0
ARC
  5
11C
330
4D
100
AcDbEntity
  8
LC-001-002-----0
  6
Continuous
 62
     7
100
AcDbCircle
 10
0.00017362025028
 20
-687.5543695446468
 30
0.0
 40
3.500000000001847
100
AcDbArc
 50
109.1820899999852
 51
115.8179100000039
  0
ARC
  5
11D
330
4D
100
AcDbEntity
  8
LC-001-002-----0
  6
Continuous
 62
     7
100
AcDbCircle
 10
0.00017362025028
 20
-687.5543695446468
 30
0.0
 40
41.00000000000049
100
AcDbArc
 50
138.0811329999978
 51
176.9188669999984
  0
ARC
  5
11E
330
4D
100
AcDbEntity
  8
LC-002-002-RND-0
  6
Continuous
 62
     7
100
AcDbCircle
 10
-39.94200337975053
 20
-685.4043695446453
 30
0.0
 40
0.9999999999999203
100
AcDbArc
 50
176.9188670000083
 51
-90.0
  0
ARC
  5
11F
330
4D
100
AcDbEntity
  8
LC-002-002-RND-0
  6
Continuous
 62
     7
100
AcDbCircle
 10
-39.94200337975053
 20
-689.7043695446446
 30
0.0
 40
1.0
100
AcDbArc
 50
90.0
 51
-176.9188670000083
  0
ARC
  5
120
330
4D
100
AcDbEntity
  8
LC-001-002-----0
  6
Continuous
 62
     7
100
AcDbCircle
 10
0.00017362025028
 20
-687.5543695446468
 30
0.0
 40
44.83999999999997
100
AcDbArc
 50
166.4696109999982
 51
178.5303889999971
  0
ARC
  5
121
330
4D
100
AcDbEntity
  8
LC-002-002-RND-0
  6
Continuous
 62
     7
100
AcDbCircle
 10
-26.72293137975066
 20
-657.7907055446449
 30
0.0
 40
0.9999999999977424
100
AcDbArc
 50
131.9188669999487
 51
-134.9999999998527
  0
ARC
  5
122
330
4D
100
AcDbEntity
  8
LC-002-002-RND-0
  6
Continuous
 62
     7
100
AcDbCircle
 10
-29.7634903797516
 20
-660.8312645446458
 30
0.0
 40
1.000000000002739
100
AcDbArc
 50
45.00000000000015
 51
138.0811330000518
  0
ARC
  5
123
330
4D
100
AcDbEntity
  8
LC-002-002-RND-0
  6
Continuous
 62
     7
100
AcDbCircle
 10
2.1501736202481
 20
-647.612192544646
 30
0.0
 40
0.9999999999999203
100
AcDbArc
 50
86.91886700000828
 51
180.0
  0
ARC
  5
124
330
4D
100
AcDbEntity
  8
LC-002-002-RND-0
  6
Continuous
 62
     7
100
AcDbCircle
 10
-2.14982637975117
 20
-647.612192544646
 30
0.0
 40
1.0
100
AcDbArc
 50
0.0
 51
93.08113299999178
  0
ARC
  5
125
330
4D
100
AcDbEntity
  8
LC-002-002-RND-0
  6
Continuous
 62
     7
100
AcDbCircle
 10
29.76383762024852
 20
-660.8312645446458
 30
0.0
 40
1.00000000000045
100
AcDbArc
 50
41.91886699980888
 51
134.9999999998523
  0
ARC
  5
126
330
4D
100
AcDbEntity
  8
LC-002-002-RND-0
  6
Continuous
 62
     7
100
AcDbCircle
 10
26.72327762025088
 20
-657.7907055446449
 30
0.0
 40
1.000000000000171
100
AcDbArc
 50
-45.00000000014725
 51
48.08113300005129
  0
ARC
  5
127
330
4D
100
AcDbEntity
  8
LC-002-002-RND-0
  6
Continuous
 62
     7
100
AcDbCircle
 10
39.94235062025109
 20
-689.7043695446446
 30
0.0
 40
0.9999999999999203
100
AcDbArc
 50
-3.08113299999173
 51
90.0
  0
ARC
  5
128
330
4D
100
AcDbEntity
  8
LC-002-002-RND-0
  6
Continuous
 62
     7
100
AcDbCircle
 10
39.94235062025109
 20
-685.4043695446453
 30
0.0
 40
1.0
100
AcDbArc
 50
-90.0
 51
3.08113299999173
  0
ARC
  5
129
330
4D
100
AcDbEntity
  8
LC-001-002-----0
  6
Continuous
 62
     7
100
AcDbCircle
 10
0.00017362025028
 20
-687.5543695446468
 30
0.0
 40
44.83999999999904
100
AcDbArc
 50
151.4696109999994
 51
163.5303890000005
  0
ARC
  5
12A
330
4D
100
AcDbEntity
  8
LC-001-002-----0
  6
Continuous
 62
     7
100
AcDbCircle
 10
0.00017362025028
 20
-687.5543695446468
 30
0.0
 40
44.83999999999953
100
AcDbArc
 50
136.4696109999998
 51
148.5303889999989
  0
ARC
  5
12B
330
4D
100
AcDbEntity
  8
LC-001-002-----0
  6
Continuous
 62
     7
100
AcDbCircle
 10
0.00017362025028
 20
-687.5543695446468
 30
0.0
 40
44.84000000000081
100
AcDbArc
 50
121.4696110000011
 51
133.4745849999967
  0
ARC
  5
12C
330
4D
100
AcDbEntity
  8
LC-001-002-----0
  6
Continuous
 62
     7
100
AcDbCircle
 10
0.00017362025028
 20
-687.5543695446468
 30
0.0
 40
44.84000000000089
100
AcDbArc
 50
106.4696109999995
 51
118.5303890000006
  0
ARC
  5
12D
330
4D
100
AcDbEntity
  8
LC-001-002-----0
  6
Continuous
 62
     7
100
AcDbCircle
 10
0.00017362025028
 20
-687.5543695446468
 30
0.0
 40
44.84000000000111
100
AcDbArc
 50
91.46961099999831
 51
103.5303890000018
  0
ARC
  5
12E
330
4D
100
AcDbEntity
  8
LC-001-002-----0
  6
Continuous
 62
     7
100
AcDbCircle
 10
0.00017362025028
 20
-687.5543695446468
 30
0.0
 40
44.83999999999997
100
AcDbArc
 50
76.46961099999815
 51
88.5303890000017
  0
ARC
  5
12F
330
4D
100
AcDbEntity
  8
LC-001-002-----0
  6
Continuous
 62
     7
100
AcDbCircle
 10
0.00017362025028
 20
-687.5543695446468
 30
0.0
 40
41.00000000000076
100
AcDbArc
 50
93.08113300000161
 51
131.9188670000022
  0
ARC
  5
130
330
4D
100
AcDbEntity
  8
LC-001-002-----0
  6
Continuous
 62
     7
100
AcDbCircle
 10
0.00017362025028
 20
-687.5543695446468
 30
0.0
 40
41.00000000000049
100
AcDbArc
 50
48.08113299999778
 51
86.91886700000347
  0
ARC
  5
131
330
4D
100
AcDbEntity
  8
LC-001-002-----0
  6
Continuous
 62
     7
100
AcDbCircle
 10
0.00017362025028
 20
-687.5543695446468
 30
0.0
 40
41.00000000000076
100
AcDbArc
 50
3.08113300000161
 51
41.91886700000222
  0
ARC
  5
132
330
4D
100
AcDbEntity
  8
LC-001-002-----0
  6
Continuous
 62
     7
100
AcDbCircle
 10
0.00017362025028
 20
-687.5543695446468
 30
0.0
 40
40.99999999999806
100
AcDbArc
 50
-41.91886699999844
 51
-3.08113299999653
  0
ARC
  5
133
330
4D
100
AcDbEntity
  8
LC-002-002-RND-0
  6
Continuous
 62
     7
100
AcDbCircle
 10
-29.7634903797516
 20
-714.2774745446441
 30
0.0
 40
1.000000000000171
100
AcDbArc
 50
-138.0811329998966
 51
-45.00000000000015
  0
ARC
  5
134
330
4D
100
AcDbEntity
  8
LC-002-002-RND-0
  6
Continuous
 62
     7
100
AcDbCircle
 10
-26.72293137975066
 20
-717.318033544645
 30
0.0
 40
0.9999999999975989
100
AcDbArc
 50
135.0000000000001
 51
-131.9188669998095
  0
ARC
  5
135
330
4D
100
AcDbEntity
  8
LC-002-002-RND-0
  6
Continuous
 62
     7
100
AcDbCircle
 10
29.76383762024852
 20
-714.2774745446441
 30
0.0
 40
1.000000000000164
100
AcDbArc
 50
-134.9999999998523
 51
-41.91886699996398
  0
ARC
  5
136
330
4D
100
AcDbEntity
  8
LC-002-002-RND-0
  6
Continuous
 62
     7
100
AcDbCircle
 10
26.72327762025088
 20
-717.318033544645
 30
0.0
 40
1.000000000000449
100
AcDbArc
 50
-48.08113300019054
 51
44.99999999999986
  0
ARC
  5
137
330
4D
100
AcDbEntity
  8
LC-001-002-----0
  6
Continuous
 62
     7
100
AcDbCircle
 10
0.00017362025028
 20
-687.5543695446468
 30
0.0
 40
41.00000000000056
100
AcDbArc
 50
-176.9188670000035
 51
-138.0811330000016
  0
ARC
  5
138
330
4D
100
AcDbEntity
  8
LC-001-002-----0
  6
Continuous
 62
     7
100
AcDbCircle
 10
0.00017362025028
 20
-687.5543695446468
 30
0.0
 40
41.00000000000056
100
AcDbArc
 50
-86.91886700000347
 51
-48.08113300000156
  0
ARC
  5
139
330
4D
100
AcDbEntity
  8
LC-002-002-RND-0
  6
Continuous
 62
     7
100
AcDbCircle
 10
2.1501736202481
 20
-727.4965465446476
 30
0.0
 40
1.0
100
AcDbArc
 50
180.0
 51
-86.91886700000828
  0
ARC
  5
13A
330
4D
100
AcDbEntity
  8
LC-002-002-RND-0
  6
Continuous
 62
     7
100
AcDbCircle
 10
-2.14982637975117
 20
-727.4965465446476
 30
0.0
 40
0.9999999999999203
100
AcDbArc
 50
-93.08113299999178
 51
0.0
  0
ARC
  5
13B
330
4D
100
AcDbEntity
  8
LC-001-002-----0
  6
Continuous
 62
     7
100
AcDbCircle
 10
0.00017362025028
 20
-687.5543695446468
 30
0.0
 40
41.00000000000049
100
AcDbArc
 50
-131.9188670000022
 51
-93.08113300000161
  0
ARC
  5
13C
330
4D
100
AcDbEntity
  8
LC-001-002-----0
  6
Continuous
 62
     7
100
AcDbCircle
 10
0.00017362025028
 20
-687.5543695446468
 30
0.0
 40
44.84000000000111
100
AcDbArc
 50
-178.5303890000017
 51
-166.4696110000027
  0
ARC
  5
13D
330
4D
100
AcDbEntity
  8
LC-001-002-----0
  6
Continuous
 62
     7
100
AcDbCircle
 10
0.00017362025028
 20
-687.5543695446468
 30
0.0
 40
44.84000000000089
100
AcDbArc
 50
-163.5303890000005
 51
-151.4696109999994
  0
ARC
  5
13E
330
4D
100
AcDbEntity
  8
LC-001-002-----0
  6
Continuous
 62
     7
100
AcDbCircle
 10
0.00017362025028
 20
-687.5543695446468
 30
0.0
 40
44.83999999999891
100
AcDbArc
 50
-148.5303890000028
 51
-136.4696109999998
  0
ARC
  5
13F
330
4D
100
AcDbEntity
  8
LC-001-002-----0
  6
Continuous
 62
     7
100
AcDbCircle
 10
0.00017362025028
 20
-687.5543695446468
 30
0.0
 40
44.83999999999953
100
AcDbArc
 50
-133.5303890000002
 51
-121.4696110000011
  0
ARC
  5
140
330
4D
100
AcDbEntity
  8
LC-001-002-----0
  6
Continuous
 62
     7
100
AcDbCircle
 10
0.00017362025028
 20
-687.5543695446468
 30
0.0
 40
44.83999999999904
100
AcDbArc
 50
-118.5303890000006
 51
-106.4696109999995
  0
ARC
  5
141
330
4D
100
AcDbEntity
  8
LC-001-002-----0
  6
Continuous
 62
     7
100
AcDbCircle
 10
0.00017362025028
 20
-687.5543695446468
 30
0.0
 40
44.83999999999997
100
AcDbArc
 50
-103.5303890000018
 51
-91.46961099999831
  0
ARC
  5
142
330
4D
100
AcDbEntity
  8
LC-001-002-----0
  6
Continuous
 62
     7
100
AcDbCircle
 10
0.00017362025028
 20
-687.5543695446468
 30
0.0
 40
44.84000000000111
100
AcDbArc
 50
-88.5303890000017
 51
-76.46961099999815
  0
ARC
  5
143
330
4D
100
AcDbEntity
  8
LC-001-002-----0
  6
Continuous
 62
     7
100
AcDbCircle
 10
0.00017362025028
 20
-687.5543695446468
 30
0.0
 40
44.84000000000089
100
AcDbArc
 50
-73.53038900000054
 51
-61.46961099999938
  0
ARC
  5
144
330
4D
100
AcDbEntity
  8
LC-001-002-----0
  6
Continuous
 62
     7
100
AcDbCircle
 10
0.00017362025028
 20
-687.5543695446468
 30
0.0
 40
44.84000000000081
100
AcDbArc
 50
-58.53038899999888
 51
-46.46961099999983
  0
ARC
  5
145
330
4D
100
AcDbEntity
  8
LC-001-002-----0
  6
Continuous
 62
     7
100
AcDbCircle
 10
0.00017362025028
 20
-687.5543695446468
 30
0.0
 40
44.83999999999953
100
AcDbArc
 50
-43.53038900000017
 51
-31.46961099999717
  0
ARC
  5
146
330
4D
100
AcDbEntity
  8
LC-001-002-----0
  6
Continuous
 62
     7
100
AcDbCircle
 10
0.00017362025028
 20
-687.5543695446468
 30
0.0
 40
44.83999999999904
100
AcDbArc
 50
-28.53038900000062
 51
-16.46961099999947
  0
ARC
  5
147
330
4D
100
AcDbEntity
  8
LC-001-002-----0
  6
Continuous
 62
     7
100
AcDbCircle
 10
0.00017362025028
 20
-687.5543695446468
 30
0.0
 40
44.83999999999912
100
AcDbArc
 50
-13.53038899999733
 51
-1.4696109999983
  0
ARC
  5
148
330
4D
100
AcDbEntity
  8
LC-001-002-----0
  6
Continuous
 62
     7
100
AcDbCircle
 10
0.00017362025028
 20
-687.5543695446468
 30
0.0
 40
44.8400000000012
100
AcDbArc
 50
1.46961100000295
 51
13.53038900000185
  0
ARC
  5
149
330
4D
100
AcDbEntity
  8
LC-001-002-----0
  6
Continuous
 62
     7
100
AcDbCircle
 10
0.00017362025028
 20
-687.5543695446468
 30
0.0
 40
44.84000000000089
100
AcDbArc
 50
16.46961099999947
 51
28.53038900000062
  0
ARC
  5
14A
330
4D
100
AcDbEntity
  8
LC-001-002-----0
  6
Continuous
 62
     7
100
AcDbCircle
 10
0.00017362025028
 20
-687.5543695446468
 30
0.0
 40
44.84000000000081
100
AcDbArc
 50
31.46961100000113
 51
43.53038900000017
  0
ARC
  5
14B
330
4D
100
AcDbEntity
  8
LC-001-002-----0
  6
Continuous
 62
     7
100
AcDbCircle
 10
0.00017362025028
 20
-687.5543695446468
 30
0.0
 40
44.83999999999953
100
AcDbArc
 50
46.46961099999983
 51
58.53038899999888
  0
ARC
  5
14C
330
4D
100
AcDbEntity
  8
LC-001-002-----0
  6
Continuous
 62
     7
100
AcDbCircle
 10
0.00017362025028
 20
-687.5543695446468
 30
0.0
 40
44.83999999999904
100
AcDbArc
 50
61.46961099999938
 51
73.53038900000054
  0
ARC
  5
14D
330
4D
100
AcDbEntity
  8
LC-002-002-RND-0
  6
Continuous
 62
     7
100
AcDbCircle
 10
1.20017362025101
 20
-654.5705005446471
 30
0.0
 40
1.0
100
AcDbArc
 50
0.0
 51
90.0
  0
ARC
  5
14E
330
4D
100
AcDbEntity
  8
LC-002-002-RND-0
  6
Continuous
 62
     7
100
AcDbCircle
 10
-1.19982637975045
 20
-654.5705005446471
 30
0.0
 40
1.0
100
AcDbArc
 50
90.0
 51
180.0
  0
ARC
  5
14F
330
4D
100
AcDbEntity
  8
LC-002-002-RND-0
  6
Continuous
 62
     7
100
AcDbCircle
 10
-1.19982637975045
 20
-678.5705005446471
 30
0.0
 40
0.9999999999999998
100
AcDbArc
 50
180.0
 51
-90.0
  0
ARC
  5
150
330
4D
100
AcDbEntity
  8
LC-002-002-RND-0
  6
Continuous
 62
     7
100
AcDbCircle
 10
1.20017362025101
 20
-678.5705005446471
 30
0.0
 40
1.0
100
AcDbArc
 50
-90.0
 51
0.0
  0
ARC
  5
151
330
4D
100
AcDbEntity
  8
LC-002-002-RND-0
  6
Continuous
 62
     7
100
AcDbCircle
 10
1.20017362025101
 20
-720.5382385446464
 30
0.0
 40
1.0
100
AcDbArc
 50
-90.0
 51
0.0
  0
ARC
  5
152
330
4D
100
AcDbEntity
  8
LC-002-002-RND-0
  6
Continuous
 62
     7
100
AcDbCircle
 10
-1.19982637975045
 20
-720.5382385446464
 30
0.0
 40
0.9999999999999998
100
AcDbArc
 50
180.0
 51
-90.0
  0
ARC
  5
153
330
4D
100
AcDbEntity
  8
LC-002-002-RND-0
  6
Continuous
 62
     7
100
AcDbCircle
 10
-1.19982637975045
 20
-696.5382385446464
 30
0.0
 40
1.0
100
AcDbArc
 50
90.0
 51
180.0
  0
ARC
  5
154
330
4D
100
AcDbEntity
  8
LC-002-002-RND-0
  6
Continuous
 62
     7
100
AcDbCircle
 10
1.20017362025101
 20
-696.5382385446464
 30
0.0
 40
1.0
100
AcDbArc
 50
0.0
 51
90.0
  0
ARC
  5
155
330
4D
100
AcDbEntity
  8
LC-001-002-----0
  6
Continuous
 62
     7
100
AcDbCircle
 10
0.00017362025028
 20
-687.5543695446468
 30
0.0
 40
70.50000000000092
100
AcDbArc
 50
165.934652999999
 51
179.0653469999995
  0
ARC
  5
156
330
4D
100
AcDbEntity
  8
LC-001-002-----0
  6
Continuous
 62
     7
100
AcDbCircle
 10
0.00017362025028
 20
-687.5543695446468
 30
0.0
 40
73.90000000000168
100
AcDbArc
 50
-179.1083520000011
 51
-170.8119540000008
  0
ARC
  5
157
330
4D
100
AcDbEntity
  8
LC-001-002-----0
  6
Continuous
 62
     7
100
AcDbCircle
 10
0.00017362025028
 20
-687.5543695446468
 30
0.0
 40
73.00000000000097
100
AcDbArc
 50
165.9026419999987
 51
179.0973579999981
  0
ARC
  5
158
330
4D
100
AcDbEntity
  8
LC-001-002-----0
  6
Continuous
 62
     7
100
AcDbCircle
 10
0.00017362025028
 20
-687.5543695446468
 30
0.0
 40
73.00000000000009
100
AcDbArc
 50
75.90264200000144
 51
89.09735800000095
  0
ARC
  5
159
330
4D
100
AcDbEntity
  8
LC-001-002-----0
  6
Continuous
 62
     7
100
AcDbCircle
 10
0.00017362025028
 20
-687.5543695446468
 30
0.0
 40
70.50000000000092
100
AcDbArc
 50
75.93465299999899
 51
89.06534699999953
  0
ARC
  5
15A
330
4D
100
AcDbEntity
  8
LC-001-002-----0
  6
Continuous
 62
     7
100
AcDbCircle
 10
0.00017362025028
 20
-687.5543695446468
 30
0.0
 40
73.90000000000043
100
AcDbArc
 50
170.8119540000008
 51
179.1083520000011
  0
ARC
  5
15B
330
4D
100
AcDbEntity
  8
LC-001-002-----0
  6
Continuous
 62
     7
100
AcDbCircle
 10
0.0004086202498
 20
-687.5539625446472
 30
0.0
 40
59.50050099999905
100
AcDbArc
 50
166.107893999998
 51
178.8929339999979
  0
ARC
  5
15C
330
4D
100
AcDbEntity
  8
LC-001-002-----0
  6
Continuous
 62
     7
100
AcDbCircle
 10
0.00017362025028
 20
-687.5543695446468
 30
0.0
 40
73.90000000000168
100
AcDbArc
 50
90.89164799999892
 51
99.18804599999922
  0
ARC
  5
15D
330
4D
100
AcDbEntity
  8
LC-001-002-----0
  6
Continuous
 62
     7
100
AcDbCircle
 10
0.0004086202498
 20
-687.5539625446472
 30
0.0
 40
59.5005010000021
100
AcDbArc
 50
76.1075740000008
 51
88.8927689999993
  0
ARC
  5
15E
330
4D
100
AcDbEntity
  8
LC-001-002-----0
  6
Continuous
 62
     7
100
AcDbCircle
 10
0.00017362025028
 20
-687.5543695446468
 30
0.0
 40
73.90000000000043
100
AcDbArc
 50
80.8119540000008
 51
89.10835200000108
  0
ARC
  5
15F
330
4D
100
AcDbEntity
  8
LC-001-002-----0
  6
Continuous
 62
     7
100
AcDbCircle
 10
0.00017362025028
 20
-687.5543695446468
 30
0.0
 40
73.89999999999803
100
AcDbArc
 50
0.89164799999897
 51
9.18804599999921
  0
ARC
  5
160
330
4D
100
AcDbEntity
  8
LC-001-002-----0
  6
Continuous
 62
     7
100
AcDbCircle
 10
0.0004086202498
 20
-687.5543695446468
 30
0.0
 40
79.00004900000067
100
AcDbArc
 50
165.8341250000002
 51
179.1659190000003
  0
ARC
  5
161
330
4D
100
AcDbEntity
  8
LC-001-002-----0
  6
Continuous
 62
     7
100
AcDbCircle
 10
0.00017362025028
 20
-687.5543695446468
 30
0.0
 40
73.90000000000043
100
AcDbArc
 50
-9.18804599999921
 51
-0.89164799999897
  0
ARC
  5
162
330
4D
100
AcDbEntity
  8
LC-001-002-----0
  6
Continuous
 62
     7
100
AcDbCircle
 10
0.0004086202498
 20
-687.5543695446468
 30
0.0
 40
79.00004899999966
100
AcDbArc
 50
-104.1660829999998
 51
-90.83425199999867
  0
ARC
  5
163
330
4D
100
AcDbEntity
  8
LC-001-002-----0
  6
Continuous
 62
     7
100
AcDbCircle
 10
0.00017362025028
 20
-687.5543695446468
 30
0.0
 40
73.89999999999803
100
AcDbArc
 50
-89.10835200000103
 51
-80.8119540000008
  0
ARC
  5
164
330
4D
100
AcDbEntity
  8
LC-001-002-----0
  6
Continuous
 62
     7
100
AcDbCircle
 10
0.0004086202498
 20
-687.5543695446468
 30
0.0
 40
75.00035700000073
100
AcDbArc
 50
165.8786119999988
 51
179.1214339999993
  0
ARC
  5
165
330
4D
100
AcDbEntity
  8
LC-001-002-----0
  6
Continuous
 62
     7
100
AcDbCircle
 10
0.00017362025028
 20
-687.5543695446468
 30
0.0
 40
73.90000000000043
100
AcDbArc
 50
-99.18804599999922
 51
-90.89164799999898
  0
ARC
  5
166
330
4D
100
AcDbEntity
  8
LC-001-002-----0
  6
Continuous
 62
     7
100
AcDbCircle
 10
0.00017362025028
 20
-687.5543695446468
 30
0.0
 40
70.50000000000092
100
AcDbArc
 50
-104.065347000001
 51
-90.93465300000051
  0
ARC
  5
167
330
4D
100
AcDbEntity
  8
LC-001-002-----0
  6
Continuous
 62
     7
100
AcDbCircle
 10
0.00017362025028
 20
-687.5543695446468
 30
0.0
 40
73.00000000000097
100
AcDbArc
 50
-104.0973580000013
 51
-90.90264199999909
  0
ARC
  5
168
330
4D
100
AcDbEntity
  8
LC-001-002-----0
  6
Continuous
 62
     7
100
AcDbCircle
 10
0.00017362025028
 20
-687.5543695446468
 30
0.0
 40
70.50000000000004
100
AcDbArc
 50
-14.06534699999814
 51
-0.93465300000046
  0
ARC
  5
169
330
4D
100
AcDbEntity
  8
LC-001-002-----0
  6
Continuous
 62
     7
100
AcDbCircle
 10
0.00017362025028
 20
-687.5543695446468
 30
0.0
 40
73.00000000000009
100
AcDbArc
 50
-14.09735799999856
 51
-0.90264199999909
  0
ARC
  5
16A
330
4D
100
AcDbEntity
  8
LC-001-002-----0
  6
Continuous
 62
     7
100
AcDbCircle
 10
0.0004086202498
 20
-687.5543695446468
 30
0.0
 40
79.0000489999975
100
AcDbArc
 50
-134.1660390000004
 51
-120.8342290000011
  0
ARC
  5
16B
330
4D
100
AcDbEntity
  8
LC-001-002-----0
  6
Continuous
 62
     7
100
AcDbCircle
 10
0.0004086202498
 20
-687.5539625446472
 30
0.0
 40
59.5005009999993
100
AcDbArc
 50
-58.89293400000044
 51
-46.10789399999792
  0
ARC
  5
16C
330
4D
100
AcDbEntity
  8
LC-001-002-----0
  6
Continuous
 62
     7
100
AcDbCircle
 10
0.0004086202498
 20
-687.5539625446472
 30
0.0
 40
63.0005710000002
100
AcDbArc
 50
166.0463359999977
 51
178.9544459999995
  0
ARC
  5
16D
330
4D
100
AcDbEntity
  8
LC-001-002-----0
  6
Continuous
 62
     7
100
AcDbCircle
 10
0.0004086202498
 20
-687.5543695446468
 30
0.0
 40
75.00035699999881
100
AcDbArc
 50
-104.1216080000015
 51
-90.878745000001
  0
ARC
  5
16E
330
4D
100
AcDbEntity
  8
LC-001-002-----0
  6
Continuous
 62
     7
100
AcDbCircle
 10
0.0004086202498
 20
-687.5539625446472
 30
0.0
 40
59.50050099999696
100
AcDbArc
 50
-103.8926600000014
 51
-91.10768299999926
  0
ARC
  5
16F
330
4D
100
AcDbEntity
  8
LC-001-002-----0
  6
Continuous
 62
     7
100
AcDbCircle
 10
0.00017362025028
 20
-687.5543695446468
 30
0.0
 40
72.99999999999977
100
AcDbArc
 50
150.9026420000011
 51
164.0973579999998
  0
ARC
  5
170
330
4D
100
AcDbEntity
  8
LC-001-002-----0
  6
Continuous
 62
     7
100
AcDbCircle
 10
0.00017362025028
 20
-687.5543695446468
 30
0.0
 40
70.49999999999979
100
AcDbArc
 50
150.9346529999987
 51
164.0653469999999
  0
ARC
  5
171
330
4D
100
AcDbEntity
  8
LC-001-002-----0
  6
Continuous
 62
     7
100
AcDbCircle
 10
0.00017362025028
 20
-687.5543695446468
 30
0.0
 40
70.49999999999962
100
AcDbArc
 50
135.9346529999994
 51
149.0653469999993
  0
ARC
  5
172
330
4D
100
AcDbEntity
  8
LC-001-002-----0
  6
Continuous
 62
     7
100
AcDbCircle
 10
0.00017362025028
 20
-687.5543695446468
 30
0.0
 40
73.00000000000156
100
AcDbArc
 50
135.902642000001
 51
149.0973580000011
  0
ARC
  5
173
330
4D
100
AcDbEntity
  8
LC-001-002-----0
  6
Continuous
 62
     7
100
AcDbCircle
 10
0.00017362025028
 20
-687.5543695446468
 30
0.0
 40
70.50000000000186
100
AcDbArc
 50
120.9346529999992
 51
134.0653470000006
  0
ARC
  5
174
330
4D
100
AcDbEntity
  8
LC-001-002-----0
  6
Continuous
 62
     7
100
AcDbCircle
 10
0.00017362025028
 20
-687.5543695446468
 30
0.0
 40
73.00000000000111
100
AcDbArc
 50
120.9026419999989
 51
134.097357999999
  0
ARC
  5
175
330
4D
100
AcDbEntity
  8
LC-001-002-----0
  6
Continuous
 62
     7
100
AcDbCircle
 10
0.00017362025028
 20
-687.5543695446468
 30
0.0
 40
70.50000000000071
100
AcDbArc
 50
105.9346530000001
 51
119.0653469999998
  0
ARC
  5
176
330
4D
100
AcDbEntity
  8
LC-001-002-----0
  6
Continuous
 62
     7
100
AcDbCircle
 10
0.00017362025028
 20
-687.5543695446468
 30
0.0
 40
73.00000000000036
100
AcDbArc
 50
105.9026420000002
 51
119.0973579999989
  0
ARC
  5
177
330
4D
100
AcDbEntity
  8
LC-001-002-----0
  6
Continuous
 62
     7
100
AcDbCircle
 10
0.00017362025028
 20
-687.5543695446468
 30
0.0
 40
70.50000000000136
100
AcDbArc
 50
90.93465300000047
 51
104.065347000001
  0
ARC
  5
178
330
4D
100
AcDbEntity
  8
LC-001-002-----0
  6
Continuous
 62
     7
100
AcDbCircle
 10
0.00017362025028
 20
-687.5543695446468
 30
0.0
 40
73.00000000000173
100
AcDbArc
 50
90.90264199999905
 51
104.0973580000013
  0
ARC
  5
179
330
4D
100
AcDbEntity
  8
LC-001-002-----0
  6
Continuous
 62
     7
100
AcDbCircle
 10
0.00017362025028
 20
-687.5543695446468
 30
0.0
 40
70.50000000000296
100
AcDbArc
 50
60.9346530000002
 51
74.06534699999989
  0
ARC
  5
17A
330
4D
100
AcDbEntity
  8
LC-001-002-----0
  6
Continuous
 62
     7
100
AcDbCircle
 10
0.00017362025028
 20
-687.5543695446468
 30
0.0
 40
70.49999999999962
100
AcDbArc
 50
45.93465299999941
 51
59.06534700000081
  0
ARC
  5
17B
330
4D
100
AcDbEntity
  8
LC-001-002-----0
  6
Continuous
 62
     7
100
AcDbCircle
 10
0.00017362025028
 20
-687.5543695446468
 30
0.0
 40
70.49999999999874
100
AcDbArc
 50
30.93465300000073
 51
44.0653470000006
  0
ARC
  5
17C
330
4D
100
AcDbEntity
  8
LC-001-002-----0
  6
Continuous
 62
     7
100
AcDbCircle
 10
0.00017362025028
 20
-687.5543695446468
 30
0.0
 40
72.99999999999977
100
AcDbArc
 50
60.90264200000106
 51
74.09735799999979
  0
ARC
  5
17D
330
4D
100
AcDbEntity
  8
LC-001-002-----0
  6
Continuous
 62
     7
100
AcDbCircle
 10
0.00017362025028
 20
-687.5543695446468
 30
0.0
 40
73.00000000000156
100
AcDbArc
 50
45.90264200000101
 51
59.09735800000107
  0
ARC
  5
17E
330
4D
100
AcDbEntity
  8
LC-001-002-----0
  6
Continuous
 62
     7
100
AcDbCircle
 10
0.00017362025028
 20
-687.5543695446468
 30
0.0
 40
72.99999999999798
100
AcDbArc
 50
30.90264200000039
 51
44.09735800000098
  0
ARC
  5
17F
330
4D
100
AcDbEntity
  8
LC-001-002-----0
  6
Continuous
 62
     7
100
AcDbCircle
 10
0.00017362025028
 20
-687.5543695446468
 30
0.0
 40
70.50000000000071
100
AcDbArc
 50
15.93465300000012
 51
29.06534700000126
  0
ARC
  5
180
330
4D
100
AcDbEntity
  8
LC-001-002-----0
  6
Continuous
 62
     7
100
AcDbCircle
 10
0.00017362025028
 20
-687.5543695446468
 30
0.0
 40
73.00000000000036
100
AcDbArc
 50
15.90264200000022
 51
29.09735799999895
  0
ARC
  5
181
330
4D
100
AcDbEntity
  8
LC-001-002-----0
  6
Continuous
 62
     7
100
AcDbCircle
 10
0.00017362025028
 20
-687.5543695446468
 30
0.0
 40
70.50000000000136
100
AcDbArc
 50
0.93465300000046
 51
14.06534700000101
  0
ARC
  5
182
330
4D
100
AcDbEntity
  8
LC-001-002-----0
  6
Continuous
 62
     7
100
AcDbCircle
 10
0.00017362025028
 20
-687.5543695446468
 30
0.0
 40
72.99999999999815
100
AcDbArc
 50
0.90264200000194
 51
14.09735800000133
  0
ARC
  5
183
330
4D
100
AcDbEntity
  8
LC-001-002-----0
  6
Continuous
 62
     7
100
AcDbCircle
 10
0.00017362025028
 20
-687.5543695446468
 30
0.0
 40
70.499999999998
100
AcDbArc
 50
-29.06534699999867
 51
-15.93465300000012
  0
ARC
  5
184
330
4D
100
AcDbEntity
  8
LC-001-002-----0
  6
Continuous
 62
     7
100
AcDbCircle
 10
0.00017362025028
 20
-687.5543695446468
 30
0.0
 40
72.99999999999977
100
AcDbArc
 50
-29.09735799999895
 51
-15.90264200000022
  0
ARC
  5
185
330
4D
100
AcDbEntity
  8
LC-001-002-----0
  6
Continuous
 62
     7
100
AcDbCircle
 10
0.00017362025028
 20
-687.5543695446468
 30
0.0
 40
70.49999999999962
100
AcDbArc
 50
-44.0653470000006
 51
-30.93465300000073
  0
ARC
  5
186
330
4D
100
AcDbEntity
  8
LC-001-002-----0
  6
Continuous
 62
     7
100
AcDbCircle
 10
0.00017362025028
 20
-687.5543695446468
 30
0.0
 40
72.99999999999895
100
AcDbArc
 50
-44.09735800000098
 51
-30.90264200000039
  0
ARC
  5
187
330
4D
100
AcDbEntity
  8
LC-001-002-----0
  6
Continuous
 62
     7
100
AcDbCircle
 10
0.00017362025028
 20
-687.5543695446468
 30
0.0
 40
70.49999999999874
100
AcDbArc
 50
-59.06534699999928
 51
-45.93465299999941
  0
ARC
  5
188
330
4D
100
AcDbEntity
  8
LC-001-002-----0
  6
Continuous
 62
     7
100
AcDbCircle
 10
0.00017362025028
 20
-687.5543695446468
 30
0.0
 40
72.99999999999798
100
AcDbArc
 50
-59.0973579999996
 51
-45.90264199999902
  0
ARC
  5
189
330
4D
100
AcDbEntity
  8
LC-001-002-----0
  6
Continuous
 62
     7
100
AcDbCircle
 10
0.00017362025028
 20
-687.5543695446468
 30
0.0
 40
70.50000000000071
100
AcDbArc
 50
-74.06534699999989
 51
-60.93465299999875
  0
ARC
  5
18A
330
4D
100
AcDbEntity
  8
LC-001-002-----0
  6
Continuous
 62
     7
100
AcDbCircle
 10
0.00017362025028
 20
-687.5543695446468
 30
0.0
 40
73.00000000000036
100
AcDbArc
 50
-74.09735799999979
 51
-60.90264200000106
  0
ARC
  5
18B
330
4D
100
AcDbEntity
  8
LC-001-002-----0
  6
Continuous
 62
     7
100
AcDbCircle
 10
0.00017362025028
 20
-687.5543695446468
 30
0.0
 40
70.49999999999773
100
AcDbArc
 50
-89.06534699999949
 51
-75.93465299999899
  0
ARC
  5
18C
330
4D
100
AcDbEntity
  8
LC-001-002-----0
  6
Continuous
 62
     7
100
AcDbCircle
 10
0.00017362025028
 20
-687.5543695446468
 30
0.0
 40
72.9999999999981
100
AcDbArc
 50
-89.09735800000092
 51
-75.90264200000144
  0
ARC
  5
18D
330
4D
100
AcDbEntity
  8
LC-001-002-----0
  6
Continuous
 62
     7
100
AcDbCircle
 10
0.00017362025028
 20
-687.5543695446468
 30
0.0
 40
70.49999999999979
100
AcDbArc
 50
-119.0653470000012
 51
-105.9346530000001
  0
ARC
  5
18E
330
4D
100
AcDbEntity
  8
LC-001-002-----0
  6
Continuous
 62
     7
100
AcDbCircle
 10
0.00017362025028
 20
-687.5543695446468
 30
0.0
 40
72.99999999999977
100
AcDbArc
 50
-119.0973579999989
 51
-105.9026420000002
  0
ARC
  5
18F
330
4D
100
AcDbEntity
  8
LC-001-002-----0
  6
Continuous
 62
     7
100
AcDbCircle
 10
0.00017362025028
 20
-687.5543695446468
 30
0.0
 40
70.49999999999962
100
AcDbArc
 50
-134.0653470000006
 51
-120.9346530000007
  0
ARC
  5
190
330
4D
100
AcDbEntity
  8
LC-001-002-----0
  6
Continuous
 62
     7
100
AcDbCircle
 10
0.00017362025028
 20
-687.5543695446468
 30
0.0
 40
72.99999999999895
100
AcDbArc
 50
-134.097358000001
 51
-120.9026420000004
  0
ARC
  5
191
330
4D
100
AcDbEntity
  8
LC-001-002-----0
  6
Continuous
 62
     7
100
AcDbCircle
 10
0.00017362025028
 20
-687.5543695446468
 30
0.0
 40
70.49999999999874
100
AcDbArc
 50
-149.0653469999993
 51
-135.9346529999994
  0
ARC
  5
192
330
4D
100
AcDbEntity
  8
LC-001-002-----0
  6
Continuous
 62
     7
100
AcDbCircle
 10
0.00017362025028
 20
-687.5543695446468
 30
0.0
 40
73.00000000000111
100
AcDbArc
 50
-149.0973580000011
 51
-135.902642000001
  0
ARC
  5
193
330
4D
100
AcDbEntity
  8
LC-001-002-----0
  6
Continuous
 62
     7
100
AcDbCircle
 10
0.00017362025028
 20
-687.5543695446468
 30
0.0
 40
73.00000000000173
100
AcDbArc
 50
-179.097358000001
 51
-165.9026420000015
  0
ARC
  5
194
330
4D
100
AcDbEntity
  8
LC-001-002-----0
  6
Continuous
 62
     7
100
AcDbCircle
 10
0.00017362025028
 20
-687.5543695446468
 30
0.0
 40
70.50000000000136
100
AcDbArc
 50
-179.0653469999995
 51
-165.9346530000019
  0
ARC
  5
195
330
4D
100
AcDbEntity
  8
LC-001-002-----0
  6
Continuous
 62
     7
100
AcDbCircle
 10
0.00017362025028
 20
-687.5543695446468
 30
0.0
 40
73.00000000000036
100
AcDbArc
 50
-164.0973579999998
 51
-150.9026420000011
  0
ARC
  5
196
330
4D
100
AcDbEntity
  8
LC-001-002-----0
  6
Continuous
 62
     7
100
AcDbCircle
 10
0.00017362025028
 20
-687.5543695446468
 30
0.0
 40
70.50000000000071
100
AcDbArc
 50
-164.0653469999999
 51
-150.9346530000014
  0
ARC
  5
197
330
4D
100
AcDbEntity
  8
LC-001-002-----0
  6
Continuous
 62
     7
100
AcDbCircle
 10
0.00017362025028
 20
-687.5543695446468
 30
0.0
 40
56.19999999999881
100
AcDbArc
 50
151.1725040000006
 51
163.8274960000012
  0
ARC
  5
198
330
4D
100
AcDbEntity
  8
LC-001-002-----0
  6
Continuous
 62
     7
100
AcDbCircle
 10
0.00017362025028
 20
-687.5543695446468
 30
0.0
 40
57.90000000000148
100
AcDbArc
 50
151.1380739999989
 51
163.861925999998
  0
ARC
  5
199
330
4D
100
AcDbEntity
  8
LC-001-002-----0
  6
Continuous
 62
     7
100
AcDbCircle
 10
0.00017362025028
 20
-687.5543695446468
 30
0.0
 40
56.20000000000079
100
AcDbArc
 50
136.1725040000008
 51
148.8274959999992
  0
ARC
  5
19A
330
4D
100
AcDbEntity
  8
LC-001-002-----0
  6
Continuous
 62
     7
100
AcDbCircle
 10
0.00017362025028
 20
-687.5543695446468
 30
0.0
 40
57.89999999999949
100
AcDbArc
 50
136.138074
 51
148.8619259999983
  0
ARC
  5
19B
330
4D
100
AcDbEntity
  8
LC-001-002-----0
  6
Continuous
 62
     7
100
AcDbCircle
 10
0.00017362025028
 20
-687.5543695446468
 30
0.0
 40
56.20000000000123
100
AcDbArc
 50
121.1725040000008
 51
133.8274959999993
  0
ARC
  5
19C
330
4D
100
AcDbEntity
  8
LC-001-002-----0
  6
Continuous
 62
     7
100
AcDbCircle
 10
0.00017362025028
 20
-687.5543695446468
 30
0.0
 40
57.90000000000124
100
AcDbArc
 50
121.1380740000017
 51
133.861926
  0
ARC
  5
19D
330
4D
100
AcDbEntity
  8
LC-001-002-----0
  6
Continuous
 62
     7
100
AcDbCircle
 10
0.00017362025028
 20
-687.5543695446468
 30
0.0
 40
56.20000000000154
100
AcDbArc
 50
106.1725039999988
 51
118.8274959999976
  0
ARC
  5
19E
330
4D
100
AcDbEntity
  8
LC-001-002-----0
  6
Continuous
 62
     7
100
AcDbCircle
 10
0.00017362025028
 20
-687.5543695446468
 30
0.0
 40
57.90000000000005
100
AcDbArc
 50
106.138074000002
 51
118.8619260000011
  0
ARC
  5
19F
330
4D
100
AcDbEntity
  8
LC-001-002-----0
  6
Continuous
 62
     7
100
AcDbCircle
 10
0.00017362025028
 20
-687.5543695446468
 30
0.0
 40
56.20000000000017
100
AcDbArc
 50
91.17250399999854
 51
103.827496
  0
ARC
  5
1A0
330
4D
100
AcDbEntity
  8
LC-001-002-----0
  6
Continuous
 62
     7
100
AcDbCircle
 10
0.00017362025028
 20
-687.5543695446468
 30
0.0
 40
57.90000000000016
100
AcDbArc
 50
91.13807400000056
 51
103.8619259999995
  0
ARC
  5
1A1
330
4D
100
AcDbEntity
  8
LC-001-002-----0
  6
Continuous
 62
     7
100
AcDbCircle
 10
0.00017362025028
 20
-687.5543695446468
 30
0.0
 40
56.20000000000304
100
AcDbArc
 50
76.172504
 51
88.82749600000146
  0
ARC
  5
1A2
330
4D
100
AcDbEntity
  8
LC-001-002-----0
  6
Continuous
 62
     7
100
AcDbCircle
 10
0.00017362025028
 20
-687.5543695446468
 30
0.0
 40
57.90000000000146
100
AcDbArc
 50
76.13807400000051
 51
88.86192599999944
  0
ARC
  5
1A3
330
4D
100
AcDbEntity
  8
LC-001-002-----0
  6
Continuous
 62
     7
100
AcDbCircle
 10
0.00017362025028
 20
-687.5543695446468
 30
0.0
 40
57.89999999999972
100
AcDbArc
 50
61.13807400000204
 51
73.8619260000015
  0
ARC
  5
1A4
330
4D
100
AcDbEntity
  8
LC-001-002-----0
  6
Continuous
 62
     7
100
AcDbCircle
 10
0.00017362025028
 20
-687.5543695446468
 30
0.0
 40
56.200000000002
100
AcDbArc
 50
61.17250400000238
 51
73.82749600000119
  0
ARC
  5
1A5
330
4D
100
AcDbEntity
  8
LC-001-002-----0
  6
Continuous
 62
     7
100
AcDbCircle
 10
0.00017362025028
 20
-687.5543695446468
 30
0.0
 40
57.89999999999949
100
AcDbArc
 50
46.13807400000003
 51
58.03764999999875
  0
ARC
  5
1A6
330
4D
100
AcDbEntity
  8
LC-001-002-----0
  6
Continuous
 62
     7
100
AcDbCircle
 10
0.0004086202498
 20
-687.5543695446468
 30
0.0
 40
79.0000489999996
100
AcDbArc
 50
-14.16596300000062
 51
-0.83408099999965
  0
ARC
  5
1A7
330
4D
100
AcDbEntity
  8
LC-001-002-----0
  6
Continuous
 62
     7
100
AcDbCircle
 10
0.0004086202498
 20
-687.5543695446468
 30
0.0
 40
75.00035699999768
100
AcDbArc
 50
-74.12160799999974
 51
-60.87872100000099
  0
ARC
  5
1A8
330
4D
100
AcDbEntity
  8
LC-001-002-----0
  6
Continuous
 62
     7
100
AcDbCircle
 10
0.00017362025028
 20
-687.5543695446468
 30
0.0
 40
56.20000000000079
100
AcDbArc
 50
46.17250400000076
 51
58.82749600000242
  0
ARC
  5
1A9
330
4D
100
AcDbEntity
  8
LC-001-002-----0
  6
Continuous
 62
     7
100
AcDbCircle
 10
0.00017362025028
 20
-687.5543695446468
 30
0.0
 40
57.90000000000123
100
AcDbArc
 50
31.13807400000168
 51
43.86192599999997
  0
ARC
  5
1AA
330
4D
100
AcDbEntity
  8
LC-001-002-----0
  6
Continuous
 62
     7
100
AcDbCircle
 10
0.00017362025028
 20
-687.5543695446468
 30
0.0
 40
56.20000000000124
100
AcDbArc
 50
31.17250400000076
 51
43.82749599999924
  0
ARC
  5
1AB
330
4D
100
AcDbEntity
  8
LC-001-002-----0
  6
Continuous
 62
     7
100
AcDbCircle
 10
0.00017362025028
 20
-687.5543695446468
 30
0.0
 40
57.90000000000005
100
AcDbArc
 50
16.13807400000196
 51
28.86192600000111
  0
ARC
  5
1AC
330
4D
100
AcDbEntity
  8
LC-001-002-----0
  6
Continuous
 62
     7
100
AcDbCircle
 10
0.00017362025028
 20
-687.5543695446468
 30
0.0
 40
56.19999999999806
100
AcDbArc
 50
16.17250399999984
 51
28.82749599999941
  0
ARC
  5
1AD
330
4D
100
AcDbEntity
  8
LC-001-002-----0
  6
Continuous
 62
     7
100
AcDbCircle
 10
0.00017362025028
 20
-687.5543695446468
 30
0.0
 40
57.90000000000016
100
AcDbArc
 50
1.13807400000056
 51
13.86192600000035
  0
ARC
  5
1AE
330
4D
100
AcDbEntity
  8
LC-001-002-----0
  6
Continuous
 62
     7
100
AcDbCircle
 10
0.00017362025028
 20
-687.5543695446468
 30
0.0
 40
56.20000000000024
100
AcDbArc
 50
1.17250400000225
 51
13.82749600000089
  0
ARC
  5
1AF
330
4D
100
AcDbEntity
  8
LC-001-002-----0
  6
Continuous
 62
     7
100
AcDbCircle
 10
0.00017362025028
 20
-687.5543695446468
 30
0.0
 40
56.19999999999951
100
AcDbArc
 50
-13.82749600000089
 51
-1.17250399999854
  0
ARC
  5
1B0
330
4D
100
AcDbEntity
  8
LC-001-002-----0
  6
Continuous
 62
     7
100
AcDbCircle
 10
0.00017362025028
 20
-687.5543695446468
 30
0.0
 40
57.89999999999792
100
AcDbArc
 50
-13.86192600000035
 51
-1.13807400000056
  0
ARC
  5
1B1
330
4D
100
AcDbEntity
  8
LC-001-002-----0
  6
Continuous
 62
     7
100
AcDbCircle
 10
0.00017362025028
 20
-687.5543695446468
 30
0.0
 40
57.89999999999972
100
AcDbArc
 50
-28.86192599999796
 51
-16.1380739999985
  0
ARC
  5
1B2
330
4D
100
AcDbEntity
  8
LC-001-002-----0
  6
Continuous
 62
     7
100
AcDbCircle
 10
0.00017362025028
 20
-687.5543695446468
 30
0.0
 40
56.19999999999881
100
AcDbArc
 50
-28.82749599999941
 51
-16.17250399999984
  0
ARC
  5
1B3
330
4D
100
AcDbEntity
  8
LC-001-002-----0
  6
Continuous
 62
     7
100
AcDbCircle
 10
0.00017362025028
 20
-687.5543695446468
 30
0.0
 40
57.89999999999949
100
AcDbArc
 50
-43.86192599999997
 51
-31.1380739999986
  0
ARC
  5
1B4
330
4D
100
AcDbEntity
  8
LC-001-002-----0
  6
Continuous
 62
     7
100
AcDbCircle
 10
0.00017362025028
 20
-687.5543695446468
 30
0.0
 40
56.20000000000079
100
AcDbArc
 50
-43.82749599999924
 51
-31.17250399999759
  0
ARC
  5
1B5
330
4D
100
AcDbEntity
  8
LC-001-002-----0
  6
Continuous
 62
     7
100
AcDbCircle
 10
0.00017362025028
 20
-687.5543695446468
 30
0.0
 40
57.89999999999936
100
AcDbArc
 50
-58.86192600000141
 51
-46.13807400000003
  0
ARC
  5
1B6
330
4D
100
AcDbEntity
  8
LC-001-002-----0
  6
Continuous
 62
     7
100
AcDbCircle
 10
0.00017362025028
 20
-687.5543695446468
 30
0.0
 40
56.19999999999624
100
AcDbArc
 50
-58.8274960000005
 51
-46.17250399999818
  0
ARC
  5
1B7
330
4D
100
AcDbEntity
  8
LC-001-002-----0
  6
Continuous
 62
     7
100
AcDbCircle
 10
0.00017362025028
 20
-687.5543695446468
 30
0.0
 40
57.89999999999904
100
AcDbArc
 50
-73.8619260000015
 51
-61.13807400000204
  0
ARC
  5
1B8
330
4D
100
AcDbEntity
  8
LC-001-002-----0
  6
Continuous
 62
     7
100
AcDbCircle
 10
0.00017362025028
 20
-687.5543695446468
 30
0.0
 40
56.19999999999805
100
AcDbArc
 50
-73.82749600000017
 51
-61.17250400000059
  0
ARC
  5
1B9
330
4D
100
AcDbEntity
  8
LC-001-002-----0
  6
Continuous
 62
     7
100
AcDbCircle
 10
0.00017362025028
 20
-687.5543695446468
 30
0.0
 40
56.20000000000017
100
AcDbArc
 50
-88.82749600000146
 51
-76.17250399999911
  0
ARC
  5
1BA
330
4D
100
AcDbEntity
  8
LC-001-002-----0
  6
Continuous
 62
     7
100
AcDbCircle
 10
0.00017362025028
 20
-687.5543695446468
 30
0.0
 40
57.90000000000016
100
AcDbArc
 50
-88.86192599999944
 51
-76.13807399999965
  0
ARC
  5
1BB
330
4D
100
AcDbEntity
  8
LC-001-002-----0
  6
Continuous
 62
     7
100
AcDbCircle
 10
0.00017362025028
 20
-687.5543695446468
 30
0.0
 40
56.19999999999951
100
AcDbArc
 50
-103.8274960000009
 51
-91.17250399999854
  0
ARC
  5
1BC
330
4D
100
AcDbEntity
  8
LC-001-002-----0
  6
Continuous
 62
     7
100
AcDbCircle
 10
0.00017362025028
 20
-687.5543695446468
 30
0.0
 40
57.89999999999793
100
AcDbArc
 50
-103.8619260000004
 51
-91.13807400000056
  0
ARC
  5
1BD
330
4D
100
AcDbEntity
  8
LC-001-002-----0
  6
Continuous
 62
     7
100
AcDbCircle
 10
0.00017362025028
 20
-687.5543695446468
 30
0.0
 40
56.19999999999881
100
AcDbArc
 50
-118.8274959999994
 51
-106.1725039999998
  0
ARC
  5
1BE
330
4D
100
AcDbEntity
  8
LC-001-002-----0
  6
Continuous
 62
     7
100
AcDbCircle
 10
0.00017362025028
 20
-687.5543695446468
 30
0.0
 40
57.90000000000148
100
AcDbArc
 50
-118.8619260000011
 51
-106.138074000002
  0
ARC
  5
1BF
330
4D
100
AcDbEntity
  8
LC-001-002-----0
  6
Continuous
 62
     7
100
AcDbCircle
 10
0.00017362025028
 20
-687.5543695446468
 30
0.0
 40
56.19999999999816
100
AcDbArc
 50
-133.8274960000018
 51
-121.1725040000027
  0
ARC
  5
1C0
330
4D
100
AcDbEntity
  8
LC-001-002-----0
  6
Continuous
 62
     7
100
AcDbCircle
 10
0.00017362025028
 20
-687.5543695446468
 30
0.0
 40
57.89999999999949
100
AcDbArc
 50
-133.861926
 51
-121.1380740000017
  0
ARC
  5
1C1
330
4D
100
AcDbEntity
  8
LC-001-002-----0
  6
Continuous
 62
     7
100
AcDbCircle
 10
0.00017362025028
 20
-687.5543695446468
 30
0.0
 40
56.19999999999936
100
AcDbArc
 50
-148.8274960000024
 51
-136.1725040000008
  0
ARC
  5
1C2
330
4D
100
AcDbEntity
  8
LC-001-002-----0
  6
Continuous
 62
     7
100
AcDbCircle
 10
0.00017362025028
 20
-687.5543695446468
 30
0.0
 40
57.89999999999935
100
AcDbArc
 50
-148.8619260000014
 51
-136.138074
  0
ARC
  5
1C3
330
4D
100
AcDbEntity
  8
LC-001-002-----0
  6
Continuous
 62
     7
100
AcDbCircle
 10
0.00017362025028
 20
-687.5543695446468
 30
0.0
 40
56.20000000000154
100
AcDbArc
 50
-163.8274960000012
 51
-151.1725040000006
  0
ARC
  5
1C4
330
4D
100
AcDbEntity
  8
LC-001-002-----0
  6
Continuous
 62
     7
100
AcDbCircle
 10
0.00017362025028
 20
-687.5543695446468
 30
0.0
 40
57.89999999999904
100
AcDbArc
 50
-163.8619260000015
 51
-151.138074000002
  0
ARC
  5
1C5
330
4D
100
AcDbEntity
  8
LC-001-002-----0
  6
Continuous
 62
     7
100
AcDbCircle
 10
0.00017362025028
 20
-687.5543695446468
 30
0.0
 40
56.20000000000017
100
AcDbArc
 50
-178.8274960000015
 51
-166.1725039999991
  0
ARC
  5
1C6
330
4D
100
AcDbEntity
  8
LC-001-002-----0
  6
Continuous
 62
     7
100
AcDbCircle
 10
0.00017362025028
 20
-687.5543695446468
 30
0.0
 40
57.90000000000016
100
AcDbArc
 50
-178.8619259999994
 51
-166.1380740000005
  0
ARC
  5
1C7
330
4D
100
AcDbEntity
  8
LC-001-002-----0
  6
Continuous
 62
     7
100
AcDbCircle
 10
0.00017362025028
 20
-687.5543695446468
 30
0.0
 40
56.19999999999951
100
AcDbArc
 50
166.1725039999991
 51
178.8274959999978
  0
ARC
  5
1C8
330
4D
100
AcDbEntity
  8
LC-001-002-----0
  6
Continuous
 62
     7
100
AcDbCircle
 10
0.00017362025028
 20
-687.5543695446468
 30
0.0
 40
57.90000000000146
100
AcDbArc
 50
166.1380740000005
 51
178.8619259999994
  0
ARC
  5
1C9
330
4D
100
AcDbEntity
  8
LC-001-002-----0
  6
Continuous
 62
     7
100
AcDbCircle
 10
0.0004086202498
 20
-687.5539625446472
 30
0.0
 40
63.00057099999727
100
AcDbArc
 50
-58.95444600000026
 51
-46.04633599999885
  0
ARC
  5
1CA
330
4D
100
AcDbEntity
  8
LC-001-002-----0
  6
Continuous
 62
     7
100
AcDbCircle
 10
0.0004086202498
 20
-687.5539625446472
 30
0.0
 40
63.00057100000063
100
AcDbArc
 50
76.04603400000003
 51
88.95428999999858
  0
ARC
  5
1CB
330
4D
100
AcDbEntity
  8
LC-001-002-----0
  6
Continuous
 62
     7
100
AcDbCircle
 10
0.0004086202498
 20
-687.5539625446472
 30
0.0
 40
59.50050100000193
100
AcDbArc
 50
151.1079089999987
 51
163.8929799999978
  0
ARC
  5
1CC
330
4D
100
AcDbEntity
  8
LC-001-002-----0
  6
Continuous
 62
     7
100
AcDbCircle
 10
0.0004086202498
 20
-687.5539625446472
 30
0.0
 40
63.00057100000128
100
AcDbArc
 50
151.0463509999979
 51
163.9544880000007
  0
ARC
  5
1CD
330
4D
100
AcDbEntity
  8
LC-001-002-----0
  6
Continuous
 62
     7
100
AcDbCircle
 10
0.0004086202498
 20
-687.5543695446468
 30
0.0
 40
75.00035700000049
100
AcDbArc
 50
150.8786549999995
 51
164.1214809999986
  0
ARC
  5
1CE
330
4D
100
AcDbEntity
  8
LC-001-002-----0
  6
Continuous
 62
     7
100
AcDbCircle
 10
0.0004086202498
 20
-687.5543695446468
 30
0.0
 40
79.00004900000086
100
AcDbArc
 50
150.8341670000005
 51
164.1659629999999
  0
ARC
  5
1CF
330
4D
100
AcDbEntity
  8
LC-001-002-----0
  6
Continuous
 62
     7
100
AcDbCircle
 10
0.0004086202498
 20
-687.5539625446472
 30
0.0
 40
63.00057100000017
100
AcDbArc
 50
136.0463359999989
 51
148.9545030000004
  0
ARC
  5
1D0
330
4D
100
AcDbEntity
  8
LC-001-002-----0
  6
Continuous
 62
     7
100
AcDbCircle
 10
0.0004086202498
 20
-687.5539625446472
 30
0.0
 40
59.50050099999965
100
AcDbArc
 50
136.1078939999979
 51
148.8929950000003
  0
ARC
  5
1D1
330
4D
100
AcDbEntity
  8
LC-001-002-----0
  6
Continuous
 62
     7
100
AcDbCircle
 10
0.0004086202498
 20
-687.5543695446468
 30
0.0
 40
75.00035700000187
100
AcDbArc
 50
135.8786919999998
 51
149.1215239999985
  0
ARC
  5
1D2
330
4D
100
AcDbEntity
  8
LC-001-002-----0
  6
Continuous
 62
     7
100
AcDbCircle
 10
0.0004086202498
 20
-687.5543695446468
 30
0.0
 40
79.00004900000128
100
AcDbArc
 50
135.8342019999981
 51
149.1660039999998
  0
ARC
  5
1D3
330
4D
100
AcDbEntity
  8
LC-001-002-----0
  6
Continuous
 62
     7
100
AcDbCircle
 10
0.0004086202498
 20
-687.5543695446468
 30
0.0
 40
79.00004900000029
100
AcDbArc
 50
120.8342290000011
 51
134.1660389999986
  0
ARC
  5
1D4
330
4D
100
AcDbEntity
  8
LC-001-002-----0
  6
Continuous
 62
     7
100
AcDbCircle
 10
0.0004086202498
 20
-687.5543695446468
 30
0.0
 40
75.00035700000012
100
AcDbArc
 50
120.8787209999988
 51
134.1215609999977
  0
ARC
  5
1D5
330
4D
100
AcDbEntity
  8
LC-001-002-----0
  6
Continuous
 62
     7
100
AcDbCircle
 10
0.0004086202498
 20
-687.5539625446472
 30
0.0
 40
63.00057100000068
100
AcDbArc
 50
121.0462940000005
 51
133.9544879999982
  0
ARC
  5
1D6
330
4D
100
AcDbEntity
  8
LC-001-002-----0
  6
Continuous
 62
     7
100
AcDbCircle
 10
0.0004086202498
 20
-687.5539625446472
 30
0.0
 40
59.50050100000082
100
AcDbArc
 50
121.1078489999984
 51
133.8929800000002
  0
ARC
  5
1D7
330
4D
100
AcDbEntity
  8
LC-001-002-----0
  6
Continuous
 62
     7
100
AcDbCircle
 10
0.0004086202498
 20
-687.5539625446472
 30
0.0
 40
63.00057100000264
100
AcDbArc
 50
106.0462259999991
 51
118.9544460000004
  0
ARC
  5
1D8
330
4D
100
AcDbEntity
  8
LC-001-002-----0
  6
Continuous
 62
     7
100
AcDbCircle
 10
0.0004086202498
 20
-687.5539625446472
 30
0.0
 40
59.50050100000082
100
AcDbArc
 50
106.1077769999996
 51
118.8929339999998
  0
ARC
  5
1D9
330
4D
100
AcDbEntity
  8
LC-001-002-----0
  6
Continuous
 62
     7
100
AcDbCircle
 10
0.0004086202498
 20
-687.5543695446468
 30
0.0
 40
75.00035699999866
100
AcDbArc
 50
105.8787389999992
 51
119.1215899999991
  0
ARC
  5
1DA
330
4D
100
AcDbEntity
  8
LC-001-002-----0
  6
Continuous
 62
     7
100
AcDbCircle
 10
0.0004086202498
 20
-687.5543695446468
 30
0.0
 40
79.00004900000017
100
AcDbArc
 50
105.8342460000009
 51
119.1660660000005
  0
ARC
  5
1DB
330
4D
100
AcDbEntity
  8
LC-001-002-----0
  6
Continuous
 62
     7
100
AcDbCircle
 10
0.0004086202498
 20
-687.5543695446468
 30
0.0
 40
79.00004900000238
100
AcDbArc
 50
90.83425199999863
 51
104.1660829999998
  0
ARC
  5
1DC
330
4D
100
AcDbEntity
  8
LC-001-002-----0
  6
Continuous
 62
     7
100
AcDbCircle
 10
0.0004086202498
 20
-687.5543695446468
 30
0.0
 40
75.00035700000105
100
AcDbArc
 50
90.87874500000096
 51
104.1216080000008
  0
ARC
  5
1DD
330
4D
100
AcDbEntity
  8
LC-001-002-----0
  6
Continuous
 62
     7
100
AcDbCircle
 10
0.0004086202498
 20
-687.5539625446472
 30
0.0
 40
63.00057100000027
100
AcDbArc
 50
91.04613699999946
 51
103.9543780000013
  0
ARC
  5
1DE
330
4D
100
AcDbEntity
  8
LC-001-002-----0
  6
Continuous
 62
     7
100
AcDbCircle
 10
0.0004086202498
 20
-687.5539625446472
 30
0.0
 40
59.50050100000291
100
AcDbArc
 50
91.10768299999918
 51
103.8928629999985
  0
ARC
  5
1DF
330
4D
100
AcDbEntity
  8
LC-001-002-----0
  6
Continuous
 62
     7
100
AcDbCircle
 10
0.0004086202498
 20
-687.5543695446468
 30
0.0
 40
75.00035700000223
100
AcDbArc
 50
75.87873900000031
 51
89.1216140000001
  0
ARC
  5
1E0
330
4D
100
AcDbEntity
  8
LC-001-002-----0
  6
Continuous
 62
     7
100
AcDbCircle
 10
0.0004086202498
 20
-687.5543695446468
 30
0.0
 40
79.00004900000104
100
AcDbArc
 50
75.83424599999877
 51
89.16608899999859
  0
ARC
  5
1E1
330
4D
100
AcDbEntity
  8
LC-001-002-----0
  6
Continuous
 62
     7
100
AcDbCircle
 10
0.0004086202498
 20
-687.5543695446468
 30
0.0
 40
79.00004899999857
100
AcDbArc
 50
60.8342290000008
 51
74.16608300000124
  0
ARC
  5
1E2
330
4D
100
AcDbEntity
  8
LC-001-002-----0
  6
Continuous
 62
     7
100
AcDbCircle
 10
0.0004086202498
 20
-687.5543695446468
 30
0.0
 40
75.00035700000028
100
AcDbArc
 50
60.87872100000099
 51
74.1216080000005
  0
ARC
  5
1E3
330
4D
100
AcDbEntity
  8
LC-001-002-----0
  6
Continuous
 62
     7
100
AcDbCircle
 10
0.0004086202498
 20
-687.5539625446472
 30
0.0
 40
63.00057100000047
100
AcDbArc
 50
61.04592399999994
 51
73.95418699999935
  0
ARC
  5
1E4
330
4D
100
AcDbEntity
  8
LC-001-002-----0
  6
Continuous
 62
     7
100
AcDbCircle
 10
0.0004086202498
 20
-687.5539625446472
 30
0.0
 40
59.5005010000031
100
AcDbArc
 50
61.10745700000076
 51
73.89266000000146
  0
ARC
  5
1E5
330
4D
100
AcDbEntity
  8
LC-001-002-----0
  6
Continuous
 62
     7
100
AcDbCircle
 10
0.0004086202498
 20
-687.5543695446468
 30
0.0
 40
79.00004899999874
100
AcDbArc
 50
45.83420199999994
 51
59.16606599999972
  0
ARC
  5
1E6
330
4D
100
AcDbEntity
  8
LC-001-002-----0
  6
Continuous
 62
     7
100
AcDbCircle
 10
0.0004086202498
 20
-687.5543695446468
 30
0.0
 40
75.00035700000187
100
AcDbArc
 50
45.87869199999976
 51
59.12159000000079
  0
ARC
  5
1E7
330
4D
100
AcDbEntity
  8
LC-001-002-----0
  6
Continuous
 62
     7
100
AcDbCircle
 10
0.0004086202498
 20
-687.5539625446472
 30
0.0
 40
59.50050100000219
100
AcDbArc
 50
46.10734000000046
 51
58.89254300000204
  0
ARC
  5
1E8
330
4D
100
AcDbEntity
  8
LC-001-002-----0
  6
Continuous
 62
     7
100
AcDbCircle
 10
0.0004086202498
 20
-687.5539625446472
 30
0.0
 40
63.00057100000102
100
AcDbArc
 50
46.04581300000196
 51
58.95407600000242
  0
ARC
  5
1E9
330
4D
100
AcDbEntity
  8
LC-001-002-----0
  6
Continuous
 62
     7
100
AcDbCircle
 10
0.0004086202498
 20
-687.5539625446472
 30
0.0
 40
59.50050100000012
100
AcDbArc
 50
31.10723100000283
 51
43.89242600000075
  0
ARC
  5
1EA
330
4D
100
AcDbEntity
  8
LC-001-002-----0
  6
Continuous
 62
     7
100
AcDbCircle
 10
0.0004086202498
 20
-687.5539625446472
 30
0.0
 40
63.0005710000011
100
AcDbArc
 50
31.04571000000219
 51
43.95396600000173
  0
ARC
  5
1EB
330
4D
100
AcDbEntity
  8
LC-001-002-----0
  6
Continuous
 62
     7
100
AcDbCircle
 10
0.0004086202498
 20
-687.5543695446468
 30
0.0
 40
75.00035700000126
100
AcDbArc
 50
30.87865500000029
 51
44.12156100000164
  0
ARC
  5
1EC
330
4D
100
AcDbEntity
  8
LC-001-002-----0
  6
Continuous
 62
     7
100
AcDbCircle
 10
0.0004086202498
 20
-687.5543695446468
 30
0.0
 40
79.00004900000192
100
AcDbArc
 50
30.83416700000123
 51
44.16603900000045
  0
ARC
  5
1ED
330
4D
100
AcDbEntity
  8
LC-001-002-----0
  6
Continuous
 62
     7
100
AcDbCircle
 10
0.0004086202498
 20
-687.5543695446468
 30
0.0
 40
79.00004900000064
100
AcDbArc
 50
15.83412500000057
 51
29.16600400000039
  0
ARC
  5
1EE
330
4D
100
AcDbEntity
  8
LC-001-002-----0
  6
Continuous
 62
     7
100
AcDbCircle
 10
0.0004086202498
 20
-687.5543695446468
 30
0.0
 40
75.000357
100
AcDbArc
 50
15.87861199999984
 51
29.12152399999994
  0
ARC
  5
1EF
330
4D
100
AcDbEntity
  8
LC-001-002-----0
  6
Continuous
 62
     7
100
AcDbCircle
 10
0.0004086202498
 20
-687.5539625446472
 30
0.0
 40
63.00057099999862
100
AcDbArc
 50
16.0456220000001
 51
28.95386299999996
  0
ARC
  5
1F0
330
4D
100
AcDbEntity
  8
LC-001-002-----0
  6
Continuous
 62
     7
100
AcDbCircle
 10
0.0004086202498
 20
-687.5539625446472
 30
0.0
 40
59.50050100000175
100
AcDbArc
 50
16.10713700000095
 51
28.89231700000187
  0
ARC
  5
1F1
330
4D
100
AcDbEntity
  8
LC-001-002-----0
  6
Continuous
 62
     7
100
AcDbCircle
 10
0.0004086202498
 20
-687.5539625446472
 30
0.0
 40
59.50050100000003
100
AcDbArc
 50
1.10706600000208
 51
13.89222300000252
  0
ARC
  5
1F2
330
4D
100
AcDbEntity
  8
LC-001-002-----0
  6
Continuous
 62
     7
100
AcDbCircle
 10
0.0004086202498
 20
-687.5539625446472
 30
0.0
 40
63.00057099999999
100
AcDbArc
 50
1.04555400000056
 51
13.95377400000114
  0
ARC
  5
1F3
330
4D
100
AcDbEntity
  8
LC-001-002-----0
  6
Continuous
 62
     7
100
AcDbCircle
 10
0.0004086202498
 20
-687.5543695446468
 30
0.0
 40
75.00035699999906
100
AcDbArc
 50
0.87856600000067
 51
14.12148100000056
  0
ARC
  5
1F4
330
4D
100
AcDbEntity
  8
LC-001-002-----0
  6
Continuous
 62
     7
100
AcDbCircle
 10
0.0004086202498
 20
-687.5543695446468
 30
0.0
 40
79.00004900000089
100
AcDbArc
 50
0.83408099999965
 51
14.16596300000062
  0
ARC
  5
1F5
330
4D
100
AcDbEntity
  8
LC-001-002-----0
  6
Continuous
 62
     7
100
AcDbCircle
 10
0.0004086202498
 20
-687.5543695446468
 30
0.0
 40
75.00035699999994
100
AcDbArc
 50
-14.12148100000056
 51
-0.87856600000067
  0
ARC
  5
1F6
330
4D
100
AcDbEntity
  8
LC-001-002-----0
  6
Continuous
 62
     7
100
AcDbCircle
 10
0.0004086202498
 20
-687.5539625446472
 30
0.0
 40
63.00057099999908
100
AcDbArc
 50
-13.95448799999731
 51
-1.04629399999831
  0
ARC
  5
1F7
330
4D
100
AcDbEntity
  8
LC-001-002-----0
  6
Continuous
 62
     7
100
AcDbCircle
 10
0.0004086202498
 20
-687.5539625446472
 30
0.0
 40
59.50050100000146
100
AcDbArc
 50
-13.89297999999847
 51
-1.10784899999811
  0
ARC
  5
1F8
330
4D
100
AcDbEntity
  8
LC-001-002-----0
  6
Continuous
 62
     7
100
AcDbCircle
 10
0.0004086202498
 20
-687.5539625446472
 30
0.0
 40
59.50050099999812
100
AcDbArc
 50
-28.89299499999966
 51
-16.10789399999746
  0
ARC
  5
1F9
330
4D
100
AcDbEntity
  8
LC-001-002-----0
  6
Continuous
 62
     7
100
AcDbCircle
 10
0.0004086202498
 20
-687.5539625446472
 30
0.0
 40
63.00057099999949
100
AcDbArc
 50
-28.95450300000046
 51
-16.04633599999919
  0
ARC
  5
1FA
330
4D
100
AcDbEntity
  8
LC-001-002-----0
  6
Continuous
 62
     7
100
AcDbCircle
 10
0.0004086202498
 20
-687.5543695446468
 30
0.0
 40
75.00035699999871
100
AcDbArc
 50
-29.12152399999994
 51
-15.87861199999984
  0
ARC
  5
1FB
330
4D
100
AcDbEntity
  8
LC-001-002-----0
  6
Continuous
 62
     7
100
AcDbCircle
 10
0.0004086202498
 20
-687.5543695446468
 30
0.0
 40
79.00004900000027
100
AcDbArc
 50
-29.16600400000039
 51
-15.83412499999803
  0
ARC
  5
1FC
330
4D
100
AcDbEntity
  8
LC-001-002-----0
  6
Continuous
 62
     7
100
AcDbCircle
 10
0.0004086202498
 20
-687.5539625446472
 30
0.0
 40
59.50050099999964
100
AcDbArc
 50
-43.89298000000022
 51
-31.10790899999854
  0
ARC
  5
1FD
330
4D
100
AcDbEntity
  8
LC-001-002-----0
  6
Continuous
 62
     7
100
AcDbCircle
 10
0.0004086202498
 20
-687.5539625446472
 30
0.0
 40
63.00057099999768
100
AcDbArc
 50
-43.95448799999814
 51
-31.04635099999726
  0
ARC
  5
1FE
330
4D
100
AcDbEntity
  8
LC-001-002-----0
  6
Continuous
 62
     7
100
AcDbCircle
 10
0.0004086202498
 20
-687.5543695446468
 30
0.0
 40
75.00035699999817
100
AcDbArc
 50
-44.12156099999964
 51
-30.87865500000029
  0
ARC
  5
1FF
330
4D
100
AcDbEntity
  8
LC-001-002-----0
  6
Continuous
 62
     7
100
AcDbCircle
 10
0.0004086202498
 20
-687.5543695446468
 30
0.0
 40
79.0000490000001
100
AcDbArc
 50
-44.16603899999856
 51
-30.83416699999897
  0
ARC
  5
200
330
4D
100
AcDbEntity
  8
LC-001-002-----0
  6
Continuous
 62
     7
100
AcDbCircle
 10
0.0004086202498
 20
-687.5543695446468
 30
0.0
 40
75.00035699999894
100
AcDbArc
 50
-59.12158999999937
 51
-45.87869199999976
  0
ARC
  5
201
330
4D
100
AcDbEntity
  8
LC-001-002-----0
  6
Continuous
 62
     7
100
AcDbCircle
 10
0.0004086202498
 20
-687.5543695446468
 30
0.0
 40
79.00004899999944
100
AcDbArc
 50
-59.16606599999837
 51
-45.83420199999994
  0
ARC
  5
202
330
4D
100
AcDbEntity
  8
LC-001-002-----0
  6
Continuous
 62
     7
100
AcDbCircle
 10
0.0004086202498
 20
-687.5543695446468
 30
0.0
 40
79.0000489999999
100
AcDbArc
 50
-74.16608300000124
 51
-60.8342290000008
  0
ARC
  5
203
330
4D
100
AcDbEntity
  8
LC-001-002-----0
  6
Continuous
 62
     7
100
AcDbCircle
 10
0.0004086202498
 20
-687.5539625446472
 30
0.0
 40
63.00057099999862
100
AcDbArc
 50
-73.9543779999999
 51
-61.04629399999838
  0
ARC
  5
204
330
4D
100
AcDbEntity
  8
LC-001-002-----0
  6
Continuous
 62
     7
100
AcDbCircle
 10
0.0004086202498
 20
-687.5539625446472
 30
0.0
 40
59.50050099999826
100
AcDbArc
 50
-73.89286299999807
 51
-61.10784899999987
  0
ARC
  5
205
330
4D
100
AcDbEntity
  8
LC-001-002-----0
  6
Continuous
 62
     7
100
AcDbCircle
 10
0.0004086202498
 20
-687.5539625446472
 30
0.0
 40
59.50050099999883
100
AcDbArc
 50
-88.89276899999922
 51
-76.1077770000009
  0
ARC
  5
206
330
4D
100
AcDbEntity
  8
LC-001-002-----0
  6
Continuous
 62
     7
100
AcDbCircle
 10
0.0004086202498
 20
-687.5539625446472
 30
0.0
 40
63.00057099999886
100
AcDbArc
 50
-88.95428999999852
 51
-76.04622599999885
  0
ARC
  5
207
330
4D
100
AcDbEntity
  8
LC-001-002-----0
  6
Continuous
 62
     7
100
AcDbCircle
 10
0.0004086202498
 20
-687.5543695446468
 30
0.0
 40
75.0003570000013
100
AcDbArc
 50
-89.1216140000001
 51
-75.87873899999963
  0
ARC
  5
208
330
4D
100
AcDbEntity
  8
LC-001-002-----0
  6
Continuous
 62
     7
100
AcDbCircle
 10
0.0004086202498
 20
-687.5543695446468
 30
0.0
 40
79.00004899999733
100
AcDbArc
 50
-89.16608899999855
 51
-75.83424599999877
  0
ARC
  5
209
330
4D
100
AcDbEntity
  8
LC-001-002-----0
  6
Continuous
 62
     7
100
AcDbCircle
 10
0.0004086202498
 20
-687.5539625446472
 30
0.0
 40
63.00057099999727
100
AcDbArc
 50
-103.9541870000011
 51
-91.04613699999946
  0
ARC
  5
20A
330
4D
100
AcDbEntity
  8
LC-001-002-----0
  6
Continuous
 62
     7
100
AcDbCircle
 10
0.0004086202498
 20
-687.5539625446472
 30
0.0
 40
59.50050099999992
100
AcDbArc
 50
-118.8925430000009
 51
-106.1075740000005
  0
ARC
  5
20B
330
4D
100
AcDbEntity
  8
LC-001-002-----0
  6
Continuous
 62
     7
100
AcDbCircle
 10
0.0004086202498
 20
-687.5539625446472
 30
0.0
 40
63.00057100000047
100
AcDbArc
 50
-118.9540760000001
 51
-106.0460339999991
  0
ARC
  5
20C
330
4D
100
AcDbEntity
  8
LC-001-002-----0
  6
Continuous
 62
     7
100
AcDbCircle
 10
0.0004086202498
 20
-687.5543695446468
 30
0.0
 40
75.00035700000015
100
AcDbArc
 50
-119.1215899999991
 51
-105.8787389999992
  0
ARC
  5
20D
330
4D
100
AcDbEntity
  8
LC-001-002-----0
  6
Continuous
 62
     7
100
AcDbCircle
 10
0.0004086202498
 20
-687.5543695446468
 30
0.0
 40
79.00004900000003
100
AcDbArc
 50
-119.1660660000005
 51
-105.8342460000009
  0
ARC
  5
20E
330
4D
100
AcDbEntity
  8
LC-001-002-----0
  6
Continuous
 62
     7
100
AcDbCircle
 10
0.0004086202498
 20
-687.5543695446468
 30
0.0
 40
75.00035699999817
100
AcDbArc
 50
-134.1215609999997
 51
-120.8787210000002
  0
ARC
  5
20F
330
4D
100
AcDbEntity
  8
LC-001-002-----0
  6
Continuous
 62
     7
100
AcDbCircle
 10
0.0004086202498
 20
-687.5539625446472
 30
0.0
 40
63.00057100000075
100
AcDbArc
 50
-133.9539660000017
 51
-121.0459239999993
  0
ARC
  5
210
330
4D
100
AcDbEntity
  8
LC-001-002-----0
  6
Continuous
 62
     7
100
AcDbCircle
 10
0.0004086202498
 20
-687.5539625446472
 30
0.0
 40
59.50050099999756
100
AcDbArc
 50
-133.8924260000007
 51
-121.1074569999998
  0
ARC
  5
211
330
4D
100
AcDbEntity
  8
LC-001-002-----0
  6
Continuous
 62
     7
100
AcDbCircle
 10
0.0004086202498
 20
-687.5543695446468
 30
0.0
 40
79.0000490000008
100
AcDbArc
 50
-149.1660039999998
 51
-135.8342019999999
  0
ARC
  5
212
330
4D
100
AcDbEntity
  8
LC-001-002-----0
  6
Continuous
 62
     7
100
AcDbCircle
 10
0.0004086202498
 20
-687.5543695446468
 30
0.0
 40
75.00035699999897
100
AcDbArc
 50
-149.1215239999985
 51
-135.8786920000017
  0
ARC
  5
213
330
4D
100
AcDbEntity
  8
LC-001-002-----0
  6
Continuous
 62
     7
100
AcDbCircle
 10
0.0004086202498
 20
-687.5539625446472
 30
0.0
 40
63.00057099999853
100
AcDbArc
 50
-148.9538629999998
 51
-136.0458129999997
  0
ARC
  5
214
330
4D
100
AcDbEntity
  8
LC-001-002-----0
  6
Continuous
 62
     7
100
AcDbCircle
 10
0.0004086202498
 20
-687.5539625446472
 30
0.0
 40
59.50050099999848
100
AcDbArc
 50
-148.8923170000017
 51
-136.1073400000006
  0
ARC
  5
215
330
4D
100
AcDbEntity
  8
LC-001-002-----0
  6
Continuous
 62
     7
100
AcDbCircle
 10
0.0004086202498
 20
-687.5539625446472
 30
0.0
 40
59.50050100000082
100
AcDbArc
 50
-163.8922230000004
 51
-151.1072309999998
  0
ARC
  5
216
330
4D
100
AcDbEntity
  8
LC-001-002-----0
  6
Continuous
 62
     7
100
AcDbCircle
 10
0.0004086202498
 20
-687.5539625446472
 30
0.0
 40
63.00057099999914
100
AcDbArc
 50
-163.953774
 51
-151.0457100000007
  0
ARC
  5
217
330
4D
100
AcDbEntity
  8
LC-001-002-----0
  6
Continuous
 62
     7
100
AcDbCircle
 10
0.0004086202498
 20
-687.5543695446468
 30
0.0
 40
75.00035700000065
100
AcDbArc
 50
-164.1214810000013
 51
-150.8786550000019
  0
ARC
  5
218
330
4D
100
AcDbEntity
  8
LC-001-002-----0
  6
Continuous
 62
     7
100
AcDbCircle
 10
0.0004086202498
 20
-687.5543695446468
 30
0.0
 40
79.00004899999877
100
AcDbArc
 50
-164.1659629999999
 51
-150.8341670000005
  0
ARC
  5
219
330
4D
100
AcDbEntity
  8
LC-001-002-----0
  6
Continuous
 62
     7
100
AcDbCircle
 10
0.0004086202498
 20
-687.5543695446468
 30
0.0
 40
79.00004900000089
100
AcDbArc
 50
-179.1659190000003
 51
-165.8341250000002
  0
ARC
  5
21A
330
4D
100
AcDbEntity
  8
LC-001-002-----0
  6
Continuous
 62
     7
100
AcDbCircle
 10
0.0004086202498
 20
-687.5543695446468
 30
0.0
 40
75.00035699999906
100
AcDbArc
 50
-179.1214339999993
 51
-165.8786120000015
  0
ARC
  5
21B
330
4D
100
AcDbEntity
  8
LC-001-002-----0
  6
Continuous
 62
     7
100
AcDbCircle
 10
0.0004086202498
 20
-687.5539625446472
 30
0.0
 40
63.00057099999834
100
AcDbArc
 50
-178.9537060000017
 51
-166.0456220000011
  0
ARC
  5
21C
330
4D
100
AcDbEntity
  8
LC-001-002-----0
  6
Continuous
 62
     7
100
AcDbCircle
 10
0.0004086202498
 20
-687.5539625446472
 30
0.0
 40
59.50050099999887
100
AcDbArc
 50
-178.8921510000019
 51
-166.1071370000016
  0
ARC
  5
21D
330
4D
100
AcDbEntity
  8
LC-001-002-----0
  6
Continuous
 62
     7
100
AcDbCircle
 10
-129.4995963797519
 20
-558.0539625446472
 30
0.0
 40
9.000000000003181
100
AcDbArc
 50
0.93225900001165
 51
-90.93288199999145
  0
ARC
  5
21E
330
4D
100
AcDbEntity
  8
LC-001-002-----0
  6
Continuous
 62
     7
100
AcDbCircle
 10
129.5004126202512
 20
-558.0539625446472
 30
0.0
 40
8.999999999999687
100
AcDbArc
 50
-89.0696670000161
 51
179.0701099999933
  0
ARC
  5
21F
330
4D
100
AcDbEntity
  8
LC-001-002-----0
  6
Continuous
 62
     7
100
AcDbCircle
 10
-129.4995963797519
 20
-817.0539625446472
 30
0.0
 40
9.000000000000824
100
AcDbArc
 50
90.94697399999782
 51
-0.94742100000244
  0
ARC
  5
220
330
4D
100
AcDbEntity
  8
LC-001-002-----0
  6
Continuous
 62
     7
100
AcDbCircle
 10
129.5004126202512
 20
-817.0539625446472
 30
0.0
 40
9.000000000000389
100
AcDbArc
 50
-179.0549480000126
 51
89.05557500004315
  0
ARC
  5
221
330
4D
100
AcDbEntity
  8
LC-001-002-----0
  6
Continuous
 62
     7
100
AcDbCircle
 10
-129.4995913797502
 20
-558.0539625446472
 30
0.0
 40
7.999999999999825
100
AcDbArc
 50
-5.95432799998153
 51
-84.04629700000338
  0
ARC
  5
222
330
4D
100
AcDbEntity
  8
LC-001-002-----0
  6
Continuous
 62
     7
100
AcDbCircle
 10
129.5004086202498
 20
-558.0539585446459
 30
0.0
 40
7.999999999999437
100
AcDbArc
 50
-95.9569820000217
 51
-174.0425720000133
  0
ARC
  5
223
330
4D
100
AcDbEntity
  8
LC-001-002-----0
  6
Continuous
 62
     7
100
AcDbCircle
 10
-129.4995913797502
 20
-817.0539675446453
 30
0.0
 40
7.999999999999933
100
AcDbArc
 50
84.06450300000724
 51
5.93505399998415
  0
ARC
  5
224
330
4D
100
AcDbEntity
  8
LC-001-002-----0
  6
Continuous
 62
     7
100
AcDbCircle
 10
129.5004086202498
 20
-817.0539675446453
 30
0.0
 40
8.000000000000348
100
AcDbArc
 50
174.0618800000004
 51
95.93874299997321
  0
ARC
  5
225
330
4D
100
AcDbEntity
  8
LC-001-002-----0
  6
Continuous
 62
     7
100
AcDbCircle
 10
0.00020462024986
 20
-687.5551715446454
 30
0.0
 40
85.59999999999923
100
AcDbArc
 50
149.2302319999992
 51
150.769768000001
  0
ARC
  5
226
330
4D
100
AcDbEntity
  8
LC-002-002-RND-0
  6
Continuous
 62
     7
100
AcDbCircle
 10
170.0004126202512
 20
-517.5539585446459
 30
0.0
 40
10.0
100
AcDbArc
 50
0.0
 51
90.0
  0
ARC
  5
227
330
4D
100
AcDbEntity
  8
LC-002-002-RND-0
  6
Continuous
 62
     7
100
AcDbCircle
 10
170.0004126202512
 20
-517.5539585446459
 30
0.0
 40
10.0
100
AcDbArc
 50
0.0
 51
90.0
  0
ARC
  5
228
330
4D
100
AcDbEntity
  8
LC-002-002-RND-0
  6
Continuous
 62
     7
100
AcDbCircle
 10
170.0004126202512
 20
-857.5539675446453
 30
0.0
 40
10.0
100
AcDbArc
 50
-90.0
 51
0.0
  0
ARC
  5
229
330
4D
100
AcDbEntity
  8
LC-002-002-RND-0
  6
Continuous
 62
     7
100
AcDbCircle
 10
-169.9988629292093
 20
-857.5539675446453
 30
0.0
 40
10.0
100
AcDbArc
 50
180.0
 51
-90.0
  0
ARC
  5
22A
330
4D
100
AcDbEntity
  8
LC-002-002-RND-0
  6
Continuous
 62
     7
100
AcDbCircle
 10
-169.9988629292093
 20
-517.5539585446459
 30
0.0
 40
9.999999999999943
100
AcDbArc
 50
90.0
 51
180.0
  0
CIRCLE
  5
22B
330
4D
100
AcDbEntity
  8
LC-001-002-----0
  6
Continuous
 62
     7
100
AcDbCircle
 10
0.00020462024986
 20
-687.5551715446454
 30
0.0
 40
87.5
  0
CIRCLE
  5
22C
330
4D
100
AcDbEntity
  8
LC-001-002-----0
  6
Continuous
 62
     7
100
AcDbCircle
 10
0.00017362025028
 20
-687.5543695446468
 30
0.0
 40
43.20000000000073
  0
CIRCLE
  5
22D
330
4D
100
AcDbEntity
  8
LC-001-002-----0
  6
Continuous
 62
     7
100
AcDbCircle
 10
-129.4995963797519
 20
-558.0539585446459
 30
0.0
 40
3.500004000001397
  0
CIRCLE
  5
22E
330
4D
100
AcDbEntity
  8
LC-001-002-----0
  6
Continuous
 62
     7
100
AcDbCircle
 10
129.5004126202512
 20
-558.0539585446459
 30
0.0
 40
3.500003999997688
  0
CIRCLE
  5
22F
330
4D
100
AcDbEntity
  8
LC-001-002-----0
  6
Continuous
 62
     7
100
AcDbCircle
 10
129.5004126202512
 20
-817.0539675446453
 30
0.0
 40
3.500003999997688
  0
CIRCLE
  5
230
330
4D
100
AcDbEntity
  8
LC-001-002-----0
  6
Continuous
 62
     7
100
AcDbCircle
 10
129.5004086202498
 20
-558.0539625446472
 30
0.0
 40
2.5
  0
CIRCLE
  5
231
330
4D
100
AcDbEntity
  8
LC-001-002-----0
  6
Continuous
 62
     7
100
AcDbCircle
 10
-129.4995913797502
 20
-558.0539625446472
 30
0.0
 40
2.5
  0
CIRCLE
  5
232
330
4D
100
AcDbEntity
  8
LC-001-002-----0
  6
Continuous
 62
     7
100
AcDbCircle
 10
-129.4995913797502
 20
-817.0539625446472
 30
0.0
 40
2.5
  0
CIRCLE
  5
233
330
4D
100
AcDbEntity
  8
LC-001-002-----0
  6
Continuous
 62
     7
100
AcDbCircle
 10
129.5004086202498
 20
-817.0539625446472
 30
0.0
 40
2.5
  0
CIRCLE
  5
234
330
4D
100
AcDbEntity
  8
LC-001-002-----0
  6
Continuous
 62
     7
100
AcDbCircle
 10
-129.4995913797502
 20
-558.0539625446472
 30
0.0
 40
4.75
  0
CIRCLE
  5
235
330
4D
100
AcDbEntity
  8
LC-001-002-----0
  6
Continuous
 62
     7
100
AcDbCircle
 10
129.5004086202498
 20
-558.0539585446459
 30
0.0
 40
4.75
  0
CIRCLE
  5
236
330
4D
100
AcDbEntity
  8
LC-001-002-----0
  6
Continuous
 62
     7
100
AcDbCircle
 10
-129.4995913797502
 20
-817.0539675446453
 30
0.0
 40
4.75
  0
CIRCLE
  5
237
330
4D
100
AcDbEntity
  8
LC-001-002-----0
  6
Continuous
 62
     7
100
AcDbCircle
 10
129.5004086202498
 20
-817.0539675446453
 30
0.0
 40
4.75
  0
CIRCLE
  5
238
330
4D
100
AcDbEntity
  8
LC-001-002-----0
  6
Continuous
 62
     7
100
AcDbCircle
 10
0.00020462024986
 20
-687.5551715446454
 30
0.0
 40
177.0
  0
ENDBLK
  5
4F
330
4D
100
AcDbEntity
  8
0
100
AcDbBlockEnd
  0
BLOCK
  5
51
330
50
100
AcDbEntity
  8
0
100
AcDbBlockBegin
  2
PVC_Manschette
 70
     0
 71
     0
 10
-1177.0
 20
-75.17215613556982
 30
0.0
  3
PVC_Manschette
  1

  0
LINE
  5
239
330
50
100
AcDbEntity
  8
1
  6
Continuous
 62
     7
100
AcDbLine
 10
175.0
 20
5.49722305267368
 30
0.0
 11
-0.00000000000005
 21
5.49722305267369
 31
0.0
  0
LINE
  5
23A
330
50
100
AcDbEntity
  8
1
  6
Continuous
 62
     7
100
AcDbLine
 10
177.0
 20
3.49722305267368
 30
0.0
 11
177.0
 21
2.99722305267368
 31
0.0
  0
LINE
  5
23B
330
50
100
AcDbEntity
  8
1
  6
Continuous
 62
     7
100
AcDbLine
 10
-0.00000000000006
 20
2.99722305267368
 30
0.0
 11
177.0
 21
2.99722305267368
 31
0.0
  0
LINE
  5
23C
330
50
100
AcDbEntity
  8
1
  6
Continuous
 62
     7
100
AcDbLine
 10
-177.0
 20
2.99722305267368
 30
0.0
 11
-0.00000000000006
 21
2.99722305267368
 31
0.0
  0
LINE
  5
23D
330
50
100
AcDbEntity
  8
1
  6
Continuous
 62
     7
100
AcDbLine
 10
-177.0
 20
2.99722305267368
 30
0.0
 11
-177.0
 21
3.49722305267368
 31
0.0
  0
LINE
  5
23E
330
50
100
AcDbEntity
  8
1
  6
Continuous
 62
     7
100
AcDbLine
 10
-0.00000000000005
 20
5.49722305267369
 30
0.0
 11
-175.0
 21
5.49722305267368
 31
0.0
  0
ARC
  5
23F
330
50
100
AcDbEntity
  8
1
  6
Continuous
 62
     7
100
AcDbCircle
 10
175.0
 20
3.49722305267368
 30
0.0
 40
2.0
100
AcDbArc
 50
0.0
 51
90.0
  0
ARC
  5
240
330
50
100
AcDbEntity
  8
1
  6
Continuous
 62
     7
100
AcDbCircle
 10
-175.0
 20
3.49722305267368
 30
0.0
 40
1.999999999999999
100
AcDbArc
 50
90.0
 51
180.0
  0
ENDBLK
  5
52
330
50
100
AcDbEntity
  8
0
100
AcDbBlockEnd
  0
BLOCK
  5
54
330
53
100
AcDbEntity
  8
0
100
AcDbBlockBegin
  2
060_1E_Laubfangkorb
 70
     0
 71
     0
 10
17.77195867930641
 20
-740.7796983749759
 30
0.0
  3
060_1E_Laubfangkorb
  1

  0
LINE
  5
241
330
53
100
AcDbEntity
  8
1
  6
PHANTOM
 62
     2
100
AcDbLine
 10
-0.00000000000139
 20
-33.86599806490704
 30
0.0
 11
-0.00016028713937
 21
82.83903938336442
 31
0.0
  0
LINE
  5
242
330
53
100
AcDbEntity
  8
LC-001-002-----0
  6
Continuous
 62
     7
100
AcDbLine
 10
-3.30546762249789
 20
63.69697064119391
 30
0.0
 11
-3.30546762249789
 21
78.49697064119317
 31
0.0
  0
LINE
  5
243
330
53
100
AcDbEntity
  8
LC-001-002-----0
  6
Continuous
 62
     7
100
AcDbLine
 10
3.30519937750294
 20
63.69697964119332
 30
0.0
 11
3.30515937750395
 21
78.49697964119622
 31
0.0
  0
LINE
  5
244
330
53
100
AcDbEntity
  8
LC-001-002-----0
  6
Continuous
 62
     7
100
AcDbLine
 10
-85.52127507241107
 20
5.49801984176401
 30
0.0
 11
-62.5441286224973
 21
68.62721164119574
 31
0.0
  0
LINE
  5
245
330
53
100
AcDbEntity
  8
LC-001-002-----0
  6
Continuous
 62
     7
100
AcDbLine
 10
85.52125244724144
 20
5.49801984176401
 30
0.0
 11
62.54384737750159
 21
68.62738264119542
 31
0.0
  0
LINE
  5
246
330
53
100
AcDbEntity
  8
LC-001-002-----0
  6
Continuous
 62
     7
100
AcDbLine
 10
-48.44875962249855
 20
78.49690864119401
 30
0.0
 11
47.56149637750284
 21
78.49704064119504
 31
0.0
  0
LINE
  5
247
330
53
100
AcDbEntity
  8
LC-001-002-----0
  6
Continuous
 62
     7
100
AcDbLine
 10
69.77140537234791
 20
5.49801984176401
 30
0.0
 11
43.20171037750195
 21
78.49703464119301
 31
0.0
  0
LINE
  5
248
330
53
100
AcDbEntity
  8
LC-001-002-----0
  6
Continuous
 62
     7
100
AcDbLine
 10
42.4867243775029
 20
74.41190064119581
 30
0.0
 11
40.99984537750287
 21
78.49703164119563
 31
0.0
  0
LINE
  5
249
330
53
100
AcDbEntity
  8
LC-001-002-----0
  6
Continuous
 62
     7
100
AcDbLine
 10
44.83959037750399
 20
73.99703364119631
 30
0.0
 11
42.4867243775029
 21
74.41190064119581
 31
0.0
  0
LINE
  5
24A
330
53
100
AcDbEntity
  8
LC-001-002-----0
  6
Continuous
 62
     7
100
AcDbLine
 10
-69.77144418492142
 20
5.49801984176401
 30
0.0
 11
-43.20201862249952
 21
78.49691664119308
 31
0.0
  0
LINE
  5
24B
330
53
100
AcDbEntity
  8
LC-001-002-----0
  6
Continuous
 62
     7
100
AcDbLine
 10
-42.48702162249676
 20
74.41178364119622
 30
0.0
 11
-41.00015462249714
 21
78.4969196411941
 31
0.0
  0
LINE
  5
24C
330
53
100
AcDbEntity
  8
LC-001-002-----0
  6
Continuous
 62
     7
100
AcDbLine
 10
-44.83988662249751
 20
73.99691064119469
 30
0.0
 11
-42.48702162249676
 21
74.41178364119622
 31
0.0
  0
LINE
  5
24D
330
53
100
AcDbEntity
  8
LC-001-002-----0
  6
Continuous
 62
     7
100
AcDbLine
 10
56.19554737750376
 20
42.79706464119516
 30
0.0
 11
56.19555937750054
 21
38.43396364119617
 31
0.0
  0
LINE
  5
24E
330
53
100
AcDbEntity
  8
LC-001-002-----0
  6
Continuous
 62
     7
100
AcDbLine
 10
57.99199037750303
 20
38.11720964119667
 30
0.0
 11
56.19555937750054
 21
38.43396364119617
 31
0.0
  0
LINE
  5
24F
330
53
100
AcDbEntity
  8
LC-001-002-----0
  6
Continuous
 62
     7
100
AcDbLine
 10
1.15020937750385
 20
63.69697664119594
 30
0.0
 11
1.15020937750385
 21
42.79691064119397
 31
0.0
  0
LINE
  5
250
330
53
100
AcDbEntity
  8
LC-001-002-----0
  6
Continuous
 62
     7
100
AcDbLine
 10
-1.14979062249906
 20
63.69697364119493
 30
0.0
 11
-1.14979062249906
 21
42.79691064119397
 31
0.0
  0
LINE
  5
251
330
53
100
AcDbEntity
  8
LC-001-002-----0
  6
Continuous
 62
     7
100
AcDbLine
 10
-56.19575762249726
 20
42.79691064119397
 30
0.0
 11
-56.19575762249726
 21
38.43380964119498
 31
0.0
  0
LINE
  5
252
330
53
100
AcDbEntity
  8
LC-001-002-----0
  6
Continuous
 62
     7
100
AcDbLine
 10
-57.89270262249694
 20
38.13459264119518
 30
0.0
 11
-56.19575762249726
 21
38.43380964119498
 31
0.0
  0
LINE
  5
253
330
53
100
AcDbEntity
  8
LC-001-002-----0
  6
Continuous
 62
     7
100
AcDbLine
 10
-48.5887806224978
 20
63.69690864119475
 30
0.0
 11
48.58851337750318
 21
63.69704164119612
 31
0.0
  0
LINE
  5
254
330
53
100
AcDbEntity
  8
LC-001-002-----0
  6
Continuous
 62
     7
100
AcDbLine
 10
-56.19575762249726
 20
42.79691064119397
 30
0.0
 11
56.19554737750376
 21
42.79691064119397
 31
0.0
  0
LINE
  5
255
330
53
100
AcDbEntity
  8
LC-001-002-----0
  6
Continuous
 62
     7
100
AcDbLine
 10
-57.89270262249694
 20
38.13459264119518
 30
0.0
 11
57.89250537750056
 21
38.13459264119518
 31
0.0
  0
LINE
  5
256
330
53
100
AcDbEntity
  8
LC-001-002-----0
  6
Continuous
 62
     7
100
AcDbLine
 10
-1.14979062249906
 20
38.13459264119518
 30
0.0
 11
-1.14979062249906
 21
5.49801984176401
 31
0.0
  0
LINE
  5
257
330
53
100
AcDbEntity
  8
LC-001-002-----0
  6
Continuous
 62
     7
100
AcDbLine
 10
1.15020937750385
 20
38.13459264119518
 30
0.0
 11
1.15020937750385
 21
5.49801984176401
 31
0.0
  0
LINE
  5
258
330
53
100
AcDbEntity
  8
LC-001-002-----0
  6
Continuous
 62
     7
100
AcDbLine
 10
-51.60680562249902
 20
42.79691064119397
 30
0.0
 11
-43.00001562249738
 21
63.69691664119382
 31
0.0
  0
LINE
  5
259
330
53
100
AcDbEntity
  8
LC-001-002-----0
  6
Continuous
 62
     7
100
AcDbLine
 10
-59.73261419733824
 20
5.49801984176401
 30
0.0
 11
-47.68264062249866
 21
38.13459264119518
 31
0.0
  0
LINE
  5
25A
330
53
100
AcDbEntity
  8
LC-001-002-----0
  6
Continuous
 62
     7
100
AcDbLine
 10
-33.82260035479689
 20
5.49801984176401
 30
0.0
 11
-26.86554662249684
 21
38.13459264119518
 31
0.0
  0
LINE
  5
25B
330
53
100
AcDbEntity
  8
LC-001-002-----0
  6
Continuous
 62
     7
100
AcDbLine
 10
-35.81445835479812
 20
5.49801984176401
 30
0.0
 11
-28.85740462249807
 21
38.13459264119518
 31
0.0
  0
LINE
  5
25C
330
53
100
AcDbEntity
  8
LC-001-002-----0
  6
Continuous
 62
     7
100
AcDbLine
 10
-19.13411093263552
 20
5.49801984176401
 30
0.0
 11
-15.53287562249673
 21
38.13459264119518
 31
0.0
  0
LINE
  5
25D
330
53
100
AcDbEntity
  8
LC-001-002-----0
  6
Continuous
 62
     7
100
AcDbLine
 10
-16.91248193263586
 20
5.49801984176401
 30
0.0
 11
-13.31124662249706
 21
38.13459264119518
 31
0.0
  0
LINE
  5
25E
330
53
100
AcDbEntity
  8
LC-001-002-----0
  6
Continuous
 62
     7
100
AcDbLine
 10
-60.88261440350535
 20
5.49801984176401
 30
0.0
 11
-48.83264062249648
 21
38.13459264119518
 31
0.0
  0
LINE
  5
25F
330
53
100
AcDbEntity
  8
LC-001-002-----0
  6
Continuous
 62
     7
100
AcDbLine
 10
-52.20208862249777
 20
42.79691064119397
 30
0.0
 11
-43.59529962249646
 21
63.69691564119348
 31
0.0
  0
LINE
  5
260
330
53
100
AcDbEntity
  8
LC-001-002-----0
  6
Continuous
 62
     7
100
AcDbLine
 10
-48.42693834779028
 20
5.49722305267368
 30
0.0
 11
-38.57076262249894
 21
38.13459264119518
 31
0.0
  0
LINE
  5
261
330
53
100
AcDbEntity
  8
LC-001-002-----0
  6
Continuous
 62
     7
100
AcDbLine
 10
-50.05433682355294
 20
5.49722305267368
 30
0.0
 11
-40.21533462249638
 21
38.13459264119518
 31
0.0
  0
LINE
  5
262
330
53
100
AcDbEntity
  8
LC-001-002-----0
  6
Continuous
 62
     7
100
AcDbLine
 10
-47.11123362249921
 20
42.79691064119397
 30
0.0
 11
-39.39459662249785
 21
63.69692164119551
 31
0.0
  0
LINE
  5
263
330
53
100
AcDbEntity
  8
LC-001-002-----0
  6
Continuous
 62
     7
100
AcDbLine
 10
-45.96123462249809
 20
42.79691064119397
 30
0.0
 11
-38.2445966224964
 21
63.69692264119585
 31
0.0
  0
LINE
  5
264
330
53
100
AcDbEntity
  8
LC-001-002-----0
  6
Continuous
 62
     7
100
AcDbLine
 10
-66.96678718353942
 20
5.49801984176401
 30
0.0
 11
-53.52678462249745
 21
38.13459264119518
 31
0.0
  0
LINE
  5
265
330
53
100
AcDbEntity
  8
LC-001-002-----0
  6
Continuous
 62
     7
100
AcDbLine
 10
-67.56206943243106
 20
5.49801984176401
 30
0.0
 11
-54.12206862249653
 21
38.13459264119518
 31
0.0
  0
LINE
  5
266
330
53
100
AcDbEntity
  8
LC-001-002-----0
  6
Continuous
 62
     7
100
AcDbLine
 10
-38.80981262249909
 20
42.79691064119397
 30
0.0
 11
-32.50920262249704
 21
63.69693064119492
 31
0.0
  0
LINE
  5
267
330
53
100
AcDbEntity
  8
LC-001-002-----0
  6
Continuous
 62
     7
100
AcDbLine
 10
-37.16278762249706
 20
42.79691064119397
 30
0.0
 11
-30.85117862249674
 21
63.6969326411956
 31
0.0
  0
LINE
  5
268
330
53
100
AcDbEntity
  8
LC-001-002-----0
  6
Continuous
 62
     7
100
AcDbLine
 10
-27.86355062249779
 20
42.79691064119397
 30
0.0
 11
-23.4083456224994
 21
63.69694364119569
 31
0.0
  0
LINE
  5
269
330
53
100
AcDbEntity
  8
LC-001-002-----0
  6
Continuous
 62
     7
100
AcDbLine
 10
-25.87169262249656
 20
42.79691064119397
 30
0.0
 11
-21.41648662249784
 21
63.69694564119636
 31
0.0
  0
LINE
  5
26A
330
53
100
AcDbEntity
  8
LC-001-002-----0
  6
Continuous
 62
     7
100
AcDbLine
 10
-15.01841962249957
 20
42.79691064119397
 30
0.0
 11
-12.71223362249797
 21
63.69695764119315
 31
0.0
  0
LINE
  5
26B
330
53
100
AcDbEntity
  8
LC-001-002-----0
  6
Continuous
 62
     7
100
AcDbLine
 10
-12.79678962249957
 20
42.79691064119397
 30
0.0
 11
-10.49060462249829
 21
63.69696064119416
 31
0.0
  0
LINE
  5
26C
330
53
100
AcDbEntity
  8
LC-001-002-----0
  6
Continuous
 62
     7
100
AcDbLine
 10
16.91237801477065
 20
5.49801984176401
 30
0.0
 11
13.31104937750067
 21
38.13462864119646
 31
0.0
  0
LINE
  5
26D
330
53
100
AcDbEntity
  8
LC-001-002-----0
  6
Continuous
 62
     7
100
AcDbLine
 10
19.1340081857018
 20
5.49801984176401
 30
0.0
 11
15.53267837750398
 21
38.1346356411952
 31
0.0
  0
LINE
  5
26E
330
53
100
AcDbEntity
  8
LC-001-002-----0
  6
Continuous
 62
     7
100
AcDbLine
 10
12.79657937750242
 20
42.79694564119491
 30
0.0
 11
10.49033637750333
 21
63.69698964119307
 31
0.0
  0
LINE
  5
26F
330
53
100
AcDbEntity
  8
LC-001-002-----0
  6
Continuous
 62
     7
100
AcDbLine
 10
15.01820837750208
 20
42.7969516411933
 30
0.0
 11
12.71196637750334
 21
63.69699264119408
 31
0.0
  0
LINE
  5
270
330
53
100
AcDbEntity
  8
LC-001-002-----0
  6
Continuous
 62
     7
100
AcDbLine
 10
25.87148237750305
 20
42.79698164119618
 30
0.0
 11
21.41621937750323
 21
63.69700464119451
 31
0.0
  0
LINE
  5
271
330
53
100
AcDbEntity
  8
LC-001-002-----0
  6
Continuous
 62
     7
100
AcDbLine
 10
27.86334037750064
 20
42.79698664119423
 30
0.0
 11
23.40807737750081
 21
63.69700764119552
 31
0.0
  0
LINE
  5
272
330
53
100
AcDbEntity
  8
LC-001-002-----0
  6
Continuous
 62
     7
100
AcDbLine
 10
37.16257637750321
 20
42.79701264119576
 30
0.0
 11
30.85091137750212
 21
63.69701764119527
 31
0.0
  0
LINE
  5
273
330
53
100
AcDbEntity
  8
LC-001-002-----0
  6
Continuous
 62
     7
100
AcDbLine
 10
38.8096013775016
 20
42.79701664119349
 30
0.0
 11
32.50893437750207
 21
63.69701964119595
 31
0.0
  0
LINE
  5
274
330
53
100
AcDbEntity
  8
LC-001-002-----0
  6
Continuous
 62
     7
100
AcDbLine
 10
35.81437147894907
 20
5.49801984176401
 30
0.0
 11
28.85720737750169
 21
38.13467164119647
 31
0.0
  0
LINE
  5
275
330
53
100
AcDbEntity
  8
LC-001-002-----0
  6
Continuous
 62
     7
100
AcDbLine
 10
33.8225114708687
 20
5.49801984176401
 30
0.0
 11
26.86534937750046
 21
38.13466664119478
 31
0.0
  0
LINE
  5
276
330
53
100
AcDbEntity
  8
LC-001-002-----0
  6
Continuous
 62
     7
100
AcDbLine
 10
48.42686940753054
 20
5.49722305267368
 30
0.0
 11
38.57056537750257
 21
38.1346986411947
 31
0.0
  0
LINE
  5
277
330
53
100
AcDbEntity
  8
LC-001-002-----0
  6
Continuous
 62
     7
100
AcDbLine
 10
50.05426952169476
 20
5.49722305267368
 30
0.0
 11
40.21513637750329
 21
38.13470264119605
 31
0.0
  0
LINE
  5
278
330
53
100
AcDbEntity
  8
LC-001-002-----0
  6
Continuous
 62
     7
100
AcDbLine
 10
59.7325676094403
 20
5.49801984176401
 30
0.0
 11
47.68244337750227
 21
38.13472364119589
 31
0.0
  0
LINE
  5
279
330
53
100
AcDbEntity
  8
LC-001-002-----0
  6
Continuous
 62
     7
100
AcDbLine
 10
60.88256880918915
 20
5.49801984176401
 30
0.0
 11
48.83244237750339
 21
38.13472664119326
 31
0.0
  0
LINE
  5
27A
330
53
100
AcDbEntity
  8
LC-001-002-----0
  6
Continuous
 62
     7
100
AcDbLine
 10
45.96102437750095
 20
42.79703664119661
 30
0.0
 11
38.24432837750143
 21
63.69702764119501
 31
0.0
  0
LINE
  5
27B
330
53
100
AcDbEntity
  8
LC-001-002-----0
  6
Continuous
 62
     7
100
AcDbLine
 10
47.11102337750206
 20
42.79703964119399
 30
0.0
 11
39.39432837750291
 21
63.69702964119568
 31
0.0
  0
LINE
  5
27C
330
53
100
AcDbEntity
  8
LC-001-002-----0
  6
Continuous
 62
     7
100
AcDbLine
 10
51.60659537750187
 20
42.79705164119441
 30
0.0
 11
42.99974837750276
 21
63.69703464119375
 31
0.0
  0
LINE
  5
27D
330
53
100
AcDbEntity
  8
LC-001-002-----0
  6
Continuous
 62
     7
100
AcDbLine
 10
51.60659537750187
 20
42.79705164119441
 30
0.0
 11
42.99974837750276
 21
63.69703464119375
 31
0.0
  0
LINE
  5
27E
330
53
100
AcDbEntity
  8
LC-001-002-----0
  6
Continuous
 62
     7
100
AcDbLine
 10
52.20187837750061
 20
42.79705364119509
 30
0.0
 11
43.59503237750185
 21
63.69703564119408
 31
0.0
  0
LINE
  5
27F
330
53
100
AcDbEntity
  8
LC-001-002-----0
  6
Continuous
 62
     7
100
AcDbLine
 10
66.96675460217605
 20
5.49801984176401
 30
0.0
 11
53.52658737750105
 21
38.13473964119402
 31
0.0
  0
LINE
  5
280
330
53
100
AcDbEntity
  8
LC-001-002-----0
  6
Continuous
 62
     7
100
AcDbLine
 10
67.56203829286054
 20
5.49801984176401
 30
0.0
 11
54.12187137750377
 21
38.13474064119437
 31
0.0
  0
LINE
  5
281
330
53
100
AcDbEntity
  8
1
  6
Continuous
 62
     7
100
AcDbLine
 10
47.56149637750284
 20
78.49704064119504
 30
0.0
 11
48.44845069535085
 21
78.49704064119504
 31
0.0
  0
ARC
  5
282
330
53
100
AcDbEntity
  8
LC-002-002-RND-0
  6
Continuous
 62
     7
100
AcDbCircle
 10
48.44847137750045
 20
63.49704164119539
 30
0.0
 40
14.99999999999947
100
AcDbArc
 50
20.00015699999172
 51
90.00007899999221
  0
ARC
  5
283
330
53
100
AcDbEntity
  8
LC-002-002-RND-0
  6
Continuous
 62
     7
100
AcDbCircle
 10
-48.44873862249873
 20
63.49690864119402
 30
0.0
 40
14.9999999999997
100
AcDbArc
 50
90.00007899999221
 51
159.9999999999947
  0
ENDBLK
  5
55
330
53
100
AcDbEntity
  8
0
100
AcDbBlockEnd
  0
BLOCK
  5
57
330
56
100
AcDbEntity
  8
0
100
AcDbBlockBegin
  2
Außenansicht
 70
     0
 71
     0
 10
-29.52887217687611
 20
291.212402601397
 30
0.0
  3
Außenansicht
  1

  0
POINT
  5
284
330
56
100
AcDbEntity
  8
LC-001-003-----0
 62
     7
100
AcDbPoint
 10
-37.49999999999999
 20
-338.0009058481044
 30
0.0
  0
POINT
  5
285
330
56
100
AcDbEntity
  8
LC-001-003-----0
 62
     7
100
AcDbPoint
 10
37.5
 20
-338.0009058481044
 30
0.0
  0
POINT
  5
286
330
56
100
AcDbEntity
  8
LC-001-003-----0
 62
     7
100
AcDbPoint
 10
-142.050174
 20
2.79268300000013
 30
0.0
  0
POINT
  5
287
330
56
100
AcDbEntity
  8
LC-001-003-----0
 62
     7
100
AcDbPoint
 10
142.0501750000002
 20
2.79268300000013
 30
0.0
  0
POINT
  5
288
330
56
100
AcDbEntity
  8
LC-001-003-----0
 62
     7
100
AcDbPoint
 10
77.5
 20
-273.0016768481044
 30
0.0
  0
POINT
  5
289
330
56
100
AcDbEntity
  8
LC-001-003-----0
 62
     7
100
AcDbPoint
 10
189.0
 20
-102.5030258481043
 30
0.0
  0
POINT
  5
28A
330
56
100
AcDbEntity
  8
LC-001-003-----0
 62
     7
100
AcDbPoint
 10
-85.50007099999993
 20
-268.0016768481044
 30
0.0
  0
POINT
  5
28B
330
56
100
AcDbEntity
  8
LC-001-003-----0
 62
     7
100
AcDbPoint
 10
85.5
 20
-268.0016768481044
 30
0.0
  0
POINT
  5
28C
330
56
100
AcDbEntity
  8
LC-001-003-----0
 62
     7
100
AcDbPoint
 10
-189.0
 20
-102.5030258481043
 30
0.0
  0
POINT
  5
28D
330
56
100
AcDbEntity
  8
LC-001-003-----0
 62
     7
100
AcDbPoint
 10
189.0
 20
-102.5030258481043
 30
0.0
  0
POINT
  5
28E
330
56
100
AcDbEntity
  8
LC-001-003-----0
 62
     7
100
AcDbPoint
 10
-180.0000000000001
 20
-0.00326499999983
 30
0.0
  0
POINT
  5
28F
330
56
100
AcDbEntity
  8
LC-001-003-----0
 62
     7
100
AcDbPoint
 10
180.0000000000001
 20
-0.00326499999983
 30
0.0
  0
POINT
  5
290
330
56
100
AcDbEntity
  8
LC-001-003-----0
 62
     7
100
AcDbPoint
 10
187.0
 20
-100.0030258481043
 30
0.0
  0
POINT
  5
291
330
56
100
AcDbEntity
  8
LC-001-003-----0
 62
     7
100
AcDbPoint
 10
179.9999460000001
 20
-0.00326499999983
 30
0.0
  0
LINE
  5
292
330
56
100
AcDbEntity
  8
LC-001-002-----0
  6
Continuous
 62
     7
100
AcDbLine
 10
-64.34497599999992
 20
-270.5016768481042
 30
0.0
 11
-64.34497599999992
 21
-281.3575678481042
 31
0.0
  0
LINE
  5
293
330
56
100
AcDbEntity
  8
LC-001-002-----0
  6
Continuous
 62
     7
100
AcDbLine
 10
-70.84497599999992
 20
-273.0016768481042
 30
0.0
 11
-70.84497599999992
 21
-281.3575678481042
 31
0.0
  0
LINE
  5
294
330
56
100
AcDbEntity
  8
LC-001-002-----0
  6
Continuous
 62
     7
100
AcDbLine
 10
-150.960597
 20
-291.6565518481042
 30
0.0
 11
-151.129119
 21
-290.1633258481043
 31
0.0
  0
LINE
  5
295
330
56
100
AcDbEntity
  8
LC-001-002-----0
  6
Continuous
 62
     7
100
AcDbLine
 10
-151.2137849999999
 20
-287.3575678481042
 30
0.0
 11
-151.2137849999999
 21
-288.8575678481042
 31
0.0
  0
LINE
  5
296
330
56
100
AcDbEntity
  8
LC-001-002-----0
  6
Continuous
 62
     7
100
AcDbLine
 10
-112.844976
 20
-291.3575678481042
 30
0.0
 11
-126.2137849999999
 21
-291.3575678481042
 31
0.0
  0
LINE
  5
297
330
56
100
AcDbEntity
  8
LC-001-002-----0
  6
Continuous
 62
     7
100
AcDbLine
 10
-151.1010319999999
 20
-285.8029398481042
 30
0.0
 11
-158.1020729999999
 21
-285.4360308481042
 31
0.0
  0
LINE
  5
298
330
56
100
AcDbEntity
  8
LC-001-002-----0
  6
Continuous
 62
     7
100
AcDbLine
 10
-151.2137849999999
 20
-287.6075678481042
 30
0.0
 11
-158.2137849999999
 21
-287.6075678481042
 31
0.0
  0
LINE
  5
299
330
56
100
AcDbEntity
  8
LC-001-002-----0
  6
Continuous
 62
     7
100
AcDbLine
 10
-158.002901
 20
-291.7752808481042
 30
0.0
 11
-158.1020729999999
 21
-290.7791058481042
 31
0.0
  0
LINE
  5
29A
330
56
100
AcDbEntity
  8
LC-001-002-----0
  6
DASHDOT
 62
     2
100
AcDbLine
 10
-110.844976
 20
-279.7444988481042
 30
0.0
 11
-110.844976
 21
-293.4280208481043
 31
0.0
  0
LINE
  5
29B
330
56
100
AcDbEntity
  8
LC-001-002-----0
  6
Continuous
 62
     7
100
AcDbLine
 10
-150.9886839999999
 20
-284.8074548481043
 30
0.0
 11
-158.002901
 21
-284.4398558481042
 31
0.0
  0
LINE
  5
29C
330
56
100
AcDbEntity
  8
LC-001-002-----0
  6
Continuous
 62
     7
100
AcDbLine
 10
-158.002901
 20
-284.4398558481042
 30
0.0
 11
-158.1020729999999
 21
-285.4360308481042
 31
0.0
  0
LINE
  5
29D
330
56
100
AcDbEntity
  8
LC-001-002-----0
  6
Continuous
 62
     7
100
AcDbLine
 10
-150.960597
 20
-284.5585838481043
 30
0.0
 11
-151.129119
 21
-286.0518108481043
 31
0.0
  0
LINE
  5
29E
330
56
100
AcDbEntity
  8
LC-001-002-----0
  6
DASHDOT
 62
     2
100
AcDbLine
 10
-112.844976
 20
-279.7444988481042
 30
0.0
 11
-112.844976
 21
-293.4280208481043
 31
0.0
  0
LINE
  5
29F
330
56
100
AcDbEntity
  8
LC-001-002-----0
  6
Continuous
 62
     7
100
AcDbLine
 10
-158.2137849999999
 20
-287.6075678481042
 30
0.0
 11
-158.2137849999999
 21
-288.6075678481042
 31
0.0
  0
LINE
  5
2A0
330
56
100
AcDbEntity
  8
LC-001-002-----0
  6
Continuous
 62
     7
100
AcDbLine
 10
-112.844976
 20
-284.8575678481042
 30
0.0
 11
-126.2137849999999
 21
-284.8575678481042
 31
0.0
  0
LINE
  5
2A1
330
56
100
AcDbEntity
  8
LC-001-002-----0
  6
Continuous
 62
     7
100
AcDbLine
 10
-126.2137849999999
 20
-284.8575678481042
 30
0.0
 11
-126.2137849999999
 21
-291.3575678481042
 31
0.0
  0
LINE
  5
2A2
330
56
100
AcDbEntity
  8
LC-001-002-----0
  6
Continuous
 62
     7
100
AcDbLine
 10
-126.2137849999999
 20
-285.8555098481043
 30
0.0
 11
-150.960597
 21
-284.5585838481043
 31
0.0
  0
LINE
  5
2A3
330
56
100
AcDbEntity
  8
LC-001-002-----0
  6
Continuous
 62
     7
100
AcDbLine
 10
-126.2137849999999
 20
-287.3575678481042
 30
0.0
 11
-151.129119
 21
-286.0518108481043
 31
0.0
  0
LINE
  5
2A4
330
56
100
AcDbEntity
  8
LC-001-002-----0
  6
Continuous
 62
     7
100
AcDbLine
 10
-126.2137849999999
 20
-287.3575678481042
 30
0.0
 11
-151.2137849999999
 21
-287.3575678481042
 31
0.0
  0
LINE
  5
2A5
330
56
100
AcDbEntity
  8
LC-001-002-----0
  6
Continuous
 62
     7
100
AcDbLine
 10
-126.2137849999999
 20
-288.8575678481042
 30
0.0
 11
-151.2137849999999
 21
-288.8575678481042
 31
0.0
  0
LINE
  5
2A6
330
56
100
AcDbEntity
  8
LC-001-002-----0
  6
Continuous
 62
     7
100
AcDbLine
 10
-126.2137849999999
 20
-288.8575678481042
 30
0.0
 11
-151.129119
 21
-290.1633258481043
 31
0.0
  0
LINE
  5
2A7
330
56
100
AcDbEntity
  8
LC-001-002-----0
  6
Continuous
 62
     7
100
AcDbLine
 10
-126.2137849999999
 20
-290.3596268481043
 30
0.0
 11
-150.960597
 21
-291.6565518481042
 31
0.0
  0
LINE
  5
2A8
330
56
100
AcDbEntity
  8
LC-001-002-----0
  6
Continuous
 62
     7
100
AcDbLine
 10
-150.9886839999999
 20
-291.4076808481042
 30
0.0
 11
-158.002901
 21
-291.7752808481042
 31
0.0
  0
LINE
  5
2A9
330
56
100
AcDbEntity
  8
LC-001-002-----0
  6
Continuous
 62
     7
100
AcDbLine
 10
-151.1010319999999
 20
-290.4121968481043
 30
0.0
 11
-158.1020729999999
 21
-290.7791058481042
 31
0.0
  0
LINE
  5
2AA
330
56
100
AcDbEntity
  8
LC-001-002-----0
  6
Continuous
 62
     7
100
AcDbLine
 10
-151.2137849999999
 20
-288.6075678481042
 30
0.0
 11
-158.2137849999999
 21
-288.6075678481042
 31
0.0
  0
LINE
  5
2AB
330
56
100
AcDbEntity
  8
LC-001-002-----0
  6
Continuous
 62
     7
100
AcDbLine
 10
-74.34497599999992
 20
-284.8575678481042
 30
0.0
 11
-110.844976
 21
-284.8575678481042
 31
0.0
  0
LINE
  5
2AC
330
56
100
AcDbEntity
  8
LC-001-002-----0
  6
Continuous
 62
     7
100
AcDbLine
 10
-74.34497599999992
 20
-291.3575678481042
 30
0.0
 11
-110.844976
 21
-291.3575678481042
 31
0.0
  0
LINE
  5
2AD
330
56
100
AcDbEntity
  8
LC-005-002-----0
  6
Continuous
 62
     7
100
AcDbLine
 10
0.0
 20
3.0
 30
0.0
 11
-178.000036
 21
2.99677100000008
 31
0.0
  0
LINE
  5
2AE
330
56
100
AcDbEntity
  8
LC-005-002-----0
  6
Continuous
 62
     7
100
AcDbLine
 10
189.0
 20
-102.0030258481043
 30
0.0
 11
189.0
 21
-102.5030258481043
 31
0.0
  0
LINE
  5
2AF
330
56
100
AcDbEntity
  8
LC-005-002-----0
  6
Continuous
 62
     7
100
AcDbLine
 10
189.0
 20
-102.5030258481043
 30
0.0
 11
0.0
 21
-102.5030258481043
 31
0.0
  0
LINE
  5
2B0
330
56
100
AcDbEntity
  8
LC-005-002-----0
  6
Continuous
 62
     7
100
AcDbLine
 10
137.5357040000002
 20
-84.50303684810439
 30
0.0
 11
137.5357040000002
 21
-100.0030258481043
 31
0.0
  0
LINE
  5
2B1
330
56
100
AcDbEntity
  8
LC-005-002-----0
  6
Continuous
 62
     7
100
AcDbLine
 10
0.0
 20
-100.0030258481043
 30
0.0
 11
187.0
 21
-100.0030258481043
 31
0.0
  0
LINE
  5
2B2
330
56
100
AcDbEntity
  8
LC-005-002-----0
  6
Continuous
 62
     7
100
AcDbLine
 10
-137.535703
 20
-84.50303684810439
 30
0.0
 11
-137.535703
 21
-100.0030258481043
 31
0.0
  0
LINE
  5
2B3
330
56
100
AcDbEntity
  8
LC-005-002-----0
  6
Continuous
 62
     7
100
AcDbLine
 10
-142.050174
 20
-84.5030278481043
 30
0.0
 11
0.0
 21
-84.50328684810444
 31
0.0
  0
LINE
  5
2B4
330
56
100
AcDbEntity
  8
LC-005-002-----0
  6
Continuous
 62
     7
100
AcDbLine
 10
-142.050174
 20
-0.00259599999981
 30
0.0
 11
-142.050174
 21
-84.5030278481043
 31
0.0
  0
LINE
  5
2B5
330
56
100
AcDbEntity
  8
LC-005-002-----0
  6
Continuous
 62
     7
100
AcDbLine
 10
-62.50073999999994
 20
-270.5016768481045
 30
0.0
 11
-62.50067199999991
 21
-277.5009048481043
 31
0.0
  0
LINE
  5
2B6
330
56
100
AcDbEntity
  8
LC-005-002-----0
  6
Continuous
 62
     7
100
AcDbLine
 10
142.0501750000002
 20
-84.5030278481043
 30
0.0
 11
0.0
 21
-84.50328684810444
 31
0.0
  0
LINE
  5
2B7
330
56
100
AcDbEntity
  8
LC-005-002-----0
  6
Continuous
 62
     7
100
AcDbLine
 10
-36.29422799999998
 20
-342.5009068481043
 30
0.0
 11
36.29422900000009
 21
-342.5009068481043
 31
0.0
  0
LINE
  5
2B8
330
56
100
AcDbEntity
  8
LC-005-002-----0
  6
Continuous
 62
     7
100
AcDbLine
 10
-36.29422799999998
 20
-342.5009068481043
 30
0.0
 11
-37.49999999999999
 21
-338.0009058481044
 31
0.0
  0
LINE
  5
2B9
330
56
100
AcDbEntity
  8
LC-005-002-----0
  6
Continuous
 62
     7
100
AcDbLine
 10
-37.49999999999999
 20
-277.5009048481043
 30
0.0
 11
-37.49999999999999
 21
-338.0009058481044
 31
0.0
  0
LINE
  5
2BA
330
56
100
AcDbEntity
  8
LC-005-002-----0
  6
Continuous
 62
     7
100
AcDbLine
 10
142.0501750000002
 20
-0.00259599999981
 30
0.0
 11
142.0501750000002
 21
-84.5030278481043
 31
0.0
  0
LINE
  5
2BB
330
56
100
AcDbEntity
  8
LC-005-002-----0
  6
Continuous
 62
     7
100
AcDbLine
 10
62.50073999999996
 20
-270.5016718481044
 30
0.0
 11
62.50067300000002
 21
-277.5009048481043
 31
0.0
  0
LINE
  5
2BC
330
56
100
AcDbEntity
  8
LC-005-002-----0
  6
Continuous
 62
     7
100
AcDbLine
 10
0.0
 20
-100.0030258481043
 30
0.0
 11
-187.0
 21
-100.0030258481043
 31
0.0
  0
LINE
  5
2BD
330
56
100
AcDbEntity
  8
LC-005-002-----0
  6
Continuous
 62
     7
100
AcDbLine
 10
37.5
 20
-277.5009048481043
 30
0.0
 11
-62.50067199999991
 21
-277.5009048481043
 31
0.0
  0
LINE
  5
2BE
330
56
100
AcDbEntity
  8
LC-005-002-----0
  6
Continuous
 62
     7
100
AcDbLine
 10
62.50069400000007
 20
-277.5009048481043
 30
0.0
 11
37.5
 21
-277.5009048481043
 31
0.0
  0
LINE
  5
2BF
330
56
100
AcDbEntity
  8
LC-005-002-----0
  6
Continuous
 62
     7
100
AcDbLine
 10
55.000002
 20
-277.5009048481043
 30
0.0
 11
62.50067300000002
 21
-277.5009048481043
 31
0.0
  0
LINE
  5
2C0
330
56
100
AcDbEntity
  8
LC-005-002-----0
  6
Continuous
 62
     7
100
AcDbLine
 10
-189.0
 20
-102.5030258481043
 30
0.0
 11
0.0
 21
-102.5030258481043
 31
0.0
  0
LINE
  5
2C1
330
56
100
AcDbEntity
  8
LC-005-002-----0
  6
Continuous
 62
     7
100
AcDbLine
 10
-85.50007099999993
 20
-268.0016768481044
 30
0.0
 11
85.49992900000007
 21
-268.0016768481044
 31
0.0
  0
LINE
  5
2C2
330
56
100
AcDbEntity
  8
LC-005-002-----0
  6
Continuous
 62
     7
100
AcDbLine
 10
-85.50007099999993
 20
-268.0016768481044
 30
0.0
 11
-85.50293600000009
 21
-102.5030258481043
 31
0.0
  0
LINE
  5
2C3
330
56
100
AcDbEntity
  8
LC-005-002-----0
  6
Continuous
 62
     7
100
AcDbLine
 10
85.49992900000007
 20
-268.0016768481044
 30
0.0
 11
85.49992900000007
 21
-102.5030258481043
 31
0.0
  0
LINE
  5
2C4
330
56
100
AcDbEntity
  8
LC-005-002-----0
  6
Continuous
 62
     7
100
AcDbLine
 10
69.5
 20
-270.5016768481045
 30
0.0
 11
77.5
 21
-270.5016768481045
 31
0.0
  0
LINE
  5
2C5
330
56
100
AcDbEntity
  8
LC-005-002-----0
  6
Continuous
 62
     7
100
AcDbLine
 10
-77.5
 20
-270.5016768481045
 30
0.0
 11
-77.5
 21
-273.0016768481044
 31
0.0
  0
LINE
  5
2C6
330
56
100
AcDbEntity
  8
LC-005-002-----0
  6
Continuous
 62
     7
100
AcDbLine
 10
-77.5
 20
-273.0016768481044
 30
0.0
 11
-69.5
 21
-273.0016768481044
 31
0.0
  0
LINE
  5
2C7
330
56
100
AcDbEntity
  8
LC-005-002-----0
  6
Continuous
 62
     7
100
AcDbLine
 10
-69.5
 20
-273.0016768481044
 30
0.0
 11
-69.5
 21
-270.5016768481045
 31
0.0
  0
LINE
  5
2C8
330
56
100
AcDbEntity
  8
LC-005-002-----0
  6
Continuous
 62
     7
100
AcDbLine
 10
-69.5
 20
-270.5016768481045
 30
0.0
 11
63.10000000000014
 21
-270.5016768481045
 31
0.0
  0
LINE
  5
2C9
330
56
100
AcDbEntity
  8
LC-005-002-----0
  6
Continuous
 62
     7
100
AcDbLine
 10
62.50073999999996
 20
-270.5016768481045
 30
0.0
 11
69.5
 21
-270.5016768481045
 31
0.0
  0
LINE
  5
2CA
330
56
100
AcDbEntity
  8
LC-005-002-----0
  6
Continuous
 62
     7
100
AcDbLine
 10
69.5
 20
-270.5016768481045
 30
0.0
 11
69.5
 21
-273.0016768481044
 31
0.0
  0
LINE
  5
2CB
330
56
100
AcDbEntity
  8
LC-005-002-----0
  6
Continuous
 62
     7
100
AcDbLine
 10
69.5
 20
-273.0016768481044
 30
0.0
 11
77.5
 21
-273.0016768481044
 31
0.0
  0
LINE
  5
2CC
330
56
100
AcDbEntity
  8
LC-005-002-----0
  6
Continuous
 62
     7
100
AcDbLine
 10
77.5
 20
-273.0016768481044
 30
0.0
 11
77.5
 21
-270.5016768481045
 31
0.0
  0
LINE
  5
2CD
330
56
100
AcDbEntity
  8
LC-005-002-----0
  6
Continuous
 62
     7
100
AcDbLine
 10
77.5
 20
-270.5016768481045
 30
0.0
 11
83.0
 21
-270.5016768481045
 31
0.0
  0
LINE
  5
2CE
330
56
100
AcDbEntity
  8
LC-005-002-----0
  6
Continuous
 62
     7
100
AcDbLine
 10
-77.5
 20
-270.5016768481045
 30
0.0
 11
-83.0
 21
-270.5016768481045
 31
0.0
  0
LINE
  5
2CF
330
56
100
AcDbEntity
  8
LC-005-002-----0
  6
Continuous
 62
     7
100
AcDbLine
 10
-77.5
 20
-270.5016768481045
 30
0.0
 11
-69.5
 21
-270.5016768481045
 31
0.0
  0
LINE
  5
2D0
330
56
100
AcDbEntity
  8
LC-005-002-----0
  6
Continuous
 62
     7
100
AcDbLine
 10
-62.99999999999999
 20
-270.5016768481045
 30
0.0
 11
-63.0999999999999
 21
-270.5016768481045
 31
0.0
  0
LINE
  5
2D1
330
56
100
AcDbEntity
  8
LC-005-002-----0
  6
Continuous
 62
     7
100
AcDbLine
 10
83.65000000000009
 20
-268.0016768481044
 30
0.0
 11
85.5
 21
-268.0016768481044
 31
0.0
  0
LINE
  5
2D2
330
56
100
AcDbEntity
  8
LC-005-002-----0
  6
Continuous
 62
     7
100
AcDbLine
 10
63.10000000000014
 20
-270.5016768481045
 30
0.0
 11
63.00000000000001
 21
-270.5016768481045
 31
0.0
  0
LINE
  5
2D3
330
56
100
AcDbEntity
  8
LC-005-002-----0
  6
Continuous
 62
     7
100
AcDbLine
 10
-189.0
 20
-102.0030258481043
 30
0.0
 11
-189.0
 21
-102.5030258481043
 31
0.0
  0
LINE
  5
2D4
330
56
100
AcDbEntity
  8
LC-005-002-----0
  6
Continuous
 62
     7
100
AcDbLine
 10
37.5
 20
-277.5009048481043
 30
0.0
 11
37.5
 21
-338.0009058481044
 31
0.0
  0
LINE
  5
2D5
330
56
100
AcDbEntity
  8
LC-005-002-----0
  6
Continuous
 62
     7
100
AcDbLine
 10
36.29422900000009
 20
-342.5009068481043
 30
0.0
 11
37.5
 21
-338.0009058481044
 31
0.0
  0
LINE
  5
2D6
330
56
100
AcDbEntity
  8
LC-005-002-----0
  6
Continuous
 62
     7
100
AcDbLine
 10
0.0
 20
3.0
 30
0.0
 11
178.0000369999998
 21
2.99677100000008
 31
0.0
  0
LINE
  5
2D7
330
56
100
AcDbEntity
  8
LC-005-002-----0
  6
Continuous
 62
     7
100
AcDbLine
 10
180.0000000000001
 20
0.99677100000008
 30
0.0
 11
180.0000000000001
 21
-0.00326499999983
 31
0.0
  0
LINE
  5
2D8
330
56
100
AcDbEntity
  8
LC-005-002-----0
  6
Continuous
 62
     7
100
AcDbLine
 10
0.0
 20
0.0
 30
0.0
 11
179.9999460000001
 21
-0.00326499999983
 31
0.0
  0
LINE
  5
2D9
330
56
100
AcDbEntity
  8
LC-005-002-----0
  6
Continuous
 62
     7
100
AcDbLine
 10
-180.0000000000001
 20
0.99677100000008
 30
0.0
 11
-180.0000000000001
 21
-0.00326499999983
 31
0.0
  0
LINE
  5
2DA
330
56
100
AcDbEntity
  8
LC-005-002-----0
  6
Continuous
 62
     7
100
AcDbLine
 10
0.0
 20
0.0
 30
0.0
 11
-179.9999450000003
 21
-0.00326500000006
 31
0.0
  0
LINE
  5
2DB
330
56
100
AcDbEntity
  8
LC-005-002-----0
  6
Continuous
 62
     7
100
AcDbLine
 10
-37.49999999999999
 20
-338.0009058481044
 30
0.0
 11
37.5
 21
-338.0009058481044
 31
0.0
  0
LINE
  5
2DC
330
56
100
AcDbEntity
  8
1
  6
PHANTOM
 62
     2
100
AcDbLine
 10
-0.00000000000006
 20
2.99956287106922
 30
0.0
 11
0.00000000000001
 21
-348.5543056453103
 31
0.0
  0
ARC
  5
2DD
330
56
100
AcDbEntity
  8
LC-002-002-RND-0
  6
Continuous
 62
     7
100
AcDbCircle
 10
-74.34497599999992
 20
-281.3575678481042
 30
0.0
 40
10.0
100
AcDbArc
 50
-90.0
 51
0.0
  0
ARC
  5
2DE
330
56
100
AcDbEntity
  8
LC-002-002-RND-0
  6
Continuous
 62
     7
100
AcDbCircle
 10
-74.34497599999992
 20
-281.3575678481042
 30
0.0
 40
3.5
100
AcDbArc
 50
-90.0
 51
0.0
  0
ARC
  5
2DF
330
56
100
AcDbEntity
  8
LC-004-002-RND-0
  6
Continuous
 62
     7
100
AcDbCircle
 10
187.0
 20
-102.0030258481043
 30
0.0
 40
2.0
100
AcDbArc
 50
0.0
 51
90.0
  0
ARC
  5
2E0
330
56
100
AcDbEntity
  8
LC-004-002-RND-0
  6
Continuous
 62
     7
100
AcDbCircle
 10
-83.0
 20
-268.0016768481044
 30
0.0
 40
2.5
100
AcDbArc
 50
180.0
 51
-90.0
  0
ARC
  5
2E1
330
56
100
AcDbEntity
  8
LC-004-002-RND-0
  6
Continuous
 62
     7
100
AcDbCircle
 10
83.0
 20
-268.0016768481044
 30
0.0
 40
2.500000000000114
100
AcDbArc
 50
-90.0
 51
0.0
  0
ARC
  5
2E2
330
56
100
AcDbEntity
  8
LC-004-002-RND-0
  6
Continuous
 62
     7
100
AcDbCircle
 10
-187.0
 20
-102.0030258481043
 30
0.0
 40
2.0
100
AcDbArc
 50
90.0
 51
180.0
  0
ARC
  5
2E3
330
56
100
AcDbEntity
  8
LC-004-002-RND-0
  6
Continuous
 62
     7
100
AcDbCircle
 10
178.0000000000001
 20
0.99677100000008
 30
0.0
 40
2.0
100
AcDbArc
 50
0.0
 51
89.99895299998724
  0
ARC
  5
2E4
330
56
100
AcDbEntity
  8
LC-004-002-RND-0
  6
Continuous
 62
     7
100
AcDbCircle
 10
-178.0000000000001
 20
0.99677100000008
 30
0.0
 40
1.999999999999913
100
AcDbArc
 50
90.00104700000708
 51
180.0
  0
ENDBLK
  5
58
330
56
100
AcDbEntity
  8
0
100
AcDbBlockEnd
  0
BLOCK
  5
5B
330
59
100
AcDbEntity
  8
0
100
AcDbBlockBegin
  2
HL_61_7_Flachdachablauf
 70
     0
 71
     0
 10
-29.52887217687611
 20
450.9721299999999
 30
0.0
  3
HL_61_7_Flachdachablauf
  1

  0
INSERT
  5
5A
330
59
100
AcDbEntity
  8
1
100
AcDbBlockReference
  2
Außenansicht
 10
-29.52887217687611
 20
291.212402601397
 30
0.0
  0
ENDBLK
  5
5C
330
59
100
AcDbEntity
  8
0
100
AcDbBlockEnd
  0
BLOCK
  5
5E
330
5D
100
AcDbEntity
  8
0
100
AcDbBlockBegin
  2
Bauschutz_062_9E
 70
     0
 71
     0
 10
-646.596795999998
 20
-253.6857592968918
 30
0.0
  3
Bauschutz_062_9E
  1

  0
LINE
  5
2E5
330
5D
100
AcDbEntity
  8
1
  6
PHANTOM
 62
     2
100
AcDbLine
 10
0.0
 20
198.0149062898381
 30
0.0
 11
0.0
 21
221.3085037777346
 31
0.0
  0
LINE
  5
2E6
330
5D
100
AcDbEntity
  8
1
  6
Continuous
 62
     7
100
AcDbLine
 10
66.25
 20
219.3722407031091
 30
0.0
 11
0.0
 21
219.3722407031091
 31
0.0
  0
LINE
  5
2E7
330
5D
100
AcDbEntity
  8
1
  6
Continuous
 62
     7
100
AcDbLine
 10
-66.25
 20
219.3722407031091
 30
0.0
 11
0.0
 21
219.3722407031091
 31
0.0
  0
LINE
  5
2E8
330
5D
100
AcDbEntity
  8
LC-006-002-----0
  6
Continuous
 62
     7
100
AcDbLine
 10
-68.0
 20
217.3722407031091
 30
0.0
 11
-66.25
 21
219.3722407031091
 31
0.0
  0
LINE
  5
2E9
330
5D
100
AcDbEntity
  8
LC-006-002-----0
  6
Continuous
 62
     7
100
AcDbLine
 10
68.0
 20
217.3722407031091
 30
0.0
 11
66.25
 21
219.3722407031091
 31
0.0
  0
LINE
  5
2EA
330
5D
100
AcDbEntity
  8
LC-006-002-----0
  6
Continuous
 62
     7
100
AcDbLine
 10
-78.75
 20
200.8722407031091
 30
0.0
 11
-78.75
 21
215.3722407031091
 31
0.0
  0
LINE
  5
2EB
330
5D
100
AcDbEntity
  8
LC-006-002-----0
  6
Continuous
 62
     7
100
AcDbLine
 10
-78.75
 20
200.8722407031091
 30
0.0
 11
0.0
 21
200.8722407031091
 31
0.0
  0
LINE
  5
2EC
330
5D
100
AcDbEntity
  8
LC-006-002-----0
  6
Continuous
 62
     7
100
AcDbLine
 10
-111.5
 20
215.3722407031091
 30
0.0
 11
-78.75
 21
215.3722407031091
 31
0.0
  0
LINE
  5
2ED
330
5D
100
AcDbEntity
  8
LC-006-002-----0
  6
Continuous
 62
     7
100
AcDbLine
 10
-111.5
 20
217.3722407031091
 30
0.0
 11
-68.0
 21
217.3722407031091
 31
0.0
  0
LINE
  5
2EE
330
5D
100
AcDbEntity
  8
LC-006-002-----0
  6
Continuous
 62
     7
100
AcDbLine
 10
-111.5
 20
217.3722407031091
 30
0.0
 11
-111.5
 21
215.3722407031091
 31
0.0
  0
LINE
  5
2EF
330
5D
100
AcDbEntity
  8
LC-006-002-----0
  6
Continuous
 62
     7
100
AcDbLine
 10
78.75
 20
200.8722407031091
 30
0.0
 11
78.75
 21
215.3722407031091
 31
0.0
  0
LINE
  5
2F0
330
5D
100
AcDbEntity
  8
LC-006-002-----0
  6
Continuous
 62
     7
100
AcDbLine
 10
78.75
 20
200.8722407031091
 30
0.0
 11
0.0
 21
200.8722407031091
 31
0.0
  0
LINE
  5
2F1
330
5D
100
AcDbEntity
  8
LC-006-002-----0
  6
Continuous
 62
     7
100
AcDbLine
 10
111.5
 20
215.3722407031091
 30
0.0
 11
78.75
 21
215.3722407031091
 31
0.0
  0
LINE
  5
2F2
330
5D
100
AcDbEntity
  8
LC-006-002-----0
  6
Continuous
 62
     7
100
AcDbLine
 10
111.5
 20
217.3722407031091
 30
0.0
 11
68.0
 21
217.3722407031091
 31
0.0
  0
LINE
  5
2F3
330
5D
100
AcDbEntity
  8
LC-006-002-----0
  6
Continuous
 62
     7
100
AcDbLine
 10
111.5
 20
217.3722407031091
 30
0.0
 11
111.5
 21
215.3722407031091
 31
0.0
  0
LINE
  5
2F4
330
5D
100
AcDbEntity
  8
1
  6
Continuous
 62
     7
100
AcDbLine
 10
-78.75
 20
215.3722407031091
 30
0.0
 11
78.75
 21
215.3722407031091
 31
0.0
  0
LINE
  5
2F5
330
5D
100
AcDbEntity
  8
1
  6
Continuous
 62
     7
100
AcDbLine
 10
68.0
 20
217.3722407031091
 30
0.0
 11
-68.0
 21
217.3722407031091
 31
0.0
  0
ENDBLK
  5
5F
330
5D
100
AcDbEntity
  8
0
100
AcDbBlockEnd
  0
BLOCK
  5
2FE
330
2F6
100
AcDbEntity
  8
0
100
AcDbBlockBegin
  2
*D7
 70
     1
 71
     0
 10
0.0
 20
0.0
 30
0.0
  3
*D7
  1

  0
LINE
  5
2F7
330
2F6
100
AcDbEntity
  8
1
  6
Continuous
 62
     4
100
AcDbLine
 10
258.357288699481
 20
-273.0016768481044
 30
0.0
 11
258.357288699481
 21
-0.0032649999998
 31
0.0
  0
LINE
  5
2F8
330
2F6
100
AcDbEntity
  8
1
  6
Continuous
 62
     4
100
AcDbLine
 10
179.9999460000001
 20
-0.0032649999998
 30
0.0
 11
260.357288699481
 21
-0.0032649999998
 31
0.0
  0
LINE
  5
2F9
330
2F6
100
AcDbEntity
  8
1
  6
Continuous
 62
     4
100
AcDbLine
 10
77.5
 20
-273.0016768481044
 30
0.0
 11
260.357288699481
 21
-273.0016768481044
 31
0.0
  0
SOLID
  5
2FA
330
2F6
100
AcDbEntity
  8
1
 62
     4
100
AcDbTrace
 10
257.040763723607
 20
-263.0016768481044
 30
0.0
 11
259.6738136753549
 21
-263.0016768481044
 31
0.0
 12
258.357288699481
 22
-273.0016768481044
 32
0.0
 13
258.357288699481
 23
-273.0016768481044
 33
0.0
  0
SOLID
  5
2FB
330
2F6
100
AcDbEntity
  8
1
 62
     4
100
AcDbTrace
 10
259.6738136753549
 20
-10.0032649999998
 30
0.0
 11
257.040763723607
 21
-10.0032649999998
 31
0.0
 12
258.357288699481
 22
-0.0032649999998
 32
0.0
 13
258.357288699481
 23
-0.0032649999998
 33
0.0
  0
MTEXT
  5
2FD
330
2F6
100
AcDbEntity
  8
1
 62
     1
100
AcDbMText
 10
256.357288699481
 20
-152.123713287842
 30
0.0
 40
10.0
 41
0.0
 71
     7
 72
     1
  1
271
  7
CONVERTER_11
 11
0.0
 21
1.0
 31
0.0
 73
     1
 44
0.60024009603842
  0
ENDBLK
  5
2FF
330
2F6
100
AcDbEntity
  8
0
100
AcDbBlockEnd
  0
BLOCK
  5
309
330
302
100
AcDbEntity
  8
0
100
AcDbBlockBegin
  2
*D8
 70
     1
 71
     0
 10
0.0
 20
0.0
 30
0.0
  3
*D8
  1

  0
LINE
  5
303
330
302
100
AcDbEntity
  8
1
  6
Continuous
 62
     4
100
AcDbLine
 10
-85.5
 20
-404.6722851203213
 30
0.0
 11
85.5
 21
-404.6722851203213
 31
0.0
  0
LINE
  5
304
330
302
100
AcDbEntity
  8
1
  6
Continuous
 62
     4
100
AcDbLine
 10
-85.5
 20
-268.0016768481043
 30
0.0
 11
-85.5
 21
-406.6722851203213
 31
0.0
  0
LINE
  5
305
330
302
100
AcDbEntity
  8
1
  6
Continuous
 62
     4
100
AcDbLine
 10
85.5
 20
-268.0016768481043
 30
0.0
 11
85.5
 21
-406.6722851203213
 31
0.0
  0
SOLID
  5
306
330
302
100
AcDbEntity
  8
1
 62
     4
100
AcDbTrace
 10
-73.5
 20
-403.0924551492726
 30
0.0
 11
-73.5
 21
-406.2521150913701
 31
0.0
 12
-85.5
 22
-404.6722851203213
 32
0.0
 13
-85.5
 23
-404.6722851203213
 33
0.0
  0
SOLID
  5
307
330
302
100
AcDbEntity
  8
1
 62
     4
100
AcDbTrace
 10
73.5
 20
-406.2521150913701
 30
0.0
 11
73.5
 21
-403.0924551492726
 31
0.0
 12
85.5
 22
-404.6722851203213
 32
0.0
 13
85.5
 23
-404.6722851203213
 33
0.0
  0
MTEXT
  5
308
330
302
100
AcDbEntity
  8
1
 62
     1
100
AcDbMText
 10
-26.55486244181957
 20
-402.6723328259876
 30
0.0
 40
12.0
 41
0.0
 71
     7
 72
     1
  1
\C1;\U+00d8\C1;171
  7
CONVERTER_11
 11
0.9999999999970619
 21
2.424068405545306E-6
 31
0.0
 73
     1
 44
0.60024009603842
  0
ENDBLK
  5
30A
330
302
100
AcDbEntity
  8
0
100
AcDbBlockEnd
  0
BLOCK
  5
314
330
30D
100
AcDbEntity
  8
0
100
AcDbBlockBegin
  2
*D9
 70
     1
 71
     0
 10
0.0
 20
0.0
 30
0.0
  3
*D9
  1

  0
LINE
  5
30E
330
30D
100
AcDbEntity
  8
1
  6
Continuous
 62
     4
100
AcDbLine
 10
-37.49999999999999
 20
-372.1877013212285
 30
0.0
 11
37.50000000000002
 21
-372.1877013212285
 31
0.0
  0
LINE
  5
30F
330
30D
100
AcDbEntity
  8
1
  6
Continuous
 62
     4
100
AcDbLine
 10
-37.49999999999999
 20
-338.0009058481044
 30
0.0
 11
-37.49999999999999
 21
-374.1877013212285
 31
0.0
  0
LINE
  5
310
330
30D
100
AcDbEntity
  8
1
  6
Continuous
 62
     4
100
AcDbLine
 10
37.5
 20
-338.0009058481044
 30
0.0
 11
37.5
 21
-374.1877013212285
 31
0.0
  0
SOLID
  5
311
330
30D
100
AcDbEntity
  8
1
 62
     4
100
AcDbTrace
 10
-25.49999999999999
 20
-370.6078713501797
 30
0.0
 11
-25.49999999999999
 21
-373.7675312922772
 31
0.0
 12
-37.49999999999999
 22
-372.1877013212285
 32
0.0
 13
-37.49999999999999
 23
-372.1877013212285
 33
0.0
  0
SOLID
  5
312
330
30D
100
AcDbEntity
  8
1
 62
     4
100
AcDbTrace
 10
25.50000000000002
 20
-373.7675312922772
 30
0.0
 11
25.50000000000002
 21
-370.6078713501797
 31
0.0
 12
37.50000000000002
 22
-372.1877013212285
 32
0.0
 13
37.50000000000002
 23
-372.1877013212285
 33
0.0
  0
MTEXT
  5
313
330
30D
100
AcDbEntity
  8
1
 62
     1
100
AcDbMText
 10
-15.57009932426164
 20
-370.1877490268947
 30
0.0
 40
12.0
 41
0.0
 71
     7
 72
     1
  1
\C1;DN\C1;75
  7
CONVERTER_11
 11
0.9999999999970619
 21
2.424068405545306E-6
 31
0.0
 73
     1
 44
0.60024009603842
  0
ENDBLK
  5
315
330
30D
100
AcDbEntity
  8
0
100
AcDbBlockEnd
  0
BLOCK
  5
31F
330
318
100
AcDbEntity
  8
0
100
AcDbBlockBegin
  2
*D10
 70
     1
 71
     0
 10
0.0
 20
0.0
 30
0.0
  3
*D10
  1

  0
LINE
  5
319
330
318
100
AcDbEntity
  8
1
  6
Continuous
 62
     4
100
AcDbLine
 10
207.1984407625401
 20
-273.0016768481044
 30
0.0
 11
207.1984407625401
 21
-102.5030258481043
 31
0.0
  0
LINE
  5
31A
330
318
100
AcDbEntity
  8
1
  6
Continuous
 62
     4
100
AcDbLine
 10
188.9999999999999
 20
-102.5030258481043
 30
0.0
 11
209.1984407625401
 21
-102.5030258481043
 31
0.0
  0
LINE
  5
31B
330
318
100
AcDbEntity
  8
1
  6
Continuous
 62
     4
100
AcDbLine
 10
77.49999999999999
 20
-273.0016768481044
 30
0.0
 11
209.1984407625401
 21
-273.0016768481044
 31
0.0
  0
SOLID
  5
31C
330
318
100
AcDbEntity
  8
1
 62
     4
100
AcDbTrace
 10
205.6186107914913
 20
-261.0016768481044
 30
0.0
 11
208.7782707335888
 21
-261.0016768481044
 31
0.0
 12
207.1984407625401
 22
-273.0016768481044
 32
0.0
 13
207.1984407625401
 23
-273.0016768481044
 33
0.0
  0
SOLID
  5
31D
330
318
100
AcDbEntity
  8
1
 62
     4
100
AcDbTrace
 10
208.7782707335888
 20
-114.5030258481043
 30
0.0
 11
205.6186107914913
 21
-114.5030258481043
 31
0.0
 12
207.1984407625401
 22
-102.5030258481043
 32
0.0
 13
207.1984407625401
 23
-102.5030258481043
 33
0.0
  0
MTEXT
  5
31E
330
318
100
AcDbEntity
  8
1
 62
     1
100
AcDbMText
 10
205.1984407625401
 20
-229.8641264178703
 30
0.0
 40
12.0
 41
0.0
 71
     7
 72
     1
  1
\C1;(\C1;111-171\C1;)
  7
CONVERTER_11
 11
0.0
 21
1.0
 31
0.0
 73
     1
 44
0.60024009603842
  0
ENDBLK
  5
320
330
318
100
AcDbEntity
  8
0
100
AcDbBlockEnd
  0
BLOCK
  5
32A
330
323
100
AcDbEntity
  8
0
100
AcDbBlockBegin
  2
*D11
 70
     1
 71
     0
 10
0.0
 20
0.0
 30
0.0
  3
*D11
  1

  0
LINE
  5
324
330
323
100
AcDbEntity
  8
1
  6
Continuous
 62
     4
100
AcDbLine
 10
225.6739113855701
 20
-100.0030258481043
 30
0.0
 11
225.6739113855701
 21
-0.00326499999984
 31
0.0
  0
LINE
  5
325
330
323
100
AcDbEntity
  8
1
  6
Continuous
 62
     4
100
AcDbLine
 10
187.0
 20
-100.0030258481043
 30
0.0
 11
227.6739113855701
 21
-100.0030258481043
 31
0.0
  0
LINE
  5
326
330
323
100
AcDbEntity
  8
1
  6
Continuous
 62
     4
100
AcDbLine
 10
179.9999460000001
 20
-0.00326499999984
 30
0.0
 11
227.6739113855701
 21
-0.00326499999984
 31
0.0
  0
SOLID
  5
327
330
323
100
AcDbEntity
  8
1
 62
     4
100
AcDbTrace
 10
224.0940814145214
 20
-88.00302584810433
 30
0.0
 11
227.2537413566189
 21
-88.00302584810433
 31
0.0
 12
225.6739113855701
 22
-100.0030258481043
 32
0.0
 13
225.6739113855701
 23
-100.0030258481043
 33
0.0
  0
SOLID
  5
328
330
323
100
AcDbEntity
  8
1
 62
     4
100
AcDbTrace
 10
227.2537413566189
 20
-12.00326499999984
 30
0.0
 11
224.0940814145214
 21
-12.00326499999984
 31
0.0
 12
225.6739113855701
 22
-0.00326499999984
 32
0.0
 13
225.6739113855701
 23
-0.00326499999984
 33
0.0
  0
MTEXT
  5
329
330
323
100
AcDbEntity
  8
1
 62
     1
100
AcDbMText
 10
223.6739113855701
 20
-80.28055372516631
 30
0.0
 40
12.0
 41
0.0
 71
     7
 72
     1
  1
100-160
  7
CONVERTER_11
 11
0.0
 21
1.0
 31
0.0
 73
     1
 44
0.60024009603842
  0
ENDBLK
  5
32B
330
323
100
AcDbEntity
  8
0
100
AcDbBlockEnd
  0
BLOCK
  5
335
330
32E
100
AcDbEntity
  8
0
100
AcDbBlockBegin
  2
*D12
 70
     1
 71
     0
 10
0.0
 20
0.0
 30
0.0
  3
*D12
  1

  0
LINE
  5
32F
330
32E
100
AcDbEntity
  8
1
  6
Continuous
 62
     4
100
AcDbLine
 10
-142.050174
 20
99.318734950584
 30
0.0
 11
142.050175
 21
99.318734950584
 31
0.0
  0
LINE
  5
330
330
32E
100
AcDbEntity
  8
1
  6
Continuous
 62
     4
100
AcDbLine
 10
-142.050174
 20
-0.0025959999998
 30
0.0
 11
-142.050174
 21
101.318734950584
 31
0.0
  0
LINE
  5
331
330
32E
100
AcDbEntity
  8
1
  6
Continuous
 62
     4
100
AcDbLine
 10
142.0501750000001
 20
-0.0025959999998
 30
0.0
 11
142.0501750000001
 21
101.318734950584
 31
0.0
  0
SOLID
  5
332
330
32E
100
AcDbEntity
  8
1
 62
     4
100
AcDbTrace
 10
-130.050174
 20
100.8985649216328
 30
0.0
 11
-130.050174
 21
97.73890497953525
 31
0.0
 12
-142.050174
 22
99.318734950584
 32
0.0
 13
-142.050174
 23
99.318734950584
 33
0.0
  0
SOLID
  5
333
330
32E
100
AcDbEntity
  8
1
 62
     4
100
AcDbTrace
 10
130.050175
 20
97.73890497953525
 30
0.0
 11
130.050175
 21
100.8985649216328
 31
0.0
 12
142.050175
 22
99.318734950584
 32
0.0
 13
142.050175
 23
99.318734950584
 33
0.0
  0
MTEXT
  5
334
330
32E
100
AcDbEntity
  8
1
 62
     1
100
AcDbMText
 10
-59.58607436942417
 20
101.3186395392516
 30
0.0
 40
12.0
 41
0.0
 71
     7
 72
     1
  1
\C1;284x\C1;284
  7
CONVERTER_11
 11
0.9999999999970619
 21
2.424068405545306E-6
 31
0.0
 73
     1
 44
0.60024009603842
  0
ENDBLK
  5
336
330
32E
100
AcDbEntity
  8
0
100
AcDbBlockEnd
  0
BLOCK
  5
340
330
339
100
AcDbEntity
  8
0
100
AcDbBlockBegin
  2
*D13
 70
     1
 71
     0
 10
0.0
 20
0.0
 30
0.0
  3
*D13
  1

  0
LINE
  5
33A
330
339
100
AcDbEntity
  8
1
  6
Continuous
 62
     4
100
AcDbLine
 10
-189.0
 20
157.14755073116
 30
0.0
 11
189.0
 21
157.14755073116
 31
0.0
  0
LINE
  5
33B
330
339
100
AcDbEntity
  8
1
  6
Continuous
 62
     4
100
AcDbLine
 10
-189.0
 20
-102.5030258481043
 30
0.0
 11
-189.0
 21
159.14755073116
 31
0.0
  0
LINE
  5
33C
330
339
100
AcDbEntity
  8
1
  6
Continuous
 62
     4
100
AcDbLine
 10
189.0
 20
-102.5030258481043
 30
0.0
 11
189.0
 21
159.14755073116
 31
0.0
  0
SOLID
  5
33D
330
339
100
AcDbEntity
  8
1
 62
     4
100
AcDbTrace
 10
-177.0
 20
158.7273807022088
 30
0.0
 11
-177.0
 21
155.5677207601113
 31
0.0
 12
-189.0
 22
157.14755073116
 32
0.0
 13
-189.0
 23
157.14755073116
 33
0.0
  0
SOLID
  5
33E
330
339
100
AcDbEntity
  8
1
 62
     4
100
AcDbTrace
 10
177.0
 20
155.5677207601113
 30
0.0
 11
177.0
 21
158.7273807022088
 31
0.0
 12
189.0
 22
157.14755073116
 32
0.0
 13
189.0
 23
157.14755073116
 33
0.0
  0
MTEXT
  5
33F
330
339
100
AcDbEntity
  8
1
 62
     1
100
AcDbMText
 10
-59.58607436942451
 20
159.1474553198276
 30
0.0
 40
12.0
 41
0.0
 71
     7
 72
     1
  1
\C1;378x\C1;378
  7
CONVERTER_11
 11
0.9999999999970619
 21
2.424068405545306E-6
 31
0.0
 73
     1
 44
0.60024009603842
  0
ENDBLK
  5
341
330
339
100
AcDbEntity
  8
0
100
AcDbBlockEnd
  0
BLOCK
  5
34B
330
344
100
AcDbEntity
  8
0
100
AcDbBlockBegin
  2
*D14
 70
     1
 71
     0
 10
0.0
 20
0.0
 30
0.0
  3
*D14
  1

  0
LINE
  5
345
330
344
100
AcDbEntity
  8
1
  6
Continuous
 62
     4
100
AcDbLine
 10
-177.0
 20
126.313293555226
 30
0.0
 11
177.0
 21
126.313293555226
 31
0.0
  0
LINE
  5
346
330
344
100
AcDbEntity
  8
1
  6
Continuous
 62
     4
100
AcDbLine
 10
177.0
 20
3.49722305267372
 30
0.0
 11
177.0
 21
128.313293555226
 31
0.0
  0
LINE
  5
347
330
344
100
AcDbEntity
  8
1
  6
Continuous
 62
     4
100
AcDbLine
 10
-177.0
 20
3.49722305267372
 30
0.0
 11
-177.0
 21
128.313293555226
 31
0.0
  0
SOLID
  5
348
330
344
100
AcDbEntity
  8
1
 62
     4
100
AcDbTrace
 10
-165.0
 20
127.8931235262748
 30
0.0
 11
-165.0
 21
124.7334635841773
 31
0.0
 12
-177.0
 22
126.313293555226
 32
0.0
 13
-177.0
 23
126.313293555226
 33
0.0
  0
SOLID
  5
349
330
344
100
AcDbEntity
  8
1
 62
     4
100
AcDbTrace
 10
165.0
 20
124.7334635841773
 30
0.0
 11
165.0
 21
127.8931235262748
 31
0.0
 12
177.0
 22
126.313293555226
 32
0.0
 13
177.0
 23
126.313293555226
 33
0.0
  0
MTEXT
  5
34A
330
344
100
AcDbEntity
  8
1
 62
     1
100
AcDbMText
 10
-10.63599719979278
 20
128.3132458495598
 30
0.0
 40
12.0
 41
0.0
 71
     7
 72
     1
  1
\C1;\U+00d8\C1;354
  7
CONVERTER_11
 11
0.9999999999970619
 21
2.424068405545306E-6
 31
0.0
 73
     1
 44
0.60024009603842
  0
ENDBLK
  5
34C
330
344
100
AcDbEntity
  8
0
100
AcDbBlockEnd
  0
ENDSEC
  0
SECTION
  2
ENTITIES
  0
INSERT
  5
60
330
1F
100
AcDbEntity
  8
1
100
AcDbBlockReference
  2
Körper
 10
-268.796146379751
 20
-1210.206471934518
 30
0.0
  0
INSERT
  5
61
330
1F
100
AcDbEntity
  8
1
100
AcDbBlockReference
  2
PVC_Manschette
 10
-1177.0
 20
-75.17215613556982
 30
0.0
  0
INSERT
  5
62
330
1F
100
AcDbEntity
  8
0
100
AcDbBlockReference
  2
060_1E_Laubfangkorb
 10
17.77195867930641
 20
-740.7796983749759
 30
0.0
  0
INSERT
  5
63
330
1F
100
AcDbEntity
  8
0
100
AcDbBlockReference
  2
HL_61_7_Flachdachablauf
 10
-29.52887217687611
 20
450.9721299999999
 30
0.0
  0
INSERT
  5
64
330
1F
100
AcDbEntity
  8
0
100
AcDbBlockReference
  2
Bauschutz_062_9E
 10
-646.596795999998
 20
-253.6857592968918
 30
0.0
  0
DIMENSION
  5
301
330
1F
100
AcDbEntity
  8
1
100
AcDbDimension
  2
*D7
 10
258.357288699481
 20
-273.0016768481044
 30
0.0
 11
251.357288699481
 21
-141.623713287842
 31
0.0
 70
    32
  1
271
 71
     5
 42
-1.0
 53
90.0
  3
ME10_DIM_10
100
AcDbAlignedDimension
 13
179.9999460000001
 23
-0.00326499999983
 33
0.0
 14
77.5
 24
-273.0016768481044
 34
0.0
 50
90.0
100
AcDbRotatedDimension
  0
DIMENSION
  5
30C
330
1F
100
AcDbEntity
  8
1
100
AcDbDimension
  2
*D8
 10
-85.5
 20
-404.6722851203213
 30
0.0
 11
-3.27486244187739
 21
-396.6722851203213
 31
0.0
 70
    32
  1
<>
 71
     5
 42
-1.0
 53
0.00013888888889
  3
ME10_DIM_11
100
AcDbAlignedDimension
 13
85.5
 23
-268.0016768481044
 33
0.0
 14
-85.5
 24
-268.0016768481044
 34
0.0
 50
0.00000000000001
100
AcDbRotatedDimension
  0
DIMENSION
  5
317
330
1F
100
AcDbEntity
  8
1
100
AcDbDimension
  2
*D9
 10
-37.49999999999999
 20
-372.1877013212285
 30
0.0
 11
-0.09009932431946
 21
-364.1877013212285
 31
0.0
 70
    32
  1
<>
 71
     5
 42
-1.0
 53
0.00013888888889
  3
ME10_DIM_12
100
AcDbAlignedDimension
 13
37.5
 23
-338.0009058481044
 33
0.0
 14
-37.49999999999999
 24
-338.0009058481044
 34
0.0
 50
0.00000000000001
100
AcDbRotatedDimension
  0
DIMENSION
  5
322
330
1F
100
AcDbEntity
  8
1
100
AcDbDimension
  2
*D10
 10
207.1984407625401
 20
-273.0016768481044
 30
0.0
 11
199.1984407625401
 21
-193.6241264178703
 31
0.0
 70
    32
  1
(111-171
 71
     5
 42
-1.0
 53
-89.99999999999999
  3
ME10_DIM_13
100
AcDbAlignedDimension
 13
189.0
 23
-102.5030258481043
 33
0.0
 14
77.5
 24
-273.0016768481044
 34
0.0
 50
-89.99999999999999
100
AcDbRotatedDimension
  0
DIMENSION
  5
32D
330
1F
100
AcDbEntity
  8
1
100
AcDbDimension
  2
*D11
 10
225.6739113855701
 20
-100.0030258481043
 30
0.0
 11
217.6739113855701
 21
-48.48055372516631
 31
0.0
 70
    32
  1
100-160
 71
     5
 42
-1.0
 53
-89.99999999999999
  3
ME10_DIM_14
100
AcDbAlignedDimension
 13
179.9999460000001
 23
-0.00326499999983
 33
0.0
 14
187.0
 24
-100.0030258481043
 34
0.0
 50
-89.99999999999999
100
AcDbRotatedDimension
  0
DIMENSION
  5
338
330
1F
100
AcDbEntity
  8
1
100
AcDbDimension
  2
*D12
 10
-142.050174
 20
99.318734950584
 30
0.0
 11
-28.62607436953981
 21
107.318734950584
 31
0.0
 70
    32
  1
284x284
 71
     5
 42
-1.0
 53
0.00013888888889
  3
ME10_DIM_15
100
AcDbAlignedDimension
 13
142.0501750000002
 23
-0.00259599999981
 33
0.0
 14
-142.050174
 24
-0.00259599999981
 34
0.0
 50
0.00000000000001
100
AcDbRotatedDimension
  0
DIMENSION
  5
343
330
1F
100
AcDbEntity
  8
1
100
AcDbDimension
  2
*D13
 10
-189.0
 20
157.14755073116
 30
0.0
 11
-28.62607436954016
 21
165.14755073116
 31
0.0
 70
    32
  1
<>
 71
     5
 42
-1.0
 53
0.00013888888889
  3
ME10_DIM_16
100
AcDbAlignedDimension
 13
189.0
 23
-102.5030258481043
 33
0.0
 14
-189.0
 24
-102.5030258481043
 34
0.0
 50
0.00000000000001
100
AcDbRotatedDimension
  0
DIMENSION
  5
34E
330
1F
100
AcDbEntity
  8
1
100
AcDbDimension
  2
*D14
 10
-177.0
 20
126.313293555226
 30
0.0
 11
16.2440028001494
 21
134.313293555226
 31
0.0
 70
    32
  1
<>
 71
     5
 42
-1.0
 53
0.00013888888889
  3
ME10_DIM_17
100
AcDbAlignedDimension
 13
177.0
 23
3.49722305267368
 33
0.0
 14
-177.0
 24
3.49722305267368
 34
0.0
 50
0.00000000000001
100
AcDbRotatedDimension
  0
ENDSEC
  0
SECTION
  2
OBJECTS
  0
DICTIONARY
  5
C
330
0
100
AcDbDictionary
281
     1
  3
ACAD_GROUP
350
D
  3
ACAD_LAYOUT
350
1A
  3
ACAD_MLINESTYLE
350
17
  3
ACAD_PLOTSETTINGS
350
19
  3
ACAD_PLOTSTYLENAME
350
E
  3
ACAD_TABLESTYLE
350
34F
  3
ACAD_VISUALSTYLE
350
2A
  0
DICTIONARY
  5
D
102
{ACAD_REACTORS
330
C
102
}
330
C
100
AcDbDictionary
281
     1
  0
DICTIONARY
  5
1A
102
{ACAD_REACTORS
330
C
102
}
330
C
100
AcDbDictionary
281
     1
  3
Layout1
350
1E
  3
Layout2
350
26
  3
Model
350
22
  0
DICTIONARY
  5
17
102
{ACAD_REACTORS
330
C
102
}
330
C
100
AcDbDictionary
281
     1
  3
Standard
350
18
  0
DICTIONARY
  5
19
102
{ACAD_REACTORS
330
C
102
}
330
C
100
AcDbDictionary
281
     1
  0
ACDBDICTIONARYWDFLT
  5
E
102
{ACAD_REACTORS
330
C
102
}
330
C
100
AcDbDictionary
281
     1
  3
Normal
350
F
100
AcDbDictionaryWithDefault
340
F
  0
DICTIONARY
  5
34F
102
{ACAD_REACTORS
330
C
102
}
330
C
100
AcDbDictionary
281
     1
  0
DICTIONARY
  5
2A
102
{ACAD_REACTORS
330
C
102
}
330
C
100
AcDbDictionary
281
     1
  3
2dWireframe
350
2F
  3
3D Hidden
350
31
  3
3dWireframe
350
30
  3
Basic
350
32
  3
Brighten
350
36
  3
ColorChange
350
3A
  3
Conceptual
350
34
  3
Dim
350
35
  3
Facepattern
350
39
  3
Flat
350
2B
  3
FlatWithEdges
350
2C
  3
Gouraud
350
2D
  3
GouraudWithEdges
350
2E
  3
Linepattern
350
38
  3
Realistic
350
33
  3
Thicken
350
37
  0
LAYOUT
  5
1E
102
{ACAD_REACTORS
330
1A
102
}
330
1A
100
AcDbPlotSettings
  1

  2
none_device
  4

  6

 40
0.0
 41
0.0
 42
0.0
 43
0.0
 44
0.0
 45
0.0
 46
0.0
 47
0.0
 48
0.0
 49
0.0
140
0.0
141
0.0
142
1.0
143
1.0
 70
   688
 72
     0
 73
     0
 74
     5
  7

 75
    16
147
1.0
148
0.0
149
0.0
100
AcDbLayout
  1
Layout1
 70
     1
 71
     1
 10
0.0
 20
0.0
 11
12.0
 21
9.0
 12
0.0
 22
0.0
 32
0.0
 14
1.00000000000000E+20
 24
1.00000000000000E+20
 34
1.00000000000000E+20
 15
-1.00000000000000E+20
 25
-1.00000000000000E+20
 35
-1.00000000000000E+20
146
0.0
 13
0.0
 23
0.0
 33
0.0
 16
1.0
 26
0.0
 36
0.0
 17
0.0
 27
1.0
 37
0.0
 76
     0
330
1B
  0
LAYOUT
  5
26
102
{ACAD_REACTORS
330
1A
102
}
330
1A
100
AcDbPlotSettings
  1

  2
none_device
  4

  6

 40
0.0
 41
0.0
 42
0.0
 43
0.0
 44
0.0
 45
0.0
 46
0.0
 47
0.0
 48
0.0
 49
0.0
140
0.0
141
0.0
142
1.0
143
1.0
 70
   688
 72
     0
 73
     0
 74
     5
  7

 75
    16
147
1.0
148
0.0
149
0.0
100
AcDbLayout
  1
Layout2
 70
     1
 71
     2
 10
0.0
 20
0.0
 11
0.0
 21
0.0
 12
0.0
 22
0.0
 32
0.0
 14
0.0
 24
0.0
 34
0.0
 15
0.0
 25
0.0
 35
0.0
146
0.0
 13
0.0
 23
0.0
 33
0.0
 16
1.0
 26
0.0
 36
0.0
 17
0.0
 27
1.0
 37
0.0
 76
     0
330
23
  0
LAYOUT
  5
22
102
{ACAD_REACTORS
330
1A
102
}
330
1A
100
AcDbPlotSettings
  1

  2
none_device
  4

  6

 40
0.0
 41
0.0
 42
0.0
 43
0.0
 44
0.0
 45
0.0
 46
0.0
 47
0.0
 48
0.0
 49
0.0
140
0.0
141
0.0
142
1.0
143
1.0
 70
  1712
 72
     0
 73
     0
 74
     0
  7

 75
     0
147
1.0
148
0.0
149
0.0
100
AcDbLayout
  1
Model
 70
     1
 71
     0
 10
0.0
 20
0.0
 11
12.0
 21
9.0
 12
0.0
 22
0.0
 32
0.0
 14
-189.0
 24
-876.5551435446469
 34
0.0
 15
260.357288699481
 25
221.3085037777346
 35
0.0
146
0.0
 13
0.0
 23
0.0
 33
0.0
 16
1.0
 26
0.0
 36
0.0
 17
0.0
 27
1.0
 37
0.0
 76
     0
330
1F
331
29
  0
MLINESTYLE
  5
18
102
{ACAD_REACTORS
330
17
102
}
330
17
100
AcDbMlineStyle
  2
Standard
 70
     0
  3

 62
   256
 51
90.0
 52
90.0
 71
     2
 49
0.5
 62
   256
  6
BYLAYER
 49
-0.5
 62
   256
  6
BYLAYER
  0
ACDBPLACEHOLDER
  5
F
102
{ACAD_REACTORS
330
E
102
}
330
E
  0
VISUALSTYLE
  5
2F
102
{ACAD_REACTORS
330
2A
102
}
330
2A
100
AcDbVisualStyle
  2
2dWireframe
 70
     4
 71
     0
 72
     2
 73
     0
 90
        0
 40
-0.6
 41
-30.0
 62
     5
 63
     7
 74
     1
 91
        4
 64
     7
 65
   257
 75
     1
175
     1
 42
1.0
 92
        0
 66
   257
 43
1.0
 76
     1
 77
     6
 78
     2
 67
     7
 79
     5
170
     0
171
     0
290
     0
174
     0
 93
        1
 44
0.0
173
     0
291
     0
 45
0.0
1001
ACAD
1000
AcDbSavedByObjectVersion
1070
     0
  0
VISUALSTYLE
  5
31
102
{ACAD_REACTORS
330
2A
102
}
330
2A
100
AcDbVisualStyle
  2
3D Hidden
 70
     6
 71
     1
 72
     2
 73
     2
 90
        0
 40
-0.6
 41
-30.0
 62
     5
 63
     7
 74
     2
 91
        2
 64
     7
 65
   257
 75
     2
175
     1
 42
40.0
 92
        0
 66
   257
 43
1.0
 76
     1
 77
     6
 78
     2
 67
     7
 79
     3
170
     0
171
     0
290
     0
174
     0
 93
        1
 44
0.0
173
     0
291
     0
 45
0.0
1001
ACAD
1000
AcDbSavedByObjectVersion
1070
     0
  0
VISUALSTYLE
  5
30
102
{ACAD_REACTORS
330
2A
102
}
330
2A
100
AcDbVisualStyle
  2
3dWireframe
 70
     5
 71
     0
 72
     2
 73
     0
 90
        0
 40
-0.6
 41
-30.0
 62
     5
 63
     7
 74
     1
 91
        4
 64
     7
 65
   257
 75
     1
175
     1
 42
1.0
 92
        0
 66
   257
 43
1.0
 76
     1
 77
     6
 78
     2
 67
     7
 79
     5
170
     0
171
     0
290
     0
174
     0
 93
        1
 44
0.0
173
     0
291
     0
 45
0.0
1001
ACAD
1000
AcDbSavedByObjectVersion
1070
     0
  0
VISUALSTYLE
  5
32
102
{ACAD_REACTORS
330
2A
102
}
330
2A
100
AcDbVisualStyle
  2
Basic
 70
     7
 71
     1
 72
     0
 73
     1
 90
        0
 40
-0.6
 41
-30.0
 62
     5
 63
     7
 74
     0
 91
        4
 64
     7
 65
   257
 75
     1
175
     1
 42
1.0
 92
        8
 66
     7
 43
1.0
 76
     1
 77
     6
 78
     2
 67
     7
 79
     5
170
     0
171
     0
290
     0
174
     0
 93
        1
 44
0.0
173
     0
291
     1
 45
0.0
1001
ACAD
1000
AcDbSavedByObjectVersion
1070
     0
  0
VISUALSTYLE
  5
36
102
{ACAD_REACTORS
330
2A
102
}
330
2A
100
AcDbVisualStyle
  2
Brighten
 70
    12
 71
     2
 72
     2
 73
     0
 90
        0
 40
-0.6
 41
-30.0
 62
     5
 63
     7
 74
     1
 91
        4
 64
     7
 65
   257
 75
     1
175
     1
 42
1.0
 92
        8
 66
     7
 43
1.0
 76
     1
 77
     6
 78
     2
 67
     7
 79
     5
170
     0
171
     0
290
     0
174
     0
 93
        1
 44
50.0
173
     0
291
     1
 45
0.0
1001
ACAD
1000
AcDbSavedByObjectVersion
1070
     0
  0
VISUALSTYLE
  5
3A
102
{ACAD_REACTORS
330
2A
102
}
330
2A
100
AcDbVisualStyle
  2
ColorChange
 70
    16
 71
     2
 72
     2
 73
     3
 90
        0
 40
-0.6
 41
-30.0
 62
     5
 63
     8
 74
     1
 91
        4
 64
     7
 65
   257
 75
     1
175
     1
 42
1.0
 92
        8
 66
     8
 43
1.0
 76
     1
 77
     6
 78
     2
 67
     7
 79
     5
170
     0
171
     0
290
     0
174
     0
 93
        1
 44
0.0
173
     0
291
     1
 45
0.0
1001
ACAD
1000
AcDbSavedByObjectVersion
1070
     0
  0
VISUALSTYLE
  5
34
102
{ACAD_REACTORS
330
2A
102
}
330
2A
100
AcDbVisualStyle
  2
Conceptual
 70
     9
 71
     3
 72
     2
 73
     0
 90
        0
 40
-0.6
 41
-30.0
 62
     5
 63
     7
 74
     2
 91
        2
 64
     7
 65
   257
 75
     1
175
     1
 42
40.0
 92
        8
 66
     7
 43
1.0
 76
     1
 77
     6
 78
     2
 67
     7
 79
     3
170
     0
171
     0
290
     0
174
     0
 93
        1
 44
0.0
173
     0
291
     0
 45
0.0
1001
ACAD
1000
AcDbSavedByObjectVersion
1070
     0
  0
VISUALSTYLE
  5
35
102
{ACAD_REACTORS
330
2A
102
}
330
2A
100
AcDbVisualStyle
  2
Dim
 70
    11
 71
     2
 72
     2
 73
     0
 90
        0
 40
-0.6
 41
-30.0
 62
     5
 63
     7
 74
     1
 91
        4
 64
     7
 65
   257
 75
     1
175
     1
 42
1.0
 92
        8
 66
     7
 43
1.0
 76
     1
 77
     6
 78
     2
 67
     7
 79
     5
170
     0
171
     0
290
     0
174
     0
 93
        1
 44
-50.0
173
     0
291
     1
 45
0.0
1001
ACAD
1000
AcDbSavedByObjectVersion
1070
     0
  0
VISUALSTYLE
  5
39
102
{ACAD_REACTORS
330
2A
102
}
330
2A
100
AcDbVisualStyle
  2
Facepattern
 70
    15
 71
     2
 72
     2
 73
     0
 90
        0
 40
-0.6
 41
-30.0
 62
     5
 63
     7
 74
     1
 91
        4
 64
     7
 65
   257
 75
     1
175
     1
 42
1.0
 92
        8
 66
     7
 43
1.0
 76
     1
 77
     6
 78
     2
 67
     7
 79
     5
170
     0
171
     0
290
     0
174
     0
 93
        1
 44
0.0
173
     0
291
     1
 45
0.0
1001
ACAD
1000
AcDbSavedByObjectVersion
1070
     0
  0
VISUALSTYLE
  5
2B
102
{ACAD_REACTORS
330
2A
102
}
330
2A
100
AcDbVisualStyle
  2
Flat
 70
     0
 71
     2
 72
     1
 73
     1
 90
        2
 40
-0.6
 41
30.0
 62
     5
 63
     7
 74
     0
 91
        4
 64
     7
 65
   257
 75
     1
175
     1
 42
1.0
 92
        8
 66
     7
 43
1.0
 76
     1
 77
     6
 78
     2
 67
     7
 79
     5
170
     0
171
     0
290
     0
174
     0
 93
       13
 44
0.0
173
     0
291
     1
 45
0.0
1001
ACAD
1000
AcDbSavedByObjectVersion
1070
     0
  0
VISUALSTYLE
  5
2C
102
{ACAD_REACTORS
330
2A
102
}
330
2A
100
AcDbVisualStyle
  2
FlatWithEdges
 70
     1
 71
     2
 72
     1
 73
     1
 90
        2
 40
-0.6
 41
30.0
 62
     5
 63
     7
 74
     1
 91
        4
 64
     7
 65
   257
 75
     1
175
     1
 42
1.0
 92
        0
 66
   257
 43
1.0
 76
     1
 77
     6
 78
     2
 67
     7
 79
     5
170
     0
171
     0
290
     0
174
     0
 93
       13
 44
0.0
173
     0
291
     1
 45
0.0
1001
ACAD
1000
AcDbSavedByObjectVersion
1070
     0
  0
VISUALSTYLE
  5
2D
102
{ACAD_REACTORS
330
2A
102
}
330
2A
100
AcDbVisualStyle
  2
Gouraud
 70
     2
 71
     2
 72
     2
 73
     1
 90
        2
 40
-0.6
 41
30.0
 62
     5
 63
     7
 74
     0
 91
        4
 64
     7
 65
   257
 75
     1
175
     1
 42
1.0
 92
        0
 66
     7
 43
1.0
 76
     1
 77
     6
 78
     2
 67
     7
 79
     5
170
     0
171
     0
290
     0
174
     0
 93
       13
 44
0.0
173
     0
291
     1
 45
0.0
1001
ACAD
1000
AcDbSavedByObjectVersion
1070
     0
  0
VISUALSTYLE
  5
2E
102
{ACAD_REACTORS
330
2A
102
}
330
2A
100
AcDbVisualStyle
  2
GouraudWithEdges
 70
     3
 71
     2
 72
     2
 73
     1
 90
        2
 40
-0.6
 41
30.0
 62
     5
 63
     7
 74
     1
 91
        4
 64
     7
 65
   257
 75
     1
175
     1
 42
1.0
 92
        0
 66
   257
 43
1.0
 76
     1
 77
     6
 78
     2
 67
     7
 79
     5
170
     0
171
     0
290
     0
174
     0
 93
       13
 44
0.0
173
     0
291
     1
 45
0.0
1001
ACAD
1000
AcDbSavedByObjectVersion
1070
     0
  0
VISUALSTYLE
  5
38
102
{ACAD_REACTORS
330
2A
102
}
330
2A
100
AcDbVisualStyle
  2
Linepattern
 70
    14
 71
     2
 72
     2
 73
     0
 90
        0
 40
-0.6
 41
-30.0
 62
     5
 63
     7
 74
     1
 91
        4
 64
     7
 65
   257
 75
     7
175
     7
 42
1.0
 92
        8
 66
     7
 43
1.0
 76
     1
 77
     6
 78
     2
 67
     7
 79
     5
170
     0
171
     0
290
     0
174
     0
 93
        1
 44
0.0
173
     0
291
     1
 45
0.0
1001
ACAD
1000
AcDbSavedByObjectVersion
1070
     0
  0
VISUALSTYLE
  5
33
102
{ACAD_REACTORS
330
2A
102
}
330
2A
100
AcDbVisualStyle
  2
Realistic
 70
     8
 71
     2
 72
     2
 73
     0
 90
        0
 40
-0.6
 41
-30.0
 62
     5
 63
     7
 74
     1
 91
        0
 64
     7
 65
   257
 75
     1
175
     1
 42
1.0
 92
        8
 66
     8
 43
1.0
 76
     1
 77
     6
 78
     2
 67
     7
 79
     5
170
     0
171
     0
290
     0
174
     0
 93
       13
 44
0.0
173
     0
291
     0
 45
0.0
1001
ACAD
1000
AcDbSavedByObjectVersion
1070
     0
  0
VISUALSTYLE
  5
37
102
{ACAD_REACTORS
330
2A
102
}
330
2A
100
AcDbVisualStyle
  2
Thicken
 70
    13
 71
     2
 72
     2
 73
     0
 90
        0
 40
-0.6
 41
-30.0
 62
     5
 63
     7
 74
     1
 91
        4
 64
     7
 65
   257
 75
     1
175
     1
 42
1.0
 92
       12
 66
     7
 43
1.0
 76
     1
 77
     6
 78
     2
 67
     7
 79
     5
170
     0
171
     0
290
     0
174
     0
 93
        1
 44
0.0
173
     0
291
     1
 45
0.0
1001
ACAD
1000
AcDbSavedByObjectVersion
1070
     0
  0
ENDSEC
  0
EOF
