  0
SECTION
  2
HEADER
  9
$ACADVER
  1
AC1014
  9
$ACADMAINTVER
 70
             0
  9
$DWGCODEPAGE
  3
ANSI_1252
  9
$INSBASE
 10
0.0
 20
0.0
 30
0.0
  9
$EXTMIN
 10
-235.48191900000029
 20
-265.8864385295123
 30
0.0
  9
$EXTMAX
 10
342.43797973792869
 20
43.9213428777137
 30
0.0
  9
$LIMMIN
 10
0.0
 20
0.0
  9
$LIMMAX
 10
0.0
 20
0.0
  9
$ORTHOMODE
 70
             0
  9
$REGENMODE
 70
             1
  9
$FILLMODE
 70
             1
  9
$QTEXTMODE
 70
             0
  9
$MIRRTEXT
 70
             1
  9
$DRAGMODE
 70
             2
  9
$LTSCALE
 40
1.0
  9
$OSMODE
 70
             0
  9
$ATTMODE
 70
             1
  9
$TEXTSIZE
 40
0.2
  9
$TRACEWID
 40
0.05
  9
$TEXTSTYLE
  7
STANDARD
  9
$CLAYER
  8
0
  9
$CELTYPE
  6
CONTINUOUS
  9
$CECOLOR
 62
           256
  9
$CELTSCALE
 40
1.0
  9
$DELOBJ
 70
             1
  9
$DISPSILH
 70
             0
  9
$DIMSCALE
 40
1.0
  9
$DIMASZ
 40
0.18
  9
$DIMEXO
 40
0.0625
  9
$DIMDLI
 40
0.38
  9
$DIMRND
 40
0.0
  9
$DIMDLE
 40
0.0
  9
$DIMEXE
 40
0.18
  9
$DIMTP
 40
0.0
  9
$DIMTM
 40
0.0
  9
$DIMTXT
 40
0.18
  9
$DIMCEN
 40
0.09
  9
$DIMTSZ
 40
0.0
  9
$DIMTOL
 70
             0
  9
$DIMLIM
 70
             0
  9
$DIMTIH
 70
             1
  9
$DIMTOH
 70
             1
  9
$DIMSE1
 70
             0
  9
$DIMSE2
 70
             0
  9
$DIMTAD
 70
             0
  9
$DIMZIN
 70
             0
  9
$DIMBLK
  1

  9
$DIMASO
 70
             1
  9
$DIMSHO
 70
             1
  9
$DIMPOST
  1

  9
$DIMAPOST
  1

  9
$DIMALT
 70
             0
  9
$DIMALTD
 70
             2
  9
$DIMALTF
 40
25.4
  9
$DIMLFAC
 40
1.0
  9
$DIMTOFL
 70
             0
  9
$DIMTVP
 40
0.0
  9
$DIMTIX
 70
             0
  9
$DIMSOXD
 70
             0
  9
$DIMSAH
 70
             0
  9
$DIMBLK1
  1

  9
$DIMBLK2
  1

  9
$DIMSTYLE
  2
STANDARD
  9
$DIMCLRD
 70
             0
  9
$DIMCLRE
 70
             0
  9
$DIMCLRT
 70
             0
  9
$DIMTFAC
 40
1.0
  9
$DIMGAP
 40
0.09
  9
$DIMJUST
 70
             0
  9
$DIMSD1
 70
             0
  9
$DIMSD2
 70
             0
  9
$DIMTOLJ
 70
             1
  9
$DIMTZIN
 70
             0
  9
$DIMALTZ
 70
             0
  9
$DIMALTTZ
 70
             0
  9
$DIMFIT
 70
             3
  9
$DIMUPT
 70
             0
  9
$DIMUNIT
 70
             2
  9
$DIMDEC
 70
             4
  9
$DIMTDEC
 70
             4
  9
$DIMALTU
 70
             2
  9
$DIMALTTD
 70
             2
  9
$DIMTXSTY
  7
STANDARD
  9
$DIMAUNIT
 70
             0
  9
$LUNITS
 70
             2
  9
$LUPREC
 70
             4
  9
$SKETCHINC
 40
0.1
  9
$FILLETRAD
 40
0.0
  9
$AUNITS
 70
             0
  9
$AUPREC
 70
             0
  9
$MENU
  1
acad
  9
$ELEVATION
 40
0.0
  9
$PELEVATION
 40
0.0
  9
$THICKNESS
 40
0.0
  9
$LIMCHECK
 70
             0
  9
$BLIPMODE
 70
             1
  9
$CHAMFERA
 40
0.0
  9
$CHAMFERB
 40
0.0
  9
$CHAMFERC
 40
0.0
  9
$CHAMFERD
 40
0.0
  9
$SKPOLY
 70
             0
  9
$TDCREATE
 40
0.000000000
  9
$TDUPDATE
 40
0.000000000
  9
$TDINDWG
 40
0.0000000000
  9
$TDUSRTIMER
 40
0.0000000000
  9
$USRTIMER
 70
             1
  9
$ANGBASE
 50
0.0
  9
$ANGDIR
 70
             0
  9
$PDMODE
 70
             0
  9
$PDSIZE
 40
0.0
  9
$PLINEWID
 40
0.0
  9
$COORDS
 70
             0
  9
$SPLFRAME
 70
             0
  9
$SPLINETYPE
 70
             6
  9
$SPLINESEGS
 70
             8
  9
$ATTDIA
 70
             0
  9
$ATTREQ
 70
             1
  9
$HANDLING
 70
             1
  9
$HANDSEED
  5
1DA
  9
$SURFTAB1
 70
             6
  9
$SURFTAB2
 70
             6
  9
$SURFTYPE
 70
             6
  9
$SURFU
 70
             6
  9
$SURFV
 70
             6
  9
$UCSNAME
  2

  9
$UCSORG
 10
0.0
 20
0.0
 30
0.0
  9
$UCSXDIR
 10
1.0
 20
0.0
 30
0.0
  9
$UCSYDIR
 10
0.0
 20
1.0
 30
0.0
  9
$PUCSNAME
  2

  9
$PUCSORG
 10
0.0
 20
0.0
 30
0.0
  9
$PUCSXDIR
 10
1.0
 20
0.0
 30
0.0
  9
$PUCSYDIR
 10
0.0
 20
1.0
 30
0.0
  9
$USERI1
 70
             0
  9
$USERI2
 70
             0
  9
$USERI3
 70
             0
  9
$USERI4
 70
             0
  9
$USERI5
 70
             0
  9
$USERR1
 40
12.01
  9
$USERR2
 40
0.0
  9
$USERR3
 40
0.0
  9
$USERR4
 40
0.0
  9
$USERR5
 40
0.0
  9
$WORLDVIEW
 70
             1
  9
$SHADEDGE
 70
             3
  9
$SHADEDIF
 70
            70
  9
$TILEMODE
 70
             1
  9
$MAXACTVP
 70
            16
  9
$PINSBASE
 10
0.0
 20
0.0
 30
0.0
  9
$PLIMCHECK
 70
             0
  9
$PEXTMIN
 10
1.00000000000000E+20
 20
1.00000000000000E+20
 30
1.00000000000000E+20
  9
$PEXTMAX
 10
-1.00000000000000E+20
 20
-1.00000000000000E+20
 30
-1.00000000000000E+20
  9
$PLIMMIN
 10
0.0
 20
0.0
  9
$PLIMMAX
 10
12.0
 20
9.0
  9
$UNITMODE
 70
             0
  9
$VISRETAIN
 70
             0
  9
$PLINEGEN
 70
             1
  9
$PSLTSCALE
 70
             0
  9
$TREEDEPTH
 70
          3020
  9
$PICKSTYLE
 70
             1
  9
$CMLSTYLE
  2
STANDARD
  9
$CMLJUST
 70
             0
  9
$CMLSCALE
 40
1.0
  9
$PROXYGRAPHICS
 70
             0
  9
$MEASUREMENT
 70
             1
  0
ENDSEC
  0
SECTION
  2
CLASSES
  0
CLASS
  1
LWPOLYLINE
  2
AcDbPolyline
  3
"AutoCAD"
 90
        0
280
             0
281
             1
  0
CLASS
  1
IMAGE
  2
AcDbRasterImage
  3
ISM
 90
      127
280
             0
281
             1
  0
CLASS
  1
OLE2FRAME
  2
AcDbOle2Frame
  3
""
 90
        0
280
             0
281
             1
  0
CLASS
  1
HATCH
  2
AcDbHatch
  3
"ACAD_SEDONA"
 90
        0
280
             0
281
             1
  0
CLASS
  1
DICTIONARYVAR
  2
AcDbDictionaryVar
  3
"AutoCAD"
 90
        0
280
             0
281
             0
  0
CLASS
  1
RASTERVARIABLES
  2
AcDbRasterVariables
  3
ISM
 90
        0
280
             0
281
             0
  0
CLASS
  1
IMAGEDEF
  2
AcDbRasterImageDef
  3
ISM
 90
        0
280
             0
281
             0
  0
CLASS
  1
IMAGEDEF_REACTOR
  2
AcDbRasterImageDefReactor
  3
ISM
 90
        1
280
             0
281
             0
  0
CLASS
  1
IDBUFFER
  2
AcDbIdBuffer
  3
"Acad"
 90
        0
280
             0
281
             0
  0
CLASS
  1
SPATIAL_FILTER
  2
AcDbSpatialFilter
  3
"Acad"
 90
        0
280
             0
281
             0
  0
CLASS
  1
XRECORD
  2
AcDbXrecord
  3
"<Built In>"
 90
        0
280
             0
281
             0
  0
CLASS
  1
SORTENTSTABLE
  2
AcDbSortentsTable
  3
"AutoCAD"
 90
        0
280
             0
281
             0
  0
CLASS
  1
LAYER_INDEX
  2
AcDbLayerIndex
  3
"Acad"
 90
        0
280
             0
281
             0
  0
CLASS
  1
SPATIAL_INDEX
  2
AcDbSpatialIndex
  3
"Acad"
 90
        0
280
             0
281
             0
  0
CLASS
  1
OBJECT_PTR
  2
CAseDLPNTableRecord
  3
"ASE-LPNTableRecord"
 90
        1
280
             0
281
             0
  0
CLASS
  1
LAYOUT
  2
AcDbLayout
  3
"AutoCAD 2000"
 90
        0
280
             0
281
             0
  0
CLASS
  1
PLOTSETTINGS
  2
AcDbPlotSettings
  3
"AutoCAD 2000"
 90
        0
280
             0
281
             0
  0
CLASS
  1
ACDBDICTIONARYWDFLT
  2
AcDbDictionaryWithDefault
  3
"AutoCAD 2000"
 90
        0
280
             0
281
             0
  0
CLASS
  1
ACDBPLACEHOLDER
  2
AcDbPlaceHolder
  3
"AutoCAD 2000"
 90
        0
280
             0
281
             0
  0
ENDSEC
  0
SECTION
  2
TABLES
  0
TABLE
  2
VPORT
  5
7
100
AcDbSymbolTable
 70
             1
  0
VPORT
  5
15
100
AcDbSymbolTableRecord
100
AcDbViewportTableRecord
  2
*ACTIVE
 70
             0
 10
0.0
 20
0.0
 11
1.0
 21
1.0
 12
53.4780303689642
 22
-110.9825478258993
 13
0.0
 23
0.0
 14
1.0
 24
1.0
 15
0.0
 25
0.0
 16
0.0
 26
0.0
 36
1.0
 17
0.0
 27
0.0
 37
0.0
 40
396.6558859304339
 41
1.60267857142857
 42
50.0
 43
0.0
 44
0.0
 50
0.0
 51
0.0
 71
             0
 72
           100
 73
             1
 74
             1
 75
             0
 76
             0
 77
             0
 78
             0
  0
ENDTAB
  0
TABLE
  2
LTYPE
  5
4
100
AcDbSymbolTable
 70
            11
  0
LTYPE
  5
11
100
AcDbSymbolTableRecord
100
AcDbLinetypeTableRecord
  2
BYBLOCK
 70
            64
  3

 72
            65
 73
             0
 40
0.0
  0
LTYPE
  5
12
100
AcDbSymbolTableRecord
100
AcDbLinetypeTableRecord
  2
BYLAYER
 70
            64
  3

 72
            65
 73
             0
 40
0.0
  0
LTYPE
  5
13
100
AcDbSymbolTableRecord
100
AcDbLinetypeTableRecord
  2
CONTINUOUS
 70
            64
  3
Solid line
 72
            65
 73
             0
 40
0.0
  0
LTYPE
  5
1D
100
AcDbSymbolTableRecord
100
AcDbLinetypeTableRecord
  2
DASHED
 70
            64
  3
Dashed
 72
            65
 73
             2
 40
15.0
 49
7.0
 74
             0
 49
-8.0
 74
             0
  0
LTYPE
  5
1E
100
AcDbSymbolTableRecord
100
AcDbLinetypeTableRecord
  2
DOTTED
 70
            64
  3
Dotted
 72
            65
 73
             2
 40
1.0
 49
0.0
 74
             0
 49
-1.0
 74
             0
  0
LTYPE
  5
1F
100
AcDbSymbolTableRecord
100
AcDbLinetypeTableRecord
  2
DOT_CENTER
 70
            64
  3
Dot_Center
 72
            65
 73
             4
 40
14.0
 49
12.0
 74
             0
 49
-1.0
 74
             0
 49
0.0
 74
             0
 49
-1.0
 74
             0
  0
LTYPE
  5
20
100
AcDbSymbolTableRecord
100
AcDbLinetypeTableRecord
  2
LONG_DASHED
 70
            64
  3
Long_Dashed
 72
            65
 73
             2
 40
15.0
 49
10.0
 74
             0
 49
-5.0
 74
             0
  0
LTYPE
  5
21
100
AcDbSymbolTableRecord
100
AcDbLinetypeTableRecord
  2
DASH_CENTER
 70
            64
  3
Dash_Center
 72
            65
 73
             4
 40
14.0
 49
11.0
 74
             0
 49
-1.0
 74
             0
 49
1.0
 74
             0
 49
-1.0
 74
             0
  0
LTYPE
  5
22
100
AcDbSymbolTableRecord
100
AcDbLinetypeTableRecord
  2
PHANTOM
 70
            64
  3
Phantom
 72
            65
 73
             6
 40
13.0
 49
10.0
 74
             0
 49
-1.0
 74
             0
 49
0.0
 74
             0
 49
-1.0
 74
             0
 49
0.0
 74
             0
 49
-1.0
 74
             0
  0
LTYPE
  5
23
100
AcDbSymbolTableRecord
100
AcDbLinetypeTableRecord
  2
CENTER_DASH_DASH
 70
            64
  3
Center_Dash_Dash
 72
            65
 73
             6
 40
14.0
 49
9.0
 74
             0
 49
-1.0
 74
             0
 49
1.0
 74
             0
 49
-1.0
 74
             0
 49
1.0
 74
             0
 49
-1.0
 74
             0
  0
LTYPE
  5
24
100
AcDbSymbolTableRecord
100
AcDbLinetypeTableRecord
  2
DASHDOT
 70
            64
  3
DASHDOT
 72
            65
 73
             4
 40
16.0
 49
10.0
 74
             0
 49
-3.0
 74
             0
 49
0.0
 74
             0
 49
-3.0
 74
             0
  0
ENDTAB
  0
TABLE
  2
LAYER
  5
2
100
AcDbSymbolTable
 70
             7
  0
LAYER
  5
14
100
AcDbSymbolTableRecord
100
AcDbLayerTableRecord
  2
0
 70
             0
 62
             7
  6
CONTINUOUS
  0
LAYER
  5
25
100
AcDbSymbolTableRecord
100
AcDbLayerTableRecord
  2
1
 70
             0
 62
             7
  6
CONTINUOUS
  0
LAYER
  5
26
100
AcDbSymbolTableRecord
100
AcDbLayerTableRecord
  2
LC-002-002-----0
 70
             0
 62
             7
  6
CONTINUOUS
  0
LAYER
  5
27
100
AcDbSymbolTableRecord
100
AcDbLayerTableRecord
  2
LC-003-002-----0
 70
             0
 62
             7
  6
CONTINUOUS
  0
LAYER
  5
28
100
AcDbSymbolTableRecord
100
AcDbLayerTableRecord
  2
LC-003-002-RND-0
 70
             0
 62
             7
  6
CONTINUOUS
  0
LAYER
  5
29
100
AcDbSymbolTableRecord
100
AcDbLayerTableRecord
  2
LC-004-002-RND-0
 70
             0
 62
             7
  6
CONTINUOUS
  0
LAYER
  5
2A
100
AcDbSymbolTableRecord
100
AcDbLayerTableRecord
  2
LC-009-002-RND-0
 70
             0
 62
             7
  6
CONTINUOUS
  0
ENDTAB
  0
TABLE
  2
STYLE
  5
3
100
AcDbSymbolTable
 70
             2
  0
STYLE
  5
17
100
AcDbSymbolTableRecord
100
AcDbTextStyleTableRecord
  2
STANDARD
 70
             0
 40
0.0
 41
1.0
 50
0.0
 71
             0
 42
0.0
  3
txt
  4

  0
STYLE
  5
19A
100
AcDbSymbolTableRecord
100
AcDbTextStyleTableRecord
  2
CONVERTER_1
 70
             0
 40
0.0
 41
0.9
 50
0.0
 71
             0
 42
0.0
  3
txt.shx
  4

  0
ENDTAB
  0
TABLE
  2
VIEW
  5
5
100
AcDbSymbolTable
 70
             0
  0
ENDTAB
  0
TABLE
  2
UCS
  5
6
100
AcDbSymbolTable
 70
             0
  0
ENDTAB
  0
TABLE
  2
APPID
  5
8
100
AcDbSymbolTable
 70
             1
  0
APPID
  5
16
100
AcDbSymbolTableRecord
100
AcDbRegAppTableRecord
  2
ACAD
 70
             0
  0
ENDTAB
  0
TABLE
  2
DIMSTYLE
  5
9
100
AcDbSymbolTable
 70
             7
  0
DIMSTYLE
105
18
100
AcDbSymbolTableRecord
100
AcDbDimStyleTableRecord
  2
STANDARD
 70
             0
  3

  4

  5

  6

  7

 40
1.0
 41
0.18
 42
0.0625
 43
0.38
 44
0.18
 45
0.0
 46
0.0
 47
0.0
 48
0.0
 71
             0
 72
             0
 73
             1
 74
             1
 75
             0
 76
             0
 77
             0
 78
             0
140
0.18
141
0.09
142
0.0
143
25.4
144
1.0
145
0.0
146
1.0
147
0.09
170
             0
171
             2
172
             0
173
             0
174
             0
175
             0
176
             0
177
             0
178
             0
270
             2
271
             4
272
             4
273
             2
274
             2
275
             0
280
             0
281
             0
282
             0
283
             1
284
             0
285
             0
286
             0
287
             3
288
             0
340
17
  0
DIMSTYLE
105
19D
100
AcDbSymbolTableRecord
100
AcDbDimStyleTableRecord
  2
ME10_DIM_0
 70
             0
  3
DN<>
  4

  5

  6

  7

 40
1.0
 41
10.0
 42
0.0
 43
0.38
 44
2.0
 45
0.0
 46
0.0
 47
0.0
 48
0.0
 71
             0
 72
             0
 73
             0
 74
             0
 75
             0
 76
             0
 77
             1
 78
             8
140
10.0
141
0.09
142
0.0
143
25.4
144
1.0
145
0.0
146
1.0
147
0.625
170
             0
171
             2
172
             1
173
             1
174
             0
175
             0
176
             4
177
             4
178
             1
270
             2
271
             2
272
             4
273
             2
274
             2
275
             0
280
             0
281
             0
282
             0
283
             1
284
             0
285
             0
286
             0
287
             3
288
             0
340
19A
  0
DIMSTYLE
105
1A8
100
AcDbSymbolTableRecord
100
AcDbDimStyleTableRecord
  2
ME10_DIM_1
 70
             0
  3
DN<>
  4

  5

  6

  7

 40
1.0
 41
10.0
 42
0.0
 43
0.38
 44
2.0
 45
0.0
 46
0.0
 47
0.0
 48
0.0
 71
             0
 72
             0
 73
             0
 74
             0
 75
             0
 76
             0
 77
             1
 78
             8
140
10.0
141
0.09
142
0.0
143
25.4
144
1.0
145
0.0
146
1.0
147
0.625
170
             0
171
             2
172
             1
173
             1
174
             0
175
             0
176
             4
177
             4
178
             1
270
             2
271
             2
272
             4
273
             2
274
             2
275
             0
280
             0
281
             0
282
             0
283
             1
284
             0
285
             0
286
             0
287
             3
288
             0
340
19A
  0
DIMSTYLE
105
1B3
100
AcDbSymbolTableRecord
100
AcDbDimStyleTableRecord
  2
ME10_DIM_2
 70
             0
  3
Ø<>
  4

  5

  6

  7

 40
1.0
 41
10.0
 42
0.0
 43
0.38
 44
2.0
 45
0.0
 46
0.0
 47
0.0
 48
0.0
 71
             0
 72
             0
 73
             0
 74
             0
 75
             0
 76
             0
 77
             1
 78
             8
140
10.0
141
0.09
142
0.0
143
25.4
144
1.0
145
0.0
146
1.0
147
0.625
170
             0
171
             2
172
             1
173
             1
174
             0
175
             0
176
             4
177
             4
178
             1
270
             2
271
             2
272
             4
273
             2
274
             2
275
             0
280
             0
281
             0
282
             0
283
             1
284
             0
285
             0
286
             0
287
             3
288
             0
340
19A
  0
DIMSTYLE
105
1BE
100
AcDbSymbolTableRecord
100
AcDbDimStyleTableRecord
  2
ME10_DIM_3
 70
             0
  3
150x<>
  4

  5

  6

  7

 40
1.0
 41
10.0
 42
0.0
 43
0.38
 44
2.0
 45
0.0
 46
0.0
 47
0.0
 48
0.0
 71
             0
 72
             0
 73
             0
 74
             0
 75
             0
 76
             0
 77
             1
 78
             8
140
10.0
141
0.09
142
0.0
143
25.4
144
1.0
145
0.0
146
1.0
147
0.625
170
             0
171
             2
172
             1
173
             1
174
             0
175
             0
176
             4
177
             4
178
             1
270
             2
271
             2
272
             4
273
             2
274
             2
275
             0
280
             0
281
             0
282
             0
283
             1
284
             0
285
             0
286
             0
287
             3
288
             0
340
19A
  0
DIMSTYLE
105
1C9
100
AcDbSymbolTableRecord
100
AcDbDimStyleTableRecord
  2
ME10_DIM_4
 70
             0
  3
20-<>
  4

  5

  6

  7

 40
1.0
 41
10.0
 42
0.0
 43
0.38
 44
2.0
 45
0.0
 46
0.0
 47
0.0
 48
0.0
 71
             0
 72
             0
 73
             0
 74
             0
 75
             0
 76
             0
 77
             1
 78
             8
140
10.0
141
0.09
142
0.0
143
25.4
144
1.0
145
0.0
146
1.0
147
0.625
170
             0
171
             2
172
             1
173
             1
174
             0
175
             0
176
             4
177
             4
178
             1
270
             2
271
             2
272
             4
273
             2
274
             2
275
             0
280
             0
281
             0
282
             0
283
             1
284
             0
285
             0
286
             0
287
             3
288
             0
340
19A
  0
DIMSTYLE
105
1D4
100
AcDbSymbolTableRecord
100
AcDbDimStyleTableRecord
  2
ME10_DIM_5
 70
             0
  3

  4

  5

  6

  7

 40
1.0
 41
10.0
 42
0.0
 43
0.38
 44
2.0
 45
0.0
 46
0.0
 47
0.0
 48
0.0
 71
             0
 72
             0
 73
             0
 74
             0
 75
             0
 76
             0
 77
             1
 78
             8
140
10.0
141
0.09
142
0.0
143
25.4
144
1.0
145
0.0
146
1.0
147
0.625
170
             0
171
             2
172
             1
173
             1
174
             0
175
             0
176
             4
177
             4
178
             1
270
             2
271
             0
272
             4
273
             2
274
             2
275
             0
280
             0
281
             0
282
             0
283
             1
284
             0
285
             0
286
             0
287
             3
288
             0
340
19A
  0
ENDTAB
  0
TABLE
  2
BLOCK_RECORD
  5
1
100
AcDbSymbolTable
 70
            16
  0
BLOCK_RECORD
  5
A
100
AcDbSymbolTableRecord
100
AcDbBlockTableRecord
  2
*MODEL_SPACE
  0
BLOCK_RECORD
  5
B
100
AcDbSymbolTableRecord
100
AcDbBlockTableRecord
  2
*PAPER_SPACE
  0
BLOCK_RECORD
  5
2B
100
AcDbSymbolTableRecord
100
AcDbBlockTableRecord
  2
0317_4E_REDUKTION
  0
BLOCK_RECORD
  5
2D
100
AcDbSymbolTableRecord
100
AcDbBlockTableRecord
  2
HL_64_1_FLACHDACHABLAUF__1
  0
BLOCK_RECORD
  5
30
100
AcDbSymbolTableRecord
100
AcDbBlockTableRecord
  2
HL_64_1_FLACHDACHABLAUF__2
  0
BLOCK_RECORD
  5
33
100
AcDbSymbolTableRecord
100
AcDbBlockTableRecord
  2
HL_64_FLACHDACHABLAUF__3
  0
BLOCK_RECORD
  5
36
100
AcDbSymbolTableRecord
100
AcDbBlockTableRecord
  2
HL_72_KELLERABLAUF_DN10__4
  0
BLOCK_RECORD
  5
38
100
AcDbSymbolTableRecord
100
AcDbBlockTableRecord
  2
HL_64_1B_FLACHDACHABLAUF
  0
BLOCK_RECORD
  5
3A
100
AcDbSymbolTableRecord
100
AcDbBlockTableRecord
  2
HL_64_FLACHDACHABLAUF__5
  0
BLOCK_RECORD
  5
3D
100
AcDbSymbolTableRecord
100
AcDbBlockTableRecord
  2
HL_64_1B_FLACHDACHABLA0__6
  0
BLOCK_RECORD
  5
41
100
AcDbSymbolTableRecord
100
AcDbBlockTableRecord
  2
HL_64B_FLACHDACHABLAUF
  0
BLOCK_RECORD
  5
45
100
AcDbSymbolTableRecord
100
AcDbBlockTableRecord
  2
HL_72_KELLERABLAUF_DN10__7
  0
BLOCK_RECORD
  5
193
100
AcDbSymbolTableRecord
100
AcDbBlockTableRecord
  2
*D10
  0
BLOCK_RECORD
  5
19F
100
AcDbSymbolTableRecord
100
AcDbBlockTableRecord
  2
*D11
  0
BLOCK_RECORD
  5
1AA
100
AcDbSymbolTableRecord
100
AcDbBlockTableRecord
  2
*D12
  0
BLOCK_RECORD
  5
1B5
100
AcDbSymbolTableRecord
100
AcDbBlockTableRecord
  2
*D13
  0
BLOCK_RECORD
  5
1C0
100
AcDbSymbolTableRecord
100
AcDbBlockTableRecord
  2
*D14
  0
BLOCK_RECORD
  5
1CB
100
AcDbSymbolTableRecord
100
AcDbBlockTableRecord
  2
*D15
  0
ENDTAB
  0
ENDSEC
  0
SECTION
  2
BLOCKS
  0
BLOCK
  5
D
100
AcDbEntity
  8
0
100
AcDbBlockBegin
  2
*MODEL_SPACE
 70
             0
 10
0.0
 20
0.0
 30
0.0
  3
*MODEL_SPACE
  1

  0
ENDBLK
  5
E
100
AcDbEntity
  8
0
100
AcDbBlockEnd
  0
BLOCK
  5
F
100
AcDbEntity
 67
             1
  8
0
100
AcDbBlockBegin
  2
*PAPER_SPACE
 70
             0
 10
0.0
 20
0.0
 30
0.0
  3
*PAPER_SPACE
  1

  0
ENDBLK
  5
10
100
AcDbEntity
 67
             1
  8
0
100
AcDbBlockEnd
  0
BLOCK
  5
2C
100
AcDbEntity
  8
0
100
AcDbBlockBegin
  2
0317_4E_REDUKTION
 70
             0
 10
201.55119946718679
 20
412.8318779060711
 30
0.0
  3
0317_4E_REDUKTION
  1

  0
ARC
  5
62
100
AcDbEntity
  8
LC-003-002-RND-0
  6
CONTINUOUS
 62
             7
100
AcDbCircle
 10
211.1614864671869
 20
-213.8035461500063
 40
4.99999999999977
100
AcDbArc
 50
-138.00000000000347
 51
-93.00000000000426
  0
ARC
  5
61
100
AcDbEntity
  8
LC-003-002-RND-0
  6
CONTINUOUS
 62
             7
100
AcDbCircle
 10
226.57633346718691
 20
-128.49338215000611
 40
1.99999999999977
100
AcDbArc
 50
86.9999999999965
 51
176.99999999999906
  0
ARC
  5
60
100
AcDbEntity
  8
LC-003-002-RND-0
  6
CONTINUOUS
 62
             7
100
AcDbCircle
 10
215.24369046718689
 20
-135.91044215000619
 40
5.00000000000014
100
AcDbArc
 50
86.99999999999807
 51
131.99999999999815
  0
ARC
  5
5F
100
AcDbEntity
  8
LC-003-002-RND-0
  6
CONTINUOUS
 62
             7
100
AcDbCircle
 10
221.0287214671869
 20
-234.34811215000619
 40
1.99999999999993
100
AcDbArc
 50
177.00000000000244
 51
-93.00000000000303
  0
LINE
  5
5E
100
AcDbEntity
  8
1
  6
CONTINUOUS
 62
             7
100
AcDbLine
 10
205.04640246718699
 20
-214.48444015000621
 11
209.23327946718689
 21
-134.59407715000609
  0
LINE
  5
5D
100
AcDbEntity
  8
1
  6
CONTINUOUS
 62
             7
100
AcDbLine
 10
288.83085846718689
 20
-239.90421715000619
 11
294.58781346718678
 21
-130.0549681500062
  0
LINE
  5
5C
100
AcDbEntity
  8
1
  6
CONTINUOUS
 62
             7
100
AcDbLine
 10
219.8165014671869
 20
-219.26399815000619
 11
224.42206646718691
 21
-131.3845981500061
  0
LINE
  5
5B
100
AcDbEntity
  8
1
  6
CONTINUOUS
 62
             7
100
AcDbLine
 10
226.68100537967291
 20
-126.4961230804972
 11
294.58781346718678
 21
-130.0549681500062
  0
LINE
  5
5A
100
AcDbEntity
  8
LC-002-002-----0
  6
CONTINUOUS
 62
             7
100
AcDbLine
 10
205.73807546718689
 20
-134.41090115000611
 11
205.63340346718689
 21
-136.4081601500063
  0
LINE
  5
59
100
AcDbEntity
  8
LC-002-002-----0
  6
CONTINUOUS
 62
             7
100
AcDbLine
 10
205.73807546718689
 20
-134.41090115000611
 11
209.23327946718689
 21
-134.59407715000609
  0
LINE
  5
58
100
AcDbEntity
  8
LC-002-002-----0
  6
CONTINUOUS
 62
             7
100
AcDbLine
 10
209.23327946718689
 20
-134.59407715000609
 11
211.8980374671869
 21
-132.1947181500062
  0
LINE
  5
57
100
AcDbEntity
  8
LC-002-002-----0
  6
CONTINUOUS
 62
             7
100
AcDbLine
 10
201.6558714671869
 20
-212.30400515000619
 11
201.55119946718679
 21
-214.30126415000629
  0
LINE
  5
56
100
AcDbEntity
  8
LC-002-002-----0
  6
CONTINUOUS
 62
             7
100
AcDbLine
 10
219.03146246718691
 20
-234.24344115000619
 11
219.8165014671869
 21
-219.26399815000619
  0
LINE
  5
55
100
AcDbEntity
  8
LC-002-002-----0
  6
CONTINUOUS
 62
             7
100
AcDbLine
 10
210.89980646718689
 20
-218.79669315000621
 11
219.8165014671869
 21
-219.26399815000619
  0
LINE
  5
54
100
AcDbEntity
  8
LC-002-002-----0
  6
CONTINUOUS
 62
             7
100
AcDbLine
 10
205.04640246718699
 20
-214.48444015000621
 11
207.44576246718691
 21
-217.14919915000621
  0
LINE
  5
53
100
AcDbEntity
  8
LC-002-002-----0
  6
CONTINUOUS
 62
             7
100
AcDbLine
 10
201.55119946718679
 20
-214.30126415000629
 11
205.04640246718699
 21
-214.48444015000621
  0
LINE
  5
52
100
AcDbEntity
  8
LC-002-002-----0
  6
CONTINUOUS
 62
             7
100
AcDbLine
 10
300.52422146718698
 20
-131.4254951500063
 11
297.49176946718688
 21
-189.28812615000621
  0
LINE
  5
51
100
AcDbEntity
  8
LC-002-002-----0
  6
CONTINUOUS
 62
             7
100
AcDbLine
 10
294.87800446718688
 20
-239.16172015000629
 11
297.49176946718688
 21
-189.28812615000621
  0
LINE
  5
50
100
AcDbEntity
  8
LC-002-002-----0
  6
CONTINUOUS
 62
             7
100
AcDbLine
 10
224.57907346718679
 20
-128.3887101500062
 11
224.42206646718691
 21
-131.3845981500061
  0
LINE
  5
4F
100
AcDbEntity
  8
LC-002-002-----0
  6
CONTINUOUS
 62
             7
100
AcDbLine
 10
215.50537046718691
 20
-130.9172941500062
 11
224.42206646718691
 21
-131.3845981500061
  0
LINE
  5
4E
100
AcDbEntity
  8
LC-002-002-----0
  6
CONTINUOUS
 62
             7
100
AcDbLine
 10
294.58781346718678
 20
-130.0549681500062
 11
300.52422146718698
 21
-131.4254951500063
  0
LINE
  5
4D
100
AcDbEntity
  8
LC-002-002-----0
  6
CONTINUOUS
 62
             7
100
AcDbLine
 10
220.9240494671869
 20
-236.3453721500062
 11
288.83085846718689
 21
-239.90421715000619
  0
LINE
  5
4C
100
AcDbEntity
  8
LC-002-002-----0
  6
CONTINUOUS
 62
             7
100
AcDbLine
 10
288.83085846718689
 20
-239.90421715000619
 11
294.87800446718688
 21
-239.16172015000629
  0
LINE
  5
4B
100
AcDbEntity
  8
1
  6
CONTINUOUS
 62
             7
100
AcDbLine
 10
201.6558714671869
 20
-212.30400515000619
 11
205.63340346718689
 21
-136.4081601500063
  0
ENDBLK
  5
63
100
AcDbEntity
  8
0
100
AcDbBlockEnd
  0
BLOCK
  5
2E
100
AcDbEntity
  8
0
100
AcDbBlockBegin
  2
HL_64_1_FLACHDACHABLAUF__1
 70
             0
 10
266.43233096746332
 20
177.62409503319839
 30
0.0
  3
HL_64_1_FLACHDACHABLAUF__1
  1

  0
INSERT
  5
2F
100
AcDbEntity
  8
1
100
AcDbBlockReference
  2
0317_4E_REDUKTION
 10
201.55119946718679
 20
412.8318779060711
  0
ENDBLK
  5
64
100
AcDbEntity
  8
0
100
AcDbBlockEnd
  0
BLOCK
  5
31
100
AcDbEntity
  8
0
100
AcDbBlockBegin
  2
HL_64_1_FLACHDACHABLAUF__2
 70
             0
 10
0.0
 20
250.43357460433111
 30
0.0
  3
HL_64_1_FLACHDACHABLAUF__2
  1

  0
INSERT
  5
32
100
AcDbEntity
  8
0
100
AcDbBlockReference
  2
HL_64_1_FLACHDACHABLAUF__1
 10
266.43233096746332
 20
177.62409503319839
  0
ENDBLK
  5
65
100
AcDbEntity
  8
0
100
AcDbBlockEnd
  0
BLOCK
  5
34
100
AcDbEntity
  8
0
100
AcDbBlockBegin
  2
HL_64_FLACHDACHABLAUF__3
 70
             0
 10
0.0
 20
250.43357460433111
 30
0.0
  3
HL_64_FLACHDACHABLAUF__3
  1

  0
INSERT
  5
35
100
AcDbEntity
  8
0
100
AcDbBlockReference
  2
HL_64_1_FLACHDACHABLAUF__2
 10
0.0
 20
250.43357460433111
  0
ENDBLK
  5
66
100
AcDbEntity
  8
0
100
AcDbBlockEnd
  0
BLOCK
  5
37
100
AcDbEntity
  8
0
100
AcDbBlockBegin
  2
HL_72_KELLERABLAUF_DN10__4
 70
             0
 10
327.74656547451491
 20
594.03912991213463
 30
0.0
  3
HL_72_KELLERABLAUF_DN10__4
  1

  0
ARC
  5
10F
100
AcDbEntity
  8
LC-003-002-----0
  6
CONTINUOUS
 62
             7
100
AcDbCircle
 10
72.00000000000011
 20
-68.25
 40
1.25
100
AcDbArc
 50
90.0
 51
168.45083813282332
  0
ARC
  5
10E
100
AcDbEntity
  8
LC-009-002-RND-0
  6
CONTINUOUS
 62
             7
100
AcDbCircle
 10
72.00000000000011
 20
-66.5
 40
0.5
100
AcDbArc
 50
-90.0
 51
0.0
  0
ARC
  5
10D
100
AcDbEntity
  8
LC-003-002-----0
  6
CONTINUOUS
 62
             7
100
AcDbCircle
 10
-72.00000000000011
 20
-68.25
 40
1.25000000000006
100
AcDbArc
 50
11.52473711638092
 51
90.0
  0
ARC
  5
10C
100
AcDbEntity
  8
LC-009-002-RND-0
  6
CONTINUOUS
 62
             7
100
AcDbCircle
 10
-72.00000000000011
 20
-66.5
 40
0.5
100
AcDbArc
 50
180.0
 51
-90.0
  0
ARC
  5
10B
100
AcDbEntity
  8
LC-003-002-----0
  6
CONTINUOUS
 62
             7
100
AcDbCircle
 10
-72.0
 20
-63.75
 40
1.25
100
AcDbArc
 50
-90.0
 51
90.0
  0
ARC
  5
10A
100
AcDbEntity
  8
LC-003-002-----0
  6
CONTINUOUS
 62
             7
100
AcDbCircle
 10
-72.0
 20
-59.25
 40
1.25
100
AcDbArc
 50
-90.0
 51
90.0
  0
ARC
  5
109
100
AcDbEntity
  8
LC-003-002-----0
  6
CONTINUOUS
 62
             7
100
AcDbCircle
 10
-72.0
 20
-54.75
 40
1.25
100
AcDbArc
 50
-90.0
 51
90.0
  0
ARC
  5
108
100
AcDbEntity
  8
LC-003-002-----0
  6
CONTINUOUS
 62
             7
100
AcDbCircle
 10
-72.0
 20
-50.25
 40
1.25
100
AcDbArc
 50
-90.0
 51
90.0
  0
ARC
  5
107
100
AcDbEntity
  8
LC-003-002-----0
  6
CONTINUOUS
 62
             7
100
AcDbCircle
 10
-72.0
 20
-45.75
 40
1.25
100
AcDbArc
 50
-90.0
 51
90.0
  0
ARC
  5
106
100
AcDbEntity
  8
LC-003-002-----0
  6
CONTINUOUS
 62
             7
100
AcDbCircle
 10
-72.0
 20
-41.25
 40
1.25
100
AcDbArc
 50
-90.0
 51
90.0
  0
ARC
  5
105
100
AcDbEntity
  8
LC-003-002-----0
  6
CONTINUOUS
 62
             7
100
AcDbCircle
 10
-72.0
 20
-36.75
 40
1.25
100
AcDbArc
 50
-90.0
 51
90.0
  0
ARC
  5
104
100
AcDbEntity
  8
LC-003-002-----0
  6
CONTINUOUS
 62
             7
100
AcDbCircle
 10
-72.0
 20
-32.25
 40
1.25
100
AcDbArc
 50
-90.0
 51
90.0
  0
ARC
  5
103
100
AcDbEntity
  8
LC-003-002-----0
  6
CONTINUOUS
 62
             7
100
AcDbCircle
 10
-72.0
 20
-27.75
 40
1.25
100
AcDbArc
 50
-90.0
 51
90.0
  0
ARC
  5
102
100
AcDbEntity
  8
LC-003-002-----0
  6
CONTINUOUS
 62
             7
100
AcDbCircle
 10
-72.0
 20
-23.25
 40
1.25
100
AcDbArc
 50
-90.0
 51
90.0
  0
ARC
  5
101
100
AcDbEntity
  8
LC-009-002-RND-0
  6
CONTINUOUS
 62
             7
100
AcDbCircle
 10
-72.0
 20
-65.5
 40
0.5
100
AcDbArc
 50
90.0
 51
180.0
  0
ARC
  5
100
100
AcDbEntity
  8
LC-009-002-RND-0
  6
CONTINUOUS
 62
             7
100
AcDbCircle
 10
-72.0
 20
-61.0
 40
0.5
100
AcDbArc
 50
90.0
 51
180.0
  0
ARC
  5
FF
100
AcDbEntity
  8
LC-009-002-RND-0
  6
CONTINUOUS
 62
             7
100
AcDbCircle
 10
-72.0
 20
-56.5
 40
0.5
100
AcDbArc
 50
90.0
 51
180.0
  0
ARC
  5
FE
100
AcDbEntity
  8
LC-009-002-RND-0
  6
CONTINUOUS
 62
             7
100
AcDbCircle
 10
-72.0
 20
-52.0
 40
0.5
100
AcDbArc
 50
90.0
 51
180.0
  0
ARC
  5
FD
100
AcDbEntity
  8
LC-009-002-RND-0
  6
CONTINUOUS
 62
             7
100
AcDbCircle
 10
-72.0
 20
-47.5
 40
0.5
100
AcDbArc
 50
90.0
 51
180.0
  0
ARC
  5
FC
100
AcDbEntity
  8
LC-009-002-RND-0
  6
CONTINUOUS
 62
             7
100
AcDbCircle
 10
-72.0
 20
-43.0
 40
0.5
100
AcDbArc
 50
90.0
 51
180.0
  0
ARC
  5
FB
100
AcDbEntity
  8
LC-009-002-RND-0
  6
CONTINUOUS
 62
             7
100
AcDbCircle
 10
-72.0
 20
-38.5
 40
0.5
100
AcDbArc
 50
90.0
 51
180.0
  0
ARC
  5
FA
100
AcDbEntity
  8
LC-009-002-RND-0
  6
CONTINUOUS
 62
             7
100
AcDbCircle
 10
-72.0
 20
-34.0
 40
0.5
100
AcDbArc
 50
90.0
 51
180.0
  0
ARC
  5
F9
100
AcDbEntity
  8
LC-009-002-RND-0
  6
CONTINUOUS
 62
             7
100
AcDbCircle
 10
-72.0
 20
-29.5
 40
0.5
100
AcDbArc
 50
90.0
 51
180.0
  0
ARC
  5
F8
100
AcDbEntity
  8
LC-009-002-RND-0
  6
CONTINUOUS
 62
             7
100
AcDbCircle
 10
-72.0
 20
-25.0
 40
0.5
100
AcDbArc
 50
90.0
 51
180.0
  0
ARC
  5
F7
100
AcDbEntity
  8
LC-009-002-RND-0
  6
CONTINUOUS
 62
             7
100
AcDbCircle
 10
-72.0
 20
-21.5
 40
0.5
100
AcDbArc
 50
180.0
 51
-90.0
  0
ARC
  5
F6
100
AcDbEntity
  8
LC-009-002-RND-0
  6
CONTINUOUS
 62
             7
100
AcDbCircle
 10
-72.0
 20
-26.0
 40
0.5
100
AcDbArc
 50
180.0
 51
-90.0
  0
ARC
  5
F5
100
AcDbEntity
  8
LC-009-002-RND-0
  6
CONTINUOUS
 62
             7
100
AcDbCircle
 10
-72.0
 20
-30.5
 40
0.5
100
AcDbArc
 50
180.0
 51
-90.0
  0
ARC
  5
F4
100
AcDbEntity
  8
LC-009-002-RND-0
  6
CONTINUOUS
 62
             7
100
AcDbCircle
 10
-72.0
 20
-35.0
 40
0.5
100
AcDbArc
 50
180.0
 51
-90.0
  0
ARC
  5
F3
100
AcDbEntity
  8
LC-009-002-RND-0
  6
CONTINUOUS
 62
             7
100
AcDbCircle
 10
-72.0
 20
-39.5
 40
0.5
100
AcDbArc
 50
180.0
 51
-90.0
  0
ARC
  5
F2
100
AcDbEntity
  8
LC-009-002-RND-0
  6
CONTINUOUS
 62
             7
100
AcDbCircle
 10
-72.0
 20
-44.0
 40
0.5
100
AcDbArc
 50
180.0
 51
-90.0
  0
ARC
  5
F1
100
AcDbEntity
  8
LC-009-002-RND-0
  6
CONTINUOUS
 62
             7
100
AcDbCircle
 10
-72.0
 20
-48.5
 40
0.5
100
AcDbArc
 50
180.0
 51
-90.0
  0
ARC
  5
F0
100
AcDbEntity
  8
LC-009-002-RND-0
  6
CONTINUOUS
 62
             7
100
AcDbCircle
 10
-72.0
 20
-57.5
 40
0.5
100
AcDbArc
 50
180.0
 51
-90.0
  0
ARC
  5
EF
100
AcDbEntity
  8
LC-009-002-RND-0
  6
CONTINUOUS
 62
             7
100
AcDbCircle
 10
-72.0
 20
-53.0
 40
0.5
100
AcDbArc
 50
180.0
 51
-90.0
  0
ARC
  5
EE
100
AcDbEntity
  8
LC-009-002-RND-0
  6
CONTINUOUS
 62
             7
100
AcDbCircle
 10
-72.0
 20
-62.0
 40
0.5
100
AcDbArc
 50
180.0
 51
-90.0
  0
ARC
  5
ED
100
AcDbEntity
  8
LC-003-002-----0
  6
CONTINUOUS
 62
             7
100
AcDbCircle
 10
72.00000000000011
 20
-63.75
 40
1.25
100
AcDbArc
 50
90.0
 51
-90.0
  0
ARC
  5
EC
100
AcDbEntity
  8
LC-003-002-----0
  6
CONTINUOUS
 62
             7
100
AcDbCircle
 10
72.00000000000011
 20
-59.25
 40
1.25
100
AcDbArc
 50
90.0
 51
-90.0
  0
ARC
  5
EB
100
AcDbEntity
  8
LC-003-002-----0
  6
CONTINUOUS
 62
             7
100
AcDbCircle
 10
72.00000000000011
 20
-54.75
 40
1.25
100
AcDbArc
 50
90.0
 51
-90.0
  0
ARC
  5
EA
100
AcDbEntity
  8
LC-003-002-----0
  6
CONTINUOUS
 62
             7
100
AcDbCircle
 10
72.00000000000011
 20
-50.25
 40
1.25
100
AcDbArc
 50
90.0
 51
-90.0
  0
ARC
  5
E9
100
AcDbEntity
  8
LC-003-002-----0
  6
CONTINUOUS
 62
             7
100
AcDbCircle
 10
72.00000000000011
 20
-45.75
 40
1.25
100
AcDbArc
 50
90.0
 51
-90.0
  0
ARC
  5
E8
100
AcDbEntity
  8
LC-003-002-----0
  6
CONTINUOUS
 62
             7
100
AcDbCircle
 10
72.00000000000011
 20
-41.25
 40
1.25
100
AcDbArc
 50
90.0
 51
-90.0
  0
ARC
  5
E7
100
AcDbEntity
  8
LC-003-002-----0
  6
CONTINUOUS
 62
             7
100
AcDbCircle
 10
72.00000000000011
 20
-36.75
 40
1.25
100
AcDbArc
 50
90.0
 51
-90.0
  0
ARC
  5
E6
100
AcDbEntity
  8
LC-003-002-----0
  6
CONTINUOUS
 62
             7
100
AcDbCircle
 10
72.00000000000011
 20
-32.25
 40
1.25
100
AcDbArc
 50
90.0
 51
-90.0
  0
ARC
  5
E5
100
AcDbEntity
  8
LC-003-002-----0
  6
CONTINUOUS
 62
             7
100
AcDbCircle
 10
72.00000000000011
 20
-27.75
 40
1.25
100
AcDbArc
 50
90.0
 51
-90.0
  0
ARC
  5
E4
100
AcDbEntity
  8
LC-003-002-----0
  6
CONTINUOUS
 62
             7
100
AcDbCircle
 10
72.00000000000011
 20
-23.25
 40
1.25
100
AcDbArc
 50
90.0
 51
-90.0
  0
ARC
  5
E3
100
AcDbEntity
  8
LC-009-002-RND-0
  6
CONTINUOUS
 62
             7
100
AcDbCircle
 10
72.00000000000011
 20
-65.5
 40
0.5
100
AcDbArc
 50
0.0
 51
90.0
  0
ARC
  5
E2
100
AcDbEntity
  8
LC-009-002-RND-0
  6
CONTINUOUS
 62
             7
100
AcDbCircle
 10
72.00000000000011
 20
-61.0
 40
0.5
100
AcDbArc
 50
0.0
 51
90.0
  0
ARC
  5
E1
100
AcDbEntity
  8
LC-009-002-RND-0
  6
CONTINUOUS
 62
             7
100
AcDbCircle
 10
72.00000000000011
 20
-56.5
 40
0.5
100
AcDbArc
 50
0.0
 51
90.0
  0
ARC
  5
E0
100
AcDbEntity
  8
LC-009-002-RND-0
  6
CONTINUOUS
 62
             7
100
AcDbCircle
 10
72.00000000000011
 20
-52.0
 40
0.5
100
AcDbArc
 50
0.0
 51
90.0
  0
ARC
  5
DF
100
AcDbEntity
  8
LC-009-002-RND-0
  6
CONTINUOUS
 62
             7
100
AcDbCircle
 10
72.00000000000011
 20
-47.5
 40
0.5
100
AcDbArc
 50
0.0
 51
90.0
  0
ARC
  5
DE
100
AcDbEntity
  8
LC-009-002-RND-0
  6
CONTINUOUS
 62
             7
100
AcDbCircle
 10
72.00000000000011
 20
-43.0
 40
0.5
100
AcDbArc
 50
0.0
 51
90.0
  0
ARC
  5
DD
100
AcDbEntity
  8
LC-009-002-RND-0
  6
CONTINUOUS
 62
             7
100
AcDbCircle
 10
72.00000000000011
 20
-38.5
 40
0.5
100
AcDbArc
 50
0.0
 51
90.0
  0
ARC
  5
DC
100
AcDbEntity
  8
LC-009-002-RND-0
  6
CONTINUOUS
 62
             7
100
AcDbCircle
 10
72.00000000000011
 20
-34.0
 40
0.5
100
AcDbArc
 50
0.0
 51
90.0
  0
ARC
  5
DB
100
AcDbEntity
  8
LC-009-002-RND-0
  6
CONTINUOUS
 62
             7
100
AcDbCircle
 10
72.00000000000011
 20
-29.5
 40
0.5
100
AcDbArc
 50
0.0
 51
90.0
  0
ARC
  5
DA
100
AcDbEntity
  8
LC-009-002-RND-0
  6
CONTINUOUS
 62
             7
100
AcDbCircle
 10
72.00000000000011
 20
-25.0
 40
0.5
100
AcDbArc
 50
0.0
 51
90.0
  0
ARC
  5
D9
100
AcDbEntity
  8
LC-009-002-RND-0
  6
CONTINUOUS
 62
             7
100
AcDbCircle
 10
72.00000000000011
 20
-21.5
 40
0.5
100
AcDbArc
 50
-90.0
 51
0.0
  0
ARC
  5
D8
100
AcDbEntity
  8
LC-009-002-RND-0
  6
CONTINUOUS
 62
             7
100
AcDbCircle
 10
72.00000000000011
 20
-26.0
 40
0.5
100
AcDbArc
 50
-90.0
 51
0.0
  0
ARC
  5
D7
100
AcDbEntity
  8
LC-009-002-RND-0
  6
CONTINUOUS
 62
             7
100
AcDbCircle
 10
72.00000000000011
 20
-30.5
 40
0.5
100
AcDbArc
 50
-90.0
 51
0.0
  0
ARC
  5
D6
100
AcDbEntity
  8
LC-009-002-RND-0
  6
CONTINUOUS
 62
             7
100
AcDbCircle
 10
72.00000000000011
 20
-35.0
 40
0.5
100
AcDbArc
 50
-90.0
 51
0.0
  0
ARC
  5
D5
100
AcDbEntity
  8
LC-009-002-RND-0
  6
CONTINUOUS
 62
             7
100
AcDbCircle
 10
72.00000000000011
 20
-39.5
 40
0.5
100
AcDbArc
 50
-90.0
 51
0.0
  0
ARC
  5
D4
100
AcDbEntity
  8
LC-009-002-RND-0
  6
CONTINUOUS
 62
             7
100
AcDbCircle
 10
72.00000000000011
 20
-44.0
 40
0.5
100
AcDbArc
 50
-90.0
 51
0.0
  0
ARC
  5
D3
100
AcDbEntity
  8
LC-009-002-RND-0
  6
CONTINUOUS
 62
             7
100
AcDbCircle
 10
72.00000000000011
 20
-48.5
 40
0.5
100
AcDbArc
 50
-90.0
 51
0.0
  0
ARC
  5
D2
100
AcDbEntity
  8
LC-009-002-RND-0
  6
CONTINUOUS
 62
             7
100
AcDbCircle
 10
72.00000000000011
 20
-57.5
 40
0.5
100
AcDbArc
 50
-90.0
 51
0.0
  0
ARC
  5
D1
100
AcDbEntity
  8
LC-009-002-RND-0
  6
CONTINUOUS
 62
             7
100
AcDbCircle
 10
72.00000000000011
 20
-53.0
 40
0.5
100
AcDbArc
 50
-90.0
 51
0.0
  0
ARC
  5
D0
100
AcDbEntity
  8
LC-009-002-RND-0
  6
CONTINUOUS
 62
             7
100
AcDbCircle
 10
72.00000000000011
 20
-62.0
 40
0.5
100
AcDbArc
 50
-90.0
 51
0.0
  0
LINE
  5
CF
100
AcDbEntity
  8
LC-003-002-----0
  6
CONTINUOUS
 62
             7
100
AcDbLine
 10
-73.5
 20
0.0
 11
73.50000000000011
 21
0.0
  0
LINE
  5
CE
100
AcDbEntity
  8
1
  6
CONTINUOUS
 62
             7
100
AcDbLine
 10
-72.00000000000011
 20
-67.0
 11
72.00000000000011
 21
-67.0
  0
LINE
  5
CD
100
AcDbEntity
  8
1
  6
CONTINUOUS
 62
             7
100
AcDbLine
 10
-72.50000000000011
 20
-66.5
 11
-72.5
 21
-65.5
  0
LINE
  5
CC
100
AcDbEntity
  8
1
  6
CONTINUOUS
 62
             7
100
AcDbLine
 10
72.50000000000011
 20
-65.5
 11
72.50000000000011
 21
-66.5
  0
LINE
  5
CB
100
AcDbEntity
  8
LC-003-002-----0
  6
CONTINUOUS
 62
             7
100
AcDbLine
 10
72.00000000000011
 20
-67.0
 11
72.00000000000011
 21
-67.0
  0
LINE
  5
CA
100
AcDbEntity
  8
LC-003-002-----0
  6
CONTINUOUS
 62
             7
100
AcDbLine
 10
-72.00000000000011
 20
-67.0
 11
-72.00000000000011
 21
-67.0
  0
LINE
  5
C9
100
AcDbEntity
  8
1
  6
PHANTOM
 62
             2
100
AcDbLine
 10
0.0
 20
0.0
 11
0.0
 21
-65.0
  0
LINE
  5
C8
100
AcDbEntity
  8
1
  6
CONTINUOUS
 62
             7
100
AcDbLine
 10
-72.0
 20
-65.0
 11
72.00000000000011
 21
-65.0
  0
LINE
  5
C7
100
AcDbEntity
  8
1
  6
CONTINUOUS
 62
             7
100
AcDbLine
 10
-72.0
 20
-62.5
 11
72.00000000000011
 21
-62.5
  0
LINE
  5
C6
100
AcDbEntity
  8
1
  6
CONTINUOUS
 62
             7
100
AcDbLine
 10
-72.0
 20
-60.5
 11
72.00000000000011
 21
-60.5
  0
LINE
  5
C5
100
AcDbEntity
  8
1
  6
CONTINUOUS
 62
             7
100
AcDbLine
 10
-72.0
 20
-58.0
 11
72.00000000000011
 21
-58.0
  0
LINE
  5
C4
100
AcDbEntity
  8
1
  6
CONTINUOUS
 62
             7
100
AcDbLine
 10
-72.0
 20
-56.0
 11
72.00000000000011
 21
-56.0
  0
LINE
  5
C3
100
AcDbEntity
  8
1
  6
CONTINUOUS
 62
             7
100
AcDbLine
 10
-72.0
 20
-53.5
 11
72.00000000000011
 21
-53.5
  0
LINE
  5
C2
100
AcDbEntity
  8
1
  6
CONTINUOUS
 62
             7
100
AcDbLine
 10
-72.0
 20
-51.5
 11
72.00000000000011
 21
-51.5
  0
LINE
  5
C1
100
AcDbEntity
  8
1
  6
CONTINUOUS
 62
             7
100
AcDbLine
 10
-72.0
 20
-49.0
 11
72.00000000000011
 21
-49.0
  0
LINE
  5
C0
100
AcDbEntity
  8
1
  6
CONTINUOUS
 62
             7
100
AcDbLine
 10
-72.0
 20
-47.0
 11
72.00000000000011
 21
-47.0
  0
LINE
  5
BF
100
AcDbEntity
  8
1
  6
CONTINUOUS
 62
             7
100
AcDbLine
 10
-72.0
 20
-44.5
 11
72.00000000000011
 21
-44.5
  0
LINE
  5
BE
100
AcDbEntity
  8
1
  6
CONTINUOUS
 62
             7
100
AcDbLine
 10
-72.0
 20
-42.5
 11
72.00000000000011
 21
-42.5
  0
LINE
  5
BD
100
AcDbEntity
  8
1
  6
CONTINUOUS
 62
             7
100
AcDbLine
 10
-72.0
 20
-40.0
 11
72.00000000000011
 21
-40.0
  0
LINE
  5
BC
100
AcDbEntity
  8
1
  6
CONTINUOUS
 62
             7
100
AcDbLine
 10
-72.0
 20
-38.0
 11
72.00000000000011
 21
-38.0
  0
LINE
  5
BB
100
AcDbEntity
  8
1
  6
CONTINUOUS
 62
             7
100
AcDbLine
 10
-72.0
 20
-35.5
 11
72.00000000000011
 21
-35.5
  0
LINE
  5
BA
100
AcDbEntity
  8
1
  6
CONTINUOUS
 62
             7
100
AcDbLine
 10
-72.0
 20
-33.5
 11
72.00000000000011
 21
-33.5
  0
LINE
  5
B9
100
AcDbEntity
  8
1
  6
CONTINUOUS
 62
             7
100
AcDbLine
 10
-72.0
 20
-31.0
 11
72.00000000000011
 21
-31.0
  0
LINE
  5
B8
100
AcDbEntity
  8
1
  6
CONTINUOUS
 62
             7
100
AcDbLine
 10
-72.0
 20
-29.0
 11
72.00000000000011
 21
-29.0
  0
LINE
  5
B7
100
AcDbEntity
  8
1
  6
CONTINUOUS
 62
             7
100
AcDbLine
 10
-72.0
 20
-26.5
 11
72.00000000000011
 21
-26.5
  0
LINE
  5
B6
100
AcDbEntity
  8
1
  6
CONTINUOUS
 62
             7
100
AcDbLine
 10
-72.0
 20
-24.5
 11
72.00000000000011
 21
-24.5
  0
LINE
  5
B5
100
AcDbEntity
  8
1
  6
CONTINUOUS
 62
             7
100
AcDbLine
 10
72.00000000000011
 20
-22.0
 11
-72.0
 21
-22.0
  0
LINE
  5
B4
100
AcDbEntity
  8
1
  6
CONTINUOUS
 62
             7
100
AcDbLine
 10
-72.5
 20
-19.0
 11
72.50000000000011
 21
-19.0
  0
LINE
  5
B3
100
AcDbEntity
  8
1
  6
CONTINUOUS
 62
             7
100
AcDbLine
 10
-72.5
 20
-17.0
 11
72.50000000000011
 21
-17.0
  0
LINE
  5
B2
100
AcDbEntity
  8
1
  6
CONTINUOUS
 62
             7
100
AcDbLine
 10
-72.5
 20
-14.0
 11
72.50000000000011
 21
-14.0
  0
LINE
  5
B1
100
AcDbEntity
  8
LC-003-002-----0
  6
CONTINUOUS
 62
             7
100
AcDbLine
 10
-73.5
 20
0.0
 11
-73.5
 21
-14.0
  0
LINE
  5
B0
100
AcDbEntity
  8
LC-003-002-----0
  6
CONTINUOUS
 62
             7
100
AcDbLine
 10
-73.0
 20
-17.0
 11
-72.5
 21
-17.0
  0
LINE
  5
AF
100
AcDbEntity
  8
LC-003-002-----0
  6
CONTINUOUS
 62
             7
100
AcDbLine
 10
-72.5
 20
-14.0
 11
-73.5
 21
-14.0
  0
LINE
  5
AE
100
AcDbEntity
  8
LC-003-002-----0
  6
CONTINUOUS
 62
             7
100
AcDbLine
 10
-73.0
 20
-19.0
 11
-72.5
 21
-19.0
  0
LINE
  5
AD
100
AcDbEntity
  8
LC-003-002-----0
  6
CONTINUOUS
 62
             7
100
AcDbLine
 10
-73.0
 20
-17.0
 11
-73.0
 21
-19.0
  0
LINE
  5
AC
100
AcDbEntity
  8
LC-003-002-----0
  6
CONTINUOUS
 62
             7
100
AcDbLine
 10
-72.5
 20
-19.0
 11
-72.5
 21
-21.5
  0
LINE
  5
AB
100
AcDbEntity
  8
LC-003-002-----0
  6
CONTINUOUS
 62
             7
100
AcDbLine
 10
-72.0
 20
-62.5
 11
-72.0
 21
-62.5
  0
LINE
  5
AA
100
AcDbEntity
  8
LC-003-002-----0
  6
CONTINUOUS
 62
             7
100
AcDbLine
 10
-72.0
 20
-58.0
 11
-72.0
 21
-58.0
  0
LINE
  5
A9
100
AcDbEntity
  8
LC-003-002-----0
  6
CONTINUOUS
 62
             7
100
AcDbLine
 10
-72.0
 20
-53.5
 11
-72.0
 21
-53.5
  0
LINE
  5
A8
100
AcDbEntity
  8
LC-003-002-----0
  6
CONTINUOUS
 62
             7
100
AcDbLine
 10
-72.0
 20
-49.0
 11
-72.0
 21
-49.0
  0
LINE
  5
A7
100
AcDbEntity
  8
LC-003-002-----0
  6
CONTINUOUS
 62
             7
100
AcDbLine
 10
-72.0
 20
-44.5
 11
-72.0
 21
-44.5
  0
LINE
  5
A6
100
AcDbEntity
  8
LC-003-002-----0
  6
CONTINUOUS
 62
             7
100
AcDbLine
 10
-72.0
 20
-40.0
 11
-72.0
 21
-40.0
  0
LINE
  5
A5
100
AcDbEntity
  8
LC-003-002-----0
  6
CONTINUOUS
 62
             7
100
AcDbLine
 10
-72.0
 20
-35.5
 11
-72.0
 21
-35.5
  0
LINE
  5
A4
100
AcDbEntity
  8
LC-003-002-----0
  6
CONTINUOUS
 62
             7
100
AcDbLine
 10
-72.0
 20
-31.0
 11
-72.0
 21
-31.0
  0
LINE
  5
A3
100
AcDbEntity
  8
LC-003-002-----0
  6
CONTINUOUS
 62
             7
100
AcDbLine
 10
-72.0
 20
-26.5
 11
-72.0
 21
-26.5
  0
LINE
  5
A2
100
AcDbEntity
  8
LC-003-002-----0
  6
CONTINUOUS
 62
             7
100
AcDbLine
 10
-72.0
 20
-22.0
 11
-72.0
 21
-22.0
  0
LINE
  5
A1
100
AcDbEntity
  8
LC-003-002-----0
  6
CONTINUOUS
 62
             7
100
AcDbLine
 10
-72.0
 20
-65.0
 11
-72.0
 21
-65.0
  0
LINE
  5
A0
100
AcDbEntity
  8
LC-003-002-----0
  6
CONTINUOUS
 62
             7
100
AcDbLine
 10
-72.0
 20
-60.5
 11
-72.0
 21
-60.5
  0
LINE
  5
9F
100
AcDbEntity
  8
LC-003-002-----0
  6
CONTINUOUS
 62
             7
100
AcDbLine
 10
-72.0
 20
-56.0
 11
-72.0
 21
-56.0
  0
LINE
  5
9E
100
AcDbEntity
  8
LC-003-002-----0
  6
CONTINUOUS
 62
             7
100
AcDbLine
 10
-72.0
 20
-51.5
 11
-72.0
 21
-51.5
  0
LINE
  5
9D
100
AcDbEntity
  8
LC-003-002-----0
  6
CONTINUOUS
 62
             7
100
AcDbLine
 10
-72.0
 20
-47.0
 11
-72.0
 21
-47.0
  0
LINE
  5
9C
100
AcDbEntity
  8
LC-003-002-----0
  6
CONTINUOUS
 62
             7
100
AcDbLine
 10
-72.0
 20
-42.5
 11
-72.0
 21
-42.5
  0
LINE
  5
9B
100
AcDbEntity
  8
LC-003-002-----0
  6
CONTINUOUS
 62
             7
100
AcDbLine
 10
-72.0
 20
-38.0
 11
-72.0
 21
-38.0
  0
LINE
  5
9A
100
AcDbEntity
  8
LC-003-002-----0
  6
CONTINUOUS
 62
             7
100
AcDbLine
 10
-72.0
 20
-33.5
 11
-72.0
 21
-33.5
  0
LINE
  5
99
100
AcDbEntity
  8
LC-003-002-----0
  6
CONTINUOUS
 62
             7
100
AcDbLine
 10
-72.0
 20
-29.0
 11
-72.0
 21
-29.0
  0
LINE
  5
98
100
AcDbEntity
  8
LC-003-002-----0
  6
CONTINUOUS
 62
             7
100
AcDbLine
 10
-72.0
 20
-24.5
 11
-72.0
 21
-24.5
  0
LINE
  5
97
100
AcDbEntity
  8
LC-003-002-----0
  6
CONTINUOUS
 62
             7
100
AcDbLine
 10
-72.5
 20
-61.0
 11
-72.5
 21
-62.0
  0
LINE
  5
96
100
AcDbEntity
  8
LC-003-002-----0
  6
CONTINUOUS
 62
             7
100
AcDbLine
 10
-72.5
 20
-56.5
 11
-72.5
 21
-57.5
  0
LINE
  5
95
100
AcDbEntity
  8
LC-003-002-----0
  6
CONTINUOUS
 62
             7
100
AcDbLine
 10
-72.5
 20
-52.0
 11
-72.5
 21
-53.0
  0
LINE
  5
94
100
AcDbEntity
  8
LC-003-002-----0
  6
CONTINUOUS
 62
             7
100
AcDbLine
 10
-72.5
 20
-47.5
 11
-72.5
 21
-48.5
  0
LINE
  5
93
100
AcDbEntity
  8
LC-003-002-----0
  6
CONTINUOUS
 62
             7
100
AcDbLine
 10
-72.5
 20
-43.0
 11
-72.5
 21
-44.0
  0
LINE
  5
92
100
AcDbEntity
  8
LC-003-002-----0
  6
CONTINUOUS
 62
             7
100
AcDbLine
 10
-72.5
 20
-38.5
 11
-72.5
 21
-39.5
  0
LINE
  5
91
100
AcDbEntity
  8
LC-003-002-----0
  6
CONTINUOUS
 62
             7
100
AcDbLine
 10
-72.5
 20
-34.0
 11
-72.5
 21
-35.0
  0
LINE
  5
90
100
AcDbEntity
  8
LC-003-002-----0
  6
CONTINUOUS
 62
             7
100
AcDbLine
 10
-72.5
 20
-29.5
 11
-72.5
 21
-30.5
  0
LINE
  5
8F
100
AcDbEntity
  8
LC-003-002-----0
  6
CONTINUOUS
 62
             7
100
AcDbLine
 10
-72.5
 20
-25.0
 11
-72.5
 21
-26.0
  0
LINE
  5
8E
100
AcDbEntity
  8
LC-003-002-----0
  6
CONTINUOUS
 62
             7
100
AcDbLine
 10
-72.5
 20
-14.0
 11
-72.5
 21
-17.0
  0
LINE
  5
8D
100
AcDbEntity
  8
LC-003-002-----0
  6
CONTINUOUS
 62
             7
100
AcDbLine
 10
73.50000000000011
 20
0.0
 11
73.50000000000011
 21
-14.0
  0
LINE
  5
8C
100
AcDbEntity
  8
LC-003-002-----0
  6
CONTINUOUS
 62
             7
100
AcDbLine
 10
73.00000000000011
 20
-17.0
 11
72.50000000000011
 21
-17.0
  0
LINE
  5
8B
100
AcDbEntity
  8
LC-003-002-----0
  6
CONTINUOUS
 62
             7
100
AcDbLine
 10
72.50000000000011
 20
-14.0
 11
73.50000000000011
 21
-14.0
  0
LINE
  5
8A
100
AcDbEntity
  8
LC-003-002-----0
  6
CONTINUOUS
 62
             7
100
AcDbLine
 10
73.00000000000011
 20
-19.0
 11
72.50000000000011
 21
-19.0
  0
LINE
  5
89
100
AcDbEntity
  8
LC-003-002-----0
  6
CONTINUOUS
 62
             7
100
AcDbLine
 10
73.00000000000011
 20
-17.0
 11
73.00000000000011
 21
-19.0
  0
LINE
  5
88
100
AcDbEntity
  8
LC-003-002-----0
  6
CONTINUOUS
 62
             7
100
AcDbLine
 10
72.50000000000011
 20
-19.0
 11
72.50000000000011
 21
-21.5
  0
LINE
  5
87
100
AcDbEntity
  8
LC-003-002-----0
  6
CONTINUOUS
 62
             7
100
AcDbLine
 10
72.00000000000011
 20
-62.5
 11
72.00000000000011
 21
-62.5
  0
LINE
  5
86
100
AcDbEntity
  8
LC-003-002-----0
  6
CONTINUOUS
 62
             7
100
AcDbLine
 10
72.00000000000011
 20
-58.0
 11
72.00000000000011
 21
-58.0
  0
LINE
  5
85
100
AcDbEntity
  8
LC-003-002-----0
  6
CONTINUOUS
 62
             7
100
AcDbLine
 10
72.00000000000011
 20
-53.5
 11
72.00000000000011
 21
-53.5
  0
LINE
  5
84
100
AcDbEntity
  8
LC-003-002-----0
  6
CONTINUOUS
 62
             7
100
AcDbLine
 10
72.00000000000011
 20
-49.0
 11
72.00000000000011
 21
-49.0
  0
LINE
  5
83
100
AcDbEntity
  8
LC-003-002-----0
  6
CONTINUOUS
 62
             7
100
AcDbLine
 10
72.00000000000011
 20
-44.5
 11
72.00000000000011
 21
-44.5
  0
LINE
  5
82
100
AcDbEntity
  8
LC-003-002-----0
  6
CONTINUOUS
 62
             7
100
AcDbLine
 10
72.00000000000011
 20
-40.0
 11
72.00000000000011
 21
-40.0
  0
LINE
  5
81
100
AcDbEntity
  8
LC-003-002-----0
  6
CONTINUOUS
 62
             7
100
AcDbLine
 10
72.00000000000011
 20
-35.5
 11
72.00000000000011
 21
-35.5
  0
LINE
  5
80
100
AcDbEntity
  8
LC-003-002-----0
  6
CONTINUOUS
 62
             7
100
AcDbLine
 10
72.00000000000011
 20
-31.0
 11
72.00000000000011
 21
-31.0
  0
LINE
  5
7F
100
AcDbEntity
  8
LC-003-002-----0
  6
CONTINUOUS
 62
             7
100
AcDbLine
 10
72.00000000000011
 20
-26.5
 11
72.00000000000011
 21
-26.5
  0
LINE
  5
7E
100
AcDbEntity
  8
LC-003-002-----0
  6
CONTINUOUS
 62
             7
100
AcDbLine
 10
72.00000000000011
 20
-22.0
 11
72.00000000000011
 21
-22.0
  0
LINE
  5
7D
100
AcDbEntity
  8
LC-003-002-----0
  6
CONTINUOUS
 62
             7
100
AcDbLine
 10
72.00000000000011
 20
-65.0
 11
72.00000000000011
 21
-65.0
  0
LINE
  5
7C
100
AcDbEntity
  8
LC-003-002-----0
  6
CONTINUOUS
 62
             7
100
AcDbLine
 10
72.00000000000011
 20
-60.5
 11
72.00000000000011
 21
-60.5
  0
LINE
  5
7B
100
AcDbEntity
  8
LC-003-002-----0
  6
CONTINUOUS
 62
             7
100
AcDbLine
 10
72.00000000000011
 20
-56.0
 11
72.00000000000011
 21
-56.0
  0
LINE
  5
7A
100
AcDbEntity
  8
LC-003-002-----0
  6
CONTINUOUS
 62
             7
100
AcDbLine
 10
72.00000000000011
 20
-51.5
 11
72.00000000000011
 21
-51.5
  0
LINE
  5
79
100
AcDbEntity
  8
LC-003-002-----0
  6
CONTINUOUS
 62
             7
100
AcDbLine
 10
72.00000000000011
 20
-47.0
 11
72.00000000000011
 21
-47.0
  0
LINE
  5
78
100
AcDbEntity
  8
LC-003-002-----0
  6
CONTINUOUS
 62
             7
100
AcDbLine
 10
72.00000000000011
 20
-42.5
 11
72.00000000000011
 21
-42.5
  0
LINE
  5
77
100
AcDbEntity
  8
LC-003-002-----0
  6
CONTINUOUS
 62
             7
100
AcDbLine
 10
72.00000000000011
 20
-38.0
 11
72.00000000000011
 21
-38.0
  0
LINE
  5
76
100
AcDbEntity
  8
LC-003-002-----0
  6
CONTINUOUS
 62
             7
100
AcDbLine
 10
72.00000000000011
 20
-33.5
 11
72.00000000000011
 21
-33.5
  0
LINE
  5
75
100
AcDbEntity
  8
LC-003-002-----0
  6
CONTINUOUS
 62
             7
100
AcDbLine
 10
72.00000000000011
 20
-29.0
 11
72.00000000000011
 21
-29.0
  0
LINE
  5
74
100
AcDbEntity
  8
LC-003-002-----0
  6
CONTINUOUS
 62
             7
100
AcDbLine
 10
72.00000000000011
 20
-24.5
 11
72.00000000000011
 21
-24.5
  0
LINE
  5
73
100
AcDbEntity
  8
LC-003-002-----0
  6
CONTINUOUS
 62
             7
100
AcDbLine
 10
72.50000000000011
 20
-61.0
 11
72.50000000000011
 21
-62.0
  0
LINE
  5
72
100
AcDbEntity
  8
LC-003-002-----0
  6
CONTINUOUS
 62
             7
100
AcDbLine
 10
72.50000000000011
 20
-56.5
 11
72.50000000000011
 21
-57.5
  0
LINE
  5
71
100
AcDbEntity
  8
LC-003-002-----0
  6
CONTINUOUS
 62
             7
100
AcDbLine
 10
72.50000000000011
 20
-52.0
 11
72.50000000000011
 21
-53.0
  0
LINE
  5
70
100
AcDbEntity
  8
LC-003-002-----0
  6
CONTINUOUS
 62
             7
100
AcDbLine
 10
72.50000000000011
 20
-47.5
 11
72.50000000000011
 21
-48.5
  0
LINE
  5
6F
100
AcDbEntity
  8
LC-003-002-----0
  6
CONTINUOUS
 62
             7
100
AcDbLine
 10
72.50000000000011
 20
-43.0
 11
72.50000000000011
 21
-44.0
  0
LINE
  5
6E
100
AcDbEntity
  8
LC-003-002-----0
  6
CONTINUOUS
 62
             7
100
AcDbLine
 10
72.50000000000011
 20
-38.5
 11
72.50000000000011
 21
-39.5
  0
LINE
  5
6D
100
AcDbEntity
  8
LC-003-002-----0
  6
CONTINUOUS
 62
             7
100
AcDbLine
 10
72.50000000000011
 20
-34.0
 11
72.50000000000011
 21
-35.0
  0
LINE
  5
6C
100
AcDbEntity
  8
LC-003-002-----0
  6
CONTINUOUS
 62
             7
100
AcDbLine
 10
72.50000000000011
 20
-29.5
 11
72.50000000000011
 21
-30.5
  0
LINE
  5
6B
100
AcDbEntity
  8
LC-003-002-----0
  6
CONTINUOUS
 62
             7
100
AcDbLine
 10
72.50000000000011
 20
-25.0
 11
72.50000000000011
 21
-26.0
  0
LINE
  5
6A
100
AcDbEntity
  8
LC-003-002-----0
  6
CONTINUOUS
 62
             7
100
AcDbLine
 10
72.50000000000011
 20
-14.0
 11
72.50000000000011
 21
-17.0
  0
POINT
  5
69
100
AcDbEntity
  8
0
 62
             7
100
AcDbPoint
 10
-73.5
 20
0.0
  0
POINT
  5
68
100
AcDbEntity
  8
0
 62
             7
100
AcDbPoint
 10
73.50000000000011
 20
0.0
  0
POINT
  5
67
100
AcDbEntity
  8
0
 62
             7
100
AcDbPoint
 10
73.50000000000011
 20
0.0
  0
ENDBLK
  5
110
100
AcDbEntity
  8
0
100
AcDbBlockEnd
  0
BLOCK
  5
39
100
AcDbEntity
  8
0
100
AcDbBlockBegin
  2
HL_64_1B_FLACHDACHABLAUF
 70
             0
 10
402.24159236047728
 20
858.45118633100356
 30
0.0
  3
HL_64_1B_FLACHDACHABLAUF
  1

  0
ARC
  5
18F
100
AcDbEntity
  8
LC-004-002-RND-0
  6
CONTINUOUS
 62
             7
100
AcDbCircle
 10
-82.0
 20
-123.9818395295122
 40
5.0
100
AcDbArc
 50
180.0
 51
-149.99999999999881
  0
ARC
  5
18E
100
AcDbEntity
  8
LC-004-002-RND-0
  6
CONTINUOUS
 62
             7
100
AcDbCircle
 10
-33.306425
 20
-208.3215855295123
 40
4.99999999999982
100
AcDbArc
 50
-149.99999999999881
 51
-90.0
  0
ARC
  5
18D
100
AcDbEntity
  8
LC-004-002-RND-0
  6
CONTINUOUS
 62
             7
100
AcDbCircle
 10
82.00000000000011
 20
-208.3215855295123
 40
5.0
100
AcDbArc
 50
-90.0
 51
0.0
  0
ARC
  5
18C
100
AcDbEntity
  8
LC-002-002-----0
  6
CONTINUOUS
 62
             7
100
AcDbCircle
 10
-86.97314499999993
 20
-59.26780852951231
 40
3.1399999999999
100
AcDbArc
 50
89.87259000000394
 51
158.91680799999233
  0
ARC
  5
18B
100
AcDbEntity
  8
LC-002-002-----0
  6
CONTINUOUS
 62
             7
100
AcDbCircle
 10
-86.96602999999982
 20
-60.58868952951218
 40
4.46088700000053
100
AcDbArc
 50
40.08825100000051
 51
90.09138400000703
  0
ARC
  5
18A
100
AcDbEntity
  8
LC-002-002-----0
  6
CONTINUOUS
 62
             7
100
AcDbCircle
 10
-85.95548099999996
 20
-59.73808252951233
 40
3.14000000000017
100
AcDbArc
 50
-40.61644900000717
 51
40.08825099999093
  0
ARC
  5
189
100
AcDbEntity
  8
LC-002-002-----0
  6
CONTINUOUS
 62
             7
100
AcDbCircle
 10
-103.45887999999989
 20
-59.26780852951231
 40
3.14000000000015
100
AcDbArc
 50
21.08319200000797
 51
90.12740999999608
  0
ARC
  5
188
100
AcDbEntity
  8
LC-002-002-----0
  6
CONTINUOUS
 62
             7
100
AcDbCircle
 10
-103.46599499999979
 20
-60.58868952951218
 40
4.46088699999991
100
AcDbArc
 50
89.9086159999939
 51
139.91174900000115
  0
ARC
  5
187
100
AcDbEntity
  8
LC-002-002-----0
  6
CONTINUOUS
 62
             7
100
AcDbCircle
 10
-104.476545
 20
-59.73808252951233
 40
3.14000000000017
100
AcDbArc
 50
139.91174900000891
 51
-139.38355099999063
  0
ARC
  5
186
100
AcDbEntity
  8
LC-002-002-----0
  6
CONTINUOUS
 62
             7
100
AcDbCircle
 10
103.489598
 20
-59.72885552951232
 40
3.13999999999998
100
AcDbArc
 50
-40.63184699999623
 51
40.07285300000618
  0
ARC
  5
185
100
AcDbEntity
  8
LC-002-002-----0
  6
CONTINUOUS
 62
             7
100
AcDbCircle
 10
102.478819
 20
-60.57919152951229
 40
4.46088699999992
100
AcDbArc
 50
40.0728530000002
 51
90.07598599999393
  0
ARC
  5
184
100
AcDbEntity
  8
LC-002-002-----0
  6
CONTINUOUS
 62
             7
100
AcDbCircle
 10
102.4720600000002
 20
-59.25830752951231
 40
3.13999999999988
100
AcDbArc
 50
89.85719199999991
 51
158.90141000000412
  0
ARC
  5
183
100
AcDbEntity
  8
LC-002-002-----0
  6
CONTINUOUS
 62
             7
100
AcDbCircle
 10
85.98632500000019
 20
-59.25387752951212
 40
3.13999999999987
100
AcDbArc
 50
21.06779399999
 51
90.11201199999886
  0
ARC
  5
182
100
AcDbEntity
  8
LC-002-002-----0
  6
CONTINUOUS
 62
             7
100
AcDbCircle
 10
85.97885500000018
 20
-60.57475652951223
 40
4.4608870000005
100
AcDbArc
 50
89.8932180000014
 51
139.89634999999316
  0
ARC
  5
181
100
AcDbEntity
  8
LC-002-002-----0
  6
CONTINUOUS
 62
             7
100
AcDbCircle
 10
84.9685340000002
 20
-59.72387752951227
 40
3.14000000000022
100
AcDbArc
 50
139.89635000000587
 51
-123.12334399999874
  0
ARC
  5
180
100
AcDbEntity
  8
LC-002-002-----0
  6
CONTINUOUS
 62
             7
100
AcDbCircle
 10
-175.49998699999989
 20
-70.00064752951232
 40
1.99999999999982
100
AcDbArc
 50
90.00021199999952
 51
-179.9997520000037
  0
ARC
  5
17F
100
AcDbEntity
  8
LC-004-002-RND-0
  6
CONTINUOUS
 62
             7
100
AcDbCircle
 10
174.50000400000019
 20
-69.99935452951229
 40
2.0
100
AcDbArc
 50
0.0
 51
90.0822269942296
  0
ARC
  5
17E
100
AcDbEntity
  8
LC-003-002-RND-0
  6
CONTINUOUS
 62
             7
100
AcDbCircle
 10
-113.3022660000001
 20
-207.76664352951221
 40
40.0
100
AcDbArc
 50
-90.0
 51
0.0
  0
ARC
  5
17D
100
AcDbEntity
  8
LC-003-002-RND-0
  6
CONTINUOUS
 62
             7
100
AcDbCircle
 10
-113.3022660000001
 20
-207.76664352951221
 40
46.5
100
AcDbArc
 50
-90.0
 51
0.0
  0
LINE
  5
17C
100
AcDbEntity
  8
1
  6
PHANTOM
 62
             2
100
AcDbLine
 10
89.26792078579652
 20
-168.32769401837169
 11
160.54081457529799
 21
-172.06294862876891
  0
LINE
  5
17B
100
AcDbEntity
  8
1
  6
CONTINUOUS
 62
             7
100
AcDbLine
 10
150.7523470000001
 20
-209.08038752951231
 11
154.67534500000011
 21
-134.22512152951231
  0
LINE
  5
17A
100
AcDbEntity
  8
LC-002-002-----0
  6
CONTINUOUS
 62
             7
100
AcDbLine
 10
154.8029590000001
 20
-208.21940252951231
 11
158.5395280000001
 21
-136.9214045295123
  0
LINE
  5
179
100
AcDbEntity
  8
LC-002-002-----0
  6
CONTINUOUS
 62
             7
100
AcDbLine
 10
150.7523470000001
 20
-209.08038752951231
 11
154.8029590000001
 21
-208.21940252951231
  0
LINE
  5
178
100
AcDbEntity
  8
LC-002-002-----0
  6
CONTINUOUS
 62
             7
100
AcDbLine
 10
158.5395280000001
 20
-136.9214045295123
 11
158.61376999999999
 21
-135.50479252951229
  0
LINE
  5
177
100
AcDbEntity
  8
LC-002-002-----0
  6
CONTINUOUS
 62
             7
100
AcDbLine
 10
154.67534500000011
 20
-134.22512152951231
 11
158.61376999999999
 21
-135.50479252951229
  0
LINE
  5
176
100
AcDbEntity
  8
LC-002-002-----0
  6
CONTINUOUS
 62
             7
100
AcDbLine
 10
87.3046950000001
 20
-205.7882765295123
 11
150.7523470000001
 21
-209.08038752951231
  0
LINE
  5
175
100
AcDbEntity
  8
LC-002-002-----0
  6
CONTINUOUS
 62
             7
100
AcDbLine
 10
91.23114700000002
 20
-130.8671115295123
 11
154.67534500000011
 21
-134.22512152951231
  0
LINE
  5
174
100
AcDbEntity
  8
LC-002-002-----0
  6
CONTINUOUS
 62
             7
100
AcDbLine
 10
-87.0
 20
-101.32158552951221
 11
-104.0
 21
-101.32158552951221
  0
LINE
  5
173
100
AcDbEntity
  8
LC-002-002-----0
  6
CONTINUOUS
 62
             7
100
AcDbLine
 10
-86.33012699999995
 20
-126.4818395295122
 11
-37.63655199999995
 21
-210.8215855295123
  0
LINE
  5
172
100
AcDbEntity
  8
LC-002-002-----0
  6
CONTINUOUS
 62
             7
100
AcDbLine
 10
104.0000000000001
 20
-101.32158552951221
 11
104.0000000000001
 21
-80.54952652951226
  0
LINE
  5
171
100
AcDbEntity
  8
LC-002-002-----0
  6
CONTINUOUS
 62
             7
100
AcDbLine
 10
87.00000000000011
 20
-208.3215855295123
 11
87.00000000000011
 21
-201.36113299910409
  0
LINE
  5
170
100
AcDbEntity
  8
LC-002-002-----0
  6
CONTINUOUS
 62
             7
100
AcDbLine
 10
-104.0
 20
-80.54952652951226
 11
-104.0
 21
-101.32158552951221
  0
LINE
  5
16F
100
AcDbEntity
  8
LC-002-002-----0
  6
CONTINUOUS
 62
             7
100
AcDbLine
 10
-87.0
 20
-101.32158552951221
 11
-87.0
 21
-123.9818395295122
  0
LINE
  5
16E
100
AcDbEntity
  8
LC-002-002-----0
  6
CONTINUOUS
 62
             7
100
AcDbLine
 10
-33.306425
 20
-213.3215855295123
 11
82.00000000000011
 21
-213.3215855295123
  0
LINE
  5
16D
100
AcDbEntity
  8
LC-002-002-----0
  6
CONTINUOUS
 62
             7
100
AcDbLine
 10
89.25000000000011
 20
-101.32158552951221
 11
104.0000000000001
 21
-101.32158552951221
  0
LINE
  5
16C
100
AcDbEntity
  8
LC-002-002-----0
  6
CONTINUOUS
 62
             7
100
AcDbLine
 10
-125.23006599999989
 20
-73.38280752951221
 11
-105.53966799999991
 21
-80.54952652951226
  0
LINE
  5
16B
100
AcDbEntity
  8
LC-002-002-----0
  6
CONTINUOUS
 62
             7
100
AcDbLine
 10
-104.0
 20
-80.54952652951226
 11
-105.53966799999991
 21
-80.54952652951226
  0
LINE
  5
16A
100
AcDbEntity
  8
LC-002-002-----0
  6
CONTINUOUS
 62
             7
100
AcDbLine
 10
-125.23006599999989
 20
-73.38280752951221
 11
-124.9362209999999
 21
-72.57547652951223
  0
LINE
  5
169
100
AcDbEntity
  8
LC-002-002-----0
  6
CONTINUOUS
 62
             7
100
AcDbLine
 10
87.00000000000011
 20
-101.32158552951221
 11
89.25000000000011
 21
-101.32158552951221
  0
LINE
  5
168
100
AcDbEntity
  8
LC-002-002-----0
  6
CONTINUOUS
 62
             7
100
AcDbLine
 10
-93.21601299999998
 20
-58.94329452951217
 11
-93.21601299999998
 21
-62.56248352951229
  0
LINE
  5
167
100
AcDbEntity
  8
LC-002-002-----0
  6
CONTINUOUS
 62
             7
100
AcDbLine
 10
-92.81601299999988
 20
-59.34329452951226
 11
-92.81601299999988
 21
-62.56248352951229
  0
LINE
  5
166
100
AcDbEntity
  8
LC-002-002-----0
  6
CONTINUOUS
 62
             7
100
AcDbLine
 10
-93.21601299999998
 20
-58.94329452951217
 11
-92.81601299999988
 21
-59.34329452951226
  0
LINE
  5
165
100
AcDbEntity
  8
LC-002-002-----0
  6
CONTINUOUS
 62
             7
100
AcDbLine
 10
-89.9029509999998
 20
-58.13827752951227
 11
-91.2158629999999
 21
-62.56248352951229
  0
LINE
  5
164
100
AcDbEntity
  8
LC-002-002-----0
  6
CONTINUOUS
 62
             7
100
AcDbLine
 10
-83.571956
 20
-61.78219752951225
 11
-88.90463549709307
 21
-68.00032812847269
  0
LINE
  5
163
100
AcDbEntity
  8
LC-002-002-----0
  6
CONTINUOUS
 62
             7
100
AcDbLine
 10
-97.61601299999984
 20
-59.34329452951226
 11
-92.81601299999988
 21
-59.34329452951226
  0
LINE
  5
162
100
AcDbEntity
  8
LC-002-002-----0
  6
CONTINUOUS
 62
             7
100
AcDbLine
 10
-97.21601299999998
 20
-58.94329452951217
 11
-93.21601299999998
 21
-58.94329452951217
  0
LINE
  5
161
100
AcDbEntity
  8
LC-002-002-----0
  6
CONTINUOUS
 62
             7
100
AcDbLine
 10
125.23006600000031
 20
-73.38280752951221
 11
105.53966800000001
 21
-80.54952652951226
  0
LINE
  5
160
100
AcDbEntity
  8
LC-002-002-----0
  6
CONTINUOUS
 62
             7
100
AcDbLine
 10
104.0000000000001
 20
-80.54952652951226
 11
105.53966800000001
 21
-80.54952652951226
  0
LINE
  5
15F
100
AcDbEntity
  8
LC-002-002-----0
  6
CONTINUOUS
 62
             7
100
AcDbLine
 10
125.23006600000031
 20
-73.38280752951221
 11
124.9362210000002
 21
-72.57547652951223
  0
LINE
  5
15E
100
AcDbEntity
  8
LC-002-002-----0
  6
CONTINUOUS
 62
             7
100
AcDbLine
 10
-97.21601299999998
 20
-58.94329452951217
 11
-97.61601299999984
 21
-59.34329452951226
  0
LINE
  5
15D
100
AcDbEntity
  8
LC-002-002-----0
  6
CONTINUOUS
 62
             7
100
AcDbLine
 10
-97.61601299999984
 20
-59.34329452951226
 11
-97.61601299999984
 21
-62.56248352951229
  0
LINE
  5
15C
100
AcDbEntity
  8
LC-002-002-----0
  6
CONTINUOUS
 62
             7
100
AcDbLine
 10
-97.21601299999998
 20
-58.94329452951217
 11
-97.21601299999998
 21
-62.56248352951229
  0
LINE
  5
15B
100
AcDbEntity
  8
LC-002-002-----0
  6
CONTINUOUS
 62
             7
100
AcDbLine
 10
-91.21616299999982
 20
-62.56248352951229
 11
-99.21616299999982
 21
-62.56248352951229
  0
LINE
  5
15A
100
AcDbEntity
  8
LC-002-002-----0
  6
CONTINUOUS
 62
             7
100
AcDbLine
 10
-99.21616299999982
 20
-62.56248352951229
 11
-99.82037242898969
 21
-68.00036839041957
  0
LINE
  5
159
100
AcDbEntity
  8
LC-002-002-----0
  6
CONTINUOUS
 62
             7
100
AcDbLine
 10
-100.52907499999991
 20
-58.13827752951227
 11
-99.21616299999982
 21
-62.56248352951229
  0
LINE
  5
158
100
AcDbEntity
  8
LC-002-002-----0
  6
CONTINUOUS
 62
             7
100
AcDbLine
 10
-106.86006999999999
 20
-61.78219752951225
 11
-101.52735057467
 21
-68.00037468649134
  0
LINE
  5
157
100
AcDbEntity
  8
LC-002-002-----0
  6
CONTINUOUS
 62
             7
100
AcDbLine
 10
-91.2158629999999
 20
-62.56248352951229
 11
-90.61165734497854
 21
-68.00033442470556
  0
LINE
  5
156
100
AcDbEntity
  8
LC-002-002-----0
  6
CONTINUOUS
 62
             7
100
AcDbLine
 10
98.22845700000005
 20
-62.55184252951233
 11
98.83228522396723
 21
-67.99963567371879
  0
LINE
  5
155
100
AcDbEntity
  8
LC-002-002-----0
  6
CONTINUOUS
 62
             7
100
AcDbLine
 10
90.22815700000012
 20
-62.5496925295123
 11
89.6211211786682
 21
-67.99966964846544
  0
LINE
  5
154
100
AcDbEntity
  8
LC-002-002-----0
  6
CONTINUOUS
 62
             7
100
AcDbLine
 10
96.62917200000004
 20
-59.33222352951214
 11
96.62830700000006
 21
-62.55141252951228
  0
LINE
  5
153
100
AcDbEntity
  8
LC-002-002-----0
  6
CONTINUOUS
 62
             7
100
AcDbLine
 10
96.22927900000002
 20
-58.9321165295122
 11
96.2283070000002
 21
-62.55130552951221
  0
LINE
  5
152
100
AcDbEntity
  8
LC-002-002-----0
  6
CONTINUOUS
 62
             7
100
AcDbLine
 10
92.22928000000013
 20
-58.9310415295123
 11
92.2283070000002
 21
-62.55023052951231
  0
LINE
  5
151
100
AcDbEntity
  8
LC-002-002-----0
  6
CONTINUOUS
 62
             7
100
AcDbLine
 10
91.82917200000009
 20
-59.33093352951232
 11
91.82830700000011
 21
-62.55012252951212
  0
LINE
  5
150
100
AcDbEntity
  8
LC-002-002-----0
  6
CONTINUOUS
 62
             7
100
AcDbLine
 10
92.22928000000013
 20
-58.9310415295123
 11
91.82917200000009
 21
-59.33093352951232
  0
LINE
  5
14F
100
AcDbEntity
  8
LC-002-002-----0
  6
CONTINUOUS
 62
             7
100
AcDbLine
 10
96.22927900000002
 20
-58.9321165295122
 11
96.62917200000004
 21
-59.33222352951214
  0
LINE
  5
14E
100
AcDbEntity
  8
LC-002-002-----0
  6
CONTINUOUS
 62
             7
100
AcDbLine
 10
96.22927900000002
 20
-58.9321165295122
 11
92.22928000000013
 21
-58.9310415295123
  0
LINE
  5
14D
100
AcDbEntity
  8
LC-002-002-----0
  6
CONTINUOUS
 62
             7
100
AcDbLine
 10
96.62917200000004
 20
-59.33222352951214
 11
91.82917200000009
 21
-59.33093352951232
  0
LINE
  5
14C
100
AcDbEntity
  8
LC-002-002-----0
  6
CONTINUOUS
 62
             7
100
AcDbLine
 10
105.872573
 20
-61.77361152951232
 11
100.5302248856589
 21
-67.99962941098477
  0
LINE
  5
14B
100
AcDbEntity
  8
LC-002-002-----0
  6
CONTINUOUS
 62
             7
100
AcDbLine
 10
99.54255800000021
 20
-58.12798952951232
 11
98.22845700000005
 21
-62.55184252951233
  0
LINE
  5
14A
100
AcDbEntity
  8
LC-002-002-----0
  6
CONTINUOUS
 62
             7
100
AcDbLine
 10
88.9164340000001
 20
-58.12513352951225
 11
90.22815700000012
 21
-62.5496925295123
  0
LINE
  5
149
100
AcDbEntity
  8
LC-002-002-----0
  6
CONTINUOUS
 62
             7
100
AcDbLine
 10
83.37502100000017
 20
-62.68968152951231
 11
87.92640509672344
 21
-67.99967589930952
  0
LINE
  5
148
100
AcDbEntity
  8
LC-002-002-----0
  6
CONTINUOUS
 62
             7
100
AcDbLine
 10
90.22845700000005
 20
-62.5496925295123
 11
98.22845700000005
 21
-62.55184252951233
  0
LINE
  5
147
100
AcDbEntity
  8
LC-002-002-----0
  6
CONTINUOUS
 62
             7
100
AcDbLine
 10
126.7004340000001
 20
-70.99911552951232
 11
122.3621684629459
 21
-72.57547652951223
  0
LINE
  5
146
100
AcDbEntity
  8
LC-002-002-----0
  6
CONTINUOUS
 62
             7
100
AcDbLine
 10
90.73114700000008
 20
-130.86711152951219
 11
90.28922300000011
 21
-130.37630552951231
  0
LINE
  5
145
100
AcDbEntity
  8
LC-002-002-----0
  6
CONTINUOUS
 62
             7
100
AcDbLine
 10
176.49982100000011
 20
-70.99904452951216
 11
126.7004340000001
 21
-70.99911552951232
  0
LINE
  5
144
100
AcDbEntity
  8
LC-002-002-----0
  6
CONTINUOUS
 62
             7
100
AcDbLine
 10
176.50000400000019
 20
-69.99935452951229
 11
176.50000400000019
 21
-70.99904452951216
  0
LINE
  5
143
100
AcDbEntity
  8
LC-002-002-----0
  6
CONTINUOUS
 62
             7
100
AcDbLine
 10
-177.49998199999979
 20
-71.00065452951219
 11
-127.6967029999998
 21
-71.00047152951231
  0
LINE
  5
142
100
AcDbEntity
  8
LC-002-002-----0
  6
CONTINUOUS
 62
             7
100
AcDbLine
 10
-175.49999399999979
 20
-68.00064752951232
 11
174.49713373741881
 21
-67.99935658911545
  0
LINE
  5
141
100
AcDbEntity
  8
LC-002-002-----0
  6
CONTINUOUS
 62
             7
100
AcDbLine
 10
-177.49998699999989
 20
-70.00065652951219
 11
-177.4999829999999
 21
-71.00854552951216
  0
LINE
  5
140
100
AcDbEntity
  8
1
  6
PHANTOM
 62
             2
100
AcDbLine
 10
94.22992270307088
 20
-56.53886579281414
 11
94.22637200446832
 21
-69.75076756982605
  0
LINE
  5
13F
100
AcDbEntity
  8
1
  6
PHANTOM
 62
             2
100
AcDbLine
 10
-95.21601299999998
 20
-56.12780820347132
 11
-95.21601299999998
 21
-69.76248352951222
  0
LINE
  5
13E
100
AcDbEntity
  8
LC-002-002-----0
  6
CONTINUOUS
 62
             7
100
AcDbLine
 10
87.00000000000011
 20
-130.20219267980511
 11
90.28922300000011
 21
-130.37630552951231
  0
LINE
  5
13D
100
AcDbEntity
  8
1
  6
CONTINUOUS
 62
             7
100
AcDbLine
 10
90.73114700000008
 20
-130.86711152951219
 11
87.00000000000011
 21
-201.36113299910409
  0
LINE
  5
13C
100
AcDbEntity
  8
LC-002-002-----0
  6
CONTINUOUS
 62
             7
100
AcDbLine
 10
87.00000000000011
 20
-201.36113299910409
 11
87.00000000000011
 21
-192.5208838000207
  0
LINE
  5
13B
100
AcDbEntity
  8
1
  6
CONTINUOUS
 62
             7
100
AcDbLine
 10
90.28922300000011
 20
-130.37630552951231
 11
87.00000000000011
 21
-192.5208838000207
  0
LINE
  5
13A
100
AcDbEntity
  8
LC-002-002-----0
  6
CONTINUOUS
 62
             7
100
AcDbLine
 10
87.00000000000011
 20
-192.5208838000207
 11
87.00000000000011
 21
-101.32158552951221
  0
LINE
  5
139
100
AcDbEntity
  8
1
  6
CONTINUOUS
 62
             7
100
AcDbLine
 10
124.9362210000002
 20
-72.57547652951223
 11
122.3621684629459
 21
-72.57547652951223
  0
LINE
  5
138
100
AcDbEntity
  8
1
  6
CONTINUOUS
 62
             7
100
AcDbLine
 10
-87.0
 20
-101.32158552951221
 11
87.00000000000011
 21
-101.32158552951221
  0
LINE
  5
137
100
AcDbEntity
  8
1
  6
CONTINUOUS
 62
             7
100
AcDbLine
 10
104.0000000000001
 20
-80.54952652951226
 11
-104.0
 21
-80.54952652951226
  0
LINE
  5
136
100
AcDbEntity
  8
1
  6
CONTINUOUS
 62
             7
100
AcDbLine
 10
122.3621684629459
 20
-72.57547652951223
 11
-124.9362209999999
 21
-72.57547652951223
  0
LINE
  5
135
100
AcDbEntity
  8
1
  6
CONTINUOUS
 62
             7
100
AcDbLine
 10
125.23006600000031
 20
-73.38280752951221
 11
-125.23006599999989
 21
-73.38280752951221
  0
LINE
  5
134
100
AcDbEntity
  8
1
  6
PHANTOM
 62
             2
100
AcDbLine
 10
0.0
 20
2.05748356711592
 11
0.0
 21
-199.066435548502
  0
LINE
  5
133
100
AcDbEntity
  8
LC-002-002-----0
  6
CONTINUOUS
 62
             7
100
AcDbLine
 10
-122.3621684629459
 20
-72.57547652951223
 11
-126.7004340000001
 21
-70.99911552951232
  0
LINE
  5
132
100
AcDbEntity
  8
1
  6
CONTINUOUS
 62
             7
100
AcDbLine
 10
126.7004340000001
 20
-70.99911552951232
 11
-127.6967029999998
 21
-70.99911552951232
  0
LINE
  5
131
100
AcDbEntity
  8
LC-002-002-----0
  6
CONTINUOUS
 62
             7
100
AcDbLine
 10
-73.30226600000026
 20
-149.04675672163211
 11
-73.30226600000026
 21
-207.76664352951221
  0
LINE
  5
130
100
AcDbEntity
  8
LC-002-002-----0
  6
CONTINUOUS
 62
             7
100
AcDbLine
 10
-66.80226600000026
 20
-160.30508698388951
 11
-66.80226600000026
 21
-207.76664352951221
  0
LINE
  5
12F
100
AcDbEntity
  8
LC-002-002-----0
  6
DASHDOT
 62
             3
100
AcDbLine
 10
-155.7280030000002
 20
-238.2270485295123
 11
-155.7280030000002
 21
-265.8864385295123
  0
LINE
  5
12E
100
AcDbEntity
  8
LC-002-002-----0
  6
DASHDOT
 62
             3
100
AcDbLine
 10
-153.7280030000002
 20
-238.2270485295123
 11
-153.7280030000002
 21
-265.8864385295123
  0
LINE
  5
12D
100
AcDbEntity
  8
LC-002-002-----0
  6
CONTINUOUS
 62
             7
100
AcDbLine
 10
-235.27103500000021
 20
-247.34893052951219
 11
-235.37020600000019
 21
-248.34510552951221
  0
LINE
  5
12C
100
AcDbEntity
  8
LC-002-002-----0
  6
CONTINUOUS
 62
             7
100
AcDbLine
 10
-235.48191900000029
 20
-250.51664352951221
 11
-235.48191900000029
 21
-251.51664352951221
  0
LINE
  5
12B
100
AcDbEntity
  8
LC-002-002-----0
  6
CONTINUOUS
 62
             7
100
AcDbLine
 10
-235.27103500000021
 20
-254.6843555295122
 11
-235.37020600000019
 21
-253.68818052951221
  0
LINE
  5
12A
100
AcDbEntity
  8
LC-002-002-----0
  6
CONTINUOUS
 62
             7
100
AcDbLine
 10
-228.22873100000021
 20
-254.56562752951231
 11
-228.39725300000021
 21
-253.07240052951241
  0
LINE
  5
129
100
AcDbEntity
  8
LC-002-002-----0
  6
CONTINUOUS
 62
             7
100
AcDbLine
 10
-228.48191900000029
 20
-250.26664352951221
 11
-228.48191900000029
 21
-251.76664352951221
  0
LINE
  5
128
100
AcDbEntity
  8
LC-002-002-----0
  6
CONTINUOUS
 62
             7
100
AcDbLine
 10
-228.22873100000021
 20
-247.4676595295123
 11
-228.39725300000021
 21
-248.96088552951221
  0
LINE
  5
127
100
AcDbEntity
  8
LC-002-002-----0
  6
CONTINUOUS
 62
             7
100
AcDbLine
 10
-228.25681800000021
 20
-247.71653052951231
 11
-235.27103500000021
 21
-247.34893052951219
  0
LINE
  5
126
100
AcDbEntity
  8
LC-002-002-----0
  6
CONTINUOUS
 62
             7
100
AcDbLine
 10
-228.36916600000029
 20
-248.7120145295124
 11
-235.37020600000019
 21
-248.34510552951221
  0
LINE
  5
125
100
AcDbEntity
  8
LC-002-002-----0
  6
CONTINUOUS
 62
             7
100
AcDbLine
 10
-228.48191900000029
 20
-250.51664352951221
 11
-235.48191900000029
 21
-250.51664352951221
  0
LINE
  5
124
100
AcDbEntity
  8
LC-002-002-----0
  6
CONTINUOUS
 62
             7
100
AcDbLine
 10
-228.48191900000029
 20
-251.51664352951221
 11
-235.48191900000029
 21
-251.51664352951221
  0
LINE
  5
123
100
AcDbEntity
  8
LC-002-002-----0
  6
CONTINUOUS
 62
             7
100
AcDbLine
 10
-228.36916600000029
 20
-253.3212715295123
 11
-235.37020600000019
 21
-253.68818052951221
  0
LINE
  5
122
100
AcDbEntity
  8
LC-002-002-----0
  6
CONTINUOUS
 62
             7
100
AcDbLine
 10
-228.25681800000021
 20
-254.3167565295123
 11
-235.27103500000021
 21
-254.6843555295122
  0
LINE
  5
121
100
AcDbEntity
  8
LC-002-002-----0
  6
CONTINUOUS
 62
             7
100
AcDbLine
 10
-203.48191900000029
 20
-253.26870152951241
 11
-228.22873100000021
 21
-254.56562752951231
  0
LINE
  5
120
100
AcDbEntity
  8
LC-002-002-----0
  6
CONTINUOUS
 62
             7
100
AcDbLine
 10
-203.48191900000029
 20
-251.76664352951221
 11
-228.39725300000021
 21
-253.07240052951241
  0
LINE
  5
11F
100
AcDbEntity
  8
LC-002-002-----0
  6
CONTINUOUS
 62
             7
100
AcDbLine
 10
-203.48191900000029
 20
-251.76664352951221
 11
-228.48191900000029
 21
-251.76664352951221
  0
LINE
  5
11E
100
AcDbEntity
  8
LC-002-002-----0
  6
CONTINUOUS
 62
             7
100
AcDbLine
 10
-203.48191900000029
 20
-250.26664352951221
 11
-228.48191900000029
 21
-250.26664352951221
  0
LINE
  5
11D
100
AcDbEntity
  8
LC-002-002-----0
  6
CONTINUOUS
 62
             7
100
AcDbLine
 10
-203.48191900000029
 20
-250.26664352951221
 11
-228.39725300000021
 21
-248.96088552951221
  0
LINE
  5
11C
100
AcDbEntity
  8
LC-002-002-----0
  6
CONTINUOUS
 62
             7
100
AcDbLine
 10
-203.48191900000029
 20
-248.7645845295124
 11
-228.22873100000021
 21
-247.4676595295123
  0
LINE
  5
11B
100
AcDbEntity
  8
LC-002-002-----0
  6
CONTINUOUS
 62
             7
100
AcDbLine
 10
-203.48191900000029
 20
-247.76664352951221
 11
-203.48191900000029
 21
-254.26664352951221
  0
LINE
  5
11A
100
AcDbEntity
  8
LC-002-002-----0
  6
CONTINUOUS
 62
             7
100
AcDbLine
 10
-155.7280030000002
 20
-247.76664352951221
 11
-203.48191900000029
 21
-247.76664352951221
  0
LINE
  5
119
100
AcDbEntity
  8
LC-002-002-----0
  6
CONTINUOUS
 62
             7
100
AcDbLine
 10
-155.7280030000002
 20
-254.26664352951221
 11
-203.48191900000029
 21
-254.26664352951221
  0
LINE
  5
118
100
AcDbEntity
  8
LC-002-002-----0
  6
CONTINUOUS
 62
             7
100
AcDbLine
 10
-113.3022660000001
 20
-254.26664352951221
 11
-153.7280030000002
 21
-254.26664352951221
  0
LINE
  5
117
100
AcDbEntity
  8
LC-002-002-----0
  6
CONTINUOUS
 62
             7
100
AcDbLine
 10
-113.3022660000001
 20
-247.76664352951221
 11
-153.7280030000002
 21
-247.76664352951221
  0
POINT
  5
116
100
AcDbEntity
  8
0
 62
             7
100
AcDbPoint
 10
159.0395280000001
 20
-136.9214045295123
  0
POINT
  5
115
100
AcDbEntity
  8
0
 62
             7
100
AcDbPoint
 10
-104.0
 20
-101.32158552951221
  0
POINT
  5
114
100
AcDbEntity
  8
0
 62
             7
100
AcDbPoint
 10
-175.49999399999979
 20
-68.00064752951232
  0
POINT
  5
113
100
AcDbEntity
  8
0
 62
             7
100
AcDbPoint
 10
-33.306425
 20
-213.3215855295123
  0
POINT
  5
112
100
AcDbEntity
  8
0
 62
             7
100
AcDbPoint
 10
-177.4999829999999
 20
-71.00854552951216
  0
POINT
  5
111
100
AcDbEntity
  8
0
 62
             7
100
AcDbPoint
 10
176.50000400000019
 20
-70.99904452951216
  0
ENDBLK
  5
190
100
AcDbEntity
  8
0
100
AcDbBlockEnd
  0
BLOCK
  5
3B
100
AcDbEntity
  8
0
100
AcDbBlockBegin
  2
HL_64_FLACHDACHABLAUF__5
 70
             0
 10
402.24159236047728
 20
858.45118633100356
 30
0.0
  3
HL_64_FLACHDACHABLAUF__5
  1

  0
INSERT
  5
3C
100
AcDbEntity
  8
1
100
AcDbBlockReference
  2
HL_64_1B_FLACHDACHABLAUF
 10
402.24159236047728
 20
858.45118633100356
  0
ENDBLK
  5
191
100
AcDbEntity
  8
0
100
AcDbBlockEnd
  0
BLOCK
  5
3E
100
AcDbEntity
  8
0
100
AcDbBlockBegin
  2
HL_64_1B_FLACHDACHABLA0__6
 70
             0
 10
904.37268700000027
 20
930.45571613384323
 30
0.0
  3
HL_64_1B_FLACHDACHABLA0__6
  1

  0
INSERT
  5
3F
100
AcDbEntity
  8
1
100
AcDbBlockReference
  2
HL_72_KELLERABLAUF_DN10__4
 10
327.74656547451491
 20
594.03912991213463
  0
INSERT
  5
40
100
AcDbEntity
  8
0
100
AcDbBlockReference
  2
HL_64_FLACHDACHABLAUF__5
 10
402.24159236047728
 20
858.45118633100356
  0
ENDBLK
  5
192
100
AcDbEntity
  8
0
100
AcDbBlockEnd
  0
BLOCK
  5
42
100
AcDbEntity
  8
0
100
AcDbBlockBegin
  2
HL_64B_FLACHDACHABLAUF
 70
             0
 10
0.0
 20
250.433574604331
 30
0.0
  3
HL_64B_FLACHDACHABLAUF
  1

  0
DIMENSION
  5
1D5
100
AcDbEntity
  8
1
100
AcDbDimension
  2
*D15
 10
-192.3757748646486
 20
-213.32158552951228
 11
-199.3757748646486
 21
-147.31192684590701
 31
0.0
 53
90.0
  1
<>
  3
ME10_DIM_5
100
AcDbAlignedDimension
 13
-175.49999399999979
 23
-68.00064752951232
 14
-33.306425
 24
-213.3215855295123
 50
90.0
100
AcDbRotatedDimension
  0
DIMENSION
  5
1CA
100
AcDbEntity
  8
1
100
AcDbDimension
  2
*D14
 10
-192.3757748646486
 20
0.0
 11
-199.3757748646486
 21
-34.13940139847603
 31
0.0
 53
90.0
  1
<>
  3
ME10_DIM_4
100
AcDbAlignedDimension
 13
-175.49999399999979
 23
-68.00064752951232
 14
-73.5
 24
0.0
 50
90.0
100
AcDbRotatedDimension
  0
DIMENSION
  5
1BF
100
AcDbEntity
  8
1
100
AcDbDimension
  2
*D13
 10
73.50000000000011
 20
10.91040988325403
 11
-21.73788682057977
 21
17.91040988325403
 31
0.0
 53
180.0
  1
150x150
  3
ME10_DIM_3
100
AcDbAlignedDimension
 13
-73.5
 23
0.0
 14
73.50000000000011
 24
0.0
 50
180.0
100
AcDbRotatedDimension
  0
DIMENSION
  5
1B4
100
AcDbEntity
  8
1
100
AcDbDimension
  2
*D12
 10
176.50000400000022
 20
31.9213428777137
 11
11.68859748878822
 21
38.9213428777137
 31
0.0
 53
180.0
  1
<>
  3
ME10_DIM_2
100
AcDbAlignedDimension
 13
-177.4999829999999
 23
-71.00854552951216
 14
176.50000400000019
 24
-69.99935452951229
 50
180.0
100
AcDbRotatedDimension
  0
DIMENSION
  5
1A9
100
AcDbEntity
  8
1
100
AcDbDimension
  2
*D11
 10
340.44072066843006
 20
-132.45801719470364
 11
330.74310896506603
 21
-183.7482132869502
 31
0.0
 53
86.99999999425671
  1
<>
  3
ME10_DIM_1
100
AcDbAlignedDimension
 13
288.83085846718689
 23
-239.90421715000619
 14
294.58781346718678
 24
-130.0549681500062
 50
86.99999999425671
100
AcDbRotatedDimension
  0
DIMENSION
  5
19E
100
AcDbEntity
  8
1
100
AcDbDimension
  2
*D10
 10
184.30790859773498
 20
-135.77809859991481
 11
175.42216770763781
 21
-171.576871758896
 31
0.0
 53
86.99999958006349
  1
DN75
  3
ME10_DIM_0
100
AcDbAlignedDimension
 13
150.7523470000001
 23
-209.08038752951231
 14
154.67534500000011
 24
-134.22512152951231
 50
86.99999958006349
100
AcDbRotatedDimension
  0
INSERT
  5
43
100
AcDbEntity
  8
0
100
AcDbBlockReference
  2
HL_64_FLACHDACHABLAUF__3
 10
0.0
 20
250.43357460433111
  0
INSERT
  5
44
100
AcDbEntity
  8
0
100
AcDbBlockReference
  2
HL_64_1B_FLACHDACHABLA0__6
 10
904.37268700000027
 20
930.45571613384323
  0
ENDBLK
  5
1D6
100
AcDbEntity
  8
0
100
AcDbBlockEnd
  0
BLOCK
  5
46
100
AcDbEntity
  8
0
100
AcDbBlockBegin
  2
HL_72_KELLERABLAUF_DN10__7
 70
             0
 10
0.0
 20
0.0
 30
0.0
  3
HL_72_KELLERABLAUF_DN10__7
  1

  0
ENDBLK
  5
1D7
100
AcDbEntity
  8
0
100
AcDbBlockEnd
  0
BLOCK
  5
194
100
AcDbEntity
  8
0
100
AcDbBlockBegin
  2
*D10
 70
             1
 10
0.0
 20
0.0
 30
0.0
  3
*D10
  1

  0
LINE
  5
195
100
AcDbEntity
  8
0
  6
CONTINUOUS
 62
             4
100
AcDbLine
 10
184.30790859773498
 20
-135.77809859991481
 11
180.38490979110742
 21
-210.63336455764122
  0
LINE
  5
196
100
AcDbEntity
  8
0
  6
CONTINUOUS
 62
             4
100
AcDbLine
 10
150.75234700000013
 20
-209.08038752951231
 11
182.3821688598494
 21
-210.73803648476556
  0
LINE
  5
197
100
AcDbEntity
  8
0
  6
CONTINUOUS
 62
             4
100
AcDbLine
 10
154.67534500000014
 20
-134.22512152951234
 11
186.30516766647696
 21
-135.88277052703916
  0
SOLID
  5
198
100
AcDbEntity
  8
0
 62
             4
100
AcDbTrace
 10
185.09926968575806
 20
-145.83329554679074
 11
182.46982823846847
 21
-145.69549234045869
 12
184.30790859773498
 22
-135.77809859991481
 13
184.30790859773498
 23
-135.77809859991481
  0
SOLID
  5
199
100
AcDbEntity
  8
0
 62
             4
100
AcDbTrace
 10
179.59354870308434
 20
-200.57816761076529
 11
182.22299015037393
 21
-200.71597081709734
 12
180.38490979110742
 22
-210.63336455764122
 13
180.38490979110742
 23
-210.63336455764122
  0
MTEXT
  5
19B
100
AcDbEntity
  8
0
 62
             1
100
AcDbMText
 10
179.7401814495407
 20
-184.72087257009264
 30
0.0
 40
10.0
 41
0.0
 71
             7
 72
             1
  1
\C1;DN\C1;75
  7
CONVERTER_1
 11
0.05233596356217
 21
0.99862953437099
 31
0.0
  0
ENDBLK
  5
19C
100
AcDbEntity
  8
0
100
AcDbBlockEnd
  0
BLOCK
  5
1A0
100
AcDbEntity
  8
0
100
AcDbBlockBegin
  2
*D11
 70
             1
 10
0.0
 20
0.0
 30
0.0
  3
*D11
  1

  0
LINE
  5
1A1
100
AcDbEntity
  8
0
  6
CONTINUOUS
 62
             4
100
AcDbLine
 10
340.44072066843006
 20
-132.45801719470364
 11
334.68376546195589
 21
-242.30726618388277
  0
LINE
  5
1A2
100
AcDbEntity
  8
0
  6
CONTINUOUS
 62
             4
100
AcDbLine
 10
294.58781346718678
 20
-130.05496815000623
 11
342.43797973792874
 21
-132.56268910738973
  0
LINE
  5
1A3
100
AcDbEntity
  8
0
  6
CONTINUOUS
 62
             4
100
AcDbLine
 10
288.83085846718689
 20
-239.90421715000622
 11
336.68102453145457
 21
-242.41193809656886
  0
SOLID
  5
1A4
100
AcDbEntity
  8
0
 62
             4
100
AcDbTrace
 10
341.23208182914266
 20
-142.51321413585879
 11
338.60264038085688
 21
-142.37541094853509
 12
340.44072066843006
 22
-132.45801719470364
 13
340.44072066843006
 23
-132.45801719470364
  0
SOLID
  5
1A5
100
AcDbEntity
  8
0
 62
             4
100
AcDbTrace
 10
333.89240430124329
 20
-232.25206924272763
 11
336.52184574952906
 21
-232.38987243005133
 12
334.68376546195589
 22
-242.30726618388277
 13
334.68376546195589
 23
-242.30726618388277
  0
MTEXT
  5
1A6
100
AcDbEntity
  8
0
 62
             1
100
AcDbMText
 10
334.98261886747281
 20
-198.39015836905577
 30
0.0
 40
10.0
 41
0.0
 71
             7
 72
             1
  1
\C1;DN\C1;110
  7
CONVERTER_1
 11
0.05233595634305
 21
0.99862953474933
 31
0.0
  0
ENDBLK
  5
1A7
100
AcDbEntity
  8
0
100
AcDbBlockEnd
  0
BLOCK
  5
1AB
100
AcDbEntity
  8
0
100
AcDbBlockBegin
  2
*D12
 70
             1
 10
0.0
 20
0.0
 30
0.0
  3
*D12
  1

  0
LINE
  5
1AC
100
AcDbEntity
  8
0
  6
CONTINUOUS
 62
             4
100
AcDbLine
 10
176.50000400000022
 20
31.9213428777137
 11
-177.49998299999987
 21
31.9213428777137
  0
LINE
  5
1AD
100
AcDbEntity
  8
0
  6
CONTINUOUS
 62
             4
100
AcDbLine
 10
-177.49998299999987
 20
-71.00854552951221
 11
-177.49998299999987
 21
33.9213428777137
  0
LINE
  5
1AE
100
AcDbEntity
  8
0
  6
CONTINUOUS
 62
             4
100
AcDbLine
 10
176.50000400000022
 20
-69.9993545295123
 11
176.50000400000022
 21
33.9213428777137
  0
SOLID
  5
1AF
100
AcDbEntity
  8
0
 62
             4
100
AcDbTrace
 10
166.50000400000022
 20
30.60481790183974
 11
166.50000400000022
 21
33.23786785358766
 12
176.50000400000022
 22
31.9213428777137
 13
176.50000400000022
 23
31.9213428777137
  0
SOLID
  5
1B0
100
AcDbEntity
  8
0
 62
             4
100
AcDbTrace
 10
-167.49998299999987
 20
33.23786785358766
 11
-167.49998299999987
 21
30.60481790183974
 12
-177.49998299999987
 22
31.9213428777137
 13
-177.49998299999987
 23
31.9213428777137
  0
MTEXT
  5
1B1
100
AcDbEntity
  8
0
 62
             1
100
AcDbMText
 10
-2.51140251118769
 20
33.92132300035277
 30
0.0
 40
10.0
 41
0.0
 71
             7
 72
             1
  1
\C1;Ø\C1;354
  7
CONVERTER_1
 11
0.99999999999706
 21
0.00000242406841
 31
0.0
  0
ENDBLK
  5
1B2
100
AcDbEntity
  8
0
100
AcDbBlockEnd
  0
BLOCK
  5
1B6
100
AcDbEntity
  8
0
100
AcDbBlockBegin
  2
*D13
 70
             1
 10
0.0
 20
0.0
 30
0.0
  3
*D13
  1

  0
LINE
  5
1B7
100
AcDbEntity
  8
0
  6
CONTINUOUS
 62
             4
100
AcDbLine
 10
73.50000000000011
 20
10.91040988325403
 11
-73.5
 21
10.91040988325403
  0
LINE
  5
1B8
100
AcDbEntity
  8
0
  6
CONTINUOUS
 62
             4
100
AcDbLine
 10
-73.5
 20
0.0
 11
-73.5
 21
12.91040988325403
  0
LINE
  5
1B9
100
AcDbEntity
  8
0
  6
CONTINUOUS
 62
             4
100
AcDbLine
 10
73.50000000000011
 20
0.0
 11
73.50000000000011
 21
12.91040988325403
  0
SOLID
  5
1BA
100
AcDbEntity
  8
0
 62
             4
100
AcDbTrace
 10
63.50000000000011
 20
9.59388490738007
 11
63.50000000000011
 21
12.22693485912799
 12
73.50000000000011
 22
10.91040988325403
 13
73.50000000000011
 23
10.91040988325403
  0
SOLID
  5
1BB
100
AcDbEntity
  8
0
 62
             4
100
AcDbTrace
 10
-63.5
 20
12.22693485912799
 11
-63.5
 21
9.59388490738007
 12
-73.5
 22
10.91040988325403
 13
-73.5
 23
10.91040988325403
  0
MTEXT
  5
1BC
100
AcDbEntity
  8
0
 62
             1
100
AcDbMText
 10
-47.53788682048341
 20
12.91033037381033
 30
0.0
 40
10.0
 41
0.0
 71
             7
 72
             1
  1
\C1;150x\C1;150
  7
CONVERTER_1
 11
0.99999999999706
 21
0.00000242406841
 31
0.0
  0
ENDBLK
  5
1BD
100
AcDbEntity
  8
0
100
AcDbBlockEnd
  0
BLOCK
  5
1C1
100
AcDbEntity
  8
0
100
AcDbBlockBegin
  2
*D14
 70
             1
 10
0.0
 20
0.0
 30
0.0
  3
*D14
  1

  0
LINE
  5
1C2
100
AcDbEntity
  8
0
  6
CONTINUOUS
 62
             4
100
AcDbLine
 10
-192.3757748646486
 20
0.0
 11
-192.3757748646486
 21
-68.00064752951234
  0
LINE
  5
1C3
100
AcDbEntity
  8
0
  6
CONTINUOUS
 62
             4
100
AcDbLine
 10
-175.49999399999979
 20
-68.00064752951234
 11
-194.3757748646486
 21
-68.00064752951234
  0
LINE
  5
1C4
100
AcDbEntity
  8
0
  6
CONTINUOUS
 62
             4
100
AcDbLine
 10
-73.5
 20
0.0
 11
-194.3757748646486
 21
0.0
  0
SOLID
  5
1C5
100
AcDbEntity
  8
0
 62
             4
100
AcDbTrace
 10
-191.05924988877464
 20
-10.0
 11
-193.69229984052257
 21
-10.0
 12
-192.3757748646486
 22
0.0
 13
-192.3757748646486
 23
0.0
  0
SOLID
  5
1C6
100
AcDbEntity
  8
0
 62
             4
100
AcDbTrace
 10
-193.69229984052257
 20
-58.00064752951234
 11
-191.05924988877464
 21
-58.00064752951234
 12
-192.3757748646486
 22
-68.00064752951234
 13
-192.3757748646486
 23
-68.00064752951234
  0
MTEXT
  5
1C7
100
AcDbEntity
  8
0
 62
             1
100
AcDbMText
 10
-194.3757748646486
 20
-52.23940139847603
 30
0.0
 40
10.0
 41
0.0
 71
             7
 72
             1
  1
\C1;20-\C1;68
  7
CONVERTER_1
 11
0.0
 21
1.0
 31
0.0
  0
ENDBLK
  5
1C8
100
AcDbEntity
  8
0
100
AcDbBlockEnd
  0
BLOCK
  5
1CC
100
AcDbEntity
  8
0
100
AcDbBlockBegin
  2
*D15
 70
             1
 10
0.0
 20
0.0
 30
0.0
  3
*D15
  1

  0
LINE
  5
1CD
100
AcDbEntity
  8
0
  6
CONTINUOUS
 62
             4
100
AcDbLine
 10
-192.3757748646486
 20
-213.32158552951228
 11
-192.3757748646486
 21
-68.00064752951232
  0
LINE
  5
1CE
100
AcDbEntity
  8
0
  6
CONTINUOUS
 62
             4
100
AcDbLine
 10
-175.49999399999979
 20
-68.00064752951232
 11
-194.3757748646486
 21
-68.00064752951232
  0
LINE
  5
1CF
100
AcDbEntity
  8
0
  6
CONTINUOUS
 62
             4
100
AcDbLine
 10
-33.30642500000002
 20
-213.32158552951228
 11
-194.3757748646486
 21
-213.32158552951228
  0
SOLID
  5
1D0
100
AcDbEntity
  8
0
 62
             4
100
AcDbTrace
 10
-193.69229984052257
 20
-203.32158552951228
 11
-191.05924988877464
 21
-203.32158552951228
 12
-192.3757748646486
 22
-213.32158552951228
 13
-192.3757748646486
 23
-213.32158552951228
  0
SOLID
  5
1D1
100
AcDbEntity
  8
0
 62
             4
100
AcDbTrace
 10
-191.05924988877464
 20
-78.00064752951232
 11
-193.69229984052257
 21
-78.00064752951232
 12
-192.3757748646486
 22
-68.00064752951232
 13
-192.3757748646486
 23
-68.00064752951232
  0
MTEXT
  5
1D2
100
AcDbEntity
  8
0
 62
             1
100
AcDbMText
 10
-194.3757748646486
 20
-157.81192684590701
 30
0.0
 40
10.0
 41
0.0
 71
             7
 72
             1
  1
145
  7
CONVERTER_1
 11
0.0
 21
1.0
 31
0.0
  0
ENDBLK
  5
1D3
100
AcDbEntity
  8
0
100
AcDbBlockEnd
  0
ENDSEC
  0
SECTION
  2
ENTITIES
  0
INSERT
  5
49
100
AcDbEntity
  8
0
100
AcDbBlockReference
  2
HL_64B_FLACHDACHABLAUF
 10
0.0
 20
250.433574604331
  0
INSERT
  5
4A
100
AcDbEntity
  8
1
100
AcDbBlockReference
  2
HL_72_KELLERABLAUF_DN10__7
 10
0.0
 20
0.0
  0
ENDSEC
  0
SECTION
  2
OBJECTS
  0
DICTIONARY
  5
19
100
AcDbDictionary
  3
ACAD_GROUP
350
1A
  3
ACAD_MLINESTYLE
350
1B
  0
DICTIONARY
  5
1A
102
{ACAD_REACTORS
330
19
102
}
100
AcDbDictionary
  0
DICTIONARY
  5
1B
102
{ACAD_REACTORS
330
19
102
}
100
AcDbDictionary
  3
STANDARD
350
1C
  0
MLINESTYLE
  5
1C
102
{ACAD_REACTORS
330
1B
102
}
100
AcDbMlineStyle
  2
STANDARD
 70
             0
  3

 62
             0
 51
90.0
 52
90.0
 71
             2
 49
0.5
 62
           256
  6
BYLAYER
 49
-0.5
 62
           256
  6
BYLAYER
  0
ENDSEC
  0
EOF
