  0
SECTION
  2
HEADER
  9
$ACADVER
  1
AC1015
  9
$ACADMAINTVER
 70
     6
  9
$DWGCODEPAGE
  3
ANSI_1252
  9
$INSBASE
 10
0.0
 20
0.0
 30
0.0
  9
$EXTMIN
 10
-195.721672165538
 20
-2199.639551387891
 30
0.0
  9
$EXTMAX
 10
1275.499999997508
 20
-1391.181753862088
 30
0.0
  9
$LIMMIN
 10
0.0
 20
0.0
  9
$LIMMAX
 10
12.0
 20
9.0
  9
$ORTHOMODE
 70
     0
  9
$REGENMODE
 70
     1
  9
$FILLMODE
 70
     1
  9
$QTEXTMODE
 70
     0
  9
$MIRRTEXT
 70
     1
  9
$LTSCALE
 40
1.0
  9
$ATTMODE
 70
     1
  9
$TEXTSIZE
 40
0.2
  9
$TRACEWID
 40
0.05
  9
$TEXTSTYLE
  7
Standard
  9
$CLAYER
  8
0
  9
$CELTYPE
  6
ByLayer
  9
$CECOLOR
 62
   256
  9
$CELTSCALE
 40
1.0
  9
$DISPSILH
 70
     0
  9
$DIMSCALE
 40
1.0
  9
$DIMASZ
 40
0.18
  9
$DIMEXO
 40
0.0625
  9
$DIMDLI
 40
0.38
  9
$DIMRND
 40
0.0
  9
$DIMDLE
 40
0.0
  9
$DIMEXE
 40
0.18
  9
$DIMTP
 40
0.0
  9
$DIMTM
 40
0.0
  9
$DIMTXT
 40
0.18
  9
$DIMCEN
 40
0.09
  9
$DIMTSZ
 40
0.0
  9
$DIMTOL
 70
     0
  9
$DIMLIM
 70
     0
  9
$DIMTIH
 70
     1
  9
$DIMTOH
 70
     1
  9
$DIMSE1
 70
     0
  9
$DIMSE2
 70
     0
  9
$DIMTAD
 70
     0
  9
$DIMZIN
 70
     0
  9
$DIMBLK
  1

  9
$DIMASO
 70
     1
  9
$DIMSHO
 70
     1
  9
$DIMPOST
  1

  9
$DIMAPOST
  1

  9
$DIMALT
 70
     0
  9
$DIMALTD
 70
     2
  9
$DIMALTF
 40
25.4
  9
$DIMLFAC
 40
1.0
  9
$DIMTOFL
 70
     0
  9
$DIMTVP
 40
0.0
  9
$DIMTIX
 70
     0
  9
$DIMSOXD
 70
     0
  9
$DIMSAH
 70
     0
  9
$DIMBLK1
  1

  9
$DIMBLK2
  1

  9
$DIMSTYLE
  2
Standard
  9
$DIMCLRD
 70
     0
  9
$DIMCLRE
 70
     0
  9
$DIMCLRT
 70
     0
  9
$DIMTFAC
 40
1.0
  9
$DIMGAP
 40
0.09
  9
$DIMJUST
 70
     0
  9
$DIMSD1
 70
     0
  9
$DIMSD2
 70
     0
  9
$DIMTOLJ
 70
     1
  9
$DIMTZIN
 70
     0
  9
$DIMALTZ
 70
     0
  9
$DIMALTTZ
 70
     0
  9
$DIMUPT
 70
     0
  9
$DIMDEC
 70
     4
  9
$DIMTDEC
 70
     4
  9
$DIMALTU
 70
     2
  9
$DIMALTTD
 70
     2
  9
$DIMTXSTY
  7
Standard
  9
$DIMAUNIT
 70
     0
  9
$DIMADEC
 70
     0
  9
$DIMALTRND
 40
0.0
  9
$DIMAZIN
 70
     0
  9
$DIMDSEP
 70
    46
  9
$DIMATFIT
 70
     3
  9
$DIMFRAC
 70
     0
  9
$DIMLDRBLK
  1

  9
$DIMLUNIT
 70
     2
  9
$DIMLWD
 70
    -2
  9
$DIMLWE
 70
    -2
  9
$DIMTMOVE
 70
     0
  9
$LUNITS
 70
     2
  9
$LUPREC
 70
     4
  9
$SKETCHINC
 40
0.1
  9
$FILLETRAD
 40
0.5
  9
$AUNITS
 70
     0
  9
$AUPREC
 70
     0
  9
$MENU
  1
.
  9
$ELEVATION
 40
0.0
  9
$PELEVATION
 40
0.0
  9
$THICKNESS
 40
0.0
  9
$LIMCHECK
 70
     0
  9
$CHAMFERA
 40
0.0
  9
$CHAMFERB
 40
0.0
  9
$CHAMFERC
 40
0.0
  9
$CHAMFERD
 40
0.0
  9
$SKPOLY
 70
     0
  9
$TDCREATE
 40
2458408.594579908
  9
$TDUCREATE
 40
2458408.511246574
  9
$TDUPDATE
 40
2458408.594580266
  9
$TDUUPDATE
 40
2458408.511246933
  9
$TDINDWG
 40
0.0000000116
  9
$TDUSRTIMER
 40
0.0000000116
  9
$USRTIMER
 70
     1
  9
$ANGBASE
 50
0.0
  9
$ANGDIR
 70
     0
  9
$PDMODE
 70
     0
  9
$PDSIZE
 40
0.0
  9
$PLINEWID
 40
0.0
  9
$SPLFRAME
 70
     0
  9
$SPLINETYPE
 70
     6
  9
$SPLINESEGS
 70
     8
  9
$HANDSEED
  5
4C8
  9
$SURFTAB1
 70
     6
  9
$SURFTAB2
 70
     6
  9
$SURFTYPE
 70
     6
  9
$SURFU
 70
     6
  9
$SURFV
 70
     6
  9
$UCSBASE
  2

  9
$UCSNAME
  2

  9
$UCSORG
 10
0.0
 20
0.0
 30
0.0
  9
$UCSXDIR
 10
1.0
 20
0.0
 30
0.0
  9
$UCSYDIR
 10
0.0
 20
1.0
 30
0.0
  9
$UCSORTHOREF
  2

  9
$UCSORTHOVIEW
 70
     0
  9
$UCSORGTOP
 10
0.0
 20
0.0
 30
0.0
  9
$UCSORGBOTTOM
 10
0.0
 20
0.0
 30
0.0
  9
$UCSORGLEFT
 10
0.0
 20
0.0
 30
0.0
  9
$UCSORGRIGHT
 10
0.0
 20
0.0
 30
0.0
  9
$UCSORGFRONT
 10
0.0
 20
0.0
 30
0.0
  9
$UCSORGBACK
 10
0.0
 20
0.0
 30
0.0
  9
$PUCSBASE
  2

  9
$PUCSNAME
  2

  9
$PUCSORG
 10
0.0
 20
0.0
 30
0.0
  9
$PUCSXDIR
 10
1.0
 20
0.0
 30
0.0
  9
$PUCSYDIR
 10
0.0
 20
1.0
 30
0.0
  9
$PUCSORTHOREF
  2

  9
$PUCSORTHOVIEW
 70
     0
  9
$PUCSORGTOP
 10
0.0
 20
0.0
 30
0.0
  9
$PUCSORGBOTTOM
 10
0.0
 20
0.0
 30
0.0
  9
$PUCSORGLEFT
 10
0.0
 20
0.0
 30
0.0
  9
$PUCSORGRIGHT
 10
0.0
 20
0.0
 30
0.0
  9
$PUCSORGFRONT
 10
0.0
 20
0.0
 30
0.0
  9
$PUCSORGBACK
 10
0.0
 20
0.0
 30
0.0
  9
$USERI1
 70
     0
  9
$USERI2
 70
     0
  9
$USERI3
 70
     0
  9
$USERI4
 70
     0
  9
$USERI5
 70
     0
  9
$USERR1
 40
20.0
  9
$USERR2
 40
0.0
  9
$USERR3
 40
0.0
  9
$USERR4
 40
0.0
  9
$USERR5
 40
0.0
  9
$WORLDVIEW
 70
     1
  9
$SHADEDGE
 70
     3
  9
$SHADEDIF
 70
    70
  9
$TILEMODE
 70
     1
  9
$MAXACTVP
 70
    64
  9
$PINSBASE
 10
0.0
 20
0.0
 30
0.0
  9
$PLIMCHECK
 70
     0
  9
$PEXTMIN
 10
1.00000000000000E+20
 20
1.00000000000000E+20
 30
1.00000000000000E+20
  9
$PEXTMAX
 10
-1.00000000000000E+20
 20
-1.00000000000000E+20
 30
-1.00000000000000E+20
  9
$PLIMMIN
 10
0.0
 20
0.0
  9
$PLIMMAX
 10
12.0
 20
9.0
  9
$UNITMODE
 70
     0
  9
$VISRETAIN
 70
     1
  9
$PLINEGEN
 70
     0
  9
$PSLTSCALE
 70
     1
  9
$TREEDEPTH
 70
  3020
  9
$CMLSTYLE
  2
Standard
  9
$CMLJUST
 70
     0
  9
$CMLSCALE
 40
1.0
  9
$PROXYGRAPHICS
 70
     1
  9
$MEASUREMENT
 70
     1
  9
$CELWEIGHT
370
    -1
  9
$ENDCAPS
280
     0
  9
$JOINSTYLE
280
     0
  9
$LWDISPLAY
290
     0
  9
$INSUNITS
 70
     4
  9
$HYPERLINKBASE
  1

  9
$STYLESHEET
  1

  9
$XEDIT
290
     1
  9
$CEPSNTYPE
380
     0
  9
$PSTYLEMODE
290
     1
  9
$FINGERPRINTGUID
  2
{08CF808E-BB13-43EE-B708-9FB379FC2A17}
  9
$VERSIONGUID
  2
{FAEB1C32-E019-11D5-929B-00C0DF256EC4}
  9
$EXTNAMES
290
     1
  9
$PSVPSCALE
 40
0.0
  9
$OLESTARTUP
290
     0
  0
ENDSEC
  0
SECTION
  2
CLASSES
  0
CLASS
  1
ACDBDICTIONARYWDFLT
  2
AcDbDictionaryWithDefault
  3
ObjectDBX Classes
 90
        0
280
     0
281
     0
  0
CLASS
  1
VISUALSTYLE
  2
AcDbVisualStyle
  3
ObjectDBX Classes
 90
     4095
280
     0
281
     0
  0
CLASS
  1
MATERIAL
  2
AcDbMaterial
  3
ObjectDBX Classes
 90
     1153
280
     0
281
     0
  0
CLASS
  1
SCALE
  2
AcDbScale
  3
ObjectDBX Classes
 90
     1153
280
     0
281
     0
  0
CLASS
  1
TABLESTYLE
  2
AcDbTableStyle
  3
ObjectDBX Classes
 90
     4095
280
     0
281
     0
  0
CLASS
  1
MLEADERSTYLE
  2
AcDbMLeaderStyle
  3
ACDB_MLEADERSTYLE_CLASS
 90
     4095
280
     0
281
     0
  0
CLASS
  1
SUN
  2
AcDbSun
  3
SCENEOE
 90
     1153
280
     0
281
     0
  0
CLASS
  1
DICTIONARYVAR
  2
AcDbDictionaryVar
  3
ObjectDBX Classes
 90
        0
280
     0
281
     0
  0
CLASS
  1
ACDBPLACEHOLDER
  2
AcDbPlaceHolder
  3
ObjectDBX Classes
 90
        0
280
     0
281
     0
  0
CLASS
  1
LAYOUT
  2
AcDbLayout
  3
ObjectDBX Classes
 90
        0
280
     0
281
     0
  0
ENDSEC
  0
SECTION
  2
TABLES
  0
TABLE
  2
VPORT
  5
8
102
{ACAD_XDICTIONARY
360
48B
102
}
330
0
100
AcDbSymbolTable
 70
     1
  0
VPORT
  5
29
330
8
100
AcDbSymbolTableRecord
100
AcDbViewportTableRecord
  2
*Active
 70
     0
 10
0.0
 20
0.0
 11
1.0
 21
1.0
 12
539.889163915985
 22
-1795.41065262499
 13
0.0
 23
0.0
 14
0.5
 24
0.5
 15
0.5
 25
0.5
 16
0.0
 26
0.0
 36
1.0
 17
0.0
 27
0.0
 37
0.0
 40
1009.774429027785
 41
1.60267857142857
 42
50.0
 43
0.0
 44
0.0
 50
0.0
 51
0.0
 71
     0
 72
   100
 73
     1
 74
     3
 75
     0
 76
     0
 77
     0
 78
     0
281
     0
 65
     1
110
0.0
120
0.0
130
0.0
111
1.0
121
0.0
131
0.0
112
0.0
122
1.0
132
0.0
 79
     0
146
0.0
  0
ENDTAB
  0
TABLE
  2
LTYPE
  5
5
330
0
100
AcDbSymbolTable
 70
     8
  0
LTYPE
  5
14
330
5
100
AcDbSymbolTableRecord
100
AcDbLinetypeTableRecord
  2
ByBlock
 70
     0
  3

 72
    65
 73
     0
 40
0.0
  0
LTYPE
  5
15
330
5
100
AcDbSymbolTableRecord
100
AcDbLinetypeTableRecord
  2
ByLayer
 70
     0
  3

 72
    65
 73
     0
 40
0.0
  0
LTYPE
  5
16
330
5
100
AcDbSymbolTableRecord
100
AcDbLinetypeTableRecord
  2
Continuous
 70
     0
  3
Solid line
 72
    65
 73
     0
 40
0.0
  0
LTYPE
  5
6E
330
5
100
AcDbSymbolTableRecord
100
AcDbLinetypeTableRecord
  2
DASHED
 70
     0
  3
Dashed
 72
    65
 73
     2
 40
15.0
 49
7.0
 74
     0
 49
-8.0
 74
     0
  0
LTYPE
  5
6F
330
5
100
AcDbSymbolTableRecord
100
AcDbLinetypeTableRecord
  2
DOTTED
 70
     0
  3
Dotted
 72
    65
 73
     2
 40
1.0
 49
0.0
 74
     0
 49
-1.0
 74
     0
  0
LTYPE
  5
70
330
5
100
AcDbSymbolTableRecord
100
AcDbLinetypeTableRecord
  2
DOT_CENTER
 70
     0
  3
Dot_Center
 72
    65
 73
     4
 40
14.0
 49
12.0
 74
     0
 49
-1.0
 74
     0
 49
0.0
 74
     0
 49
-1.0
 74
     0
  0
LTYPE
  5
71
330
5
100
AcDbSymbolTableRecord
100
AcDbLinetypeTableRecord
  2
LONG_DASHED
 70
     0
  3
Long_Dashed
 72
    65
 73
     2
 40
15.0
 49
10.0
 74
     0
 49
-5.0
 74
     0
  0
LTYPE
  5
72
330
5
100
AcDbSymbolTableRecord
100
AcDbLinetypeTableRecord
  2
DASH_CENTER
 70
     0
  3
Dash_Center
 72
    65
 73
     4
 40
14.0
 49
11.0
 74
     0
 49
-1.0
 74
     0
 49
1.0
 74
     0
 49
-1.0
 74
     0
  0
LTYPE
  5
73
330
5
100
AcDbSymbolTableRecord
100
AcDbLinetypeTableRecord
  2
PHANTOM
 70
     0
  3
Phantom
 72
    65
 73
     6
 40
13.0
 49
10.0
 74
     0
 49
-1.0
 74
     0
 49
0.0
 74
     0
 49
-1.0
 74
     0
 49
0.0
 74
     0
 49
-1.0
 74
     0
  0
LTYPE
  5
74
330
5
100
AcDbSymbolTableRecord
100
AcDbLinetypeTableRecord
  2
CENTER_DASH_DASH
 70
     0
  3
Center_Dash_Dash
 72
    65
 73
     6
 40
14.0
 49
9.0
 74
     0
 49
-1.0
 74
     0
 49
1.0
 74
     0
 49
-1.0
 74
     0
 49
1.0
 74
     0
 49
-1.0
 74
     0
  0
ENDTAB
  0
TABLE
  2
LAYER
  5
2
330
0
100
AcDbSymbolTable
 70
     2
  0
LAYER
  5
10
330
2
100
AcDbSymbolTableRecord
100
AcDbLayerTableRecord
  2
0
 70
     0
 62
     7
  6
Continuous
370
    -3
390
F
  0
LAYER
  5
75
330
2
100
AcDbSymbolTableRecord
100
AcDbLayerTableRecord
  2
1
 70
     0
 62
     7
  6
Continuous
370
    -3
390
F
  0
ENDTAB
  0
TABLE
  2
STYLE
  5
3
330
0
100
AcDbSymbolTable
 70
     3
  0
STYLE
  5
11
330
3
100
AcDbSymbolTableRecord
100
AcDbTextStyleTableRecord
  2
Standard
 70
     0
 40
0.0
 41
1.0
 50
0.0
 71
     0
 42
0.2
  3
txt
  4

  0
STYLE
  5
262
330
3
100
AcDbSymbolTableRecord
100
AcDbTextStyleTableRecord
  2
CONVERTER_11
 70
     0
 40
0.0
 41
0.9
 50
0.0
 71
     0
 42
0.2
  3
txt.shx
  4

  0
STYLE
  5
26A
330
3
100
AcDbSymbolTableRecord
100
AcDbTextStyleTableRecord
  2
CONVERTER_12
 70
     0
 40
0.0
 41
1.2
 50
0.0
 71
     0
 42
0.2
  3
ARIAL.TTF
  4

  0
ENDTAB
  0
TABLE
  2
VIEW
  5
6
330
0
100
AcDbSymbolTable
 70
     0
  0
ENDTAB
  0
TABLE
  2
UCS
  5
7
330
0
100
AcDbSymbolTable
 70
     0
  0
ENDTAB
  0
TABLE
  2
APPID
  5
9
330
0
100
AcDbSymbolTable
 70
     2
  0
APPID
  5
12
330
9
100
AcDbSymbolTableRecord
100
AcDbRegAppTableRecord
  2
ACAD
 70
     0
  0
APPID
  5
4C5
330
9
100
AcDbSymbolTableRecord
100
AcDbRegAppTableRecord
  2
ACAD_MLEADERVER
 70
     0
  0
ENDTAB
  0
TABLE
  2
DIMSTYLE
  5
A
330
0
100
AcDbSymbolTable
 70
    10
100
AcDbDimStyleTable
  0
DIMSTYLE
105
27
330
A
100
AcDbSymbolTableRecord
100
AcDbDimStyleTableRecord
  2
Standard
 70
     0
178
     0
340
11
  0
DIMSTYLE
105
26E
102
{ACAD_REACTORS
330
26F
102
}
330
A
100
AcDbSymbolTableRecord
100
AcDbDimStyleTableRecord
  2
ME10_DIM_10
 70
     0
 41
50.0
 42
0.0
 44
2.0
 73
     0
 74
     0
 77
     1
 78
     8
140
50.0
147
7.0
172
     1
173
     1
174
     1
175
     1
176
     4
177
     4
271
     2
178
     1
271
     2
340
26A
  0
DIMSTYLE
105
279
102
{ACAD_REACTORS
330
27A
102
}
330
A
100
AcDbSymbolTableRecord
100
AcDbDimStyleTableRecord
  2
ME10_DIM_11
 70
     0
 41
50.0
 42
0.0
 44
2.0
 73
     0
 74
     0
 77
     1
 78
     8
140
50.0
147
7.0
172
     1
173
     1
174
     1
175
     1
176
     4
177
     4
271
     2
178
     1
271
     2
340
26A
  0
DIMSTYLE
105
284
102
{ACAD_REACTORS
330
285
102
}
330
A
100
AcDbSymbolTableRecord
100
AcDbDimStyleTableRecord
  2
ME10_DIM_12
 70
     0
 41
50.0
 42
0.0
 44
2.0
 73
     0
 74
     0
 77
     1
 78
     8
140
50.0
147
7.0
172
     1
173
     1
174
     1
175
     1
176
     4
177
     4
271
     2
178
     1
271
     2
340
26A
  0
DIMSTYLE
105
312
102
{ACAD_REACTORS
330
313
102
}
330
A
100
AcDbSymbolTableRecord
100
AcDbDimStyleTableRecord
  2
ME10_DIM_13
 70
     0
 41
50.0
 42
0.0
 44
2.0
 73
     0
 74
     0
 77
     1
 78
     8
140
50.0
147
7.0
172
     1
173
     1
174
     1
175
     1
176
     4
177
     4
271
     2
178
     1
271
     2
340
26A
  0
DIMSTYLE
105
452
102
{ACAD_REACTORS
330
453
102
}
330
A
100
AcDbSymbolTableRecord
100
AcDbDimStyleTableRecord
  2
ME10_DIM_14
 70
     0
 41
50.0
 42
0.0
 44
2.0
 73
     0
 74
     0
 77
     1
 78
     8
140
50.0
147
7.0
172
     1
173
     1
174
     1
175
     1
176
     4
177
     4
271
     2
178
     1
271
     2
340
26A
  0
DIMSTYLE
105
45F
102
{ACAD_REACTORS
330
460
102
}
330
A
100
AcDbSymbolTableRecord
100
AcDbDimStyleTableRecord
  2
ME10_DIM_15
 70
     0
 41
50.0
 42
0.0
 44
2.0
 73
     0
 74
     0
 77
     1
 78
     8
140
50.0
147
7.0
172
     1
173
     1
174
     1
175
     1
176
     4
177
     4
271
     2
178
     1
271
     2
340
26A
  0
DIMSTYLE
105
46A
102
{ACAD_REACTORS
330
46B
102
}
330
A
100
AcDbSymbolTableRecord
100
AcDbDimStyleTableRecord
  2
ME10_DIM_16
 70
     0
 41
50.0
 42
0.0
 44
2.0
 73
     0
 74
     0
 77
     1
 78
     8
140
50.0
147
7.0
172
     1
173
     1
174
     1
175
     1
176
     4
177
     4
271
     2
178
     1
271
     2
340
26A
  0
DIMSTYLE
105
477
102
{ACAD_REACTORS
330
478
102
}
330
A
100
AcDbSymbolTableRecord
100
AcDbDimStyleTableRecord
  2
ME10_DIM_17
 70
     0
 41
50.0
 42
0.0
 44
2.0
 73
     0
 74
     0
 77
     1
 78
     8
140
50.0
147
7.0
172
     1
173
     1
174
     1
175
     1
176
     4
177
     4
271
     2
178
     1
271
     2
340
26A
  0
DIMSTYLE
105
482
102
{ACAD_REACTORS
330
483
102
}
330
A
100
AcDbSymbolTableRecord
100
AcDbDimStyleTableRecord
  2
ME10_DIM_18
 70
     0
 41
50.0
 42
0.0
 44
2.0
 73
     0
 74
     0
 77
     1
 78
     8
140
50.0
147
7.0
172
     1
173
     1
174
     1
175
     1
176
     4
177
     4
271
     2
178
     1
271
     2
340
26A
  0
ENDTAB
  0
TABLE
  2
BLOCK_RECORD
  5
1
330
0
100
AcDbSymbolTable
 70
    48
  0
BLOCK_RECORD
  5
1F
330
1
100
AcDbSymbolTableRecord
100
AcDbBlockTableRecord
  2
*Model_Space
340
22
  0
BLOCK_RECORD
  5
1B
330
1
100
AcDbSymbolTableRecord
100
AcDbBlockTableRecord
  2
*Paper_Space
340
1E
  0
BLOCK_RECORD
  5
23
330
1
100
AcDbSymbolTableRecord
100
AcDbBlockTableRecord
  2
*Paper_Space0
340
26
  0
BLOCK_RECORD
  5
76
330
1
100
AcDbSymbolTableRecord
100
AcDbBlockTableRecord
  2
390997584__1
340
0
102
{BLKREFS
331
9B
102
}
  0
BLOCK_RECORD
  5
79
330
1
100
AcDbSymbolTableRecord
100
AcDbBlockTableRecord
  2
995907500_2__2
340
0
102
{BLKREFS
331
9C
102
}
  0
BLOCK_RECORD
  5
7C
330
1
100
AcDbSymbolTableRecord
100
AcDbBlockTableRecord
  2
995907500_1__3
340
0
102
{BLKREFS
331
9D
102
}
  0
BLOCK_RECORD
  5
7F
330
1
100
AcDbSymbolTableRecord
100
AcDbBlockTableRecord
  2
976007501_1__4
340
0
102
{BLKREFS
331
9E
102
}
  0
BLOCK_RECORD
  5
82
330
1
100
AcDbSymbolTableRecord
100
AcDbBlockTableRecord
  2
390997584_1__5
340
0
102
{BLKREFS
331
9F
102
}
  0
BLOCK_RECORD
  5
85
330
1
100
AcDbSymbolTableRecord
100
AcDbBlockTableRecord
  2
976007501__6
340
0
102
{BLKREFS
331
A0
102
}
  0
BLOCK_RECORD
  5
88
330
1
100
AcDbSymbolTableRecord
100
AcDbBlockTableRecord
  2
995907500_3__7
340
0
102
{BLKREFS
331
A1
102
}
  0
BLOCK_RECORD
  5
8B
330
1
100
AcDbSymbolTableRecord
100
AcDbBlockTableRecord
  2
995907500__8
340
0
102
{BLKREFS
331
A2
102
}
  0
BLOCK_RECORD
  5
8E
330
1
100
AcDbSymbolTableRecord
100
AcDbBlockTableRecord
  2
980057503_1__9
340
0
102
{BLKREFS
331
A3
102
}
  0
BLOCK_RECORD
  5
91
330
1
100
AcDbSymbolTableRecord
100
AcDbBlockTableRecord
  2
368027496__10
340
0
102
{BLKREFS
331
A4
102
}
  0
BLOCK_RECORD
  5
94
330
1
100
AcDbSymbolTableRecord
100
AcDbBlockTableRecord
  2
980057503__11
340
0
102
{BLKREFS
331
A5
102
}
  0
BLOCK_RECORD
  5
97
330
1
100
AcDbSymbolTableRecord
100
AcDbBlockTableRecord
  2
368027496_1__12
340
0
102
{BLKREFS
331
A6
102
}
  0
BLOCK_RECORD
  5
9A
330
1
100
AcDbSymbolTableRecord
100
AcDbBlockTableRecord
  2
539588H_2018-10-05__13
340
0
102
{BLKREFS
331
AA
102
}
  0
BLOCK_RECORD
  5
A9
330
1
100
AcDbSymbolTableRecord
100
AcDbBlockTableRecord
  2
HL6600_2-WEB-Zeichnung__14
340
0
102
{BLKREFS
331
AE
102
}
  0
BLOCK_RECORD
  5
AD
330
1
100
AcDbSymbolTableRecord
100
AcDbBlockTableRecord
  2
Drfsicht1
340
0
102
{BLKREFS
331
10B
102
}
  0
BLOCK_RECORD
  5
B1
330
1
100
AcDbSymbolTableRecord
100
AcDbBlockTableRecord
  2
976007501_1__15
340
0
102
{BLKREFS
331
C1
102
}
  0
BLOCK_RECORD
  5
B4
330
1
100
AcDbSymbolTableRecord
100
AcDbBlockTableRecord
  2
995907500_3__16
340
0
102
{BLKREFS
331
C2
102
}
  0
BLOCK_RECORD
  5
B7
330
1
100
AcDbSymbolTableRecord
100
AcDbBlockTableRecord
  2
390997584__17
340
0
102
{BLKREFS
331
C3
102
}
  0
BLOCK_RECORD
  5
BA
330
1
100
AcDbSymbolTableRecord
100
AcDbBlockTableRecord
  2
980057503_1__18
340
0
102
{BLKREFS
331
C4
102
}
  0
BLOCK_RECORD
  5
BD
330
1
100
AcDbSymbolTableRecord
100
AcDbBlockTableRecord
  2
368027496__19
340
0
102
{BLKREFS
331
C5
102
}
  0
BLOCK_RECORD
  5
C0
330
1
100
AcDbSymbolTableRecord
100
AcDbBlockTableRecord
  2
539588H_2018-10-05__20
340
0
102
{BLKREFS
331
C9
102
}
  0
BLOCK_RECORD
  5
C8
330
1
100
AcDbSymbolTableRecord
100
AcDbBlockTableRecord
  2
HL6600_2-WEB-Zeichnung__21
340
0
102
{BLKREFS
331
CD
102
}
  0
BLOCK_RECORD
  5
CC
330
1
100
AcDbSymbolTableRecord
100
AcDbBlockTableRecord
  2
SA_Links1
340
0
102
{BLKREFS
331
10C
102
}
  0
BLOCK_RECORD
  5
D0
330
1
100
AcDbSymbolTableRecord
100
AcDbBlockTableRecord
  2
995907500_2__22
340
0
102
{BLKREFS
331
F5
102
}
  0
BLOCK_RECORD
  5
D3
330
1
100
AcDbSymbolTableRecord
100
AcDbBlockTableRecord
  2
995907500__23
340
0
102
{BLKREFS
331
F6
102
}
  0
BLOCK_RECORD
  5
D6
330
1
100
AcDbSymbolTableRecord
100
AcDbBlockTableRecord
  2
390997584_1__24
340
0
102
{BLKREFS
331
F7
102
}
  0
BLOCK_RECORD
  5
D9
330
1
100
AcDbSymbolTableRecord
100
AcDbBlockTableRecord
  2
980057503__25
340
0
102
{BLKREFS
331
F8
102
}
  0
BLOCK_RECORD
  5
DC
330
1
100
AcDbSymbolTableRecord
100
AcDbBlockTableRecord
  2
995907500_1__26
340
0
102
{BLKREFS
331
F9
102
}
  0
BLOCK_RECORD
  5
DF
330
1
100
AcDbSymbolTableRecord
100
AcDbBlockTableRecord
  2
995907500_3__27
340
0
102
{BLKREFS
331
FA
102
}
  0
BLOCK_RECORD
  5
E2
330
1
100
AcDbSymbolTableRecord
100
AcDbBlockTableRecord
  2
980057503_1__28
340
0
102
{BLKREFS
331
FB
102
}
  0
BLOCK_RECORD
  5
E5
330
1
100
AcDbSymbolTableRecord
100
AcDbBlockTableRecord
  2
390997584__29
340
0
102
{BLKREFS
331
FC
102
}
  0
BLOCK_RECORD
  5
E8
330
1
100
AcDbSymbolTableRecord
100
AcDbBlockTableRecord
  2
976007501_1__30
340
0
102
{BLKREFS
331
FD
102
}
  0
BLOCK_RECORD
  5
EB
330
1
100
AcDbSymbolTableRecord
100
AcDbBlockTableRecord
  2
368027496__31
340
0
102
{BLKREFS
331
FE
102
}
  0
BLOCK_RECORD
  5
EE
330
1
100
AcDbSymbolTableRecord
100
AcDbBlockTableRecord
  2
368027496_1__32
340
0
102
{BLKREFS
331
FF
102
}
  0
BLOCK_RECORD
  5
F1
330
1
100
AcDbSymbolTableRecord
100
AcDbBlockTableRecord
  2
976007501__33
340
0
102
{BLKREFS
331
100
102
}
  0
BLOCK_RECORD
  5
F4
330
1
100
AcDbSymbolTableRecord
100
AcDbBlockTableRecord
  2
539588H_2018-10-05__34
340
0
102
{BLKREFS
331
104
102
}
  0
BLOCK_RECORD
  5
103
330
1
100
AcDbSymbolTableRecord
100
AcDbBlockTableRecord
  2
HL6600_2-WEB-Zeichnung__35
340
0
102
{BLKREFS
331
108
102
}
  0
BLOCK_RECORD
  5
107
330
1
100
AcDbSymbolTableRecord
100
AcDbBlockTableRecord
  2
Vordans1
340
0
102
{BLKREFS
331
10D
102
}
  0
BLOCK_RECORD
  5
264
330
1
100
AcDbSymbolTableRecord
100
AcDbBlockTableRecord
  2
*D39
340
0
  0
BLOCK_RECORD
  5
270
330
1
100
AcDbSymbolTableRecord
100
AcDbBlockTableRecord
  2
*D40
340
0
  0
BLOCK_RECORD
  5
27B
330
1
100
AcDbSymbolTableRecord
100
AcDbBlockTableRecord
  2
*D41
340
0
  0
BLOCK_RECORD
  5
307
330
1
100
AcDbSymbolTableRecord
100
AcDbBlockTableRecord
  2
*D42
340
0
  0
BLOCK_RECORD
  5
447
330
1
100
AcDbSymbolTableRecord
100
AcDbBlockTableRecord
  2
*D43
340
0
  0
BLOCK_RECORD
  5
454
330
1
100
AcDbSymbolTableRecord
100
AcDbBlockTableRecord
  2
*D44
340
0
  0
BLOCK_RECORD
  5
461
330
1
100
AcDbSymbolTableRecord
100
AcDbBlockTableRecord
  2
*D45
340
0
  0
BLOCK_RECORD
  5
46C
330
1
100
AcDbSymbolTableRecord
100
AcDbBlockTableRecord
  2
*D46
340
0
  0
BLOCK_RECORD
  5
479
330
1
100
AcDbSymbolTableRecord
100
AcDbBlockTableRecord
  2
*D47
340
0
  0
ENDTAB
  0
ENDSEC
  0
SECTION
  2
BLOCKS
  0
BLOCK
  5
20
330
1F
100
AcDbEntity
  8
0
100
AcDbBlockBegin
  2
*Model_Space
 70
     0
 10
0.0
 20
0.0
 30
0.0
  3
*Model_Space
  1

  0
ENDBLK
  5
21
330
1F
100
AcDbEntity
  8
0
100
AcDbBlockEnd
  0
BLOCK
  5
1C
330
1B
100
AcDbEntity
 67
     1
  8
0
100
AcDbBlockBegin
  2
*Paper_Space
 70
     0
 10
0.0
 20
0.0
 30
0.0
  3
*Paper_Space
  1

  0
ENDBLK
  5
1D
330
1B
100
AcDbEntity
 67
     1
  8
0
100
AcDbBlockEnd
  0
BLOCK
  5
24
330
23
100
AcDbEntity
  8
0
100
AcDbBlockBegin
  2
*Paper_Space0
 70
     0
 10
0.0
 20
0.0
 30
0.0
  3
*Paper_Space0
  1

  0
ENDBLK
  5
25
330
23
100
AcDbEntity
  8
0
100
AcDbBlockEnd
  0
BLOCK
  5
77
330
76
100
AcDbEntity
  8
0
100
AcDbBlockBegin
  2
390997584__1
 70
     0
 10
10.99999999900018
 20
-1907.499999997504
 30
0.0
  3
390997584__1
  1

  0
LINE
  5
10E
330
76
100
AcDbEntity
  8
0
  6
Continuous
 62
     7
100
AcDbLine
 10
395.9999999990002
 20
-1906.999999997504
 30
0.0
 11
395.9999999990002
 21
-1907.499999997504
 31
0.0
  0
LINE
  5
10F
330
76
100
AcDbEntity
  8
0
  6
Continuous
 62
     7
100
AcDbLine
 10
10.99999999900018
 20
-1906.999999997504
 30
0.0
 11
10.99999999900018
 21
-1907.499999997504
 31
0.0
  0
LINE
  5
110
330
76
100
AcDbEntity
  8
0
  6
Continuous
 62
     7
100
AcDbLine
 10
395.9999999990002
 20
-1906.999999997504
 30
0.0
 11
10.99999999900018
 21
-1906.999999997504
 31
0.0
  0
LINE
  5
111
330
76
100
AcDbEntity
  8
0
  6
Continuous
 62
     7
100
AcDbLine
 10
395.9999999990002
 20
-1907.499999997504
 30
0.0
 11
10.99999999900018
 21
-1907.499999997504
 31
0.0
  0
ENDBLK
  5
78
330
76
100
AcDbEntity
  8
0
100
AcDbBlockEnd
  0
BLOCK
  5
7A
330
79
100
AcDbEntity
  8
0
100
AcDbBlockBegin
  2
995907500_2__2
 70
     0
 10
808.9999999990002
 20
-1998.916079780604
 30
0.0
  3
995907500_2__2
  1

  0
LINE
  5
112
330
79
100
AcDbEntity
  8
0
  6
Continuous
 62
     7
100
AcDbLine
 10
808.9999999990002
 20
-1998.916079780604
 30
0.0
 11
808.9999999990002
 21
-1927.083920214402
 31
0.0
  0
LINE
  5
113
330
79
100
AcDbEntity
  8
0
  6
Continuous
 62
     7
100
AcDbLine
 10
828.9999999990002
 20
-1910.999999997503
 30
0.0
 11
808.9999999990002
 21
-1910.999999997503
 31
0.0
  0
ENDBLK
  5
7B
330
79
100
AcDbEntity
  8
0
100
AcDbBlockEnd
  0
BLOCK
  5
7D
330
7C
100
AcDbEntity
  8
0
100
AcDbBlockBegin
  2
995907500_1__3
 70
     0
 10
358.9999999990002
 20
-1998.916079780604
 30
0.0
  3
995907500_1__3
  1

  0
LINE
  5
114
330
7C
100
AcDbEntity
  8
0
  6
Continuous
 62
     7
100
AcDbLine
 10
358.9999999990002
 20
-1998.916079780604
 30
0.0
 11
358.9999999990002
 21
-1927.083920214402
 31
0.0
  0
LINE
  5
115
330
7C
100
AcDbEntity
  8
0
  6
Continuous
 62
     7
100
AcDbLine
 10
378.9999999990002
 20
-1910.999999997503
 30
0.0
 11
358.9999999990002
 21
-1910.999999997503
 31
0.0
  0
ENDBLK
  5
7E
330
7C
100
AcDbEntity
  8
0
100
AcDbBlockEnd
  0
BLOCK
  5
80
330
7F
100
AcDbEntity
  8
0
100
AcDbBlockBegin
  2
976007501_1__4
 70
     0
 10
-21.50000000099982
 20
-1910.999999997505
 30
0.0
  3
976007501_1__4
  1

  0
LINE
  5
116
330
7F
100
AcDbEntity
  8
0
  6
Continuous
 62
     7
100
AcDbLine
 10
10.49999999900018
 20
-1910.999999997504
 30
0.0
 11
-21.50000000099982
 21
-1910.999999997504
 31
0.0
  0
LINE
  5
117
330
7F
100
AcDbEntity
  8
0
  6
Continuous
 62
     7
100
AcDbLine
 10
-21.50000000099982
 20
-1910.999999997504
 30
0.0
 11
-21.50000000099982
 21
-1907.499999997504
 31
0.0
  0
LINE
  5
118
330
7F
100
AcDbEntity
  8
0
  6
Continuous
 62
     7
100
AcDbLine
 10
10.99999999900018
 20
-1907.499999997504
 30
0.0
 11
-21.50000000099982
 21
-1907.499999997504
 31
0.0
  0
LINE
  5
119
330
7F
100
AcDbEntity
  8
0
  6
Continuous
 62
     7
100
AcDbLine
 10
27.99999999900007
 20
-1910.999999997503
 30
0.0
 11
14.49999999900018
 21
-1910.999999997504
 31
0.0
  0
LINE
  5
11A
330
7F
100
AcDbEntity
  8
0
  6
Continuous
 62
     7
100
AcDbLine
 10
14.49999999900018
 20
-1910.999999997504
 30
0.0
 11
10.49999999900018
 21
-1910.999999997504
 31
0.0
  0
LINE
  5
11B
330
7F
100
AcDbEntity
  8
0
  6
Continuous
 62
     7
100
AcDbLine
 10
78.49999999900007
 20
-1910.999999997505
 30
0.0
 11
47.99999999900007
 21
-1910.999999997503
 31
0.0
  0
LINE
  5
11C
330
7F
100
AcDbEntity
  8
0
  6
Continuous
 62
     7
100
AcDbLine
 10
328.4999999990002
 20
-1910.999999997503
 30
0.0
 11
78.49999999900007
 21
-1910.999999997505
 31
0.0
  0
LINE
  5
11D
330
7F
100
AcDbEntity
  8
0
  6
Continuous
 62
     7
100
AcDbLine
 10
47.99999999900007
 20
-1910.999999997503
 30
0.0
 11
27.99999999900007
 21
-1910.999999997503
 31
0.0
  0
LINE
  5
11E
330
7F
100
AcDbEntity
  8
0
  6
Continuous
 62
     7
100
AcDbLine
 10
395.9999999990002
 20
-1907.499999997504
 30
0.0
 11
10.99999999900018
 21
-1907.499999997504
 31
0.0
  0
LINE
  5
11F
330
7F
100
AcDbEntity
  8
0
  6
Continuous
 62
     7
100
AcDbLine
 10
428.4999999990002
 20
-1910.999999997504
 30
0.0
 11
428.4999999990002
 21
-1907.499999997504
 31
0.0
  0
LINE
  5
120
330
7F
100
AcDbEntity
  8
0
  6
Continuous
 62
     7
100
AcDbLine
 10
428.4999999990002
 20
-1907.499999997504
 30
0.0
 11
395.9999999990002
 21
-1907.499999997504
 31
0.0
  0
LINE
  5
121
330
7F
100
AcDbEntity
  8
0
  6
Continuous
 62
     7
100
AcDbLine
 10
392.4999999990002
 20
-1910.999999997504
 30
0.0
 11
378.9999999990002
 21
-1910.999999997503
 31
0.0
  0
LINE
  5
122
330
7F
100
AcDbEntity
  8
0
  6
Continuous
 62
     7
100
AcDbLine
 10
428.4999999990002
 20
-1910.999999997504
 30
0.0
 11
396.4999999990002
 21
-1910.999999997504
 31
0.0
  0
LINE
  5
123
330
7F
100
AcDbEntity
  8
0
  6
Continuous
 62
     7
100
AcDbLine
 10
358.9999999990002
 20
-1910.999999997503
 30
0.0
 11
328.4999999990002
 21
-1910.999999997503
 31
0.0
  0
LINE
  5
124
330
7F
100
AcDbEntity
  8
0
  6
Continuous
 62
     7
100
AcDbLine
 10
378.9999999990002
 20
-1910.999999997503
 30
0.0
 11
358.9999999990002
 21
-1910.999999997503
 31
0.0
  0
LINE
  5
125
330
7F
100
AcDbEntity
  8
0
  6
Continuous
 62
     7
100
AcDbLine
 10
396.4999999990002
 20
-1910.999999997504
 30
0.0
 11
392.4999999990002
 21
-1910.999999997504
 31
0.0
  0
ENDBLK
  5
81
330
7F
100
AcDbEntity
  8
0
100
AcDbBlockEnd
  0
BLOCK
  5
83
330
82
100
AcDbEntity
  8
0
100
AcDbBlockBegin
  2
390997584_1__5
 70
     0
 10
460.999999999
 20
-1907.499999997504
 30
0.0
  3
390997584_1__5
  1

  0
LINE
  5
126
330
82
100
AcDbEntity
  8
0
  6
Continuous
 62
     7
100
AcDbLine
 10
460.999999999
 20
-1906.999999997504
 30
0.0
 11
460.999999999
 21
-1907.499999997504
 31
0.0
  0
LINE
  5
127
330
82
100
AcDbEntity
  8
0
  6
Continuous
 62
     7
100
AcDbLine
 10
845.9999999990002
 20
-1906.999999997504
 30
0.0
 11
845.9999999990002
 21
-1907.499999997504
 31
0.0
  0
LINE
  5
128
330
82
100
AcDbEntity
  8
0
  6
Continuous
 62
     7
100
AcDbLine
 10
845.9999999990002
 20
-1906.999999997504
 30
0.0
 11
460.999999999
 21
-1906.999999997504
 31
0.0
  0
LINE
  5
129
330
82
100
AcDbEntity
  8
0
  6
Continuous
 62
     7
100
AcDbLine
 10
845.9999999990002
 20
-1907.499999997504
 30
0.0
 11
460.999999999
 21
-1907.499999997504
 31
0.0
  0
ENDBLK
  5
84
330
82
100
AcDbEntity
  8
0
100
AcDbBlockEnd
  0
BLOCK
  5
86
330
85
100
AcDbEntity
  8
0
100
AcDbBlockBegin
  2
976007501__6
 70
     0
 10
428.4999999990002
 20
-1910.999999997505
 30
0.0
  3
976007501__6
  1

  0
LINE
  5
12A
330
85
100
AcDbEntity
  8
0
  6
Continuous
 62
     7
100
AcDbLine
 10
878.4999999990002
 20
-1910.999999997504
 30
0.0
 11
878.4999999990002
 21
-1907.499999997504
 31
0.0
  0
LINE
  5
12B
330
85
100
AcDbEntity
  8
0
  6
Continuous
 62
     7
100
AcDbLine
 10
878.4999999990002
 20
-1910.999999997504
 30
0.0
 11
846.4999999990002
 21
-1910.999999997504
 31
0.0
  0
LINE
  5
12C
330
85
100
AcDbEntity
  8
0
  6
Continuous
 62
     7
100
AcDbLine
 10
878.4999999990002
 20
-1907.499999997504
 30
0.0
 11
845.9999999990002
 21
-1907.499999997504
 31
0.0
  0
LINE
  5
12D
330
85
100
AcDbEntity
  8
0
  6
Continuous
 62
     7
100
AcDbLine
 10
846.4999999990002
 20
-1910.999999997504
 30
0.0
 11
842.4999999990002
 21
-1910.999999997504
 31
0.0
  0
LINE
  5
12E
330
85
100
AcDbEntity
  8
0
  6
Continuous
 62
     7
100
AcDbLine
 10
828.9999999990002
 20
-1910.999999997503
 30
0.0
 11
808.9999999990002
 21
-1910.999999997503
 31
0.0
  0
LINE
  5
12F
330
85
100
AcDbEntity
  8
0
  6
Continuous
 62
     7
100
AcDbLine
 10
842.4999999990002
 20
-1910.999999997504
 30
0.0
 11
828.9999999990002
 21
-1910.999999997503
 31
0.0
  0
LINE
  5
130
330
85
100
AcDbEntity
  8
0
  6
Continuous
 62
     7
100
AcDbLine
 10
808.9999999990002
 20
-1910.999999997503
 30
0.0
 11
778.4999999990002
 21
-1910.999999997503
 31
0.0
  0
LINE
  5
131
330
85
100
AcDbEntity
  8
0
  6
Continuous
 62
     7
100
AcDbLine
 10
460.999999999
 20
-1907.499999997504
 30
0.0
 11
428.4999999990002
 21
-1907.499999997504
 31
0.0
  0
LINE
  5
132
330
85
100
AcDbEntity
  8
0
  6
Continuous
 62
     7
100
AcDbLine
 10
428.4999999990002
 20
-1910.999999997504
 30
0.0
 11
428.4999999990002
 21
-1907.499999997504
 31
0.0
  0
LINE
  5
133
330
85
100
AcDbEntity
  8
0
  6
Continuous
 62
     7
100
AcDbLine
 10
497.9999999990002
 20
-1910.999999997503
 30
0.0
 11
477.9999999990002
 21
-1910.999999997503
 31
0.0
  0
LINE
  5
134
330
85
100
AcDbEntity
  8
0
  6
Continuous
 62
     7
100
AcDbLine
 10
477.9999999990002
 20
-1910.999999997503
 30
0.0
 11
464.4999999990002
 21
-1910.999999997504
 31
0.0
  0
LINE
  5
135
330
85
100
AcDbEntity
  8
0
  6
Continuous
 62
     7
100
AcDbLine
 10
460.4999999990002
 20
-1910.999999997504
 30
0.0
 11
428.4999999990002
 21
-1910.999999997504
 31
0.0
  0
LINE
  5
136
330
85
100
AcDbEntity
  8
0
  6
Continuous
 62
     7
100
AcDbLine
 10
528.4999999990002
 20
-1910.999999997505
 30
0.0
 11
497.9999999990002
 21
-1910.999999997503
 31
0.0
  0
LINE
  5
137
330
85
100
AcDbEntity
  8
0
  6
Continuous
 62
     7
100
AcDbLine
 10
778.4999999990002
 20
-1910.999999997503
 30
0.0
 11
528.4999999990002
 21
-1910.999999997505
 31
0.0
  0
LINE
  5
138
330
85
100
AcDbEntity
  8
0
  6
Continuous
 62
     7
100
AcDbLine
 10
845.9999999990002
 20
-1907.499999997504
 30
0.0
 11
460.999999999
 21
-1907.499999997504
 31
0.0
  0
LINE
  5
139
330
85
100
AcDbEntity
  8
0
  6
Continuous
 62
     7
100
AcDbLine
 10
464.4999999990002
 20
-1910.999999997504
 30
0.0
 11
460.4999999990002
 21
-1910.999999997504
 31
0.0
  0
ENDBLK
  5
87
330
85
100
AcDbEntity
  8
0
100
AcDbBlockEnd
  0
BLOCK
  5
89
330
88
100
AcDbEntity
  8
0
100
AcDbBlockBegin
  2
995907500_3__7
 70
     0
 10
27.99999999900007
 20
-1998.916079780604
 30
0.0
  3
995907500_3__7
  1

  0
LINE
  5
13A
330
88
100
AcDbEntity
  8
0
  6
Continuous
 62
     7
100
AcDbLine
 10
47.99999999900007
 20
-1910.999999997503
 30
0.0
 11
27.99999999900007
 21
-1910.999999997503
 31
0.0
  0
LINE
  5
13B
330
88
100
AcDbEntity
  8
0
  6
Continuous
 62
     7
100
AcDbLine
 10
47.99999999900007
 20
-1998.916079780604
 30
0.0
 11
47.99999999900007
 21
-1927.083920214405
 31
0.0
  0
ENDBLK
  5
8A
330
88
100
AcDbEntity
  8
0
100
AcDbBlockEnd
  0
BLOCK
  5
8C
330
8B
100
AcDbEntity
  8
0
100
AcDbBlockBegin
  2
995907500__8
 70
     0
 10
477.9999999990002
 20
-1998.916079780604
 30
0.0
  3
995907500__8
  1

  0
LINE
  5
13C
330
8B
100
AcDbEntity
  8
0
  6
Continuous
 62
     7
100
AcDbLine
 10
497.9999999990002
 20
-1910.999999997503
 30
0.0
 11
477.9999999990002
 21
-1910.999999997503
 31
0.0
  0
LINE
  5
13D
330
8B
100
AcDbEntity
  8
0
  6
Continuous
 62
     7
100
AcDbLine
 10
497.9999999990002
 20
-1998.916079780604
 30
0.0
 11
497.9999999990002
 21
-1927.083920214405
 31
0.0
  0
ENDBLK
  5
8D
330
8B
100
AcDbEntity
  8
0
100
AcDbBlockEnd
  0
BLOCK
  5
8F
330
8E
100
AcDbEntity
  8
0
100
AcDbBlockBegin
  2
980057503_1__9
 70
     0
 10
-21.50000000100044
 20
-2103.999999997504
 30
0.0
  3
980057503_1__9
  1

  0
LINE
  5
13E
330
8E
100
AcDbEntity
  8
0
  6
Continuous
 62
     7
100
AcDbLine
 10
10.49999999900018
 20
-1932.999999997504
 30
0.0
 11
10.49999999900018
 21
-1932.499999997504
 31
0.0
  0
LINE
  5
13F
330
8E
100
AcDbEntity
  8
0
  6
Continuous
 62
     7
100
AcDbLine
 10
10.49999999900018
 20
-1932.499999997504
 30
0.0
 11
10.49999999900018
 21
-1927.284609688331
 31
0.0
  0
LINE
  5
140
330
8E
100
AcDbEntity
  8
0
  6
Continuous
 62
     7
100
AcDbLine
 10
10.49999999900018
 20
-1914.999999997506
 30
0.0
 11
10.49999999900018
 21
-1910.999999997504
 31
0.0
  0
LINE
  5
141
330
8E
100
AcDbEntity
  8
0
  6
Continuous
 62
     7
100
AcDbLine
 10
10.49999999900018
 20
-1927.284609688331
 30
0.0
 11
10.49999999900018
 21
-1914.999999997506
 31
0.0
  0
LINE
  5
142
330
8E
100
AcDbEntity
  8
0
  6
Continuous
 62
     7
100
AcDbLine
 10
27.99999999900007
 20
-1910.999999997503
 30
0.0
 11
14.49999999900018
 21
-1910.999999997504
 31
0.0
  0
LINE
  5
143
330
8E
100
AcDbEntity
  8
0
  6
Continuous
 62
     7
100
AcDbLine
 10
14.49999999900018
 20
-1910.999999997504
 30
0.0
 11
10.49999999900018
 21
-1910.999999997504
 31
0.0
  0
LINE
  5
144
330
8E
100
AcDbEntity
  8
0
  6
Continuous
 62
     7
100
AcDbLine
 10
78.49999999900007
 20
-1910.999999997505
 30
0.0
 11
47.99999999900007
 21
-1910.999999997503
 31
0.0
  0
LINE
  5
145
330
8E
100
AcDbEntity
  8
0
  6
Continuous
 62
     7
100
AcDbLine
 10
328.4999999990002
 20
-1910.999999997503
 30
0.0
 11
78.49999999900007
 21
-1910.999999997505
 31
0.0
  0
LINE
  5
146
330
8E
100
AcDbEntity
  8
0
  6
Continuous
 62
     7
100
AcDbLine
 10
396.4999999990002
 20
-1910.999999997504
 30
0.0
 11
396.4999999990002
 21
-1914.999999997506
 31
0.0
  0
LINE
  5
147
330
8E
100
AcDbEntity
  8
0
  6
Continuous
 62
     7
100
AcDbLine
 10
396.4999999990002
 20
-1914.999999997506
 30
0.0
 11
396.4999999990002
 21
-1927.284609688331
 31
0.0
  0
LINE
  5
148
330
8E
100
AcDbEntity
  8
0
  6
Continuous
 62
     7
100
AcDbLine
 10
396.4999999990002
 20
-1932.499999997504
 30
0.0
 11
396.4999999990002
 21
-1932.999999997504
 31
0.0
  0
LINE
  5
149
330
8E
100
AcDbEntity
  8
0
  6
Continuous
 62
     7
100
AcDbLine
 10
396.4999999990002
 20
-1927.284609688331
 30
0.0
 11
396.4999999990002
 21
-1932.499999997504
 31
0.0
  0
LINE
  5
14A
330
8E
100
AcDbEntity
  8
0
  6
Continuous
 62
     7
100
AcDbLine
 10
47.99999999900007
 20
-1910.999999997503
 30
0.0
 11
27.99999999900007
 21
-1910.999999997503
 31
0.0
  0
LINE
  5
14B
330
8E
100
AcDbEntity
  8
0
  6
Continuous
 62
     7
100
AcDbLine
 10
18.49999999900018
 20
-2103.999999997504
 30
0.0
 11
18.49999999900007
 21
-2099.999999997504
 31
0.0
  0
LINE
  5
14C
330
8E
100
AcDbEntity
  8
0
  6
Continuous
 62
     7
100
AcDbLine
 10
18.49999999900007
 20
-2099.999999997504
 30
0.0
 11
18.49999999900018
 21
-2026.999999997504
 31
0.0
  0
LINE
  5
14D
330
8E
100
AcDbEntity
  8
0
  6
Continuous
 62
     7
100
AcDbLine
 10
388.4999999990002
 20
-2099.999999997504
 30
0.0
 11
388.4999999990002
 21
-2103.999999997504
 31
0.0
  0
LINE
  5
14E
330
8E
100
AcDbEntity
  8
0
  6
Continuous
 62
     7
100
AcDbLine
 10
388.4999999990002
 20
-2026.999999997504
 30
0.0
 11
388.4999999990002
 21
-2099.999999997504
 31
0.0
  0
LINE
  5
14F
330
8E
100
AcDbEntity
  8
0
  6
Continuous
 62
     7
100
AcDbLine
 10
18.49999999900018
 20
-2103.999999997504
 30
0.0
 11
22.49999999900018
 21
-2103.999999997504
 31
0.0
  0
LINE
  5
150
330
8E
100
AcDbEntity
  8
0
  6
Continuous
 62
     7
100
AcDbLine
 10
167.4999999989994
 20
-2103.999999997504
 30
0.0
 11
169.4999999989995
 21
-2103.999999997504
 31
0.0
  0
LINE
  5
151
330
8E
100
AcDbEntity
  8
0
  6
Continuous
 62
     7
100
AcDbLine
 10
22.49999999900018
 20
-2103.999999997504
 30
0.0
 11
167.4999999989994
 21
-2103.999999997504
 31
0.0
  0
LINE
  5
152
330
8E
100
AcDbEntity
  8
0
  6
Continuous
 62
     7
100
AcDbLine
 10
169.4999999989995
 20
-2103.999999997504
 30
0.0
 11
237.499999999001
 21
-2103.999999997504
 31
0.0
  0
LINE
  5
153
330
8E
100
AcDbEntity
  8
0
  6
Continuous
 62
     7
100
AcDbLine
 10
237.499999999001
 20
-2103.999999997504
 30
0.0
 11
239.499999999001
 21
-2103.999999997504
 31
0.0
  0
LINE
  5
154
330
8E
100
AcDbEntity
  8
0
  6
Continuous
 62
     7
100
AcDbLine
 10
384.4999999990002
 20
-2103.999999997504
 30
0.0
 11
388.4999999990002
 21
-2103.999999997504
 31
0.0
  0
LINE
  5
155
330
8E
100
AcDbEntity
  8
0
  6
Continuous
 62
     7
100
AcDbLine
 10
239.499999999001
 20
-2103.999999997504
 30
0.0
 11
384.4999999990002
 21
-2103.999999997504
 31
0.0
  0
LINE
  5
156
330
8E
100
AcDbEntity
  8
0
  6
Continuous
 62
     7
100
AcDbLine
 10
424.4999999990002
 20
-2016.999999997504
 30
0.0
 11
398.4999999990002
 21
-2016.999999997504
 31
0.0
  0
LINE
  5
157
330
8E
100
AcDbEntity
  8
0
  6
Continuous
 62
     7
100
AcDbLine
 10
428.4999999990002
 20
-2016.999999997504
 30
0.0
 11
424.4999999990002
 21
-2016.999999997504
 31
0.0
  0
LINE
  5
158
330
8E
100
AcDbEntity
  8
0
  6
Continuous
 62
     7
100
AcDbLine
 10
392.4999999990002
 20
-1910.999999997504
 30
0.0
 11
378.9999999990002
 21
-1910.999999997503
 31
0.0
  0
LINE
  5
159
330
8E
100
AcDbEntity
  8
0
  6
Continuous
 62
     7
100
AcDbLine
 10
358.9999999990002
 20
-1910.999999997503
 30
0.0
 11
328.4999999990002
 21
-1910.999999997503
 31
0.0
  0
LINE
  5
15A
330
8E
100
AcDbEntity
  8
0
  6
Continuous
 62
     7
100
AcDbLine
 10
378.9999999990002
 20
-1910.999999997503
 30
0.0
 11
358.9999999990002
 21
-1910.999999997503
 31
0.0
  0
LINE
  5
15B
330
8E
100
AcDbEntity
  8
0
  6
Continuous
 62
     7
100
AcDbLine
 10
396.4999999990002
 20
-1910.999999997504
 30
0.0
 11
392.4999999990002
 21
-1910.999999997504
 31
0.0
  0
LINE
  5
15C
330
8E
100
AcDbEntity
  8
0
  6
Continuous
 62
     7
100
AcDbLine
 10
-17.50000000099982
 20
-1936.999999997505
 30
0.0
 11
6.49999999900018
 21
-1936.999999997504
 31
0.0
  0
LINE
  5
15D
330
8E
100
AcDbEntity
  8
0
  6
Continuous
 62
     7
100
AcDbLine
 10
-21.50000000099982
 20
-1936.999999997504
 30
0.0
 11
-17.50000000099982
 21
-1936.999999997505
 31
0.0
  0
LINE
  5
15E
330
8E
100
AcDbEntity
  8
0
  6
Continuous
 62
     7
100
AcDbLine
 10
400.4999999990002
 20
-1936.999999997504
 30
0.0
 11
424.4999999990002
 21
-1936.999999997504
 31
0.0
  0
LINE
  5
15F
330
8E
100
AcDbEntity
  8
0
  6
Continuous
 62
     7
100
AcDbLine
 10
424.4999999990002
 20
-1936.999999997504
 30
0.0
 11
428.4999999990002
 21
-1936.999999997504
 31
0.0
  0
LINE
  5
160
330
8E
100
AcDbEntity
  8
0
  6
Continuous
 62
     7
100
AcDbLine
 10
-17.50000000099982
 20
-2016.999999997505
 30
0.0
 11
-21.50000000099982
 21
-2016.999999997504
 31
0.0
  0
LINE
  5
161
330
8E
100
AcDbEntity
  8
0
  6
Continuous
 62
     7
100
AcDbLine
 10
8.49999999900018
 20
-2016.999999997504
 30
0.0
 11
-17.50000000099982
 21
-2016.999999997505
 31
0.0
  0
LINE
  5
162
330
8E
100
AcDbEntity
  8
0
  6
Continuous
 62
     7
100
AcDbLine
 10
428.4999999989998
 20
-1998.999999997504
 30
0.0
 11
428.4999999989996
 21
-2012.999999997504
 31
0.0
  0
LINE
  5
163
330
8E
100
AcDbEntity
  8
0
  6
Continuous
 62
     7
100
AcDbLine
 10
-21.50000000100044
 20
-2012.999999997504
 30
0.0
 11
-21.50000000099982
 21
-2016.999999997504
 31
0.0
  0
LINE
  5
164
330
8E
100
AcDbEntity
  8
0
  6
Continuous
 62
     7
100
AcDbLine
 10
-21.5000000010001
 20
-1996.999999997504
 30
0.0
 11
-21.5000000010001
 21
-1998.999999997504
 31
0.0
  0
LINE
  5
165
330
8E
100
AcDbEntity
  8
0
  6
Continuous
 62
     7
100
AcDbLine
 10
-21.5000000010001
 20
-1998.999999997504
 30
0.0
 11
-21.50000000100044
 21
-2012.999999997504
 31
0.0
  0
LINE
  5
166
330
8E
100
AcDbEntity
  8
0
  6
Continuous
 62
     7
100
AcDbLine
 10
-21.5000000010001
 20
-1940.999999997505
 30
0.0
 11
-21.5000000010001
 21
-1996.999999997504
 31
0.0
  0
LINE
  5
167
330
8E
100
AcDbEntity
  8
0
  6
Continuous
 62
     7
100
AcDbLine
 10
428.4999999990002
 20
-2016.999999997504
 30
0.0
 11
428.4999999989996
 21
-2012.999999997504
 31
0.0
  0
LINE
  5
168
330
8E
100
AcDbEntity
  8
0
  6
Continuous
 62
     7
100
AcDbLine
 10
-21.50000000099982
 20
-1936.999999997504
 30
0.0
 11
-21.5000000010001
 21
-1940.999999997505
 31
0.0
  0
LINE
  5
169
330
8E
100
AcDbEntity
  8
0
  6
Continuous
 62
     7
100
AcDbLine
 10
428.4999999989998
 20
-1996.999999997504
 30
0.0
 11
428.4999999989998
 21
-1998.999999997504
 31
0.0
  0
LINE
  5
16A
330
8E
100
AcDbEntity
  8
0
  6
Continuous
 62
     7
100
AcDbLine
 10
428.4999999989998
 20
-1940.999999997505
 30
0.0
 11
428.4999999989998
 21
-1996.999999997504
 31
0.0
  0
LINE
  5
16B
330
8E
100
AcDbEntity
  8
0
  6
Continuous
 62
     7
100
AcDbLine
 10
428.4999999989998
 20
-1940.999999997505
 30
0.0
 11
428.4999999990002
 21
-1936.999999997504
 31
0.0
  0
ARC
  5
16C
330
8E
100
AcDbEntity
  8
0
  6
Continuous
 62
     7
100
AcDbCircle
 10
398.4999999990002
 20
-2026.999999997504
 30
0.0
 40
10.0
100
AcDbArc
 50
90.0
 51
180.0
  0
ARC
  5
16D
330
8E
100
AcDbEntity
  8
0
  6
Continuous
 62
     7
100
AcDbCircle
 10
8.49999999900018
 20
-2026.999999997504
 30
0.0
 40
10.0
100
AcDbArc
 50
0.0
 51
90.0
  0
ARC
  5
16E
330
8E
100
AcDbEntity
  8
0
  6
Continuous
 62
     7
100
AcDbCircle
 10
6.49999999900018
 20
-1932.999999997504
 30
0.0
 40
4.0
100
AcDbArc
 50
270.0
 51
0.0
  0
ARC
  5
16F
330
8E
100
AcDbEntity
  8
0
  6
Continuous
 62
     7
100
AcDbCircle
 10
400.4999999990002
 20
-1932.999999997504
 30
0.0
 40
4.0
100
AcDbArc
 50
180.0
 51
270.0
  0
ENDBLK
  5
90
330
8E
100
AcDbEntity
  8
0
100
AcDbBlockEnd
  0
BLOCK
  5
92
330
91
100
AcDbEntity
  8
0
100
AcDbBlockBegin
  2
368027496__10
 70
     0
 10
-21.50000000100044
 20
-2103.999999997504
 30
0.0
  3
368027496__10
  1

  0
LINE
  5
170
330
91
100
AcDbEntity
  8
0
  6
Continuous
 62
     7
100
AcDbLine
 10
10.49999999900018
 20
-1932.999999997504
 30
0.0
 11
10.49999999900018
 21
-1932.499999997504
 31
0.0
  0
LINE
  5
171
330
91
100
AcDbEntity
  8
0
  6
Continuous
 62
     7
100
AcDbLine
 10
10.49999999900018
 20
-1932.499999997504
 30
0.0
 11
10.49999999900018
 21
-1927.284609688331
 31
0.0
  0
LINE
  5
172
330
91
100
AcDbEntity
  8
0
  6
Continuous
 62
     7
100
AcDbLine
 10
10.49999999900018
 20
-1927.284609688331
 30
0.0
 11
10.49999999900018
 21
-1914.999999997506
 31
0.0
  0
LINE
  5
173
330
91
100
AcDbEntity
  8
0
  6
Continuous
 62
     7
100
AcDbLine
 10
78.4999999990003
 20
-1922.999999997504
 30
0.0
 11
78.49999999900007
 21
-1910.999999997505
 31
0.0
  0
LINE
  5
174
330
91
100
AcDbEntity
  8
0
  6
Continuous
 62
     7
100
AcDbLine
 10
48.99999999900007
 20
-1926.999999997504
 30
0.0
 11
74.4999999990003
 21
-1926.999999997504
 31
0.0
  0
LINE
  5
175
330
91
100
AcDbEntity
  8
0
  6
Continuous
 62
     7
100
AcDbLine
 10
332.4999999990004
 20
-1926.999999997502
 30
0.0
 11
357.9999999990004
 21
-1926.999999997502
 31
0.0
  0
LINE
  5
176
330
91
100
AcDbEntity
  8
0
  6
Continuous
 62
     7
100
AcDbLine
 10
10.49999999900018
 20
-1932.499999997504
 30
0.0
 11
43.02086962744937
 21
-1932.499999997504
 31
0.0
  0
LINE
  5
177
330
91
100
AcDbEntity
  8
0
  6
Continuous
 62
     7
100
AcDbLine
 10
10.49999999900018
 20
-1927.284609688331
 30
0.0
 11
22.49999999900018
 21
-1930.499999997504
 31
0.0
  0
LINE
  5
178
330
91
100
AcDbEntity
  8
0
  6
Continuous
 62
     7
100
AcDbLine
 10
22.49999999900018
 20
-1930.499999997504
 30
0.0
 11
43.54564394168227
 21
-1930.499999997504
 31
0.0
  0
LINE
  5
179
330
91
100
AcDbEntity
  8
0
  6
Continuous
 62
     7
100
AcDbLine
 10
363.4543560563195
 20
-1930.499999997504
 30
0.0
 11
384.4999999990002
 21
-1930.499999997504
 31
0.0
  0
LINE
  5
17A
330
91
100
AcDbEntity
  8
0
  6
Continuous
 62
     7
100
AcDbLine
 10
363.9791303705513
 20
-1932.499999997504
 30
0.0
 11
396.4999999990002
 21
-1932.499999997504
 31
0.0
  0
LINE
  5
17B
330
91
100
AcDbEntity
  8
0
  6
Continuous
 62
     7
100
AcDbLine
 10
27.99999999900007
 20
-1910.999999997503
 30
0.0
 11
14.49999999900018
 21
-1910.999999997504
 31
0.0
  0
LINE
  5
17C
330
91
100
AcDbEntity
  8
0
  6
Continuous
 62
     7
100
AcDbLine
 10
78.49999999900007
 20
-1910.999999997505
 30
0.0
 11
47.99999999900007
 21
-1910.999999997503
 31
0.0
  0
LINE
  5
17D
330
91
100
AcDbEntity
  8
0
  6
Continuous
 62
     7
100
AcDbLine
 10
396.4999999990002
 20
-1914.999999997506
 30
0.0
 11
396.4999999990002
 21
-1927.284609688331
 31
0.0
  0
LINE
  5
17E
330
91
100
AcDbEntity
  8
0
  6
Continuous
 62
     7
100
AcDbLine
 10
396.4999999990002
 20
-1932.499999997504
 30
0.0
 11
396.4999999990002
 21
-1932.999999997504
 31
0.0
  0
LINE
  5
17F
330
91
100
AcDbEntity
  8
0
  6
Continuous
 62
     7
100
AcDbLine
 10
396.4999999990002
 20
-1927.284609688331
 30
0.0
 11
396.4999999990002
 21
-1932.499999997504
 31
0.0
  0
LINE
  5
180
330
91
100
AcDbEntity
  8
0
  6
Continuous
 62
     7
100
AcDbLine
 10
396.4999999990002
 20
-1927.284609688331
 30
0.0
 11
384.4999999990002
 21
-1930.499999997504
 31
0.0
  0
LINE
  5
181
330
91
100
AcDbEntity
  8
0
  6
Continuous
 62
     7
100
AcDbLine
 10
47.99999999900007
 20
-1910.999999997503
 30
0.0
 11
27.99999999900007
 21
-1910.999999997503
 31
0.0
  0
LINE
  5
182
330
91
100
AcDbEntity
  8
0
  6
Continuous
 62
     7
100
AcDbLine
 10
18.49999999900007
 20
-2099.999999997504
 30
0.0
 11
18.49999999900018
 21
-2026.999999997504
 31
0.0
  0
LINE
  5
183
330
91
100
AcDbEntity
  8
0
  6
Continuous
 62
     7
100
AcDbLine
 10
239.499999999001
 20
-2028.999999997504
 30
0.0
 11
239.499999999001
 21
-2037.999999997504
 31
0.0
  0
LINE
  5
184
330
91
100
AcDbEntity
  8
0
  6
Continuous
 62
     7
100
AcDbLine
 10
239.499999999001
 20
-2028.999999997504
 30
0.0
 11
348.4999999990006
 21
-2028.999999997504
 31
0.0
  0
LINE
  5
185
330
91
100
AcDbEntity
  8
0
  6
Continuous
 62
     7
100
AcDbLine
 10
167.4999999989994
 20
-2037.999999997504
 30
0.0
 11
167.4999999989995
 21
-2028.999999997504
 31
0.0
  0
LINE
  5
186
330
91
100
AcDbEntity
  8
0
  6
Continuous
 62
     7
100
AcDbLine
 10
167.4999999989995
 20
-2028.999999997504
 30
0.0
 11
167.4999999989996
 21
-2007.50406974996
 31
0.0
  0
LINE
  5
187
330
91
100
AcDbEntity
  8
0
  6
Continuous
 62
     7
100
AcDbLine
 10
233.499999999001
 20
-2043.999999997504
 30
0.0
 11
173.4999999989994
 21
-2043.999999997504
 31
0.0
  0
LINE
  5
188
330
91
100
AcDbEntity
  8
0
  6
Continuous
 62
     7
100
AcDbLine
 10
388.4999999990002
 20
-2026.999999997504
 30
0.0
 11
388.4999999990002
 21
-2099.999999997504
 31
0.0
  0
LINE
  5
189
330
91
100
AcDbEntity
  8
0
  6
Continuous
 62
     7
100
AcDbLine
 10
169.4999999989995
 20
-2103.999999997504
 30
0.0
 11
169.4999999989995
 21
-2042.472135952504
 31
0.0
  0
LINE
  5
18A
330
91
100
AcDbEntity
  8
0
  6
Continuous
 62
     7
100
AcDbLine
 10
167.4999999989994
 20
-2103.999999997504
 30
0.0
 11
167.4999999989994
 21
-2037.999999997504
 31
0.0
  0
LINE
  5
18B
330
91
100
AcDbEntity
  8
0
  6
Continuous
 62
     7
100
AcDbLine
 10
167.4999999989994
 20
-2103.999999997504
 30
0.0
 11
169.4999999989995
 21
-2103.999999997504
 31
0.0
  0
LINE
  5
18C
330
91
100
AcDbEntity
  8
0
  6
Continuous
 62
     7
100
AcDbLine
 10
22.49999999900018
 20
-2103.999999997504
 30
0.0
 11
167.4999999989994
 21
-2103.999999997504
 31
0.0
  0
LINE
  5
18D
330
91
100
AcDbEntity
  8
0
  6
Continuous
 62
     7
100
AcDbLine
 10
169.4999999989995
 20
-2103.999999997504
 30
0.0
 11
237.499999999001
 21
-2103.999999997504
 31
0.0
  0
LINE
  5
18E
330
91
100
AcDbEntity
  8
0
  6
Continuous
 62
     7
100
AcDbLine
 10
237.499999999001
 20
-2103.999999997504
 30
0.0
 11
239.499999999001
 21
-2103.999999997504
 31
0.0
  0
LINE
  5
18F
330
91
100
AcDbEntity
  8
0
  6
Continuous
 62
     7
100
AcDbLine
 10
239.499999999001
 20
-2103.999999997504
 30
0.0
 11
384.4999999990002
 21
-2103.999999997504
 31
0.0
  0
LINE
  5
190
330
91
100
AcDbEntity
  8
0
  6
Continuous
 62
     7
100
AcDbLine
 10
237.499999999001
 20
-2042.472135952504
 30
0.0
 11
237.499999999001
 21
-2103.999999997504
 31
0.0
  0
LINE
  5
191
330
91
100
AcDbEntity
  8
0
  6
Continuous
 62
     7
100
AcDbLine
 10
239.499999999001
 20
-2037.999999997504
 30
0.0
 11
239.499999999001
 21
-2103.999999997504
 31
0.0
  0
LINE
  5
192
330
91
100
AcDbEntity
  8
0
  6
Continuous
 62
     7
100
AcDbLine
 10
239.499999999001
 20
-2007.50406974996
 30
0.0
 11
239.499999999001
 21
-2028.999999997504
 31
0.0
  0
LINE
  5
193
330
91
100
AcDbEntity
  8
0
  6
Continuous
 62
     7
100
AcDbLine
 10
58.49999999899978
 20
-2028.999999997504
 30
0.0
 11
167.4999999989995
 21
-2028.999999997504
 31
0.0
  0
LINE
  5
194
330
91
100
AcDbEntity
  8
0
  6
Continuous
 62
     7
100
AcDbLine
 10
358.4999999990008
 20
-2018.999999997504
 30
0.0
 11
358.4999999990008
 21
-1998.999999997504
 31
0.0
  0
LINE
  5
195
330
91
100
AcDbEntity
  8
0
  6
Continuous
 62
     7
100
AcDbLine
 10
428.4999999989998
 20
-1996.999999997504
 30
0.0
 11
362.4721359539998
 21
-1996.999999997504
 31
0.0
  0
LINE
  5
196
330
91
100
AcDbEntity
  8
0
  6
Continuous
 62
     7
100
AcDbLine
 10
428.4999999989998
 20
-1998.999999997504
 30
0.0
 11
358.4999999990008
 21
-1998.999999997504
 31
0.0
  0
LINE
  5
197
330
91
100
AcDbEntity
  8
0
  6
Continuous
 62
     7
100
AcDbLine
 10
424.4999999990002
 20
-2016.999999997504
 30
0.0
 11
398.4999999990002
 21
-2016.999999997504
 31
0.0
  0
LINE
  5
198
330
91
100
AcDbEntity
  8
0
  6
Continuous
 62
     7
100
AcDbLine
 10
363.9999999990003
 20
-1932.999999997502
 30
0.0
 11
363.9999999990004
 21
-1992.999999997504
 31
0.0
  0
LINE
  5
199
330
91
100
AcDbEntity
  8
0
  6
Continuous
 62
     7
100
AcDbLine
 10
358.4999999990008
 20
-1998.999999997504
 30
0.0
 11
357.9999999990003
 21
-1998.999999997504
 31
0.0
  0
LINE
  5
19A
330
91
100
AcDbEntity
  8
0
  6
Continuous
 62
     7
100
AcDbLine
 10
357.9999999990003
 20
-1998.999999997504
 30
0.0
 11
284.1820766951393
 21
-1998.999999997504
 31
0.0
  0
LINE
  5
19B
330
91
100
AcDbEntity
  8
0
  6
Continuous
 62
     7
100
AcDbLine
 10
42.9999999989995
 20
-1992.999999997504
 30
0.0
 11
42.9999999989995
 21
-1932.999999997504
 31
0.0
  0
LINE
  5
19C
330
91
100
AcDbEntity
  8
0
  6
Continuous
 62
     7
100
AcDbLine
 10
48.4999999989995
 20
-1998.999999997504
 30
0.0
 11
48.4999999989995
 21
-2018.999999997504
 31
0.0
  0
LINE
  5
19D
330
91
100
AcDbEntity
  8
0
  6
Continuous
 62
     7
100
AcDbLine
 10
122.8179233028611
 20
-1998.999999997504
 30
0.0
 11
48.99999999900007
 21
-1998.999999997504
 31
0.0
  0
LINE
  5
19E
330
91
100
AcDbEntity
  8
0
  6
Continuous
 62
     7
100
AcDbLine
 10
48.99999999900007
 20
-1998.999999997504
 30
0.0
 11
48.4999999989995
 21
-1998.999999997504
 31
0.0
  0
LINE
  5
19F
330
91
100
AcDbEntity
  8
0
  6
Continuous
 62
     7
100
AcDbLine
 10
392.4999999990002
 20
-1910.999999997504
 30
0.0
 11
378.9999999990002
 21
-1910.999999997503
 31
0.0
  0
LINE
  5
1A0
330
91
100
AcDbEntity
  8
0
  6
Continuous
 62
     7
100
AcDbLine
 10
358.9999999990002
 20
-1910.999999997503
 30
0.0
 11
328.4999999990002
 21
-1910.999999997503
 31
0.0
  0
LINE
  5
1A1
330
91
100
AcDbEntity
  8
0
  6
Continuous
 62
     7
100
AcDbLine
 10
378.9999999990002
 20
-1910.999999997503
 30
0.0
 11
358.9999999990002
 21
-1910.999999997503
 31
0.0
  0
LINE
  5
1A2
330
91
100
AcDbEntity
  8
0
  6
Continuous
 62
     7
100
AcDbLine
 10
328.4999999990002
 20
-1910.999999997503
 30
0.0
 11
328.4999999990004
 21
-1922.999999997502
 31
0.0
  0
LINE
  5
1A3
330
91
100
AcDbEntity
  8
0
  6
Continuous
 62
     7
100
AcDbLine
 10
-17.50000000099982
 20
-1936.999999997505
 30
0.0
 11
6.49999999900018
 21
-1936.999999997504
 31
0.0
  0
LINE
  5
1A4
330
91
100
AcDbEntity
  8
0
  6
Continuous
 62
     7
100
AcDbLine
 10
400.4999999990002
 20
-1936.999999997504
 30
0.0
 11
424.4999999990002
 21
-1936.999999997504
 31
0.0
  0
LINE
  5
1A5
330
91
100
AcDbEntity
  8
0
  6
Continuous
 62
     7
100
AcDbLine
 10
48.4999999989995
 20
-1998.999999997504
 30
0.0
 11
-21.5000000010001
 21
-1998.999999997504
 31
0.0
  0
LINE
  5
1A6
330
91
100
AcDbEntity
  8
0
  6
Continuous
 62
     7
100
AcDbLine
 10
44.52786404400047
 20
-1996.999999997504
 30
0.0
 11
-21.5000000010001
 21
-1996.999999997504
 31
0.0
  0
LINE
  5
1A7
330
91
100
AcDbEntity
  8
0
  6
Continuous
 62
     7
100
AcDbLine
 10
8.49999999900018
 20
-2016.999999997504
 30
0.0
 11
-17.50000000099982
 21
-2016.999999997505
 31
0.0
  0
LINE
  5
1A8
330
91
100
AcDbEntity
  8
0
  6
Continuous
 62
     7
100
AcDbLine
 10
428.4999999989998
 20
-1998.999999997504
 30
0.0
 11
428.4999999989996
 21
-2012.999999997504
 31
0.0
  0
LINE
  5
1A9
330
91
100
AcDbEntity
  8
0
  6
Continuous
 62
     7
100
AcDbLine
 10
-21.5000000010001
 20
-1996.999999997504
 30
0.0
 11
-21.5000000010001
 21
-1998.999999997504
 31
0.0
  0
LINE
  5
1AA
330
91
100
AcDbEntity
  8
0
  6
Continuous
 62
     7
100
AcDbLine
 10
-21.5000000010001
 20
-1998.999999997504
 30
0.0
 11
-21.50000000100044
 21
-2012.999999997504
 31
0.0
  0
LINE
  5
1AB
330
91
100
AcDbEntity
  8
0
  6
Continuous
 62
     7
100
AcDbLine
 10
-21.5000000010001
 20
-1940.999999997505
 30
0.0
 11
-21.5000000010001
 21
-1996.999999997504
 31
0.0
  0
LINE
  5
1AC
330
91
100
AcDbEntity
  8
0
  6
Continuous
 62
     7
100
AcDbLine
 10
428.4999999989998
 20
-1996.999999997504
 30
0.0
 11
428.4999999989998
 21
-1998.999999997504
 31
0.0
  0
LINE
  5
1AD
330
91
100
AcDbEntity
  8
0
  6
Continuous
 62
     7
100
AcDbLine
 10
428.4999999989998
 20
-1940.999999997505
 30
0.0
 11
428.4999999989998
 21
-1996.999999997504
 31
0.0
  0
ARC
  5
1AE
330
91
100
AcDbEntity
  8
0
  6
Continuous
 62
     7
100
AcDbCircle
 10
14.49999999900018
 20
-1914.999999997504
 30
0.0
 40
4.0
100
AcDbArc
 50
90.0
 51
180.0000000000293
  0
ARC
  5
1AF
330
91
100
AcDbEntity
  8
0
  6
Continuous
 62
     7
100
AcDbCircle
 10
48.99999999899978
 20
-1932.999999997511
 30
0.0
 40
6.000000000000301
100
AcDbArc
 50
175.2198081527335
 51
179.9999999999327
  0
ARC
  5
1B0
330
91
100
AcDbEntity
  8
0
  6
Continuous
 62
     7
100
AcDbCircle
 10
48.99999999900007
 20
-1932.999999997504
 30
0.0
 40
6.0
100
AcDbArc
 50
90.0
 51
155.3756816478357
  0
ARC
  5
1B1
330
91
100
AcDbEntity
  8
0
  6
Continuous
 62
     7
100
AcDbCircle
 10
48.99999999900007
 20
-1932.999999997504
 30
0.0
 40
5.999999999999944
100
AcDbArc
 50
155.3756816478357
 51
175.2198081528008
  0
ARC
  5
1B2
330
91
100
AcDbEntity
  8
0
  6
Continuous
 62
     7
100
AcDbCircle
 10
357.9999999990004
 20
-1932.9999999975
 30
0.0
 40
5.999999999999886
100
AcDbArc
 50
359.9999999999804
 51
4.78019184716224
  0
ARC
  5
1B3
330
91
100
AcDbEntity
  8
0
  6
Continuous
 62
     7
100
AcDbCircle
 10
357.9999999990004
 20
-1932.999999997502
 30
0.0
 40
6.000000000000015
100
AcDbArc
 50
4.78019184718172
 51
24.62431835214333
  0
ARC
  5
1B4
330
91
100
AcDbEntity
  8
0
  6
Continuous
 62
     7
100
AcDbCircle
 10
74.4999999990003
 20
-1922.999999997504
 30
0.0
 40
4.0
100
AcDbArc
 50
270.0
 51
0.0
  0
ARC
  5
1B5
330
91
100
AcDbEntity
  8
0
  6
Continuous
 62
     7
100
AcDbCircle
 10
332.4999999990004
 20
-1922.999999997502
 30
0.0
 40
4.0
100
AcDbArc
 50
180.0
 51
270.0
  0
ARC
  5
1B6
330
91
100
AcDbEntity
  8
0
  6
Continuous
 62
     7
100
AcDbCircle
 10
357.9999999990004
 20
-1932.999999997502
 30
0.0
 40
6.000000000000374
100
AcDbArc
 50
24.62431835214333
 51
90.0
  0
ARC
  5
1B7
330
91
100
AcDbEntity
  8
0
  6
Continuous
 62
     7
100
AcDbCircle
 10
392.4999999990002
 20
-1914.999999997504
 30
0.0
 40
4.0
100
AcDbArc
 50
359.9999999999707
 51
90.0
  0
ARC
  5
1B8
330
91
100
AcDbEntity
  8
0
  6
Continuous
 62
     7
100
AcDbCircle
 10
22.49999999900018
 20
-2099.999999997504
 30
0.0
 40
4.00000000000011
100
AcDbArc
 50
180.0
 51
270.0
  0
ARC
  5
1B9
330
91
100
AcDbEntity
  8
0
  6
Continuous
 62
     7
100
AcDbCircle
 10
233.499999999001
 20
-2037.999999997504
 30
0.0
 40
6.0
100
AcDbArc
 50
270.0
 51
311.8103148957752
  0
ARC
  5
1BA
330
91
100
AcDbEntity
  8
0
  6
Continuous
 62
     7
100
AcDbCircle
 10
233.499999999001
 20
-2037.999999997504
 30
0.0
 40
6.000000000000397
100
AcDbArc
 50
311.8103148957752
 51
0.0
  0
ARC
  5
1BB
330
91
100
AcDbEntity
  8
0
  6
Continuous
 62
     7
100
AcDbCircle
 10
348.4999999990008
 20
-2018.999999997504
 30
0.0
 40
10.0
100
AcDbArc
 50
269.9999999999987
 51
0.0
  0
ARC
  5
1BC
330
91
100
AcDbEntity
  8
0
  6
Continuous
 62
     7
100
AcDbCircle
 10
173.4999999989994
 20
-2037.999999997504
 30
0.0
 40
6.0
100
AcDbArc
 50
180.0
 51
228.1896851042254
  0
ARC
  5
1BD
330
91
100
AcDbEntity
  8
0
  6
Continuous
 62
     7
100
AcDbCircle
 10
384.4999999990002
 20
-2099.999999997504
 30
0.0
 40
4.0
100
AcDbArc
 50
270.0
 51
0.0
  0
ARC
  5
1BE
330
91
100
AcDbEntity
  8
0
  6
Continuous
 62
     7
100
AcDbCircle
 10
173.4999999989994
 20
-2037.999999997504
 30
0.0
 40
6.00000000000034
100
AcDbArc
 50
228.1896851042254
 51
270.0
  0
ARC
  5
1BF
330
91
100
AcDbEntity
  8
0
  6
Continuous
 62
     7
100
AcDbCircle
 10
58.49999999899956
 20
-2018.999999997504
 30
0.0
 40
10.00000000000006
100
AcDbArc
 50
180.0
 51
270.0000000000013
  0
ARC
  5
1C0
330
91
100
AcDbEntity
  8
0
  6
Continuous
 62
     7
100
AcDbCircle
 10
357.9999999990003
 20
-1992.999999997504
 30
0.0
 40
5.999999999999932
100
AcDbArc
 50
318.1896851042208
 51
0.0
  0
ARC
  5
1C1
330
91
100
AcDbEntity
  8
0
  6
Continuous
 62
     7
100
AcDbCircle
 10
424.4999999990002
 20
-2012.999999997504
 30
0.0
 40
4.0
100
AcDbArc
 50
270.0
 51
0.0
  0
ARC
  5
1C2
330
91
100
AcDbEntity
  8
0
  6
Continuous
 62
     7
100
AcDbCircle
 10
398.4999999990002
 20
-2026.999999997504
 30
0.0
 40
10.0
100
AcDbArc
 50
90.0
 51
180.0
  0
ARC
  5
1C3
330
91
100
AcDbEntity
  8
0
  6
Continuous
 62
     7
100
AcDbCircle
 10
357.9999999990003
 20
-1992.999999997504
 30
0.0
 40
6.0
100
AcDbArc
 50
270.0
 51
318.1896851042208
  0
ARC
  5
1C4
330
91
100
AcDbEntity
  8
0
  6
Continuous
 62
     7
100
AcDbCircle
 10
243.499999999001
 20
-2007.50406974996
 30
0.0
 40
4.000000000000275
100
AcDbArc
 50
94.14048220961949
 51
180.0
  0
ARC
  5
1C5
330
91
100
AcDbEntity
  8
0
  6
Continuous
 62
     7
100
AcDbCircle
 10
424.4999999990002
 20
-1940.999999997504
 30
0.0
 40
3.999999999999602
100
AcDbArc
 50
359.9999999999837
 51
90.0
  0
ARC
  5
1C6
330
91
100
AcDbEntity
  8
0
  6
Continuous
 62
     7
100
AcDbCircle
 10
48.99999999900007
 20
-1992.999999997504
 30
0.0
 40
6.000000000000568
100
AcDbArc
 50
180.0
 51
221.8103148957784
  0
ARC
  5
1C7
330
91
100
AcDbEntity
  8
0
  6
Continuous
 62
     7
100
AcDbCircle
 10
8.49999999900018
 20
-2026.999999997504
 30
0.0
 40
10.0
100
AcDbArc
 50
0.0
 51
90.0
  0
ARC
  5
1C8
330
91
100
AcDbEntity
  8
0
  6
Continuous
 62
     7
100
AcDbCircle
 10
48.99999999900007
 20
-1992.999999997504
 30
0.0
 40
6.000000000000016
100
AcDbArc
 50
221.8103148957784
 51
270.0
  0
ARC
  5
1C9
330
91
100
AcDbEntity
  8
0
  6
Continuous
 62
     7
100
AcDbCircle
 10
163.4999999989996
 20
-2007.50406974996
 30
0.0
 40
4.0
100
AcDbArc
 50
0.0
 51
85.8595177903809
  0
ARC
  5
1CA
330
91
100
AcDbEntity
  8
0
  6
Continuous
 62
     7
100
AcDbCircle
 10
203.4999999989962
 20
-1454.949999997505
 30
0.0
 40
549.9999999999998
100
AcDbArc
 50
261.5645730221873
 51
265.8595177903802
  0
ARC
  5
1CB
330
91
100
AcDbEntity
  8
0
  6
Continuous
 62
     7
100
AcDbCircle
 10
203.4999999989976
 20
-1454.949999997505
 30
0.0
 40
550.0000000000008
100
AcDbArc
 50
274.1404822096205
 51
278.4354269778133
  0
ARC
  5
1CC
330
91
100
AcDbEntity
  8
0
  6
Continuous
 62
     7
100
AcDbCircle
 10
6.49999999900018
 20
-1932.999999997504
 30
0.0
 40
4.0
100
AcDbArc
 50
270.0
 51
0.0
  0
ARC
  5
1CD
330
91
100
AcDbEntity
  8
0
  6
Continuous
 62
     7
100
AcDbCircle
 10
400.4999999990002
 20
-1932.999999997504
 30
0.0
 40
4.0
100
AcDbArc
 50
180.0
 51
270.0
  0
ARC
  5
1CE
330
91
100
AcDbEntity
  8
0
  6
Continuous
 62
     7
100
AcDbCircle
 10
-17.50000000099982
 20
-1940.999999997505
 30
0.0
 40
4.0
100
AcDbArc
 50
90.0
 51
180.0
  0
ARC
  5
1CF
330
91
100
AcDbEntity
  8
0
  6
Continuous
 62
     7
100
AcDbCircle
 10
-17.50000000099982
 20
-2012.999999997504
 30
0.0
 40
4.000000000000622
100
AcDbArc
 50
180.0
 51
270.0
  0
ENDBLK
  5
93
330
91
100
AcDbEntity
  8
0
100
AcDbBlockEnd
  0
BLOCK
  5
95
330
94
100
AcDbEntity
  8
0
100
AcDbBlockBegin
  2
980057503__11
 70
     0
 10
428.4999999989996
 20
-2103.999999997504
 30
0.0
  3
980057503__11
  1

  0
LINE
  5
1D0
330
94
100
AcDbEntity
  8
0
  6
Continuous
 62
     7
100
AcDbLine
 10
878.4999999990002
 20
-2016.999999997504
 30
0.0
 11
878.4999999990002
 21
-2012.999999997504
 31
0.0
  0
LINE
  5
1D1
330
94
100
AcDbEntity
  8
0
  6
Continuous
 62
     7
100
AcDbLine
 10
878.4999999990002
 20
-2016.999999997504
 30
0.0
 11
874.4999999990002
 21
-2016.999999997504
 31
0.0
  0
LINE
  5
1D2
330
94
100
AcDbEntity
  8
0
  6
Continuous
 62
     7
100
AcDbLine
 10
878.4999999990002
 20
-2012.999999997504
 30
0.0
 11
878.4999999990002
 21
-1998.999999997504
 31
0.0
  0
LINE
  5
1D3
330
94
100
AcDbEntity
  8
0
  6
Continuous
 62
     7
100
AcDbLine
 10
848.4999999990002
 20
-2016.999999997504
 30
0.0
 11
874.4999999990002
 21
-2016.999999997504
 31
0.0
  0
LINE
  5
1D4
330
94
100
AcDbEntity
  8
0
  6
Continuous
 62
     7
100
AcDbLine
 10
878.4999999990002
 20
-1998.999999997504
 30
0.0
 11
878.4999999990002
 21
-1996.999999997504
 31
0.0
  0
LINE
  5
1D5
330
94
100
AcDbEntity
  8
0
  6
Continuous
 62
     7
100
AcDbLine
 10
878.4999999990002
 20
-1940.999999997504
 30
0.0
 11
878.4999999990002
 21
-1936.999999997504
 31
0.0
  0
LINE
  5
1D6
330
94
100
AcDbEntity
  8
0
  6
Continuous
 62
     7
100
AcDbLine
 10
878.4999999990002
 20
-1996.999999997504
 30
0.0
 11
878.4999999990002
 21
-1940.999999997504
 31
0.0
  0
LINE
  5
1D7
330
94
100
AcDbEntity
  8
0
  6
Continuous
 62
     7
100
AcDbLine
 10
874.4999999990002
 20
-1936.999999997504
 30
0.0
 11
878.4999999990002
 21
-1936.999999997504
 31
0.0
  0
LINE
  5
1D8
330
94
100
AcDbEntity
  8
0
  6
Continuous
 62
     7
100
AcDbLine
 10
850.4999999990002
 20
-1936.999999997504
 30
0.0
 11
874.4999999990002
 21
-1936.999999997504
 31
0.0
  0
LINE
  5
1D9
330
94
100
AcDbEntity
  8
0
  6
Continuous
 62
     7
100
AcDbLine
 10
838.4999999990002
 20
-2099.999999997504
 30
0.0
 11
838.4999999990002
 21
-2103.999999997504
 31
0.0
  0
LINE
  5
1DA
330
94
100
AcDbEntity
  8
0
  6
Continuous
 62
     7
100
AcDbLine
 10
834.4999999990002
 20
-2103.999999997504
 30
0.0
 11
838.4999999990002
 21
-2103.999999997504
 31
0.0
  0
LINE
  5
1DB
330
94
100
AcDbEntity
  8
0
  6
Continuous
 62
     7
100
AcDbLine
 10
838.4999999990002
 20
-2099.999999997504
 30
0.0
 11
838.4999999990002
 21
-2026.999999997504
 31
0.0
  0
LINE
  5
1DC
330
94
100
AcDbEntity
  8
0
  6
Continuous
 62
     7
100
AcDbLine
 10
687.4999999990009
 20
-2103.999999997504
 30
0.0
 11
689.4999999990009
 21
-2103.999999997504
 31
0.0
  0
LINE
  5
1DD
330
94
100
AcDbEntity
  8
0
  6
Continuous
 62
     7
100
AcDbLine
 10
689.4999999990009
 20
-2103.999999997504
 30
0.0
 11
834.4999999990002
 21
-2103.999999997504
 31
0.0
  0
LINE
  5
1DE
330
94
100
AcDbEntity
  8
0
  6
Continuous
 62
     7
100
AcDbLine
 10
846.4999999990002
 20
-1932.499999997504
 30
0.0
 11
846.4999999990002
 21
-1932.999999997504
 31
0.0
  0
LINE
  5
1DF
330
94
100
AcDbEntity
  8
0
  6
Continuous
 62
     7
100
AcDbLine
 10
846.4999999990002
 20
-1932.499999997504
 30
0.0
 11
846.4999999990002
 21
-1927.284609688331
 31
0.0
  0
LINE
  5
1E0
330
94
100
AcDbEntity
  8
0
  6
Continuous
 62
     7
100
AcDbLine
 10
846.4999999990002
 20
-1910.999999997504
 30
0.0
 11
842.4999999990002
 21
-1910.999999997504
 31
0.0
  0
LINE
  5
1E1
330
94
100
AcDbEntity
  8
0
  6
Continuous
 62
     7
100
AcDbLine
 10
846.4999999990002
 20
-1910.999999997504
 30
0.0
 11
846.4999999990002
 21
-1914.999999997506
 31
0.0
  0
LINE
  5
1E2
330
94
100
AcDbEntity
  8
0
  6
Continuous
 62
     7
100
AcDbLine
 10
846.4999999990002
 20
-1927.284609688331
 30
0.0
 11
846.4999999990002
 21
-1914.999999997506
 31
0.0
  0
LINE
  5
1E3
330
94
100
AcDbEntity
  8
0
  6
Continuous
 62
     7
100
AcDbLine
 10
472.4999999990002
 20
-2103.999999997504
 30
0.0
 11
617.4999999989993
 21
-2103.999999997504
 31
0.0
  0
LINE
  5
1E4
330
94
100
AcDbEntity
  8
0
  6
Continuous
 62
     7
100
AcDbLine
 10
432.4999999990002
 20
-2016.999999997505
 30
0.0
 11
458.4999999989995
 21
-2016.999999997504
 31
0.0
  0
LINE
  5
1E5
330
94
100
AcDbEntity
  8
0
  6
Continuous
 62
     7
100
AcDbLine
 10
828.9999999990002
 20
-1910.999999997503
 30
0.0
 11
808.9999999990002
 21
-1910.999999997503
 31
0.0
  0
LINE
  5
1E6
330
94
100
AcDbEntity
  8
0
  6
Continuous
 62
     7
100
AcDbLine
 10
842.4999999990002
 20
-1910.999999997504
 30
0.0
 11
828.9999999990002
 21
-1910.999999997503
 31
0.0
  0
LINE
  5
1E7
330
94
100
AcDbEntity
  8
0
  6
Continuous
 62
     7
100
AcDbLine
 10
808.9999999990002
 20
-1910.999999997503
 30
0.0
 11
778.4999999990002
 21
-1910.999999997503
 31
0.0
  0
LINE
  5
1E8
330
94
100
AcDbEntity
  8
0
  6
Continuous
 62
     7
100
AcDbLine
 10
497.9999999990002
 20
-1910.999999997503
 30
0.0
 11
477.9999999990002
 21
-1910.999999997503
 31
0.0
  0
LINE
  5
1E9
330
94
100
AcDbEntity
  8
0
  6
Continuous
 62
     7
100
AcDbLine
 10
477.9999999990002
 20
-1910.999999997503
 30
0.0
 11
464.4999999990002
 21
-1910.999999997504
 31
0.0
  0
LINE
  5
1EA
330
94
100
AcDbEntity
  8
0
  6
Continuous
 62
     7
100
AcDbLine
 10
528.4999999990002
 20
-1910.999999997505
 30
0.0
 11
497.9999999990002
 21
-1910.999999997503
 31
0.0
  0
LINE
  5
1EB
330
94
100
AcDbEntity
  8
0
  6
Continuous
 62
     7
100
AcDbLine
 10
778.4999999990002
 20
-1910.999999997503
 30
0.0
 11
528.4999999990002
 21
-1910.999999997505
 31
0.0
  0
LINE
  5
1EC
330
94
100
AcDbEntity
  8
0
  6
Continuous
 62
     7
100
AcDbLine
 10
460.4999999990002
 20
-1914.999999997506
 30
0.0
 11
460.4999999990002
 21
-1910.999999997504
 31
0.0
  0
LINE
  5
1ED
330
94
100
AcDbEntity
  8
0
  6
Continuous
 62
     7
100
AcDbLine
 10
464.4999999990002
 20
-1910.999999997504
 30
0.0
 11
460.4999999990002
 21
-1910.999999997504
 31
0.0
  0
LINE
  5
1EE
330
94
100
AcDbEntity
  8
0
  6
Continuous
 62
     7
100
AcDbLine
 10
468.4999999990002
 20
-2103.999999997504
 30
0.0
 11
472.4999999990002
 21
-2103.999999997504
 31
0.0
  0
LINE
  5
1EF
330
94
100
AcDbEntity
  8
0
  6
Continuous
 62
     7
100
AcDbLine
 10
468.4999999990002
 20
-2103.999999997504
 30
0.0
 11
468.4999999990002
 21
-2099.999999997504
 31
0.0
  0
LINE
  5
1F0
330
94
100
AcDbEntity
  8
0
  6
Continuous
 62
     7
100
AcDbLine
 10
460.4999999990002
 20
-1914.999999997506
 30
0.0
 11
460.4999999990002
 21
-1927.284609688331
 31
0.0
  0
LINE
  5
1F1
330
94
100
AcDbEntity
  8
0
  6
Continuous
 62
     7
100
AcDbLine
 10
468.4999999989996
 20
-2026.999999997504
 30
0.0
 11
468.4999999990002
 21
-2099.999999997504
 31
0.0
  0
LINE
  5
1F2
330
94
100
AcDbEntity
  8
0
  6
Continuous
 62
     7
100
AcDbLine
 10
617.4999999989993
 20
-2103.999999997504
 30
0.0
 11
619.4999999989996
 21
-2103.999999997504
 31
0.0
  0
LINE
  5
1F3
330
94
100
AcDbEntity
  8
0
  6
Continuous
 62
     7
100
AcDbLine
 10
619.4999999989996
 20
-2103.999999997504
 30
0.0
 11
687.4999999990009
 21
-2103.999999997504
 31
0.0
  0
LINE
  5
1F4
330
94
100
AcDbEntity
  8
0
  6
Continuous
 62
     7
100
AcDbLine
 10
428.4999999989998
 20
-1998.999999997504
 30
0.0
 11
428.4999999989996
 21
-2012.999999997504
 31
0.0
  0
LINE
  5
1F5
330
94
100
AcDbEntity
  8
0
  6
Continuous
 62
     7
100
AcDbLine
 10
432.4999999990002
 20
-2016.999999997505
 30
0.0
 11
428.4999999990002
 21
-2016.999999997504
 31
0.0
  0
LINE
  5
1F6
330
94
100
AcDbEntity
  8
0
  6
Continuous
 62
     7
100
AcDbLine
 10
428.4999999990002
 20
-2016.999999997504
 30
0.0
 11
428.4999999989996
 21
-2012.999999997504
 31
0.0
  0
LINE
  5
1F7
330
94
100
AcDbEntity
  8
0
  6
Continuous
 62
     7
100
AcDbLine
 10
428.4999999989998
 20
-1996.999999997504
 30
0.0
 11
428.4999999989998
 21
-1998.999999997504
 31
0.0
  0
LINE
  5
1F8
330
94
100
AcDbEntity
  8
0
  6
Continuous
 62
     7
100
AcDbLine
 10
428.4999999989998
 20
-1940.999999997505
 30
0.0
 11
428.4999999989998
 21
-1996.999999997504
 31
0.0
  0
LINE
  5
1F9
330
94
100
AcDbEntity
  8
0
  6
Continuous
 62
     7
100
AcDbLine
 10
460.4999999990002
 20
-1927.284609688331
 30
0.0
 11
460.4999999990002
 21
-1932.499999997504
 31
0.0
  0
LINE
  5
1FA
330
94
100
AcDbEntity
  8
0
  6
Continuous
 62
     7
100
AcDbLine
 10
460.4999999990002
 20
-1932.999999997505
 30
0.0
 11
460.4999999990002
 21
-1932.499999997504
 31
0.0
  0
LINE
  5
1FB
330
94
100
AcDbEntity
  8
0
  6
Continuous
 62
     7
100
AcDbLine
 10
428.4999999990002
 20
-1936.999999997504
 30
0.0
 11
432.4999999990002
 21
-1936.999999997505
 31
0.0
  0
LINE
  5
1FC
330
94
100
AcDbEntity
  8
0
  6
Continuous
 62
     7
100
AcDbLine
 10
428.4999999989998
 20
-1940.999999997505
 30
0.0
 11
428.4999999990002
 21
-1936.999999997504
 31
0.0
  0
LINE
  5
1FD
330
94
100
AcDbEntity
  8
0
  6
Continuous
 62
     7
100
AcDbLine
 10
432.4999999990002
 20
-1936.999999997505
 30
0.0
 11
456.4999999990002
 21
-1936.999999997505
 31
0.0
  0
ARC
  5
1FE
330
94
100
AcDbEntity
  8
0
  6
Continuous
 62
     7
100
AcDbCircle
 10
850.4999999990002
 20
-1932.999999997504
 30
0.0
 40
4.0
100
AcDbArc
 50
180.0
 51
270.0
  0
ARC
  5
1FF
330
94
100
AcDbEntity
  8
0
  6
Continuous
 62
     7
100
AcDbCircle
 10
848.4999999990002
 20
-2026.999999997504
 30
0.0
 40
10.0
100
AcDbArc
 50
90.0
 51
180.0
  0
ARC
  5
200
330
94
100
AcDbEntity
  8
0
  6
Continuous
 62
     7
100
AcDbCircle
 10
458.4999999989995
 20
-2026.999999997505
 30
0.0
 40
10.00000000000011
100
AcDbArc
 50
0.00000000000651
 51
90.0
  0
ARC
  5
201
330
94
100
AcDbEntity
  8
0
  6
Continuous
 62
     7
100
AcDbCircle
 10
456.4999999990002
 20
-1932.999999997505
 30
0.0
 40
4.0
100
AcDbArc
 50
270.0
 51
0.0
  0
ENDBLK
  5
96
330
94
100
AcDbEntity
  8
0
100
AcDbBlockEnd
  0
BLOCK
  5
98
330
97
100
AcDbEntity
  8
0
100
AcDbBlockBegin
  2
368027496_1__12
 70
     0
 10
428.4999999989996
 20
-2103.999999997504
 30
0.0
  3
368027496_1__12
  1

  0
LINE
  5
202
330
97
100
AcDbEntity
  8
0
  6
Continuous
 62
     7
100
AcDbLine
 10
878.4999999990002
 20
-2012.999999997504
 30
0.0
 11
878.4999999990002
 21
-1998.999999997504
 31
0.0
  0
LINE
  5
203
330
97
100
AcDbEntity
  8
0
  6
Continuous
 62
     7
100
AcDbLine
 10
848.4999999990002
 20
-2016.999999997504
 30
0.0
 11
874.4999999990002
 21
-2016.999999997504
 31
0.0
  0
LINE
  5
204
330
97
100
AcDbEntity
  8
0
  6
Continuous
 62
     7
100
AcDbLine
 10
878.4999999990002
 20
-1998.999999997504
 30
0.0
 11
808.4999999990011
 21
-1998.999999997504
 31
0.0
  0
LINE
  5
205
330
97
100
AcDbEntity
  8
0
  6
Continuous
 62
     7
100
AcDbLine
 10
878.4999999990002
 20
-1998.999999997504
 30
0.0
 11
878.4999999990002
 21
-1996.999999997504
 31
0.0
  0
LINE
  5
206
330
97
100
AcDbEntity
  8
0
  6
Continuous
 62
     7
100
AcDbLine
 10
878.4999999990002
 20
-1996.999999997504
 30
0.0
 11
878.4999999990002
 21
-1940.999999997504
 31
0.0
  0
LINE
  5
207
330
97
100
AcDbEntity
  8
0
  6
Continuous
 62
     7
100
AcDbLine
 10
813.9999999990002
 20
-1932.999999997502
 30
0.0
 11
813.9999999990002
 21
-1992.999999997504
 31
0.0
  0
LINE
  5
208
330
97
100
AcDbEntity
  8
0
  6
Continuous
 62
     7
100
AcDbLine
 10
878.4999999990002
 20
-1996.999999997504
 30
0.0
 11
812.4721359540004
 21
-1996.999999997504
 31
0.0
  0
LINE
  5
209
330
97
100
AcDbEntity
  8
0
  6
Continuous
 62
     7
100
AcDbLine
 10
813.9791303705513
 20
-1932.499999997504
 30
0.0
 11
846.4999999990002
 21
-1932.499999997504
 31
0.0
  0
LINE
  5
20A
330
97
100
AcDbEntity
  8
0
  6
Continuous
 62
     7
100
AcDbLine
 10
850.4999999990002
 20
-1936.999999997504
 30
0.0
 11
874.4999999990002
 21
-1936.999999997504
 31
0.0
  0
LINE
  5
20B
330
97
100
AcDbEntity
  8
0
  6
Continuous
 62
     7
100
AcDbLine
 10
846.4999999990002
 20
-1927.284609688331
 30
0.0
 11
834.4999999990002
 21
-1930.499999997504
 31
0.0
  0
LINE
  5
20C
330
97
100
AcDbEntity
  8
0
  6
Continuous
 62
     7
100
AcDbLine
 10
808.4999999990011
 20
-1998.999999997504
 30
0.0
 11
807.9999999990002
 21
-1998.999999997504
 31
0.0
  0
LINE
  5
20D
330
97
100
AcDbEntity
  8
0
  6
Continuous
 62
     7
100
AcDbLine
 10
808.4999999990011
 20
-2018.999999997504
 30
0.0
 11
808.4999999990011
 21
-1998.999999997504
 31
0.0
  0
LINE
  5
20E
330
97
100
AcDbEntity
  8
0
  6
Continuous
 62
     7
100
AcDbLine
 10
689.4999999990009
 20
-2028.999999997504
 30
0.0
 11
689.4999999990009
 21
-2037.999999997504
 31
0.0
  0
LINE
  5
20F
330
97
100
AcDbEntity
  8
0
  6
Continuous
 62
     7
100
AcDbLine
 10
689.4999999990009
 20
-2007.50406974996
 30
0.0
 11
689.4999999990009
 21
-2028.999999997504
 31
0.0
  0
LINE
  5
210
330
97
100
AcDbEntity
  8
0
  6
Continuous
 62
     7
100
AcDbLine
 10
689.4999999990009
 20
-2028.999999997504
 30
0.0
 11
798.4999999990011
 21
-2028.999999997504
 31
0.0
  0
LINE
  5
211
330
97
100
AcDbEntity
  8
0
  6
Continuous
 62
     7
100
AcDbLine
 10
838.4999999990002
 20
-2099.999999997504
 30
0.0
 11
838.4999999990002
 21
-2026.999999997504
 31
0.0
  0
LINE
  5
212
330
97
100
AcDbEntity
  8
0
  6
Continuous
 62
     7
100
AcDbLine
 10
687.4999999990009
 20
-2103.999999997504
 30
0.0
 11
689.4999999990009
 21
-2103.999999997504
 31
0.0
  0
LINE
  5
213
330
97
100
AcDbEntity
  8
0
  6
Continuous
 62
     7
100
AcDbLine
 10
689.4999999990009
 20
-2103.999999997504
 30
0.0
 11
834.4999999990002
 21
-2103.999999997504
 31
0.0
  0
LINE
  5
214
330
97
100
AcDbEntity
  8
0
  6
Continuous
 62
     7
100
AcDbLine
 10
689.4999999990009
 20
-2037.999999997504
 30
0.0
 11
689.4999999990009
 21
-2103.999999997504
 31
0.0
  0
LINE
  5
215
330
97
100
AcDbEntity
  8
0
  6
Continuous
 62
     7
100
AcDbLine
 10
807.9999999990002
 20
-1998.999999997504
 30
0.0
 11
734.1820766951391
 21
-1998.999999997504
 31
0.0
  0
LINE
  5
216
330
97
100
AcDbEntity
  8
0
  6
Continuous
 62
     7
100
AcDbLine
 10
687.4999999990009
 20
-2042.472135952504
 30
0.0
 11
687.4999999990009
 21
-2103.999999997504
 31
0.0
  0
LINE
  5
217
330
97
100
AcDbEntity
  8
0
  6
Continuous
 62
     7
100
AcDbLine
 10
846.4999999990002
 20
-1932.499999997504
 30
0.0
 11
846.4999999990002
 21
-1932.999999997504
 31
0.0
  0
LINE
  5
218
330
97
100
AcDbEntity
  8
0
  6
Continuous
 62
     7
100
AcDbLine
 10
846.4999999990002
 20
-1932.499999997504
 30
0.0
 11
846.4999999990002
 21
-1927.284609688331
 31
0.0
  0
LINE
  5
219
330
97
100
AcDbEntity
  8
0
  6
Continuous
 62
     7
100
AcDbLine
 10
778.4999999990002
 20
-1910.999999997503
 30
0.0
 11
778.4999999990002
 21
-1922.999999997502
 31
0.0
  0
LINE
  5
21A
330
97
100
AcDbEntity
  8
0
  6
Continuous
 62
     7
100
AcDbLine
 10
846.4999999990002
 20
-1927.284609688331
 30
0.0
 11
846.4999999990002
 21
-1914.999999997506
 31
0.0
  0
LINE
  5
21B
330
97
100
AcDbEntity
  8
0
  6
Continuous
 62
     7
100
AcDbLine
 10
472.4999999990002
 20
-2103.999999997504
 30
0.0
 11
617.4999999989993
 21
-2103.999999997504
 31
0.0
  0
LINE
  5
21C
330
97
100
AcDbEntity
  8
0
  6
Continuous
 62
     7
100
AcDbLine
 10
508.4999999989997
 20
-2028.999999997504
 30
0.0
 11
617.4999999989996
 21
-2028.999999997504
 31
0.0
  0
LINE
  5
21D
330
97
100
AcDbEntity
  8
0
  6
Continuous
 62
     7
100
AcDbLine
 10
498.4999999989995
 20
-1998.999999997504
 30
0.0
 11
498.4999999989995
 21
-2018.999999997504
 31
0.0
  0
LINE
  5
21E
330
97
100
AcDbEntity
  8
0
  6
Continuous
 62
     7
100
AcDbLine
 10
572.8179233028611
 20
-1998.999999997504
 30
0.0
 11
498.9999999990001
 21
-1998.999999997504
 31
0.0
  0
LINE
  5
21F
330
97
100
AcDbEntity
  8
0
  6
Continuous
 62
     7
100
AcDbLine
 10
619.4999999989996
 20
-2103.999999997504
 30
0.0
 11
619.4999999989996
 21
-2042.472135952504
 31
0.0
  0
LINE
  5
220
330
97
100
AcDbEntity
  8
0
  6
Continuous
 62
     7
100
AcDbLine
 10
432.4999999990002
 20
-2016.999999997505
 30
0.0
 11
458.4999999989995
 21
-2016.999999997504
 31
0.0
  0
LINE
  5
221
330
97
100
AcDbEntity
  8
0
  6
Continuous
 62
     7
100
AcDbLine
 10
828.9999999990002
 20
-1910.999999997503
 30
0.0
 11
808.9999999990002
 21
-1910.999999997503
 31
0.0
  0
LINE
  5
222
330
97
100
AcDbEntity
  8
0
  6
Continuous
 62
     7
100
AcDbLine
 10
842.4999999990002
 20
-1910.999999997504
 30
0.0
 11
828.9999999990002
 21
-1910.999999997503
 31
0.0
  0
LINE
  5
223
330
97
100
AcDbEntity
  8
0
  6
Continuous
 62
     7
100
AcDbLine
 10
808.9999999990002
 20
-1910.999999997503
 30
0.0
 11
778.4999999990002
 21
-1910.999999997503
 31
0.0
  0
LINE
  5
224
330
97
100
AcDbEntity
  8
0
  6
Continuous
 62
     7
100
AcDbLine
 10
497.9999999990002
 20
-1910.999999997503
 30
0.0
 11
477.9999999990002
 21
-1910.999999997503
 31
0.0
  0
LINE
  5
225
330
97
100
AcDbEntity
  8
0
  6
Continuous
 62
     7
100
AcDbLine
 10
477.9999999990002
 20
-1910.999999997503
 30
0.0
 11
464.4999999990002
 21
-1910.999999997504
 31
0.0
  0
LINE
  5
226
330
97
100
AcDbEntity
  8
0
  6
Continuous
 62
     7
100
AcDbLine
 10
498.9999999990001
 20
-1926.999999997504
 30
0.0
 11
524.4999999990002
 21
-1926.999999997504
 31
0.0
  0
LINE
  5
227
330
97
100
AcDbEntity
  8
0
  6
Continuous
 62
     7
100
AcDbLine
 10
782.4999999990002
 20
-1926.999999997502
 30
0.0
 11
807.9999999990002
 21
-1926.999999997502
 31
0.0
  0
LINE
  5
228
330
97
100
AcDbEntity
  8
0
  6
Continuous
 62
     7
100
AcDbLine
 10
528.4999999990002
 20
-1910.999999997505
 30
0.0
 11
497.9999999990002
 21
-1910.999999997503
 31
0.0
  0
LINE
  5
229
330
97
100
AcDbEntity
  8
0
  6
Continuous
 62
     7
100
AcDbLine
 10
460.4999999990002
 20
-1914.999999997506
 30
0.0
 11
460.4999999990002
 21
-1927.284609688331
 31
0.0
  0
LINE
  5
22A
330
97
100
AcDbEntity
  8
0
  6
Continuous
 62
     7
100
AcDbLine
 10
468.4999999989996
 20
-2026.999999997504
 30
0.0
 11
468.4999999990002
 21
-2099.999999997504
 31
0.0
  0
LINE
  5
22B
330
97
100
AcDbEntity
  8
0
  6
Continuous
 62
     7
100
AcDbLine
 10
472.4999999990002
 20
-1930.499999997504
 30
0.0
 11
493.5456439416823
 21
-1930.499999997504
 31
0.0
  0
LINE
  5
22C
330
97
100
AcDbEntity
  8
0
  6
Continuous
 62
     7
100
AcDbLine
 10
813.4543560563193
 20
-1930.499999997504
 30
0.0
 11
834.4999999990002
 21
-1930.499999997504
 31
0.0
  0
LINE
  5
22D
330
97
100
AcDbEntity
  8
0
  6
Continuous
 62
     7
100
AcDbLine
 10
617.4999999989993
 20
-2103.999999997504
 30
0.0
 11
617.4999999989993
 21
-2037.999999997504
 31
0.0
  0
LINE
  5
22E
330
97
100
AcDbEntity
  8
0
  6
Continuous
 62
     7
100
AcDbLine
 10
617.4999999989993
 20
-2103.999999997504
 30
0.0
 11
619.4999999989996
 21
-2103.999999997504
 31
0.0
  0
LINE
  5
22F
330
97
100
AcDbEntity
  8
0
  6
Continuous
 62
     7
100
AcDbLine
 10
619.4999999989996
 20
-2103.999999997504
 30
0.0
 11
687.4999999990009
 21
-2103.999999997504
 31
0.0
  0
LINE
  5
230
330
97
100
AcDbEntity
  8
0
  6
Continuous
 62
     7
100
AcDbLine
 10
617.4999999989993
 20
-2037.999999997504
 30
0.0
 11
617.4999999989996
 21
-2028.999999997504
 31
0.0
  0
LINE
  5
231
330
97
100
AcDbEntity
  8
0
  6
Continuous
 62
     7
100
AcDbLine
 10
617.4999999989996
 20
-2028.999999997504
 30
0.0
 11
617.4999999989996
 21
-2007.50406974996
 31
0.0
  0
LINE
  5
232
330
97
100
AcDbEntity
  8
0
  6
Continuous
 62
     7
100
AcDbLine
 10
683.4999999990009
 20
-2043.999999997504
 30
0.0
 11
623.4999999989993
 21
-2043.999999997504
 31
0.0
  0
LINE
  5
233
330
97
100
AcDbEntity
  8
0
  6
Continuous
 62
     7
100
AcDbLine
 10
528.4999999990002
 20
-1922.999999997504
 30
0.0
 11
528.4999999990002
 21
-1910.999999997505
 31
0.0
  0
LINE
  5
234
330
97
100
AcDbEntity
  8
0
  6
Continuous
 62
     7
100
AcDbLine
 10
428.4999999989998
 20
-1998.999999997504
 30
0.0
 11
428.4999999989996
 21
-2012.999999997504
 31
0.0
  0
LINE
  5
235
330
97
100
AcDbEntity
  8
0
  6
Continuous
 62
     7
100
AcDbLine
 10
428.4999999989998
 20
-1996.999999997504
 30
0.0
 11
428.4999999989998
 21
-1998.999999997504
 31
0.0
  0
LINE
  5
236
330
97
100
AcDbEntity
  8
0
  6
Continuous
 62
     7
100
AcDbLine
 10
428.4999999989998
 20
-1940.999999997505
 30
0.0
 11
428.4999999989998
 21
-1996.999999997504
 31
0.0
  0
LINE
  5
237
330
97
100
AcDbEntity
  8
0
  6
Continuous
 62
     7
100
AcDbLine
 10
498.9999999990001
 20
-1998.999999997504
 30
0.0
 11
498.4999999989995
 21
-1998.999999997504
 31
0.0
  0
LINE
  5
238
330
97
100
AcDbEntity
  8
0
  6
Continuous
 62
     7
100
AcDbLine
 10
498.4999999989995
 20
-1998.999999997504
 30
0.0
 11
428.4999999989998
 21
-1998.999999997504
 31
0.0
  0
LINE
  5
239
330
97
100
AcDbEntity
  8
0
  6
Continuous
 62
     7
100
AcDbLine
 10
460.4999999990002
 20
-1927.284609688331
 30
0.0
 11
460.4999999990002
 21
-1932.499999997504
 31
0.0
  0
LINE
  5
23A
330
97
100
AcDbEntity
  8
0
  6
Continuous
 62
     7
100
AcDbLine
 10
460.4999999990002
 20
-1932.999999997505
 30
0.0
 11
460.4999999990002
 21
-1932.499999997504
 31
0.0
  0
LINE
  5
23B
330
97
100
AcDbEntity
  8
0
  6
Continuous
 62
     7
100
AcDbLine
 10
432.4999999990002
 20
-1936.999999997505
 30
0.0
 11
456.4999999990002
 21
-1936.999999997505
 31
0.0
  0
LINE
  5
23C
330
97
100
AcDbEntity
  8
0
  6
Continuous
 62
     7
100
AcDbLine
 10
460.4999999990002
 20
-1932.499999997504
 30
0.0
 11
493.0208696274494
 21
-1932.499999997504
 31
0.0
  0
LINE
  5
23D
330
97
100
AcDbEntity
  8
0
  6
Continuous
 62
     7
100
AcDbLine
 10
494.5278640440005
 20
-1996.999999997504
 30
0.0
 11
428.4999999989998
 21
-1996.999999997504
 31
0.0
  0
LINE
  5
23E
330
97
100
AcDbEntity
  8
0
  6
Continuous
 62
     7
100
AcDbLine
 10
492.9999999989995
 20
-1992.999999997504
 30
0.0
 11
492.9999999989995
 21
-1932.999999997504
 31
0.0
  0
LINE
  5
23F
330
97
100
AcDbEntity
  8
0
  6
Continuous
 62
     7
100
AcDbLine
 10
460.4999999990002
 20
-1927.284609688331
 30
0.0
 11
472.4999999990002
 21
-1930.499999997504
 31
0.0
  0
ARC
  5
240
330
97
100
AcDbEntity
  8
0
  6
Continuous
 62
     7
100
AcDbCircle
 10
807.9999999990002
 20
-1992.999999997504
 30
0.0
 40
6.000000000000397
100
AcDbArc
 50
318.1896851042248
 51
0.0
  0
ARC
  5
241
330
97
100
AcDbEntity
  8
0
  6
Continuous
 62
     7
100
AcDbCircle
 10
807.9999999990002
 20
-1932.9999999975
 30
0.0
 40
6.0
100
AcDbArc
 50
359.9999999999804
 51
4.78019184716211
  0
ARC
  5
242
330
97
100
AcDbEntity
  8
0
  6
Continuous
 62
     7
100
AcDbCircle
 10
807.9999999990002
 20
-1932.999999997502
 30
0.0
 40
6.000000000000185
100
AcDbArc
 50
4.78019184718158
 51
24.62431835214355
  0
ARC
  5
243
330
97
100
AcDbEntity
  8
0
  6
Continuous
 62
     7
100
AcDbCircle
 10
782.4999999990002
 20
-1922.999999997502
 30
0.0
 40
4.0
100
AcDbArc
 50
180.0
 51
270.0
  0
ARC
  5
244
330
97
100
AcDbEntity
  8
0
  6
Continuous
 62
     7
100
AcDbCircle
 10
807.9999999990002
 20
-1932.999999997502
 30
0.0
 40
6.000000000000323
100
AcDbArc
 50
24.62431835214355
 51
90.0
  0
ARC
  5
245
330
97
100
AcDbEntity
  8
0
  6
Continuous
 62
     7
100
AcDbCircle
 10
874.4999999990002
 20
-1940.999999997504
 30
0.0
 40
4.0
100
AcDbArc
 50
0.0
 51
90.0
  0
ARC
  5
246
330
97
100
AcDbEntity
  8
0
  6
Continuous
 62
     7
100
AcDbCircle
 10
850.4999999990002
 20
-1932.999999997504
 30
0.0
 40
4.0
100
AcDbArc
 50
180.0
 51
270.0
  0
ARC
  5
247
330
97
100
AcDbEntity
  8
0
  6
Continuous
 62
     7
100
AcDbCircle
 10
874.4999999990002
 20
-2012.999999997504
 30
0.0
 40
4.0
100
AcDbArc
 50
270.0
 51
0.0
  0
ARC
  5
248
330
97
100
AcDbEntity
  8
0
  6
Continuous
 62
     7
100
AcDbCircle
 10
848.4999999990002
 20
-2026.999999997504
 30
0.0
 40
10.0
100
AcDbArc
 50
90.0
 51
180.0
  0
ARC
  5
249
330
97
100
AcDbEntity
  8
0
  6
Continuous
 62
     7
100
AcDbCircle
 10
807.9999999990002
 20
-1992.999999997504
 30
0.0
 40
6.0
100
AcDbArc
 50
270.0
 51
318.1896851042248
  0
ARC
  5
24A
330
97
100
AcDbEntity
  8
0
  6
Continuous
 62
     7
100
AcDbCircle
 10
834.4999999990002
 20
-2099.999999997504
 30
0.0
 40
4.0
100
AcDbArc
 50
270.0
 51
0.0
  0
ARC
  5
24B
330
97
100
AcDbEntity
  8
0
  6
Continuous
 62
     7
100
AcDbCircle
 10
683.4999999990009
 20
-2037.999999997504
 30
0.0
 40
6.000000000000397
100
AcDbArc
 50
311.8103148957752
 51
0.0
  0
ARC
  5
24C
330
97
100
AcDbEntity
  8
0
  6
Continuous
 62
     7
100
AcDbCircle
 10
693.4999999990009
 20
-2007.50406974996
 30
0.0
 40
4.000000000000277
100
AcDbArc
 50
94.14048220961992
 51
180.0
  0
ARC
  5
24D
330
97
100
AcDbEntity
  8
0
  6
Continuous
 62
     7
100
AcDbCircle
 10
842.4999999990002
 20
-1914.999999997504
 30
0.0
 40
4.0
100
AcDbArc
 50
359.9999999999707
 51
90.0
  0
ARC
  5
24E
330
97
100
AcDbEntity
  8
0
  6
Continuous
 62
     7
100
AcDbCircle
 10
798.4999999990011
 20
-2018.999999997504
 30
0.0
 40
10.0
100
AcDbArc
 50
270.0
 51
0.0
  0
ARC
  5
24F
330
97
100
AcDbEntity
  8
0
  6
Continuous
 62
     7
100
AcDbCircle
 10
524.4999999990002
 20
-1922.999999997504
 30
0.0
 40
4.0
100
AcDbArc
 50
270.0
 51
0.0
  0
ARC
  5
250
330
97
100
AcDbEntity
  8
0
  6
Continuous
 62
     7
100
AcDbCircle
 10
498.9999999990001
 20
-1992.999999997504
 30
0.0
 40
6.000000000000625
100
AcDbArc
 50
180.0
 51
221.8103148957784
  0
ARC
  5
251
330
97
100
AcDbEntity
  8
0
  6
Continuous
 62
     7
100
AcDbCircle
 10
498.9999999990001
 20
-1992.999999997504
 30
0.0
 40
6.000000000000016
100
AcDbArc
 50
221.8103148957784
 51
270.0
  0
ARC
  5
252
330
97
100
AcDbEntity
  8
0
  6
Continuous
 62
     7
100
AcDbCircle
 10
508.4999999989996
 20
-2018.999999997504
 30
0.0
 40
10.00000000000011
100
AcDbArc
 50
180.0
 51
270.0000000000007
  0
ARC
  5
253
330
97
100
AcDbEntity
  8
0
  6
Continuous
 62
     7
100
AcDbCircle
 10
432.4999999990002
 20
-1940.999999997505
 30
0.0
 40
4.0
100
AcDbArc
 50
90.0
 51
180.0
  0
ARC
  5
254
330
97
100
AcDbEntity
  8
0
  6
Continuous
 62
     7
100
AcDbCircle
 10
432.4999999990002
 20
-2012.999999997504
 30
0.0
 40
4.000000000000568
100
AcDbArc
 50
180.0
 51
270.0
  0
ARC
  5
255
330
97
100
AcDbEntity
  8
0
  6
Continuous
 62
     7
100
AcDbCircle
 10
464.4999999990002
 20
-1914.999999997504
 30
0.0
 40
4.0
100
AcDbArc
 50
90.0
 51
180.0000000000293
  0
ARC
  5
256
330
97
100
AcDbEntity
  8
0
  6
Continuous
 62
     7
100
AcDbCircle
 10
472.4999999990002
 20
-2099.999999997504
 30
0.0
 40
4.0
100
AcDbArc
 50
180.0
 51
270.0
  0
ARC
  5
257
330
97
100
AcDbEntity
  8
0
  6
Continuous
 62
     7
100
AcDbCircle
 10
458.4999999989995
 20
-2026.999999997505
 30
0.0
 40
10.00000000000011
100
AcDbArc
 50
0.00000000000651
 51
90.0
  0
ARC
  5
258
330
97
100
AcDbEntity
  8
0
  6
Continuous
 62
     7
100
AcDbCircle
 10
623.4999999989993
 20
-2037.999999997504
 30
0.0
 40
6.0
100
AcDbArc
 50
180.0
 51
228.1896851042264
  0
ARC
  5
259
330
97
100
AcDbEntity
  8
0
  6
Continuous
 62
     7
100
AcDbCircle
 10
683.4999999990009
 20
-2037.999999997504
 30
0.0
 40
6.0
100
AcDbArc
 50
270.0
 51
311.8103148957752
  0
ARC
  5
25A
330
97
100
AcDbEntity
  8
0
  6
Continuous
 62
     7
100
AcDbCircle
 10
623.4999999989993
 20
-2037.999999997504
 30
0.0
 40
6.000000000000246
100
AcDbArc
 50
228.1896851042264
 51
270.0
  0
ARC
  5
25B
330
97
100
AcDbEntity
  8
0
  6
Continuous
 62
     7
100
AcDbCircle
 10
613.4999999989996
 20
-2007.50406974996
 30
0.0
 40
4.0
100
AcDbArc
 50
0.0
 51
85.8595177903801
  0
ARC
  5
25C
330
97
100
AcDbEntity
  8
0
  6
Continuous
 62
     7
100
AcDbCircle
 10
653.4999999989961
 20
-1454.949999997505
 30
0.0
 40
549.9999999999998
100
AcDbArc
 50
261.5645730221873
 51
265.8595177903802
  0
ARC
  5
25D
330
97
100
AcDbEntity
  8
0
  6
Continuous
 62
     7
100
AcDbCircle
 10
498.9999999989998
 20
-1932.999999997511
 30
0.0
 40
6.000000000000301
100
AcDbArc
 50
175.2198081527335
 51
179.9999999999327
  0
ARC
  5
25E
330
97
100
AcDbEntity
  8
0
  6
Continuous
 62
     7
100
AcDbCircle
 10
498.9999999990001
 20
-1932.999999997504
 30
0.0
 40
5.999999999999996
100
AcDbArc
 50
155.3756816478359
 51
175.2198081528009
  0
ARC
  5
25F
330
97
100
AcDbEntity
  8
0
  6
Continuous
 62
     7
100
AcDbCircle
 10
498.9999999990001
 20
-1932.999999997504
 30
0.0
 40
6.0
100
AcDbArc
 50
90.0
 51
155.3756816478359
  0
ARC
  5
260
330
97
100
AcDbEntity
  8
0
  6
Continuous
 62
     7
100
AcDbCircle
 10
456.4999999990002
 20
-1932.999999997505
 30
0.0
 40
4.0
100
AcDbArc
 50
270.0
 51
0.0
  0
ARC
  5
261
330
97
100
AcDbEntity
  8
0
  6
Continuous
 62
     7
100
AcDbCircle
 10
653.4999999989975
 20
-1454.949999997505
 30
0.0
 40
550.0000000000008
100
AcDbArc
 50
274.1404822096205
 51
278.4354269778133
  0
ENDBLK
  5
99
330
97
100
AcDbEntity
  8
0
100
AcDbBlockEnd
  0
BLOCK
  5
A7
330
9A
100
AcDbEntity
  8
0
100
AcDbBlockBegin
  2
539588H_2018-10-05__13
 70
     0
 10
-21.50000000100044
 20
-2103.999999997504
 30
0.0
  3
539588H_2018-10-05__13
  1

  0
INSERT
  5
9B
330
9A
100
AcDbEntity
  8
0
100
AcDbBlockReference
  2
390997584__1
 10
10.99999999900018
 20
-1907.499999997504
 30
0.0
  0
INSERT
  5
9C
330
9A
100
AcDbEntity
  8
0
100
AcDbBlockReference
  2
995907500_2__2
 10
808.9999999990002
 20
-1998.916079780604
 30
0.0
  0
INSERT
  5
9D
330
9A
100
AcDbEntity
  8
0
100
AcDbBlockReference
  2
995907500_1__3
 10
358.9999999990002
 20
-1998.916079780604
 30
0.0
  0
INSERT
  5
9E
330
9A
100
AcDbEntity
  8
0
100
AcDbBlockReference
  2
976007501_1__4
 10
-21.50000000099982
 20
-1910.999999997505
 30
0.0
  0
INSERT
  5
9F
330
9A
100
AcDbEntity
  8
0
100
AcDbBlockReference
  2
390997584_1__5
 10
460.999999999
 20
-1907.499999997504
 30
0.0
  0
INSERT
  5
A0
330
9A
100
AcDbEntity
  8
0
100
AcDbBlockReference
  2
976007501__6
 10
428.4999999990002
 20
-1910.999999997505
 30
0.0
  0
INSERT
  5
A1
330
9A
100
AcDbEntity
  8
0
100
AcDbBlockReference
  2
995907500_3__7
 10
27.99999999900007
 20
-1998.916079780604
 30
0.0
  0
INSERT
  5
A2
330
9A
100
AcDbEntity
  8
0
100
AcDbBlockReference
  2
995907500__8
 10
477.9999999990002
 20
-1998.916079780604
 30
0.0
  0
INSERT
  5
A3
330
9A
100
AcDbEntity
  8
0
100
AcDbBlockReference
  2
980057503_1__9
 10
-21.50000000100044
 20
-2103.999999997504
 30
0.0
  0
INSERT
  5
A4
330
9A
100
AcDbEntity
  8
0
100
AcDbBlockReference
  2
368027496__10
 10
-21.50000000100044
 20
-2103.999999997504
 30
0.0
  0
INSERT
  5
A5
330
9A
100
AcDbEntity
  8
0
100
AcDbBlockReference
  2
980057503__11
 10
428.4999999989996
 20
-2103.999999997504
 30
0.0
  0
INSERT
  5
A6
330
9A
100
AcDbEntity
  8
0
100
AcDbBlockReference
  2
368027496_1__12
 10
428.4999999989996
 20
-2103.999999997504
 30
0.0
  0
ENDBLK
  5
A8
330
9A
100
AcDbEntity
  8
0
100
AcDbBlockEnd
  0
BLOCK
  5
AB
330
A9
100
AcDbEntity
  8
0
100
AcDbBlockBegin
  2
HL6600_2-WEB-Zeichnung__14
 70
     0
 10
-21.50000000100044
 20
-2103.999999997504
 30
0.0
  3
HL6600_2-WEB-Zeichnung__14
  1

  0
INSERT
  5
AA
330
A9
100
AcDbEntity
  8
0
100
AcDbBlockReference
  2
539588H_2018-10-05__13
 10
-21.50000000100044
 20
-2103.999999997504
 30
0.0
  0
ENDBLK
  5
AC
330
A9
100
AcDbEntity
  8
0
100
AcDbBlockEnd
  0
BLOCK
  5
AF
330
AD
100
AcDbEntity
  8
0
100
AcDbBlockBegin
  2
Drfsicht1
 70
     0
 10
428.4999999995004
 20
-2005.49999999875
 30
0.0
  3
Drfsicht1
  1

  0
INSERT
  5
AE
330
AD
100
AcDbEntity
  8
0
100
AcDbBlockReference
  2
HL6600_2-WEB-Zeichnung__14
 10
-21.50000000100044
 20
-2103.999999997504
 30
0.0
  0
MTEXT
  5
263
330
AD
100
AcDbEntity
  8
1
 62
     1
100
AcDbMText
 10
428.4999999995
 20
-2108.99999999875
 30
0.0
 40
3.5
 41
0.0
 71
     2
 72
     1
  1
 
  7
CONVERTER_11
 73
     1
 44
1.32052821128451
  0
DIMENSION
  5
26F
330
AD
100
AcDbEntity
  8
1
100
AcDbDimension
  2
*D39
 10
846.4999999990002
 20
-1843.55426458994
 30
0.0
 11
425.1211402126812
 21
-1816.280632749144
 31
0.0
 70
    32
  1
<>
 71
     5
 42
-1.0
 53
0.00013888888889
  3
ME10_DIM_10
100
AcDbAlignedDimension
 13
10.49999999900018
 23
-1910.999999997504
 33
0.0
 14
846.4999999990002
 24
-1910.999999997504
 34
0.0
100
AcDbRotatedDimension
  0
DIMENSION
  5
27A
330
AD
100
AcDbEntity
  8
1
100
AcDbDimension
  2
*D40
 10
-82.3389721897423
 20
-1906.999999997504
 30
0.0
 11
-113.3439473141204
 21
-2003.58938329361
 31
0.0
 70
    32
  1
196,5
 71
     5
 42
-1.0
 53
90.0
  3
ME10_DIM_11
100
AcDbAlignedDimension
 13
18.49999999900018
 23
-2103.999999997504
 33
0.0
 14
10.99999999900018
 24
-1906.999999997504
 34
0.0
 50
90.0
100
AcDbRotatedDimension
  0
DIMENSION
  5
285
330
AD
100
AcDbEntity
  8
1
100
AcDbDimension
  2
*D41
 10
18.49999999900001
 20
-2193.056926508521
 30
0.0
 11
426.6530660375972
 21
-2165.783294667725
 31
0.0
 70
    32
  1
<>
 71
     5
 42
-1.0
 53
0.00013888888889
  3
ME10_DIM_12
100
AcDbAlignedDimension
 13
838.4999999990002
 23
-2099.999999997504
 33
0.0
 14
18.49999999900007
 24
-2099.999999997504
 34
0.0
100
AcDbRotatedDimension
  0
ENDBLK
  5
B0
330
AD
100
AcDbEntity
  8
0
100
AcDbBlockEnd
  0
BLOCK
  5
B2
330
B1
100
AcDbEntity
  8
0
100
AcDbBlockBegin
  2
976007501_1__15
 70
     0
 10
1078.999999997508
 20
-1633.9999999996
 30
0.0
  3
976007501_1__15
  1

  0
LINE
  5
286
330
B1
100
AcDbEntity
  8
0
  6
Continuous
 62
     7
100
AcDbLine
 10
1082.499999997508
 20
-1539.4999999996
 30
0.0
 11
1078.999999997508
 21
-1539.4999999996
 31
0.0
  0
LINE
  5
287
330
B1
100
AcDbEntity
  8
0
  6
Continuous
 62
     7
100
AcDbLine
 10
1082.499999997508
 20
-1539.4999999996
 30
0.0
 11
1082.499999997508
 21
-1564.9999999996
 31
0.0
  0
LINE
  5
288
330
B1
100
AcDbEntity
  8
0
  6
Continuous
 62
     7
100
AcDbLine
 10
1078.999999997508
 20
-1539.4999999996
 30
0.0
 11
1078.999999997508
 21
-1574.4999999996
 31
0.0
  0
LINE
  5
289
330
B1
100
AcDbEntity
  8
0
  6
Continuous
 62
     7
100
AcDbLine
 10
1082.499999997508
 20
-1629.9999999996
 30
0.0
 11
1082.499999997508
 21
-1625.6999999996
 31
0.0
  0
LINE
  5
28A
330
B1
100
AcDbEntity
  8
0
  6
Continuous
 62
     7
100
AcDbLine
 10
1082.499999997508
 20
-1589.9999999996
 30
0.0
 11
1082.499999997508
 21
-1588.4999999996
 31
0.0
  0
LINE
  5
28B
330
B1
100
AcDbEntity
  8
0
  6
Continuous
 62
     7
100
AcDbLine
 10
1082.499999997508
 20
-1625.6999999996
 30
0.0
 11
1082.499999997508
 21
-1589.9999999996
 31
0.0
  0
LINE
  5
28C
330
B1
100
AcDbEntity
  8
0
  6
Continuous
 62
     7
100
AcDbLine
 10
1082.499999997508
 20
-1588.4999999996
 30
0.0
 11
1082.499999997508
 21
-1564.9999999996
 31
0.0
  0
LINE
  5
28D
330
B1
100
AcDbEntity
  8
0
  6
Continuous
 62
     7
100
AcDbLine
 10
1082.499999997508
 20
-1633.9999999996
 30
0.0
 11
1082.499999997508
 21
-1629.9999999996
 31
0.0
  0
LINE
  5
28E
330
B1
100
AcDbEntity
  8
0
  6
Continuous
 62
     7
100
AcDbLine
 10
1078.999999997508
 20
-1574.4999999996
 30
0.0
 11
1078.999999997508
 21
-1633.9999999996
 31
0.0
  0
LINE
  5
28F
330
B1
100
AcDbEntity
  8
0
  6
Continuous
 62
     7
100
AcDbLine
 10
1078.999999997508
 20
-1633.9999999996
 30
0.0
 11
1082.499999997508
 21
-1633.9999999996
 31
0.0
  0
ENDBLK
  5
B3
330
B1
100
AcDbEntity
  8
0
100
AcDbBlockEnd
  0
BLOCK
  5
B5
330
B4
100
AcDbEntity
  8
0
100
AcDbBlockBegin
  2
995907500_3__16
 70
     0
 10
1082.499999997508
 20
-1629.9999999996
 30
0.0
  3
995907500_3__16
  1

  0
LINE
  5
290
330
B4
100
AcDbEntity
  8
0
  6
Continuous
 62
     7
100
AcDbLine
 10
1082.499999997508
 20
-1625.6999999996
 30
0.0
 11
1082.499999997508
 21
-1589.9999999996
 31
0.0
  0
LINE
  5
291
330
B4
100
AcDbEntity
  8
0
  6
Continuous
 62
     7
100
AcDbLine
 10
1212.499999997508
 20
-1629.9999999996
 30
0.0
 11
1198.499999997508
 21
-1629.9999999996
 31
0.0
  0
LINE
  5
292
330
B4
100
AcDbEntity
  8
0
  6
Continuous
 62
     7
100
AcDbLine
 10
1108.499999997508
 20
-1629.9999999996
 30
0.0
 11
1170.499999997508
 21
-1629.9999999996
 31
0.0
  0
LINE
  5
293
330
B4
100
AcDbEntity
  8
0
  6
Continuous
 62
     7
100
AcDbLine
 10
1170.499999997508
 20
-1628.4999999996
 30
0.0
 11
1101.999999997508
 21
-1628.4999999996
 31
0.0
  0
LINE
  5
294
330
B4
100
AcDbEntity
  8
0
  6
Continuous
 62
     7
100
AcDbLine
 10
1175.014509679549
 20
-1629.9999999996
 30
0.0
 11
1179.004069749964
 21
-1629.9999999996
 31
0.0
  0
LINE
  5
295
330
B4
100
AcDbEntity
  8
0
  6
Continuous
 62
     7
100
AcDbLine
 10
1179.004069749964
 20
-1629.9999999996
 30
0.0
 11
1184.499999997508
 21
-1629.9999999996
 31
0.0
  0
LINE
  5
296
330
B4
100
AcDbEntity
  8
0
  6
Continuous
 62
     7
100
AcDbLine
 10
1170.499999997508
 20
-1629.9999999996
 30
0.0
 11
1175.014509679549
 21
-1629.9999999996
 31
0.0
  0
LINE
  5
297
330
B4
100
AcDbEntity
  8
0
  6
Continuous
 62
     7
100
AcDbLine
 10
1184.499999997508
 20
-1629.9999999996
 30
0.0
 11
1188.499999997508
 21
-1629.9999999996
 31
0.0
  0
LINE
  5
298
330
B4
100
AcDbEntity
  8
0
  6
Continuous
 62
     7
100
AcDbLine
 10
1188.499999997508
 20
-1629.9999999996
 30
0.0
 11
1198.499999997508
 21
-1629.9999999996
 31
0.0
  0
LINE
  5
299
330
B4
100
AcDbEntity
  8
0
  6
Continuous
 62
     7
100
AcDbLine
 10
1104.499999997508
 20
-1629.9999999996
 30
0.0
 11
1101.999999997508
 21
-1629.9999999996
 31
0.0
  0
LINE
  5
29A
330
B4
100
AcDbEntity
  8
0
  6
Continuous
 62
     7
100
AcDbLine
 10
1101.999999997508
 20
-1629.9999999996
 30
0.0
 11
1098.520869625955
 21
-1629.9999999996
 31
0.0
  0
LINE
  5
29B
330
B4
100
AcDbEntity
  8
0
  6
Continuous
 62
     7
100
AcDbLine
 10
1098.520869625955
 20
-1629.9999999996
 30
0.0
 11
1098.499999997506
 21
-1629.9999999996
 31
0.0
  0
LINE
  5
29C
330
B4
100
AcDbEntity
  8
0
  6
Continuous
 62
     7
100
AcDbLine
 10
1098.499999997506
 20
-1629.9999999996
 30
0.0
 11
1094.499999997506
 21
-1629.9999999996
 31
0.0
  0
LINE
  5
29D
330
B4
100
AcDbEntity
  8
0
  6
Continuous
 62
     7
100
AcDbLine
 10
1094.499999997506
 20
-1629.9999999996
 30
0.0
 11
1086.799999997508
 21
-1629.9999999996
 31
0.0
  0
LINE
  5
29E
330
B4
100
AcDbEntity
  8
0
  6
Continuous
 62
     7
100
AcDbLine
 10
1104.499999997508
 20
-1629.9999999996
 30
0.0
 11
1108.499999997508
 21
-1629.9999999996
 31
0.0
  0
ENDBLK
  5
B6
330
B4
100
AcDbEntity
  8
0
100
AcDbBlockEnd
  0
BLOCK
  5
B8
330
B7
100
AcDbEntity
  8
0
100
AcDbBlockBegin
  2
390997584__17
 70
     0
 10
1078.499999997508
 20
-1634.4999999996
 30
0.0
  3
390997584__17
  1

  0
LINE
  5
29F
330
B7
100
AcDbEntity
  8
0
  6
Continuous
 62
     7
100
AcDbLine
 10
1078.499999997508
 20
-1633.9999999996
 30
0.0
 11
1078.499999997508
 21
-1574.4999999996
 31
0.0
  0
LINE
  5
2A0
330
B7
100
AcDbEntity
  8
0
  6
Continuous
 62
     7
100
AcDbLine
 10
1078.499999997508
 20
-1574.4999999996
 30
0.0
 11
1078.999999997508
 21
-1574.4999999996
 31
0.0
  0
LINE
  5
2A1
330
B7
100
AcDbEntity
  8
0
  6
Continuous
 62
     7
100
AcDbLine
 10
1104.499999997508
 20
-1633.9999999996
 30
0.0
 11
1082.499999997508
 21
-1633.9999999996
 31
0.0
  0
LINE
  5
2A2
330
B7
100
AcDbEntity
  8
0
  6
Continuous
 62
     7
100
AcDbLine
 10
1078.999999997508
 20
-1574.4999999996
 30
0.0
 11
1078.999999997508
 21
-1633.9999999996
 31
0.0
  0
LINE
  5
2A3
330
B7
100
AcDbEntity
  8
0
  6
Continuous
 62
     7
100
AcDbLine
 10
1108.499999997508
 20
-1633.9999999996
 30
0.0
 11
1138.499999997508
 21
-1633.9999999996
 31
0.0
  0
LINE
  5
2A4
330
B7
100
AcDbEntity
  8
0
  6
Continuous
 62
     7
100
AcDbLine
 10
1078.999999997508
 20
-1633.9999999996
 30
0.0
 11
1082.499999997508
 21
-1633.9999999996
 31
0.0
  0
LINE
  5
2A5
330
B7
100
AcDbEntity
  8
0
  6
Continuous
 62
     7
100
AcDbLine
 10
1138.499999997508
 20
-1633.9999999996
 30
0.0
 11
1138.499999997508
 21
-1634.4999999996
 31
0.0
  0
LINE
  5
2A6
330
B7
100
AcDbEntity
  8
0
  6
Continuous
 62
     7
100
AcDbLine
 10
1138.499999997508
 20
-1634.4999999996
 30
0.0
 11
1078.999999997508
 21
-1634.4999999996
 31
0.0
  0
LINE
  5
2A7
330
B7
100
AcDbEntity
  8
0
  6
Continuous
 62
     7
100
AcDbLine
 10
1108.499999997508
 20
-1633.9999999996
 30
0.0
 11
1104.499999997508
 21
-1633.9999999996
 31
0.0
  0
ARC
  5
2A8
330
B7
100
AcDbEntity
  8
0
  6
Continuous
 62
     7
100
AcDbCircle
 10
1078.999999997508
 20
-1633.9999999996
 30
0.0
 40
0.5
100
AcDbArc
 50
180.0
 51
270.0
  0
ENDBLK
  5
B9
330
B7
100
AcDbEntity
  8
0
100
AcDbBlockEnd
  0
BLOCK
  5
BB
330
BA
100
AcDbEntity
  8
0
100
AcDbBlockBegin
  2
980057503_1__18
 70
     0
 10
1082.499999997508
 20
-1633.9999999996
 30
0.0
  3
980057503_1__18
  1

  0
LINE
  5
2A9
330
BA
100
AcDbEntity
  8
0
  6
Continuous
 62
     7
100
AcDbLine
 10
1086.799999997508
 20
-1629.9999999996
 30
0.0
 11
1086.499999997508
 21
-1629.9999999996
 31
0.0
  0
LINE
  5
2AA
330
BA
100
AcDbEntity
  8
0
  6
Continuous
 62
     7
100
AcDbLine
 10
1086.499999997508
 20
-1629.9999999996
 30
0.0
 11
1082.499999997508
 21
-1629.9999999996
 31
0.0
  0
LINE
  5
2AB
330
BA
100
AcDbEntity
  8
0
  6
Continuous
 62
     7
100
AcDbLine
 10
1082.499999997508
 20
-1633.9999999996
 30
0.0
 11
1082.499999997508
 21
-1629.9999999996
 31
0.0
  0
LINE
  5
2AC
330
BA
100
AcDbEntity
  8
0
  6
Continuous
 62
     7
100
AcDbLine
 10
1104.499999997508
 20
-1633.9999999996
 30
0.0
 11
1082.499999997508
 21
-1633.9999999996
 31
0.0
  0
LINE
  5
2AD
330
BA
100
AcDbEntity
  8
0
  6
Continuous
 62
     7
100
AcDbLine
 10
1108.499999997508
 20
-1633.9999999996
 30
0.0
 11
1138.499999997508
 21
-1633.9999999996
 31
0.0
  0
LINE
  5
2AE
330
BA
100
AcDbEntity
  8
0
  6
Continuous
 62
     7
100
AcDbLine
 10
1138.499999997508
 20
-1633.9999999996
 30
0.0
 11
1188.499999997508
 21
-1633.9999999996
 31
0.0
  0
LINE
  5
2AF
330
BA
100
AcDbEntity
  8
0
  6
Continuous
 62
     7
100
AcDbLine
 10
1198.499999997508
 20
-1633.9999999996
 30
0.0
 11
1275.499999997508
 21
-1633.9999999996
 31
0.0
  0
LINE
  5
2B0
330
BA
100
AcDbEntity
  8
0
  6
Continuous
 62
     3
100
AcDbLine
 10
1198.499999997508
 20
-1629.9999999996
 30
0.0
 11
1198.499999997508
 21
-1633.9999999996
 31
0.0
  0
LINE
  5
2B1
330
BA
100
AcDbEntity
  8
0
  6
Continuous
 62
     7
100
AcDbLine
 10
1213.499999997508
 20
-1629.9999999996
 30
0.0
 11
1212.499999997508
 21
-1629.9999999996
 31
0.0
  0
LINE
  5
2B2
330
BA
100
AcDbEntity
  8
0
  6
Continuous
 62
     7
100
AcDbLine
 10
1212.499999997508
 20
-1629.9999999996
 30
0.0
 11
1198.499999997508
 21
-1629.9999999996
 31
0.0
  0
LINE
  5
2B3
330
BA
100
AcDbEntity
  8
0
  6
Continuous
 62
     7
100
AcDbLine
 10
1275.499999997508
 20
-1629.9999999996
 30
0.0
 11
1271.499999997508
 21
-1629.9999999996
 31
0.0
  0
LINE
  5
2B4
330
BA
100
AcDbEntity
  8
0
  6
Continuous
 62
     7
100
AcDbLine
 10
1271.499999997508
 20
-1629.9999999996
 30
0.0
 11
1213.499999997508
 21
-1629.9999999996
 31
0.0
  0
LINE
  5
2B5
330
BA
100
AcDbEntity
  8
0
  6
Continuous
 62
     7
100
AcDbLine
 10
1108.499999997508
 20
-1629.9999999996
 30
0.0
 11
1170.499999997508
 21
-1629.9999999996
 31
0.0
  0
LINE
  5
2B6
330
BA
100
AcDbEntity
  8
0
  6
Continuous
 62
     7
100
AcDbLine
 10
1275.499999997508
 20
-1633.9999999996
 30
0.0
 11
1275.499999997508
 21
-1629.9999999996
 31
0.0
  0
LINE
  5
2B7
330
BA
100
AcDbEntity
  8
0
  6
Continuous
 62
     7
100
AcDbLine
 10
1188.499999997508
 20
-1633.9999999996
 30
0.0
 11
1188.499999997508
 21
-1629.9999999996
 31
0.0
  0
LINE
  5
2B8
330
BA
100
AcDbEntity
  8
0
  6
Continuous
 62
     7
100
AcDbLine
 10
1175.014509679549
 20
-1629.9999999996
 30
0.0
 11
1179.004069749964
 21
-1629.9999999996
 31
0.0
  0
LINE
  5
2B9
330
BA
100
AcDbEntity
  8
0
  6
Continuous
 62
     7
100
AcDbLine
 10
1179.004069749964
 20
-1629.9999999996
 30
0.0
 11
1184.499999997508
 21
-1629.9999999996
 31
0.0
  0
LINE
  5
2BA
330
BA
100
AcDbEntity
  8
0
  6
Continuous
 62
     7
100
AcDbLine
 10
1170.499999997508
 20
-1629.9999999996
 30
0.0
 11
1175.014509679549
 21
-1629.9999999996
 31
0.0
  0
LINE
  5
2BB
330
BA
100
AcDbEntity
  8
0
  6
Continuous
 62
     7
100
AcDbLine
 10
1184.499999997508
 20
-1629.9999999996
 30
0.0
 11
1188.499999997508
 21
-1629.9999999996
 31
0.0
  0
LINE
  5
2BC
330
BA
100
AcDbEntity
  8
0
  6
Continuous
 62
     7
100
AcDbLine
 10
1188.499999997508
 20
-1629.9999999996
 30
0.0
 11
1198.499999997508
 21
-1629.9999999996
 31
0.0
  0
LINE
  5
2BD
330
BA
100
AcDbEntity
  8
0
  6
Continuous
 62
     7
100
AcDbLine
 10
1198.499999997508
 20
-1633.9999999996
 30
0.0
 11
1188.499999997508
 21
-1633.9999999996
 31
0.0
  0
LINE
  5
2BE
330
BA
100
AcDbEntity
  8
0
  6
Continuous
 62
     7
100
AcDbLine
 10
1104.499999997508
 20
-1629.9999999996
 30
0.0
 11
1101.999999997508
 21
-1629.9999999996
 31
0.0
  0
LINE
  5
2BF
330
BA
100
AcDbEntity
  8
0
  6
Continuous
 62
     7
100
AcDbLine
 10
1101.999999997508
 20
-1629.9999999996
 30
0.0
 11
1098.520869625955
 21
-1629.9999999996
 31
0.0
  0
LINE
  5
2C0
330
BA
100
AcDbEntity
  8
0
  6
Continuous
 62
     7
100
AcDbLine
 10
1098.520869625955
 20
-1629.9999999996
 30
0.0
 11
1098.499999997506
 21
-1629.9999999996
 31
0.0
  0
LINE
  5
2C1
330
BA
100
AcDbEntity
  8
0
  6
Continuous
 62
     7
100
AcDbLine
 10
1098.499999997506
 20
-1629.9999999996
 30
0.0
 11
1094.499999997506
 21
-1629.9999999996
 31
0.0
  0
LINE
  5
2C2
330
BA
100
AcDbEntity
  8
0
  6
Continuous
 62
     7
100
AcDbLine
 10
1094.499999997506
 20
-1629.9999999996
 30
0.0
 11
1086.799999997508
 21
-1629.9999999996
 31
0.0
  0
LINE
  5
2C3
330
BA
100
AcDbEntity
  8
0
  6
Continuous
 62
     7
100
AcDbLine
 10
1104.499999997508
 20
-1629.9999999996
 30
0.0
 11
1108.499999997508
 21
-1629.9999999996
 31
0.0
  0
LINE
  5
2C4
330
BA
100
AcDbEntity
  8
0
  6
Continuous
 62
     7
100
AcDbLine
 10
1108.499999997508
 20
-1633.9999999996
 30
0.0
 11
1104.499999997508
 21
-1633.9999999996
 31
0.0
  0
LINE
  5
2C5
330
BA
100
AcDbEntity
  8
0
  6
Continuous
 62
     7
100
AcDbLine
 10
1108.499999997508
 20
-1633.9999999996
 30
0.0
 11
1108.499999997508
 21
-1629.9999999996
 31
0.0
  0
LINE
  5
2C6
330
BA
100
AcDbEntity
  8
0
  6
Continuous
 62
     3
100
AcDbLine
 10
1104.499999997508
 20
-1633.9999999996
 30
0.0
 11
1104.499999997508
 21
-1629.9999999996
 31
0.0
  0
ENDBLK
  5
BC
330
BA
100
AcDbEntity
  8
0
100
AcDbBlockEnd
  0
BLOCK
  5
BE
330
BD
100
AcDbEntity
  8
0
100
AcDbBlockBegin
  2
368027496__19
 70
     0
 10
1082.499999997508
 20
-1629.9999999996
 30
0.0
  3
368027496__19
  1

  0
LINE
  5
2C7
330
BD
100
AcDbEntity
  8
0
  6
Continuous
 62
     7
100
AcDbLine
 10
1086.49999999751
 20
-1564.9999999996
 30
0.0
 11
1098.784609688335
 21
-1564.9999999996
 31
0.0
  0
LINE
  5
2C8
330
BD
100
AcDbEntity
  8
0
  6
Continuous
 62
     7
100
AcDbLine
 10
1082.499999997508
 20
-1629.9999999996
 30
0.0
 11
1082.499999997508
 21
-1625.6999999996
 31
0.0
  0
LINE
  5
2C9
330
BD
100
AcDbEntity
  8
0
  6
Continuous
 62
     7
100
AcDbLine
 10
1082.499999997508
 20
-1589.9999999996
 30
0.0
 11
1082.499999997508
 21
-1588.4999999996
 31
0.0
  0
LINE
  5
2CA
330
BD
100
AcDbEntity
  8
0
  6
Continuous
 62
     7
100
AcDbLine
 10
1082.499999997508
 20
-1625.6999999996
 30
0.0
 11
1082.499999997508
 21
-1589.9999999996
 31
0.0
  0
LINE
  5
2CB
330
BD
100
AcDbEntity
  8
0
  6
Continuous
 62
     7
100
AcDbLine
 10
1082.499999997508
 20
-1588.4999999996
 30
0.0
 11
1082.499999997508
 21
-1564.9999999996
 31
0.0
  0
LINE
  5
2CC
330
BD
100
AcDbEntity
  8
0
  6
Continuous
 62
     7
100
AcDbLine
 10
1082.499999997508
 20
-1564.9999999996
 30
0.0
 11
1086.49999999751
 21
-1564.9999999996
 31
0.0
  0
LINE
  5
2CD
330
BD
100
AcDbEntity
  8
0
  6
Continuous
 62
     7
100
AcDbLine
 10
1101.999999997508
 20
-1628.4999999996
 30
0.0
 11
1101.999999997508
 21
-1629.9999999996
 31
0.0
  0
LINE
  5
2CE
330
BD
100
AcDbEntity
  8
0
  6
Continuous
 62
     3
100
AcDbLine
 10
1086.49999999751
 20
-1564.9999999996
 30
0.0
 11
1086.499999997508
 21
-1629.9999999996
 31
0.0
  0
LINE
  5
2CF
330
BD
100
AcDbEntity
  8
0
  6
Continuous
 62
     7
100
AcDbLine
 10
1086.799999997508
 20
-1629.9999999996
 30
0.0
 11
1086.499999997508
 21
-1629.9999999996
 31
0.0
  0
LINE
  5
2D0
330
BD
100
AcDbEntity
  8
0
  6
Continuous
 62
     7
100
AcDbLine
 10
1086.499999997508
 20
-1629.9999999996
 30
0.0
 11
1082.499999997508
 21
-1629.9999999996
 31
0.0
  0
LINE
  5
2D1
330
BD
100
AcDbEntity
  8
0
  6
Continuous
 62
     3
100
AcDbLine
 10
1112.499999997509
 20
-1604.9999999996
 30
0.0
 11
1112.499999997509
 21
-1624.9999999996
 31
0.0
  0
LINE
  5
2D2
330
BD
100
AcDbEntity
  8
0
  6
Continuous
 62
     7
100
AcDbLine
 10
1108.499999997509
 20
-1604.9999999996
 30
0.0
 11
1112.499999997509
 21
-1604.9999999996
 31
0.0
  0
LINE
  5
2D3
330
BD
100
AcDbEntity
  8
0
  6
Continuous
 62
     7
100
AcDbLine
 10
1104.499999997509
 20
-1604.9999999996
 30
0.0
 11
1108.499999997509
 21
-1604.9999999996
 31
0.0
  0
LINE
  5
2D4
330
BD
100
AcDbEntity
  8
0
  6
Continuous
 62
     7
100
AcDbLine
 10
1112.499999997509
 20
-1604.9999999996
 30
0.0
 11
1168.499999997508
 21
-1604.9999999996
 31
0.0
  0
LINE
  5
2D5
330
BD
100
AcDbEntity
  8
0
  6
Continuous
 62
     7
100
AcDbLine
 10
1190.499999997508
 20
-1593.9999999996
 30
0.0
 11
1198.499999997508
 21
-1593.9999999996
 31
0.0
  0
LINE
  5
2D6
330
BD
100
AcDbEntity
  8
0
  6
Continuous
 62
     7
100
AcDbLine
 10
1200.499999997508
 20
-1593.9999999996
 30
0.0
 11
1200.499999997508
 21
-1564.9999999996
 31
0.0
  0
LINE
  5
2D7
330
BD
100
AcDbEntity
  8
0
  6
Continuous
 62
     7
100
AcDbLine
 10
1190.499999997508
 20
-1564.9999999996
 30
0.0
 11
1200.499999997508
 21
-1564.9999999996
 31
0.0
  0
LINE
  5
2D8
330
BD
100
AcDbEntity
  8
0
  6
Continuous
 62
     3
100
AcDbLine
 10
1198.499999997508
 20
-1593.9999999996
 30
0.0
 11
1198.499999997508
 21
-1629.9999999996
 31
0.0
  0
LINE
  5
2D9
330
BD
100
AcDbEntity
  8
0
  6
Continuous
 62
     3
100
AcDbLine
 10
1271.499999997508
 20
-1629.9999999996
 30
0.0
 11
1271.499999997508
 21
-1593.9999999996
 31
0.0
  0
LINE
  5
2DA
330
BD
100
AcDbEntity
  8
0
  6
Continuous
 62
     7
100
AcDbLine
 10
1198.499999997508
 20
-1593.9999999996
 30
0.0
 11
1200.499999997508
 21
-1593.9999999996
 31
0.0
  0
LINE
  5
2DB
330
BD
100
AcDbEntity
  8
0
  6
Continuous
 62
     7
100
AcDbLine
 10
1271.499999997508
 20
-1593.9999999996
 30
0.0
 11
1275.499999997508
 21
-1593.9999999996
 31
0.0
  0
LINE
  5
2DC
330
BD
100
AcDbEntity
  8
0
  6
Continuous
 62
     7
100
AcDbLine
 10
1213.499999997508
 20
-1629.9999999996
 30
0.0
 11
1212.499999997508
 21
-1629.9999999996
 31
0.0
  0
LINE
  5
2DD
330
BD
100
AcDbEntity
  8
0
  6
Continuous
 62
     7
100
AcDbLine
 10
1212.499999997508
 20
-1629.9999999996
 30
0.0
 11
1198.499999997508
 21
-1629.9999999996
 31
0.0
  0
LINE
  5
2DE
330
BD
100
AcDbEntity
  8
0
  6
Continuous
 62
     7
100
AcDbLine
 10
1275.499999997508
 20
-1629.9999999996
 30
0.0
 11
1271.499999997508
 21
-1629.9999999996
 31
0.0
  0
LINE
  5
2DF
330
BD
100
AcDbEntity
  8
0
  6
Continuous
 62
     7
100
AcDbLine
 10
1271.499999997508
 20
-1629.9999999996
 30
0.0
 11
1213.499999997508
 21
-1629.9999999996
 31
0.0
  0
LINE
  5
2E0
330
BD
100
AcDbEntity
  8
0
  6
Continuous
 62
     7
100
AcDbLine
 10
1200.499999997508
 20
-1593.9999999996
 30
0.0
 11
1271.499999997508
 21
-1593.9999999996
 31
0.0
  0
LINE
  5
2E1
330
BD
100
AcDbEntity
  8
0
  6
Continuous
 62
     7
100
AcDbLine
 10
1170.499999997508
 20
-1624.9999999996
 30
0.0
 11
1112.499999997509
 21
-1624.9999999996
 31
0.0
  0
LINE
  5
2E2
330
BD
100
AcDbEntity
  8
0
  6
Continuous
 62
     7
100
AcDbLine
 10
1112.499999997509
 20
-1624.9999999996
 30
0.0
 11
1108.499999997509
 21
-1624.9999999996
 31
0.0
  0
LINE
  5
2E3
330
BD
100
AcDbEntity
  8
0
  6
Continuous
 62
     7
100
AcDbLine
 10
1108.499999997509
 20
-1624.9999999996
 30
0.0
 11
1104.499999997509
 21
-1624.9999999996
 31
0.0
  0
LINE
  5
2E4
330
BD
100
AcDbEntity
  8
0
  6
Continuous
 62
     7
100
AcDbLine
 10
1275.499999997508
 20
-1593.9999999996
 30
0.0
 11
1275.499999997508
 21
-1629.9999999996
 31
0.0
  0
LINE
  5
2E5
330
BD
100
AcDbEntity
  8
0
  6
Continuous
 62
     7
100
AcDbLine
 10
1170.499999997508
 20
-1607.9999999996
 30
0.0
 11
1170.499999997508
 21
-1593.9999999996
 31
0.0
  0
LINE
  5
2E6
330
BD
100
AcDbEntity
  8
0
  6
Continuous
 62
     7
100
AcDbLine
 10
1184.499999997508
 20
-1593.9999999996
 30
0.0
 11
1188.499999997508
 21
-1593.9999999996
 31
0.0
  0
LINE
  5
2E7
330
BD
100
AcDbEntity
  8
0
  6
Continuous
 62
     7
100
AcDbLine
 10
1188.499999997508
 20
-1629.9999999996
 30
0.0
 11
1188.499999997508
 21
-1593.9999999996
 31
0.0
  0
LINE
  5
2E8
330
BD
100
AcDbEntity
  8
0
  6
Continuous
 62
     7
100
AcDbLine
 10
1170.499999997508
 20
-1593.9999999996
 30
0.0
 11
1184.499999997508
 21
-1593.9999999996
 31
0.0
  0
LINE
  5
2E9
330
BD
100
AcDbEntity
  8
0
  6
Continuous
 62
     7
100
AcDbLine
 10
1170.499999997508
 20
-1593.9999999996
 30
0.0
 11
1170.499999997508
 21
-1564.9999999996
 31
0.0
  0
LINE
  5
2EA
330
BD
100
AcDbEntity
  8
0
  6
Continuous
 62
     3
100
AcDbLine
 10
1190.499999997508
 20
-1593.9999999996
 30
0.0
 11
1190.499999997508
 21
-1564.9999999996
 31
0.0
  0
LINE
  5
2EB
330
BD
100
AcDbEntity
  8
0
  6
Continuous
 62
     7
100
AcDbLine
 10
1170.499999997508
 20
-1564.9999999996
 30
0.0
 11
1190.499999997508
 21
-1564.9999999996
 31
0.0
  0
LINE
  5
2EC
330
BD
100
AcDbEntity
  8
0
  6
Continuous
 62
     7
100
AcDbLine
 10
1188.499999997508
 20
-1593.9999999996
 30
0.0
 11
1190.499999997508
 21
-1593.9999999996
 31
0.0
  0
LINE
  5
2ED
330
BD
100
AcDbEntity
  8
0
  6
Continuous
 62
     3
100
AcDbLine
 10
1184.499999997508
 20
-1629.9999999996
 30
0.0
 11
1184.499999997508
 21
-1593.9999999996
 31
0.0
  0
LINE
  5
2EE
330
BD
100
AcDbEntity
  8
0
  6
Continuous
 62
     7
100
AcDbLine
 10
1170.499999997508
 20
-1629.9999999996
 30
0.0
 11
1170.499999997508
 21
-1628.4999999996
 31
0.0
  0
LINE
  5
2EF
330
BD
100
AcDbEntity
  8
0
  6
Continuous
 62
     7
100
AcDbLine
 10
1170.499999997508
 20
-1628.4999999996
 30
0.0
 11
1170.499999997508
 21
-1624.9999999996
 31
0.0
  0
LINE
  5
2F0
330
BD
100
AcDbEntity
  8
0
  6
Continuous
 62
     7
100
AcDbLine
 10
1175.014509679549
 20
-1629.9999999996
 30
0.0
 11
1179.004069749964
 21
-1629.9999999996
 31
0.0
  0
LINE
  5
2F1
330
BD
100
AcDbEntity
  8
0
  6
Continuous
 62
     7
100
AcDbLine
 10
1179.004069749964
 20
-1629.9999999996
 30
0.0
 11
1184.499999997508
 21
-1629.9999999996
 31
0.0
  0
LINE
  5
2F2
330
BD
100
AcDbEntity
  8
0
  6
Continuous
 62
     7
100
AcDbLine
 10
1170.499999997508
 20
-1629.9999999996
 30
0.0
 11
1175.014509679549
 21
-1629.9999999996
 31
0.0
  0
LINE
  5
2F3
330
BD
100
AcDbEntity
  8
0
  6
Continuous
 62
     7
100
AcDbLine
 10
1184.499999997508
 20
-1629.9999999996
 30
0.0
 11
1188.499999997508
 21
-1629.9999999996
 31
0.0
  0
LINE
  5
2F4
330
BD
100
AcDbEntity
  8
0
  6
Continuous
 62
     7
100
AcDbLine
 10
1168.499999997508
 20
-1607.9999999996
 30
0.0
 11
1168.499999997508
 21
-1604.9999999996
 31
0.0
  0
LINE
  5
2F5
330
BD
100
AcDbEntity
  8
0
  6
Continuous
 62
     7
100
AcDbLine
 10
1170.499999997508
 20
-1607.9999999996
 30
0.0
 11
1168.499999997508
 21
-1607.9999999996
 31
0.0
  0
LINE
  5
2F6
330
BD
100
AcDbEntity
  8
0
  6
Continuous
 62
     7
100
AcDbLine
 10
1188.499999997508
 20
-1629.9999999996
 30
0.0
 11
1198.499999997508
 21
-1629.9999999996
 31
0.0
  0
LINE
  5
2F7
330
BD
100
AcDbEntity
  8
0
  6
Continuous
 62
     7
100
AcDbLine
 10
1101.999999997508
 20
-1624.9999999996
 30
0.0
 11
1104.499999997509
 21
-1624.9999999996
 31
0.0
  0
LINE
  5
2F8
330
BD
100
AcDbEntity
  8
0
  6
Continuous
 62
     7
100
AcDbLine
 10
1098.784609688335
 20
-1564.9999999996
 30
0.0
 11
1101.999999997508
 21
-1564.9999999996
 31
0.0
  0
LINE
  5
2F9
330
BD
100
AcDbEntity
  8
0
  6
Continuous
 62
     3
100
AcDbLine
 10
1104.499999997509
 20
-1624.9999999996
 30
0.0
 11
1104.499999997509
 21
-1604.9999999996
 31
0.0
  0
LINE
  5
2FA
330
BD
100
AcDbEntity
  8
0
  6
Continuous
 62
     7
100
AcDbLine
 10
1101.999999997508
 20
-1607.9999999996
 30
0.0
 11
1103.999999997508
 21
-1607.9999999996
 31
0.0
  0
LINE
  5
2FB
330
BD
100
AcDbEntity
  8
0
  6
Continuous
 62
     7
100
AcDbLine
 10
1098.784609688335
 20
-1607.9999999996
 30
0.0
 11
1101.999999997508
 21
-1607.9999999996
 31
0.0
  0
LINE
  5
2FC
330
BD
100
AcDbEntity
  8
0
  6
Continuous
 62
     7
100
AcDbLine
 10
1103.999999997508
 20
-1607.9999999996
 30
0.0
 11
1103.999999997508
 21
-1604.9999999996
 31
0.0
  0
LINE
  5
2FD
330
BD
100
AcDbEntity
  8
0
  6
Continuous
 62
     7
100
AcDbLine
 10
1104.499999997509
 20
-1604.9999999996
 30
0.0
 11
1103.999999997508
 21
-1604.9999999996
 31
0.0
  0
LINE
  5
2FE
330
BD
100
AcDbEntity
  8
0
  6
Continuous
 62
     7
100
AcDbLine
 10
1101.999999997508
 20
-1629.9999999996
 30
0.0
 11
1098.520869625955
 21
-1629.9999999996
 31
0.0
  0
LINE
  5
2FF
330
BD
100
AcDbEntity
  8
0
  6
Continuous
 62
     7
100
AcDbLine
 10
1098.520869625955
 20
-1629.9999999996
 30
0.0
 11
1098.499999997506
 21
-1629.9999999996
 31
0.0
  0
LINE
  5
300
330
BD
100
AcDbEntity
  8
0
  6
Continuous
 62
     7
100
AcDbLine
 10
1098.499999997506
 20
-1629.9999999996
 30
0.0
 11
1094.499999997506
 21
-1629.9999999996
 31
0.0
  0
LINE
  5
301
330
BD
100
AcDbEntity
  8
0
  6
Continuous
 62
     7
100
AcDbLine
 10
1094.499999997506
 20
-1629.9999999996
 30
0.0
 11
1086.799999997508
 21
-1629.9999999996
 31
0.0
  0
LINE
  5
302
330
BD
100
AcDbEntity
  8
0
  6
Continuous
 62
     7
100
AcDbLine
 10
1101.999999997508
 20
-1624.9999999996
 30
0.0
 11
1101.999999997508
 21
-1628.4999999996
 31
0.0
  0
LINE
  5
303
330
BD
100
AcDbEntity
  8
0
  6
Continuous
 62
     7
100
AcDbLine
 10
1101.999999997508
 20
-1564.9999999996
 30
0.0
 11
1101.999999997508
 21
-1607.9999999996
 31
0.0
  0
LINE
  5
304
330
BD
100
AcDbEntity
  8
0
  6
Continuous
 62
     7
100
AcDbLine
 10
1098.784609688335
 20
-1607.9999999996
 30
0.0
 11
1098.784609688335
 21
-1564.9999999996
 31
0.0
  0
LINE
  5
305
330
BD
100
AcDbEntity
  8
0
  6
Continuous
 62
     7
100
AcDbLine
 10
1108.499999997509
 20
-1604.9999999996
 30
0.0
 11
1108.499999997509
 21
-1624.9999999996
 31
0.0
  0
ENDBLK
  5
BF
330
BD
100
AcDbEntity
  8
0
100
AcDbBlockEnd
  0
BLOCK
  5
C6
330
C0
100
AcDbEntity
  8
0
100
AcDbBlockBegin
  2
539588H_2018-10-05__20
 70
     0
 10
1078.499999997508
 20
-1634.4999999996
 30
0.0
  3
539588H_2018-10-05__20
  1

  0
INSERT
  5
C1
330
C0
100
AcDbEntity
  8
0
100
AcDbBlockReference
  2
976007501_1__15
 10
1078.999999997508
 20
-1633.9999999996
 30
0.0
  0
INSERT
  5
C2
330
C0
100
AcDbEntity
  8
0
100
AcDbBlockReference
  2
995907500_3__16
 10
1082.499999997508
 20
-1629.9999999996
 30
0.0
  0
INSERT
  5
C3
330
C0
100
AcDbEntity
  8
0
100
AcDbBlockReference
  2
390997584__17
 10
1078.499999997508
 20
-1634.4999999996
 30
0.0
  0
INSERT
  5
C4
330
C0
100
AcDbEntity
  8
0
100
AcDbBlockReference
  2
980057503_1__18
 10
1082.499999997508
 20
-1633.9999999996
 30
0.0
  0
INSERT
  5
C5
330
C0
100
AcDbEntity
  8
0
100
AcDbBlockReference
  2
368027496__19
 10
1082.499999997508
 20
-1629.9999999996
 30
0.0
  0
ENDBLK
  5
C7
330
C0
100
AcDbEntity
  8
0
100
AcDbBlockEnd
  0
BLOCK
  5
CA
330
C8
100
AcDbEntity
  8
0
100
AcDbBlockBegin
  2
HL6600_2-WEB-Zeichnung__21
 70
     0
 10
1078.499999997508
 20
-1634.4999999996
 30
0.0
  3
HL6600_2-WEB-Zeichnung__21
  1

  0
INSERT
  5
C9
330
C8
100
AcDbEntity
  8
0
100
AcDbBlockReference
  2
539588H_2018-10-05__20
 10
1078.499999997508
 20
-1634.4999999996
 30
0.0
  0
ENDBLK
  5
CB
330
C8
100
AcDbEntity
  8
0
100
AcDbBlockEnd
  0
BLOCK
  5
CE
330
CC
100
AcDbEntity
  8
0
100
AcDbBlockBegin
  2
SA_Links1
 70
     0
 10
1176.999999998754
 20
-1586.9999999998
 30
0.0
  3
SA_Links1
  1

  0
INSERT
  5
CD
330
CC
100
AcDbEntity
  8
0
100
AcDbBlockReference
  2
HL6600_2-WEB-Zeichnung__21
 10
1078.499999997508
 20
-1634.4999999996
 30
0.0
  0
MTEXT
  5
306
330
CC
100
AcDbEntity
  8
1
 62
     1
100
AcDbMText
 10
1176.999999998754
 20
-1639.4999999998
 30
0.0
 40
3.5
 41
0.0
 71
     2
 72
     1
  1
 
  7
CONVERTER_11
 73
     1
 44
1.32052821128451
  0
DIMENSION
  5
313
330
CC
100
AcDbEntity
  8
1
100
AcDbDimension
  2
*D42
 10
1143.133713350471
 20
-1604.9999999996
 30
0.0
 11
1115.860081509675
 21
-1511.48278828565
 31
0.0
 70
    32
  1
<>
 71
     5
 42
-1.0
 53
90.0
  3
ME10_DIM_13
100
AcDbAlignedDimension
 13
1138.499999997508
 23
-1633.9999999996
 33
0.0
 14
1168.499999997508
 24
-1604.9999999996
 34
0.0
 50
90.0
100
AcDbRotatedDimension
  0
ENDBLK
  5
CF
330
CC
100
AcDbEntity
  8
0
100
AcDbBlockEnd
  0
BLOCK
  5
D1
330
D0
100
AcDbEntity
  8
0
100
AcDbBlockBegin
  2
995907500_2__22
 70
     0
 10
808.999999999
 20
-1629.9999999996
 30
0.0
  3
995907500_2__22
  1

  0
LINE
  5
314
330
D0
100
AcDbEntity
  8
0
  6
Continuous
 62
     7
100
AcDbLine
 10
828.999999999
 20
-1629.9999999996
 30
0.0
 11
808.999999999
 21
-1629.9999999996
 31
0.0
  0
ENDBLK
  5
D2
330
D0
100
AcDbEntity
  8
0
100
AcDbBlockEnd
  0
BLOCK
  5
D4
330
D3
100
AcDbEntity
  8
0
100
AcDbBlockBegin
  2
995907500__23
 70
     0
 10
477.999999999
 20
-1629.9999999996
 30
0.0
  3
995907500__23
  1

  0
LINE
  5
315
330
D3
100
AcDbEntity
  8
0
  6
Continuous
 62
     7
100
AcDbLine
 10
497.999999999
 20
-1629.9999999996
 30
0.0
 11
477.999999999
 21
-1629.9999999996
 31
0.0
  0
ENDBLK
  5
D5
330
D3
100
AcDbEntity
  8
0
100
AcDbBlockEnd
  0
BLOCK
  5
D7
330
D6
100
AcDbEntity
  8
0
100
AcDbBlockBegin
  2
390997584_1__24
 70
     0
 10
460.9999999989998
 20
-1634.4999999996
 30
0.0
  3
390997584_1__24
  1

  0
LINE
  5
316
330
D6
100
AcDbEntity
  8
0
  6
Continuous
 62
     7
100
AcDbLine
 10
845.999999999
 20
-1633.9999999996
 30
0.0
 11
845.999999999
 21
-1634.4999999996
 31
0.0
  0
LINE
  5
317
330
D6
100
AcDbEntity
  8
0
  6
Continuous
 62
     7
100
AcDbLine
 10
845.999999999
 20
-1633.9999999996
 30
0.0
 11
838.499999999
 21
-1633.9999999996
 31
0.0
  0
LINE
  5
318
330
D6
100
AcDbEntity
  8
0
  6
Continuous
 62
     7
100
AcDbLine
 10
838.499999999
 20
-1633.9999999996
 30
0.0
 11
468.499999999
 21
-1633.9999999996
 31
0.0
  0
LINE
  5
319
330
D6
100
AcDbEntity
  8
0
  6
Continuous
 62
     7
100
AcDbLine
 10
845.999999999
 20
-1634.4999999996
 30
0.0
 11
460.9999999989998
 21
-1634.4999999996
 31
0.0
  0
LINE
  5
31A
330
D6
100
AcDbEntity
  8
0
  6
Continuous
 62
     7
100
AcDbLine
 10
460.9999999989998
 20
-1633.9999999996
 30
0.0
 11
460.9999999989998
 21
-1634.4999999996
 31
0.0
  0
LINE
  5
31B
330
D6
100
AcDbEntity
  8
0
  6
Continuous
 62
     7
100
AcDbLine
 10
468.499999999
 20
-1633.9999999996
 30
0.0
 11
460.9999999989998
 21
-1633.9999999996
 31
0.0
  0
ENDBLK
  5
D8
330
D6
100
AcDbEntity
  8
0
100
AcDbBlockEnd
  0
BLOCK
  5
DA
330
D9
100
AcDbEntity
  8
0
100
AcDbBlockBegin
  2
980057503__25
 70
     0
 10
428.499999999
 20
-1633.9999999996
 30
0.0
  3
980057503__25
  1

  0
LINE
  5
31C
330
D9
100
AcDbEntity
  8
0
  6
Continuous
 62
     7
100
AcDbLine
 10
874.499999999
 20
-1629.9999999996
 30
0.0
 11
848.499999999
 21
-1629.9999999996
 31
0.0
  0
LINE
  5
31D
330
D9
100
AcDbEntity
  8
0
  6
Continuous
 62
     7
100
AcDbLine
 10
848.499999999
 20
-1629.9999999996
 30
0.0
 11
846.499999999
 21
-1629.9999999996
 31
0.0
  0
LINE
  5
31E
330
D9
100
AcDbEntity
  8
0
  6
Continuous
 62
     7
100
AcDbLine
 10
846.499999999
 20
-1629.9999999996
 30
0.0
 11
838.499999999
 21
-1629.9999999996
 31
0.0
  0
LINE
  5
31F
330
D9
100
AcDbEntity
  8
0
  6
Continuous
 62
     7
100
AcDbLine
 10
834.499999999
 20
-1629.9999999996
 30
0.0
 11
838.499999999
 21
-1629.9999999996
 31
0.0
  0
LINE
  5
320
330
D9
100
AcDbEntity
  8
0
  6
Continuous
 62
     7
100
AcDbLine
 10
834.499999999
 20
-1629.9999999996
 30
0.0
 11
829.499999999
 21
-1629.9999999996
 31
0.0
  0
LINE
  5
321
330
D9
100
AcDbEntity
  8
0
  6
Continuous
 62
     7
100
AcDbLine
 10
782.499999999
 20
-1629.9999999996
 30
0.0
 11
778.499999999
 21
-1629.9999999996
 31
0.0
  0
LINE
  5
322
330
D9
100
AcDbEntity
  8
0
  6
Continuous
 62
     7
100
AcDbLine
 10
807.999999999
 20
-1629.9999999996
 30
0.0
 11
782.499999999
 21
-1629.9999999996
 31
0.0
  0
LINE
  5
323
330
D9
100
AcDbEntity
  8
0
  6
Continuous
 62
     7
100
AcDbLine
 10
778.499999999
 20
-1629.9999999996
 30
0.0
 11
689.4999999990008
 21
-1629.9999999996
 31
0.0
  0
LINE
  5
324
330
D9
100
AcDbEntity
  8
0
  6
Continuous
 62
     7
100
AcDbLine
 10
808.499999999
 20
-1629.9999999996
 30
0.0
 11
807.999999999
 21
-1629.9999999996
 31
0.0
  0
LINE
  5
325
330
D9
100
AcDbEntity
  8
0
  6
Continuous
 62
     7
100
AcDbLine
 10
808.999999999
 20
-1629.9999999996
 30
0.0
 11
808.499999999
 21
-1629.9999999996
 31
0.0
  0
LINE
  5
326
330
D9
100
AcDbEntity
  8
0
  6
Continuous
 62
     7
100
AcDbLine
 10
848.499999999
 20
-1633.9999999996
 30
0.0
 11
845.999999999
 21
-1633.9999999996
 31
0.0
  0
LINE
  5
327
330
D9
100
AcDbEntity
  8
0
  6
Continuous
 62
     7
100
AcDbLine
 10
878.499999999
 20
-1633.9999999996
 30
0.0
 11
878.499999999
 21
-1629.9999999996
 31
0.0
  0
LINE
  5
328
330
D9
100
AcDbEntity
  8
0
  6
Continuous
 62
     7
100
AcDbLine
 10
848.499999999
 20
-1633.9999999996
 30
0.0
 11
878.499999999
 21
-1633.9999999996
 31
0.0
  0
LINE
  5
329
330
D9
100
AcDbEntity
  8
0
  6
Continuous
 62
     3
100
AcDbLine
 10
848.499999999
 20
-1629.9999999996
 30
0.0
 11
848.499999999
 21
-1633.9999999996
 31
0.0
  0
LINE
  5
32A
330
D9
100
AcDbEntity
  8
0
  6
Continuous
 62
     7
100
AcDbLine
 10
838.499999999
 20
-1633.9999999996
 30
0.0
 11
838.499999999
 21
-1629.9999999996
 31
0.0
  0
LINE
  5
32B
330
D9
100
AcDbEntity
  8
0
  6
Continuous
 62
     7
100
AcDbLine
 10
845.999999999
 20
-1633.9999999996
 30
0.0
 11
838.499999999
 21
-1633.9999999996
 31
0.0
  0
LINE
  5
32C
330
D9
100
AcDbEntity
  8
0
  6
Continuous
 62
     7
100
AcDbLine
 10
838.499999999
 20
-1633.9999999996
 30
0.0
 11
468.499999999
 21
-1633.9999999996
 31
0.0
  0
LINE
  5
32D
330
D9
100
AcDbEntity
  8
0
  6
Continuous
 62
     7
100
AcDbLine
 10
878.499999999
 20
-1629.9999999996
 30
0.0
 11
874.499999999
 21
-1629.9999999996
 31
0.0
  0
LINE
  5
32E
330
D9
100
AcDbEntity
  8
0
  6
Continuous
 62
     7
100
AcDbLine
 10
829.499999999
 20
-1629.9999999996
 30
0.0
 11
828.999999999
 21
-1629.9999999996
 31
0.0
  0
LINE
  5
32F
330
D9
100
AcDbEntity
  8
0
  6
Continuous
 62
     7
100
AcDbLine
 10
828.999999999
 20
-1629.9999999996
 30
0.0
 11
808.999999999
 21
-1629.9999999996
 31
0.0
  0
LINE
  5
330
330
D9
100
AcDbEntity
  8
0
  6
Continuous
 62
     7
100
AcDbLine
 10
498.499999999
 20
-1629.9999999996
 30
0.0
 11
497.999999999
 21
-1629.9999999996
 31
0.0
  0
LINE
  5
331
330
D9
100
AcDbEntity
  8
0
  6
Continuous
 62
     7
100
AcDbLine
 10
498.9999999989999
 20
-1629.9999999996
 30
0.0
 11
498.499999999
 21
-1629.9999999996
 31
0.0
  0
LINE
  5
332
330
D9
100
AcDbEntity
  8
0
  6
Continuous
 62
     7
100
AcDbLine
 10
477.999999999
 20
-1629.9999999996
 30
0.0
 11
477.499999999
 21
-1629.9999999996
 31
0.0
  0
LINE
  5
333
330
D9
100
AcDbEntity
  8
0
  6
Continuous
 62
     7
100
AcDbLine
 10
497.999999999
 20
-1629.9999999996
 30
0.0
 11
477.999999999
 21
-1629.9999999996
 31
0.0
  0
LINE
  5
334
330
D9
100
AcDbEntity
  8
0
  6
Continuous
 62
     7
100
AcDbLine
 10
617.4999999989993
 20
-1629.9999999996
 30
0.0
 11
689.4999999990008
 21
-1629.9999999996
 31
0.0
  0
LINE
  5
335
330
D9
100
AcDbEntity
  8
0
  6
Continuous
 62
     7
100
AcDbLine
 10
617.4999999989993
 20
-1629.9999999996
 30
0.0
 11
528.4999999990001
 21
-1629.9999999996
 31
0.0
  0
LINE
  5
336
330
D9
100
AcDbEntity
  8
0
  6
Continuous
 62
     7
100
AcDbLine
 10
528.4999999990001
 20
-1629.9999999996
 30
0.0
 11
524.4999999990001
 21
-1629.9999999996
 31
0.0
  0
LINE
  5
337
330
D9
100
AcDbEntity
  8
0
  6
Continuous
 62
     7
100
AcDbLine
 10
524.4999999990001
 20
-1629.9999999996
 30
0.0
 11
498.9999999989999
 21
-1629.9999999996
 31
0.0
  0
LINE
  5
338
330
D9
100
AcDbEntity
  8
0
  6
Continuous
 62
     7
100
AcDbLine
 10
472.499999999
 20
-1629.9999999996
 30
0.0
 11
477.499999999
 21
-1629.9999999996
 31
0.0
  0
LINE
  5
339
330
D9
100
AcDbEntity
  8
0
  6
Continuous
 62
     7
100
AcDbLine
 10
458.499999999
 20
-1629.9999999996
 30
0.0
 11
432.499999999
 21
-1629.9999999996
 31
0.0
  0
LINE
  5
33A
330
D9
100
AcDbEntity
  8
0
  6
Continuous
 62
     7
100
AcDbLine
 10
460.499999999
 20
-1629.9999999996
 30
0.0
 11
458.499999999
 21
-1629.9999999996
 31
0.0
  0
LINE
  5
33B
330
D9
100
AcDbEntity
  8
0
  6
Continuous
 62
     7
100
AcDbLine
 10
460.9999999989998
 20
-1633.9999999996
 30
0.0
 11
458.499999999
 21
-1633.9999999996
 31
0.0
  0
LINE
  5
33C
330
D9
100
AcDbEntity
  8
0
  6
Continuous
 62
     7
100
AcDbLine
 10
468.499999999
 20
-1633.9999999996
 30
0.0
 11
460.9999999989998
 21
-1633.9999999996
 31
0.0
  0
LINE
  5
33D
330
D9
100
AcDbEntity
  8
0
  6
Continuous
 62
     3
100
AcDbLine
 10
458.499999999
 20
-1633.9999999996
 30
0.0
 11
458.499999999
 21
-1629.9999999996
 31
0.0
  0
LINE
  5
33E
330
D9
100
AcDbEntity
  8
0
  6
Continuous
 62
     7
100
AcDbLine
 10
468.499999999
 20
-1629.9999999996
 30
0.0
 11
472.499999999
 21
-1629.9999999996
 31
0.0
  0
LINE
  5
33F
330
D9
100
AcDbEntity
  8
0
  6
Continuous
 62
     7
100
AcDbLine
 10
468.499999999
 20
-1633.9999999996
 30
0.0
 11
468.499999999
 21
-1629.9999999996
 31
0.0
  0
LINE
  5
340
330
D9
100
AcDbEntity
  8
0
  6
Continuous
 62
     7
100
AcDbLine
 10
460.499999999
 20
-1629.9999999996
 30
0.0
 11
468.499999999
 21
-1629.9999999996
 31
0.0
  0
LINE
  5
341
330
D9
100
AcDbEntity
  8
0
  6
Continuous
 62
     7
100
AcDbLine
 10
428.499999999
 20
-1633.9999999996
 30
0.0
 11
428.499999999
 21
-1629.9999999996
 31
0.0
  0
LINE
  5
342
330
D9
100
AcDbEntity
  8
0
  6
Continuous
 62
     7
100
AcDbLine
 10
428.499999999
 20
-1633.9999999996
 30
0.0
 11
458.499999999
 21
-1633.9999999996
 31
0.0
  0
LINE
  5
343
330
D9
100
AcDbEntity
  8
0
  6
Continuous
 62
     7
100
AcDbLine
 10
432.499999999
 20
-1629.9999999996
 30
0.0
 11
428.499999999
 21
-1629.9999999996
 31
0.0
  0
ENDBLK
  5
DB
330
D9
100
AcDbEntity
  8
0
100
AcDbBlockEnd
  0
BLOCK
  5
DD
330
DC
100
AcDbEntity
  8
0
100
AcDbBlockBegin
  2
995907500_1__26
 70
     0
 10
358.999999999
 20
-1629.9999999996
 30
0.0
  3
995907500_1__26
  1

  0
LINE
  5
344
330
DC
100
AcDbEntity
  8
0
  6
Continuous
 62
     7
100
AcDbLine
 10
358.999999999
 20
-1629.9999999996
 30
0.0
 11
378.999999999
 21
-1629.9999999996
 31
0.0
  0
ENDBLK
  5
DE
330
DC
100
AcDbEntity
  8
0
100
AcDbBlockEnd
  0
BLOCK
  5
E0
330
DF
100
AcDbEntity
  8
0
100
AcDbBlockBegin
  2
995907500_3__27
 70
     0
 10
27.9999999989999
 20
-1629.9999999996
 30
0.0
  3
995907500_3__27
  1

  0
LINE
  5
345
330
DF
100
AcDbEntity
  8
0
  6
Continuous
 62
     7
100
AcDbLine
 10
27.9999999989999
 20
-1629.9999999996
 30
0.0
 11
47.9999999989999
 21
-1629.9999999996
 31
0.0
  0
ENDBLK
  5
E1
330
DF
100
AcDbEntity
  8
0
100
AcDbBlockEnd
  0
BLOCK
  5
E3
330
E2
100
AcDbEntity
  8
0
100
AcDbBlockBegin
  2
980057503_1__28
 70
     0
 10
-21.50000000099999
 20
-1633.9999999996
 30
0.0
  3
980057503_1__28
  1

  0
LINE
  5
346
330
E2
100
AcDbEntity
  8
0
  6
Continuous
 62
     7
100
AcDbLine
 10
378.999999999
 20
-1629.9999999996
 30
0.0
 11
379.499999999
 21
-1629.9999999996
 31
0.0
  0
LINE
  5
347
330
E2
100
AcDbEntity
  8
0
  6
Continuous
 62
     7
100
AcDbLine
 10
379.499999999
 20
-1629.9999999996
 30
0.0
 11
384.499999999
 21
-1629.9999999996
 31
0.0
  0
LINE
  5
348
330
E2
100
AcDbEntity
  8
0
  6
Continuous
 62
     7
100
AcDbLine
 10
424.499999999
 20
-1629.9999999996
 30
0.0
 11
398.499999999
 21
-1629.9999999996
 31
0.0
  0
LINE
  5
349
330
E2
100
AcDbEntity
  8
0
  6
Continuous
 62
     7
100
AcDbLine
 10
396.499999999
 20
-1629.9999999996
 30
0.0
 11
398.499999999
 21
-1629.9999999996
 31
0.0
  0
LINE
  5
34A
330
E2
100
AcDbEntity
  8
0
  6
Continuous
 62
     7
100
AcDbLine
 10
388.499999999
 20
-1629.9999999996
 30
0.0
 11
396.499999999
 21
-1629.9999999996
 31
0.0
  0
LINE
  5
34B
330
E2
100
AcDbEntity
  8
0
  6
Continuous
 62
     7
100
AcDbLine
 10
-21.50000000099999
 20
-1633.9999999996
 30
0.0
 11
-21.50000000099999
 21
-1629.9999999996
 31
0.0
  0
LINE
  5
34C
330
E2
100
AcDbEntity
  8
0
  6
Continuous
 62
     7
100
AcDbLine
 10
8.49999999900001
 20
-1629.9999999996
 30
0.0
 11
10.49999999900001
 21
-1629.9999999996
 31
0.0
  0
LINE
  5
34D
330
E2
100
AcDbEntity
  8
0
  6
Continuous
 62
     7
100
AcDbLine
 10
10.49999999900001
 20
-1629.9999999996
 30
0.0
 11
18.49999999900001
 21
-1629.9999999996
 31
0.0
  0
LINE
  5
34E
330
E2
100
AcDbEntity
  8
0
  6
Continuous
 62
     7
100
AcDbLine
 10
10.99999999900001
 20
-1633.9999999996
 30
0.0
 11
8.49999999900001
 21
-1633.9999999996
 31
0.0
  0
LINE
  5
34F
330
E2
100
AcDbEntity
  8
0
  6
Continuous
 62
     7
100
AcDbLine
 10
18.49999999900001
 20
-1633.9999999996
 30
0.0
 11
10.99999999900001
 21
-1633.9999999996
 31
0.0
  0
LINE
  5
350
330
E2
100
AcDbEntity
  8
0
  6
Continuous
 62
     7
100
AcDbLine
 10
-21.50000000099999
 20
-1633.9999999996
 30
0.0
 11
8.49999999900001
 21
-1633.9999999996
 31
0.0
  0
LINE
  5
351
330
E2
100
AcDbEntity
  8
0
  6
Continuous
 62
     7
100
AcDbLine
 10
-17.50000000099999
 20
-1629.9999999996
 30
0.0
 11
-21.50000000099999
 21
-1629.9999999996
 31
0.0
  0
LINE
  5
352
330
E2
100
AcDbEntity
  8
0
  6
Continuous
 62
     7
100
AcDbLine
 10
8.49999999900001
 20
-1629.9999999996
 30
0.0
 11
-17.50000000099999
 21
-1629.9999999996
 31
0.0
  0
LINE
  5
353
330
E2
100
AcDbEntity
  8
0
  6
Continuous
 62
     3
100
AcDbLine
 10
8.49999999900001
 20
-1633.9999999996
 30
0.0
 11
8.49999999900001
 21
-1629.9999999996
 31
0.0
  0
LINE
  5
354
330
E2
100
AcDbEntity
  8
0
  6
Continuous
 62
     7
100
AcDbLine
 10
18.49999999900001
 20
-1633.9999999996
 30
0.0
 11
18.49999999900001
 21
-1629.9999999996
 31
0.0
  0
LINE
  5
355
330
E2
100
AcDbEntity
  8
0
  6
Continuous
 62
     7
100
AcDbLine
 10
332.4999999990002
 20
-1629.9999999996
 30
0.0
 11
357.9999999990002
 21
-1629.9999999996
 31
0.0
  0
LINE
  5
356
330
E2
100
AcDbEntity
  8
0
  6
Continuous
 62
     7
100
AcDbLine
 10
428.499999999
 20
-1633.9999999996
 30
0.0
 11
428.499999999
 21
-1629.9999999996
 31
0.0
  0
LINE
  5
357
330
E2
100
AcDbEntity
  8
0
  6
Continuous
 62
     7
100
AcDbLine
 10
398.499999999
 20
-1633.9999999996
 30
0.0
 11
395.999999999
 21
-1633.9999999996
 31
0.0
  0
LINE
  5
358
330
E2
100
AcDbEntity
  8
0
  6
Continuous
 62
     7
100
AcDbLine
 10
395.999999999
 20
-1633.9999999996
 30
0.0
 11
388.499999999
 21
-1633.9999999996
 31
0.0
  0
LINE
  5
359
330
E2
100
AcDbEntity
  8
0
  6
Continuous
 62
     7
100
AcDbLine
 10
428.499999999
 20
-1629.9999999996
 30
0.0
 11
424.499999999
 21
-1629.9999999996
 31
0.0
  0
LINE
  5
35A
330
E2
100
AcDbEntity
  8
0
  6
Continuous
 62
     3
100
AcDbLine
 10
398.499999999
 20
-1629.9999999996
 30
0.0
 11
398.499999999
 21
-1633.9999999996
 31
0.0
  0
LINE
  5
35B
330
E2
100
AcDbEntity
  8
0
  6
Continuous
 62
     7
100
AcDbLine
 10
388.499999999
 20
-1633.9999999996
 30
0.0
 11
388.499999999
 21
-1629.9999999996
 31
0.0
  0
LINE
  5
35C
330
E2
100
AcDbEntity
  8
0
  6
Continuous
 62
     7
100
AcDbLine
 10
398.499999999
 20
-1633.9999999996
 30
0.0
 11
428.499999999
 21
-1633.9999999996
 31
0.0
  0
LINE
  5
35D
330
E2
100
AcDbEntity
  8
0
  6
Continuous
 62
     7
100
AcDbLine
 10
358.499999999
 20
-1629.9999999996
 30
0.0
 11
358.999999999
 21
-1629.9999999996
 31
0.0
  0
LINE
  5
35E
330
E2
100
AcDbEntity
  8
0
  6
Continuous
 62
     7
100
AcDbLine
 10
358.999999999
 20
-1629.9999999996
 30
0.0
 11
378.999999999
 21
-1629.9999999996
 31
0.0
  0
LINE
  5
35F
330
E2
100
AcDbEntity
  8
0
  6
Continuous
 62
     7
100
AcDbLine
 10
384.499999999
 20
-1629.9999999996
 30
0.0
 11
388.499999999
 21
-1629.9999999996
 31
0.0
  0
LINE
  5
360
330
E2
100
AcDbEntity
  8
0
  6
Continuous
 62
     7
100
AcDbLine
 10
357.9999999990002
 20
-1629.9999999996
 30
0.0
 11
358.499999999
 21
-1629.9999999996
 31
0.0
  0
LINE
  5
361
330
E2
100
AcDbEntity
  8
0
  6
Continuous
 62
     7
100
AcDbLine
 10
74.49999999900012
 20
-1629.9999999996
 30
0.0
 11
78.49999999900012
 21
-1629.9999999996
 31
0.0
  0
LINE
  5
362
330
E2
100
AcDbEntity
  8
0
  6
Continuous
 62
     7
100
AcDbLine
 10
328.4999999990002
 20
-1629.9999999996
 30
0.0
 11
332.4999999990002
 21
-1629.9999999996
 31
0.0
  0
LINE
  5
363
330
E2
100
AcDbEntity
  8
0
  6
Continuous
 62
     7
100
AcDbLine
 10
48.4999999989999
 20
-1629.9999999996
 30
0.0
 11
48.9999999989999
 21
-1629.9999999996
 31
0.0
  0
LINE
  5
364
330
E2
100
AcDbEntity
  8
0
  6
Continuous
 62
     7
100
AcDbLine
 10
27.4999999989999
 20
-1629.9999999996
 30
0.0
 11
27.9999999989999
 21
-1629.9999999996
 31
0.0
  0
LINE
  5
365
330
E2
100
AcDbEntity
  8
0
  6
Continuous
 62
     7
100
AcDbLine
 10
18.49999999900001
 20
-1629.9999999996
 30
0.0
 11
22.49999999900001
 21
-1629.9999999996
 31
0.0
  0
LINE
  5
366
330
E2
100
AcDbEntity
  8
0
  6
Continuous
 62
     7
100
AcDbLine
 10
22.49999999900001
 20
-1629.9999999996
 30
0.0
 11
27.4999999989999
 21
-1629.9999999996
 31
0.0
  0
LINE
  5
367
330
E2
100
AcDbEntity
  8
0
  6
Continuous
 62
     7
100
AcDbLine
 10
27.9999999989999
 20
-1629.9999999996
 30
0.0
 11
47.9999999989999
 21
-1629.9999999996
 31
0.0
  0
LINE
  5
368
330
E2
100
AcDbEntity
  8
0
  6
Continuous
 62
     7
100
AcDbLine
 10
47.9999999989999
 20
-1629.9999999996
 30
0.0
 11
48.4999999989999
 21
-1629.9999999996
 31
0.0
  0
LINE
  5
369
330
E2
100
AcDbEntity
  8
0
  6
Continuous
 62
     7
100
AcDbLine
 10
48.9999999989999
 20
-1629.9999999996
 30
0.0
 11
74.49999999900012
 21
-1629.9999999996
 31
0.0
  0
LINE
  5
36A
330
E2
100
AcDbEntity
  8
0
  6
Continuous
 62
     7
100
AcDbLine
 10
167.4999999989993
 20
-1629.9999999996
 30
0.0
 11
239.4999999990008
 21
-1629.9999999996
 31
0.0
  0
LINE
  5
36B
330
E2
100
AcDbEntity
  8
0
  6
Continuous
 62
     7
100
AcDbLine
 10
78.49999999900012
 20
-1629.9999999996
 30
0.0
 11
167.4999999989993
 21
-1629.9999999996
 31
0.0
  0
LINE
  5
36C
330
E2
100
AcDbEntity
  8
0
  6
Continuous
 62
     7
100
AcDbLine
 10
239.4999999990008
 20
-1629.9999999996
 30
0.0
 11
328.4999999990002
 21
-1629.9999999996
 31
0.0
  0
LINE
  5
36D
330
E2
100
AcDbEntity
  8
0
  6
Continuous
 62
     7
100
AcDbLine
 10
18.49999999900001
 20
-1633.9999999996
 30
0.0
 11
388.499999999
 21
-1633.9999999996
 31
0.0
  0
ENDBLK
  5
E4
330
E2
100
AcDbEntity
  8
0
100
AcDbBlockEnd
  0
BLOCK
  5
E6
330
E5
100
AcDbEntity
  8
0
100
AcDbBlockBegin
  2
390997584__29
 70
     0
 10
10.99999999900001
 20
-1634.4999999996
 30
0.0
  3
390997584__29
  1

  0
LINE
  5
36E
330
E5
100
AcDbEntity
  8
0
  6
Continuous
 62
     7
100
AcDbLine
 10
395.999999999
 20
-1633.9999999996
 30
0.0
 11
395.999999999
 21
-1634.4999999996
 31
0.0
  0
LINE
  5
36F
330
E5
100
AcDbEntity
  8
0
  6
Continuous
 62
     7
100
AcDbLine
 10
10.99999999900001
 20
-1633.9999999996
 30
0.0
 11
10.99999999900001
 21
-1634.4999999996
 31
0.0
  0
LINE
  5
370
330
E5
100
AcDbEntity
  8
0
  6
Continuous
 62
     7
100
AcDbLine
 10
18.49999999900001
 20
-1633.9999999996
 30
0.0
 11
10.99999999900001
 21
-1633.9999999996
 31
0.0
  0
LINE
  5
371
330
E5
100
AcDbEntity
  8
0
  6
Continuous
 62
     7
100
AcDbLine
 10
395.999999999
 20
-1633.9999999996
 30
0.0
 11
388.499999999
 21
-1633.9999999996
 31
0.0
  0
LINE
  5
372
330
E5
100
AcDbEntity
  8
0
  6
Continuous
 62
     7
100
AcDbLine
 10
18.49999999900001
 20
-1633.9999999996
 30
0.0
 11
388.499999999
 21
-1633.9999999996
 31
0.0
  0
LINE
  5
373
330
E5
100
AcDbEntity
  8
0
  6
Continuous
 62
     7
100
AcDbLine
 10
395.999999999
 20
-1634.4999999996
 30
0.0
 11
10.99999999900001
 21
-1634.4999999996
 31
0.0
  0
ENDBLK
  5
E7
330
E5
100
AcDbEntity
  8
0
100
AcDbBlockEnd
  0
BLOCK
  5
E9
330
E8
100
AcDbEntity
  8
0
100
AcDbBlockBegin
  2
976007501_1__30
 70
     0
 10
-21.50000000100027
 20
-1633.9999999996
 30
0.0
  3
976007501_1__30
  1

  0
LINE
  5
374
330
E8
100
AcDbEntity
  8
0
  6
Continuous
 62
     7
100
AcDbLine
 10
428.499999999
 20
-1593.9999999996
 30
0.0
 11
428.499999999
 21
-1539.4999999996
 31
0.0
  0
LINE
  5
375
330
E8
100
AcDbEntity
  8
0
  6
Continuous
 62
     7
100
AcDbLine
 10
-21.50000000099999
 20
-1539.4999999996
 30
0.0
 11
-21.50000000099999
 21
-1593.9999999996
 31
0.0
  0
LINE
  5
376
330
E8
100
AcDbEntity
  8
0
  6
Continuous
 62
     7
100
AcDbLine
 10
428.499999999
 20
-1539.4999999996
 30
0.0
 11
-21.50000000099999
 21
-1539.4999999996
 31
0.0
  0
LINE
  5
377
330
E8
100
AcDbEntity
  8
0
  6
Continuous
 62
     7
100
AcDbLine
 10
-21.50000000099999
 20
-1633.9999999996
 30
0.0
 11
-21.50000000099999
 21
-1629.9999999996
 31
0.0
  0
LINE
  5
378
330
E8
100
AcDbEntity
  8
0
  6
Continuous
 62
     7
100
AcDbLine
 10
-21.50000000099999
 20
-1629.9999999996
 30
0.0
 11
-21.50000000100027
 21
-1607.9999999996
 31
0.0
  0
LINE
  5
379
330
E8
100
AcDbEntity
  8
0
  6
Continuous
 62
     7
100
AcDbLine
 10
10.99999999900001
 20
-1633.9999999996
 30
0.0
 11
8.49999999900001
 21
-1633.9999999996
 31
0.0
  0
LINE
  5
37A
330
E8
100
AcDbEntity
  8
0
  6
Continuous
 62
     7
100
AcDbLine
 10
18.49999999900001
 20
-1633.9999999996
 30
0.0
 11
10.99999999900001
 21
-1633.9999999996
 31
0.0
  0
LINE
  5
37B
330
E8
100
AcDbEntity
  8
0
  6
Continuous
 62
     7
100
AcDbLine
 10
-21.50000000099999
 20
-1633.9999999996
 30
0.0
 11
8.49999999900001
 21
-1633.9999999996
 31
0.0
  0
LINE
  5
37C
330
E8
100
AcDbEntity
  8
0
  6
Continuous
 62
     7
100
AcDbLine
 10
428.499999999
 20
-1633.9999999996
 30
0.0
 11
428.499999999
 21
-1629.9999999996
 31
0.0
  0
LINE
  5
37D
330
E8
100
AcDbEntity
  8
0
  6
Continuous
 62
     7
100
AcDbLine
 10
428.499999999
 20
-1629.9999999996
 30
0.0
 11
428.4999999989997
 21
-1607.9999999996
 31
0.0
  0
LINE
  5
37E
330
E8
100
AcDbEntity
  8
0
  6
Continuous
 62
     7
100
AcDbLine
 10
398.499999999
 20
-1633.9999999996
 30
0.0
 11
395.999999999
 21
-1633.9999999996
 31
0.0
  0
LINE
  5
37F
330
E8
100
AcDbEntity
  8
0
  6
Continuous
 62
     7
100
AcDbLine
 10
395.999999999
 20
-1633.9999999996
 30
0.0
 11
388.499999999
 21
-1633.9999999996
 31
0.0
  0
LINE
  5
380
330
E8
100
AcDbEntity
  8
0
  6
Continuous
 62
     7
100
AcDbLine
 10
398.499999999
 20
-1633.9999999996
 30
0.0
 11
428.499999999
 21
-1633.9999999996
 31
0.0
  0
LINE
  5
381
330
E8
100
AcDbEntity
  8
0
  6
Continuous
 62
     7
100
AcDbLine
 10
18.49999999900001
 20
-1633.9999999996
 30
0.0
 11
388.499999999
 21
-1633.9999999996
 31
0.0
  0
LINE
  5
382
330
E8
100
AcDbEntity
  8
0
  6
Continuous
 62
     7
100
AcDbLine
 10
-21.50000000100027
 20
-1604.9999999996
 30
0.0
 11
-21.50000000099999
 21
-1593.9999999996
 31
0.0
  0
LINE
  5
383
330
E8
100
AcDbEntity
  8
0
  6
Continuous
 62
     7
100
AcDbLine
 10
-21.50000000100027
 20
-1607.9999999996
 30
0.0
 11
-21.50000000100027
 21
-1604.9999999996
 31
0.0
  0
LINE
  5
384
330
E8
100
AcDbEntity
  8
0
  6
Continuous
 62
     7
100
AcDbLine
 10
428.4999999989997
 20
-1607.9999999996
 30
0.0
 11
428.4999999989997
 21
-1604.9999999996
 31
0.0
  0
LINE
  5
385
330
E8
100
AcDbEntity
  8
0
  6
Continuous
 62
     7
100
AcDbLine
 10
428.4999999989997
 20
-1604.9999999996
 30
0.0
 11
428.499999999
 21
-1593.9999999996
 31
0.0
  0
ENDBLK
  5
EA
330
E8
100
AcDbEntity
  8
0
100
AcDbBlockEnd
  0
BLOCK
  5
EC
330
EB
100
AcDbEntity
  8
0
100
AcDbBlockBegin
  2
368027496__31
 70
     0
 10
-21.50000000100027
 20
-1629.9999999996
 30
0.0
  3
368027496__31
  1

  0
LINE
  5
386
330
EB
100
AcDbEntity
  8
0
  6
Continuous
 62
     3
100
AcDbLine
 10
22.49999999900001
 20
-1629.9999999996
 30
0.0
 11
22.49999999900001
 21
-1593.9999999996
 31
0.0
  0
LINE
  5
387
330
EB
100
AcDbEntity
  8
0
  6
Continuous
 62
     7
100
AcDbLine
 10
384.499999999
 20
-1593.9999999996
 30
0.0
 11
384.499999999
 21
-1564.9999999996
 31
0.0
  0
LINE
  5
388
330
EB
100
AcDbEntity
  8
0
  6
Continuous
 62
     7
100
AcDbLine
 10
43.5456439416821
 20
-1593.9999999996
 30
0.0
 11
43.5456439416821
 21
-1564.9999999996
 31
0.0
  0
LINE
  5
389
330
EB
100
AcDbEntity
  8
0
  6
Continuous
 62
     7
100
AcDbLine
 10
22.49999999900001
 20
-1593.9999999996
 30
0.0
 11
22.49999999900001
 21
-1564.9999999996
 31
0.0
  0
LINE
  5
38A
330
EB
100
AcDbEntity
  8
0
  6
Continuous
 62
     7
100
AcDbLine
 10
10.49999999900001
 20
-1593.9999999996
 30
0.0
 11
10.49999999900001
 21
-1564.9999999996
 31
0.0
  0
LINE
  5
38B
330
EB
100
AcDbEntity
  8
0
  6
Continuous
 62
     7
100
AcDbLine
 10
10.49999999900001
 20
-1564.9999999996
 30
0.0
 11
22.49999999900001
 21
-1564.9999999996
 31
0.0
  0
LINE
  5
38C
330
EB
100
AcDbEntity
  8
0
  6
Continuous
 62
     7
100
AcDbLine
 10
22.49999999900001
 20
-1593.9999999996
 30
0.0
 11
48.49999999899933
 21
-1593.9999999996
 31
0.0
  0
LINE
  5
38D
330
EB
100
AcDbEntity
  8
0
  6
Continuous
 62
     7
100
AcDbLine
 10
22.49999999900001
 20
-1564.9999999996
 30
0.0
 11
43.5456439416821
 21
-1564.9999999996
 31
0.0
  0
LINE
  5
38E
330
EB
100
AcDbEntity
  8
0
  6
Continuous
 62
     7
100
AcDbLine
 10
48.49999999899933
 20
-1593.9999999996
 30
0.0
 11
48.49999999899933
 21
-1564.9999999996
 31
0.0
  0
LINE
  5
38F
330
EB
100
AcDbEntity
  8
0
  6
Continuous
 62
     7
100
AcDbLine
 10
48.49999999899933
 20
-1564.9999999996
 30
0.0
 11
58.49999999899961
 21
-1564.9999999996
 31
0.0
  0
LINE
  5
390
330
EB
100
AcDbEntity
  8
0
  6
Continuous
 62
     3
100
AcDbLine
 10
58.49999999899961
 20
-1593.9999999996
 30
0.0
 11
58.49999999899961
 21
-1564.9999999996
 31
0.0
  0
LINE
  5
391
330
EB
100
AcDbEntity
  8
0
  6
Continuous
 62
     7
100
AcDbLine
 10
48.49999999899933
 20
-1593.9999999996
 30
0.0
 11
58.49999999899961
 21
-1593.9999999996
 31
0.0
  0
LINE
  5
392
330
EB
100
AcDbEntity
  8
0
  6
Continuous
 62
     7
100
AcDbLine
 10
239.4999999990008
 20
-1593.9999999996
 30
0.0
 11
239.4999999990008
 21
-1564.9999999996
 31
0.0
  0
LINE
  5
393
330
EB
100
AcDbEntity
  8
0
  6
Continuous
 62
     3
100
AcDbLine
 10
348.4999999990005
 20
-1593.9999999996
 30
0.0
 11
348.4999999990005
 21
-1564.9999999996
 31
0.0
  0
LINE
  5
394
330
EB
100
AcDbEntity
  8
0
  6
Continuous
 62
     7
100
AcDbLine
 10
358.4999999990006
 20
-1593.9999999996
 30
0.0
 11
358.4999999990006
 21
-1564.9999999996
 31
0.0
  0
LINE
  5
395
330
EB
100
AcDbEntity
  8
0
  6
Continuous
 62
     7
100
AcDbLine
 10
167.4999999989992
 20
-1564.9999999996
 30
0.0
 11
167.4999999989993
 21
-1593.9999999996
 31
0.0
  0
LINE
  5
396
330
EB
100
AcDbEntity
  8
0
  6
Continuous
 62
     7
100
AcDbLine
 10
58.49999999899961
 20
-1564.9999999996
 30
0.0
 11
167.4999999989992
 21
-1564.9999999996
 31
0.0
  0
LINE
  5
397
330
EB
100
AcDbEntity
  8
0
  6
Continuous
 62
     7
100
AcDbLine
 10
43.5456439416821
 20
-1564.9999999996
 30
0.0
 11
48.49999999899933
 21
-1564.9999999996
 31
0.0
  0
LINE
  5
398
330
EB
100
AcDbEntity
  8
0
  6
Continuous
 62
     7
100
AcDbLine
 10
348.4999999990005
 20
-1564.9999999996
 30
0.0
 11
358.4999999990006
 21
-1564.9999999996
 31
0.0
  0
LINE
  5
399
330
EB
100
AcDbEntity
  8
0
  6
Continuous
 62
     7
100
AcDbLine
 10
348.4999999990005
 20
-1593.9999999996
 30
0.0
 11
358.4999999990006
 21
-1593.9999999996
 31
0.0
  0
LINE
  5
39A
330
EB
100
AcDbEntity
  8
0
  6
Continuous
 62
     7
100
AcDbLine
 10
239.4999999990008
 20
-1593.9999999996
 30
0.0
 11
239.4999999990008
 21
-1607.9999999996
 31
0.0
  0
LINE
  5
39B
330
EB
100
AcDbEntity
  8
0
  6
Continuous
 62
     7
100
AcDbLine
 10
167.4999999989993
 20
-1593.9999999996
 30
0.0
 11
167.4999999989992
 21
-1607.9999999996
 31
0.0
  0
LINE
  5
39C
330
EB
100
AcDbEntity
  8
0
  6
Continuous
 62
     7
100
AcDbLine
 10
239.4999999990008
 20
-1593.9999999996
 30
0.0
 11
348.4999999990005
 21
-1593.9999999996
 31
0.0
  0
LINE
  5
39D
330
EB
100
AcDbEntity
  8
0
  6
Continuous
 62
     7
100
AcDbLine
 10
239.4999999990008
 20
-1564.9999999996
 30
0.0
 11
348.4999999990005
 21
-1564.9999999996
 31
0.0
  0
LINE
  5
39E
330
EB
100
AcDbEntity
  8
0
  6
Continuous
 62
     7
100
AcDbLine
 10
378.999999999
 20
-1629.9999999996
 30
0.0
 11
379.499999999
 21
-1629.9999999996
 31
0.0
  0
LINE
  5
39F
330
EB
100
AcDbEntity
  8
0
  6
Continuous
 62
     7
100
AcDbLine
 10
379.499999999
 20
-1629.9999999996
 30
0.0
 11
384.499999999
 21
-1629.9999999996
 31
0.0
  0
LINE
  5
3A0
330
EB
100
AcDbEntity
  8
0
  6
Continuous
 62
     7
100
AcDbLine
 10
358.4999999990006
 20
-1564.9999999996
 30
0.0
 11
363.4543560563193
 21
-1564.9999999996
 31
0.0
  0
LINE
  5
3A1
330
EB
100
AcDbEntity
  8
0
  6
Continuous
 62
     7
100
AcDbLine
 10
358.4999999990006
 20
-1593.9999999996
 30
0.0
 11
384.499999999
 21
-1593.9999999996
 31
0.0
  0
LINE
  5
3A2
330
EB
100
AcDbEntity
  8
0
  6
Continuous
 62
     7
100
AcDbLine
 10
424.499999999
 20
-1629.9999999996
 30
0.0
 11
398.499999999
 21
-1629.9999999996
 31
0.0
  0
LINE
  5
3A3
330
EB
100
AcDbEntity
  8
0
  6
Continuous
 62
     7
100
AcDbLine
 10
396.499999999
 20
-1629.9999999996
 30
0.0
 11
398.499999999
 21
-1629.9999999996
 31
0.0
  0
LINE
  5
3A4
330
EB
100
AcDbEntity
  8
0
  6
Continuous
 62
     7
100
AcDbLine
 10
388.499999999
 20
-1629.9999999996
 30
0.0
 11
396.499999999
 21
-1629.9999999996
 31
0.0
  0
LINE
  5
3A5
330
EB
100
AcDbEntity
  8
0
  6
Continuous
 62
     7
100
AcDbLine
 10
396.499999999
 20
-1593.9999999996
 30
0.0
 11
396.499999999
 21
-1564.9999999996
 31
0.0
  0
LINE
  5
3A6
330
EB
100
AcDbEntity
  8
0
  6
Continuous
 62
     3
100
AcDbLine
 10
384.499999999
 20
-1629.9999999996
 30
0.0
 11
384.499999999
 21
-1593.9999999996
 31
0.0
  0
LINE
  5
3A7
330
EB
100
AcDbEntity
  8
0
  6
Continuous
 62
     3
100
AcDbLine
 10
398.499999999
 20
-1593.9999999996
 30
0.0
 11
398.499999999
 21
-1629.9999999996
 31
0.0
  0
LINE
  5
3A8
330
EB
100
AcDbEntity
  8
0
  6
Continuous
 62
     3
100
AcDbLine
 10
424.499999999
 20
-1629.9999999996
 30
0.0
 11
424.499999999
 21
-1593.9999999996
 31
0.0
  0
LINE
  5
3A9
330
EB
100
AcDbEntity
  8
0
  6
Continuous
 62
     7
100
AcDbLine
 10
58.49999999899961
 20
-1593.9999999996
 30
0.0
 11
167.4999999989993
 21
-1593.9999999996
 31
0.0
  0
LINE
  5
3AA
330
EB
100
AcDbEntity
  8
0
  6
Continuous
 62
     7
100
AcDbLine
 10
363.4543560563193
 20
-1564.9999999996
 30
0.0
 11
384.499999999
 21
-1564.9999999996
 31
0.0
  0
LINE
  5
3AB
330
EB
100
AcDbEntity
  8
0
  6
Continuous
 62
     7
100
AcDbLine
 10
396.499999999
 20
-1564.9999999996
 30
0.0
 11
384.499999999
 21
-1564.9999999996
 31
0.0
  0
LINE
  5
3AC
330
EB
100
AcDbEntity
  8
0
  6
Continuous
 62
     7
100
AcDbLine
 10
363.4543560563193
 20
-1564.9999999996
 30
0.0
 11
363.4543560563193
 21
-1593.9999999996
 31
0.0
  0
LINE
  5
3AD
330
EB
100
AcDbEntity
  8
0
  6
Continuous
 62
     7
100
AcDbLine
 10
388.499999999
 20
-1629.9999999996
 30
0.0
 11
388.499999999
 21
-1593.9999999996
 31
0.0
  0
LINE
  5
3AE
330
EB
100
AcDbEntity
  8
0
  6
Continuous
 62
     3
100
AcDbLine
 10
-17.50000000099999
 20
-1593.9999999996
 30
0.0
 11
-17.50000000099999
 21
-1629.9999999996
 31
0.0
  0
LINE
  5
3AF
330
EB
100
AcDbEntity
  8
0
  6
Continuous
 62
     7
100
AcDbLine
 10
424.499999999
 20
-1593.9999999996
 30
0.0
 11
428.499999999
 21
-1593.9999999996
 31
0.0
  0
LINE
  5
3B0
330
EB
100
AcDbEntity
  8
0
  6
Continuous
 62
     7
100
AcDbLine
 10
18.49999999900001
 20
-1593.9999999996
 30
0.0
 11
22.49999999900001
 21
-1593.9999999996
 31
0.0
  0
LINE
  5
3B1
330
EB
100
AcDbEntity
  8
0
  6
Continuous
 62
     7
100
AcDbLine
 10
18.49999999900001
 20
-1629.9999999996
 30
0.0
 11
18.49999999900001
 21
-1593.9999999996
 31
0.0
  0
LINE
  5
3B2
330
EB
100
AcDbEntity
  8
0
  6
Continuous
 62
     7
100
AcDbLine
 10
384.499999999
 20
-1593.9999999996
 30
0.0
 11
388.499999999
 21
-1593.9999999996
 31
0.0
  0
LINE
  5
3B3
330
EB
100
AcDbEntity
  8
0
  6
Continuous
 62
     7
100
AcDbLine
 10
-21.50000000099999
 20
-1593.9999999996
 30
0.0
 11
-17.50000000099999
 21
-1593.9999999996
 31
0.0
  0
LINE
  5
3B4
330
EB
100
AcDbEntity
  8
0
  6
Continuous
 62
     3
100
AcDbLine
 10
8.49999999900001
 20
-1629.9999999996
 30
0.0
 11
8.49999999899933
 21
-1593.9999999996
 31
0.0
  0
LINE
  5
3B5
330
EB
100
AcDbEntity
  8
0
  6
Continuous
 62
     7
100
AcDbLine
 10
-21.50000000099999
 20
-1629.9999999996
 30
0.0
 11
-21.50000000100027
 21
-1607.9999999996
 31
0.0
  0
LINE
  5
3B6
330
EB
100
AcDbEntity
  8
0
  6
Continuous
 62
     7
100
AcDbLine
 10
8.49999999900001
 20
-1629.9999999996
 30
0.0
 11
10.49999999900001
 21
-1629.9999999996
 31
0.0
  0
LINE
  5
3B7
330
EB
100
AcDbEntity
  8
0
  6
Continuous
 62
     7
100
AcDbLine
 10
10.49999999900001
 20
-1629.9999999996
 30
0.0
 11
18.49999999900001
 21
-1629.9999999996
 31
0.0
  0
LINE
  5
3B8
330
EB
100
AcDbEntity
  8
0
  6
Continuous
 62
     7
100
AcDbLine
 10
-17.50000000099999
 20
-1629.9999999996
 30
0.0
 11
-21.50000000099999
 21
-1629.9999999996
 31
0.0
  0
LINE
  5
3B9
330
EB
100
AcDbEntity
  8
0
  6
Continuous
 62
     7
100
AcDbLine
 10
8.49999999900001
 20
-1629.9999999996
 30
0.0
 11
-17.50000000099999
 21
-1629.9999999996
 31
0.0
  0
LINE
  5
3BA
330
EB
100
AcDbEntity
  8
0
  6
Continuous
 62
     7
100
AcDbLine
 10
167.4999999989992
 20
-1607.9999999996
 30
0.0
 11
169.4999999989993
 21
-1607.9999999996
 31
0.0
  0
LINE
  5
3BB
330
EB
100
AcDbEntity
  8
0
  6
Continuous
 62
     7
100
AcDbLine
 10
169.4999999989993
 20
-1607.9999999996
 30
0.0
 11
169.4999999989993
 21
-1604.9999999996
 31
0.0
  0
LINE
  5
3BC
330
EB
100
AcDbEntity
  8
0
  6
Continuous
 62
     7
100
AcDbLine
 10
237.4999999990008
 20
-1607.9999999996
 30
0.0
 11
237.4999999990008
 21
-1604.9999999996
 31
0.0
  0
LINE
  5
3BD
330
EB
100
AcDbEntity
  8
0
  6
Continuous
 62
     7
100
AcDbLine
 10
237.4999999990008
 20
-1607.9999999996
 30
0.0
 11
239.4999999990008
 21
-1607.9999999996
 31
0.0
  0
LINE
  5
3BE
330
EB
100
AcDbEntity
  8
0
  6
Continuous
 62
     7
100
AcDbLine
 10
169.4999999989993
 20
-1604.9999999996
 30
0.0
 11
237.4999999990008
 21
-1604.9999999996
 31
0.0
  0
LINE
  5
3BF
330
EB
100
AcDbEntity
  8
0
  6
Continuous
 62
     7
100
AcDbLine
 10
332.4999999990002
 20
-1629.9999999996
 30
0.0
 11
357.9999999990002
 21
-1629.9999999996
 31
0.0
  0
LINE
  5
3C0
330
EB
100
AcDbEntity
  8
0
  6
Continuous
 62
     7
100
AcDbLine
 10
239.4999999990008
 20
-1624.9999999996
 30
0.0
 11
167.4999999989993
 21
-1624.9999999996
 31
0.0
  0
LINE
  5
3C1
330
EB
100
AcDbEntity
  8
0
  6
Continuous
 62
     7
100
AcDbLine
 10
167.4999999989993
 20
-1624.9999999996
 30
0.0
 11
167.4999999989993
 21
-1629.9999999996
 31
0.0
  0
LINE
  5
3C2
330
EB
100
AcDbEntity
  8
0
  6
Continuous
 62
     7
100
AcDbLine
 10
239.4999999990008
 20
-1624.9999999996
 30
0.0
 11
239.4999999990008
 21
-1629.9999999996
 31
0.0
  0
LINE
  5
3C3
330
EB
100
AcDbEntity
  8
0
  6
Continuous
 62
     7
100
AcDbLine
 10
428.499999999
 20
-1629.9999999996
 30
0.0
 11
428.4999999989997
 21
-1607.9999999996
 31
0.0
  0
LINE
  5
3C4
330
EB
100
AcDbEntity
  8
0
  6
Continuous
 62
     7
100
AcDbLine
 10
428.499999999
 20
-1629.9999999996
 30
0.0
 11
424.499999999
 21
-1629.9999999996
 31
0.0
  0
LINE
  5
3C5
330
EB
100
AcDbEntity
  8
0
  6
Continuous
 62
     7
100
AcDbLine
 10
358.499999999
 20
-1629.9999999996
 30
0.0
 11
358.999999999
 21
-1629.9999999996
 31
0.0
  0
LINE
  5
3C6
330
EB
100
AcDbEntity
  8
0
  6
Continuous
 62
     7
100
AcDbLine
 10
358.999999999
 20
-1629.9999999996
 30
0.0
 11
378.999999999
 21
-1629.9999999996
 31
0.0
  0
LINE
  5
3C7
330
EB
100
AcDbEntity
  8
0
  6
Continuous
 62
     7
100
AcDbLine
 10
384.499999999
 20
-1629.9999999996
 30
0.0
 11
388.499999999
 21
-1629.9999999996
 31
0.0
  0
LINE
  5
3C8
330
EB
100
AcDbEntity
  8
0
  6
Continuous
 62
     7
100
AcDbLine
 10
357.9999999990002
 20
-1629.9999999996
 30
0.0
 11
358.499999999
 21
-1629.9999999996
 31
0.0
  0
LINE
  5
3C9
330
EB
100
AcDbEntity
  8
0
  6
Continuous
 62
     7
100
AcDbLine
 10
74.49999999900012
 20
-1629.9999999996
 30
0.0
 11
78.49999999900012
 21
-1629.9999999996
 31
0.0
  0
LINE
  5
3CA
330
EB
100
AcDbEntity
  8
0
  6
Continuous
 62
     7
100
AcDbLine
 10
328.4999999990002
 20
-1629.9999999996
 30
0.0
 11
332.4999999990002
 21
-1629.9999999996
 31
0.0
  0
LINE
  5
3CB
330
EB
100
AcDbEntity
  8
0
  6
Continuous
 62
     7
100
AcDbLine
 10
48.4999999989999
 20
-1629.9999999996
 30
0.0
 11
48.9999999989999
 21
-1629.9999999996
 31
0.0
  0
LINE
  5
3CC
330
EB
100
AcDbEntity
  8
0
  6
Continuous
 62
     7
100
AcDbLine
 10
27.4999999989999
 20
-1629.9999999996
 30
0.0
 11
27.9999999989999
 21
-1629.9999999996
 31
0.0
  0
LINE
  5
3CD
330
EB
100
AcDbEntity
  8
0
  6
Continuous
 62
     7
100
AcDbLine
 10
18.49999999900001
 20
-1629.9999999996
 30
0.0
 11
22.49999999900001
 21
-1629.9999999996
 31
0.0
  0
LINE
  5
3CE
330
EB
100
AcDbEntity
  8
0
  6
Continuous
 62
     7
100
AcDbLine
 10
22.49999999900001
 20
-1629.9999999996
 30
0.0
 11
27.4999999989999
 21
-1629.9999999996
 31
0.0
  0
LINE
  5
3CF
330
EB
100
AcDbEntity
  8
0
  6
Continuous
 62
     7
100
AcDbLine
 10
27.9999999989999
 20
-1629.9999999996
 30
0.0
 11
47.9999999989999
 21
-1629.9999999996
 31
0.0
  0
LINE
  5
3D0
330
EB
100
AcDbEntity
  8
0
  6
Continuous
 62
     7
100
AcDbLine
 10
47.9999999989999
 20
-1629.9999999996
 30
0.0
 11
48.4999999989999
 21
-1629.9999999996
 31
0.0
  0
LINE
  5
3D1
330
EB
100
AcDbEntity
  8
0
  6
Continuous
 62
     7
100
AcDbLine
 10
48.9999999989999
 20
-1629.9999999996
 30
0.0
 11
74.49999999900012
 21
-1629.9999999996
 31
0.0
  0
LINE
  5
3D2
330
EB
100
AcDbEntity
  8
0
  6
Continuous
 62
     7
100
AcDbLine
 10
78.49999999900012
 20
-1629.9999999996
 30
0.0
 11
167.4999999989993
 21
-1629.9999999996
 31
0.0
  0
LINE
  5
3D3
330
EB
100
AcDbEntity
  8
0
  6
Continuous
 62
     7
100
AcDbLine
 10
239.4999999990008
 20
-1629.9999999996
 30
0.0
 11
328.4999999990002
 21
-1629.9999999996
 31
0.0
  0
LINE
  5
3D4
330
EB
100
AcDbEntity
  8
0
  6
Continuous
 62
     7
100
AcDbLine
 10
-21.50000000100027
 20
-1604.9999999996
 30
0.0
 11
-21.50000000099999
 21
-1593.9999999996
 31
0.0
  0
LINE
  5
3D5
330
EB
100
AcDbEntity
  8
0
  6
Continuous
 62
     7
100
AcDbLine
 10
-21.50000000100027
 20
-1607.9999999996
 30
0.0
 11
-21.50000000100027
 21
-1604.9999999996
 31
0.0
  0
LINE
  5
3D6
330
EB
100
AcDbEntity
  8
0
  6
Continuous
 62
     7
100
AcDbLine
 10
428.4999999989997
 20
-1607.9999999996
 30
0.0
 11
428.4999999989997
 21
-1604.9999999996
 31
0.0
  0
LINE
  5
3D7
330
EB
100
AcDbEntity
  8
0
  6
Continuous
 62
     7
100
AcDbLine
 10
428.4999999989997
 20
-1604.9999999996
 30
0.0
 11
428.499999999
 21
-1593.9999999996
 31
0.0
  0
LINE
  5
3D8
330
EB
100
AcDbEntity
  8
0
  6
Continuous
 62
     7
100
AcDbLine
 10
388.499999999
 20
-1593.9999999996
 30
0.0
 11
398.499999999
 21
-1593.9999999996
 31
0.0
  0
LINE
  5
3D9
330
EB
100
AcDbEntity
  8
0
  6
Continuous
 62
     7
100
AcDbLine
 10
398.499999999
 20
-1593.9999999996
 30
0.0
 11
424.499999999
 21
-1593.9999999996
 31
0.0
  0
LINE
  5
3DA
330
EB
100
AcDbEntity
  8
0
  6
Continuous
 62
     7
100
AcDbLine
 10
8.49999999899933
 20
-1593.9999999996
 30
0.0
 11
18.49999999900001
 21
-1593.9999999996
 31
0.0
  0
LINE
  5
3DB
330
EB
100
AcDbEntity
  8
0
  6
Continuous
 62
     7
100
AcDbLine
 10
-17.50000000099999
 20
-1593.9999999996
 30
0.0
 11
8.49999999899933
 21
-1593.9999999996
 31
0.0
  0
LINE
  5
3DC
330
EB
100
AcDbEntity
  8
1
  6
DOT_CENTER
 62
     2
100
AcDbLine
 10
203.499999999
 20
-1593.9999999996
 30
0.0
 11
203.499999999
 21
-1564.9999999996
 31
0.0
  0
ENDBLK
  5
ED
330
EB
100
AcDbEntity
  8
0
100
AcDbBlockEnd
  0
BLOCK
  5
EF
330
EE
100
AcDbEntity
  8
0
100
AcDbBlockBegin
  2
368027496_1__32
 70
     0
 10
428.4999999989997
 20
-1629.9999999996
 30
0.0
  3
368027496_1__32
  1

  0
LINE
  5
3DD
330
EE
100
AcDbEntity
  8
0
  6
Continuous
 62
     7
100
AcDbLine
 10
874.499999999
 20
-1629.9999999996
 30
0.0
 11
848.499999999
 21
-1629.9999999996
 31
0.0
  0
LINE
  5
3DE
330
EE
100
AcDbEntity
  8
0
  6
Continuous
 62
     3
100
AcDbLine
 10
874.499999999
 20
-1629.9999999996
 30
0.0
 11
874.499999999
 21
-1593.9999999996
 31
0.0
  0
LINE
  5
3DF
330
EE
100
AcDbEntity
  8
0
  6
Continuous
 62
     7
100
AcDbLine
 10
848.499999999
 20
-1593.9999999996
 30
0.0
 11
874.499999999
 21
-1593.9999999996
 31
0.0
  0
LINE
  5
3E0
330
EE
100
AcDbEntity
  8
0
  6
Continuous
 62
     7
100
AcDbLine
 10
848.499999999
 20
-1629.9999999996
 30
0.0
 11
846.499999999
 21
-1629.9999999996
 31
0.0
  0
LINE
  5
3E1
330
EE
100
AcDbEntity
  8
0
  6
Continuous
 62
     7
100
AcDbLine
 10
846.499999999
 20
-1629.9999999996
 30
0.0
 11
838.499999999
 21
-1629.9999999996
 31
0.0
  0
LINE
  5
3E2
330
EE
100
AcDbEntity
  8
0
  6
Continuous
 62
     3
100
AcDbLine
 10
848.499999999
 20
-1593.9999999996
 30
0.0
 11
848.499999999
 21
-1629.9999999996
 31
0.0
  0
LINE
  5
3E3
330
EE
100
AcDbEntity
  8
0
  6
Continuous
 62
     7
100
AcDbLine
 10
838.499999999
 20
-1593.9999999996
 30
0.0
 11
848.499999999
 21
-1593.9999999996
 31
0.0
  0
LINE
  5
3E4
330
EE
100
AcDbEntity
  8
0
  6
Continuous
 62
     7
100
AcDbLine
 10
846.499999999
 20
-1564.9999999996
 30
0.0
 11
834.499999999
 21
-1564.9999999996
 31
0.0
  0
LINE
  5
3E5
330
EE
100
AcDbEntity
  8
0
  6
Continuous
 62
     7
100
AcDbLine
 10
834.499999999
 20
-1593.9999999996
 30
0.0
 11
838.499999999
 21
-1593.9999999996
 31
0.0
  0
LINE
  5
3E6
330
EE
100
AcDbEntity
  8
0
  6
Continuous
 62
     7
100
AcDbLine
 10
838.499999999
 20
-1629.9999999996
 30
0.0
 11
838.499999999
 21
-1593.9999999996
 31
0.0
  0
LINE
  5
3E7
330
EE
100
AcDbEntity
  8
0
  6
Continuous
 62
     7
100
AcDbLine
 10
834.499999999
 20
-1629.9999999996
 30
0.0
 11
838.499999999
 21
-1629.9999999996
 31
0.0
  0
LINE
  5
3E8
330
EE
100
AcDbEntity
  8
0
  6
Continuous
 62
     7
100
AcDbLine
 10
808.4999999990009
 20
-1593.9999999996
 30
0.0
 11
834.499999999
 21
-1593.9999999996
 31
0.0
  0
LINE
  5
3E9
330
EE
100
AcDbEntity
  8
0
  6
Continuous
 62
     3
100
AcDbLine
 10
834.499999999
 20
-1629.9999999996
 30
0.0
 11
834.499999999
 21
-1593.9999999996
 31
0.0
  0
LINE
  5
3EA
330
EE
100
AcDbEntity
  8
0
  6
Continuous
 62
     7
100
AcDbLine
 10
834.499999999
 20
-1629.9999999996
 30
0.0
 11
829.499999999
 21
-1629.9999999996
 31
0.0
  0
LINE
  5
3EB
330
EE
100
AcDbEntity
  8
0
  6
Continuous
 62
     7
100
AcDbLine
 10
846.499999999
 20
-1593.9999999996
 30
0.0
 11
846.499999999
 21
-1564.9999999996
 31
0.0
  0
LINE
  5
3EC
330
EE
100
AcDbEntity
  8
0
  6
Continuous
 62
     7
100
AcDbLine
 10
782.499999999
 20
-1629.9999999996
 30
0.0
 11
778.499999999
 21
-1629.9999999996
 31
0.0
  0
LINE
  5
3ED
330
EE
100
AcDbEntity
  8
0
  6
Continuous
 62
     7
100
AcDbLine
 10
807.999999999
 20
-1629.9999999996
 30
0.0
 11
782.499999999
 21
-1629.9999999996
 31
0.0
  0
LINE
  5
3EE
330
EE
100
AcDbEntity
  8
0
  6
Continuous
 62
     7
100
AcDbLine
 10
778.499999999
 20
-1629.9999999996
 30
0.0
 11
689.4999999990008
 21
-1629.9999999996
 31
0.0
  0
LINE
  5
3EF
330
EE
100
AcDbEntity
  8
0
  6
Continuous
 62
     7
100
AcDbLine
 10
808.499999999
 20
-1629.9999999996
 30
0.0
 11
807.999999999
 21
-1629.9999999996
 31
0.0
  0
LINE
  5
3F0
330
EE
100
AcDbEntity
  8
0
  6
Continuous
 62
     7
100
AcDbLine
 10
808.999999999
 20
-1629.9999999996
 30
0.0
 11
808.499999999
 21
-1629.9999999996
 31
0.0
  0
LINE
  5
3F1
330
EE
100
AcDbEntity
  8
0
  6
Continuous
 62
     7
100
AcDbLine
 10
689.4999999990008
 20
-1624.9999999996
 30
0.0
 11
689.4999999990008
 21
-1629.9999999996
 31
0.0
  0
LINE
  5
3F2
330
EE
100
AcDbEntity
  8
0
  6
Continuous
 62
     7
100
AcDbLine
 10
798.4999999990009
 20
-1593.9999999996
 30
0.0
 11
808.4999999990009
 21
-1593.9999999996
 31
0.0
  0
LINE
  5
3F3
330
EE
100
AcDbEntity
  8
0
  6
Continuous
 62
     7
100
AcDbLine
 10
689.4999999990008
 20
-1564.9999999996
 30
0.0
 11
798.4999999990009
 21
-1564.9999999996
 31
0.0
  0
LINE
  5
3F4
330
EE
100
AcDbEntity
  8
0
  6
Continuous
 62
     7
100
AcDbLine
 10
808.4999999990009
 20
-1593.9999999996
 30
0.0
 11
808.4999999990009
 21
-1564.9999999996
 31
0.0
  0
LINE
  5
3F5
330
EE
100
AcDbEntity
  8
0
  6
Continuous
 62
     7
100
AcDbLine
 10
689.4999999990008
 20
-1593.9999999996
 30
0.0
 11
689.4999999990008
 21
-1607.9999999996
 31
0.0
  0
LINE
  5
3F6
330
EE
100
AcDbEntity
  8
0
  6
Continuous
 62
     7
100
AcDbLine
 10
808.4999999990009
 20
-1564.9999999996
 30
0.0
 11
813.454356056319
 21
-1564.9999999996
 31
0.0
  0
LINE
  5
3F7
330
EE
100
AcDbEntity
  8
0
  6
Continuous
 62
     7
100
AcDbLine
 10
798.4999999990009
 20
-1564.9999999996
 30
0.0
 11
808.4999999990009
 21
-1564.9999999996
 31
0.0
  0
LINE
  5
3F8
330
EE
100
AcDbEntity
  8
0
  6
Continuous
 62
     3
100
AcDbLine
 10
798.4999999990009
 20
-1593.9999999996
 30
0.0
 11
798.4999999990009
 21
-1564.9999999996
 31
0.0
  0
LINE
  5
3F9
330
EE
100
AcDbEntity
  8
0
  6
Continuous
 62
     7
100
AcDbLine
 10
689.4999999990008
 20
-1593.9999999996
 30
0.0
 11
689.4999999990008
 21
-1564.9999999996
 31
0.0
  0
LINE
  5
3FA
330
EE
100
AcDbEntity
  8
0
  6
Continuous
 62
     7
100
AcDbLine
 10
813.454356056319
 20
-1564.9999999996
 30
0.0
 11
813.454356056319
 21
-1593.9999999996
 31
0.0
  0
LINE
  5
3FB
330
EE
100
AcDbEntity
  8
0
  6
Continuous
 62
     7
100
AcDbLine
 10
813.454356056319
 20
-1564.9999999996
 30
0.0
 11
834.499999999
 21
-1564.9999999996
 31
0.0
  0
LINE
  5
3FC
330
EE
100
AcDbEntity
  8
0
  6
Continuous
 62
     7
100
AcDbLine
 10
834.499999999
 20
-1593.9999999996
 30
0.0
 11
834.499999999
 21
-1564.9999999996
 31
0.0
  0
LINE
  5
3FD
330
EE
100
AcDbEntity
  8
0
  6
Continuous
 62
     7
100
AcDbLine
 10
689.4999999990008
 20
-1593.9999999996
 30
0.0
 11
798.4999999990009
 21
-1593.9999999996
 31
0.0
  0
LINE
  5
3FE
330
EE
100
AcDbEntity
  8
0
  6
Continuous
 62
     7
100
AcDbLine
 10
472.499999999
 20
-1593.9999999996
 30
0.0
 11
472.499999999
 21
-1564.9999999996
 31
0.0
  0
LINE
  5
3FF
330
EE
100
AcDbEntity
  8
0
  6
Continuous
 62
     7
100
AcDbLine
 10
460.499999999
 20
-1593.9999999996
 30
0.0
 11
460.499999999
 21
-1564.9999999996
 31
0.0
  0
LINE
  5
400
330
EE
100
AcDbEntity
  8
0
  6
Continuous
 62
     7
100
AcDbLine
 10
508.4999999989996
 20
-1564.9999999996
 30
0.0
 11
617.4999999989992
 21
-1564.9999999996
 31
0.0
  0
LINE
  5
401
330
EE
100
AcDbEntity
  8
0
  6
Continuous
 62
     7
100
AcDbLine
 10
617.4999999989992
 20
-1564.9999999996
 30
0.0
 11
617.4999999989993
 21
-1593.9999999996
 31
0.0
  0
LINE
  5
402
330
EE
100
AcDbEntity
  8
0
  6
Continuous
 62
     7
100
AcDbLine
 10
498.4999999989993
 20
-1593.9999999996
 30
0.0
 11
508.4999999989996
 21
-1593.9999999996
 31
0.0
  0
LINE
  5
403
330
EE
100
AcDbEntity
  8
0
  6
Continuous
 62
     7
100
AcDbLine
 10
498.4999999989993
 20
-1593.9999999996
 30
0.0
 11
498.4999999989993
 21
-1564.9999999996
 31
0.0
  0
LINE
  5
404
330
EE
100
AcDbEntity
  8
0
  6
Continuous
 62
     7
100
AcDbLine
 10
498.4999999989993
 20
-1564.9999999996
 30
0.0
 11
508.4999999989996
 21
-1564.9999999996
 31
0.0
  0
LINE
  5
405
330
EE
100
AcDbEntity
  8
0
  6
Continuous
 62
     7
100
AcDbLine
 10
493.5456439416821
 20
-1564.9999999996
 30
0.0
 11
498.4999999989993
 21
-1564.9999999996
 31
0.0
  0
LINE
  5
406
330
EE
100
AcDbEntity
  8
0
  6
Continuous
 62
     3
100
AcDbLine
 10
508.4999999989996
 20
-1593.9999999996
 30
0.0
 11
508.4999999989996
 21
-1564.9999999996
 31
0.0
  0
LINE
  5
407
330
EE
100
AcDbEntity
  8
0
  6
Continuous
 62
     7
100
AcDbLine
 10
508.4999999989996
 20
-1593.9999999996
 30
0.0
 11
617.4999999989993
 21
-1593.9999999996
 31
0.0
  0
LINE
  5
408
330
EE
100
AcDbEntity
  8
0
  6
Continuous
 62
     7
100
AcDbLine
 10
428.499999999
 20
-1593.9999999996
 30
0.0
 11
432.499999999
 21
-1593.9999999996
 31
0.0
  0
LINE
  5
409
330
EE
100
AcDbEntity
  8
0
  6
Continuous
 62
     7
100
AcDbLine
 10
468.499999999
 20
-1629.9999999996
 30
0.0
 11
468.499999999
 21
-1593.9999999996
 31
0.0
  0
LINE
  5
40A
330
EE
100
AcDbEntity
  8
0
  6
Continuous
 62
     7
100
AcDbLine
 10
458.4999999989993
 20
-1593.9999999996
 30
0.0
 11
468.499999999
 21
-1593.9999999996
 31
0.0
  0
LINE
  5
40B
330
EE
100
AcDbEntity
  8
0
  6
Continuous
 62
     3
100
AcDbLine
 10
432.499999999
 20
-1593.9999999996
 30
0.0
 11
432.499999999
 21
-1629.9999999996
 31
0.0
  0
LINE
  5
40C
330
EE
100
AcDbEntity
  8
0
  6
Continuous
 62
     7
100
AcDbLine
 10
432.499999999
 20
-1593.9999999996
 30
0.0
 11
458.4999999989993
 21
-1593.9999999996
 31
0.0
  0
LINE
  5
40D
330
EE
100
AcDbEntity
  8
0
  6
Continuous
 62
     3
100
AcDbLine
 10
472.499999999
 20
-1593.9999999996
 30
0.0
 11
472.499999999
 21
-1629.9999999996
 31
0.0
  0
LINE
  5
40E
330
EE
100
AcDbEntity
  8
0
  6
Continuous
 62
     3
100
AcDbLine
 10
458.499999999
 20
-1629.9999999996
 30
0.0
 11
458.4999999989993
 21
-1593.9999999996
 31
0.0
  0
LINE
  5
40F
330
EE
100
AcDbEntity
  8
0
  6
Continuous
 62
     7
100
AcDbLine
 10
493.5456439416821
 20
-1593.9999999996
 30
0.0
 11
493.5456439416821
 21
-1564.9999999996
 31
0.0
  0
LINE
  5
410
330
EE
100
AcDbEntity
  8
0
  6
Continuous
 62
     7
100
AcDbLine
 10
472.499999999
 20
-1593.9999999996
 30
0.0
 11
498.4999999989993
 21
-1593.9999999996
 31
0.0
  0
LINE
  5
411
330
EE
100
AcDbEntity
  8
0
  6
Continuous
 62
     7
100
AcDbLine
 10
878.499999999
 20
-1629.9999999996
 30
0.0
 11
878.499999999
 21
-1607.9999999996
 31
0.0
  0
LINE
  5
412
330
EE
100
AcDbEntity
  8
0
  6
Continuous
 62
     7
100
AcDbLine
 10
878.499999999
 20
-1629.9999999996
 30
0.0
 11
874.499999999
 21
-1629.9999999996
 31
0.0
  0
LINE
  5
413
330
EE
100
AcDbEntity
  8
0
  6
Continuous
 62
     7
100
AcDbLine
 10
829.499999999
 20
-1629.9999999996
 30
0.0
 11
828.999999999
 21
-1629.9999999996
 31
0.0
  0
LINE
  5
414
330
EE
100
AcDbEntity
  8
0
  6
Continuous
 62
     7
100
AcDbLine
 10
828.999999999
 20
-1629.9999999996
 30
0.0
 11
808.999999999
 21
-1629.9999999996
 31
0.0
  0
LINE
  5
415
330
EE
100
AcDbEntity
  8
0
  6
Continuous
 62
     7
100
AcDbLine
 10
498.499999999
 20
-1629.9999999996
 30
0.0
 11
497.999999999
 21
-1629.9999999996
 31
0.0
  0
LINE
  5
416
330
EE
100
AcDbEntity
  8
0
  6
Continuous
 62
     7
100
AcDbLine
 10
498.9999999989999
 20
-1629.9999999996
 30
0.0
 11
498.499999999
 21
-1629.9999999996
 31
0.0
  0
LINE
  5
417
330
EE
100
AcDbEntity
  8
0
  6
Continuous
 62
     7
100
AcDbLine
 10
477.999999999
 20
-1629.9999999996
 30
0.0
 11
477.499999999
 21
-1629.9999999996
 31
0.0
  0
LINE
  5
418
330
EE
100
AcDbEntity
  8
0
  6
Continuous
 62
     7
100
AcDbLine
 10
617.4999999989993
 20
-1624.9999999996
 30
0.0
 11
617.4999999989993
 21
-1629.9999999996
 31
0.0
  0
LINE
  5
419
330
EE
100
AcDbEntity
  8
0
  6
Continuous
 62
     7
100
AcDbLine
 10
689.4999999990008
 20
-1624.9999999996
 30
0.0
 11
617.4999999989993
 21
-1624.9999999996
 31
0.0
  0
LINE
  5
41A
330
EE
100
AcDbEntity
  8
0
  6
Continuous
 62
     7
100
AcDbLine
 10
497.999999999
 20
-1629.9999999996
 30
0.0
 11
477.999999999
 21
-1629.9999999996
 31
0.0
  0
LINE
  5
41B
330
EE
100
AcDbEntity
  8
0
  6
Continuous
 62
     7
100
AcDbLine
 10
617.4999999989993
 20
-1629.9999999996
 30
0.0
 11
528.4999999990001
 21
-1629.9999999996
 31
0.0
  0
LINE
  5
41C
330
EE
100
AcDbEntity
  8
0
  6
Continuous
 62
     7
100
AcDbLine
 10
528.4999999990001
 20
-1629.9999999996
 30
0.0
 11
524.4999999990001
 21
-1629.9999999996
 31
0.0
  0
LINE
  5
41D
330
EE
100
AcDbEntity
  8
0
  6
Continuous
 62
     7
100
AcDbLine
 10
524.4999999990001
 20
-1629.9999999996
 30
0.0
 11
498.9999999989999
 21
-1629.9999999996
 31
0.0
  0
LINE
  5
41E
330
EE
100
AcDbEntity
  8
0
  6
Continuous
 62
     7
100
AcDbLine
 10
460.499999999
 20
-1564.9999999996
 30
0.0
 11
472.499999999
 21
-1564.9999999996
 31
0.0
  0
LINE
  5
41F
330
EE
100
AcDbEntity
  8
0
  6
Continuous
 62
     7
100
AcDbLine
 10
468.499999999
 20
-1593.9999999996
 30
0.0
 11
472.499999999
 21
-1593.9999999996
 31
0.0
  0
LINE
  5
420
330
EE
100
AcDbEntity
  8
0
  6
Continuous
 62
     7
100
AcDbLine
 10
472.499999999
 20
-1564.9999999996
 30
0.0
 11
493.5456439416821
 21
-1564.9999999996
 31
0.0
  0
LINE
  5
421
330
EE
100
AcDbEntity
  8
0
  6
Continuous
 62
     7
100
AcDbLine
 10
472.499999999
 20
-1629.9999999996
 30
0.0
 11
477.499999999
 21
-1629.9999999996
 31
0.0
  0
LINE
  5
422
330
EE
100
AcDbEntity
  8
0
  6
Continuous
 62
     7
100
AcDbLine
 10
458.499999999
 20
-1629.9999999996
 30
0.0
 11
432.499999999
 21
-1629.9999999996
 31
0.0
  0
LINE
  5
423
330
EE
100
AcDbEntity
  8
0
  6
Continuous
 62
     7
100
AcDbLine
 10
460.499999999
 20
-1629.9999999996
 30
0.0
 11
458.499999999
 21
-1629.9999999996
 31
0.0
  0
LINE
  5
424
330
EE
100
AcDbEntity
  8
0
  6
Continuous
 62
     7
100
AcDbLine
 10
468.499999999
 20
-1629.9999999996
 30
0.0
 11
472.499999999
 21
-1629.9999999996
 31
0.0
  0
LINE
  5
425
330
EE
100
AcDbEntity
  8
0
  6
Continuous
 62
     7
100
AcDbLine
 10
460.499999999
 20
-1629.9999999996
 30
0.0
 11
468.499999999
 21
-1629.9999999996
 31
0.0
  0
LINE
  5
426
330
EE
100
AcDbEntity
  8
0
  6
Continuous
 62
     7
100
AcDbLine
 10
428.499999999
 20
-1629.9999999996
 30
0.0
 11
428.4999999989997
 21
-1607.9999999996
 31
0.0
  0
LINE
  5
427
330
EE
100
AcDbEntity
  8
0
  6
Continuous
 62
     7
100
AcDbLine
 10
432.499999999
 20
-1629.9999999996
 30
0.0
 11
428.499999999
 21
-1629.9999999996
 31
0.0
  0
LINE
  5
428
330
EE
100
AcDbEntity
  8
0
  6
Continuous
 62
     7
100
AcDbLine
 10
428.4999999989997
 20
-1607.9999999996
 30
0.0
 11
428.4999999989997
 21
-1604.9999999996
 31
0.0
  0
LINE
  5
429
330
EE
100
AcDbEntity
  8
0
  6
Continuous
 62
     7
100
AcDbLine
 10
428.4999999989997
 20
-1604.9999999996
 30
0.0
 11
428.499999999
 21
-1593.9999999996
 31
0.0
  0
LINE
  5
42A
330
EE
100
AcDbEntity
  8
0
  6
Continuous
 62
     7
100
AcDbLine
 10
874.499999999
 20
-1593.9999999996
 30
0.0
 11
878.499999999
 21
-1593.9999999996
 31
0.0
  0
LINE
  5
42B
330
EE
100
AcDbEntity
  8
0
  6
Continuous
 62
     7
100
AcDbLine
 10
878.499999999
 20
-1604.9999999996
 30
0.0
 11
878.499999999
 21
-1593.9999999996
 31
0.0
  0
LINE
  5
42C
330
EE
100
AcDbEntity
  8
0
  6
Continuous
 62
     7
100
AcDbLine
 10
878.499999999
 20
-1607.9999999996
 30
0.0
 11
878.499999999
 21
-1604.9999999996
 31
0.0
  0
LINE
  5
42D
330
EE
100
AcDbEntity
  8
0
  6
Continuous
 62
     7
100
AcDbLine
 10
619.4999999989993
 20
-1607.9999999996
 30
0.0
 11
619.4999999989993
 21
-1604.9999999996
 31
0.0
  0
LINE
  5
42E
330
EE
100
AcDbEntity
  8
0
  6
Continuous
 62
     7
100
AcDbLine
 10
687.4999999990008
 20
-1607.9999999996
 30
0.0
 11
687.4999999990008
 21
-1604.9999999996
 31
0.0
  0
LINE
  5
42F
330
EE
100
AcDbEntity
  8
0
  6
Continuous
 62
     7
100
AcDbLine
 10
687.4999999990008
 20
-1607.9999999996
 30
0.0
 11
689.4999999990008
 21
-1607.9999999996
 31
0.0
  0
LINE
  5
430
330
EE
100
AcDbEntity
  8
0
  6
Continuous
 62
     7
100
AcDbLine
 10
617.4999999989991
 20
-1607.9999999996
 30
0.0
 11
619.4999999989993
 21
-1607.9999999996
 31
0.0
  0
LINE
  5
431
330
EE
100
AcDbEntity
  8
0
  6
Continuous
 62
     7
100
AcDbLine
 10
619.4999999989993
 20
-1604.9999999996
 30
0.0
 11
687.4999999990008
 21
-1604.9999999996
 31
0.0
  0
LINE
  5
432
330
EE
100
AcDbEntity
  8
0
  6
Continuous
 62
     7
100
AcDbLine
 10
617.4999999989993
 20
-1593.9999999996
 30
0.0
 11
617.4999999989991
 21
-1607.9999999996
 31
0.0
  0
LINE
  5
433
330
EE
100
AcDbEntity
  8
1
  6
DOT_CENTER
 62
     2
100
AcDbLine
 10
653.499999999
 20
-1593.9999999996
 30
0.0
 11
653.499999999
 21
-1564.9999999996
 31
0.0
  0
ENDBLK
  5
F0
330
EE
100
AcDbEntity
  8
0
100
AcDbBlockEnd
  0
BLOCK
  5
F2
330
F1
100
AcDbEntity
  8
0
100
AcDbBlockBegin
  2
976007501__33
 70
     0
 10
428.4999999989997
 20
-1633.9999999996
 30
0.0
  3
976007501__33
  1

  0
LINE
  5
434
330
F1
100
AcDbEntity
  8
0
  6
Continuous
 62
     7
100
AcDbLine
 10
878.499999999
 20
-1593.9999999996
 30
0.0
 11
878.499999999
 21
-1539.4999999996
 31
0.0
  0
LINE
  5
435
330
F1
100
AcDbEntity
  8
0
  6
Continuous
 62
     7
100
AcDbLine
 10
848.499999999
 20
-1633.9999999996
 30
0.0
 11
845.999999999
 21
-1633.9999999996
 31
0.0
  0
LINE
  5
436
330
F1
100
AcDbEntity
  8
0
  6
Continuous
 62
     7
100
AcDbLine
 10
878.499999999
 20
-1633.9999999996
 30
0.0
 11
878.499999999
 21
-1629.9999999996
 31
0.0
  0
LINE
  5
437
330
F1
100
AcDbEntity
  8
0
  6
Continuous
 62
     7
100
AcDbLine
 10
848.499999999
 20
-1633.9999999996
 30
0.0
 11
878.499999999
 21
-1633.9999999996
 31
0.0
  0
LINE
  5
438
330
F1
100
AcDbEntity
  8
0
  6
Continuous
 62
     7
100
AcDbLine
 10
845.999999999
 20
-1633.9999999996
 30
0.0
 11
838.499999999
 21
-1633.9999999996
 31
0.0
  0
LINE
  5
439
330
F1
100
AcDbEntity
  8
0
  6
Continuous
 62
     7
100
AcDbLine
 10
838.499999999
 20
-1633.9999999996
 30
0.0
 11
468.499999999
 21
-1633.9999999996
 31
0.0
  0
LINE
  5
43A
330
F1
100
AcDbEntity
  8
0
  6
Continuous
 62
     7
100
AcDbLine
 10
878.499999999
 20
-1629.9999999996
 30
0.0
 11
878.499999999
 21
-1607.9999999996
 31
0.0
  0
LINE
  5
43B
330
F1
100
AcDbEntity
  8
0
  6
Continuous
 62
     7
100
AcDbLine
 10
428.499999999
 20
-1593.9999999996
 30
0.0
 11
428.499999999
 21
-1539.4999999996
 31
0.0
  0
LINE
  5
43C
330
F1
100
AcDbEntity
  8
0
  6
Continuous
 62
     7
100
AcDbLine
 10
460.9999999989998
 20
-1633.9999999996
 30
0.0
 11
458.499999999
 21
-1633.9999999996
 31
0.0
  0
LINE
  5
43D
330
F1
100
AcDbEntity
  8
0
  6
Continuous
 62
     7
100
AcDbLine
 10
468.499999999
 20
-1633.9999999996
 30
0.0
 11
460.9999999989998
 21
-1633.9999999996
 31
0.0
  0
LINE
  5
43E
330
F1
100
AcDbEntity
  8
0
  6
Continuous
 62
     7
100
AcDbLine
 10
428.499999999
 20
-1633.9999999996
 30
0.0
 11
428.499999999
 21
-1629.9999999996
 31
0.0
  0
LINE
  5
43F
330
F1
100
AcDbEntity
  8
0
  6
Continuous
 62
     7
100
AcDbLine
 10
428.499999999
 20
-1629.9999999996
 30
0.0
 11
428.4999999989997
 21
-1607.9999999996
 31
0.0
  0
LINE
  5
440
330
F1
100
AcDbEntity
  8
0
  6
Continuous
 62
     7
100
AcDbLine
 10
428.499999999
 20
-1633.9999999996
 30
0.0
 11
458.499999999
 21
-1633.9999999996
 31
0.0
  0
LINE
  5
441
330
F1
100
AcDbEntity
  8
0
  6
Continuous
 62
     7
100
AcDbLine
 10
428.4999999989997
 20
-1607.9999999996
 30
0.0
 11
428.4999999989997
 21
-1604.9999999996
 31
0.0
  0
LINE
  5
442
330
F1
100
AcDbEntity
  8
0
  6
Continuous
 62
     7
100
AcDbLine
 10
428.4999999989997
 20
-1604.9999999996
 30
0.0
 11
428.499999999
 21
-1593.9999999996
 31
0.0
  0
LINE
  5
443
330
F1
100
AcDbEntity
  8
0
  6
Continuous
 62
     7
100
AcDbLine
 10
878.499999999
 20
-1604.9999999996
 30
0.0
 11
878.499999999
 21
-1593.9999999996
 31
0.0
  0
LINE
  5
444
330
F1
100
AcDbEntity
  8
0
  6
Continuous
 62
     7
100
AcDbLine
 10
878.499999999
 20
-1607.9999999996
 30
0.0
 11
878.499999999
 21
-1604.9999999996
 31
0.0
  0
LINE
  5
445
330
F1
100
AcDbEntity
  8
0
  6
Continuous
 62
     7
100
AcDbLine
 10
878.499999999
 20
-1539.4999999996
 30
0.0
 11
428.499999999
 21
-1539.4999999996
 31
0.0
  0
ENDBLK
  5
F3
330
F1
100
AcDbEntity
  8
0
100
AcDbBlockEnd
  0
BLOCK
  5
101
330
F4
100
AcDbEntity
  8
0
100
AcDbBlockBegin
  2
539588H_2018-10-05__34
 70
     0
 10
-21.50000000100027
 20
-1634.4999999996
 30
0.0
  3
539588H_2018-10-05__34
  1

  0
INSERT
  5
F5
330
F4
100
AcDbEntity
  8
0
100
AcDbBlockReference
  2
995907500_2__22
 10
808.999999999
 20
-1629.9999999996
 30
0.0
  0
INSERT
  5
F6
330
F4
100
AcDbEntity
  8
0
100
AcDbBlockReference
  2
995907500__23
 10
477.999999999
 20
-1629.9999999996
 30
0.0
  0
INSERT
  5
F7
330
F4
100
AcDbEntity
  8
0
100
AcDbBlockReference
  2
390997584_1__24
 10
460.9999999989998
 20
-1634.4999999996
 30
0.0
  0
INSERT
  5
F8
330
F4
100
AcDbEntity
  8
0
100
AcDbBlockReference
  2
980057503__25
 10
428.499999999
 20
-1633.9999999996
 30
0.0
  0
INSERT
  5
F9
330
F4
100
AcDbEntity
  8
0
100
AcDbBlockReference
  2
995907500_1__26
 10
358.999999999
 20
-1629.9999999996
 30
0.0
  0
INSERT
  5
FA
330
F4
100
AcDbEntity
  8
0
100
AcDbBlockReference
  2
995907500_3__27
 10
27.9999999989999
 20
-1629.9999999996
 30
0.0
  0
INSERT
  5
FB
330
F4
100
AcDbEntity
  8
0
100
AcDbBlockReference
  2
980057503_1__28
 10
-21.50000000099999
 20
-1633.9999999996
 30
0.0
  0
INSERT
  5
FC
330
F4
100
AcDbEntity
  8
0
100
AcDbBlockReference
  2
390997584__29
 10
10.99999999900001
 20
-1634.4999999996
 30
0.0
  0
INSERT
  5
FD
330
F4
100
AcDbEntity
  8
0
100
AcDbBlockReference
  2
976007501_1__30
 10
-21.50000000100027
 20
-1633.9999999996
 30
0.0
  0
INSERT
  5
FE
330
F4
100
AcDbEntity
  8
0
100
AcDbBlockReference
  2
368027496__31
 10
-21.50000000100027
 20
-1629.9999999996
 30
0.0
  0
INSERT
  5
FF
330
F4
100
AcDbEntity
  8
0
100
AcDbBlockReference
  2
368027496_1__32
 10
428.4999999989997
 20
-1629.9999999996
 30
0.0
  0
INSERT
  5
100
330
F4
100
AcDbEntity
  8
0
100
AcDbBlockReference
  2
976007501__33
 10
428.4999999989997
 20
-1633.9999999996
 30
0.0
  0
ENDBLK
  5
102
330
F4
100
AcDbEntity
  8
0
100
AcDbBlockEnd
  0
BLOCK
  5
105
330
103
100
AcDbEntity
  8
0
100
AcDbBlockBegin
  2
HL6600_2-WEB-Zeichnung__35
 70
     0
 10
-21.50000000100027
 20
-1634.4999999996
 30
0.0
  3
HL6600_2-WEB-Zeichnung__35
  1

  0
INSERT
  5
104
330
103
100
AcDbEntity
  8
0
100
AcDbBlockReference
  2
539588H_2018-10-05__34
 10
-21.50000000100027
 20
-1634.4999999996
 30
0.0
  0
ENDBLK
  5
106
330
103
100
AcDbEntity
  8
0
100
AcDbBlockEnd
  0
BLOCK
  5
109
330
107
100
AcDbEntity
  8
0
100
AcDbBlockBegin
  2
Vordans1
 70
     0
 10
428.4999999995002
 20
-1586.9999999998
 30
0.0
  3
Vordans1
  1

  0
INSERT
  5
108
330
107
100
AcDbEntity
  8
0
100
AcDbBlockReference
  2
HL6600_2-WEB-Zeichnung__35
 10
-21.50000000100027
 20
-1634.4999999996
 30
0.0
  0
MTEXT
  5
446
330
107
100
AcDbEntity
  8
1
 62
     1
100
AcDbMText
 10
428.4999999995
 20
-1639.4999999998
 30
0.0
 40
3.5
 41
0.0
 71
     2
 72
     1
  1
 
  7
CONVERTER_11
 73
     1
 44
1.32052821128451
  0
DIMENSION
  5
453
330
107
100
AcDbEntity
  8
1
100
AcDbDimension
  2
*D43
 10
-70.83215241800207
 20
-1633.9999999996
 30
0.0
 11
-98.10578425879808
 21
-1474.41011253058
 31
0.0
 70
    32
  1
<>
 71
     5
 42
-1.0
 53
90.0
  3
ME10_DIM_14
100
AcDbAlignedDimension
 13
10.49999999900001
 23
-1564.9999999996
 33
0.0
 14
-21.50000000099999
 24
-1633.9999999996
 34
0.0
 50
90.0
100
AcDbRotatedDimension
  0
DIMENSION
  5
460
330
107
100
AcDbEntity
  8
1
100
AcDbDimension
  2
*D44
 10
-140.7117219167818
 20
-1539.4999999996
 30
0.0
 11
-171.7166970411599
 21
-1439.94815486462
 31
0.0
 70
    32
  1
<>
 71
     5
 42
-1.0
 53
90.0
  3
ME10_DIM_15
100
AcDbAlignedDimension
 13
-21.50000000099999
 23
-1633.9999999996
 33
0.0
 14
-21.50000000099999
 24
-1539.4999999996
 34
0.0
 50
90.0
100
AcDbRotatedDimension
  0
DIMENSION
  5
46B
330
107
100
AcDbEntity
  8
1
100
AcDbDimension
  2
*D45
 10
-21.50000000099988
 20
-1438.72901754368
 30
0.0
 11
396.1677589765811
 21
-1411.455385702884
 31
0.0
 70
    32
  1
<>
 71
     5
 42
-1.0
 53
0.00013888888889
  3
ME10_DIM_16
100
AcDbAlignedDimension
 13
878.499999999
 23
-1539.4999999996
 33
0.0
 14
-21.50000000099999
 24
-1539.4999999996
 34
0.0
100
AcDbRotatedDimension
  0
DIMENSION
  5
478
330
107
100
AcDbEntity
  8
1
100
AcDbDimension
  2
*D46
 10
958.383735768793
 20
-1593.9999999996
 30
0.0
 11
931.110103927997
 21
-1511.85452330782
 31
0.0
 70
    32
  1
<>
 71
     5
 42
-1.0
 53
90.0
  3
ME10_DIM_17
100
AcDbAlignedDimension
 13
878.499999999
 23
-1633.9999999996
 33
0.0
 14
874.499999999
 24
-1593.9999999996
 34
0.0
 50
90.0
100
AcDbRotatedDimension
  0
DIMENSION
  5
483
330
107
100
AcDbEntity
  8
1
100
AcDbDimension
  2
*D47
 10
203.499999999
 20
-1726.09340984764
 30
0.0
 11
426.8574322365032
 21
-1698.819778006844
 31
0.0
 70
    32
  1
<>
 71
     5
 42
-1.0
 53
0.00013888888889
  3
ME10_DIM_18
100
AcDbAlignedDimension
 13
653.499999999
 23
-1593.9999999996
 33
0.0
 14
203.499999999
 24
-1593.9999999996
 34
0.0
100
AcDbRotatedDimension
  0
ENDBLK
  5
10A
330
107
100
AcDbEntity
  8
0
100
AcDbBlockEnd
  0
BLOCK
  5
26C
330
264
100
AcDbEntity
  8
0
100
AcDbBlockBegin
  2
*D39
 70
     1
 10
0.0
 20
0.0
 30
0.0
  3
*D39
  1

  0
LINE
  5
265
330
264
100
AcDbEntity
  8
1
  6
Continuous
 62
     4
100
AcDbLine
 10
846.4999999990002
 20
-1843.55426458994
 30
0.0
 11
10.49999999900024
 21
-1843.55426458994
 31
0.0
  0
LINE
  5
266
330
264
100
AcDbEntity
  8
1
  6
Continuous
 62
     4
100
AcDbLine
 10
846.4999999990002
 20
-1910.999999997504
 30
0.0
 11
846.4999999990002
 21
-1841.55426458994
 31
0.0
  0
LINE
  5
267
330
264
100
AcDbEntity
  8
1
  6
Continuous
 62
     4
100
AcDbLine
 10
10.49999999900024
 20
-1910.999999997504
 30
0.0
 11
10.49999999900024
 21
-1841.55426458994
 31
0.0
  0
SOLID
  5
268
330
264
100
AcDbEntity
  8
1
 62
     4
100
AcDbTrace
 10
796.4999999990002
 20
-1850.13688946931
 30
0.0
 11
796.4999999990002
 21
-1836.97163971057
 31
0.0
 12
846.4999999990002
 22
-1843.55426458994
 32
0.0
 13
846.4999999990002
 23
-1843.55426458994
 33
0.0
  0
SOLID
  5
269
330
264
100
AcDbEntity
  8
1
 62
     4
100
AcDbTrace
 10
60.49999999900024
 20
-1836.97163971057
 30
0.0
 11
60.49999999900024
 21
-1850.13688946931
 31
0.0
 12
10.49999999900024
 22
-1843.55426458994
 32
0.0
 13
10.49999999900024
 23
-1843.55426458994
 33
0.0
  0
MTEXT
  5
26B
330
264
100
AcDbEntity
  8
1
 62
     1
100
AcDbMText
 10
387.1211402126812
 20
-1836.056752152129
 30
0.0
 40
50.0
 41
0.0
 71
     7
 72
     1
  1
836
  7
CONVERTER_12
 11
0.9999999999970619
 21
2.424068405545306E-6
 31
0.0
 73
     1
 44
0.60024009603842
  0
ENDBLK
  5
26D
330
264
100
AcDbEntity
  8
0
100
AcDbBlockEnd
  0
BLOCK
  5
277
330
270
100
AcDbEntity
  8
0
100
AcDbBlockBegin
  2
*D40
 70
     1
 10
0.0
 20
0.0
 30
0.0
  3
*D40
  1

  0
LINE
  5
271
330
270
100
AcDbEntity
  8
1
  6
Continuous
 62
     4
100
AcDbLine
 10
-82.3389721897423
 20
-1906.999999997504
 30
0.0
 11
-82.3389721897423
 21
-2103.999999997504
 31
0.0
  0
LINE
  5
272
330
270
100
AcDbEntity
  8
1
  6
Continuous
 62
     4
100
AcDbLine
 10
10.9999999990002
 20
-1906.999999997504
 30
0.0
 11
-84.3389721897423
 21
-1906.999999997504
 31
0.0
  0
LINE
  5
273
330
270
100
AcDbEntity
  8
1
  6
Continuous
 62
     4
100
AcDbLine
 10
18.4999999990002
 20
-2103.999999997504
 30
0.0
 11
-84.3389721897423
 21
-2103.999999997504
 31
0.0
  0
SOLID
  5
274
330
270
100
AcDbEntity
  8
1
 62
     4
100
AcDbTrace
 10
-75.75634731037252
 20
-1956.999999997504
 30
0.0
 11
-88.92159706911208
 21
-1956.999999997504
 31
0.0
 12
-82.3389721897423
 22
-1906.999999997504
 32
0.0
 13
-82.3389721897423
 23
-1906.999999997504
 33
0.0
  0
SOLID
  5
275
330
270
100
AcDbEntity
  8
1
 62
     4
100
AcDbTrace
 10
-88.92159706911208
 20
-2053.999999997504
 30
0.0
 11
-75.75634731037249
 21
-2053.999999997504
 31
0.0
 12
-82.3389721897423
 22
-2103.999999997504
 32
0.0
 13
-82.3389721897423
 23
-2103.999999997504
 33
0.0
  0
MTEXT
  5
276
330
270
100
AcDbEntity
  8
1
 62
     1
100
AcDbMText
 10
-97.29917119471742
 20
-2061.28938329361
 30
0.0
 40
50.0
 41
0.0
 71
     7
 72
     1
  1
196,5
  7
CONVERTER_12
 11
0.0
 21
1.0
 31
0.0
 73
     1
 44
0.60024009603842
  0
ENDBLK
  5
278
330
270
100
AcDbEntity
  8
0
100
AcDbBlockEnd
  0
BLOCK
  5
282
330
27B
100
AcDbEntity
  8
0
100
AcDbBlockBegin
  2
*D41
 70
     1
 10
0.0
 20
0.0
 30
0.0
  3
*D41
  1

  0
LINE
  5
27C
330
27B
100
AcDbEntity
  8
1
  6
Continuous
 62
     4
100
AcDbLine
 10
18.49999999900001
 20
-2193.056926508521
 30
0.0
 11
838.4999999990002
 21
-2193.056926508521
 31
0.0
  0
LINE
  5
27D
330
27B
100
AcDbEntity
  8
1
  6
Continuous
 62
     4
100
AcDbLine
 10
18.49999999900001
 20
-2099.999999997505
 30
0.0
 11
18.49999999900001
 21
-2195.056926508521
 31
0.0
  0
LINE
  5
27E
330
27B
100
AcDbEntity
  8
1
  6
Continuous
 62
     4
100
AcDbLine
 10
838.4999999990002
 20
-2099.999999997505
 30
0.0
 11
838.4999999990002
 21
-2195.056926508521
 31
0.0
  0
SOLID
  5
27F
330
27B
100
AcDbEntity
  8
1
 62
     4
100
AcDbTrace
 10
68.49999999900001
 20
-2186.474301629151
 30
0.0
 11
68.49999999900001
 21
-2199.639551387891
 31
0.0
 12
18.49999999900001
 22
-2193.056926508521
 32
0.0
 13
18.49999999900001
 23
-2193.056926508521
 33
0.0
  0
SOLID
  5
280
330
27B
100
AcDbEntity
  8
1
 62
     4
100
AcDbTrace
 10
788.4999999990002
 20
-2199.639551387891
 30
0.0
 11
788.4999999990002
 21
-2186.474301629151
 31
0.0
 12
838.4999999990002
 22
-2193.056926508521
 32
0.0
 13
838.4999999990002
 23
-2193.056926508521
 33
0.0
  0
MTEXT
  5
281
330
27B
100
AcDbEntity
  8
1
 62
     1
100
AcDbMText
 10
388.6530660375972
 20
-2185.55941407071
 30
0.0
 40
50.0
 41
0.0
 71
     7
 72
     1
  1
820
  7
CONVERTER_12
 11
0.9999999999970619
 21
2.424068405545306E-6
 31
0.0
 73
     1
 44
0.60024009603842
  0
ENDBLK
  5
283
330
27B
100
AcDbEntity
  8
0
100
AcDbBlockEnd
  0
BLOCK
  5
310
330
307
100
AcDbEntity
  8
0
100
AcDbBlockBegin
  2
*D42
 70
     1
 10
0.0
 20
0.0
 30
0.0
  3
*D42
  1

  0
LINE
  5
308
330
307
100
AcDbEntity
  8
1
  6
Continuous
 62
     4
100
AcDbLine
 10
1143.133713350471
 20
-1486.48278828565
 30
0.0
 11
1143.133713350471
 21
-1604.9999999996
 31
0.0
  0
LINE
  5
309
330
307
100
AcDbEntity
  8
1
  6
Continuous
 62
     4
100
AcDbLine
 10
1143.133713350471
 20
-1604.9999999996
 30
0.0
 11
1143.133713350471
 21
-1633.9999999996
 31
0.0
  0
LINE
  5
30A
330
307
100
AcDbEntity
  8
1
  6
Continuous
 62
     4
100
AcDbLine
 10
1143.133713350471
 20
-1633.9999999996
 30
0.0
 11
1143.133713350471
 21
-1733.9999999996
 31
0.0
  0
LINE
  5
30B
330
307
100
AcDbEntity
  8
1
  6
Continuous
 62
     4
100
AcDbLine
 10
1168.499999997509
 20
-1604.9999999996
 30
0.0
 11
1141.133713350471
 21
-1604.9999999996
 31
0.0
  0
LINE
  5
30C
330
307
100
AcDbEntity
  8
1
  6
Continuous
 62
     4
100
AcDbLine
 10
1138.499999997509
 20
-1633.9999999996
 30
0.0
 11
1145.133713350471
 21
-1633.9999999996
 31
0.0
  0
SOLID
  5
30D
330
307
100
AcDbEntity
  8
1
 62
     4
100
AcDbTrace
 10
1136.551088471101
 20
-1554.9999999996
 30
0.0
 11
1149.716338229841
 21
-1554.9999999996
 31
0.0
 12
1143.133713350471
 22
-1604.9999999996
 32
0.0
 13
1143.133713350471
 23
-1604.9999999996
 33
0.0
  0
SOLID
  5
30E
330
307
100
AcDbEntity
  8
1
 62
     4
100
AcDbTrace
 10
1149.716338229841
 20
-1683.9999999996
 30
0.0
 11
1136.551088471101
 21
-1683.9999999996
 31
0.0
 12
1143.133713350471
 22
-1633.9999999996
 32
0.0
 13
1143.133713350471
 23
-1633.9999999996
 33
0.0
  0
MTEXT
  5
30F
330
307
100
AcDbEntity
  8
1
 62
     1
100
AcDbMText
 10
1135.63620091266
 20
-1536.48278828565
 30
0.0
 40
50.0
 41
0.0
 71
     7
 72
     1
  1
29
  7
CONVERTER_12
 11
0.0
 21
1.0
 31
0.0
 73
     1
 44
0.60024009603842
  0
ENDBLK
  5
311
330
307
100
AcDbEntity
  8
0
100
AcDbBlockEnd
  0
BLOCK
  5
450
330
447
100
AcDbEntity
  8
0
100
AcDbBlockBegin
  2
*D43
 70
     1
 10
0.0
 20
0.0
 30
0.0
  3
*D43
  1

  0
LINE
  5
448
330
447
100
AcDbEntity
  8
1
  6
Continuous
 62
     4
100
AcDbLine
 10
-70.83215241800207
 20
-1733.9999999996
 30
0.0
 11
-70.83215241800207
 21
-1633.9999999996
 31
0.0
  0
LINE
  5
449
330
447
100
AcDbEntity
  8
1
  6
Continuous
 62
     4
100
AcDbLine
 10
-70.83215241800207
 20
-1633.9999999996
 30
0.0
 11
-70.83215241800207
 21
-1564.9999999996
 31
0.0
  0
LINE
  5
44A
330
447
100
AcDbEntity
  8
1
  6
Continuous
 62
     4
100
AcDbLine
 10
-70.83215241800207
 20
-1564.9999999996
 30
0.0
 11
-70.83215241800207
 21
-1449.41011253058
 31
0.0
  0
LINE
  5
44B
330
447
100
AcDbEntity
  8
1
  6
Continuous
 62
     4
100
AcDbLine
 10
-21.50000000099999
 20
-1633.9999999996
 30
0.0
 11
-72.83215241800207
 21
-1633.9999999996
 31
0.0
  0
LINE
  5
44C
330
447
100
AcDbEntity
  8
1
  6
Continuous
 62
     4
100
AcDbLine
 10
10.49999999900002
 20
-1564.9999999996
 30
0.0
 11
-72.83215241800207
 21
-1564.9999999996
 31
0.0
  0
SOLID
  5
44D
330
447
100
AcDbEntity
  8
1
 62
     4
100
AcDbTrace
 10
-64.2495275386323
 20
-1683.9999999996
 30
0.0
 11
-77.41477729737186
 21
-1683.9999999996
 31
0.0
 12
-70.83215241800207
 22
-1633.9999999996
 32
0.0
 13
-70.83215241800207
 23
-1633.9999999996
 33
0.0
  0
SOLID
  5
44E
330
447
100
AcDbEntity
  8
1
 62
     4
100
AcDbTrace
 10
-77.41477729737186
 20
-1514.9999999996
 30
0.0
 11
-64.24952753863226
 21
-1514.9999999996
 31
0.0
 12
-70.83215241800207
 22
-1564.9999999996
 32
0.0
 13
-70.83215241800207
 23
-1564.9999999996
 33
0.0
  0
MTEXT
  5
44F
330
447
100
AcDbEntity
  8
1
 62
     1
100
AcDbMText
 10
-78.32966485581301
 20
-1499.41011253058
 30
0.0
 40
50.0
 41
0.0
 71
     7
 72
     1
  1
69
  7
CONVERTER_12
 11
0.0
 21
1.0
 31
0.0
 73
     1
 44
0.60024009603842
  0
ENDBLK
  5
451
330
447
100
AcDbEntity
  8
0
100
AcDbBlockEnd
  0
BLOCK
  5
45D
330
454
100
AcDbEntity
  8
0
100
AcDbBlockBegin
  2
*D44
 70
     1
 10
0.0
 20
0.0
 30
0.0
  3
*D44
  1

  0
LINE
  5
455
330
454
100
AcDbEntity
  8
1
  6
Continuous
 62
     4
100
AcDbLine
 10
-140.7117219167818
 20
-1395.24815486462
 30
0.0
 11
-140.7117219167818
 21
-1539.4999999996
 31
0.0
  0
LINE
  5
456
330
454
100
AcDbEntity
  8
1
  6
Continuous
 62
     4
100
AcDbLine
 10
-140.7117219167818
 20
-1539.4999999996
 30
0.0
 11
-140.7117219167818
 21
-1633.9999999996
 31
0.0
  0
LINE
  5
457
330
454
100
AcDbEntity
  8
1
  6
Continuous
 62
     4
100
AcDbLine
 10
-140.7117219167818
 20
-1633.9999999996
 30
0.0
 11
-140.7117219167818
 21
-1733.9999999996
 31
0.0
  0
LINE
  5
458
330
454
100
AcDbEntity
  8
1
  6
Continuous
 62
     4
100
AcDbLine
 10
-21.50000000100002
 20
-1539.4999999996
 30
0.0
 11
-142.7117219167818
 21
-1539.4999999996
 31
0.0
  0
LINE
  5
459
330
454
100
AcDbEntity
  8
1
  6
Continuous
 62
     4
100
AcDbLine
 10
-21.50000000100002
 20
-1633.9999999996
 30
0.0
 11
-142.7117219167818
 21
-1633.9999999996
 31
0.0
  0
SOLID
  5
45A
330
454
100
AcDbEntity
  8
1
 62
     4
100
AcDbTrace
 10
-147.2943467961516
 20
-1489.4999999996
 30
0.0
 11
-134.129097037412
 21
-1489.4999999996
 31
0.0
 12
-140.7117219167818
 22
-1539.4999999996
 32
0.0
 13
-140.7117219167818
 23
-1539.4999999996
 33
0.0
  0
SOLID
  5
45B
330
454
100
AcDbEntity
  8
1
 62
     4
100
AcDbTrace
 10
-134.129097037412
 20
-1683.9999999996
 30
0.0
 11
-147.2943467961516
 21
-1683.9999999996
 31
0.0
 12
-140.7117219167818
 22
-1633.9999999996
 32
0.0
 13
-140.7117219167818
 23
-1633.9999999996
 33
0.0
  0
MTEXT
  5
45C
330
454
100
AcDbEntity
  8
1
 62
     1
100
AcDbMText
 10
-155.6719209217569
 20
-1484.64815486462
 30
0.0
 40
50.0
 41
0.0
 71
     7
 72
     1
  1
94,5
  7
CONVERTER_12
 11
0.0
 21
1.0
 31
0.0
 73
     1
 44
0.60024009603842
  0
ENDBLK
  5
45E
330
454
100
AcDbEntity
  8
0
100
AcDbBlockEnd
  0
BLOCK
  5
468
330
461
100
AcDbEntity
  8
0
100
AcDbBlockBegin
  2
*D45
 70
     1
 10
0.0
 20
0.0
 30
0.0
  3
*D45
  1

  0
LINE
  5
462
330
461
100
AcDbEntity
  8
1
  6
Continuous
 62
     4
100
AcDbLine
 10
-21.50000000099988
 20
-1438.72901754368
 30
0.0
 11
878.499999999
 21
-1438.72901754368
 31
0.0
  0
LINE
  5
463
330
461
100
AcDbEntity
  8
1
  6
Continuous
 62
     4
100
AcDbLine
 10
-21.50000000099999
 20
-1539.4999999996
 30
0.0
 11
-21.50000000099999
 21
-1436.72901754368
 31
0.0
  0
LINE
  5
464
330
461
100
AcDbEntity
  8
1
  6
Continuous
 62
     4
100
AcDbLine
 10
878.499999999
 20
-1539.4999999996
 30
0.0
 11
878.499999999
 21
-1436.72901754368
 31
0.0
  0
SOLID
  5
465
330
461
100
AcDbEntity
  8
1
 62
     4
100
AcDbTrace
 10
28.49999999900012
 20
-1432.14639266431
 30
0.0
 11
28.49999999900012
 21
-1445.31164242305
 31
0.0
 12
-21.50000000099988
 22
-1438.72901754368
 32
0.0
 13
-21.50000000099988
 23
-1438.72901754368
 33
0.0
  0
SOLID
  5
466
330
461
100
AcDbEntity
  8
1
 62
     4
100
AcDbTrace
 10
828.499999999
 20
-1445.31164242305
 30
0.0
 11
828.499999999
 21
-1432.14639266431
 31
0.0
 12
878.499999999
 22
-1438.72901754368
 32
0.0
 13
878.499999999
 23
-1438.72901754368
 33
0.0
  0
MTEXT
  5
467
330
461
100
AcDbEntity
  8
1
 62
     1
100
AcDbMText
 10
358.1677589765811
 20
-1431.231505105869
 30
0.0
 40
50.0
 41
0.0
 71
     7
 72
     1
  1
900
  7
CONVERTER_12
 11
0.9999999999970619
 21
2.424068405545306E-6
 31
0.0
 73
     1
 44
0.60024009603842
  0
ENDBLK
  5
469
330
461
100
AcDbEntity
  8
0
100
AcDbBlockEnd
  0
BLOCK
  5
475
330
46C
100
AcDbEntity
  8
0
100
AcDbBlockBegin
  2
*D46
 70
     1
 10
0.0
 20
0.0
 30
0.0
  3
*D46
  1

  0
LINE
  5
46D
330
46C
100
AcDbEntity
  8
1
  6
Continuous
 62
     4
100
AcDbLine
 10
958.383735768793
 20
-1486.85452330782
 30
0.0
 11
958.383735768793
 21
-1593.9999999996
 31
0.0
  0
LINE
  5
46E
330
46C
100
AcDbEntity
  8
1
  6
Continuous
 62
     4
100
AcDbLine
 10
958.383735768793
 20
-1593.9999999996
 30
0.0
 11
958.383735768793
 21
-1633.9999999996
 31
0.0
  0
LINE
  5
46F
330
46C
100
AcDbEntity
  8
1
  6
Continuous
 62
     4
100
AcDbLine
 10
958.383735768793
 20
-1633.9999999996
 30
0.0
 11
958.383735768793
 21
-1733.9999999996
 31
0.0
  0
LINE
  5
470
330
46C
100
AcDbEntity
  8
1
  6
Continuous
 62
     4
100
AcDbLine
 10
874.499999999
 20
-1593.9999999996
 30
0.0
 11
960.383735768793
 21
-1593.9999999996
 31
0.0
  0
LINE
  5
471
330
46C
100
AcDbEntity
  8
1
  6
Continuous
 62
     4
100
AcDbLine
 10
878.499999999
 20
-1633.9999999996
 30
0.0
 11
960.383735768793
 21
-1633.9999999996
 31
0.0
  0
SOLID
  5
472
330
46C
100
AcDbEntity
  8
1
 62
     4
100
AcDbTrace
 10
951.8011108894233
 20
-1543.9999999996
 30
0.0
 11
964.9663606481628
 21
-1543.9999999996
 31
0.0
 12
958.383735768793
 22
-1593.9999999996
 32
0.0
 13
958.383735768793
 23
-1593.9999999996
 33
0.0
  0
SOLID
  5
473
330
46C
100
AcDbEntity
  8
1
 62
     4
100
AcDbTrace
 10
964.9663606481628
 20
-1683.9999999996
 30
0.0
 11
951.8011108894233
 21
-1683.9999999996
 31
0.0
 12
958.383735768793
 22
-1633.9999999996
 32
0.0
 13
958.383735768793
 23
-1633.9999999996
 33
0.0
  0
MTEXT
  5
474
330
46C
100
AcDbEntity
  8
1
 62
     1
100
AcDbMText
 10
950.886223330982
 20
-1536.85452330782
 30
0.0
 40
50.0
 41
0.0
 71
     7
 72
     1
  1
40
  7
CONVERTER_12
 11
0.0
 21
1.0
 31
0.0
 73
     1
 44
0.60024009603842
  0
ENDBLK
  5
476
330
46C
100
AcDbEntity
  8
0
100
AcDbBlockEnd
  0
BLOCK
  5
480
330
479
100
AcDbEntity
  8
0
100
AcDbBlockBegin
  2
*D47
 70
     1
 10
0.0
 20
0.0
 30
0.0
  3
*D47
  1

  0
LINE
  5
47A
330
479
100
AcDbEntity
  8
1
  6
Continuous
 62
     4
100
AcDbLine
 10
203.499999999
 20
-1726.09340984764
 30
0.0
 11
653.499999999
 21
-1726.09340984764
 31
0.0
  0
LINE
  5
47B
330
479
100
AcDbEntity
  8
1
  6
Continuous
 62
     4
100
AcDbLine
 10
203.499999999
 20
-1593.9999999996
 30
0.0
 11
203.499999999
 21
-1728.09340984764
 31
0.0
  0
LINE
  5
47C
330
479
100
AcDbEntity
  8
1
  6
Continuous
 62
     4
100
AcDbLine
 10
653.499999999
 20
-1593.9999999996
 30
0.0
 11
653.499999999
 21
-1728.09340984764
 31
0.0
  0
SOLID
  5
47D
330
479
100
AcDbEntity
  8
1
 62
     4
100
AcDbTrace
 10
253.499999999
 20
-1719.51078496827
 30
0.0
 11
253.499999999
 21
-1732.67603472701
 31
0.0
 12
203.499999999
 22
-1726.09340984764
 32
0.0
 13
203.499999999
 23
-1726.09340984764
 33
0.0
  0
SOLID
  5
47E
330
479
100
AcDbEntity
  8
1
 62
     4
100
AcDbTrace
 10
603.499999999
 20
-1732.67603472701
 30
0.0
 11
603.499999999
 21
-1719.51078496827
 31
0.0
 12
653.499999999
 22
-1726.09340984764
 32
0.0
 13
653.499999999
 23
-1726.09340984764
 33
0.0
  0
MTEXT
  5
47F
330
479
100
AcDbEntity
  8
1
 62
     1
100
AcDbMText
 10
388.8574322365032
 20
-1718.595897409829
 30
0.0
 40
50.0
 41
0.0
 71
     7
 72
     1
  1
450
  7
CONVERTER_12
 11
0.9999999999970619
 21
2.424068405545306E-6
 31
0.0
 73
     1
 44
0.60024009603842
  0
ENDBLK
  5
481
330
479
100
AcDbEntity
  8
0
100
AcDbBlockEnd
  0
ENDSEC
  0
SECTION
  2
ENTITIES
  0
INSERT
  5
10B
330
1F
100
AcDbEntity
  8
0
100
AcDbBlockReference
  2
Drfsicht1
 10
428.4999999995004
 20
-2005.49999999875
 30
0.0
  0
INSERT
  5
10C
330
1F
100
AcDbEntity
  8
0
100
AcDbBlockReference
  2
SA_Links1
 10
1176.999999998754
 20
-1586.9999999998
 30
0.0
  0
INSERT
  5
10D
330
1F
100
AcDbEntity
  8
0
100
AcDbBlockReference
  2
Vordans1
 10
428.4999999995002
 20
-1586.9999999998
 30
0.0
  0
ENDSEC
  0
SECTION
  2
OBJECTS
  0
DICTIONARY
  5
C
330
0
100
AcDbDictionary
281
     1
  3
ACAD_GROUP
350
D
  3
ACAD_LAYOUT
350
1A
  3
ACAD_MATERIAL
350
43
  3
ACAD_MLEADERSTYLE
350
6B
  3
ACAD_MLINESTYLE
350
17
  3
ACAD_PLOTSETTINGS
350
19
  3
ACAD_PLOTSTYLENAME
350
E
  3
ACAD_SCALELIST
350
47
  3
ACAD_TABLESTYLE
350
69
  3
ACAD_VISUALSTYLE
350
2A
  3
AcDbVariableDictionary
350
484
  0
DICTIONARY
  5
48B
330
8
100
AcDbDictionary
280
     1
281
     1
  3
ACAD_XREC_ROUNDTRIP
360
48C
  0
DICTIONARY
  5
D
102
{ACAD_REACTORS
330
C
102
}
330
C
100
AcDbDictionary
281
     1
  0
DICTIONARY
  5
1A
102
{ACAD_REACTORS
330
C
102
}
330
C
100
AcDbDictionary
281
     1
  3
Layout1
350
1E
  3
Layout2
350
26
  3
Model
350
22
  0
DICTIONARY
  5
43
102
{ACAD_REACTORS
330
C
102
}
330
C
100
AcDbDictionary
281
     1
  3
ByBlock
350
45
  3
ByLayer
350
44
  3
Global
350
46
  0
DICTIONARY
  5
6B
102
{ACAD_REACTORS
330
C
102
}
330
C
100
AcDbDictionary
281
     1
  3
Standard
350
6C
  0
DICTIONARY
  5
17
102
{ACAD_REACTORS
330
C
102
}
330
C
100
AcDbDictionary
281
     1
  3
Standard
350
18
  0
DICTIONARY
  5
19
102
{ACAD_REACTORS
330
C
102
}
330
C
100
AcDbDictionary
281
     1
  0
ACDBDICTIONARYWDFLT
  5
E
102
{ACAD_REACTORS
330
C
102
}
330
C
100
AcDbDictionary
281
     1
  3
Normal
350
F
100
AcDbDictionaryWithDefault
340
F
  0
DICTIONARY
  5
47
102
{ACAD_REACTORS
330
C
102
}
330
C
100
AcDbDictionary
281
     1
  3
A0
350
48
  3
A1
350
49
  3
A2
350
4A
  3
A3
350
4B
  3
A4
350
4C
  3
A5
350
4D
  3
A6
350
4E
  3
A7
350
4F
  3
A8
350
50
  3
A9
350
51
  3
B0
350
52
  3
B1
350
53
  3
B2
350
54
  3
B3
350
55
  3
B4
350
56
  3
B5
350
57
  3
B6
350
58
  3
B7
350
59
  3
B8
350
5A
  3
B9
350
5B
  3
C0
350
5C
  3
C1
350
5D
  3
C2
350
5E
  3
C3
350
5F
  3
C4
350
60
  3
C5
350
61
  3
C6
350
62
  3
C7
350
63
  3
C8
350
64
  3
C9
350
65
  3
D0
350
66
  3
D1
350
67
  3
D2
350
68
  0
DICTIONARY
  5
69
102
{ACAD_REACTORS
330
C
102
}
330
C
100
AcDbDictionary
281
     1
  3
Standard
350
6A
  0
DICTIONARY
  5
2A
102
{ACAD_REACTORS
330
C
102
}
330
C
100
AcDbDictionary
281
     1
  3
2dWireframe
350
2F
  3
Basic
350
32
  3
Brighten
350
36
  3
ColorChange
350
3A
  3
Conceptual
350
34
  3
Dim
350
35
  3
EdgeColorOff
350
3D
  3
Facepattern
350
39
  3
Flat
350
2B
  3
FlatWithEdges
350
2C
  3
Gouraud
350
2D
  3
GouraudWithEdges
350
2E
  3
Hidden
350
31
  3
JitterOff
350
3B
  3
Linepattern
350
38
  3
OverhangOff
350
3C
  3
Realistic
350
33
  3
Shaded
350
42
  3
Shaded with edges
350
41
  3
Shades of Gray
350
3E
  3
Sketchy
350
3F
  3
Thicken
350
37
  3
Wireframe
350
30
  3
X-Ray
350
40
  0
DICTIONARY
  5
484
102
{ACAD_REACTORS
330
C
102
}
330
C
100
AcDbDictionary
281
     1
  3
CANNOSCALE
350
48D
  3
CMLEADERSTYLE
350
486
  3
CTABLESTYLE
350
485
  3
DIMASSOC
350
489
  3
HIDETEXT
350
48A
  3
MSLTSCALE
350
48E
  0
XRECORD
  5
48C
102
{ACAD_REACTORS
330
48B
102
}
330
48B
100
AcDbXrecord
280
     1
102
VTR_0.000_0.000_1.000_1.000_GRIDDISPLAY
 70
     3
102
VTR_0.000_0.000_1.000_1.000_GRIDMAJOR
 70
     5
102
VTR_0.000_0.000_1.000_1.000_DEFAULTLIGHTING
280
     1
102
VTR_0.000_0.000_1.000_1.000_DEFAULTLIGHTINGTYPE
 70
     1
102
VTR_0.000_0.000_1.000_1.000_BRIGHTNESS
141
0.0
102
VTR_0.000_0.000_1.000_1.000_CONTRAST
142
0.0
  0
LAYOUT
  5
1E
102
{ACAD_REACTORS
330
1A
102
}
330
1A
100
AcDbPlotSettings
  1

  2
none_device
  4

  6

 40
0.0
 41
0.0
 42
0.0
 43
0.0
 44
0.0
 45
0.0
 46
0.0
 47
0.0
 48
0.0
 49
0.0
140
0.0
141
0.0
142
1.0
143
1.0
 70
   688
 72
     0
 73
     0
 74
     5
  7

 75
    16
147
1.0
148
0.0
149
0.0
100
AcDbLayout
  1
Layout1
 70
     1
 71
     1
 10
0.0
 20
0.0
 11
12.0
 21
9.0
 12
0.0
 22
0.0
 32
0.0
 14
1.00000000000000E+20
 24
1.00000000000000E+20
 34
1.00000000000000E+20
 15
-1.00000000000000E+20
 25
-1.00000000000000E+20
 35
-1.00000000000000E+20
146
0.0
 13
0.0
 23
0.0
 33
0.0
 16
1.0
 26
0.0
 36
0.0
 17
0.0
 27
1.0
 37
0.0
 76
     0
330
1B
  0
LAYOUT
  5
26
102
{ACAD_REACTORS
330
1A
102
}
330
1A
100
AcDbPlotSettings
  1

  2
none_device
  4

  6

 40
0.0
 41
0.0
 42
0.0
 43
0.0
 44
0.0
 45
0.0
 46
0.0
 47
0.0
 48
0.0
 49
0.0
140
0.0
141
0.0
142
1.0
143
1.0
 70
   688
 72
     0
 73
     0
 74
     5
  7

 75
    16
147
1.0
148
0.0
149
0.0
100
AcDbLayout
  1
Layout2
 70
     1
 71
     2
 10
0.0
 20
0.0
 11
0.0
 21
0.0
 12
0.0
 22
0.0
 32
0.0
 14
0.0
 24
0.0
 34
0.0
 15
0.0
 25
0.0
 35
0.0
146
0.0
 13
0.0
 23
0.0
 33
0.0
 16
1.0
 26
0.0
 36
0.0
 17
0.0
 27
1.0
 37
0.0
 76
     0
330
23
  0
LAYOUT
  5
22
102
{ACAD_REACTORS
330
1A
102
}
330
1A
100
AcDbPlotSettings
  1

  2
none_device
  4
Letter_(8.50_x_11.00_Inches)
  6

 40
6.35
 41
6.35
 42
6.35000508
 43
6.35000508
 44
215.9
 45
279.4
 46
0.0
 47
0.0
 48
0.0
 49
0.0
140
0.0
141
0.0
142
1.0
143
1.0
 70
  1712
 72
     0
 73
     0
 74
     0
  7

 75
     0
147
1.0
148
0.0
149
0.0
100
AcDbLayout
  1
Model
 70
     1
 71
     0
 10
0.0
 20
0.0
 11
12.0
 21
9.0
 12
0.0
 22
0.0
 32
0.0
 14
-195.721672165538
 24
-2199.639551387891
 34
0.0
 15
1275.499999997508
 25
-1391.181753862088
 35
0.0
146
0.0
 13
0.0
 23
0.0
 33
0.0
 16
1.0
 26
0.0
 36
0.0
 17
0.0
 27
1.0
 37
0.0
 76
     0
330
1F
331
29
  0
MATERIAL
  5
45
102
{ACAD_REACTORS
330
43
102
}
102
{ACAD_XDICTIONARY
360
4C1
102
}
330
43
100
AcDbMaterial
  1
ByBlock
  0
MATERIAL
  5
44
102
{ACAD_REACTORS
330
43
102
}
102
{ACAD_XDICTIONARY
360
4BF
102
}
330
43
100
AcDbMaterial
  1
ByLayer
  0
MATERIAL
  5
46
102
{ACAD_REACTORS
330
43
102
}
102
{ACAD_XDICTIONARY
360
4C3
102
}
330
43
100
AcDbMaterial
  1
Global
  0
MLEADERSTYLE
  5
6C
102
{ACAD_REACTORS
330
6B
102
}
102
{ACAD_XDICTIONARY
360
4C6
102
}
330
6B
100
AcDbMLeaderStyle
170
     2
171
     1
172
     0
 90
        2
 40
0.0
 41
0.0
173
     1
 91
-1056964608
340
14
 92
       -2
290
     1
 42
0.09
291
     1
 43
0.36
  3
Standard
341
0
 44
0.18
300

342
11
174
     1
178
     6
175
     1
176
     0
 93
-1056964608
 45
0.18
292
     0
297
     0
 46
0.18
343
0
 94
-1056964608
 47
1.0
 49
1.0
140
1.0
293
     1
141
0.0
294
     1
177
     0
142
1.0
295
     0
296
     0
143
0.125
1001
ACAD_MLEADERVER
1070
     2
  0
MLINESTYLE
  5
18
102
{ACAD_REACTORS
330
17
102
}
330
17
100
AcDbMlineStyle
  2
Standard
 70
     0
  3

 62
   256
 51
90.0
 52
90.0
 71
     2
 49
0.5
 62
   256
  6
BYLAYER
 49
-0.5
 62
   256
  6
BYLAYER
  0
ACDBPLACEHOLDER
  5
F
102
{ACAD_REACTORS
330
E
102
}
330
E
  0
SCALE
  5
48
102
{ACAD_REACTORS
330
47
102
}
330
47
100
AcDbScale
 70
     0
300
1:1
140
1.0
141
1.0
290
     1
  0
SCALE
  5
49
102
{ACAD_REACTORS
330
47
102
}
330
47
100
AcDbScale
 70
     0
300
1:2
140
1.0
141
2.0
290
     0
  0
SCALE
  5
4A
102
{ACAD_REACTORS
330
47
102
}
330
47
100
AcDbScale
 70
     0
300
1:4
140
1.0
141
4.0
290
     0
  0
SCALE
  5
4B
102
{ACAD_REACTORS
330
47
102
}
330
47
100
AcDbScale
 70
     0
300
1:5
140
1.0
141
5.0
290
     0
  0
SCALE
  5
4C
102
{ACAD_REACTORS
330
47
102
}
330
47
100
AcDbScale
 70
     0
300
1:8
140
1.0
141
8.0
290
     0
  0
SCALE
  5
4D
102
{ACAD_REACTORS
330
47
102
}
330
47
100
AcDbScale
 70
     0
300
1:10
140
1.0
141
10.0
290
     0
  0
SCALE
  5
4E
102
{ACAD_REACTORS
330
47
102
}
330
47
100
AcDbScale
 70
     0
300
1:16
140
1.0
141
16.0
290
     0
  0
SCALE
  5
4F
102
{ACAD_REACTORS
330
47
102
}
330
47
100
AcDbScale
 70
     0
300
1:20
140
1.0
141
20.0
290
     0
  0
SCALE
  5
50
102
{ACAD_REACTORS
330
47
102
}
330
47
100
AcDbScale
 70
     0
300
1:30
140
1.0
141
30.0
290
     0
  0
SCALE
  5
51
102
{ACAD_REACTORS
330
47
102
}
330
47
100
AcDbScale
 70
     0
300
1:40
140
1.0
141
40.0
290
     0
  0
SCALE
  5
52
102
{ACAD_REACTORS
330
47
102
}
330
47
100
AcDbScale
 70
     0
300
1:50
140
1.0
141
50.0
290
     0
  0
SCALE
  5
53
102
{ACAD_REACTORS
330
47
102
}
330
47
100
AcDbScale
 70
     0
300
1:100
140
1.0
141
100.0
290
     0
  0
SCALE
  5
54
102
{ACAD_REACTORS
330
47
102
}
330
47
100
AcDbScale
 70
     0
300
2:1
140
2.0
141
1.0
290
     0
  0
SCALE
  5
55
102
{ACAD_REACTORS
330
47
102
}
330
47
100
AcDbScale
 70
     0
300
4:1
140
4.0
141
1.0
290
     0
  0
SCALE
  5
56
102
{ACAD_REACTORS
330
47
102
}
330
47
100
AcDbScale
 70
     0
300
8:1
140
8.0
141
1.0
290
     0
  0
SCALE
  5
57
102
{ACAD_REACTORS
330
47
102
}
330
47
100
AcDbScale
 70
     0
300
10:1
140
10.0
141
1.0
290
     0
  0
SCALE
  5
58
102
{ACAD_REACTORS
330
47
102
}
330
47
100
AcDbScale
 70
     0
300
100:1
140
100.0
141
1.0
290
     0
  0
SCALE
  5
59
102
{ACAD_REACTORS
330
47
102
}
330
47
100
AcDbScale
 70
     0
300
1/128" = 1'-0"
140
0.0078125
141
12.0
290
     0
  0
SCALE
  5
5A
102
{ACAD_REACTORS
330
47
102
}
330
47
100
AcDbScale
 70
     0
300
1/64" = 1'-0"
140
0.015625
141
12.0
290
     0
  0
SCALE
  5
5B
102
{ACAD_REACTORS
330
47
102
}
330
47
100
AcDbScale
 70
     0
300
1/32" = 1'-0"
140
0.03125
141
12.0
290
     0
  0
SCALE
  5
5C
102
{ACAD_REACTORS
330
47
102
}
330
47
100
AcDbScale
 70
     0
300
1/16" = 1'-0"
140
0.0625
141
12.0
290
     0
  0
SCALE
  5
5D
102
{ACAD_REACTORS
330
47
102
}
330
47
100
AcDbScale
 70
     0
300
3/32" = 1'-0"
140
0.09375
141
12.0
290
     0
  0
SCALE
  5
5E
102
{ACAD_REACTORS
330
47
102
}
330
47
100
AcDbScale
 70
     0
300
1/8" = 1'-0"
140
0.125
141
12.0
290
     0
  0
SCALE
  5
5F
102
{ACAD_REACTORS
330
47
102
}
330
47
100
AcDbScale
 70
     0
300
3/16" = 1'-0"
140
0.1875
141
12.0
290
     0
  0
SCALE
  5
60
102
{ACAD_REACTORS
330
47
102
}
330
47
100
AcDbScale
 70
     0
300
1/4" = 1'-0"
140
0.25
141
12.0
290
     0
  0
SCALE
  5
61
102
{ACAD_REACTORS
330
47
102
}
330
47
100
AcDbScale
 70
     0
300
3/8" = 1'-0"
140
0.375
141
12.0
290
     0
  0
SCALE
  5
62
102
{ACAD_REACTORS
330
47
102
}
330
47
100
AcDbScale
 70
     0
300
1/2" = 1'-0"
140
0.5
141
12.0
290
     0
  0
SCALE
  5
63
102
{ACAD_REACTORS
330
47
102
}
330
47
100
AcDbScale
 70
     0
300
3/4" = 1'-0"
140
0.75
141
12.0
290
     0
  0
SCALE
  5
64
102
{ACAD_REACTORS
330
47
102
}
330
47
100
AcDbScale
 70
     0
300
1" = 1'-0"
140
1.0
141
12.0
290
     0
  0
SCALE
  5
65
102
{ACAD_REACTORS
330
47
102
}
330
47
100
AcDbScale
 70
     0
300
1-1/2" = 1'-0"
140
1.5
141
12.0
290
     0
  0
SCALE
  5
66
102
{ACAD_REACTORS
330
47
102
}
330
47
100
AcDbScale
 70
     0
300
3" = 1'-0"
140
3.0
141
12.0
290
     0
  0
SCALE
  5
67
102
{ACAD_REACTORS
330
47
102
}
330
47
100
AcDbScale
 70
     0
300
6" = 1'-0"
140
6.0
141
12.0
290
     0
  0
SCALE
  5
68
102
{ACAD_REACTORS
330
47
102
}
330
47
100
AcDbScale
 70
     0
300
1'-0" = 1'-0"
140
12.0
141
12.0
290
     0
  0
TABLESTYLE
  5
6A
102
{ACAD_REACTORS
330
69
102
}
330
69
100
AcDbTableStyle
  3
Standard
 70
     0
 71
     0
 40
0.06
 41
0.06
280
     0
281
     0
  7
Standard
140
0.18
170
     2
 62
     0
 63
   257
283
     0
274
    -2
284
     1
 64
     0
275
    -2
285
     1
 65
     0
276
    -2
286
     1
 66
     0
277
    -2
287
     1
 67
     0
278
    -2
288
     1
 68
     0
279
    -2
289
     1
 69
     0
  7
Standard
140
0.25
170
     5
 62
     0
 63
   257
283
     0
274
    -2
284
     1
 64
     0
275
    -2
285
     1
 65
     0
276
    -2
286
     1
 66
     0
277
    -2
287
     1
 67
     0
278
    -2
288
     1
 68
     0
279
    -2
289
     1
 69
     0
  7
Standard
140
0.18
170
     5
 62
     0
 63
   257
283
     0
274
    -2
284
     1
 64
     0
275
    -2
285
     1
 65
     0
276
    -2
286
     1
 66
     0
277
    -2
287
     1
 67
     0
278
    -2
288
     1
 68
     0
279
    -2
289
     1
 69
     0
  0
VISUALSTYLE
  5
2F
102
{ACAD_REACTORS
330
2A
102
}
102
{ACAD_XDICTIONARY
360
497
102
}
330
2A
100
AcDbVisualStyle
  2
2dWireframe
 70
     4
 71
     0
 72
     2
 73
     0
 90
        0
 40
0.6
 41
30.0
 62
     5
 63
     7
 74
     1
 91
        4
 64
     7
 65
   257
 75
     1
175
     1
 42
1.0
 92
        0
 66
   257
 43
1.0
 76
     1
 77
     6
 78
     2
 67
     7
 79
     5
170
     0
171
     0
290
     0
174
     0
 93
        1
 44
0.0
173
     0
291
     0
 45
0.0
1001
ACAD
1000
AcDbSavedByObjectVersion
1070
     0
  0
VISUALSTYLE
  5
32
102
{ACAD_REACTORS
330
2A
102
}
102
{ACAD_XDICTIONARY
360
49D
102
}
330
2A
100
AcDbVisualStyle
  2
Basic
 70
     7
 71
     1
 72
     0
 73
     1
 90
        0
 40
0.6
 41
30.0
 62
     5
 63
     7
 74
     0
 91
        4
 64
     7
 65
   257
 75
     1
175
     1
 42
1.0
 92
        8
 66
     7
 43
1.0
 76
     1
 77
     6
 78
     2
 67
     7
 79
     5
170
     0
171
     0
290
     0
174
     0
 93
        1
 44
0.0
173
     0
291
     1
 45
0.0
1001
ACAD
1000
AcDbSavedByObjectVersion
1070
     0
  0
VISUALSTYLE
  5
36
102
{ACAD_REACTORS
330
2A
102
}
102
{ACAD_XDICTIONARY
360
4A5
102
}
330
2A
100
AcDbVisualStyle
  2
Brighten
 70
    12
 71
     2
 72
     2
 73
     0
 90
        0
 40
0.6
 41
30.0
 62
     5
 63
     7
 74
     1
 91
        4
 64
     7
 65
   257
 75
     1
175
     1
 42
1.0
 92
        8
 66
     7
 43
1.0
 76
     1
 77
     6
 78
     2
 67
     7
 79
     5
170
     0
171
     0
290
     0
174
     0
 93
        1
 44
50.0
173
     0
291
     1
 45
0.0
1001
ACAD
1000
AcDbSavedByObjectVersion
1070
     0
  0
VISUALSTYLE
  5
3A
102
{ACAD_REACTORS
330
2A
102
}
102
{ACAD_XDICTIONARY
360
4AD
102
}
330
2A
100
AcDbVisualStyle
  2
ColorChange
 70
    16
 71
     2
 72
     2
 73
     3
 90
        0
 40
0.6
 41
30.0
 62
     5
 63
     8
 74
     1
 91
        4
 64
     7
 65
   257
 75
     1
175
     1
 42
1.0
 92
        8
 66
     8
 43
1.0
 76
     1
 77
     6
 78
     2
 67
     7
 79
     5
170
     0
171
     0
290
     0
174
     0
 93
        1
 44
0.0
173
     0
291
     1
 45
0.0
1001
ACAD
1000
AcDbSavedByObjectVersion
1070
     0
  0
VISUALSTYLE
  5
34
102
{ACAD_REACTORS
330
2A
102
}
102
{ACAD_XDICTIONARY
360
4A1
102
}
330
2A
100
AcDbVisualStyle
  2
Conceptual
 70
     9
 71
     3
 72
     2
 73
     0
 90
        0
 40
0.6
 41
30.0
 62
     5
 63
     7
 74
     2
 91
        2
 64
     7
 65
   257
 75
     1
175
     1
 42
179.0
 92
        8
 66
     7
 43
1.0
 76
     1
 77
     6
 78
     2
 67
     7
 79
     3
170
     0
171
     0
290
     0
174
     0
 93
        1
 44
0.0
173
     0
291
     0
 45
0.0
1001
ACAD
1000
AcDbSavedByObjectVersion
1070
     0
  0
VISUALSTYLE
  5
35
102
{ACAD_REACTORS
330
2A
102
}
102
{ACAD_XDICTIONARY
360
4A3
102
}
330
2A
100
AcDbVisualStyle
  2
Dim
 70
    11
 71
     2
 72
     2
 73
     0
 90
        0
 40
0.6
 41
30.0
 62
     5
 63
     7
 74
     1
 91
        4
 64
     7
 65
   257
 75
     1
175
     1
 42
1.0
 92
        8
 66
     7
 43
1.0
 76
     1
 77
     6
 78
     2
 67
     7
 79
     5
170
     0
171
     0
290
     0
174
     0
 93
        1
 44
-50.0
173
     0
291
     1
 45
0.0
1001
ACAD
1000
AcDbSavedByObjectVersion
1070
     0
  0
VISUALSTYLE
  5
3D
102
{ACAD_REACTORS
330
2A
102
}
102
{ACAD_XDICTIONARY
360
4B3
102
}
330
2A
100
AcDbVisualStyle
  2
EdgeColorOff
 70
    22
 71
     2
 72
     2
 73
     0
 90
        0
 40
0.6
 41
30.0
 62
     5
 63
     7
 74
     1
 91
        4
 64
     7
 65
   257
 75
     1
175
     1
 42
1.0
 92
        8
 66
     7
 43
1.0
 76
     1
 77
     6
 78
     2
 67
     7
 79
     5
170
     0
171
     0
290
     0
174
     0
 93
        1
 44
0.0
173
     0
291
     1
 45
0.0
1001
ACAD
1000
AcDbSavedByObjectVersion
1070
     0
  0
VISUALSTYLE
  5
39
102
{ACAD_REACTORS
330
2A
102
}
102
{ACAD_XDICTIONARY
360
4AB
102
}
330
2A
100
AcDbVisualStyle
  2
Facepattern
 70
    15
 71
     2
 72
     2
 73
     0
 90
        0
 40
0.6
 41
30.0
 62
     5
 63
     7
 74
     1
 91
        4
 64
     7
 65
   257
 75
     1
175
     1
 42
1.0
 92
        8
 66
     7
 43
1.0
 76
     1
 77
     6
 78
     2
 67
     7
 79
     5
170
     0
171
     0
290
     0
174
     0
 93
        1
 44
0.0
173
     0
291
     1
 45
0.0
1001
ACAD
1000
AcDbSavedByObjectVersion
1070
     0
  0
VISUALSTYLE
  5
2B
102
{ACAD_REACTORS
330
2A
102
}
102
{ACAD_XDICTIONARY
360
48F
102
}
330
2A
100
AcDbVisualStyle
  2
Flat
 70
     0
 71
     2
 72
     1
 73
     1
 90
        2
 40
0.6
 41
30.0
 62
     5
 63
     7
 74
     0
 91
        0
 64
     7
 65
   257
 75
     1
175
     1
 42
1.0
 92
        8
 66
     7
 43
1.0
 76
     1
 77
     6
 78
     2
 67
     7
 79
     5
170
     0
171
     0
290
     0
174
     0
 93
       13
 44
0.0
173
     0
291
     1
 45
0.0
1001
ACAD
1000
AcDbSavedByObjectVersion
1070
     0
  0
VISUALSTYLE
  5
2C
102
{ACAD_REACTORS
330
2A
102
}
102
{ACAD_XDICTIONARY
360
491
102
}
330
2A
100
AcDbVisualStyle
  2
FlatWithEdges
 70
     1
 71
     2
 72
     1
 73
     1
 90
        2
 40
0.6
 41
30.0
 62
     5
 63
     7
 74
     1
 91
        0
 64
     7
 65
   257
 75
     1
175
     1
 42
1.0
 92
        0
 66
   257
 43
1.0
 76
     1
 77
     6
 78
     2
 67
     7
 79
     5
170
     0
171
     0
290
     0
174
     0
 93
       13
 44
0.0
173
     0
291
     1
 45
0.0
1001
ACAD
1000
AcDbSavedByObjectVersion
1070
     0
  0
VISUALSTYLE
  5
2D
102
{ACAD_REACTORS
330
2A
102
}
102
{ACAD_XDICTIONARY
360
493
102
}
330
2A
100
AcDbVisualStyle
  2
Gouraud
 70
     2
 71
     2
 72
     2
 73
     1
 90
        2
 40
0.6
 41
30.0
 62
     5
 63
     7
 74
     0
 91
        0
 64
     7
 65
   257
 75
     1
175
     1
 42
1.0
 92
        0
 66
     7
 43
1.0
 76
     1
 77
     6
 78
     2
 67
     7
 79
     5
170
     0
171
     0
290
     0
174
     0
 93
       13
 44
0.0
173
     0
291
     1
 45
0.0
1001
ACAD
1000
AcDbSavedByObjectVersion
1070
     0
  0
VISUALSTYLE
  5
2E
102
{ACAD_REACTORS
330
2A
102
}
102
{ACAD_XDICTIONARY
360
495
102
}
330
2A
100
AcDbVisualStyle
  2
GouraudWithEdges
 70
     3
 71
     2
 72
     2
 73
     1
 90
        2
 40
0.6
 41
30.0
 62
     5
 63
     7
 74
     1
 91
        0
 64
     7
 65
   257
 75
     1
175
     1
 42
1.0
 92
        0
 66
   257
 43
1.0
 76
     1
 77
     6
 78
     2
 67
     7
 79
     5
170
     0
171
     0
290
     0
174
     0
 93
       13
 44
0.0
173
     0
291
     1
 45
0.0
1001
ACAD
1000
AcDbSavedByObjectVersion
1070
     0
  0
VISUALSTYLE
  5
31
102
{ACAD_REACTORS
330
2A
102
}
102
{ACAD_XDICTIONARY
360
49B
102
}
330
2A
100
AcDbVisualStyle
  2
Hidden
 70
     6
 71
     1
 72
     2
 73
     2
 90
        0
 40
0.6
 41
30.0
 62
     5
 63
     7
 74
     2
 91
        2
 64
     7
 65
   257
 75
     2
175
     1
 42
40.0
 92
        0
 66
   257
 43
1.0
 76
     1
 77
     6
 78
     2
 67
     7
 79
     3
170
     0
171
     0
290
     0
174
     0
 93
        1
 44
0.0
173
     0
291
     0
 45
0.0
1001
ACAD
1000
AcDbSavedByObjectVersion
1070
     0
  0
VISUALSTYLE
  5
3B
102
{ACAD_REACTORS
330
2A
102
}
102
{ACAD_XDICTIONARY
360
4AF
102
}
330
2A
100
AcDbVisualStyle
  2
JitterOff
 70
    20
 71
     2
 72
     2
 73
     0
 90
        0
 40
0.6
 41
30.0
 62
     5
 63
     7
 74
     1
 91
        4
 64
     7
 65
   257
 75
     1
175
     1
 42
1.0
 92
       10
 66
     7
 43
1.0
 76
     1
 77
     6
 78
     2
 67
     7
 79
     5
170
     0
171
     0
290
     0
174
     0
 93
        1
 44
0.0
173
     0
291
     1
 45
0.0
1001
ACAD
1000
AcDbSavedByObjectVersion
1070
     0
  0
VISUALSTYLE
  5
38
102
{ACAD_REACTORS
330
2A
102
}
102
{ACAD_XDICTIONARY
360
4A9
102
}
330
2A
100
AcDbVisualStyle
  2
Linepattern
 70
    14
 71
     2
 72
     2
 73
     0
 90
        0
 40
0.6
 41
30.0
 62
     5
 63
     7
 74
     1
 91
        4
 64
     7
 65
   257
 75
     7
175
     7
 42
1.0
 92
        8
 66
     7
 43
1.0
 76
     1
 77
     6
 78
     2
 67
     7
 79
     5
170
     0
171
     0
290
     0
174
     0
 93
        1
 44
0.0
173
     0
291
     1
 45
0.0
1001
ACAD
1000
AcDbSavedByObjectVersion
1070
     0
  0
VISUALSTYLE
  5
3C
102
{ACAD_REACTORS
330
2A
102
}
102
{ACAD_XDICTIONARY
360
4B1
102
}
330
2A
100
AcDbVisualStyle
  2
OverhangOff
 70
    21
 71
     2
 72
     2
 73
     0
 90
        0
 40
0.6
 41
30.0
 62
     5
 63
     7
 74
     1
 91
        4
 64
     7
 65
   257
 75
     1
175
     1
 42
1.0
 92
        9
 66
     7
 43
1.0
 76
     1
 77
     6
 78
     2
 67
     7
 79
     5
170
     0
171
     0
290
     0
174
     0
 93
        1
 44
0.0
173
     0
291
     1
 45
0.0
1001
ACAD
1000
AcDbSavedByObjectVersion
1070
     0
  0
VISUALSTYLE
  5
33
102
{ACAD_REACTORS
330
2A
102
}
102
{ACAD_XDICTIONARY
360
49F
102
}
330
2A
100
AcDbVisualStyle
  2
Realistic
 70
     8
 71
     2
 72
     3
 73
     0
 90
        2
 40
0.6
 41
30.0
 62
     5
 63
     7
 74
     0
 91
        0
 64
     7
 65
   257
 75
     1
175
     1
 42
1.0
 92
        8
 66
   257
 43
1.0
 76
     1
 77
     6
 78
     2
 67
     7
 79
     3
170
     0
171
     0
290
     0
174
     0
 93
       13
 44
0.0
173
     0
291
     0
 45
0.0
1001
ACAD
1000
AcDbSavedByObjectVersion
1070
     0
  0
VISUALSTYLE
  5
42
102
{ACAD_REACTORS
330
2A
102
}
102
{ACAD_XDICTIONARY
360
4BD
102
}
330
2A
100
AcDbVisualStyle
  2
Shaded
 70
    27
 71
     2
 72
     2
 73
     1
 90
        2
 40
0.6
 41
30.0
 62
     5
 63
     7
 74
     0
 91
        4
 64
     7
 65
   257
 75
     1
175
     1
 42
1.0
 92
        8
 66
   257
 43
1.0
 76
     1
 77
     6
 78
     2
 67
     8
 79
     3
170
     0
171
     0
290
     0
174
     0
 93
        5
 44
0.0
173
     0
291
     0
 45
0.0
1001
ACAD
1000
AcDbSavedByObjectVersion
1070
     0
  0
VISUALSTYLE
  5
41
102
{ACAD_REACTORS
330
2A
102
}
102
{ACAD_XDICTIONARY
360
4BB
102
}
330
2A
100
AcDbVisualStyle
  2
Shaded with edges
 70
    26
 71
     2
 72
     2
 73
     1
 90
        2
 40
0.6
 41
30.0
 62
     5
 63
     7
 74
     1
 91
       10
 64
     7
 65
   257
 75
     2
175
     1
 42
1.0
 92
        8
 66
   257
 43
1.0
 76
     1
 77
     6
 78
     2
 67
     7
 79
     3
170
     0
171
     0
290
     0
174
     0
 93
        5
 44
0.0
173
     0
291
     0
 45
0.0
1001
ACAD
1000
AcDbSavedByObjectVersion
1070
     0
  0
VISUALSTYLE
  5
3E
102
{ACAD_REACTORS
330
2A
102
}
102
{ACAD_XDICTIONARY
360
4B5
102
}
330
2A
100
AcDbVisualStyle
  2
Shades of Gray
 70
    23
 71
     2
 72
     2
 73
     3
 90
        0
 40
0.6
 41
30.0
 62
     5
 63
     7
 74
     2
 91
        2
 64
     7
 65
     7
 75
     1
175
     1
 42
40.0
 92
        8
 66
     7
 43
1.0
 76
     1
 77
     6
 78
     2
 67
     7
 79
     3
170
     0
171
     0
290
     0
174
     0
 93
        1
 44
0.0
173
     0
291
     0
 45
0.0
1001
ACAD
1000
AcDbSavedByObjectVersion
1070
     0
  0
VISUALSTYLE
  5
3F
102
{ACAD_REACTORS
330
2A
102
}
102
{ACAD_XDICTIONARY
360
4B7
102
}
330
2A
100
AcDbVisualStyle
  2
Sketchy
 70
    24
 71
     1
 72
     2
 73
     2
 90
        0
 40
0.6
 41
30.0
 62
     5
 63
     7
 74
     2
 91
        2
 64
     7
 65
     7
 75
     1
175
     1
 42
40.0
 92
       11
 66
     7
 43
1.0
 76
     1
 77
     6
 78
     2
 67
     7
 79
     6
170
     0
171
     0
290
     0
174
     0
 93
        1
 44
0.0
173
     0
291
     0
 45
0.0
1001
ACAD
1000
AcDbSavedByObjectVersion
1070
     0
  0
VISUALSTYLE
  5
37
102
{ACAD_REACTORS
330
2A
102
}
102
{ACAD_XDICTIONARY
360
4A7
102
}
330
2A
100
AcDbVisualStyle
  2
Thicken
 70
    13
 71
     2
 72
     2
 73
     0
 90
        0
 40
0.6
 41
30.0
 62
     5
 63
     7
 74
     1
 91
        4
 64
     7
 65
   257
 75
     1
175
     1
 42
1.0
 92
       12
 66
     7
 43
1.0
 76
     1
 77
     6
 78
     2
 67
     7
 79
     5
170
     0
171
     0
290
     0
174
     0
 93
        1
 44
0.0
173
     0
291
     1
 45
0.0
1001
ACAD
1000
AcDbSavedByObjectVersion
1070
     0
  0
VISUALSTYLE
  5
30
102
{ACAD_REACTORS
330
2A
102
}
102
{ACAD_XDICTIONARY
360
499
102
}
330
2A
100
AcDbVisualStyle
  2
Wireframe
 70
     5
 71
     0
 72
     2
 73
     0
 90
        0
 40
0.6
 41
30.0
 62
     5
 63
     7
 74
     1
 91
        4
 64
     7
 65
   257
 75
     1
175
     1
 42
1.0
 92
        0
 66
   257
 43
1.0
 76
     1
 77
     6
 78
     2
 67
     7
 79
     3
170
     0
171
     0
290
     0
174
     0
 93
        1
 44
0.0
173
     0
291
     0
 45
0.0
1001
ACAD
1000
AcDbSavedByObjectVersion
1070
     0
  0
VISUALSTYLE
  5
40
102
{ACAD_REACTORS
330
2A
102
}
102
{ACAD_XDICTIONARY
360
4B9
102
}
330
2A
100
AcDbVisualStyle
  2
X-Ray
 70
    25
 71
     2
 72
     2
 73
     1
 90
        1
 40
0.5
 41
30.0
 62
     5
 63
     7
 74
     1
 91
        0
 64
     7
 65
   257
 75
     1
175
     1
 42
1.0
 92
        8
 66
     7
 43
1.0
 76
     1
 77
     6
 78
     2
 67
     7
 79
     3
170
     0
171
     0
290
     0
174
     0
 93
       13
 44
0.0
173
     0
291
     0
 45
0.0
1001
ACAD
1000
AcDbSavedByObjectVersion
1070
     0
  0
DICTIONARYVAR
  5
48D
102
{ACAD_REACTORS
330
484
102
}
330
484
100
DictionaryVariables
280
     0
  1
1:1
  0
DICTIONARYVAR
  5
486
102
{ACAD_REACTORS
330
484
102
}
330
484
100
DictionaryVariables
280
     0
  1
Standard
  0
DICTIONARYVAR
  5
485
102
{ACAD_REACTORS
330
484
102
}
330
484
100
DictionaryVariables
280
     0
  1
Standard
  0
DICTIONARYVAR
  5
489
102
{ACAD_REACTORS
330
484
102
}
330
484
100
DictionaryVariables
280
     0
  1
2
  0
DICTIONARYVAR
  5
48A
102
{ACAD_REACTORS
330
484
102
}
330
484
100
DictionaryVariables
280
     0
  1
1
  0
DICTIONARYVAR
  5
48E
102
{ACAD_REACTORS
330
484
102
}
330
484
100
DictionaryVariables
280
     0
  1
1
  0
DICTIONARY
  5
4C1
330
45
100
AcDbDictionary
280
     1
281
     1
  3
ACAD_XREC_ROUNDTRIP
360
4C2
  0
DICTIONARY
  5
4BF
330
44
100
AcDbDictionary
280
     1
281
     1
  3
ACAD_XREC_ROUNDTRIP
360
4C0
  0
DICTIONARY
  5
4C3
330
46
100
AcDbDictionary
280
     1
281
     1
  3
ACAD_XREC_ROUNDTRIP
360
4C4
  0
DICTIONARY
  5
4C6
330
6C
100
AcDbDictionary
280
     1
281
     1
  3
ACAD_XREC_ROUNDTRIP
360
4C7
  0
DICTIONARY
  5
497
330
2F
100
AcDbDictionary
280
     1
281
     1
  3
ACAD_XREC_ROUNDTRIP
360
498
  0
DICTIONARY
  5
49D
330
32
100
AcDbDictionary
280
     1
281
     1
  3
ACAD_XREC_ROUNDTRIP
360
49E
  0
DICTIONARY
  5
4A5
330
36
100
AcDbDictionary
280
     1
281
     1
  3
ACAD_XREC_ROUNDTRIP
360
4A6
  0
DICTIONARY
  5
4AD
330
3A
100
AcDbDictionary
280
     1
281
     1
  3
ACAD_XREC_ROUNDTRIP
360
4AE
  0
DICTIONARY
  5
4A1
330
34
100
AcDbDictionary
280
     1
281
     1
  3
ACAD_XREC_ROUNDTRIP
360
4A2
  0
DICTIONARY
  5
4A3
330
35
100
AcDbDictionary
280
     1
281
     1
  3
ACAD_XREC_ROUNDTRIP
360
4A4
  0
DICTIONARY
  5
4B3
330
3D
100
AcDbDictionary
280
     1
281
     1
  3
ACAD_XREC_ROUNDTRIP
360
4B4
  0
DICTIONARY
  5
4AB
330
39
100
AcDbDictionary
280
     1
281
     1
  3
ACAD_XREC_ROUNDTRIP
360
4AC
  0
DICTIONARY
  5
48F
330
2B
100
AcDbDictionary
280
     1
281
     1
  3
ACAD_XREC_ROUNDTRIP
360
490
  0
DICTIONARY
  5
491
330
2C
100
AcDbDictionary
280
     1
281
     1
  3
ACAD_XREC_ROUNDTRIP
360
492
  0
DICTIONARY
  5
493
330
2D
100
AcDbDictionary
280
     1
281
     1
  3
ACAD_XREC_ROUNDTRIP
360
494
  0
DICTIONARY
  5
495
330
2E
100
AcDbDictionary
280
     1
281
     1
  3
ACAD_XREC_ROUNDTRIP
360
496
  0
DICTIONARY
  5
49B
330
31
100
AcDbDictionary
280
     1
281
     1
  3
ACAD_XREC_ROUNDTRIP
360
49C
  0
DICTIONARY
  5
4AF
330
3B
100
AcDbDictionary
280
     1
281
     1
  3
ACAD_XREC_ROUNDTRIP
360
4B0
  0
DICTIONARY
  5
4A9
330
38
100
AcDbDictionary
280
     1
281
     1
  3
ACAD_XREC_ROUNDTRIP
360
4AA
  0
DICTIONARY
  5
4B1
330
3C
100
AcDbDictionary
280
     1
281
     1
  3
ACAD_XREC_ROUNDTRIP
360
4B2
  0
DICTIONARY
  5
49F
330
33
100
AcDbDictionary
280
     1
281
     1
  3
ACAD_XREC_ROUNDTRIP
360
4A0
  0
DICTIONARY
  5
4BD
330
42
100
AcDbDictionary
280
     1
281
     1
  3
ACAD_XREC_ROUNDTRIP
360
4BE
  0
DICTIONARY
  5
4BB
330
41
100
AcDbDictionary
280
     1
281
     1
  3
ACAD_XREC_ROUNDTRIP
360
4BC
  0
DICTIONARY
  5
4B5
330
3E
100
AcDbDictionary
280
     1
281
     1
  3
ACAD_XREC_ROUNDTRIP
360
4B6
  0
DICTIONARY
  5
4B7
330
3F
100
AcDbDictionary
280
     1
281
     1
  3
ACAD_XREC_ROUNDTRIP
360
4B8
  0
DICTIONARY
  5
4A7
330
37
100
AcDbDictionary
280
     1
281
     1
  3
ACAD_XREC_ROUNDTRIP
360
4A8
  0
DICTIONARY
  5
499
330
30
100
AcDbDictionary
280
     1
281
     1
  3
ACAD_XREC_ROUNDTRIP
360
49A
  0
DICTIONARY
  5
4B9
330
40
100
AcDbDictionary
280
     1
281
     1
  3
ACAD_XREC_ROUNDTRIP
360
4BA
  0
XRECORD
  5
4C2
102
{ACAD_REACTORS
330
4C1
102
}
330
4C1
100
AcDbXrecord
280
     1
102
MATERIAL
148
0.0
149
0.0
149
0.0
 93
        0
 94
      127
282
     0
 72
     1
 77
     1
171
     1
175
     1
179
     1
273
     0
  0
XRECORD
  5
4C0
102
{ACAD_REACTORS
330
4BF
102
}
330
4BF
100
AcDbXrecord
280
     1
102
MATERIAL
148
0.0
149
0.0
149
0.0
 93
        0
 94
      127
282
     0
 72
     1
 77
     1
171
     1
175
     1
179
     1
273
     0
  0
XRECORD
  5
4C4
102
{ACAD_REACTORS
330
4C3
102
}
330
4C3
100
AcDbXrecord
280
     1
102
MATERIAL
148
0.0
149
0.0
149
0.0
 93
        0
 94
      127
282
     0
 72
     1
 77
     1
171
     1
175
     1
179
     1
273
     0
  0
XRECORD
  5
4C7
102
{ACAD_REACTORS
330
4C6
102
}
330
4C6
100
AcDbXrecord
280
     1
102
ACAD_ROUNDTRIP_2010_MLEADER_STYLE
  0
XRECORD
  5
498
102
{ACAD_REACTORS
330
497
102
}
330
497
100
AcDbXrecord
280
     1
102
RTVSPropertyOp0
 70
     1
102
RTVSPropertyOp1
 70
     1
102
RTVSPropertyOp2
 70
     1
102
RTVSPropertyOp3
 70
     1
102
RTVSPropertyOp4
 70
     1
102
RTVSPropertyOp5
 70
     1
102
RTVSPropertyOp6
 70
     1
102
RTVSPropertyOp7
 70
     1
102
RTVSPropertyOp8
 70
     1
102
RTVSPropertyOp9
 70
     1
102
RTVSPropertyOp10
 70
     1
102
RTVSPropertyOp11
 70
     1
102
RTVSPropertyOp12
 70
     1
102
RTVSPropertyOp13
 70
     1
102
RTVSPropertyOp14
 70
     1
102
RTVSPropertyOp15
 70
     1
102
RTVSPropertyOp16
 70
     1
102
RTVSPropertyOp17
 70
     1
102
RTVSPropertyOp18
 70
     1
102
RTVSPropertyOp19
 70
     1
102
RTVSPropertyOp20
 70
     1
102
RTVSPropertyOp21
 70
     1
102
RTVSPropertyOp22
 70
     1
102
RTVSPropertyOp23
 70
     1
102
RTVSPropertyOp24
 70
     1
102
RTVSPropertyOp25
 70
     1
102
RTVSPropertyOp26
 70
     1
102
RTVSPropertyOp27
 70
     1
102
RTVSPropertyOp28
 70
     1
102
RTVSPropertyOp29
 70
     1
102
RTVSPropertyOp30
 70
     1
102
RTVSPropertyOp31
 70
     1
102
RTVSPropertyOp32
 70
     1
102
RTVSPropertyOp33
 70
     1
102
RTVSPropertyOp34
 70
     1
102
RTVSPropertyOp35
 70
     1
102
RTVSPropertyOp36
 70
     1
102
RTVSPropertyOp37
 70
     1
102
RTVSPropertyOp38
 70
     1
102
RTVSPropertyOp39
 70
     1
102
RTVSPropertyOp40
 70
     1
102
RTVSPropertyOp41
 70
     1
102
RTVSPropertyOp42
 70
     1
102
RTVSPropertyOp43
 70
     1
102
RTVSPropertyOp44
 70
     1
102
RTVSPropertyOp45
 70
     1
102
RTVSPropertyOp46
 70
     1
102
RTVSPropertyOp47
 70
     1
102
RTVSPropertyOp48
 70
     1
102
RTVSPropertyOp49
 70
     1
102
RTVSPropertyOp50
 70
     1
102
RTVSPropertyOp51
 70
     0
102
RTVSPropertyOp52
 70
     0
102
RTVSPropertyOp53
 70
     1
102
RTVSPropertyOp54
 70
     1
102
RTVSPropertyOp55
 70
     1
102
RTVSPropertyOp56
 70
     1
102
RTVSPropertyOp57
 70
     1
102
RTVSPost2010Prop28
280
     1
102
RTVSPost2010PropOp28
 70
     1
102
RTVSPost2010Prop29
280
     1
102
RTVSPost2010PropOp29
 70
     1
102
RTVSPost2010Prop30
280
     0
102
RTVSPost2010PropOp30
 70
     1
102
RTVSPost2010Prop31
280
     0
102
RTVSPost2010PropOp31
 70
     1
102
RTVSPost2010Prop32
280
     0
102
RTVSPost2010PropOp32
 70
     1
102
RTVSPost2010Prop33
280
     0
102
RTVSPost2010PropOp33
 70
     1
102
RTVSPost2010Prop34
280
     0
102
RTVSPost2010PropOp34
 70
     1
102
RTVSPost2010Prop35
280
     0
102
RTVSPost2010PropOp35
 70
     1
102
RTVSPost2010Prop36
280
     0
102
RTVSPost2010PropOp36
 70
     1
102
RTVSPost2010Prop37
 90
       50
102
RTVSPost2010PropOp37
 70
     1
102
RTVSPost2010Prop38
140
0.0
102
RTVSPost2010PropOp38
 70
     1
102
RTVSPost2010Prop39
140
1.0
102
RTVSPost2010PropOp39
 70
     1
102
RTVSPost2010Prop40
 90
        0
102
RTVSPost2010PropOp40
 70
     1
102
RTVSPost2010Prop41ColorIndex
 90
       18
102
RTVSPost2010Prop41ColorRGB
 90
        0
102
RTVSPost2010PropOp41
 70
     1
102
RTVSPost2010Prop42
 90
       50
102
RTVSPost2010PropOp42
 70
     1
102
RTVSPost2010Prop43
 90
        3
102
RTVSPost2010PropOp43
 70
     1
102
RTVSPost2010Prop44ColorIndex
 90
        5
102
RTVSPost2010Prop44ColorRGB
 90
      255
102
RTVSPost2010PropOp44
 70
     1
102
RTVSPost2010Prop45
280
     0
102
RTVSPost2010PropOp45
 70
     1
102
RTVSPost2010Prop46
 90
       50
102
RTVSPost2010PropOp46
 70
     1
102
RTVSPost2010Prop47
 90
       50
102
RTVSPost2010PropOp47
 70
     1
102
RTVSPost2010Prop48
 90
       50
102
RTVSPost2010PropOp48
 70
     1
102
RTVSPost2010Prop49
280
     0
102
RTVSPost2010PropOp49
 70
     1
102
RTVSPost2010Prop50
 90
       50
102
RTVSPost2010PropOp50
 70
     1
102
RTVSPost2010Prop51ColorIndex
 90
      256
102
RTVSPost2010Prop51ColorRGB
 90
-16777216
102
RTVSPost2010PropOp51
 70
     0
102
RTVSPost2010Prop52
140
1.0
102
RTVSPost2010PropOp52
 70
     0
102
RTVSPost2010Prop53
 90
        2
102
RTVSPost2010PropOp53
 70
     1
102
RTVSPost2010Prop54
  1
strokes_ogs.tif
102
RTVSPost2010PropOp54
 70
     1
102
RTVSPost2010Prop55
280
     0
102
RTVSPost2010PropOp55
 70
     1
102
RTVSPost2010Prop56
140
1.0
102
RTVSPost2010PropOp56
 70
     1
102
RTVSPost2010Prop57
140
1.0
102
RTVSPost2010PropOp57
 70
     1
  0
XRECORD
  5
49E
102
{ACAD_REACTORS
330
49D
102
}
330
49D
100
AcDbXrecord
280
     1
102
RTVSPropertyOp0
 70
     1
102
RTVSPropertyOp1
 70
     1
102
RTVSPropertyOp2
 70
     1
102
RTVSPropertyOp3
 70
     1
102
RTVSPropertyOp4
 70
     1
102
RTVSPropertyOp5
 70
     1
102
RTVSPropertyOp6
 70
     1
102
RTVSPropertyOp7
 70
     1
102
RTVSPropertyOp8
 70
     1
102
RTVSPropertyOp9
 70
     1
102
RTVSPropertyOp10
 70
     1
102
RTVSPropertyOp11
 70
     1
102
RTVSPropertyOp12
 70
     1
102
RTVSPropertyOp13
 70
     1
102
RTVSPropertyOp14
 70
     1
102
RTVSPropertyOp15
 70
     1
102
RTVSPropertyOp16
 70
     1
102
RTVSPropertyOp17
 70
     1
102
RTVSPropertyOp18
 70
     1
102
RTVSPropertyOp19
 70
     1
102
RTVSPropertyOp20
 70
     1
102
RTVSPropertyOp21
 70
     1
102
RTVSPropertyOp22
 70
     1
102
RTVSPropertyOp23
 70
     1
102
RTVSPropertyOp24
 70
     1
102
RTVSPropertyOp25
 70
     1
102
RTVSPropertyOp26
 70
     1
102
RTVSPropertyOp27
 70
     1
102
RTVSPropertyOp28
 70
     1
102
RTVSPropertyOp29
 70
     1
102
RTVSPropertyOp30
 70
     1
102
RTVSPropertyOp31
 70
     1
102
RTVSPropertyOp32
 70
     1
102
RTVSPropertyOp33
 70
     1
102
RTVSPropertyOp34
 70
     1
102
RTVSPropertyOp35
 70
     1
102
RTVSPropertyOp36
 70
     1
102
RTVSPropertyOp37
 70
     1
102
RTVSPropertyOp38
 70
     1
102
RTVSPropertyOp39
 70
     1
102
RTVSPropertyOp40
 70
     1
102
RTVSPropertyOp41
 70
     1
102
RTVSPropertyOp42
 70
     1
102
RTVSPropertyOp43
 70
     1
102
RTVSPropertyOp44
 70
     1
102
RTVSPropertyOp45
 70
     1
102
RTVSPropertyOp46
 70
     1
102
RTVSPropertyOp47
 70
     1
102
RTVSPropertyOp48
 70
     1
102
RTVSPropertyOp49
 70
     1
102
RTVSPropertyOp50
 70
     1
102
RTVSPropertyOp51
 70
     0
102
RTVSPropertyOp52
 70
     0
102
RTVSPropertyOp53
 70
     1
102
RTVSPropertyOp54
 70
     1
102
RTVSPropertyOp55
 70
     1
102
RTVSPropertyOp56
 70
     1
102
RTVSPropertyOp57
 70
     1
102
RTVSPost2010Prop28
280
     0
102
RTVSPost2010PropOp28
 70
     1
102
RTVSPost2010Prop29
280
     1
102
RTVSPost2010PropOp29
 70
     1
102
RTVSPost2010Prop30
280
     1
102
RTVSPost2010PropOp30
 70
     1
102
RTVSPost2010Prop31
280
     0
102
RTVSPost2010PropOp31
 70
     1
102
RTVSPost2010Prop32
280
     0
102
RTVSPost2010PropOp32
 70
     1
102
RTVSPost2010Prop33
280
     0
102
RTVSPost2010PropOp33
 70
     1
102
RTVSPost2010Prop34
280
     0
102
RTVSPost2010PropOp34
 70
     1
102
RTVSPost2010Prop35
280
     0
102
RTVSPost2010PropOp35
 70
     1
102
RTVSPost2010Prop36
280
     0
102
RTVSPost2010PropOp36
 70
     1
102
RTVSPost2010Prop37
 90
       50
102
RTVSPost2010PropOp37
 70
     1
102
RTVSPost2010Prop38
140
0.0
102
RTVSPost2010PropOp38
 70
     1
102
RTVSPost2010Prop39
140
1.0
102
RTVSPost2010PropOp39
 70
     1
102
RTVSPost2010Prop40
 90
        0
102
RTVSPost2010PropOp40
 70
     1
102
RTVSPost2010Prop41ColorIndex
 90
       18
102
RTVSPost2010Prop41ColorRGB
 90
        0
102
RTVSPost2010PropOp41
 70
     1
102
RTVSPost2010Prop42
 90
       50
102
RTVSPost2010PropOp42
 70
     1
102
RTVSPost2010Prop43
 90
        3
102
RTVSPost2010PropOp43
 70
     1
102
RTVSPost2010Prop44ColorIndex
 90
        5
102
RTVSPost2010Prop44ColorRGB
 90
      255
102
RTVSPost2010PropOp44
 70
     1
102
RTVSPost2010Prop45
280
     0
102
RTVSPost2010PropOp45
 70
     1
102
RTVSPost2010Prop46
 90
       50
102
RTVSPost2010PropOp46
 70
     1
102
RTVSPost2010Prop47
 90
       50
102
RTVSPost2010PropOp47
 70
     1
102
RTVSPost2010Prop48
 90
       50
102
RTVSPost2010PropOp48
 70
     1
102
RTVSPost2010Prop49
280
     0
102
RTVSPost2010PropOp49
 70
     1
102
RTVSPost2010Prop50
 90
       50
102
RTVSPost2010PropOp50
 70
     1
102
RTVSPost2010Prop51ColorIndex
 90
      256
102
RTVSPost2010Prop51ColorRGB
 90
-16777216
102
RTVSPost2010PropOp51
 70
     0
102
RTVSPost2010Prop52
140
1.0
102
RTVSPost2010PropOp52
 70
     0
102
RTVSPost2010Prop53
 90
        2
102
RTVSPost2010PropOp53
 70
     1
102
RTVSPost2010Prop54
  1
strokes_ogs.tif
102
RTVSPost2010PropOp54
 70
     1
102
RTVSPost2010Prop55
280
     0
102
RTVSPost2010PropOp55
 70
     1
102
RTVSPost2010Prop56
140
1.0
102
RTVSPost2010PropOp56
 70
     1
102
RTVSPost2010Prop57
140
1.0
102
RTVSPost2010PropOp57
 70
     1
  0
XRECORD
  5
4A6
102
{ACAD_REACTORS
330
4A5
102
}
330
4A5
100
AcDbXrecord
280
     1
102
RTVSPropertyOp0
 70
     1
102
RTVSPropertyOp1
 70
     1
102
RTVSPropertyOp2
 70
     1
102
RTVSPropertyOp3
 70
     1
102
RTVSPropertyOp4
 70
     1
102
RTVSPropertyOp5
 70
     1
102
RTVSPropertyOp6
 70
     1
102
RTVSPropertyOp7
 70
     1
102
RTVSPropertyOp8
 70
     1
102
RTVSPropertyOp9
 70
     1
102
RTVSPropertyOp10
 70
     1
102
RTVSPropertyOp11
 70
     1
102
RTVSPropertyOp12
 70
     1
102
RTVSPropertyOp13
 70
     1
102
RTVSPropertyOp14
 70
     1
102
RTVSPropertyOp15
 70
     1
102
RTVSPropertyOp16
 70
     1
102
RTVSPropertyOp17
 70
     1
102
RTVSPropertyOp18
 70
     1
102
RTVSPropertyOp19
 70
     1
102
RTVSPropertyOp20
 70
     1
102
RTVSPropertyOp21
 70
     1
102
RTVSPropertyOp22
 70
     1
102
RTVSPropertyOp23
 70
     1
102
RTVSPropertyOp24
 70
     1
102
RTVSPropertyOp25
 70
     1
102
RTVSPropertyOp26
 70
     1
102
RTVSPropertyOp27
 70
     1
102
RTVSPropertyOp28
 70
     1
102
RTVSPropertyOp29
 70
     1
102
RTVSPropertyOp30
 70
     1
102
RTVSPropertyOp31
 70
     1
102
RTVSPropertyOp32
 70
     1
102
RTVSPropertyOp33
 70
     1
102
RTVSPropertyOp34
 70
     1
102
RTVSPropertyOp35
 70
     1
102
RTVSPropertyOp36
 70
     1
102
RTVSPropertyOp37
 70
     1
102
RTVSPropertyOp38
 70
     1
102
RTVSPropertyOp39
 70
     1
102
RTVSPropertyOp40
 70
     1
102
RTVSPropertyOp41
 70
     1
102
RTVSPropertyOp42
 70
     1
102
RTVSPropertyOp43
 70
     1
102
RTVSPropertyOp44
 70
     1
102
RTVSPropertyOp45
 70
     1
102
RTVSPropertyOp46
 70
     1
102
RTVSPropertyOp47
 70
     1
102
RTVSPropertyOp48
 70
     1
102
RTVSPropertyOp49
 70
     1
102
RTVSPropertyOp50
 70
     1
102
RTVSPropertyOp51
 70
     0
102
RTVSPropertyOp52
 70
     0
102
RTVSPropertyOp53
 70
     1
102
RTVSPropertyOp54
 70
     1
102
RTVSPropertyOp55
 70
     1
102
RTVSPropertyOp56
 70
     1
102
RTVSPropertyOp57
 70
     1
102
RTVSPost2010Prop28
280
     0
102
RTVSPost2010PropOp28
 70
     1
102
RTVSPost2010Prop29
280
     1
102
RTVSPost2010PropOp29
 70
     1
102
RTVSPost2010Prop30
280
     1
102
RTVSPost2010PropOp30
 70
     1
102
RTVSPost2010Prop31
280
     0
102
RTVSPost2010PropOp31
 70
     1
102
RTVSPost2010Prop32
280
     0
102
RTVSPost2010PropOp32
 70
     1
102
RTVSPost2010Prop33
280
     0
102
RTVSPost2010PropOp33
 70
     1
102
RTVSPost2010Prop34
280
     0
102
RTVSPost2010PropOp34
 70
     1
102
RTVSPost2010Prop35
280
     0
102
RTVSPost2010PropOp35
 70
     1
102
RTVSPost2010Prop36
280
     0
102
RTVSPost2010PropOp36
 70
     1
102
RTVSPost2010Prop37
 90
       50
102
RTVSPost2010PropOp37
 70
     1
102
RTVSPost2010Prop38
140
0.0
102
RTVSPost2010PropOp38
 70
     1
102
RTVSPost2010Prop39
140
1.0
102
RTVSPost2010PropOp39
 70
     1
102
RTVSPost2010Prop40
 90
        0
102
RTVSPost2010PropOp40
 70
     1
102
RTVSPost2010Prop41ColorIndex
 90
       18
102
RTVSPost2010Prop41ColorRGB
 90
        0
102
RTVSPost2010PropOp41
 70
     1
102
RTVSPost2010Prop42
 90
       50
102
RTVSPost2010PropOp42
 70
     1
102
RTVSPost2010Prop43
 90
        3
102
RTVSPost2010PropOp43
 70
     1
102
RTVSPost2010Prop44ColorIndex
 90
        5
102
RTVSPost2010Prop44ColorRGB
 90
      255
102
RTVSPost2010PropOp44
 70
     1
102
RTVSPost2010Prop45
280
     0
102
RTVSPost2010PropOp45
 70
     1
102
RTVSPost2010Prop46
 90
       50
102
RTVSPost2010PropOp46
 70
     1
102
RTVSPost2010Prop47
 90
       50
102
RTVSPost2010PropOp47
 70
     1
102
RTVSPost2010Prop48
 90
       50
102
RTVSPost2010PropOp48
 70
     1
102
RTVSPost2010Prop49
280
     0
102
RTVSPost2010PropOp49
 70
     1
102
RTVSPost2010Prop50
 90
       50
102
RTVSPost2010PropOp50
 70
     1
102
RTVSPost2010Prop51ColorIndex
 90
      256
102
RTVSPost2010Prop51ColorRGB
 90
-16777216
102
RTVSPost2010PropOp51
 70
     0
102
RTVSPost2010Prop52
140
1.0
102
RTVSPost2010PropOp52
 70
     0
102
RTVSPost2010Prop53
 90
        2
102
RTVSPost2010PropOp53
 70
     1
102
RTVSPost2010Prop54
  1
strokes_ogs.tif
102
RTVSPost2010PropOp54
 70
     1
102
RTVSPost2010Prop55
280
     0
102
RTVSPost2010PropOp55
 70
     1
102
RTVSPost2010Prop56
140
1.0
102
RTVSPost2010PropOp56
 70
     1
102
RTVSPost2010Prop57
140
1.0
102
RTVSPost2010PropOp57
 70
     1
  0
XRECORD
  5
4AE
102
{ACAD_REACTORS
330
4AD
102
}
330
4AD
100
AcDbXrecord
280
     1
102
RTVSPropertyOp0
 70
     1
102
RTVSPropertyOp1
 70
     1
102
RTVSPropertyOp2
 70
     1
102
RTVSPropertyOp3
 70
     1
102
RTVSPropertyOp4
 70
     1
102
RTVSPropertyOp5
 70
     1
102
RTVSPropertyOp6
 70
     1
102
RTVSPropertyOp7
 70
     1
102
RTVSPropertyOp8
 70
     1
102
RTVSPropertyOp9
 70
     1
102
RTVSPropertyOp10
 70
     1
102
RTVSPropertyOp11
 70
     1
102
RTVSPropertyOp12
 70
     1
102
RTVSPropertyOp13
 70
     1
102
RTVSPropertyOp14
 70
     1
102
RTVSPropertyOp15
 70
     1
102
RTVSPropertyOp16
 70
     1
102
RTVSPropertyOp17
 70
     1
102
RTVSPropertyOp18
 70
     1
102
RTVSPropertyOp19
 70
     1
102
RTVSPropertyOp20
 70
     1
102
RTVSPropertyOp21
 70
     1
102
RTVSPropertyOp22
 70
     1
102
RTVSPropertyOp23
 70
     1
102
RTVSPropertyOp24
 70
     1
102
RTVSPropertyOp25
 70
     1
102
RTVSPropertyOp26
 70
     1
102
RTVSPropertyOp27
 70
     1
102
RTVSPropertyOp28
 70
     1
102
RTVSPropertyOp29
 70
     1
102
RTVSPropertyOp30
 70
     1
102
RTVSPropertyOp31
 70
     1
102
RTVSPropertyOp32
 70
     1
102
RTVSPropertyOp33
 70
     1
102
RTVSPropertyOp34
 70
     1
102
RTVSPropertyOp35
 70
     1
102
RTVSPropertyOp36
 70
     1
102
RTVSPropertyOp37
 70
     1
102
RTVSPropertyOp38
 70
     1
102
RTVSPropertyOp39
 70
     1
102
RTVSPropertyOp40
 70
     1
102
RTVSPropertyOp41
 70
     1
102
RTVSPropertyOp42
 70
     1
102
RTVSPropertyOp43
 70
     1
102
RTVSPropertyOp44
 70
     1
102
RTVSPropertyOp45
 70
     1
102
RTVSPropertyOp46
 70
     1
102
RTVSPropertyOp47
 70
     1
102
RTVSPropertyOp48
 70
     1
102
RTVSPropertyOp49
 70
     1
102
RTVSPropertyOp50
 70
     1
102
RTVSPropertyOp51
 70
     0
102
RTVSPropertyOp52
 70
     0
102
RTVSPropertyOp53
 70
     1
102
RTVSPropertyOp54
 70
     1
102
RTVSPropertyOp55
 70
     1
102
RTVSPropertyOp56
 70
     1
102
RTVSPropertyOp57
 70
     1
102
RTVSPost2010Prop28
280
     0
102
RTVSPost2010PropOp28
 70
     1
102
RTVSPost2010Prop29
280
     1
102
RTVSPost2010PropOp29
 70
     1
102
RTVSPost2010Prop30
280
     1
102
RTVSPost2010PropOp30
 70
     1
102
RTVSPost2010Prop31
280
     0
102
RTVSPost2010PropOp31
 70
     1
102
RTVSPost2010Prop32
280
     0
102
RTVSPost2010PropOp32
 70
     1
102
RTVSPost2010Prop33
280
     0
102
RTVSPost2010PropOp33
 70
     1
102
RTVSPost2010Prop34
280
     0
102
RTVSPost2010PropOp34
 70
     1
102
RTVSPost2010Prop35
280
     0
102
RTVSPost2010PropOp35
 70
     1
102
RTVSPost2010Prop36
280
     0
102
RTVSPost2010PropOp36
 70
     1
102
RTVSPost2010Prop37
 90
       50
102
RTVSPost2010PropOp37
 70
     1
102
RTVSPost2010Prop38
140
0.0
102
RTVSPost2010PropOp38
 70
     1
102
RTVSPost2010Prop39
140
1.0
102
RTVSPost2010PropOp39
 70
     1
102
RTVSPost2010Prop40
 90
        0
102
RTVSPost2010PropOp40
 70
     1
102
RTVSPost2010Prop41ColorIndex
 90
       18
102
RTVSPost2010Prop41ColorRGB
 90
        0
102
RTVSPost2010PropOp41
 70
     1
102
RTVSPost2010Prop42
 90
       50
102
RTVSPost2010PropOp42
 70
     1
102
RTVSPost2010Prop43
 90
        3
102
RTVSPost2010PropOp43
 70
     1
102
RTVSPost2010Prop44ColorIndex
 90
        5
102
RTVSPost2010Prop44ColorRGB
 90
      255
102
RTVSPost2010PropOp44
 70
     1
102
RTVSPost2010Prop45
280
     0
102
RTVSPost2010PropOp45
 70
     1
102
RTVSPost2010Prop46
 90
       50
102
RTVSPost2010PropOp46
 70
     1
102
RTVSPost2010Prop47
 90
       50
102
RTVSPost2010PropOp47
 70
     1
102
RTVSPost2010Prop48
 90
       50
102
RTVSPost2010PropOp48
 70
     1
102
RTVSPost2010Prop49
280
     0
102
RTVSPost2010PropOp49
 70
     1
102
RTVSPost2010Prop50
 90
       50
102
RTVSPost2010PropOp50
 70
     1
102
RTVSPost2010Prop51ColorIndex
 90
      256
102
RTVSPost2010Prop51ColorRGB
 90
-16777216
102
RTVSPost2010PropOp51
 70
     0
102
RTVSPost2010Prop52
140
1.0
102
RTVSPost2010PropOp52
 70
     0
102
RTVSPost2010Prop53
 90
        2
102
RTVSPost2010PropOp53
 70
     1
102
RTVSPost2010Prop54
  1
strokes_ogs.tif
102
RTVSPost2010PropOp54
 70
     1
102
RTVSPost2010Prop55
280
     0
102
RTVSPost2010PropOp55
 70
     1
102
RTVSPost2010Prop56
140
1.0
102
RTVSPost2010PropOp56
 70
     1
102
RTVSPost2010Prop57
140
1.0
102
RTVSPost2010PropOp57
 70
     1
  0
XRECORD
  5
4A2
102
{ACAD_REACTORS
330
4A1
102
}
330
4A1
100
AcDbXrecord
280
     1
102
RTVSPropertyOp0
 70
     1
102
RTVSPropertyOp1
 70
     1
102
RTVSPropertyOp2
 70
     1
102
RTVSPropertyOp3
 70
     1
102
RTVSPropertyOp4
 70
     1
102
RTVSPropertyOp5
 70
     1
102
RTVSPropertyOp6
 70
     1
102
RTVSPropertyOp7
 70
     1
102
RTVSPropertyOp8
 70
     1
102
RTVSPropertyOp9
 70
     1
102
RTVSPropertyOp10
 70
     1
102
RTVSPropertyOp11
 70
     1
102
RTVSPropertyOp12
 70
     1
102
RTVSPropertyOp13
 70
     1
102
RTVSPropertyOp14
 70
     1
102
RTVSPropertyOp15
 70
     1
102
RTVSPropertyOp16
 70
     1
102
RTVSPropertyOp17
 70
     1
102
RTVSPropertyOp18
 70
     1
102
RTVSPropertyOp19
 70
     1
102
RTVSPropertyOp20
 70
     1
102
RTVSPropertyOp21
 70
     1
102
RTVSPropertyOp22
 70
     1
102
RTVSPropertyOp23
 70
     1
102
RTVSPropertyOp24
 70
     1
102
RTVSPropertyOp25
 70
     1
102
RTVSPropertyOp26
 70
     1
102
RTVSPropertyOp27
 70
     1
102
RTVSPropertyOp28
 70
     1
102
RTVSPropertyOp29
 70
     1
102
RTVSPropertyOp30
 70
     1
102
RTVSPropertyOp31
 70
     1
102
RTVSPropertyOp32
 70
     1
102
RTVSPropertyOp33
 70
     1
102
RTVSPropertyOp34
 70
     1
102
RTVSPropertyOp35
 70
     1
102
RTVSPropertyOp36
 70
     1
102
RTVSPropertyOp37
 70
     1
102
RTVSPropertyOp38
 70
     1
102
RTVSPropertyOp39
 70
     1
102
RTVSPropertyOp40
 70
     1
102
RTVSPropertyOp41
 70
     1
102
RTVSPropertyOp42
 70
     1
102
RTVSPropertyOp43
 70
     1
102
RTVSPropertyOp44
 70
     1
102
RTVSPropertyOp45
 70
     1
102
RTVSPropertyOp46
 70
     1
102
RTVSPropertyOp47
 70
     1
102
RTVSPropertyOp48
 70
     1
102
RTVSPropertyOp49
 70
     1
102
RTVSPropertyOp50
 70
     1
102
RTVSPropertyOp51
 70
     0
102
RTVSPropertyOp52
 70
     0
102
RTVSPropertyOp53
 70
     1
102
RTVSPropertyOp54
 70
     1
102
RTVSPropertyOp55
 70
     1
102
RTVSPropertyOp56
 70
     1
102
RTVSPropertyOp57
 70
     1
102
RTVSPost2010Prop28
280
     0
102
RTVSPost2010PropOp28
 70
     1
102
RTVSPost2010Prop29
280
     1
102
RTVSPost2010PropOp29
 70
     1
102
RTVSPost2010Prop30
280
     1
102
RTVSPost2010PropOp30
 70
     1
102
RTVSPost2010Prop31
280
     0
102
RTVSPost2010PropOp31
 70
     1
102
RTVSPost2010Prop32
280
     0
102
RTVSPost2010PropOp32
 70
     1
102
RTVSPost2010Prop33
280
     0
102
RTVSPost2010PropOp33
 70
     1
102
RTVSPost2010Prop34
280
     0
102
RTVSPost2010PropOp34
 70
     1
102
RTVSPost2010Prop35
280
     0
102
RTVSPost2010PropOp35
 70
     1
102
RTVSPost2010Prop36
280
     0
102
RTVSPost2010PropOp36
 70
     1
102
RTVSPost2010Prop37
 90
       50
102
RTVSPost2010PropOp37
 70
     1
102
RTVSPost2010Prop38
140
0.0
102
RTVSPost2010PropOp38
 70
     1
102
RTVSPost2010Prop39
140
1.0
102
RTVSPost2010PropOp39
 70
     1
102
RTVSPost2010Prop40
 90
        0
102
RTVSPost2010PropOp40
 70
     1
102
RTVSPost2010Prop41ColorIndex
 90
       18
102
RTVSPost2010Prop41ColorRGB
 90
        0
102
RTVSPost2010PropOp41
 70
     1
102
RTVSPost2010Prop42
 90
       50
102
RTVSPost2010PropOp42
 70
     1
102
RTVSPost2010Prop43
 90
        3
102
RTVSPost2010PropOp43
 70
     1
102
RTVSPost2010Prop44ColorIndex
 90
        5
102
RTVSPost2010Prop44ColorRGB
 90
      255
102
RTVSPost2010PropOp44
 70
     1
102
RTVSPost2010Prop45
280
     0
102
RTVSPost2010PropOp45
 70
     1
102
RTVSPost2010Prop46
 90
       50
102
RTVSPost2010PropOp46
 70
     1
102
RTVSPost2010Prop47
 90
       50
102
RTVSPost2010PropOp47
 70
     1
102
RTVSPost2010Prop48
 90
       50
102
RTVSPost2010PropOp48
 70
     1
102
RTVSPost2010Prop49
280
     0
102
RTVSPost2010PropOp49
 70
     1
102
RTVSPost2010Prop50
 90
       50
102
RTVSPost2010PropOp50
 70
     1
102
RTVSPost2010Prop51ColorIndex
 90
      256
102
RTVSPost2010Prop51ColorRGB
 90
-16777216
102
RTVSPost2010PropOp51
 70
     0
102
RTVSPost2010Prop52
140
1.0
102
RTVSPost2010PropOp52
 70
     0
102
RTVSPost2010Prop53
 90
        2
102
RTVSPost2010PropOp53
 70
     1
102
RTVSPost2010Prop54
  1
strokes_ogs.tif
102
RTVSPost2010PropOp54
 70
     1
102
RTVSPost2010Prop55
280
     0
102
RTVSPost2010PropOp55
 70
     1
102
RTVSPost2010Prop56
140
1.0
102
RTVSPost2010PropOp56
 70
     1
102
RTVSPost2010Prop57
140
1.0
102
RTVSPost2010PropOp57
 70
     1
  0
XRECORD
  5
4A4
102
{ACAD_REACTORS
330
4A3
102
}
330
4A3
100
AcDbXrecord
280
     1
102
RTVSPropertyOp0
 70
     1
102
RTVSPropertyOp1
 70
     1
102
RTVSPropertyOp2
 70
     1
102
RTVSPropertyOp3
 70
     1
102
RTVSPropertyOp4
 70
     1
102
RTVSPropertyOp5
 70
     1
102
RTVSPropertyOp6
 70
     1
102
RTVSPropertyOp7
 70
     1
102
RTVSPropertyOp8
 70
     1
102
RTVSPropertyOp9
 70
     1
102
RTVSPropertyOp10
 70
     1
102
RTVSPropertyOp11
 70
     1
102
RTVSPropertyOp12
 70
     1
102
RTVSPropertyOp13
 70
     1
102
RTVSPropertyOp14
 70
     1
102
RTVSPropertyOp15
 70
     1
102
RTVSPropertyOp16
 70
     1
102
RTVSPropertyOp17
 70
     1
102
RTVSPropertyOp18
 70
     1
102
RTVSPropertyOp19
 70
     1
102
RTVSPropertyOp20
 70
     1
102
RTVSPropertyOp21
 70
     1
102
RTVSPropertyOp22
 70
     1
102
RTVSPropertyOp23
 70
     1
102
RTVSPropertyOp24
 70
     1
102
RTVSPropertyOp25
 70
     1
102
RTVSPropertyOp26
 70
     1
102
RTVSPropertyOp27
 70
     1
102
RTVSPropertyOp28
 70
     1
102
RTVSPropertyOp29
 70
     1
102
RTVSPropertyOp30
 70
     1
102
RTVSPropertyOp31
 70
     1
102
RTVSPropertyOp32
 70
     1
102
RTVSPropertyOp33
 70
     1
102
RTVSPropertyOp34
 70
     1
102
RTVSPropertyOp35
 70
     1
102
RTVSPropertyOp36
 70
     1
102
RTVSPropertyOp37
 70
     1
102
RTVSPropertyOp38
 70
     1
102
RTVSPropertyOp39
 70
     1
102
RTVSPropertyOp40
 70
     1
102
RTVSPropertyOp41
 70
     1
102
RTVSPropertyOp42
 70
     1
102
RTVSPropertyOp43
 70
     1
102
RTVSPropertyOp44
 70
     1
102
RTVSPropertyOp45
 70
     1
102
RTVSPropertyOp46
 70
     1
102
RTVSPropertyOp47
 70
     1
102
RTVSPropertyOp48
 70
     1
102
RTVSPropertyOp49
 70
     1
102
RTVSPropertyOp50
 70
     1
102
RTVSPropertyOp51
 70
     0
102
RTVSPropertyOp52
 70
     0
102
RTVSPropertyOp53
 70
     1
102
RTVSPropertyOp54
 70
     1
102
RTVSPropertyOp55
 70
     1
102
RTVSPropertyOp56
 70
     1
102
RTVSPropertyOp57
 70
     1
102
RTVSPost2010Prop28
280
     0
102
RTVSPost2010PropOp28
 70
     1
102
RTVSPost2010Prop29
280
     1
102
RTVSPost2010PropOp29
 70
     1
102
RTVSPost2010Prop30
280
     1
102
RTVSPost2010PropOp30
 70
     1
102
RTVSPost2010Prop31
280
     0
102
RTVSPost2010PropOp31
 70
     1
102
RTVSPost2010Prop32
280
     0
102
RTVSPost2010PropOp32
 70
     1
102
RTVSPost2010Prop33
280
     0
102
RTVSPost2010PropOp33
 70
     1
102
RTVSPost2010Prop34
280
     0
102
RTVSPost2010PropOp34
 70
     1
102
RTVSPost2010Prop35
280
     0
102
RTVSPost2010PropOp35
 70
     1
102
RTVSPost2010Prop36
280
     0
102
RTVSPost2010PropOp36
 70
     1
102
RTVSPost2010Prop37
 90
       50
102
RTVSPost2010PropOp37
 70
     1
102
RTVSPost2010Prop38
140
0.0
102
RTVSPost2010PropOp38
 70
     1
102
RTVSPost2010Prop39
140
1.0
102
RTVSPost2010PropOp39
 70
     1
102
RTVSPost2010Prop40
 90
        0
102
RTVSPost2010PropOp40
 70
     1
102
RTVSPost2010Prop41ColorIndex
 90
       18
102
RTVSPost2010Prop41ColorRGB
 90
        0
102
RTVSPost2010PropOp41
 70
     1
102
RTVSPost2010Prop42
 90
       50
102
RTVSPost2010PropOp42
 70
     1
102
RTVSPost2010Prop43
 90
        3
102
RTVSPost2010PropOp43
 70
     1
102
RTVSPost2010Prop44ColorIndex
 90
        5
102
RTVSPost2010Prop44ColorRGB
 90
      255
102
RTVSPost2010PropOp44
 70
     1
102
RTVSPost2010Prop45
280
     0
102
RTVSPost2010PropOp45
 70
     1
102
RTVSPost2010Prop46
 90
       50
102
RTVSPost2010PropOp46
 70
     1
102
RTVSPost2010Prop47
 90
       50
102
RTVSPost2010PropOp47
 70
     1
102
RTVSPost2010Prop48
 90
       50
102
RTVSPost2010PropOp48
 70
     1
102
RTVSPost2010Prop49
280
     0
102
RTVSPost2010PropOp49
 70
     1
102
RTVSPost2010Prop50
 90
       50
102
RTVSPost2010PropOp50
 70
     1
102
RTVSPost2010Prop51ColorIndex
 90
      256
102
RTVSPost2010Prop51ColorRGB
 90
-16777216
102
RTVSPost2010PropOp51
 70
     0
102
RTVSPost2010Prop52
140
1.0
102
RTVSPost2010PropOp52
 70
     0
102
RTVSPost2010Prop53
 90
        2
102
RTVSPost2010PropOp53
 70
     1
102
RTVSPost2010Prop54
  1
strokes_ogs.tif
102
RTVSPost2010PropOp54
 70
     1
102
RTVSPost2010Prop55
280
     0
102
RTVSPost2010PropOp55
 70
     1
102
RTVSPost2010Prop56
140
1.0
102
RTVSPost2010PropOp56
 70
     1
102
RTVSPost2010Prop57
140
1.0
102
RTVSPost2010PropOp57
 70
     1
  0
XRECORD
  5
4B4
102
{ACAD_REACTORS
330
4B3
102
}
330
4B3
100
AcDbXrecord
280
     1
102
RTVSPropertyOp0
 70
     0
102
RTVSPropertyOp1
 70
     0
102
RTVSPropertyOp2
 70
     0
102
RTVSPropertyOp3
 70
     0
102
RTVSPropertyOp4
 70
     0
102
RTVSPropertyOp5
 70
     0
102
RTVSPropertyOp6
 70
     0
102
RTVSPropertyOp7
 70
     0
102
RTVSPropertyOp8
 70
     0
102
RTVSPropertyOp9
 70
     0
102
RTVSPropertyOp10
 70
     0
102
RTVSPropertyOp11
 70
     0
102
RTVSPropertyOp12
 70
     0
102
RTVSPropertyOp13
 70
     0
102
RTVSPropertyOp14
 70
     2
102
RTVSPropertyOp15
 70
     0
102
RTVSPropertyOp16
 70
     0
102
RTVSPropertyOp17
 70
     0
102
RTVSPropertyOp18
 70
     0
102
RTVSPropertyOp19
 70
     0
102
RTVSPropertyOp20
 70
     0
102
RTVSPropertyOp21
 70
     0
102
RTVSPropertyOp22
 70
     0
102
RTVSPropertyOp23
 70
     0
102
RTVSPropertyOp24
 70
     0
102
RTVSPropertyOp25
 70
     0
102
RTVSPropertyOp26
 70
     0
102
RTVSPropertyOp27
 70
     0
102
RTVSPropertyOp28
 70
     0
102
RTVSPropertyOp29
 70
     0
102
RTVSPropertyOp30
 70
     0
102
RTVSPropertyOp31
 70
     0
102
RTVSPropertyOp32
 70
     0
102
RTVSPropertyOp33
 70
     0
102
RTVSPropertyOp34
 70
     0
102
RTVSPropertyOp35
 70
     0
102
RTVSPropertyOp36
 70
     0
102
RTVSPropertyOp37
 70
     0
102
RTVSPropertyOp38
 70
     0
102
RTVSPropertyOp39
 70
     0
102
RTVSPropertyOp40
 70
     0
102
RTVSPropertyOp41
 70
     0
102
RTVSPropertyOp42
 70
     0
102
RTVSPropertyOp43
 70
     0
102
RTVSPropertyOp44
 70
     0
102
RTVSPropertyOp45
 70
     0
102
RTVSPropertyOp46
 70
     0
102
RTVSPropertyOp47
 70
     0
102
RTVSPropertyOp48
 70
     0
102
RTVSPropertyOp49
 70
     0
102
RTVSPropertyOp50
 70
     0
102
RTVSPropertyOp51
 70
     0
102
RTVSPropertyOp52
 70
     0
102
RTVSPropertyOp53
 70
     0
102
RTVSPropertyOp54
 70
     0
102
RTVSPropertyOp55
 70
     0
102
RTVSPropertyOp56
 70
     0
102
RTVSPropertyOp57
 70
     0
102
RTVSPost2010Prop28
280
     0
102
RTVSPost2010PropOp28
 70
     0
102
RTVSPost2010Prop29
280
     1
102
RTVSPost2010PropOp29
 70
     0
102
RTVSPost2010Prop30
280
     1
102
RTVSPost2010PropOp30
 70
     0
102
RTVSPost2010Prop31
280
     0
102
RTVSPost2010PropOp31
 70
     0
102
RTVSPost2010Prop32
280
     0
102
RTVSPost2010PropOp32
 70
     0
102
RTVSPost2010Prop33
280
     0
102
RTVSPost2010PropOp33
 70
     0
102
RTVSPost2010Prop34
280
     0
102
RTVSPost2010PropOp34
 70
     0
102
RTVSPost2010Prop35
280
     0
102
RTVSPost2010PropOp35
 70
     0
102
RTVSPost2010Prop36
280
     0
102
RTVSPost2010PropOp36
 70
     0
102
RTVSPost2010Prop37
 90
       50
102
RTVSPost2010PropOp37
 70
     0
102
RTVSPost2010Prop38
140
0.0
102
RTVSPost2010PropOp38
 70
     0
102
RTVSPost2010Prop39
140
1.0
102
RTVSPost2010PropOp39
 70
     0
102
RTVSPost2010Prop40
 90
        0
102
RTVSPost2010PropOp40
 70
     0
102
RTVSPost2010Prop41ColorIndex
 90
       18
102
RTVSPost2010Prop41ColorRGB
 90
        0
102
RTVSPost2010PropOp41
 70
     0
102
RTVSPost2010Prop42
 90
       50
102
RTVSPost2010PropOp42
 70
     0
102
RTVSPost2010Prop43
 90
        3
102
RTVSPost2010PropOp43
 70
     0
102
RTVSPost2010Prop44ColorIndex
 90
        5
102
RTVSPost2010Prop44ColorRGB
 90
      255
102
RTVSPost2010PropOp44
 70
     0
102
RTVSPost2010Prop45
280
     0
102
RTVSPost2010PropOp45
 70
     0
102
RTVSPost2010Prop46
 90
       50
102
RTVSPost2010PropOp46
 70
     0
102
RTVSPost2010Prop47
 90
       50
102
RTVSPost2010PropOp47
 70
     0
102
RTVSPost2010Prop48
 90
       50
102
RTVSPost2010PropOp48
 70
     0
102
RTVSPost2010Prop49
280
     0
102
RTVSPost2010PropOp49
 70
     0
102
RTVSPost2010Prop50
 90
       50
102
RTVSPost2010PropOp50
 70
     0
102
RTVSPost2010Prop51ColorIndex
 90
      256
102
RTVSPost2010Prop51ColorRGB
 90
-16777216
102
RTVSPost2010PropOp51
 70
     0
102
RTVSPost2010Prop52
140
1.0
102
RTVSPost2010PropOp52
 70
     0
102
RTVSPost2010Prop53
 90
        2
102
RTVSPost2010PropOp53
 70
     0
102
RTVSPost2010Prop54
  1
strokes_ogs.tif
102
RTVSPost2010PropOp54
 70
     0
102
RTVSPost2010Prop55
280
     0
102
RTVSPost2010PropOp55
 70
     0
102
RTVSPost2010Prop56
140
1.0
102
RTVSPost2010PropOp56
 70
     0
102
RTVSPost2010Prop57
140
1.0
102
RTVSPost2010PropOp57
 70
     0
  0
XRECORD
  5
4AC
102
{ACAD_REACTORS
330
4AB
102
}
330
4AB
100
AcDbXrecord
280
     1
102
RTVSPropertyOp0
 70
     1
102
RTVSPropertyOp1
 70
     1
102
RTVSPropertyOp2
 70
     1
102
RTVSPropertyOp3
 70
     1
102
RTVSPropertyOp4
 70
     1
102
RTVSPropertyOp5
 70
     1
102
RTVSPropertyOp6
 70
     1
102
RTVSPropertyOp7
 70
     1
102
RTVSPropertyOp8
 70
     1
102
RTVSPropertyOp9
 70
     1
102
RTVSPropertyOp10
 70
     1
102
RTVSPropertyOp11
 70
     1
102
RTVSPropertyOp12
 70
     1
102
RTVSPropertyOp13
 70
     1
102
RTVSPropertyOp14
 70
     1
102
RTVSPropertyOp15
 70
     1
102
RTVSPropertyOp16
 70
     1
102
RTVSPropertyOp17
 70
     1
102
RTVSPropertyOp18
 70
     1
102
RTVSPropertyOp19
 70
     1
102
RTVSPropertyOp20
 70
     1
102
RTVSPropertyOp21
 70
     1
102
RTVSPropertyOp22
 70
     1
102
RTVSPropertyOp23
 70
     1
102
RTVSPropertyOp24
 70
     1
102
RTVSPropertyOp25
 70
     1
102
RTVSPropertyOp26
 70
     1
102
RTVSPropertyOp27
 70
     1
102
RTVSPropertyOp28
 70
     1
102
RTVSPropertyOp29
 70
     1
102
RTVSPropertyOp30
 70
     1
102
RTVSPropertyOp31
 70
     1
102
RTVSPropertyOp32
 70
     1
102
RTVSPropertyOp33
 70
     1
102
RTVSPropertyOp34
 70
     1
102
RTVSPropertyOp35
 70
     1
102
RTVSPropertyOp36
 70
     1
102
RTVSPropertyOp37
 70
     1
102
RTVSPropertyOp38
 70
     1
102
RTVSPropertyOp39
 70
     1
102
RTVSPropertyOp40
 70
     1
102
RTVSPropertyOp41
 70
     1
102
RTVSPropertyOp42
 70
     1
102
RTVSPropertyOp43
 70
     1
102
RTVSPropertyOp44
 70
     1
102
RTVSPropertyOp45
 70
     1
102
RTVSPropertyOp46
 70
     1
102
RTVSPropertyOp47
 70
     1
102
RTVSPropertyOp48
 70
     1
102
RTVSPropertyOp49
 70
     1
102
RTVSPropertyOp50
 70
     1
102
RTVSPropertyOp51
 70
     0
102
RTVSPropertyOp52
 70
     0
102
RTVSPropertyOp53
 70
     1
102
RTVSPropertyOp54
 70
     1
102
RTVSPropertyOp55
 70
     1
102
RTVSPropertyOp56
 70
     1
102
RTVSPropertyOp57
 70
     1
102
RTVSPost2010Prop28
280
     0
102
RTVSPost2010PropOp28
 70
     1
102
RTVSPost2010Prop29
280
     1
102
RTVSPost2010PropOp29
 70
     1
102
RTVSPost2010Prop30
280
     1
102
RTVSPost2010PropOp30
 70
     1
102
RTVSPost2010Prop31
280
     0
102
RTVSPost2010PropOp31
 70
     1
102
RTVSPost2010Prop32
280
     0
102
RTVSPost2010PropOp32
 70
     1
102
RTVSPost2010Prop33
280
     0
102
RTVSPost2010PropOp33
 70
     1
102
RTVSPost2010Prop34
280
     0
102
RTVSPost2010PropOp34
 70
     1
102
RTVSPost2010Prop35
280
     0
102
RTVSPost2010PropOp35
 70
     1
102
RTVSPost2010Prop36
280
     0
102
RTVSPost2010PropOp36
 70
     1
102
RTVSPost2010Prop37
 90
       50
102
RTVSPost2010PropOp37
 70
     1
102
RTVSPost2010Prop38
140
0.0
102
RTVSPost2010PropOp38
 70
     1
102
RTVSPost2010Prop39
140
1.0
102
RTVSPost2010PropOp39
 70
     1
102
RTVSPost2010Prop40
 90
        0
102
RTVSPost2010PropOp40
 70
     1
102
RTVSPost2010Prop41ColorIndex
 90
       18
102
RTVSPost2010Prop41ColorRGB
 90
        0
102
RTVSPost2010PropOp41
 70
     1
102
RTVSPost2010Prop42
 90
       50
102
RTVSPost2010PropOp42
 70
     1
102
RTVSPost2010Prop43
 90
        3
102
RTVSPost2010PropOp43
 70
     1
102
RTVSPost2010Prop44ColorIndex
 90
        5
102
RTVSPost2010Prop44ColorRGB
 90
      255
102
RTVSPost2010PropOp44
 70
     1
102
RTVSPost2010Prop45
280
     0
102
RTVSPost2010PropOp45
 70
     1
102
RTVSPost2010Prop46
 90
       50
102
RTVSPost2010PropOp46
 70
     1
102
RTVSPost2010Prop47
 90
       50
102
RTVSPost2010PropOp47
 70
     1
102
RTVSPost2010Prop48
 90
       50
102
RTVSPost2010PropOp48
 70
     1
102
RTVSPost2010Prop49
280
     0
102
RTVSPost2010PropOp49
 70
     1
102
RTVSPost2010Prop50
 90
       50
102
RTVSPost2010PropOp50
 70
     1
102
RTVSPost2010Prop51ColorIndex
 90
      256
102
RTVSPost2010Prop51ColorRGB
 90
-16777216
102
RTVSPost2010PropOp51
 70
     0
102
RTVSPost2010Prop52
140
1.0
102
RTVSPost2010PropOp52
 70
     0
102
RTVSPost2010Prop53
 90
        2
102
RTVSPost2010PropOp53
 70
     1
102
RTVSPost2010Prop54
  1
strokes_ogs.tif
102
RTVSPost2010PropOp54
 70
     1
102
RTVSPost2010Prop55
280
     0
102
RTVSPost2010PropOp55
 70
     1
102
RTVSPost2010Prop56
140
1.0
102
RTVSPost2010PropOp56
 70
     1
102
RTVSPost2010Prop57
140
1.0
102
RTVSPost2010PropOp57
 70
     1
  0
XRECORD
  5
490
102
{ACAD_REACTORS
330
48F
102
}
330
48F
100
AcDbXrecord
280
     1
102
RTVSPropertyOp0
 70
     1
102
RTVSPropertyOp1
 70
     1
102
RTVSPropertyOp2
 70
     1
102
RTVSPropertyOp3
 70
     1
102
RTVSPropertyOp4
 70
     1
102
RTVSPropertyOp5
 70
     1
102
RTVSPropertyOp6
 70
     1
102
RTVSPropertyOp7
 70
     1
102
RTVSPropertyOp8
 70
     1
102
RTVSPropertyOp9
 70
     1
102
RTVSPropertyOp10
 70
     1
102
RTVSPropertyOp11
 70
     1
102
RTVSPropertyOp12
 70
     1
102
RTVSPropertyOp13
 70
     1
102
RTVSPropertyOp14
 70
     1
102
RTVSPropertyOp15
 70
     1
102
RTVSPropertyOp16
 70
     1
102
RTVSPropertyOp17
 70
     1
102
RTVSPropertyOp18
 70
     1
102
RTVSPropertyOp19
 70
     1
102
RTVSPropertyOp20
 70
     1
102
RTVSPropertyOp21
 70
     1
102
RTVSPropertyOp22
 70
     1
102
RTVSPropertyOp23
 70
     1
102
RTVSPropertyOp24
 70
     1
102
RTVSPropertyOp25
 70
     1
102
RTVSPropertyOp26
 70
     1
102
RTVSPropertyOp27
 70
     1
102
RTVSPropertyOp28
 70
     1
102
RTVSPropertyOp29
 70
     1
102
RTVSPropertyOp30
 70
     1
102
RTVSPropertyOp31
 70
     1
102
RTVSPropertyOp32
 70
     1
102
RTVSPropertyOp33
 70
     1
102
RTVSPropertyOp34
 70
     1
102
RTVSPropertyOp35
 70
     1
102
RTVSPropertyOp36
 70
     1
102
RTVSPropertyOp37
 70
     1
102
RTVSPropertyOp38
 70
     1
102
RTVSPropertyOp39
 70
     1
102
RTVSPropertyOp40
 70
     1
102
RTVSPropertyOp41
 70
     1
102
RTVSPropertyOp42
 70
     1
102
RTVSPropertyOp43
 70
     1
102
RTVSPropertyOp44
 70
     1
102
RTVSPropertyOp45
 70
     1
102
RTVSPropertyOp46
 70
     1
102
RTVSPropertyOp47
 70
     1
102
RTVSPropertyOp48
 70
     1
102
RTVSPropertyOp49
 70
     1
102
RTVSPropertyOp50
 70
     1
102
RTVSPropertyOp51
 70
     0
102
RTVSPropertyOp52
 70
     0
102
RTVSPropertyOp53
 70
     1
102
RTVSPropertyOp54
 70
     1
102
RTVSPropertyOp55
 70
     1
102
RTVSPropertyOp56
 70
     1
102
RTVSPropertyOp57
 70
     1
102
RTVSPost2010Prop28
280
     0
102
RTVSPost2010PropOp28
 70
     1
102
RTVSPost2010Prop29
280
     1
102
RTVSPost2010PropOp29
 70
     1
102
RTVSPost2010Prop30
280
     1
102
RTVSPost2010PropOp30
 70
     1
102
RTVSPost2010Prop31
280
     0
102
RTVSPost2010PropOp31
 70
     1
102
RTVSPost2010Prop32
280
     0
102
RTVSPost2010PropOp32
 70
     1
102
RTVSPost2010Prop33
280
     0
102
RTVSPost2010PropOp33
 70
     1
102
RTVSPost2010Prop34
280
     0
102
RTVSPost2010PropOp34
 70
     1
102
RTVSPost2010Prop35
280
     0
102
RTVSPost2010PropOp35
 70
     1
102
RTVSPost2010Prop36
280
     0
102
RTVSPost2010PropOp36
 70
     1
102
RTVSPost2010Prop37
 90
       50
102
RTVSPost2010PropOp37
 70
     1
102
RTVSPost2010Prop38
140
0.0
102
RTVSPost2010PropOp38
 70
     1
102
RTVSPost2010Prop39
140
1.0
102
RTVSPost2010PropOp39
 70
     1
102
RTVSPost2010Prop40
 90
        0
102
RTVSPost2010PropOp40
 70
     1
102
RTVSPost2010Prop41ColorIndex
 90
       18
102
RTVSPost2010Prop41ColorRGB
 90
        0
102
RTVSPost2010PropOp41
 70
     1
102
RTVSPost2010Prop42
 90
       50
102
RTVSPost2010PropOp42
 70
     1
102
RTVSPost2010Prop43
 90
        3
102
RTVSPost2010PropOp43
 70
     1
102
RTVSPost2010Prop44ColorIndex
 90
        5
102
RTVSPost2010Prop44ColorRGB
 90
      255
102
RTVSPost2010PropOp44
 70
     1
102
RTVSPost2010Prop45
280
     0
102
RTVSPost2010PropOp45
 70
     1
102
RTVSPost2010Prop46
 90
       50
102
RTVSPost2010PropOp46
 70
     1
102
RTVSPost2010Prop47
 90
       50
102
RTVSPost2010PropOp47
 70
     1
102
RTVSPost2010Prop48
 90
       50
102
RTVSPost2010PropOp48
 70
     1
102
RTVSPost2010Prop49
280
     0
102
RTVSPost2010PropOp49
 70
     1
102
RTVSPost2010Prop50
 90
       50
102
RTVSPost2010PropOp50
 70
     1
102
RTVSPost2010Prop51ColorIndex
 90
      256
102
RTVSPost2010Prop51ColorRGB
 90
-16777216
102
RTVSPost2010PropOp51
 70
     0
102
RTVSPost2010Prop52
140
1.0
102
RTVSPost2010PropOp52
 70
     0
102
RTVSPost2010Prop53
 90
        2
102
RTVSPost2010PropOp53
 70
     1
102
RTVSPost2010Prop54
  1
strokes_ogs.tif
102
RTVSPost2010PropOp54
 70
     1
102
RTVSPost2010Prop55
280
     0
102
RTVSPost2010PropOp55
 70
     1
102
RTVSPost2010Prop56
140
1.0
102
RTVSPost2010PropOp56
 70
     1
102
RTVSPost2010Prop57
140
1.0
102
RTVSPost2010PropOp57
 70
     1
  0
XRECORD
  5
492
102
{ACAD_REACTORS
330
491
102
}
330
491
100
AcDbXrecord
280
     1
102
RTVSPropertyOp0
 70
     1
102
RTVSPropertyOp1
 70
     1
102
RTVSPropertyOp2
 70
     1
102
RTVSPropertyOp3
 70
     1
102
RTVSPropertyOp4
 70
     1
102
RTVSPropertyOp5
 70
     1
102
RTVSPropertyOp6
 70
     1
102
RTVSPropertyOp7
 70
     1
102
RTVSPropertyOp8
 70
     1
102
RTVSPropertyOp9
 70
     1
102
RTVSPropertyOp10
 70
     1
102
RTVSPropertyOp11
 70
     1
102
RTVSPropertyOp12
 70
     1
102
RTVSPropertyOp13
 70
     1
102
RTVSPropertyOp14
 70
     1
102
RTVSPropertyOp15
 70
     1
102
RTVSPropertyOp16
 70
     1
102
RTVSPropertyOp17
 70
     1
102
RTVSPropertyOp18
 70
     1
102
RTVSPropertyOp19
 70
     1
102
RTVSPropertyOp20
 70
     1
102
RTVSPropertyOp21
 70
     1
102
RTVSPropertyOp22
 70
     1
102
RTVSPropertyOp23
 70
     1
102
RTVSPropertyOp24
 70
     1
102
RTVSPropertyOp25
 70
     1
102
RTVSPropertyOp26
 70
     1
102
RTVSPropertyOp27
 70
     1
102
RTVSPropertyOp28
 70
     1
102
RTVSPropertyOp29
 70
     1
102
RTVSPropertyOp30
 70
     1
102
RTVSPropertyOp31
 70
     1
102
RTVSPropertyOp32
 70
     1
102
RTVSPropertyOp33
 70
     1
102
RTVSPropertyOp34
 70
     1
102
RTVSPropertyOp35
 70
     1
102
RTVSPropertyOp36
 70
     1
102
RTVSPropertyOp37
 70
     1
102
RTVSPropertyOp38
 70
     1
102
RTVSPropertyOp39
 70
     1
102
RTVSPropertyOp40
 70
     1
102
RTVSPropertyOp41
 70
     1
102
RTVSPropertyOp42
 70
     1
102
RTVSPropertyOp43
 70
     1
102
RTVSPropertyOp44
 70
     1
102
RTVSPropertyOp45
 70
     1
102
RTVSPropertyOp46
 70
     1
102
RTVSPropertyOp47
 70
     1
102
RTVSPropertyOp48
 70
     1
102
RTVSPropertyOp49
 70
     1
102
RTVSPropertyOp50
 70
     1
102
RTVSPropertyOp51
 70
     0
102
RTVSPropertyOp52
 70
     0
102
RTVSPropertyOp53
 70
     1
102
RTVSPropertyOp54
 70
     1
102
RTVSPropertyOp55
 70
     1
102
RTVSPropertyOp56
 70
     1
102
RTVSPropertyOp57
 70
     1
102
RTVSPost2010Prop28
280
     0
102
RTVSPost2010PropOp28
 70
     1
102
RTVSPost2010Prop29
280
     1
102
RTVSPost2010PropOp29
 70
     1
102
RTVSPost2010Prop30
280
     1
102
RTVSPost2010PropOp30
 70
     1
102
RTVSPost2010Prop31
280
     0
102
RTVSPost2010PropOp31
 70
     1
102
RTVSPost2010Prop32
280
     0
102
RTVSPost2010PropOp32
 70
     1
102
RTVSPost2010Prop33
280
     0
102
RTVSPost2010PropOp33
 70
     1
102
RTVSPost2010Prop34
280
     0
102
RTVSPost2010PropOp34
 70
     1
102
RTVSPost2010Prop35
280
     0
102
RTVSPost2010PropOp35
 70
     1
102
RTVSPost2010Prop36
280
     0
102
RTVSPost2010PropOp36
 70
     1
102
RTVSPost2010Prop37
 90
       50
102
RTVSPost2010PropOp37
 70
     1
102
RTVSPost2010Prop38
140
0.0
102
RTVSPost2010PropOp38
 70
     1
102
RTVSPost2010Prop39
140
1.0
102
RTVSPost2010PropOp39
 70
     1
102
RTVSPost2010Prop40
 90
        0
102
RTVSPost2010PropOp40
 70
     1
102
RTVSPost2010Prop41ColorIndex
 90
       18
102
RTVSPost2010Prop41ColorRGB
 90
        0
102
RTVSPost2010PropOp41
 70
     1
102
RTVSPost2010Prop42
 90
       50
102
RTVSPost2010PropOp42
 70
     1
102
RTVSPost2010Prop43
 90
        3
102
RTVSPost2010PropOp43
 70
     1
102
RTVSPost2010Prop44ColorIndex
 90
        5
102
RTVSPost2010Prop44ColorRGB
 90
      255
102
RTVSPost2010PropOp44
 70
     1
102
RTVSPost2010Prop45
280
     0
102
RTVSPost2010PropOp45
 70
     1
102
RTVSPost2010Prop46
 90
       50
102
RTVSPost2010PropOp46
 70
     1
102
RTVSPost2010Prop47
 90
       50
102
RTVSPost2010PropOp47
 70
     1
102
RTVSPost2010Prop48
 90
       50
102
RTVSPost2010PropOp48
 70
     1
102
RTVSPost2010Prop49
280
     0
102
RTVSPost2010PropOp49
 70
     1
102
RTVSPost2010Prop50
 90
       50
102
RTVSPost2010PropOp50
 70
     1
102
RTVSPost2010Prop51ColorIndex
 90
      256
102
RTVSPost2010Prop51ColorRGB
 90
-16777216
102
RTVSPost2010PropOp51
 70
     0
102
RTVSPost2010Prop52
140
1.0
102
RTVSPost2010PropOp52
 70
     0
102
RTVSPost2010Prop53
 90
        2
102
RTVSPost2010PropOp53
 70
     1
102
RTVSPost2010Prop54
  1
strokes_ogs.tif
102
RTVSPost2010PropOp54
 70
     1
102
RTVSPost2010Prop55
280
     0
102
RTVSPost2010PropOp55
 70
     1
102
RTVSPost2010Prop56
140
1.0
102
RTVSPost2010PropOp56
 70
     1
102
RTVSPost2010Prop57
140
1.0
102
RTVSPost2010PropOp57
 70
     1
  0
XRECORD
  5
494
102
{ACAD_REACTORS
330
493
102
}
330
493
100
AcDbXrecord
280
     1
102
RTVSPropertyOp0
 70
     1
102
RTVSPropertyOp1
 70
     1
102
RTVSPropertyOp2
 70
     1
102
RTVSPropertyOp3
 70
     1
102
RTVSPropertyOp4
 70
     1
102
RTVSPropertyOp5
 70
     1
102
RTVSPropertyOp6
 70
     1
102
RTVSPropertyOp7
 70
     1
102
RTVSPropertyOp8
 70
     1
102
RTVSPropertyOp9
 70
     1
102
RTVSPropertyOp10
 70
     1
102
RTVSPropertyOp11
 70
     1
102
RTVSPropertyOp12
 70
     1
102
RTVSPropertyOp13
 70
     1
102
RTVSPropertyOp14
 70
     1
102
RTVSPropertyOp15
 70
     1
102
RTVSPropertyOp16
 70
     1
102
RTVSPropertyOp17
 70
     1
102
RTVSPropertyOp18
 70
     1
102
RTVSPropertyOp19
 70
     1
102
RTVSPropertyOp20
 70
     1
102
RTVSPropertyOp21
 70
     1
102
RTVSPropertyOp22
 70
     1
102
RTVSPropertyOp23
 70
     1
102
RTVSPropertyOp24
 70
     1
102
RTVSPropertyOp25
 70
     1
102
RTVSPropertyOp26
 70
     1
102
RTVSPropertyOp27
 70
     1
102
RTVSPropertyOp28
 70
     1
102
RTVSPropertyOp29
 70
     1
102
RTVSPropertyOp30
 70
     1
102
RTVSPropertyOp31
 70
     1
102
RTVSPropertyOp32
 70
     1
102
RTVSPropertyOp33
 70
     1
102
RTVSPropertyOp34
 70
     1
102
RTVSPropertyOp35
 70
     1
102
RTVSPropertyOp36
 70
     1
102
RTVSPropertyOp37
 70
     1
102
RTVSPropertyOp38
 70
     1
102
RTVSPropertyOp39
 70
     1
102
RTVSPropertyOp40
 70
     1
102
RTVSPropertyOp41
 70
     1
102
RTVSPropertyOp42
 70
     1
102
RTVSPropertyOp43
 70
     1
102
RTVSPropertyOp44
 70
     1
102
RTVSPropertyOp45
 70
     1
102
RTVSPropertyOp46
 70
     1
102
RTVSPropertyOp47
 70
     1
102
RTVSPropertyOp48
 70
     1
102
RTVSPropertyOp49
 70
     1
102
RTVSPropertyOp50
 70
     1
102
RTVSPropertyOp51
 70
     0
102
RTVSPropertyOp52
 70
     0
102
RTVSPropertyOp53
 70
     1
102
RTVSPropertyOp54
 70
     1
102
RTVSPropertyOp55
 70
     1
102
RTVSPropertyOp56
 70
     1
102
RTVSPropertyOp57
 70
     1
102
RTVSPost2010Prop28
280
     0
102
RTVSPost2010PropOp28
 70
     1
102
RTVSPost2010Prop29
280
     1
102
RTVSPost2010PropOp29
 70
     1
102
RTVSPost2010Prop30
280
     1
102
RTVSPost2010PropOp30
 70
     1
102
RTVSPost2010Prop31
280
     0
102
RTVSPost2010PropOp31
 70
     1
102
RTVSPost2010Prop32
280
     0
102
RTVSPost2010PropOp32
 70
     1
102
RTVSPost2010Prop33
280
     0
102
RTVSPost2010PropOp33
 70
     1
102
RTVSPost2010Prop34
280
     0
102
RTVSPost2010PropOp34
 70
     1
102
RTVSPost2010Prop35
280
     0
102
RTVSPost2010PropOp35
 70
     1
102
RTVSPost2010Prop36
280
     0
102
RTVSPost2010PropOp36
 70
     1
102
RTVSPost2010Prop37
 90
       50
102
RTVSPost2010PropOp37
 70
     1
102
RTVSPost2010Prop38
140
0.0
102
RTVSPost2010PropOp38
 70
     1
102
RTVSPost2010Prop39
140
1.0
102
RTVSPost2010PropOp39
 70
     1
102
RTVSPost2010Prop40
 90
        0
102
RTVSPost2010PropOp40
 70
     1
102
RTVSPost2010Prop41ColorIndex
 90
       18
102
RTVSPost2010Prop41ColorRGB
 90
        0
102
RTVSPost2010PropOp41
 70
     1
102
RTVSPost2010Prop42
 90
       50
102
RTVSPost2010PropOp42
 70
     1
102
RTVSPost2010Prop43
 90
        3
102
RTVSPost2010PropOp43
 70
     1
102
RTVSPost2010Prop44ColorIndex
 90
        5
102
RTVSPost2010Prop44ColorRGB
 90
      255
102
RTVSPost2010PropOp44
 70
     1
102
RTVSPost2010Prop45
280
     0
102
RTVSPost2010PropOp45
 70
     1
102
RTVSPost2010Prop46
 90
       50
102
RTVSPost2010PropOp46
 70
     1
102
RTVSPost2010Prop47
 90
       50
102
RTVSPost2010PropOp47
 70
     1
102
RTVSPost2010Prop48
 90
       50
102
RTVSPost2010PropOp48
 70
     1
102
RTVSPost2010Prop49
280
     0
102
RTVSPost2010PropOp49
 70
     1
102
RTVSPost2010Prop50
 90
       50
102
RTVSPost2010PropOp50
 70
     1
102
RTVSPost2010Prop51ColorIndex
 90
      256
102
RTVSPost2010Prop51ColorRGB
 90
-16777216
102
RTVSPost2010PropOp51
 70
     0
102
RTVSPost2010Prop52
140
1.0
102
RTVSPost2010PropOp52
 70
     0
102
RTVSPost2010Prop53
 90
        2
102
RTVSPost2010PropOp53
 70
     1
102
RTVSPost2010Prop54
  1
strokes_ogs.tif
102
RTVSPost2010PropOp54
 70
     1
102
RTVSPost2010Prop55
280
     0
102
RTVSPost2010PropOp55
 70
     1
102
RTVSPost2010Prop56
140
1.0
102
RTVSPost2010PropOp56
 70
     1
102
RTVSPost2010Prop57
140
1.0
102
RTVSPost2010PropOp57
 70
     1
  0
XRECORD
  5
496
102
{ACAD_REACTORS
330
495
102
}
330
495
100
AcDbXrecord
280
     1
102
RTVSPropertyOp0
 70
     1
102
RTVSPropertyOp1
 70
     1
102
RTVSPropertyOp2
 70
     1
102
RTVSPropertyOp3
 70
     1
102
RTVSPropertyOp4
 70
     1
102
RTVSPropertyOp5
 70
     1
102
RTVSPropertyOp6
 70
     1
102
RTVSPropertyOp7
 70
     1
102
RTVSPropertyOp8
 70
     1
102
RTVSPropertyOp9
 70
     1
102
RTVSPropertyOp10
 70
     1
102
RTVSPropertyOp11
 70
     1
102
RTVSPropertyOp12
 70
     1
102
RTVSPropertyOp13
 70
     1
102
RTVSPropertyOp14
 70
     1
102
RTVSPropertyOp15
 70
     1
102
RTVSPropertyOp16
 70
     1
102
RTVSPropertyOp17
 70
     1
102
RTVSPropertyOp18
 70
     1
102
RTVSPropertyOp19
 70
     1
102
RTVSPropertyOp20
 70
     1
102
RTVSPropertyOp21
 70
     1
102
RTVSPropertyOp22
 70
     1
102
RTVSPropertyOp23
 70
     1
102
RTVSPropertyOp24
 70
     1
102
RTVSPropertyOp25
 70
     1
102
RTVSPropertyOp26
 70
     1
102
RTVSPropertyOp27
 70
     1
102
RTVSPropertyOp28
 70
     1
102
RTVSPropertyOp29
 70
     1
102
RTVSPropertyOp30
 70
     1
102
RTVSPropertyOp31
 70
     1
102
RTVSPropertyOp32
 70
     1
102
RTVSPropertyOp33
 70
     1
102
RTVSPropertyOp34
 70
     1
102
RTVSPropertyOp35
 70
     1
102
RTVSPropertyOp36
 70
     1
102
RTVSPropertyOp37
 70
     1
102
RTVSPropertyOp38
 70
     1
102
RTVSPropertyOp39
 70
     1
102
RTVSPropertyOp40
 70
     1
102
RTVSPropertyOp41
 70
     1
102
RTVSPropertyOp42
 70
     1
102
RTVSPropertyOp43
 70
     1
102
RTVSPropertyOp44
 70
     1
102
RTVSPropertyOp45
 70
     1
102
RTVSPropertyOp46
 70
     1
102
RTVSPropertyOp47
 70
     1
102
RTVSPropertyOp48
 70
     1
102
RTVSPropertyOp49
 70
     1
102
RTVSPropertyOp50
 70
     1
102
RTVSPropertyOp51
 70
     0
102
RTVSPropertyOp52
 70
     0
102
RTVSPropertyOp53
 70
     1
102
RTVSPropertyOp54
 70
     1
102
RTVSPropertyOp55
 70
     1
102
RTVSPropertyOp56
 70
     1
102
RTVSPropertyOp57
 70
     1
102
RTVSPost2010Prop28
280
     0
102
RTVSPost2010PropOp28
 70
     1
102
RTVSPost2010Prop29
280
     1
102
RTVSPost2010PropOp29
 70
     1
102
RTVSPost2010Prop30
280
     1
102
RTVSPost2010PropOp30
 70
     1
102
RTVSPost2010Prop31
280
     0
102
RTVSPost2010PropOp31
 70
     1
102
RTVSPost2010Prop32
280
     0
102
RTVSPost2010PropOp32
 70
     1
102
RTVSPost2010Prop33
280
     0
102
RTVSPost2010PropOp33
 70
     1
102
RTVSPost2010Prop34
280
     0
102
RTVSPost2010PropOp34
 70
     1
102
RTVSPost2010Prop35
280
     0
102
RTVSPost2010PropOp35
 70
     1
102
RTVSPost2010Prop36
280
     0
102
RTVSPost2010PropOp36
 70
     1
102
RTVSPost2010Prop37
 90
       50
102
RTVSPost2010PropOp37
 70
     1
102
RTVSPost2010Prop38
140
0.0
102
RTVSPost2010PropOp38
 70
     1
102
RTVSPost2010Prop39
140
1.0
102
RTVSPost2010PropOp39
 70
     1
102
RTVSPost2010Prop40
 90
        0
102
RTVSPost2010PropOp40
 70
     1
102
RTVSPost2010Prop41ColorIndex
 90
       18
102
RTVSPost2010Prop41ColorRGB
 90
        0
102
RTVSPost2010PropOp41
 70
     1
102
RTVSPost2010Prop42
 90
       50
102
RTVSPost2010PropOp42
 70
     1
102
RTVSPost2010Prop43
 90
        3
102
RTVSPost2010PropOp43
 70
     1
102
RTVSPost2010Prop44ColorIndex
 90
        5
102
RTVSPost2010Prop44ColorRGB
 90
      255
102
RTVSPost2010PropOp44
 70
     1
102
RTVSPost2010Prop45
280
     0
102
RTVSPost2010PropOp45
 70
     1
102
RTVSPost2010Prop46
 90
       50
102
RTVSPost2010PropOp46
 70
     1
102
RTVSPost2010Prop47
 90
       50
102
RTVSPost2010PropOp47
 70
     1
102
RTVSPost2010Prop48
 90
       50
102
RTVSPost2010PropOp48
 70
     1
102
RTVSPost2010Prop49
280
     0
102
RTVSPost2010PropOp49
 70
     1
102
RTVSPost2010Prop50
 90
       50
102
RTVSPost2010PropOp50
 70
     1
102
RTVSPost2010Prop51ColorIndex
 90
      256
102
RTVSPost2010Prop51ColorRGB
 90
-16777216
102
RTVSPost2010PropOp51
 70
     0
102
RTVSPost2010Prop52
140
1.0
102
RTVSPost2010PropOp52
 70
     0
102
RTVSPost2010Prop53
 90
        2
102
RTVSPost2010PropOp53
 70
     1
102
RTVSPost2010Prop54
  1
strokes_ogs.tif
102
RTVSPost2010PropOp54
 70
     1
102
RTVSPost2010Prop55
280
     0
102
RTVSPost2010PropOp55
 70
     1
102
RTVSPost2010Prop56
140
1.0
102
RTVSPost2010PropOp56
 70
     1
102
RTVSPost2010Prop57
140
1.0
102
RTVSPost2010PropOp57
 70
     1
  0
XRECORD
  5
49C
102
{ACAD_REACTORS
330
49B
102
}
330
49B
100
AcDbXrecord
280
     1
102
RTVSPropertyOp0
 70
     1
102
RTVSPropertyOp1
 70
     1
102
RTVSPropertyOp2
 70
     1
102
RTVSPropertyOp3
 70
     1
102
RTVSPropertyOp4
 70
     1
102
RTVSPropertyOp5
 70
     1
102
RTVSPropertyOp6
 70
     1
102
RTVSPropertyOp7
 70
     1
102
RTVSPropertyOp8
 70
     1
102
RTVSPropertyOp9
 70
     1
102
RTVSPropertyOp10
 70
     1
102
RTVSPropertyOp11
 70
     1
102
RTVSPropertyOp12
 70
     1
102
RTVSPropertyOp13
 70
     1
102
RTVSPropertyOp14
 70
     1
102
RTVSPropertyOp15
 70
     1
102
RTVSPropertyOp16
 70
     1
102
RTVSPropertyOp17
 70
     1
102
RTVSPropertyOp18
 70
     1
102
RTVSPropertyOp19
 70
     1
102
RTVSPropertyOp20
 70
     1
102
RTVSPropertyOp21
 70
     1
102
RTVSPropertyOp22
 70
     1
102
RTVSPropertyOp23
 70
     1
102
RTVSPropertyOp24
 70
     1
102
RTVSPropertyOp25
 70
     1
102
RTVSPropertyOp26
 70
     1
102
RTVSPropertyOp27
 70
     1
102
RTVSPropertyOp28
 70
     1
102
RTVSPropertyOp29
 70
     1
102
RTVSPropertyOp30
 70
     1
102
RTVSPropertyOp31
 70
     1
102
RTVSPropertyOp32
 70
     1
102
RTVSPropertyOp33
 70
     1
102
RTVSPropertyOp34
 70
     1
102
RTVSPropertyOp35
 70
     1
102
RTVSPropertyOp36
 70
     1
102
RTVSPropertyOp37
 70
     1
102
RTVSPropertyOp38
 70
     1
102
RTVSPropertyOp39
 70
     1
102
RTVSPropertyOp40
 70
     1
102
RTVSPropertyOp41
 70
     1
102
RTVSPropertyOp42
 70
     1
102
RTVSPropertyOp43
 70
     1
102
RTVSPropertyOp44
 70
     1
102
RTVSPropertyOp45
 70
     1
102
RTVSPropertyOp46
 70
     1
102
RTVSPropertyOp47
 70
     1
102
RTVSPropertyOp48
 70
     1
102
RTVSPropertyOp49
 70
     1
102
RTVSPropertyOp50
 70
     1
102
RTVSPropertyOp51
 70
     0
102
RTVSPropertyOp52
 70
     0
102
RTVSPropertyOp53
 70
     1
102
RTVSPropertyOp54
 70
     1
102
RTVSPropertyOp55
 70
     1
102
RTVSPropertyOp56
 70
     1
102
RTVSPropertyOp57
 70
     1
102
RTVSPost2010Prop28
280
     0
102
RTVSPost2010PropOp28
 70
     1
102
RTVSPost2010Prop29
280
     1
102
RTVSPost2010PropOp29
 70
     1
102
RTVSPost2010Prop30
280
     1
102
RTVSPost2010PropOp30
 70
     1
102
RTVSPost2010Prop31
280
     0
102
RTVSPost2010PropOp31
 70
     1
102
RTVSPost2010Prop32
280
     0
102
RTVSPost2010PropOp32
 70
     1
102
RTVSPost2010Prop33
280
     0
102
RTVSPost2010PropOp33
 70
     1
102
RTVSPost2010Prop34
280
     0
102
RTVSPost2010PropOp34
 70
     1
102
RTVSPost2010Prop35
280
     0
102
RTVSPost2010PropOp35
 70
     1
102
RTVSPost2010Prop36
280
     0
102
RTVSPost2010PropOp36
 70
     1
102
RTVSPost2010Prop37
 90
       50
102
RTVSPost2010PropOp37
 70
     1
102
RTVSPost2010Prop38
140
0.0
102
RTVSPost2010PropOp38
 70
     1
102
RTVSPost2010Prop39
140
1.0
102
RTVSPost2010PropOp39
 70
     1
102
RTVSPost2010Prop40
 90
        0
102
RTVSPost2010PropOp40
 70
     1
102
RTVSPost2010Prop41ColorIndex
 90
       18
102
RTVSPost2010Prop41ColorRGB
 90
        0
102
RTVSPost2010PropOp41
 70
     1
102
RTVSPost2010Prop42
 90
       50
102
RTVSPost2010PropOp42
 70
     1
102
RTVSPost2010Prop43
 90
        3
102
RTVSPost2010PropOp43
 70
     1
102
RTVSPost2010Prop44ColorIndex
 90
        5
102
RTVSPost2010Prop44ColorRGB
 90
      255
102
RTVSPost2010PropOp44
 70
     1
102
RTVSPost2010Prop45
280
     0
102
RTVSPost2010PropOp45
 70
     1
102
RTVSPost2010Prop46
 90
       50
102
RTVSPost2010PropOp46
 70
     1
102
RTVSPost2010Prop47
 90
       50
102
RTVSPost2010PropOp47
 70
     1
102
RTVSPost2010Prop48
 90
       50
102
RTVSPost2010PropOp48
 70
     1
102
RTVSPost2010Prop49
280
     0
102
RTVSPost2010PropOp49
 70
     1
102
RTVSPost2010Prop50
 90
       50
102
RTVSPost2010PropOp50
 70
     1
102
RTVSPost2010Prop51ColorIndex
 90
      256
102
RTVSPost2010Prop51ColorRGB
 90
-16777216
102
RTVSPost2010PropOp51
 70
     0
102
RTVSPost2010Prop52
140
1.0
102
RTVSPost2010PropOp52
 70
     0
102
RTVSPost2010Prop53
 90
        2
102
RTVSPost2010PropOp53
 70
     1
102
RTVSPost2010Prop54
  1
strokes_ogs.tif
102
RTVSPost2010PropOp54
 70
     1
102
RTVSPost2010Prop55
280
     0
102
RTVSPost2010PropOp55
 70
     1
102
RTVSPost2010Prop56
140
1.0
102
RTVSPost2010PropOp56
 70
     1
102
RTVSPost2010Prop57
140
1.0
102
RTVSPost2010PropOp57
 70
     1
  0
XRECORD
  5
4B0
102
{ACAD_REACTORS
330
4AF
102
}
330
4AF
100
AcDbXrecord
280
     1
102
RTVSPropertyOp0
 70
     0
102
RTVSPropertyOp1
 70
     0
102
RTVSPropertyOp2
 70
     0
102
RTVSPropertyOp3
 70
     0
102
RTVSPropertyOp4
 70
     0
102
RTVSPropertyOp5
 70
     0
102
RTVSPropertyOp6
 70
     0
102
RTVSPropertyOp7
 70
     0
102
RTVSPropertyOp8
 70
     0
102
RTVSPropertyOp9
 70
     0
102
RTVSPropertyOp10
 70
     0
102
RTVSPropertyOp11
 70
     0
102
RTVSPropertyOp12
 70
     0
102
RTVSPropertyOp13
 70
     0
102
RTVSPropertyOp14
 70
     2
102
RTVSPropertyOp15
 70
     0
102
RTVSPropertyOp16
 70
     0
102
RTVSPropertyOp17
 70
     0
102
RTVSPropertyOp18
 70
     0
102
RTVSPropertyOp19
 70
     0
102
RTVSPropertyOp20
 70
     0
102
RTVSPropertyOp21
 70
     0
102
RTVSPropertyOp22
 70
     0
102
RTVSPropertyOp23
 70
     0
102
RTVSPropertyOp24
 70
     0
102
RTVSPropertyOp25
 70
     0
102
RTVSPropertyOp26
 70
     0
102
RTVSPropertyOp27
 70
     0
102
RTVSPropertyOp28
 70
     0
102
RTVSPropertyOp29
 70
     0
102
RTVSPropertyOp30
 70
     0
102
RTVSPropertyOp31
 70
     0
102
RTVSPropertyOp32
 70
     0
102
RTVSPropertyOp33
 70
     0
102
RTVSPropertyOp34
 70
     0
102
RTVSPropertyOp35
 70
     0
102
RTVSPropertyOp36
 70
     0
102
RTVSPropertyOp37
 70
     0
102
RTVSPropertyOp38
 70
     0
102
RTVSPropertyOp39
 70
     0
102
RTVSPropertyOp40
 70
     0
102
RTVSPropertyOp41
 70
     0
102
RTVSPropertyOp42
 70
     0
102
RTVSPropertyOp43
 70
     0
102
RTVSPropertyOp44
 70
     0
102
RTVSPropertyOp45
 70
     0
102
RTVSPropertyOp46
 70
     0
102
RTVSPropertyOp47
 70
     0
102
RTVSPropertyOp48
 70
     0
102
RTVSPropertyOp49
 70
     0
102
RTVSPropertyOp50
 70
     0
102
RTVSPropertyOp51
 70
     0
102
RTVSPropertyOp52
 70
     0
102
RTVSPropertyOp53
 70
     0
102
RTVSPropertyOp54
 70
     0
102
RTVSPropertyOp55
 70
     0
102
RTVSPropertyOp56
 70
     0
102
RTVSPropertyOp57
 70
     0
102
RTVSPost2010Prop28
280
     0
102
RTVSPost2010PropOp28
 70
     0
102
RTVSPost2010Prop29
280
     1
102
RTVSPost2010PropOp29
 70
     0
102
RTVSPost2010Prop30
280
     1
102
RTVSPost2010PropOp30
 70
     0
102
RTVSPost2010Prop31
280
     0
102
RTVSPost2010PropOp31
 70
     0
102
RTVSPost2010Prop32
280
     0
102
RTVSPost2010PropOp32
 70
     0
102
RTVSPost2010Prop33
280
     0
102
RTVSPost2010PropOp33
 70
     0
102
RTVSPost2010Prop34
280
     0
102
RTVSPost2010PropOp34
 70
     0
102
RTVSPost2010Prop35
280
     0
102
RTVSPost2010PropOp35
 70
     0
102
RTVSPost2010Prop36
280
     0
102
RTVSPost2010PropOp36
 70
     0
102
RTVSPost2010Prop37
 90
       50
102
RTVSPost2010PropOp37
 70
     0
102
RTVSPost2010Prop38
140
0.0
102
RTVSPost2010PropOp38
 70
     0
102
RTVSPost2010Prop39
140
1.0
102
RTVSPost2010PropOp39
 70
     0
102
RTVSPost2010Prop40
 90
        0
102
RTVSPost2010PropOp40
 70
     0
102
RTVSPost2010Prop41ColorIndex
 90
       18
102
RTVSPost2010Prop41ColorRGB
 90
        0
102
RTVSPost2010PropOp41
 70
     0
102
RTVSPost2010Prop42
 90
       50
102
RTVSPost2010PropOp42
 70
     0
102
RTVSPost2010Prop43
 90
        3
102
RTVSPost2010PropOp43
 70
     0
102
RTVSPost2010Prop44ColorIndex
 90
        5
102
RTVSPost2010Prop44ColorRGB
 90
      255
102
RTVSPost2010PropOp44
 70
     0
102
RTVSPost2010Prop45
280
     0
102
RTVSPost2010PropOp45
 70
     0
102
RTVSPost2010Prop46
 90
       50
102
RTVSPost2010PropOp46
 70
     0
102
RTVSPost2010Prop47
 90
       50
102
RTVSPost2010PropOp47
 70
     0
102
RTVSPost2010Prop48
 90
       50
102
RTVSPost2010PropOp48
 70
     0
102
RTVSPost2010Prop49
280
     0
102
RTVSPost2010PropOp49
 70
     0
102
RTVSPost2010Prop50
 90
       50
102
RTVSPost2010PropOp50
 70
     0
102
RTVSPost2010Prop51ColorIndex
 90
      256
102
RTVSPost2010Prop51ColorRGB
 90
-16777216
102
RTVSPost2010PropOp51
 70
     0
102
RTVSPost2010Prop52
140
1.0
102
RTVSPost2010PropOp52
 70
     0
102
RTVSPost2010Prop53
 90
        2
102
RTVSPost2010PropOp53
 70
     0
102
RTVSPost2010Prop54
  1
strokes_ogs.tif
102
RTVSPost2010PropOp54
 70
     0
102
RTVSPost2010Prop55
280
     0
102
RTVSPost2010PropOp55
 70
     0
102
RTVSPost2010Prop56
140
1.0
102
RTVSPost2010PropOp56
 70
     0
102
RTVSPost2010Prop57
140
1.0
102
RTVSPost2010PropOp57
 70
     0
  0
XRECORD
  5
4AA
102
{ACAD_REACTORS
330
4A9
102
}
330
4A9
100
AcDbXrecord
280
     1
102
RTVSPropertyOp0
 70
     1
102
RTVSPropertyOp1
 70
     1
102
RTVSPropertyOp2
 70
     1
102
RTVSPropertyOp3
 70
     1
102
RTVSPropertyOp4
 70
     1
102
RTVSPropertyOp5
 70
     1
102
RTVSPropertyOp6
 70
     1
102
RTVSPropertyOp7
 70
     1
102
RTVSPropertyOp8
 70
     1
102
RTVSPropertyOp9
 70
     1
102
RTVSPropertyOp10
 70
     1
102
RTVSPropertyOp11
 70
     1
102
RTVSPropertyOp12
 70
     1
102
RTVSPropertyOp13
 70
     1
102
RTVSPropertyOp14
 70
     1
102
RTVSPropertyOp15
 70
     1
102
RTVSPropertyOp16
 70
     1
102
RTVSPropertyOp17
 70
     1
102
RTVSPropertyOp18
 70
     1
102
RTVSPropertyOp19
 70
     1
102
RTVSPropertyOp20
 70
     1
102
RTVSPropertyOp21
 70
     1
102
RTVSPropertyOp22
 70
     1
102
RTVSPropertyOp23
 70
     1
102
RTVSPropertyOp24
 70
     1
102
RTVSPropertyOp25
 70
     1
102
RTVSPropertyOp26
 70
     1
102
RTVSPropertyOp27
 70
     1
102
RTVSPropertyOp28
 70
     1
102
RTVSPropertyOp29
 70
     1
102
RTVSPropertyOp30
 70
     1
102
RTVSPropertyOp31
 70
     1
102
RTVSPropertyOp32
 70
     1
102
RTVSPropertyOp33
 70
     1
102
RTVSPropertyOp34
 70
     1
102
RTVSPropertyOp35
 70
     1
102
RTVSPropertyOp36
 70
     1
102
RTVSPropertyOp37
 70
     1
102
RTVSPropertyOp38
 70
     1
102
RTVSPropertyOp39
 70
     1
102
RTVSPropertyOp40
 70
     1
102
RTVSPropertyOp41
 70
     1
102
RTVSPropertyOp42
 70
     1
102
RTVSPropertyOp43
 70
     1
102
RTVSPropertyOp44
 70
     1
102
RTVSPropertyOp45
 70
     1
102
RTVSPropertyOp46
 70
     1
102
RTVSPropertyOp47
 70
     1
102
RTVSPropertyOp48
 70
     1
102
RTVSPropertyOp49
 70
     1
102
RTVSPropertyOp50
 70
     1
102
RTVSPropertyOp51
 70
     0
102
RTVSPropertyOp52
 70
     0
102
RTVSPropertyOp53
 70
     1
102
RTVSPropertyOp54
 70
     1
102
RTVSPropertyOp55
 70
     1
102
RTVSPropertyOp56
 70
     1
102
RTVSPropertyOp57
 70
     1
102
RTVSPost2010Prop28
280
     0
102
RTVSPost2010PropOp28
 70
     1
102
RTVSPost2010Prop29
280
     1
102
RTVSPost2010PropOp29
 70
     1
102
RTVSPost2010Prop30
280
     1
102
RTVSPost2010PropOp30
 70
     1
102
RTVSPost2010Prop31
280
     0
102
RTVSPost2010PropOp31
 70
     1
102
RTVSPost2010Prop32
280
     0
102
RTVSPost2010PropOp32
 70
     1
102
RTVSPost2010Prop33
280
     0
102
RTVSPost2010PropOp33
 70
     1
102
RTVSPost2010Prop34
280
     0
102
RTVSPost2010PropOp34
 70
     1
102
RTVSPost2010Prop35
280
     0
102
RTVSPost2010PropOp35
 70
     1
102
RTVSPost2010Prop36
280
     0
102
RTVSPost2010PropOp36
 70
     1
102
RTVSPost2010Prop37
 90
       50
102
RTVSPost2010PropOp37
 70
     1
102
RTVSPost2010Prop38
140
0.0
102
RTVSPost2010PropOp38
 70
     1
102
RTVSPost2010Prop39
140
1.0
102
RTVSPost2010PropOp39
 70
     1
102
RTVSPost2010Prop40
 90
        0
102
RTVSPost2010PropOp40
 70
     1
102
RTVSPost2010Prop41ColorIndex
 90
       18
102
RTVSPost2010Prop41ColorRGB
 90
        0
102
RTVSPost2010PropOp41
 70
     1
102
RTVSPost2010Prop42
 90
       50
102
RTVSPost2010PropOp42
 70
     1
102
RTVSPost2010Prop43
 90
        3
102
RTVSPost2010PropOp43
 70
     1
102
RTVSPost2010Prop44ColorIndex
 90
        5
102
RTVSPost2010Prop44ColorRGB
 90
      255
102
RTVSPost2010PropOp44
 70
     1
102
RTVSPost2010Prop45
280
     0
102
RTVSPost2010PropOp45
 70
     1
102
RTVSPost2010Prop46
 90
       50
102
RTVSPost2010PropOp46
 70
     1
102
RTVSPost2010Prop47
 90
       50
102
RTVSPost2010PropOp47
 70
     1
102
RTVSPost2010Prop48
 90
       50
102
RTVSPost2010PropOp48
 70
     1
102
RTVSPost2010Prop49
280
     0
102
RTVSPost2010PropOp49
 70
     1
102
RTVSPost2010Prop50
 90
       50
102
RTVSPost2010PropOp50
 70
     1
102
RTVSPost2010Prop51ColorIndex
 90
      256
102
RTVSPost2010Prop51ColorRGB
 90
-16777216
102
RTVSPost2010PropOp51
 70
     0
102
RTVSPost2010Prop52
140
1.0
102
RTVSPost2010PropOp52
 70
     0
102
RTVSPost2010Prop53
 90
        2
102
RTVSPost2010PropOp53
 70
     1
102
RTVSPost2010Prop54
  1
strokes_ogs.tif
102
RTVSPost2010PropOp54
 70
     1
102
RTVSPost2010Prop55
280
     0
102
RTVSPost2010PropOp55
 70
     1
102
RTVSPost2010Prop56
140
1.0
102
RTVSPost2010PropOp56
 70
     1
102
RTVSPost2010Prop57
140
1.0
102
RTVSPost2010PropOp57
 70
     1
  0
XRECORD
  5
4B2
102
{ACAD_REACTORS
330
4B1
102
}
330
4B1
100
AcDbXrecord
280
     1
102
RTVSPropertyOp0
 70
     0
102
RTVSPropertyOp1
 70
     0
102
RTVSPropertyOp2
 70
     0
102
RTVSPropertyOp3
 70
     0
102
RTVSPropertyOp4
 70
     0
102
RTVSPropertyOp5
 70
     0
102
RTVSPropertyOp6
 70
     0
102
RTVSPropertyOp7
 70
     0
102
RTVSPropertyOp8
 70
     0
102
RTVSPropertyOp9
 70
     0
102
RTVSPropertyOp10
 70
     0
102
RTVSPropertyOp11
 70
     0
102
RTVSPropertyOp12
 70
     0
102
RTVSPropertyOp13
 70
     0
102
RTVSPropertyOp14
 70
     2
102
RTVSPropertyOp15
 70
     0
102
RTVSPropertyOp16
 70
     0
102
RTVSPropertyOp17
 70
     0
102
RTVSPropertyOp18
 70
     0
102
RTVSPropertyOp19
 70
     0
102
RTVSPropertyOp20
 70
     0
102
RTVSPropertyOp21
 70
     0
102
RTVSPropertyOp22
 70
     0
102
RTVSPropertyOp23
 70
     0
102
RTVSPropertyOp24
 70
     0
102
RTVSPropertyOp25
 70
     0
102
RTVSPropertyOp26
 70
     0
102
RTVSPropertyOp27
 70
     0
102
RTVSPropertyOp28
 70
     0
102
RTVSPropertyOp29
 70
     0
102
RTVSPropertyOp30
 70
     0
102
RTVSPropertyOp31
 70
     0
102
RTVSPropertyOp32
 70
     0
102
RTVSPropertyOp33
 70
     0
102
RTVSPropertyOp34
 70
     0
102
RTVSPropertyOp35
 70
     0
102
RTVSPropertyOp36
 70
     0
102
RTVSPropertyOp37
 70
     0
102
RTVSPropertyOp38
 70
     0
102
RTVSPropertyOp39
 70
     0
102
RTVSPropertyOp40
 70
     0
102
RTVSPropertyOp41
 70
     0
102
RTVSPropertyOp42
 70
     0
102
RTVSPropertyOp43
 70
     0
102
RTVSPropertyOp44
 70
     0
102
RTVSPropertyOp45
 70
     0
102
RTVSPropertyOp46
 70
     0
102
RTVSPropertyOp47
 70
     0
102
RTVSPropertyOp48
 70
     0
102
RTVSPropertyOp49
 70
     0
102
RTVSPropertyOp50
 70
     0
102
RTVSPropertyOp51
 70
     0
102
RTVSPropertyOp52
 70
     0
102
RTVSPropertyOp53
 70
     0
102
RTVSPropertyOp54
 70
     0
102
RTVSPropertyOp55
 70
     0
102
RTVSPropertyOp56
 70
     0
102
RTVSPropertyOp57
 70
     0
102
RTVSPost2010Prop28
280
     0
102
RTVSPost2010PropOp28
 70
     0
102
RTVSPost2010Prop29
280
     1
102
RTVSPost2010PropOp29
 70
     0
102
RTVSPost2010Prop30
280
     1
102
RTVSPost2010PropOp30
 70
     0
102
RTVSPost2010Prop31
280
     0
102
RTVSPost2010PropOp31
 70
     0
102
RTVSPost2010Prop32
280
     0
102
RTVSPost2010PropOp32
 70
     0
102
RTVSPost2010Prop33
280
     0
102
RTVSPost2010PropOp33
 70
     0
102
RTVSPost2010Prop34
280
     0
102
RTVSPost2010PropOp34
 70
     0
102
RTVSPost2010Prop35
280
     0
102
RTVSPost2010PropOp35
 70
     0
102
RTVSPost2010Prop36
280
     0
102
RTVSPost2010PropOp36
 70
     0
102
RTVSPost2010Prop37
 90
       50
102
RTVSPost2010PropOp37
 70
     0
102
RTVSPost2010Prop38
140
0.0
102
RTVSPost2010PropOp38
 70
     0
102
RTVSPost2010Prop39
140
1.0
102
RTVSPost2010PropOp39
 70
     0
102
RTVSPost2010Prop40
 90
        0
102
RTVSPost2010PropOp40
 70
     0
102
RTVSPost2010Prop41ColorIndex
 90
       18
102
RTVSPost2010Prop41ColorRGB
 90
        0
102
RTVSPost2010PropOp41
 70
     0
102
RTVSPost2010Prop42
 90
       50
102
RTVSPost2010PropOp42
 70
     0
102
RTVSPost2010Prop43
 90
        3
102
RTVSPost2010PropOp43
 70
     0
102
RTVSPost2010Prop44ColorIndex
 90
        5
102
RTVSPost2010Prop44ColorRGB
 90
      255
102
RTVSPost2010PropOp44
 70
     0
102
RTVSPost2010Prop45
280
     0
102
RTVSPost2010PropOp45
 70
     0
102
RTVSPost2010Prop46
 90
       50
102
RTVSPost2010PropOp46
 70
     0
102
RTVSPost2010Prop47
 90
       50
102
RTVSPost2010PropOp47
 70
     0
102
RTVSPost2010Prop48
 90
       50
102
RTVSPost2010PropOp48
 70
     0
102
RTVSPost2010Prop49
280
     0
102
RTVSPost2010PropOp49
 70
     0
102
RTVSPost2010Prop50
 90
       50
102
RTVSPost2010PropOp50
 70
     0
102
RTVSPost2010Prop51ColorIndex
 90
      256
102
RTVSPost2010Prop51ColorRGB
 90
-16777216
102
RTVSPost2010PropOp51
 70
     0
102
RTVSPost2010Prop52
140
1.0
102
RTVSPost2010PropOp52
 70
     0
102
RTVSPost2010Prop53
 90
        2
102
RTVSPost2010PropOp53
 70
     0
102
RTVSPost2010Prop54
  1
strokes_ogs.tif
102
RTVSPost2010PropOp54
 70
     0
102
RTVSPost2010Prop55
280
     0
102
RTVSPost2010PropOp55
 70
     0
102
RTVSPost2010Prop56
140
1.0
102
RTVSPost2010PropOp56
 70
     0
102
RTVSPost2010Prop57
140
1.0
102
RTVSPost2010PropOp57
 70
     0
  0
XRECORD
  5
4A0
102
{ACAD_REACTORS
330
49F
102
}
330
49F
100
AcDbXrecord
280
     1
102
RTVSPropertyOp0
 70
     1
102
RTVSPropertyOp1
 70
     1
102
RTVSPropertyOp2
 70
     1
102
RTVSPropertyOp3
 70
     1
102
RTVSPropertyOp4
 70
     1
102
RTVSPropertyOp5
 70
     1
102
RTVSPropertyOp6
 70
     1
102
RTVSPropertyOp7
 70
     1
102
RTVSPropertyOp8
 70
     1
102
RTVSPropertyOp9
 70
     1
102
RTVSPropertyOp10
 70
     1
102
RTVSPropertyOp11
 70
     1
102
RTVSPropertyOp12
 70
     1
102
RTVSPropertyOp13
 70
     1
102
RTVSPropertyOp14
 70
     1
102
RTVSPropertyOp15
 70
     1
102
RTVSPropertyOp16
 70
     1
102
RTVSPropertyOp17
 70
     1
102
RTVSPropertyOp18
 70
     1
102
RTVSPropertyOp19
 70
     1
102
RTVSPropertyOp20
 70
     1
102
RTVSPropertyOp21
 70
     1
102
RTVSPropertyOp22
 70
     1
102
RTVSPropertyOp23
 70
     1
102
RTVSPropertyOp24
 70
     1
102
RTVSPropertyOp25
 70
     1
102
RTVSPropertyOp26
 70
     1
102
RTVSPropertyOp27
 70
     1
102
RTVSPropertyOp28
 70
     1
102
RTVSPropertyOp29
 70
     1
102
RTVSPropertyOp30
 70
     1
102
RTVSPropertyOp31
 70
     1
102
RTVSPropertyOp32
 70
     1
102
RTVSPropertyOp33
 70
     1
102
RTVSPropertyOp34
 70
     1
102
RTVSPropertyOp35
 70
     1
102
RTVSPropertyOp36
 70
     1
102
RTVSPropertyOp37
 70
     1
102
RTVSPropertyOp38
 70
     1
102
RTVSPropertyOp39
 70
     1
102
RTVSPropertyOp40
 70
     1
102
RTVSPropertyOp41
 70
     1
102
RTVSPropertyOp42
 70
     1
102
RTVSPropertyOp43
 70
     1
102
RTVSPropertyOp44
 70
     1
102
RTVSPropertyOp45
 70
     1
102
RTVSPropertyOp46
 70
     1
102
RTVSPropertyOp47
 70
     1
102
RTVSPropertyOp48
 70
     1
102
RTVSPropertyOp49
 70
     1
102
RTVSPropertyOp50
 70
     1
102
RTVSPropertyOp51
 70
     0
102
RTVSPropertyOp52
 70
     0
102
RTVSPropertyOp53
 70
     1
102
RTVSPropertyOp54
 70
     1
102
RTVSPropertyOp55
 70
     1
102
RTVSPropertyOp56
 70
     1
102
RTVSPropertyOp57
 70
     1
102
RTVSPost2010Prop28
280
     0
102
RTVSPost2010PropOp28
 70
     1
102
RTVSPost2010Prop29
280
     1
102
RTVSPost2010PropOp29
 70
     1
102
RTVSPost2010Prop30
280
     1
102
RTVSPost2010PropOp30
 70
     1
102
RTVSPost2010Prop31
280
     0
102
RTVSPost2010PropOp31
 70
     1
102
RTVSPost2010Prop32
280
     0
102
RTVSPost2010PropOp32
 70
     1
102
RTVSPost2010Prop33
280
     0
102
RTVSPost2010PropOp33
 70
     1
102
RTVSPost2010Prop34
280
     0
102
RTVSPost2010PropOp34
 70
     1
102
RTVSPost2010Prop35
280
     0
102
RTVSPost2010PropOp35
 70
     1
102
RTVSPost2010Prop36
280
     0
102
RTVSPost2010PropOp36
 70
     1
102
RTVSPost2010Prop37
 90
       50
102
RTVSPost2010PropOp37
 70
     1
102
RTVSPost2010Prop38
140
0.0
102
RTVSPost2010PropOp38
 70
     1
102
RTVSPost2010Prop39
140
1.0
102
RTVSPost2010PropOp39
 70
     1
102
RTVSPost2010Prop40
 90
        0
102
RTVSPost2010PropOp40
 70
     1
102
RTVSPost2010Prop41ColorIndex
 90
       18
102
RTVSPost2010Prop41ColorRGB
 90
        0
102
RTVSPost2010PropOp41
 70
     1
102
RTVSPost2010Prop42
 90
       50
102
RTVSPost2010PropOp42
 70
     1
102
RTVSPost2010Prop43
 90
        3
102
RTVSPost2010PropOp43
 70
     1
102
RTVSPost2010Prop44ColorIndex
 90
        5
102
RTVSPost2010Prop44ColorRGB
 90
      255
102
RTVSPost2010PropOp44
 70
     1
102
RTVSPost2010Prop45
280
     0
102
RTVSPost2010PropOp45
 70
     1
102
RTVSPost2010Prop46
 90
       50
102
RTVSPost2010PropOp46
 70
     1
102
RTVSPost2010Prop47
 90
       50
102
RTVSPost2010PropOp47
 70
     1
102
RTVSPost2010Prop48
 90
       50
102
RTVSPost2010PropOp48
 70
     1
102
RTVSPost2010Prop49
280
     0
102
RTVSPost2010PropOp49
 70
     1
102
RTVSPost2010Prop50
 90
       50
102
RTVSPost2010PropOp50
 70
     1
102
RTVSPost2010Prop51ColorIndex
 90
      256
102
RTVSPost2010Prop51ColorRGB
 90
-16777216
102
RTVSPost2010PropOp51
 70
     0
102
RTVSPost2010Prop52
140
1.0
102
RTVSPost2010PropOp52
 70
     0
102
RTVSPost2010Prop53
 90
        2
102
RTVSPost2010PropOp53
 70
     1
102
RTVSPost2010Prop54
  1
strokes_ogs.tif
102
RTVSPost2010PropOp54
 70
     1
102
RTVSPost2010Prop55
280
     0
102
RTVSPost2010PropOp55
 70
     1
102
RTVSPost2010Prop56
140
1.0
102
RTVSPost2010PropOp56
 70
     1
102
RTVSPost2010Prop57
140
1.0
102
RTVSPost2010PropOp57
 70
     1
  0
XRECORD
  5
4BE
102
{ACAD_REACTORS
330
4BD
102
}
330
4BD
100
AcDbXrecord
280
     1
102
RTVSPropertyOp0
 70
     1
102
RTVSPropertyOp1
 70
     1
102
RTVSPropertyOp2
 70
     1
102
RTVSPropertyOp3
 70
     1
102
RTVSPropertyOp4
 70
     1
102
RTVSPropertyOp5
 70
     1
102
RTVSPropertyOp6
 70
     1
102
RTVSPropertyOp7
 70
     1
102
RTVSPropertyOp8
 70
     1
102
RTVSPropertyOp9
 70
     1
102
RTVSPropertyOp10
 70
     1
102
RTVSPropertyOp11
 70
     1
102
RTVSPropertyOp12
 70
     1
102
RTVSPropertyOp13
 70
     1
102
RTVSPropertyOp14
 70
     1
102
RTVSPropertyOp15
 70
     1
102
RTVSPropertyOp16
 70
     1
102
RTVSPropertyOp17
 70
     1
102
RTVSPropertyOp18
 70
     1
102
RTVSPropertyOp19
 70
     1
102
RTVSPropertyOp20
 70
     1
102
RTVSPropertyOp21
 70
     1
102
RTVSPropertyOp22
 70
     1
102
RTVSPropertyOp23
 70
     1
102
RTVSPropertyOp24
 70
     1
102
RTVSPropertyOp25
 70
     1
102
RTVSPropertyOp26
 70
     1
102
RTVSPropertyOp27
 70
     1
102
RTVSPropertyOp28
 70
     1
102
RTVSPropertyOp29
 70
     1
102
RTVSPropertyOp30
 70
     1
102
RTVSPropertyOp31
 70
     1
102
RTVSPropertyOp32
 70
     1
102
RTVSPropertyOp33
 70
     1
102
RTVSPropertyOp34
 70
     1
102
RTVSPropertyOp35
 70
     1
102
RTVSPropertyOp36
 70
     1
102
RTVSPropertyOp37
 70
     1
102
RTVSPropertyOp38
 70
     1
102
RTVSPropertyOp39
 70
     1
102
RTVSPropertyOp40
 70
     1
102
RTVSPropertyOp41
 70
     1
102
RTVSPropertyOp42
 70
     1
102
RTVSPropertyOp43
 70
     1
102
RTVSPropertyOp44
 70
     1
102
RTVSPropertyOp45
 70
     1
102
RTVSPropertyOp46
 70
     1
102
RTVSPropertyOp47
 70
     1
102
RTVSPropertyOp48
 70
     1
102
RTVSPropertyOp49
 70
     1
102
RTVSPropertyOp50
 70
     1
102
RTVSPropertyOp51
 70
     0
102
RTVSPropertyOp52
 70
     0
102
RTVSPropertyOp53
 70
     1
102
RTVSPropertyOp54
 70
     1
102
RTVSPropertyOp55
 70
     1
102
RTVSPropertyOp56
 70
     1
102
RTVSPropertyOp57
 70
     1
102
RTVSPost2010Prop28
280
     0
102
RTVSPost2010PropOp28
 70
     1
102
RTVSPost2010Prop29
280
     1
102
RTVSPost2010PropOp29
 70
     1
102
RTVSPost2010Prop30
280
     1
102
RTVSPost2010PropOp30
 70
     1
102
RTVSPost2010Prop31
280
     0
102
RTVSPost2010PropOp31
 70
     1
102
RTVSPost2010Prop32
280
     0
102
RTVSPost2010PropOp32
 70
     1
102
RTVSPost2010Prop33
280
     0
102
RTVSPost2010PropOp33
 70
     1
102
RTVSPost2010Prop34
280
     0
102
RTVSPost2010PropOp34
 70
     1
102
RTVSPost2010Prop35
280
     0
102
RTVSPost2010PropOp35
 70
     1
102
RTVSPost2010Prop36
280
     0
102
RTVSPost2010PropOp36
 70
     1
102
RTVSPost2010Prop37
 90
       50
102
RTVSPost2010PropOp37
 70
     1
102
RTVSPost2010Prop38
140
0.0
102
RTVSPost2010PropOp38
 70
     1
102
RTVSPost2010Prop39
140
1.0
102
RTVSPost2010PropOp39
 70
     1
102
RTVSPost2010Prop40
 90
        0
102
RTVSPost2010PropOp40
 70
     1
102
RTVSPost2010Prop41ColorIndex
 90
       18
102
RTVSPost2010Prop41ColorRGB
 90
        0
102
RTVSPost2010PropOp41
 70
     1
102
RTVSPost2010Prop42
 90
       50
102
RTVSPost2010PropOp42
 70
     1
102
RTVSPost2010Prop43
 90
        3
102
RTVSPost2010PropOp43
 70
     1
102
RTVSPost2010Prop44ColorIndex
 90
        5
102
RTVSPost2010Prop44ColorRGB
 90
      255
102
RTVSPost2010PropOp44
 70
     1
102
RTVSPost2010Prop45
280
     0
102
RTVSPost2010PropOp45
 70
     1
102
RTVSPost2010Prop46
 90
       50
102
RTVSPost2010PropOp46
 70
     1
102
RTVSPost2010Prop47
 90
       50
102
RTVSPost2010PropOp47
 70
     1
102
RTVSPost2010Prop48
 90
       50
102
RTVSPost2010PropOp48
 70
     1
102
RTVSPost2010Prop49
280
     0
102
RTVSPost2010PropOp49
 70
     1
102
RTVSPost2010Prop50
 90
       50
102
RTVSPost2010PropOp50
 70
     1
102
RTVSPost2010Prop51ColorIndex
 90
      256
102
RTVSPost2010Prop51ColorRGB
 90
-16777216
102
RTVSPost2010PropOp51
 70
     0
102
RTVSPost2010Prop52
140
1.0
102
RTVSPost2010PropOp52
 70
     0
102
RTVSPost2010Prop53
 90
        2
102
RTVSPost2010PropOp53
 70
     1
102
RTVSPost2010Prop54
  1
strokes_ogs.tif
102
RTVSPost2010PropOp54
 70
     1
102
RTVSPost2010Prop55
280
     0
102
RTVSPost2010PropOp55
 70
     1
102
RTVSPost2010Prop56
140
1.0
102
RTVSPost2010PropOp56
 70
     1
102
RTVSPost2010Prop57
140
1.0
102
RTVSPost2010PropOp57
 70
     1
  0
XRECORD
  5
4BC
102
{ACAD_REACTORS
330
4BB
102
}
330
4BB
100
AcDbXrecord
280
     1
102
RTVSPropertyOp0
 70
     1
102
RTVSPropertyOp1
 70
     1
102
RTVSPropertyOp2
 70
     1
102
RTVSPropertyOp3
 70
     1
102
RTVSPropertyOp4
 70
     1
102
RTVSPropertyOp5
 70
     1
102
RTVSPropertyOp6
 70
     1
102
RTVSPropertyOp7
 70
     1
102
RTVSPropertyOp8
 70
     1
102
RTVSPropertyOp9
 70
     1
102
RTVSPropertyOp10
 70
     1
102
RTVSPropertyOp11
 70
     1
102
RTVSPropertyOp12
 70
     1
102
RTVSPropertyOp13
 70
     1
102
RTVSPropertyOp14
 70
     1
102
RTVSPropertyOp15
 70
     1
102
RTVSPropertyOp16
 70
     1
102
RTVSPropertyOp17
 70
     1
102
RTVSPropertyOp18
 70
     1
102
RTVSPropertyOp19
 70
     1
102
RTVSPropertyOp20
 70
     1
102
RTVSPropertyOp21
 70
     1
102
RTVSPropertyOp22
 70
     1
102
RTVSPropertyOp23
 70
     1
102
RTVSPropertyOp24
 70
     1
102
RTVSPropertyOp25
 70
     1
102
RTVSPropertyOp26
 70
     1
102
RTVSPropertyOp27
 70
     1
102
RTVSPropertyOp28
 70
     1
102
RTVSPropertyOp29
 70
     1
102
RTVSPropertyOp30
 70
     1
102
RTVSPropertyOp31
 70
     1
102
RTVSPropertyOp32
 70
     1
102
RTVSPropertyOp33
 70
     1
102
RTVSPropertyOp34
 70
     1
102
RTVSPropertyOp35
 70
     1
102
RTVSPropertyOp36
 70
     1
102
RTVSPropertyOp37
 70
     1
102
RTVSPropertyOp38
 70
     1
102
RTVSPropertyOp39
 70
     1
102
RTVSPropertyOp40
 70
     1
102
RTVSPropertyOp41
 70
     1
102
RTVSPropertyOp42
 70
     1
102
RTVSPropertyOp43
 70
     1
102
RTVSPropertyOp44
 70
     1
102
RTVSPropertyOp45
 70
     1
102
RTVSPropertyOp46
 70
     1
102
RTVSPropertyOp47
 70
     1
102
RTVSPropertyOp48
 70
     1
102
RTVSPropertyOp49
 70
     1
102
RTVSPropertyOp50
 70
     1
102
RTVSPropertyOp51
 70
     0
102
RTVSPropertyOp52
 70
     0
102
RTVSPropertyOp53
 70
     1
102
RTVSPropertyOp54
 70
     1
102
RTVSPropertyOp55
 70
     1
102
RTVSPropertyOp56
 70
     1
102
RTVSPropertyOp57
 70
     1
102
RTVSPost2010Prop28
280
     0
102
RTVSPost2010PropOp28
 70
     1
102
RTVSPost2010Prop29
280
     1
102
RTVSPost2010PropOp29
 70
     1
102
RTVSPost2010Prop30
280
     1
102
RTVSPost2010PropOp30
 70
     1
102
RTVSPost2010Prop31
280
     0
102
RTVSPost2010PropOp31
 70
     1
102
RTVSPost2010Prop32
280
     0
102
RTVSPost2010PropOp32
 70
     1
102
RTVSPost2010Prop33
280
     0
102
RTVSPost2010PropOp33
 70
     1
102
RTVSPost2010Prop34
280
     0
102
RTVSPost2010PropOp34
 70
     1
102
RTVSPost2010Prop35
280
     0
102
RTVSPost2010PropOp35
 70
     1
102
RTVSPost2010Prop36
280
     0
102
RTVSPost2010PropOp36
 70
     1
102
RTVSPost2010Prop37
 90
       50
102
RTVSPost2010PropOp37
 70
     1
102
RTVSPost2010Prop38
140
0.0
102
RTVSPost2010PropOp38
 70
     1
102
RTVSPost2010Prop39
140
1.0
102
RTVSPost2010PropOp39
 70
     1
102
RTVSPost2010Prop40
 90
        0
102
RTVSPost2010PropOp40
 70
     1
102
RTVSPost2010Prop41ColorIndex
 90
       18
102
RTVSPost2010Prop41ColorRGB
 90
        0
102
RTVSPost2010PropOp41
 70
     1
102
RTVSPost2010Prop42
 90
       50
102
RTVSPost2010PropOp42
 70
     1
102
RTVSPost2010Prop43
 90
        3
102
RTVSPost2010PropOp43
 70
     1
102
RTVSPost2010Prop44ColorIndex
 90
        5
102
RTVSPost2010Prop44ColorRGB
 90
      255
102
RTVSPost2010PropOp44
 70
     1
102
RTVSPost2010Prop45
280
     0
102
RTVSPost2010PropOp45
 70
     1
102
RTVSPost2010Prop46
 90
       50
102
RTVSPost2010PropOp46
 70
     1
102
RTVSPost2010Prop47
 90
       50
102
RTVSPost2010PropOp47
 70
     1
102
RTVSPost2010Prop48
 90
       50
102
RTVSPost2010PropOp48
 70
     1
102
RTVSPost2010Prop49
280
     0
102
RTVSPost2010PropOp49
 70
     1
102
RTVSPost2010Prop50
 90
       50
102
RTVSPost2010PropOp50
 70
     1
102
RTVSPost2010Prop51ColorIndex
 90
      256
102
RTVSPost2010Prop51ColorRGB
 90
-16777216
102
RTVSPost2010PropOp51
 70
     0
102
RTVSPost2010Prop52
140
1.0
102
RTVSPost2010PropOp52
 70
     0
102
RTVSPost2010Prop53
 90
        2
102
RTVSPost2010PropOp53
 70
     1
102
RTVSPost2010Prop54
  1
strokes_ogs.tif
102
RTVSPost2010PropOp54
 70
     1
102
RTVSPost2010Prop55
280
     0
102
RTVSPost2010PropOp55
 70
     1
102
RTVSPost2010Prop56
140
1.0
102
RTVSPost2010PropOp56
 70
     1
102
RTVSPost2010Prop57
140
1.0
102
RTVSPost2010PropOp57
 70
     1
  0
XRECORD
  5
4B6
102
{ACAD_REACTORS
330
4B5
102
}
330
4B5
100
AcDbXrecord
280
     1
102
RTVSPropertyOp0
 70
     1
102
RTVSPropertyOp1
 70
     1
102
RTVSPropertyOp2
 70
     1
102
RTVSPropertyOp3
 70
     1
102
RTVSPropertyOp4
 70
     1
102
RTVSPropertyOp5
 70
     1
102
RTVSPropertyOp6
 70
     1
102
RTVSPropertyOp7
 70
     1
102
RTVSPropertyOp8
 70
     1
102
RTVSPropertyOp9
 70
     1
102
RTVSPropertyOp10
 70
     1
102
RTVSPropertyOp11
 70
     1
102
RTVSPropertyOp12
 70
     1
102
RTVSPropertyOp13
 70
     1
102
RTVSPropertyOp14
 70
     1
102
RTVSPropertyOp15
 70
     1
102
RTVSPropertyOp16
 70
     1
102
RTVSPropertyOp17
 70
     1
102
RTVSPropertyOp18
 70
     1
102
RTVSPropertyOp19
 70
     1
102
RTVSPropertyOp20
 70
     1
102
RTVSPropertyOp21
 70
     1
102
RTVSPropertyOp22
 70
     1
102
RTVSPropertyOp23
 70
     1
102
RTVSPropertyOp24
 70
     1
102
RTVSPropertyOp25
 70
     1
102
RTVSPropertyOp26
 70
     1
102
RTVSPropertyOp27
 70
     1
102
RTVSPropertyOp28
 70
     1
102
RTVSPropertyOp29
 70
     1
102
RTVSPropertyOp30
 70
     1
102
RTVSPropertyOp31
 70
     1
102
RTVSPropertyOp32
 70
     1
102
RTVSPropertyOp33
 70
     1
102
RTVSPropertyOp34
 70
     1
102
RTVSPropertyOp35
 70
     1
102
RTVSPropertyOp36
 70
     1
102
RTVSPropertyOp37
 70
     1
102
RTVSPropertyOp38
 70
     1
102
RTVSPropertyOp39
 70
     1
102
RTVSPropertyOp40
 70
     1
102
RTVSPropertyOp41
 70
     1
102
RTVSPropertyOp42
 70
     1
102
RTVSPropertyOp43
 70
     1
102
RTVSPropertyOp44
 70
     1
102
RTVSPropertyOp45
 70
     1
102
RTVSPropertyOp46
 70
     1
102
RTVSPropertyOp47
 70
     1
102
RTVSPropertyOp48
 70
     1
102
RTVSPropertyOp49
 70
     1
102
RTVSPropertyOp50
 70
     1
102
RTVSPropertyOp51
 70
     0
102
RTVSPropertyOp52
 70
     0
102
RTVSPropertyOp53
 70
     1
102
RTVSPropertyOp54
 70
     1
102
RTVSPropertyOp55
 70
     1
102
RTVSPropertyOp56
 70
     1
102
RTVSPropertyOp57
 70
     1
102
RTVSPost2010Prop28
280
     0
102
RTVSPost2010PropOp28
 70
     1
102
RTVSPost2010Prop29
280
     1
102
RTVSPost2010PropOp29
 70
     1
102
RTVSPost2010Prop30
280
     1
102
RTVSPost2010PropOp30
 70
     1
102
RTVSPost2010Prop31
280
     0
102
RTVSPost2010PropOp31
 70
     1
102
RTVSPost2010Prop32
280
     0
102
RTVSPost2010PropOp32
 70
     1
102
RTVSPost2010Prop33
280
     0
102
RTVSPost2010PropOp33
 70
     1
102
RTVSPost2010Prop34
280
     0
102
RTVSPost2010PropOp34
 70
     1
102
RTVSPost2010Prop35
280
     0
102
RTVSPost2010PropOp35
 70
     1
102
RTVSPost2010Prop36
280
     0
102
RTVSPost2010PropOp36
 70
     1
102
RTVSPost2010Prop37
 90
       50
102
RTVSPost2010PropOp37
 70
     1
102
RTVSPost2010Prop38
140
0.0
102
RTVSPost2010PropOp38
 70
     1
102
RTVSPost2010Prop39
140
1.0
102
RTVSPost2010PropOp39
 70
     1
102
RTVSPost2010Prop40
 90
        0
102
RTVSPost2010PropOp40
 70
     1
102
RTVSPost2010Prop41ColorIndex
 90
       18
102
RTVSPost2010Prop41ColorRGB
 90
        0
102
RTVSPost2010PropOp41
 70
     1
102
RTVSPost2010Prop42
 90
       50
102
RTVSPost2010PropOp42
 70
     1
102
RTVSPost2010Prop43
 90
        3
102
RTVSPost2010PropOp43
 70
     1
102
RTVSPost2010Prop44ColorIndex
 90
        5
102
RTVSPost2010Prop44ColorRGB
 90
      255
102
RTVSPost2010PropOp44
 70
     1
102
RTVSPost2010Prop45
280
     0
102
RTVSPost2010PropOp45
 70
     1
102
RTVSPost2010Prop46
 90
       50
102
RTVSPost2010PropOp46
 70
     1
102
RTVSPost2010Prop47
 90
       50
102
RTVSPost2010PropOp47
 70
     1
102
RTVSPost2010Prop48
 90
       50
102
RTVSPost2010PropOp48
 70
     1
102
RTVSPost2010Prop49
280
     0
102
RTVSPost2010PropOp49
 70
     1
102
RTVSPost2010Prop50
 90
       50
102
RTVSPost2010PropOp50
 70
     1
102
RTVSPost2010Prop51ColorIndex
 90
      256
102
RTVSPost2010Prop51ColorRGB
 90
-16777216
102
RTVSPost2010PropOp51
 70
     0
102
RTVSPost2010Prop52
140
1.0
102
RTVSPost2010PropOp52
 70
     0
102
RTVSPost2010Prop53
 90
        2
102
RTVSPost2010PropOp53
 70
     1
102
RTVSPost2010Prop54
  1
strokes_ogs.tif
102
RTVSPost2010PropOp54
 70
     1
102
RTVSPost2010Prop55
280
     0
102
RTVSPost2010PropOp55
 70
     1
102
RTVSPost2010Prop56
140
1.0
102
RTVSPost2010PropOp56
 70
     1
102
RTVSPost2010Prop57
140
1.0
102
RTVSPost2010PropOp57
 70
     1
  0
XRECORD
  5
4B8
102
{ACAD_REACTORS
330
4B7
102
}
330
4B7
100
AcDbXrecord
280
     1
102
RTVSPropertyOp0
 70
     1
102
RTVSPropertyOp1
 70
     1
102
RTVSPropertyOp2
 70
     1
102
RTVSPropertyOp3
 70
     1
102
RTVSPropertyOp4
 70
     1
102
RTVSPropertyOp5
 70
     1
102
RTVSPropertyOp6
 70
     1
102
RTVSPropertyOp7
 70
     1
102
RTVSPropertyOp8
 70
     1
102
RTVSPropertyOp9
 70
     1
102
RTVSPropertyOp10
 70
     1
102
RTVSPropertyOp11
 70
     1
102
RTVSPropertyOp12
 70
     1
102
RTVSPropertyOp13
 70
     1
102
RTVSPropertyOp14
 70
     1
102
RTVSPropertyOp15
 70
     1
102
RTVSPropertyOp16
 70
     1
102
RTVSPropertyOp17
 70
     1
102
RTVSPropertyOp18
 70
     1
102
RTVSPropertyOp19
 70
     1
102
RTVSPropertyOp20
 70
     1
102
RTVSPropertyOp21
 70
     1
102
RTVSPropertyOp22
 70
     1
102
RTVSPropertyOp23
 70
     1
102
RTVSPropertyOp24
 70
     1
102
RTVSPropertyOp25
 70
     1
102
RTVSPropertyOp26
 70
     1
102
RTVSPropertyOp27
 70
     1
102
RTVSPropertyOp28
 70
     1
102
RTVSPropertyOp29
 70
     1
102
RTVSPropertyOp30
 70
     1
102
RTVSPropertyOp31
 70
     1
102
RTVSPropertyOp32
 70
     1
102
RTVSPropertyOp33
 70
     1
102
RTVSPropertyOp34
 70
     1
102
RTVSPropertyOp35
 70
     1
102
RTVSPropertyOp36
 70
     1
102
RTVSPropertyOp37
 70
     1
102
RTVSPropertyOp38
 70
     1
102
RTVSPropertyOp39
 70
     1
102
RTVSPropertyOp40
 70
     1
102
RTVSPropertyOp41
 70
     1
102
RTVSPropertyOp42
 70
     1
102
RTVSPropertyOp43
 70
     1
102
RTVSPropertyOp44
 70
     1
102
RTVSPropertyOp45
 70
     1
102
RTVSPropertyOp46
 70
     1
102
RTVSPropertyOp47
 70
     1
102
RTVSPropertyOp48
 70
     1
102
RTVSPropertyOp49
 70
     1
102
RTVSPropertyOp50
 70
     1
102
RTVSPropertyOp51
 70
     0
102
RTVSPropertyOp52
 70
     0
102
RTVSPropertyOp53
 70
     1
102
RTVSPropertyOp54
 70
     1
102
RTVSPropertyOp55
 70
     1
102
RTVSPropertyOp56
 70
     1
102
RTVSPropertyOp57
 70
     1
102
RTVSPost2010Prop28
280
     0
102
RTVSPost2010PropOp28
 70
     1
102
RTVSPost2010Prop29
280
     1
102
RTVSPost2010PropOp29
 70
     1
102
RTVSPost2010Prop30
280
     1
102
RTVSPost2010PropOp30
 70
     1
102
RTVSPost2010Prop31
280
     0
102
RTVSPost2010PropOp31
 70
     1
102
RTVSPost2010Prop32
280
     0
102
RTVSPost2010PropOp32
 70
     1
102
RTVSPost2010Prop33
280
     0
102
RTVSPost2010PropOp33
 70
     1
102
RTVSPost2010Prop34
280
     0
102
RTVSPost2010PropOp34
 70
     1
102
RTVSPost2010Prop35
280
     0
102
RTVSPost2010PropOp35
 70
     1
102
RTVSPost2010Prop36
280
     0
102
RTVSPost2010PropOp36
 70
     1
102
RTVSPost2010Prop37
 90
       50
102
RTVSPost2010PropOp37
 70
     1
102
RTVSPost2010Prop38
140
0.0
102
RTVSPost2010PropOp38
 70
     1
102
RTVSPost2010Prop39
140
1.0
102
RTVSPost2010PropOp39
 70
     1
102
RTVSPost2010Prop40
 90
        0
102
RTVSPost2010PropOp40
 70
     1
102
RTVSPost2010Prop41ColorIndex
 90
       18
102
RTVSPost2010Prop41ColorRGB
 90
        0
102
RTVSPost2010PropOp41
 70
     1
102
RTVSPost2010Prop42
 90
       50
102
RTVSPost2010PropOp42
 70
     1
102
RTVSPost2010Prop43
 90
        3
102
RTVSPost2010PropOp43
 70
     1
102
RTVSPost2010Prop44ColorIndex
 90
        5
102
RTVSPost2010Prop44ColorRGB
 90
      255
102
RTVSPost2010PropOp44
 70
     1
102
RTVSPost2010Prop45
280
     0
102
RTVSPost2010PropOp45
 70
     1
102
RTVSPost2010Prop46
 90
       50
102
RTVSPost2010PropOp46
 70
     1
102
RTVSPost2010Prop47
 90
       50
102
RTVSPost2010PropOp47
 70
     1
102
RTVSPost2010Prop48
 90
       50
102
RTVSPost2010PropOp48
 70
     1
102
RTVSPost2010Prop49
280
     0
102
RTVSPost2010PropOp49
 70
     1
102
RTVSPost2010Prop50
 90
       50
102
RTVSPost2010PropOp50
 70
     1
102
RTVSPost2010Prop51ColorIndex
 90
      256
102
RTVSPost2010Prop51ColorRGB
 90
-16777216
102
RTVSPost2010PropOp51
 70
     0
102
RTVSPost2010Prop52
140
1.0
102
RTVSPost2010PropOp52
 70
     0
102
RTVSPost2010Prop53
 90
        2
102
RTVSPost2010PropOp53
 70
     1
102
RTVSPost2010Prop54
  1
strokes_ogs.tif
102
RTVSPost2010PropOp54
 70
     1
102
RTVSPost2010Prop55
280
     0
102
RTVSPost2010PropOp55
 70
     1
102
RTVSPost2010Prop56
140
1.0
102
RTVSPost2010PropOp56
 70
     1
102
RTVSPost2010Prop57
140
1.0
102
RTVSPost2010PropOp57
 70
     1
  0
XRECORD
  5
4A8
102
{ACAD_REACTORS
330
4A7
102
}
330
4A7
100
AcDbXrecord
280
     1
102
RTVSPropertyOp0
 70
     1
102
RTVSPropertyOp1
 70
     1
102
RTVSPropertyOp2
 70
     1
102
RTVSPropertyOp3
 70
     1
102
RTVSPropertyOp4
 70
     1
102
RTVSPropertyOp5
 70
     1
102
RTVSPropertyOp6
 70
     1
102
RTVSPropertyOp7
 70
     1
102
RTVSPropertyOp8
 70
     1
102
RTVSPropertyOp9
 70
     1
102
RTVSPropertyOp10
 70
     1
102
RTVSPropertyOp11
 70
     1
102
RTVSPropertyOp12
 70
     1
102
RTVSPropertyOp13
 70
     1
102
RTVSPropertyOp14
 70
     1
102
RTVSPropertyOp15
 70
     1
102
RTVSPropertyOp16
 70
     1
102
RTVSPropertyOp17
 70
     1
102
RTVSPropertyOp18
 70
     1
102
RTVSPropertyOp19
 70
     1
102
RTVSPropertyOp20
 70
     1
102
RTVSPropertyOp21
 70
     1
102
RTVSPropertyOp22
 70
     1
102
RTVSPropertyOp23
 70
     1
102
RTVSPropertyOp24
 70
     1
102
RTVSPropertyOp25
 70
     1
102
RTVSPropertyOp26
 70
     1
102
RTVSPropertyOp27
 70
     1
102
RTVSPropertyOp28
 70
     1
102
RTVSPropertyOp29
 70
     1
102
RTVSPropertyOp30
 70
     1
102
RTVSPropertyOp31
 70
     1
102
RTVSPropertyOp32
 70
     1
102
RTVSPropertyOp33
 70
     1
102
RTVSPropertyOp34
 70
     1
102
RTVSPropertyOp35
 70
     1
102
RTVSPropertyOp36
 70
     1
102
RTVSPropertyOp37
 70
     1
102
RTVSPropertyOp38
 70
     1
102
RTVSPropertyOp39
 70
     1
102
RTVSPropertyOp40
 70
     1
102
RTVSPropertyOp41
 70
     1
102
RTVSPropertyOp42
 70
     1
102
RTVSPropertyOp43
 70
     1
102
RTVSPropertyOp44
 70
     1
102
RTVSPropertyOp45
 70
     1
102
RTVSPropertyOp46
 70
     1
102
RTVSPropertyOp47
 70
     1
102
RTVSPropertyOp48
 70
     1
102
RTVSPropertyOp49
 70
     1
102
RTVSPropertyOp50
 70
     1
102
RTVSPropertyOp51
 70
     0
102
RTVSPropertyOp52
 70
     0
102
RTVSPropertyOp53
 70
     1
102
RTVSPropertyOp54
 70
     1
102
RTVSPropertyOp55
 70
     1
102
RTVSPropertyOp56
 70
     1
102
RTVSPropertyOp57
 70
     1
102
RTVSPost2010Prop28
280
     0
102
RTVSPost2010PropOp28
 70
     1
102
RTVSPost2010Prop29
280
     1
102
RTVSPost2010PropOp29
 70
     1
102
RTVSPost2010Prop30
280
     1
102
RTVSPost2010PropOp30
 70
     1
102
RTVSPost2010Prop31
280
     0
102
RTVSPost2010PropOp31
 70
     1
102
RTVSPost2010Prop32
280
     0
102
RTVSPost2010PropOp32
 70
     1
102
RTVSPost2010Prop33
280
     0
102
RTVSPost2010PropOp33
 70
     1
102
RTVSPost2010Prop34
280
     0
102
RTVSPost2010PropOp34
 70
     1
102
RTVSPost2010Prop35
280
     0
102
RTVSPost2010PropOp35
 70
     1
102
RTVSPost2010Prop36
280
     0
102
RTVSPost2010PropOp36
 70
     1
102
RTVSPost2010Prop37
 90
       50
102
RTVSPost2010PropOp37
 70
     1
102
RTVSPost2010Prop38
140
0.0
102
RTVSPost2010PropOp38
 70
     1
102
RTVSPost2010Prop39
140
1.0
102
RTVSPost2010PropOp39
 70
     1
102
RTVSPost2010Prop40
 90
        0
102
RTVSPost2010PropOp40
 70
     1
102
RTVSPost2010Prop41ColorIndex
 90
       18
102
RTVSPost2010Prop41ColorRGB
 90
        0
102
RTVSPost2010PropOp41
 70
     1
102
RTVSPost2010Prop42
 90
       50
102
RTVSPost2010PropOp42
 70
     1
102
RTVSPost2010Prop43
 90
        3
102
RTVSPost2010PropOp43
 70
     1
102
RTVSPost2010Prop44ColorIndex
 90
        5
102
RTVSPost2010Prop44ColorRGB
 90
      255
102
RTVSPost2010PropOp44
 70
     1
102
RTVSPost2010Prop45
280
     0
102
RTVSPost2010PropOp45
 70
     1
102
RTVSPost2010Prop46
 90
       50
102
RTVSPost2010PropOp46
 70
     1
102
RTVSPost2010Prop47
 90
       50
102
RTVSPost2010PropOp47
 70
     1
102
RTVSPost2010Prop48
 90
       50
102
RTVSPost2010PropOp48
 70
     1
102
RTVSPost2010Prop49
280
     0
102
RTVSPost2010PropOp49
 70
     1
102
RTVSPost2010Prop50
 90
       50
102
RTVSPost2010PropOp50
 70
     1
102
RTVSPost2010Prop51ColorIndex
 90
      256
102
RTVSPost2010Prop51ColorRGB
 90
-16777216
102
RTVSPost2010PropOp51
 70
     0
102
RTVSPost2010Prop52
140
1.0
102
RTVSPost2010PropOp52
 70
     0
102
RTVSPost2010Prop53
 90
        2
102
RTVSPost2010PropOp53
 70
     1
102
RTVSPost2010Prop54
  1
strokes_ogs.tif
102
RTVSPost2010PropOp54
 70
     1
102
RTVSPost2010Prop55
280
     0
102
RTVSPost2010PropOp55
 70
     1
102
RTVSPost2010Prop56
140
1.0
102
RTVSPost2010PropOp56
 70
     1
102
RTVSPost2010Prop57
140
1.0
102
RTVSPost2010PropOp57
 70
     1
  0
XRECORD
  5
49A
102
{ACAD_REACTORS
330
499
102
}
330
499
100
AcDbXrecord
280
     1
102
RTVSPropertyOp0
 70
     1
102
RTVSPropertyOp1
 70
     1
102
RTVSPropertyOp2
 70
     1
102
RTVSPropertyOp3
 70
     1
102
RTVSPropertyOp4
 70
     1
102
RTVSPropertyOp5
 70
     1
102
RTVSPropertyOp6
 70
     1
102
RTVSPropertyOp7
 70
     1
102
RTVSPropertyOp8
 70
     1
102
RTVSPropertyOp9
 70
     1
102
RTVSPropertyOp10
 70
     1
102
RTVSPropertyOp11
 70
     1
102
RTVSPropertyOp12
 70
     1
102
RTVSPropertyOp13
 70
     1
102
RTVSPropertyOp14
 70
     1
102
RTVSPropertyOp15
 70
     1
102
RTVSPropertyOp16
 70
     1
102
RTVSPropertyOp17
 70
     1
102
RTVSPropertyOp18
 70
     1
102
RTVSPropertyOp19
 70
     1
102
RTVSPropertyOp20
 70
     1
102
RTVSPropertyOp21
 70
     1
102
RTVSPropertyOp22
 70
     1
102
RTVSPropertyOp23
 70
     1
102
RTVSPropertyOp24
 70
     1
102
RTVSPropertyOp25
 70
     1
102
RTVSPropertyOp26
 70
     1
102
RTVSPropertyOp27
 70
     1
102
RTVSPropertyOp28
 70
     1
102
RTVSPropertyOp29
 70
     1
102
RTVSPropertyOp30
 70
     1
102
RTVSPropertyOp31
 70
     1
102
RTVSPropertyOp32
 70
     1
102
RTVSPropertyOp33
 70
     1
102
RTVSPropertyOp34
 70
     1
102
RTVSPropertyOp35
 70
     1
102
RTVSPropertyOp36
 70
     1
102
RTVSPropertyOp37
 70
     1
102
RTVSPropertyOp38
 70
     1
102
RTVSPropertyOp39
 70
     1
102
RTVSPropertyOp40
 70
     1
102
RTVSPropertyOp41
 70
     1
102
RTVSPropertyOp42
 70
     1
102
RTVSPropertyOp43
 70
     1
102
RTVSPropertyOp44
 70
     1
102
RTVSPropertyOp45
 70
     1
102
RTVSPropertyOp46
 70
     1
102
RTVSPropertyOp47
 70
     1
102
RTVSPropertyOp48
 70
     1
102
RTVSPropertyOp49
 70
     1
102
RTVSPropertyOp50
 70
     1
102
RTVSPropertyOp51
 70
     0
102
RTVSPropertyOp52
 70
     0
102
RTVSPropertyOp53
 70
     1
102
RTVSPropertyOp54
 70
     1
102
RTVSPropertyOp55
 70
     1
102
RTVSPropertyOp56
 70
     1
102
RTVSPropertyOp57
 70
     1
102
RTVSPost2010Prop28
280
     0
102
RTVSPost2010PropOp28
 70
     1
102
RTVSPost2010Prop29
280
     1
102
RTVSPost2010PropOp29
 70
     1
102
RTVSPost2010Prop30
280
     1
102
RTVSPost2010PropOp30
 70
     1
102
RTVSPost2010Prop31
280
     0
102
RTVSPost2010PropOp31
 70
     1
102
RTVSPost2010Prop32
280
     0
102
RTVSPost2010PropOp32
 70
     1
102
RTVSPost2010Prop33
280
     0
102
RTVSPost2010PropOp33
 70
     1
102
RTVSPost2010Prop34
280
     0
102
RTVSPost2010PropOp34
 70
     1
102
RTVSPost2010Prop35
280
     0
102
RTVSPost2010PropOp35
 70
     1
102
RTVSPost2010Prop36
280
     0
102
RTVSPost2010PropOp36
 70
     1
102
RTVSPost2010Prop37
 90
       50
102
RTVSPost2010PropOp37
 70
     1
102
RTVSPost2010Prop38
140
0.0
102
RTVSPost2010PropOp38
 70
     1
102
RTVSPost2010Prop39
140
1.0
102
RTVSPost2010PropOp39
 70
     1
102
RTVSPost2010Prop40
 90
        0
102
RTVSPost2010PropOp40
 70
     1
102
RTVSPost2010Prop41ColorIndex
 90
       18
102
RTVSPost2010Prop41ColorRGB
 90
        0
102
RTVSPost2010PropOp41
 70
     1
102
RTVSPost2010Prop42
 90
       50
102
RTVSPost2010PropOp42
 70
     1
102
RTVSPost2010Prop43
 90
        3
102
RTVSPost2010PropOp43
 70
     1
102
RTVSPost2010Prop44ColorIndex
 90
        5
102
RTVSPost2010Prop44ColorRGB
 90
      255
102
RTVSPost2010PropOp44
 70
     1
102
RTVSPost2010Prop45
280
     0
102
RTVSPost2010PropOp45
 70
     1
102
RTVSPost2010Prop46
 90
       50
102
RTVSPost2010PropOp46
 70
     1
102
RTVSPost2010Prop47
 90
       50
102
RTVSPost2010PropOp47
 70
     1
102
RTVSPost2010Prop48
 90
       50
102
RTVSPost2010PropOp48
 70
     1
102
RTVSPost2010Prop49
280
     0
102
RTVSPost2010PropOp49
 70
     1
102
RTVSPost2010Prop50
 90
       50
102
RTVSPost2010PropOp50
 70
     1
102
RTVSPost2010Prop51ColorIndex
 90
      256
102
RTVSPost2010Prop51ColorRGB
 90
-16777216
102
RTVSPost2010PropOp51
 70
     0
102
RTVSPost2010Prop52
140
1.0
102
RTVSPost2010PropOp52
 70
     0
102
RTVSPost2010Prop53
 90
        2
102
RTVSPost2010PropOp53
 70
     1
102
RTVSPost2010Prop54
  1
strokes_ogs.tif
102
RTVSPost2010PropOp54
 70
     1
102
RTVSPost2010Prop55
280
     0
102
RTVSPost2010PropOp55
 70
     1
102
RTVSPost2010Prop56
140
1.0
102
RTVSPost2010PropOp56
 70
     1
102
RTVSPost2010Prop57
140
1.0
102
RTVSPost2010PropOp57
 70
     1
  0
XRECORD
  5
4BA
102
{ACAD_REACTORS
330
4B9
102
}
330
4B9
100
AcDbXrecord
280
     1
102
RTVSPropertyOp0
 70
     1
102
RTVSPropertyOp1
 70
     1
102
RTVSPropertyOp2
 70
     1
102
RTVSPropertyOp3
 70
     1
102
RTVSPropertyOp4
 70
     1
102
RTVSPropertyOp5
 70
     1
102
RTVSPropertyOp6
 70
     1
102
RTVSPropertyOp7
 70
     1
102
RTVSPropertyOp8
 70
     1
102
RTVSPropertyOp9
 70
     1
102
RTVSPropertyOp10
 70
     1
102
RTVSPropertyOp11
 70
     1
102
RTVSPropertyOp12
 70
     1
102
RTVSPropertyOp13
 70
     1
102
RTVSPropertyOp14
 70
     1
102
RTVSPropertyOp15
 70
     1
102
RTVSPropertyOp16
 70
     1
102
RTVSPropertyOp17
 70
     1
102
RTVSPropertyOp18
 70
     1
102
RTVSPropertyOp19
 70
     1
102
RTVSPropertyOp20
 70
     1
102
RTVSPropertyOp21
 70
     1
102
RTVSPropertyOp22
 70
     1
102
RTVSPropertyOp23
 70
     1
102
RTVSPropertyOp24
 70
     1
102
RTVSPropertyOp25
 70
     1
102
RTVSPropertyOp26
 70
     1
102
RTVSPropertyOp27
 70
     1
102
RTVSPropertyOp28
 70
     1
102
RTVSPropertyOp29
 70
     1
102
RTVSPropertyOp30
 70
     1
102
RTVSPropertyOp31
 70
     1
102
RTVSPropertyOp32
 70
     1
102
RTVSPropertyOp33
 70
     1
102
RTVSPropertyOp34
 70
     1
102
RTVSPropertyOp35
 70
     1
102
RTVSPropertyOp36
 70
     1
102
RTVSPropertyOp37
 70
     1
102
RTVSPropertyOp38
 70
     1
102
RTVSPropertyOp39
 70
     1
102
RTVSPropertyOp40
 70
     1
102
RTVSPropertyOp41
 70
     1
102
RTVSPropertyOp42
 70
     1
102
RTVSPropertyOp43
 70
     1
102
RTVSPropertyOp44
 70
     1
102
RTVSPropertyOp45
 70
     1
102
RTVSPropertyOp46
 70
     1
102
RTVSPropertyOp47
 70
     1
102
RTVSPropertyOp48
 70
     1
102
RTVSPropertyOp49
 70
     1
102
RTVSPropertyOp50
 70
     1
102
RTVSPropertyOp51
 70
     0
102
RTVSPropertyOp52
 70
     0
102
RTVSPropertyOp53
 70
     1
102
RTVSPropertyOp54
 70
     1
102
RTVSPropertyOp55
 70
     1
102
RTVSPropertyOp56
 70
     1
102
RTVSPropertyOp57
 70
     1
102
RTVSPost2010Prop28
280
     0
102
RTVSPost2010PropOp28
 70
     1
102
RTVSPost2010Prop29
280
     1
102
RTVSPost2010PropOp29
 70
     1
102
RTVSPost2010Prop30
280
     1
102
RTVSPost2010PropOp30
 70
     1
102
RTVSPost2010Prop31
280
     0
102
RTVSPost2010PropOp31
 70
     1
102
RTVSPost2010Prop32
280
     0
102
RTVSPost2010PropOp32
 70
     1
102
RTVSPost2010Prop33
280
     0
102
RTVSPost2010PropOp33
 70
     1
102
RTVSPost2010Prop34
280
     0
102
RTVSPost2010PropOp34
 70
     1
102
RTVSPost2010Prop35
280
     0
102
RTVSPost2010PropOp35
 70
     1
102
RTVSPost2010Prop36
280
     0
102
RTVSPost2010PropOp36
 70
     1
102
RTVSPost2010Prop37
 90
       50
102
RTVSPost2010PropOp37
 70
     1
102
RTVSPost2010Prop38
140
0.0
102
RTVSPost2010PropOp38
 70
     1
102
RTVSPost2010Prop39
140
1.0
102
RTVSPost2010PropOp39
 70
     1
102
RTVSPost2010Prop40
 90
        0
102
RTVSPost2010PropOp40
 70
     1
102
RTVSPost2010Prop41ColorIndex
 90
       18
102
RTVSPost2010Prop41ColorRGB
 90
        0
102
RTVSPost2010PropOp41
 70
     1
102
RTVSPost2010Prop42
 90
       50
102
RTVSPost2010PropOp42
 70
     1
102
RTVSPost2010Prop43
 90
        3
102
RTVSPost2010PropOp43
 70
     1
102
RTVSPost2010Prop44ColorIndex
 90
        5
102
RTVSPost2010Prop44ColorRGB
 90
      255
102
RTVSPost2010PropOp44
 70
     1
102
RTVSPost2010Prop45
280
     0
102
RTVSPost2010PropOp45
 70
     1
102
RTVSPost2010Prop46
 90
       50
102
RTVSPost2010PropOp46
 70
     1
102
RTVSPost2010Prop47
 90
       50
102
RTVSPost2010PropOp47
 70
     1
102
RTVSPost2010Prop48
 90
       50
102
RTVSPost2010PropOp48
 70
     1
102
RTVSPost2010Prop49
280
     0
102
RTVSPost2010PropOp49
 70
     1
102
RTVSPost2010Prop50
 90
       50
102
RTVSPost2010PropOp50
 70
     1
102
RTVSPost2010Prop51ColorIndex
 90
      256
102
RTVSPost2010Prop51ColorRGB
 90
-16777216
102
RTVSPost2010PropOp51
 70
     0
102
RTVSPost2010Prop52
140
1.0
102
RTVSPost2010PropOp52
 70
     0
102
RTVSPost2010Prop53
 90
        2
102
RTVSPost2010PropOp53
 70
     1
102
RTVSPost2010Prop54
  1
strokes_ogs.tif
102
RTVSPost2010PropOp54
 70
     1
102
RTVSPost2010Prop55
280
     0
102
RTVSPost2010PropOp55
 70
     1
102
RTVSPost2010Prop56
140
1.0
102
RTVSPost2010PropOp56
 70
     1
102
RTVSPost2010Prop57
140
1.0
102
RTVSPost2010PropOp57
 70
     1
  0
ENDSEC
  0
EOF
