  0
SECTION
  2
HEADER
  9
$ACADVER
  1
AC1015
  9
$ACADMAINTVER
 70
     6
  9
$DWGCODEPAGE
  3
ANSI_1252
  9
$INSBASE
 10
0.0
 20
0.0
 30
0.0
  9
$EXTMIN
 10
-503.861958017572
 20
-1805.4493532398
 30
0.0
  9
$EXTMAX
 10
1021.43417029299
 20
-1132.905140231889
 30
0.0
  9
$LIMMIN
 10
0.0
 20
0.0
  9
$LIMMAX
 10
12.0
 20
9.0
  9
$ORTHOMODE
 70
     0
  9
$REGENMODE
 70
     1
  9
$FILLMODE
 70
     1
  9
$QTEXTMODE
 70
     0
  9
$MIRRTEXT
 70
     1
  9
$LTSCALE
 40
1.0
  9
$ATTMODE
 70
     1
  9
$TEXTSIZE
 40
0.2
  9
$TRACEWID
 40
0.05
  9
$TEXTSTYLE
  7
Standard
  9
$CLAYER
  8
0
  9
$CELTYPE
  6
ByLayer
  9
$CECOLOR
 62
   256
  9
$CELTSCALE
 40
1.0
  9
$DISPSILH
 70
     0
  9
$DIMSCALE
 40
1.0
  9
$DIMASZ
 40
0.18
  9
$DIMEXO
 40
0.0625
  9
$DIMDLI
 40
0.38
  9
$DIMRND
 40
0.0
  9
$DIMDLE
 40
0.0
  9
$DIMEXE
 40
0.18
  9
$DIMTP
 40
0.0
  9
$DIMTM
 40
0.0
  9
$DIMTXT
 40
0.18
  9
$DIMCEN
 40
0.09
  9
$DIMTSZ
 40
0.0
  9
$DIMTOL
 70
     0
  9
$DIMLIM
 70
     0
  9
$DIMTIH
 70
     1
  9
$DIMTOH
 70
     1
  9
$DIMSE1
 70
     0
  9
$DIMSE2
 70
     0
  9
$DIMTAD
 70
     0
  9
$DIMZIN
 70
     0
  9
$DIMBLK
  1

  9
$DIMASO
 70
     1
  9
$DIMSHO
 70
     1
  9
$DIMPOST
  1

  9
$DIMAPOST
  1

  9
$DIMALT
 70
     0
  9
$DIMALTD
 70
     2
  9
$DIMALTF
 40
25.4
  9
$DIMLFAC
 40
1.0
  9
$DIMTOFL
 70
     0
  9
$DIMTVP
 40
0.0
  9
$DIMTIX
 70
     0
  9
$DIMSOXD
 70
     0
  9
$DIMSAH
 70
     0
  9
$DIMBLK1
  1

  9
$DIMBLK2
  1

  9
$DIMSTYLE
  2
Standard
  9
$DIMCLRD
 70
     0
  9
$DIMCLRE
 70
     0
  9
$DIMCLRT
 70
     0
  9
$DIMTFAC
 40
1.0
  9
$DIMGAP
 40
0.09
  9
$DIMJUST
 70
     0
  9
$DIMSD1
 70
     0
  9
$DIMSD2
 70
     0
  9
$DIMTOLJ
 70
     1
  9
$DIMTZIN
 70
     0
  9
$DIMALTZ
 70
     0
  9
$DIMALTTZ
 70
     0
  9
$DIMUPT
 70
     0
  9
$DIMDEC
 70
     4
  9
$DIMTDEC
 70
     4
  9
$DIMALTU
 70
     2
  9
$DIMALTTD
 70
     2
  9
$DIMTXSTY
  7
Standard
  9
$DIMAUNIT
 70
     0
  9
$DIMADEC
 70
     0
  9
$DIMALTRND
 40
0.0
  9
$DIMAZIN
 70
     0
  9
$DIMDSEP
 70
    46
  9
$DIMATFIT
 70
     3
  9
$DIMFRAC
 70
     0
  9
$DIMLDRBLK
  1

  9
$DIMLUNIT
 70
     2
  9
$DIMLWD
 70
    -2
  9
$DIMLWE
 70
    -2
  9
$DIMTMOVE
 70
     0
  9
$LUNITS
 70
     2
  9
$LUPREC
 70
     4
  9
$SKETCHINC
 40
0.1
  9
$FILLETRAD
 40
0.5
  9
$AUNITS
 70
     0
  9
$AUPREC
 70
     0
  9
$MENU
  1
.
  9
$ELEVATION
 40
0.0
  9
$PELEVATION
 40
0.0
  9
$THICKNESS
 40
0.0
  9
$LIMCHECK
 70
     0
  9
$CHAMFERA
 40
0.0
  9
$CHAMFERB
 40
0.0
  9
$CHAMFERC
 40
0.0
  9
$CHAMFERD
 40
0.0
  9
$SKPOLY
 70
     0
  9
$TDCREATE
 40
2458408.594715394
  9
$TDUCREATE
 40
2458408.51138206
  9
$TDUPDATE
 40
2458408.594715741
  9
$TDUUPDATE
 40
2458408.511382408
  9
$TDINDWG
 40
0.0000000116
  9
$TDUSRTIMER
 40
0.0000000116
  9
$USRTIMER
 70
     1
  9
$ANGBASE
 50
0.0
  9
$ANGDIR
 70
     0
  9
$PDMODE
 70
     0
  9
$PDSIZE
 40
0.0
  9
$PLINEWID
 40
0.0
  9
$SPLFRAME
 70
     0
  9
$SPLINETYPE
 70
     6
  9
$SPLINESEGS
 70
     8
  9
$HANDSEED
  5
491
  9
$SURFTAB1
 70
     6
  9
$SURFTAB2
 70
     6
  9
$SURFTYPE
 70
     6
  9
$SURFU
 70
     6
  9
$SURFV
 70
     6
  9
$UCSBASE
  2

  9
$UCSNAME
  2

  9
$UCSORG
 10
0.0
 20
0.0
 30
0.0
  9
$UCSXDIR
 10
1.0
 20
0.0
 30
0.0
  9
$UCSYDIR
 10
0.0
 20
1.0
 30
0.0
  9
$UCSORTHOREF
  2

  9
$UCSORTHOVIEW
 70
     0
  9
$UCSORGTOP
 10
0.0
 20
0.0
 30
0.0
  9
$UCSORGBOTTOM
 10
0.0
 20
0.0
 30
0.0
  9
$UCSORGLEFT
 10
0.0
 20
0.0
 30
0.0
  9
$UCSORGRIGHT
 10
0.0
 20
0.0
 30
0.0
  9
$UCSORGFRONT
 10
0.0
 20
0.0
 30
0.0
  9
$UCSORGBACK
 10
0.0
 20
0.0
 30
0.0
  9
$PUCSBASE
  2

  9
$PUCSNAME
  2

  9
$PUCSORG
 10
0.0
 20
0.0
 30
0.0
  9
$PUCSXDIR
 10
1.0
 20
0.0
 30
0.0
  9
$PUCSYDIR
 10
0.0
 20
1.0
 30
0.0
  9
$PUCSORTHOREF
  2

  9
$PUCSORTHOVIEW
 70
     0
  9
$PUCSORGTOP
 10
0.0
 20
0.0
 30
0.0
  9
$PUCSORGBOTTOM
 10
0.0
 20
0.0
 30
0.0
  9
$PUCSORGLEFT
 10
0.0
 20
0.0
 30
0.0
  9
$PUCSORGRIGHT
 10
0.0
 20
0.0
 30
0.0
  9
$PUCSORGFRONT
 10
0.0
 20
0.0
 30
0.0
  9
$PUCSORGBACK
 10
0.0
 20
0.0
 30
0.0
  9
$USERI1
 70
     0
  9
$USERI2
 70
     0
  9
$USERI3
 70
     0
  9
$USERI4
 70
     0
  9
$USERI5
 70
     0
  9
$USERR1
 40
20.0
  9
$USERR2
 40
0.0
  9
$USERR3
 40
0.0
  9
$USERR4
 40
0.0
  9
$USERR5
 40
0.0
  9
$WORLDVIEW
 70
     1
  9
$SHADEDGE
 70
     3
  9
$SHADEDIF
 70
    70
  9
$TILEMODE
 70
     1
  9
$MAXACTVP
 70
    64
  9
$PINSBASE
 10
0.0
 20
0.0
 30
0.0
  9
$PLIMCHECK
 70
     0
  9
$PEXTMIN
 10
1.00000000000000E+20
 20
1.00000000000000E+20
 30
1.00000000000000E+20
  9
$PEXTMAX
 10
-1.00000000000000E+20
 20
-1.00000000000000E+20
 30
-1.00000000000000E+20
  9
$PLIMMIN
 10
0.0
 20
0.0
  9
$PLIMMAX
 10
12.0
 20
9.0
  9
$UNITMODE
 70
     0
  9
$VISRETAIN
 70
     1
  9
$PLINEGEN
 70
     0
  9
$PSLTSCALE
 70
     1
  9
$TREEDEPTH
 70
  3020
  9
$CMLSTYLE
  2
Standard
  9
$CMLJUST
 70
     0
  9
$CMLSCALE
 40
1.0
  9
$PROXYGRAPHICS
 70
     1
  9
$MEASUREMENT
 70
     1
  9
$CELWEIGHT
370
    -1
  9
$ENDCAPS
280
     0
  9
$JOINSTYLE
280
     0
  9
$LWDISPLAY
290
     0
  9
$INSUNITS
 70
     4
  9
$HYPERLINKBASE
  1

  9
$STYLESHEET
  1

  9
$XEDIT
290
     1
  9
$CEPSNTYPE
380
     0
  9
$PSTYLEMODE
290
     1
  9
$FINGERPRINTGUID
  2
{B7DAF327-593F-4C31-89DC-E8EF3CB78DBD}
  9
$VERSIONGUID
  2
{FAEB1C32-E019-11D5-929B-00C0DF256EC4}
  9
$EXTNAMES
290
     1
  9
$PSVPSCALE
 40
0.0
  9
$OLESTARTUP
290
     0
  0
ENDSEC
  0
SECTION
  2
CLASSES
  0
CLASS
  1
ACDBDICTIONARYWDFLT
  2
AcDbDictionaryWithDefault
  3
ObjectDBX Classes
 90
        0
280
     0
281
     0
  0
CLASS
  1
VISUALSTYLE
  2
AcDbVisualStyle
  3
ObjectDBX Classes
 90
     4095
280
     0
281
     0
  0
CLASS
  1
MATERIAL
  2
AcDbMaterial
  3
ObjectDBX Classes
 90
     1153
280
     0
281
     0
  0
CLASS
  1
SCALE
  2
AcDbScale
  3
ObjectDBX Classes
 90
     1153
280
     0
281
     0
  0
CLASS
  1
TABLESTYLE
  2
AcDbTableStyle
  3
ObjectDBX Classes
 90
     4095
280
     0
281
     0
  0
CLASS
  1
MLEADERSTYLE
  2
AcDbMLeaderStyle
  3
ACDB_MLEADERSTYLE_CLASS
 90
     4095
280
     0
281
     0
  0
CLASS
  1
SUN
  2
AcDbSun
  3
SCENEOE
 90
     1153
280
     0
281
     0
  0
CLASS
  1
DICTIONARYVAR
  2
AcDbDictionaryVar
  3
ObjectDBX Classes
 90
        0
280
     0
281
     0
  0
CLASS
  1
ACDBPLACEHOLDER
  2
AcDbPlaceHolder
  3
ObjectDBX Classes
 90
        0
280
     0
281
     0
  0
CLASS
  1
LAYOUT
  2
AcDbLayout
  3
ObjectDBX Classes
 90
        0
280
     0
281
     0
  0
ENDSEC
  0
SECTION
  2
TABLES
  0
TABLE
  2
VPORT
  5
8
102
{ACAD_XDICTIONARY
360
454
102
}
330
0
100
AcDbSymbolTable
 70
     1
  0
VPORT
  5
29
330
8
100
AcDbSymbolTableRecord
100
AcDbViewportTableRecord
  2
*Active
 70
     0
 10
0.0
 20
0.0
 11
1.0
 21
1.0
 12
258.786106137709
 22
-1469.177246735845
 13
0.0
 23
0.0
 14
0.5
 24
0.5
 15
0.5
 25
0.5
 16
0.0
 26
0.0
 36
1.0
 17
0.0
 27
0.0
 37
0.0
 40
1046.888484723461
 41
1.60267857142857
 42
50.0
 43
0.0
 44
0.0
 50
0.0
 51
0.0
 71
     0
 72
   100
 73
     1
 74
     3
 75
     0
 76
     0
 77
     0
 78
     0
281
     0
 65
     1
110
0.0
120
0.0
130
0.0
111
1.0
121
0.0
131
0.0
112
0.0
122
1.0
132
0.0
 79
     0
146
0.0
  0
ENDTAB
  0
TABLE
  2
LTYPE
  5
5
330
0
100
AcDbSymbolTable
 70
     8
  0
LTYPE
  5
14
330
5
100
AcDbSymbolTableRecord
100
AcDbLinetypeTableRecord
  2
ByBlock
 70
     0
  3

 72
    65
 73
     0
 40
0.0
  0
LTYPE
  5
15
330
5
100
AcDbSymbolTableRecord
100
AcDbLinetypeTableRecord
  2
ByLayer
 70
     0
  3

 72
    65
 73
     0
 40
0.0
  0
LTYPE
  5
16
330
5
100
AcDbSymbolTableRecord
100
AcDbLinetypeTableRecord
  2
Continuous
 70
     0
  3
Solid line
 72
    65
 73
     0
 40
0.0
  0
LTYPE
  5
6E
330
5
100
AcDbSymbolTableRecord
100
AcDbLinetypeTableRecord
  2
DASHED
 70
     0
  3
Dashed
 72
    65
 73
     2
 40
15.0
 49
7.0
 74
     0
 49
-8.0
 74
     0
  0
LTYPE
  5
6F
330
5
100
AcDbSymbolTableRecord
100
AcDbLinetypeTableRecord
  2
DOTTED
 70
     0
  3
Dotted
 72
    65
 73
     2
 40
1.0
 49
0.0
 74
     0
 49
-1.0
 74
     0
  0
LTYPE
  5
70
330
5
100
AcDbSymbolTableRecord
100
AcDbLinetypeTableRecord
  2
DOT_CENTER
 70
     0
  3
Dot_Center
 72
    65
 73
     4
 40
14.0
 49
12.0
 74
     0
 49
-1.0
 74
     0
 49
0.0
 74
     0
 49
-1.0
 74
     0
  0
LTYPE
  5
71
330
5
100
AcDbSymbolTableRecord
100
AcDbLinetypeTableRecord
  2
LONG_DASHED
 70
     0
  3
Long_Dashed
 72
    65
 73
     2
 40
15.0
 49
10.0
 74
     0
 49
-5.0
 74
     0
  0
LTYPE
  5
72
330
5
100
AcDbSymbolTableRecord
100
AcDbLinetypeTableRecord
  2
DASH_CENTER
 70
     0
  3
Dash_Center
 72
    65
 73
     4
 40
14.0
 49
11.0
 74
     0
 49
-1.0
 74
     0
 49
1.0
 74
     0
 49
-1.0
 74
     0
  0
LTYPE
  5
73
330
5
100
AcDbSymbolTableRecord
100
AcDbLinetypeTableRecord
  2
PHANTOM
 70
     0
  3
Phantom
 72
    65
 73
     6
 40
13.0
 49
10.0
 74
     0
 49
-1.0
 74
     0
 49
0.0
 74
     0
 49
-1.0
 74
     0
 49
0.0
 74
     0
 49
-1.0
 74
     0
  0
LTYPE
  5
74
330
5
100
AcDbSymbolTableRecord
100
AcDbLinetypeTableRecord
  2
CENTER_DASH_DASH
 70
     0
  3
Center_Dash_Dash
 72
    65
 73
     6
 40
14.0
 49
9.0
 74
     0
 49
-1.0
 74
     0
 49
1.0
 74
     0
 49
-1.0
 74
     0
 49
1.0
 74
     0
 49
-1.0
 74
     0
  0
ENDTAB
  0
TABLE
  2
LAYER
  5
2
330
0
100
AcDbSymbolTable
 70
     2
  0
LAYER
  5
10
330
2
100
AcDbSymbolTableRecord
100
AcDbLayerTableRecord
  2
0
 70
     0
 62
     7
  6
Continuous
370
    -3
390
F
  0
LAYER
  5
75
330
2
100
AcDbSymbolTableRecord
100
AcDbLayerTableRecord
  2
1
 70
     0
 62
     7
  6
Continuous
370
    -3
390
F
  0
ENDTAB
  0
TABLE
  2
STYLE
  5
3
330
0
100
AcDbSymbolTable
 70
     3
  0
STYLE
  5
11
330
3
100
AcDbSymbolTableRecord
100
AcDbTextStyleTableRecord
  2
Standard
 70
     0
 40
0.0
 41
1.0
 50
0.0
 71
     0
 42
0.2
  3
txt
  4

  0
STYLE
  5
242
330
3
100
AcDbSymbolTableRecord
100
AcDbTextStyleTableRecord
  2
CONVERTER_11
 70
     0
 40
0.0
 41
0.9
 50
0.0
 71
     0
 42
0.2
  3
txt.shx
  4

  0
STYLE
  5
24A
330
3
100
AcDbSymbolTableRecord
100
AcDbTextStyleTableRecord
  2
CONVERTER_12
 70
     0
 40
0.0
 41
1.2
 50
0.0
 71
     0
 42
0.2
  3
ARIAL.TTF
  4

  0
ENDTAB
  0
TABLE
  2
VIEW
  5
6
330
0
100
AcDbSymbolTable
 70
     0
  0
ENDTAB
  0
TABLE
  2
UCS
  5
7
330
0
100
AcDbSymbolTable
 70
     0
  0
ENDTAB
  0
TABLE
  2
APPID
  5
9
330
0
100
AcDbSymbolTable
 70
     2
  0
APPID
  5
12
330
9
100
AcDbSymbolTableRecord
100
AcDbRegAppTableRecord
  2
ACAD
 70
     0
  0
APPID
  5
48E
330
9
100
AcDbSymbolTableRecord
100
AcDbRegAppTableRecord
  2
ACAD_MLEADERVER
 70
     0
  0
ENDTAB
  0
TABLE
  2
DIMSTYLE
  5
A
330
0
100
AcDbSymbolTable
 70
     8
100
AcDbDimStyleTable
  0
DIMSTYLE
105
27
330
A
100
AcDbSymbolTableRecord
100
AcDbDimStyleTableRecord
  2
Standard
 70
     0
178
     0
340
11
  0
DIMSTYLE
105
24E
102
{ACAD_REACTORS
330
24F
102
}
330
A
100
AcDbSymbolTableRecord
100
AcDbDimStyleTableRecord
  2
ME10_DIM_10
 70
     0
 41
50.0
 42
0.0
 44
2.0
 73
     0
 74
     0
 77
     1
 78
     8
140
50.0
147
7.0
172
     1
173
     1
174
     1
175
     1
176
     4
177
     4
271
     2
178
     1
271
     2
340
24A
  0
DIMSTYLE
105
259
102
{ACAD_REACTORS
330
25A
102
}
330
A
100
AcDbSymbolTableRecord
100
AcDbDimStyleTableRecord
  2
ME10_DIM_11
 70
     0
 41
50.0
 42
0.0
 44
2.0
 73
     0
 74
     0
 77
     1
 78
     8
140
50.0
147
7.0
172
     1
173
     1
174
     1
175
     1
176
     4
177
     4
271
     2
178
     1
271
     2
340
24A
  0
DIMSTYLE
105
264
102
{ACAD_REACTORS
330
265
102
}
330
A
100
AcDbSymbolTableRecord
100
AcDbDimStyleTableRecord
  2
ME10_DIM_12
 70
     0
 41
50.0
 42
0.0
 44
2.0
 73
     0
 74
     0
 77
     1
 78
     8
140
50.0
147
7.0
172
     1
173
     1
174
     1
175
     1
176
     4
177
     4
271
     2
178
     1
271
     2
340
24A
  0
DIMSTYLE
105
2E6
102
{ACAD_REACTORS
330
2E7
102
}
330
A
100
AcDbSymbolTableRecord
100
AcDbDimStyleTableRecord
  2
ME10_DIM_13
 70
     0
 41
50.0
 42
0.0
 44
2.0
 73
     0
 74
     0
 77
     1
 78
     8
140
50.0
147
7.0
172
     1
173
     1
174
     1
175
     1
176
     4
177
     4
271
     2
178
     1
271
     2
340
24A
  0
DIMSTYLE
105
433
102
{ACAD_REACTORS
330
434
102
}
330
A
100
AcDbSymbolTableRecord
100
AcDbDimStyleTableRecord
  2
ME10_DIM_14
 70
     0
 41
50.0
 42
0.0
 44
2.0
 73
     0
 74
     0
 77
     1
 78
     8
140
50.0
147
7.0
172
     1
173
     1
174
     1
175
     1
176
     4
177
     4
271
     2
178
     1
271
     2
340
24A
  0
DIMSTYLE
105
440
102
{ACAD_REACTORS
330
441
102
}
330
A
100
AcDbSymbolTableRecord
100
AcDbDimStyleTableRecord
  2
ME10_DIM_15
 70
     0
 41
50.0
 42
0.0
 44
2.0
 73
     0
 74
     0
 77
     1
 78
     8
140
50.0
147
7.0
172
     1
173
     1
174
     1
175
     1
176
     4
177
     4
271
     2
178
     1
271
     2
340
24A
  0
DIMSTYLE
105
44B
102
{ACAD_REACTORS
330
44C
102
}
330
A
100
AcDbSymbolTableRecord
100
AcDbDimStyleTableRecord
  2
ME10_DIM_16
 70
     0
 41
50.0
 42
0.0
 44
2.0
 73
     0
 74
     0
 77
     1
 78
     8
140
50.0
147
7.0
172
     1
173
     1
174
     1
175
     1
176
     4
177
     4
271
     2
178
     1
271
     2
340
24A
  0
ENDTAB
  0
TABLE
  2
BLOCK_RECORD
  5
1
330
0
100
AcDbSymbolTable
 70
    37
  0
BLOCK_RECORD
  5
1F
330
1
100
AcDbSymbolTableRecord
100
AcDbBlockTableRecord
  2
*Model_Space
340
22
  0
BLOCK_RECORD
  5
1B
330
1
100
AcDbSymbolTableRecord
100
AcDbBlockTableRecord
  2
*Paper_Space
340
1E
  0
BLOCK_RECORD
  5
23
330
1
100
AcDbSymbolTableRecord
100
AcDbBlockTableRecord
  2
*Paper_Space0
340
26
  0
BLOCK_RECORD
  5
76
330
1
100
AcDbSymbolTableRecord
100
AcDbBlockTableRecord
  2
390997584__1
340
0
102
{BLKREFS
331
8F
102
}
  0
BLOCK_RECORD
  5
79
330
1
100
AcDbSymbolTableRecord
100
AcDbBlockTableRecord
  2
390997584_1__2
340
0
102
{BLKREFS
331
90
102
}
  0
BLOCK_RECORD
  5
7C
330
1
100
AcDbSymbolTableRecord
100
AcDbBlockTableRecord
  2
976007501_Plan_1__3
340
0
102
{BLKREFS
331
91
102
}
  0
BLOCK_RECORD
  5
7F
330
1
100
AcDbSymbolTableRecord
100
AcDbBlockTableRecord
  2
976007501_Plan__4
340
0
102
{BLKREFS
331
92
102
}
  0
BLOCK_RECORD
  5
82
330
1
100
AcDbSymbolTableRecord
100
AcDbBlockTableRecord
  2
980057503__5
340
0
102
{BLKREFS
331
93
102
}
  0
BLOCK_RECORD
  5
85
330
1
100
AcDbSymbolTableRecord
100
AcDbBlockTableRecord
  2
368027497__6
340
0
102
{BLKREFS
331
94
102
}
  0
BLOCK_RECORD
  5
88
330
1
100
AcDbSymbolTableRecord
100
AcDbBlockTableRecord
  2
980057503_1__7
340
0
102
{BLKREFS
331
95
102
}
  0
BLOCK_RECORD
  5
8B
330
1
100
AcDbSymbolTableRecord
100
AcDbBlockTableRecord
  2
368027497_1__8
340
0
102
{BLKREFS
331
96
102
}
  0
BLOCK_RECORD
  5
8E
330
1
100
AcDbSymbolTableRecord
100
AcDbBlockTableRecord
  2
539595H_2018-10-05__9
340
0
102
{BLKREFS
331
9A
102
}
  0
BLOCK_RECORD
  5
99
330
1
100
AcDbSymbolTableRecord
100
AcDbBlockTableRecord
  2
HL6700_2-WEB-Zeichnung__10
340
0
102
{BLKREFS
331
9E
102
}
  0
BLOCK_RECORD
  5
9D
330
1
100
AcDbSymbolTableRecord
100
AcDbBlockTableRecord
  2
Drfsicht1
340
0
102
{BLKREFS
331
E7
102
}
  0
BLOCK_RECORD
  5
A1
330
1
100
AcDbSymbolTableRecord
100
AcDbBlockTableRecord
  2
368027497__11
340
0
102
{BLKREFS
331
AE
102
}
  0
BLOCK_RECORD
  5
A4
330
1
100
AcDbSymbolTableRecord
100
AcDbBlockTableRecord
  2
980057503__12
340
0
102
{BLKREFS
331
AF
102
}
  0
BLOCK_RECORD
  5
A7
330
1
100
AcDbSymbolTableRecord
100
AcDbBlockTableRecord
  2
976007501_Plan__13
340
0
102
{BLKREFS
331
B0
102
}
  0
BLOCK_RECORD
  5
AA
330
1
100
AcDbSymbolTableRecord
100
AcDbBlockTableRecord
  2
390997584__14
340
0
102
{BLKREFS
331
B1
102
}
  0
BLOCK_RECORD
  5
AD
330
1
100
AcDbSymbolTableRecord
100
AcDbBlockTableRecord
  2
539595H_2018-10-05__15
340
0
102
{BLKREFS
331
B5
102
}
  0
BLOCK_RECORD
  5
B4
330
1
100
AcDbSymbolTableRecord
100
AcDbBlockTableRecord
  2
HL6700_2-WEB-Zeichnung__16
340
0
102
{BLKREFS
331
B9
102
}
  0
BLOCK_RECORD
  5
B8
330
1
100
AcDbSymbolTableRecord
100
AcDbBlockTableRecord
  2
SA_Links1
340
0
102
{BLKREFS
331
E8
102
}
  0
BLOCK_RECORD
  5
BC
330
1
100
AcDbSymbolTableRecord
100
AcDbBlockTableRecord
  2
390997584_1__17
340
0
102
{BLKREFS
331
D5
102
}
  0
BLOCK_RECORD
  5
BF
330
1
100
AcDbSymbolTableRecord
100
AcDbBlockTableRecord
  2
980057503_1__18
340
0
102
{BLKREFS
331
D6
102
}
  0
BLOCK_RECORD
  5
C2
330
1
100
AcDbSymbolTableRecord
100
AcDbBlockTableRecord
  2
368027497_1__19
340
0
102
{BLKREFS
331
D7
102
}
  0
BLOCK_RECORD
  5
C5
330
1
100
AcDbSymbolTableRecord
100
AcDbBlockTableRecord
  2
976007501_Plan_1__20
340
0
102
{BLKREFS
331
D8
102
}
  0
BLOCK_RECORD
  5
C8
330
1
100
AcDbSymbolTableRecord
100
AcDbBlockTableRecord
  2
390997584__21
340
0
102
{BLKREFS
331
D9
102
}
  0
BLOCK_RECORD
  5
CB
330
1
100
AcDbSymbolTableRecord
100
AcDbBlockTableRecord
  2
976007501_Plan__22
340
0
102
{BLKREFS
331
DA
102
}
  0
BLOCK_RECORD
  5
CE
330
1
100
AcDbSymbolTableRecord
100
AcDbBlockTableRecord
  2
980057503__23
340
0
102
{BLKREFS
331
DB
102
}
  0
BLOCK_RECORD
  5
D1
330
1
100
AcDbSymbolTableRecord
100
AcDbBlockTableRecord
  2
368027497__24
340
0
102
{BLKREFS
331
DC
102
}
  0
BLOCK_RECORD
  5
D4
330
1
100
AcDbSymbolTableRecord
100
AcDbBlockTableRecord
  2
539595H_2018-10-05__25
340
0
102
{BLKREFS
331
E0
102
}
  0
BLOCK_RECORD
  5
DF
330
1
100
AcDbSymbolTableRecord
100
AcDbBlockTableRecord
  2
HL6700_2-WEB-Zeichnung__26
340
0
102
{BLKREFS
331
E4
102
}
  0
BLOCK_RECORD
  5
E3
330
1
100
AcDbSymbolTableRecord
100
AcDbBlockTableRecord
  2
Vordans1
340
0
102
{BLKREFS
331
E9
102
}
  0
BLOCK_RECORD
  5
244
330
1
100
AcDbSymbolTableRecord
100
AcDbBlockTableRecord
  2
*D30
340
0
  0
BLOCK_RECORD
  5
250
330
1
100
AcDbSymbolTableRecord
100
AcDbBlockTableRecord
  2
*D31
340
0
  0
BLOCK_RECORD
  5
25B
330
1
100
AcDbSymbolTableRecord
100
AcDbBlockTableRecord
  2
*D32
340
0
  0
BLOCK_RECORD
  5
2DB
330
1
100
AcDbSymbolTableRecord
100
AcDbBlockTableRecord
  2
*D33
340
0
  0
BLOCK_RECORD
  5
428
330
1
100
AcDbSymbolTableRecord
100
AcDbBlockTableRecord
  2
*D34
340
0
  0
BLOCK_RECORD
  5
435
330
1
100
AcDbSymbolTableRecord
100
AcDbBlockTableRecord
  2
*D35
340
0
  0
BLOCK_RECORD
  5
442
330
1
100
AcDbSymbolTableRecord
100
AcDbBlockTableRecord
  2
*D36
340
0
  0
ENDTAB
  0
ENDSEC
  0
SECTION
  2
BLOCKS
  0
BLOCK
  5
20
330
1F
100
AcDbEntity
  8
0
100
AcDbBlockBegin
  2
*Model_Space
 70
     0
 10
0.0
 20
0.0
 30
0.0
  3
*Model_Space
  1

  0
ENDBLK
  5
21
330
1F
100
AcDbEntity
  8
0
100
AcDbBlockEnd
  0
BLOCK
  5
1C
330
1B
100
AcDbEntity
 67
     1
  8
0
100
AcDbBlockBegin
  2
*Paper_Space
 70
     0
 10
0.0
 20
0.0
 30
0.0
  3
*Paper_Space
  1

  0
ENDBLK
  5
1D
330
1B
100
AcDbEntity
 67
     1
  8
0
100
AcDbBlockEnd
  0
BLOCK
  5
24
330
23
100
AcDbEntity
  8
0
100
AcDbBlockBegin
  2
*Paper_Space0
 70
     0
 10
0.0
 20
0.0
 30
0.0
  3
*Paper_Space0
  1

  0
ENDBLK
  5
25
330
23
100
AcDbEntity
  8
0
100
AcDbBlockEnd
  0
BLOCK
  5
77
330
76
100
AcDbEntity
  8
0
100
AcDbBlockBegin
  2
390997584__1
 70
     0
 10
-235.0105579617869
 20
-1521.25000000055
 30
0.0
  3
390997584__1
  1

  0
LINE
  5
EA
330
76
100
AcDbEntity
  8
0
  6
Continuous
 62
     7
100
AcDbLine
 10
149.989442038213
 20
-1520.75000000055
 30
0.0
 11
149.989442038213
 21
-1521.25000000055
 31
0.0
  0
LINE
  5
EB
330
76
100
AcDbEntity
  8
0
  6
Continuous
 62
     7
100
AcDbLine
 10
-235.0105579617869
 20
-1520.75000000055
 30
0.0
 11
-235.0105579617869
 21
-1521.25000000055
 31
0.0
  0
LINE
  5
EC
330
76
100
AcDbEntity
  8
0
  6
Continuous
 62
     7
100
AcDbLine
 10
149.989442038213
 20
-1520.75000000055
 30
0.0
 11
-235.0105579617869
 21
-1520.75000000055
 31
0.0
  0
LINE
  5
ED
330
76
100
AcDbEntity
  8
0
  6
Continuous
 62
     7
100
AcDbLine
 10
149.989442038213
 20
-1521.25000000055
 30
0.0
 11
-235.0105579617869
 21
-1521.25000000055
 31
0.0
  0
ENDBLK
  5
78
330
76
100
AcDbEntity
  8
0
100
AcDbBlockEnd
  0
BLOCK
  5
7A
330
79
100
AcDbEntity
  8
0
100
AcDbBlockBegin
  2
390997584_1__2
 70
     0
 10
179.9788840758519
 20
-1550.75000000055
 30
0.0
  3
390997584_1__2
  1

  0
LINE
  5
EE
330
79
100
AcDbEntity
  8
0
  6
Continuous
 62
     7
100
AcDbLine
 10
564.9788840758517
 20
-1520.75000000055
 30
0.0
 11
564.9788840758517
 21
-1521.25000000055
 31
0.0
  0
LINE
  5
EF
330
79
100
AcDbEntity
  8
0
  6
Continuous
 62
     7
100
AcDbLine
 10
182.4894420382132
 20
-1521.25000000055
 30
0.0
 11
179.9788840758519
 21
-1521.25000000055
 31
0.0
  0
LINE
  5
F0
330
79
100
AcDbEntity
  8
0
  6
Continuous
 62
     7
100
AcDbLine
 10
179.9788840758519
 20
-1520.75000000055
 30
0.0
 11
179.9788840758519
 21
-1521.25000000055
 31
0.0
  0
LINE
  5
F1
330
79
100
AcDbEntity
  8
0
  6
Continuous
 62
     7
100
AcDbLine
 10
179.9788840758519
 20
-1524.75000000055
 30
0.0
 11
179.9788840758519
 21
-1550.75000000055
 31
0.0
  0
LINE
  5
F2
330
79
100
AcDbEntity
  8
0
  6
Continuous
 62
     7
100
AcDbLine
 10
564.9788840758517
 20
-1520.75000000055
 30
0.0
 11
179.9788840758519
 21
-1520.75000000055
 31
0.0
  0
LINE
  5
F3
330
79
100
AcDbEntity
  8
0
  6
Continuous
 62
     7
100
AcDbLine
 10
564.9788840758517
 20
-1521.25000000055
 30
0.0
 11
182.4894420382132
 21
-1521.25000000055
 31
0.0
  0
ENDBLK
  5
7B
330
79
100
AcDbEntity
  8
0
100
AcDbBlockEnd
  0
BLOCK
  5
7D
330
7C
100
AcDbEntity
  8
0
100
AcDbBlockBegin
  2
976007501_Plan_1__3
 70
     0
 10
182.4894420382132
 20
-1524.75000000055
 30
0.0
  3
976007501_Plan_1__3
  1

  0
LINE
  5
F4
330
7C
100
AcDbEntity
  8
0
  6
Continuous
 62
     7
100
AcDbLine
 10
600.4894420382127
 20
-1524.75000000055
 30
0.0
 11
596.4894420382127
 21
-1524.75000000055
 31
0.0
  0
LINE
  5
F5
330
7C
100
AcDbEntity
  8
0
  6
Continuous
 62
     7
100
AcDbLine
 10
214.4894420382132
 20
-1524.75000000055
 30
0.0
 11
182.4894420382132
 21
-1524.75000000055
 31
0.0
  0
LINE
  5
F6
330
7C
100
AcDbEntity
  8
0
  6
Continuous
 62
     7
100
AcDbLine
 10
182.4894420382132
 20
-1524.75000000055
 30
0.0
 11
182.4894420382132
 21
-1521.25000000055
 31
0.0
  0
LINE
  5
F7
330
7C
100
AcDbEntity
  8
0
  6
Continuous
 62
     7
100
AcDbLine
 10
596.4894420382127
 20
-1524.75000000055
 30
0.0
 11
532.4894420382127
 21
-1524.750000000549
 31
0.0
  0
LINE
  5
F8
330
7C
100
AcDbEntity
  8
0
  6
Continuous
 62
     7
100
AcDbLine
 10
532.4894420382127
 20
-1524.750000000549
 30
0.0
 11
278.4894420382132
 21
-1524.75000000055
 31
0.0
  0
LINE
  5
F9
330
7C
100
AcDbEntity
  8
0
  6
Continuous
 62
     7
100
AcDbLine
 10
218.489442038213
 20
-1524.75000000055
 30
0.0
 11
214.4894420382132
 21
-1524.75000000055
 31
0.0
  0
LINE
  5
FA
330
7C
100
AcDbEntity
  8
0
  6
Continuous
 62
     7
100
AcDbLine
 10
278.4894420382132
 20
-1524.75000000055
 30
0.0
 11
218.489442038213
 21
-1524.75000000055
 31
0.0
  0
LINE
  5
FB
330
7C
100
AcDbEntity
  8
0
  6
Continuous
 62
     7
100
AcDbLine
 10
564.9788840758517
 20
-1521.25000000055
 30
0.0
 11
182.4894420382132
 21
-1521.25000000055
 31
0.0
  0
LINE
  5
FC
330
7C
100
AcDbEntity
  8
0
  6
Continuous
 62
     7
100
AcDbLine
 10
632.4894420382127
 20
-1524.75000000055
 30
0.0
 11
600.4894420382127
 21
-1524.75000000055
 31
0.0
  0
LINE
  5
FD
330
7C
100
AcDbEntity
  8
0
  6
Continuous
 62
     7
100
AcDbLine
 10
632.4894420382127
 20
-1524.75000000055
 30
0.0
 11
632.4894420382127
 21
-1521.25000000055
 31
0.0
  0
LINE
  5
FE
330
7C
100
AcDbEntity
  8
0
  6
Continuous
 62
     7
100
AcDbLine
 10
632.4894420382127
 20
-1521.25000000055
 30
0.0
 11
564.9788840758517
 21
-1521.25000000055
 31
0.0
  0
ENDBLK
  5
7E
330
7C
100
AcDbEntity
  8
0
100
AcDbBlockEnd
  0
BLOCK
  5
80
330
7F
100
AcDbEntity
  8
0
100
AcDbBlockBegin
  2
976007501_Plan__4
 70
     0
 10
-267.5105579617869
 20
-1524.75000000055
 30
0.0
  3
976007501_Plan__4
  1

  0
LINE
  5
FF
330
7F
100
AcDbEntity
  8
0
  6
Continuous
 62
     7
100
AcDbLine
 10
182.4894420382132
 20
-1521.25000000055
 30
0.0
 11
179.9788840758519
 21
-1521.25000000055
 31
0.0
  0
LINE
  5
100
330
7F
100
AcDbEntity
  8
0
  6
Continuous
 62
     7
100
AcDbLine
 10
182.4894420382132
 20
-1524.75000000055
 30
0.0
 11
182.4894420382132
 21
-1521.25000000055
 31
0.0
  0
LINE
  5
101
330
7F
100
AcDbEntity
  8
0
  6
Continuous
 62
     7
100
AcDbLine
 10
179.9788840758519
 20
-1521.25000000055
 30
0.0
 11
149.989442038213
 21
-1521.25000000055
 31
0.0
  0
LINE
  5
102
330
7F
100
AcDbEntity
  8
0
  6
Continuous
 62
     7
100
AcDbLine
 10
-235.5105579617869
 20
-1524.75000000055
 30
0.0
 11
-267.5105579617869
 21
-1524.75000000055
 31
0.0
  0
LINE
  5
103
330
7F
100
AcDbEntity
  8
0
  6
Continuous
 62
     7
100
AcDbLine
 10
-235.0105579617869
 20
-1521.25000000055
 30
0.0
 11
-267.5105579617869
 21
-1521.25000000055
 31
0.0
  0
LINE
  5
104
330
7F
100
AcDbEntity
  8
0
  6
Continuous
 62
     7
100
AcDbLine
 10
-267.5105579617869
 20
-1524.75000000055
 30
0.0
 11
-267.5105579617869
 21
-1521.25000000055
 31
0.0
  0
LINE
  5
105
330
7F
100
AcDbEntity
  8
0
  6
Continuous
 62
     7
100
AcDbLine
 10
-231.510557961787
 20
-1524.75000000055
 30
0.0
 11
-235.5105579617869
 21
-1524.75000000055
 31
0.0
  0
LINE
  5
106
330
7F
100
AcDbEntity
  8
0
  6
Continuous
 62
     7
100
AcDbLine
 10
149.989442038213
 20
-1521.25000000055
 30
0.0
 11
-235.0105579617869
 21
-1521.25000000055
 31
0.0
  0
LINE
  5
107
330
7F
100
AcDbEntity
  8
0
  6
Continuous
 62
     7
100
AcDbLine
 10
-171.5105579617869
 20
-1524.75000000055
 30
0.0
 11
-231.510557961787
 21
-1524.75000000055
 31
0.0
  0
LINE
  5
108
330
7F
100
AcDbEntity
  8
0
  6
Continuous
 62
     7
100
AcDbLine
 10
150.489442038213
 20
-1524.75000000055
 30
0.0
 11
146.489442038213
 21
-1524.75000000055
 31
0.0
  0
LINE
  5
109
330
7F
100
AcDbEntity
  8
0
  6
Continuous
 62
     7
100
AcDbLine
 10
182.4894420382132
 20
-1524.75000000055
 30
0.0
 11
150.489442038213
 21
-1524.75000000055
 31
0.0
  0
LINE
  5
10A
330
7F
100
AcDbEntity
  8
0
  6
Continuous
 62
     7
100
AcDbLine
 10
146.489442038213
 20
-1524.75000000055
 30
0.0
 11
82.48944203821316
 21
-1524.750000000549
 31
0.0
  0
LINE
  5
10B
330
7F
100
AcDbEntity
  8
0
  6
Continuous
 62
     7
100
AcDbLine
 10
82.48944203821316
 20
-1524.750000000549
 30
0.0
 11
-171.5105579617869
 21
-1524.75000000055
 31
0.0
  0
ENDBLK
  5
81
330
7F
100
AcDbEntity
  8
0
100
AcDbBlockEnd
  0
BLOCK
  5
83
330
82
100
AcDbEntity
  8
0
100
AcDbBlockBegin
  2
980057503__5
 70
     0
 10
-267.5105579617869
 20
-1717.75000000055
 30
0.0
  3
980057503__5
  1

  0
LINE
  5
10C
330
82
100
AcDbEntity
  8
0
  6
Continuous
 62
     7
100
AcDbLine
 10
-16.26055796178684
 20
-1717.75000000055
 30
0.0
 11
-17.26055796178696
 21
-1717.75000000055
 31
0.0
  0
LINE
  5
10D
330
82
100
AcDbEntity
  8
0
  6
Continuous
 62
     7
100
AcDbLine
 10
-67.7605579617869
 20
-1717.75000000055
 30
0.0
 11
-68.7605579617869
 21
-1717.75000000055
 31
0.0
  0
LINE
  5
10E
330
82
100
AcDbEntity
  8
0
  6
Continuous
 62
     7
100
AcDbLine
 10
-223.5105579617867
 20
-1717.75000000055
 30
0.0
 11
-68.7605579617869
 21
-1717.75000000055
 31
0.0
  0
LINE
  5
10F
330
82
100
AcDbEntity
  8
0
  6
Continuous
 62
     7
100
AcDbLine
 10
-67.7605579617869
 20
-1717.75000000055
 30
0.0
 11
-17.26055796178696
 21
-1717.75000000055
 31
0.0
  0
LINE
  5
110
330
82
100
AcDbEntity
  8
0
  6
Continuous
 62
     7
100
AcDbLine
 10
-16.26055796178684
 20
-1717.75000000055
 30
0.0
 11
138.489442038213
 21
-1717.75000000055
 31
0.0
  0
LINE
  5
111
330
82
100
AcDbEntity
  8
0
  6
Continuous
 62
     7
100
AcDbLine
 10
138.489442038213
 20
-1717.75000000055
 30
0.0
 11
142.489442038213
 21
-1717.75000000055
 31
0.0
  0
LINE
  5
112
330
82
100
AcDbEntity
  8
0
  6
Continuous
 62
     7
100
AcDbLine
 10
142.4894420382132
 20
-1713.75000000055
 30
0.0
 11
142.489442038213
 21
-1717.75000000055
 31
0.0
  0
LINE
  5
113
330
82
100
AcDbEntity
  8
0
  6
Continuous
 62
     7
100
AcDbLine
 10
150.4894420382132
 20
-1537.436291501565
 30
0.0
 11
150.489442038213
 21
-1546.75000000055
 31
0.0
  0
LINE
  5
114
330
82
100
AcDbEntity
  8
0
  6
Continuous
 62
     7
100
AcDbLine
 10
150.4894420382132
 20
-1537.436291501565
 30
0.0
 11
150.4894420382132
 21
-1528.75000000055
 31
0.0
  0
LINE
  5
115
330
82
100
AcDbEntity
  8
0
  6
Continuous
 62
     7
100
AcDbLine
 10
182.4894420382132
 20
-1630.75000000055
 30
0.0
 11
178.4894420382132
 21
-1630.75000000055
 31
0.0
  0
LINE
  5
116
330
82
100
AcDbEntity
  8
0
  6
Continuous
 62
     7
100
AcDbLine
 10
154.489442038213
 20
-1550.75000000055
 30
0.0
 11
182.4894420382132
 21
-1550.75000000055
 31
0.0
  0
LINE
  5
117
330
82
100
AcDbEntity
  8
0
  6
Continuous
 62
     7
100
AcDbLine
 10
152.4894420382132
 20
-1630.75000000055
 30
0.0
 11
178.4894420382132
 21
-1630.75000000055
 31
0.0
  0
LINE
  5
118
330
82
100
AcDbEntity
  8
0
  6
Continuous
 62
     7
100
AcDbLine
 10
182.4894420382132
 20
-1550.75000000055
 30
0.0
 11
182.489442038213
 21
-1605.963203436144
 31
0.0
  0
LINE
  5
119
330
82
100
AcDbEntity
  8
0
  6
Continuous
 62
     7
100
AcDbLine
 10
142.4894420382132
 20
-1713.75000000055
 30
0.0
 11
142.4894420382132
 21
-1640.75000000055
 31
0.0
  0
LINE
  5
11A
330
82
100
AcDbEntity
  8
0
  6
Continuous
 62
     7
100
AcDbLine
 10
-227.5105579617869
 20
-1717.75000000055
 30
0.0
 11
-223.5105579617867
 21
-1717.75000000055
 31
0.0
  0
LINE
  5
11B
330
82
100
AcDbEntity
  8
0
  6
Continuous
 62
     7
100
AcDbLine
 10
-227.5105579617869
 20
-1717.75000000055
 30
0.0
 11
-227.5105579617868
 21
-1713.75000000055
 31
0.0
  0
LINE
  5
11C
330
82
100
AcDbEntity
  8
0
  6
Continuous
 62
     7
100
AcDbLine
 10
-267.5105579617869
 20
-1606.963203436145
 30
0.0
 11
-267.5105579617869
 21
-1605.963203436145
 31
0.0
  0
LINE
  5
11D
330
82
100
AcDbEntity
  8
0
  6
Continuous
 62
     7
100
AcDbLine
 10
-267.5105579617868
 20
-1626.750000000551
 30
0.0
 11
-267.5105579617869
 21
-1630.75000000055
 31
0.0
  0
LINE
  5
11E
330
82
100
AcDbEntity
  8
0
  6
Continuous
 62
     7
100
AcDbLine
 10
-267.5105579617869
 20
-1606.963203436145
 30
0.0
 11
-267.5105579617868
 21
-1626.750000000551
 31
0.0
  0
LINE
  5
11F
330
82
100
AcDbEntity
  8
0
  6
Continuous
 62
     7
100
AcDbLine
 10
-267.5105579617869
 20
-1550.75000000055
 30
0.0
 11
-267.5105579617869
 21
-1605.963203436145
 31
0.0
  0
LINE
  5
120
330
82
100
AcDbEntity
  8
0
  6
Continuous
 62
     7
100
AcDbLine
 10
-267.5105579617869
 20
-1550.75000000055
 30
0.0
 11
-239.5105579617869
 21
-1550.75000000055
 31
0.0
  0
LINE
  5
121
330
82
100
AcDbEntity
  8
0
  6
Continuous
 62
     7
100
AcDbLine
 10
-263.5105579617869
 20
-1630.75000000055
 30
0.0
 11
-267.5105579617869
 21
-1630.75000000055
 31
0.0
  0
LINE
  5
122
330
82
100
AcDbEntity
  8
0
  6
Continuous
 62
     7
100
AcDbLine
 10
-263.5105579617869
 20
-1630.75000000055
 30
0.0
 11
-237.5105579617868
 21
-1630.75000000055
 31
0.0
  0
LINE
  5
123
330
82
100
AcDbEntity
  8
0
  6
Continuous
 62
     7
100
AcDbLine
 10
-235.5105579617869
 20
-1546.75000000055
 30
0.0
 11
-235.510557961787
 21
-1537.436291501565
 31
0.0
  0
LINE
  5
124
330
82
100
AcDbEntity
  8
0
  6
Continuous
 62
     7
100
AcDbLine
 10
-235.510557961787
 20
-1528.75000000055
 30
0.0
 11
-235.5105579617869
 21
-1524.75000000055
 31
0.0
  0
LINE
  5
125
330
82
100
AcDbEntity
  8
0
  6
Continuous
 62
     7
100
AcDbLine
 10
-231.510557961787
 20
-1524.75000000055
 30
0.0
 11
-235.5105579617869
 21
-1524.75000000055
 31
0.0
  0
LINE
  5
126
330
82
100
AcDbEntity
  8
0
  6
Continuous
 62
     7
100
AcDbLine
 10
-235.510557961787
 20
-1528.75000000055
 30
0.0
 11
-235.510557961787
 21
-1537.436291501565
 31
0.0
  0
LINE
  5
127
330
82
100
AcDbEntity
  8
0
  6
Continuous
 62
     7
100
AcDbLine
 10
-227.5105579617868
 20
-1640.75000000055
 30
0.0
 11
-227.5105579617868
 21
-1713.75000000055
 31
0.0
  0
LINE
  5
128
330
82
100
AcDbEntity
  8
0
  6
Continuous
 62
     7
100
AcDbLine
 10
150.489442038213
 20
-1524.75000000055
 30
0.0
 11
150.4894420382132
 21
-1528.75000000055
 31
0.0
  0
LINE
  5
129
330
82
100
AcDbEntity
  8
0
  6
Continuous
 62
     7
100
AcDbLine
 10
-171.5105579617869
 20
-1524.75000000055
 30
0.0
 11
-231.510557961787
 21
-1524.75000000055
 31
0.0
  0
LINE
  5
12A
330
82
100
AcDbEntity
  8
0
  6
Continuous
 62
     7
100
AcDbLine
 10
150.489442038213
 20
-1524.75000000055
 30
0.0
 11
146.489442038213
 21
-1524.75000000055
 31
0.0
  0
LINE
  5
12B
330
82
100
AcDbEntity
  8
0
  6
Continuous
 62
     7
100
AcDbLine
 10
146.489442038213
 20
-1524.75000000055
 30
0.0
 11
82.48944203821316
 21
-1524.750000000549
 31
0.0
  0
LINE
  5
12C
330
82
100
AcDbEntity
  8
0
  6
Continuous
 62
     7
100
AcDbLine
 10
82.48944203821316
 20
-1524.750000000549
 30
0.0
 11
-171.5105579617869
 21
-1524.75000000055
 31
0.0
  0
LINE
  5
12D
330
82
100
AcDbEntity
  8
0
  6
Continuous
 62
     7
100
AcDbLine
 10
182.489442038213
 20
-1626.75000000055
 30
0.0
 11
182.4894420382132
 21
-1630.75000000055
 31
0.0
  0
LINE
  5
12E
330
82
100
AcDbEntity
  8
0
  6
Continuous
 62
     7
100
AcDbLine
 10
182.489442038213
 20
-1605.963203436144
 30
0.0
 11
182.4894420382127
 21
-1606.963203436144
 31
0.0
  0
LINE
  5
12F
330
82
100
AcDbEntity
  8
0
  6
Continuous
 62
     7
100
AcDbLine
 10
182.489442038213
 20
-1626.75000000055
 30
0.0
 11
182.4894420382127
 21
-1606.963203436144
 31
0.0
  0
ARC
  5
130
330
82
100
AcDbEntity
  8
0
  6
Continuous
 62
     7
100
AcDbCircle
 10
154.489442038213
 20
-1546.75000000055
 30
0.0
 40
4.0
100
AcDbArc
 50
180.0
 51
270.0
  0
ARC
  5
131
330
82
100
AcDbEntity
  8
0
  6
Continuous
 62
     7
100
AcDbCircle
 10
152.4894420382132
 20
-1640.75000000055
 30
0.0
 40
10.0
100
AcDbArc
 50
90.0
 51
180.0
  0
ARC
  5
132
330
82
100
AcDbEntity
  8
0
  6
Continuous
 62
     7
100
AcDbCircle
 10
-239.5105579617869
 20
-1546.75000000055
 30
0.0
 40
4.0
100
AcDbArc
 50
270.0
 51
0.0
  0
ARC
  5
133
330
82
100
AcDbEntity
  8
0
  6
Continuous
 62
     7
100
AcDbCircle
 10
-237.5105579617868
 20
-1640.75000000055
 30
0.0
 40
10.0
100
AcDbArc
 50
0.0
 51
90.0
  0
ENDBLK
  5
84
330
82
100
AcDbEntity
  8
0
100
AcDbBlockEnd
  0
BLOCK
  5
86
330
85
100
AcDbEntity
  8
0
100
AcDbBlockBegin
  2
368027497__6
 70
     0
 10
-267.5105579617869
 20
-1717.75000000055
 30
0.0
  3
368027497__6
  1

  0
LINE
  5
134
330
85
100
AcDbEntity
  8
0
  6
Continuous
 62
     7
100
AcDbLine
 10
-17.51055796178696
 20
-1634.75000000055
 30
0.0
 11
-20.31258508136386
 21
-1634.75000000055
 31
0.0
  0
LINE
  5
135
330
85
100
AcDbEntity
  8
0
  6
Continuous
 62
     7
100
AcDbLine
 10
-16.26055796178684
 20
-1717.75000000055
 30
0.0
 11
-17.26055796178696
 21
-1717.75000000055
 31
0.0
  0
LINE
  5
136
330
85
100
AcDbEntity
  8
0
  6
Continuous
 62
     7
100
AcDbLine
 10
-16.26055796178684
 20
-1677.75000000055
 30
0.0
 11
-16.26055796178684
 21
-1717.75000000055
 31
0.0
  0
LINE
  5
137
330
85
100
AcDbEntity
  8
0
  6
Continuous
 62
     7
100
AcDbLine
 10
-21.26055796178696
 20
-1713.75000000055
 30
0.0
 11
-21.26055796178696
 21
-1681.75000000055
 31
0.0
  0
LINE
  5
138
330
85
100
AcDbEntity
  8
0
  6
Continuous
 62
     7
100
AcDbLine
 10
-24.93927457098141
 20
-1677.75000000055
 30
0.0
 11
-16.26055796178684
 21
-1677.75000000055
 31
0.0
  0
LINE
  5
139
330
85
100
AcDbEntity
  8
0
  6
Continuous
 62
     7
100
AcDbLine
 10
-64.70853084221011
 20
-1634.75000000055
 30
0.0
 11
-67.5105579617869
 21
-1634.75000000055
 31
0.0
  0
LINE
  5
13A
330
85
100
AcDbEntity
  8
0
  6
Continuous
 62
     7
100
AcDbLine
 10
-217.5105579617868
 20
-1634.75000000055
 30
0.0
 11
-67.5105579617869
 21
-1634.75000000055
 31
0.0
  0
LINE
  5
13B
330
85
100
AcDbEntity
  8
0
  6
Continuous
 62
     7
100
AcDbLine
 10
-63.7605579617869
 20
-1681.75000000055
 30
0.0
 11
-63.7605579617869
 21
-1713.75000000055
 31
0.0
  0
LINE
  5
13C
330
85
100
AcDbEntity
  8
0
  6
Continuous
 62
     7
100
AcDbLine
 10
-67.7605579617869
 20
-1717.75000000055
 30
0.0
 11
-68.7605579617869
 21
-1717.75000000055
 31
0.0
  0
LINE
  5
13D
330
85
100
AcDbEntity
  8
0
  6
Continuous
 62
     7
100
AcDbLine
 10
-223.5105579617867
 20
-1717.75000000055
 30
0.0
 11
-68.7605579617869
 21
-1717.75000000055
 31
0.0
  0
LINE
  5
13E
330
85
100
AcDbEntity
  8
0
  6
Continuous
 62
     7
100
AcDbLine
 10
-68.7605579617869
 20
-1677.75000000055
 30
0.0
 11
-60.08184135259251
 21
-1677.75000000055
 31
0.0
  0
LINE
  5
13F
330
85
100
AcDbEntity
  8
0
  6
Continuous
 62
     7
100
AcDbLine
 10
-68.7605579617869
 20
-1717.75000000055
 30
0.0
 11
-68.7605579617869
 21
-1677.75000000055
 31
0.0
  0
LINE
  5
140
330
85
100
AcDbEntity
  8
0
  6
Continuous
 62
     7
100
AcDbLine
 10
-63.5105579617869
 20
-1630.75000000055
 30
0.0
 11
-63.5105579617869
 21
-1618.348944686582
 31
0.0
  0
LINE
  5
141
330
85
100
AcDbEntity
  8
0
  6
Continuous
 62
     7
100
AcDbLine
 10
-59.7605579617869
 20
-1677.75000000055
 30
0.0
 11
-60.08184135259251
 21
-1677.75000000055
 31
0.0
  0
LINE
  5
142
330
85
100
AcDbEntity
  8
0
  6
Continuous
 62
     7
100
AcDbLine
 10
-24.93927457098141
 20
-1677.75000000055
 30
0.0
 11
-25.26055796178696
 21
-1677.75000000055
 31
0.0
  0
LINE
  5
143
330
85
100
AcDbEntity
  8
0
  6
Continuous
 62
     7
100
AcDbLine
 10
-25.26055796178696
 20
-1677.75000000055
 30
0.0
 11
-59.7605579617869
 21
-1677.75000000055
 31
0.0
  0
LINE
  5
144
330
85
100
AcDbEntity
  8
0
  6
Continuous
 62
     3
100
AcDbLine
 10
-63.5105579617869
 20
-1630.75000000055
 30
0.0
 11
-60.08184135259251
 21
-1630.750000000548
 31
0.0
  0
LINE
  5
145
330
85
100
AcDbEntity
  8
0
  6
Continuous
 62
     7
100
AcDbLine
 10
-24.93927457098141
 20
-1677.75000000055
 30
0.0
 11
-24.93927457098141
 21
-1630.75000000055
 31
0.0
  0
LINE
  5
146
330
85
100
AcDbEntity
  8
0
  6
Continuous
 62
     3
100
AcDbLine
 10
-24.93927457098141
 20
-1630.75000000055
 30
0.0
 11
-21.51055796178696
 21
-1630.75000000055
 31
0.0
  0
LINE
  5
147
330
85
100
AcDbEntity
  8
0
  6
Continuous
 62
     7
100
AcDbLine
 10
-60.08184135259251
 20
-1677.75000000055
 30
0.0
 11
-60.08184135259251
 21
-1630.750000000548
 31
0.0
  0
LINE
  5
148
330
85
100
AcDbEntity
  8
0
  6
Continuous
 62
     7
100
AcDbLine
 10
-17.51055796178696
 20
-1634.75000000055
 30
0.0
 11
132.4894420382133
 21
-1634.75000000055
 31
0.0
  0
LINE
  5
149
330
85
100
AcDbEntity
  8
0
  6
Continuous
 62
     7
100
AcDbLine
 10
-16.26055796178684
 20
-1717.75000000055
 30
0.0
 11
138.489442038213
 21
-1717.75000000055
 31
0.0
  0
LINE
  5
14A
330
85
100
AcDbEntity
  8
0
  6
Continuous
 62
     7
100
AcDbLine
 10
-21.51055796178696
 20
-1618.348944686582
 30
0.0
 11
-21.51055796178696
 21
-1630.75000000055
 31
0.0
  0
LINE
  5
14B
330
85
100
AcDbEntity
  8
0
  6
Continuous
 62
     7
100
AcDbLine
 10
142.4894420382133
 20
-1559.75000000055
 30
0.0
 11
82.48944203821338
 21
-1559.75000000055
 31
0.0
  0
LINE
  5
14C
330
85
100
AcDbEntity
  8
0
  6
Continuous
 62
     7
100
AcDbLine
 10
82.48944203821316
 20
-1528.75000000055
 30
0.0
 11
82.48944203821338
 21
-1559.75000000055
 31
0.0
  0
LINE
  5
14D
330
85
100
AcDbEntity
  8
0
  6
Continuous
 62
     7
100
AcDbLine
 10
130.9715042415514
 20
-1550.006880270738
 30
0.0
 11
129.804277422272
 21
-1545.14503066875
 31
0.0
  0
LINE
  5
14E
330
85
100
AcDbEntity
  8
0
  6
Continuous
 62
     7
100
AcDbLine
 10
82.48944203821338
 20
-1559.75000000055
 30
0.0
 11
82.48944203821372
 21
-1599.574829864413
 31
0.0
  0
LINE
  5
14F
330
85
100
AcDbEntity
  8
0
  6
Continuous
 62
     7
100
AcDbLine
 10
142.4894420382133
 20
-1597.963203436144
 30
0.0
 11
142.4894420382133
 21
-1559.75000000055
 31
0.0
  0
LINE
  5
150
330
85
100
AcDbEntity
  8
0
  6
Continuous
 62
     7
100
AcDbLine
 10
142.4894420382133
 20
-1559.75000000055
 30
0.0
 11
142.4894420382133
 21
-1548.75000000055
 31
0.0
  0
LINE
  5
151
330
85
100
AcDbEntity
  8
0
  6
Continuous
 62
     7
100
AcDbLine
 10
142.6399432863236
 20
-1547.205535904467
 30
0.0
 11
130.9715042415514
 21
-1550.006880270738
 31
0.0
  0
LINE
  5
152
330
85
100
AcDbEntity
  8
0
  6
Continuous
 62
     7
100
AcDbLine
 10
129.804277422272
 20
-1545.14503066875
 30
0.0
 11
149.0240376945051
 21
-1540.530774472775
 31
0.0
  0
LINE
  5
153
330
85
100
AcDbEntity
  8
0
  6
Continuous
 62
     7
100
AcDbLine
 10
136.4734996893737
 20
-1633.9220927079
 30
0.0
 11
120.6064328835489
 21
-1621.746864127726
 31
0.0
  0
LINE
  5
154
330
85
100
AcDbEntity
  8
0
  6
Continuous
 62
     7
100
AcDbLine
 10
123.6502400285924
 20
-1617.78009742627
 30
0.0
 11
140.5125794549172
 21
-1630.71902554855
 31
0.0
  0
LINE
  5
155
330
85
100
AcDbEntity
  8
0
  6
Continuous
 62
     7
100
AcDbLine
 10
182.4894420382127
 20
-1606.963203436144
 30
0.0
 11
142.4894420382133
 21
-1606.963203436144
 31
0.0
  0
LINE
  5
156
330
85
100
AcDbEntity
  8
0
  6
Continuous
 62
     7
100
AcDbLine
 10
150.4894420382132
 20
-1537.436291501565
 30
0.0
 11
150.4894420382132
 21
-1528.75000000055
 31
0.0
  0
LINE
  5
157
330
85
100
AcDbEntity
  8
0
  6
Continuous
 62
     7
100
AcDbLine
 10
146.4894420382133
 20
-1601.963203436144
 30
0.0
 11
178.489442038213
 21
-1601.963203436144
 31
0.0
  0
LINE
  5
158
330
85
100
AcDbEntity
  8
0
  6
Continuous
 62
     7
100
AcDbLine
 10
152.4894420382132
 20
-1630.75000000055
 30
0.0
 11
178.4894420382132
 21
-1630.75000000055
 31
0.0
  0
LINE
  5
159
330
85
100
AcDbEntity
  8
0
  6
Continuous
 62
     7
100
AcDbLine
 10
142.4894420382132
 20
-1713.75000000055
 30
0.0
 11
142.4894420382132
 21
-1640.75000000055
 31
0.0
  0
LINE
  5
15A
330
85
100
AcDbEntity
  8
0
  6
Continuous
 62
     7
100
AcDbLine
 10
-267.5105579617869
 20
-1606.963203436145
 30
0.0
 11
-267.5105579617869
 21
-1605.963203436145
 31
0.0
  0
LINE
  5
15B
330
85
100
AcDbEntity
  8
0
  6
Continuous
 62
     7
100
AcDbLine
 10
-267.5105579617869
 20
-1606.963203436145
 30
0.0
 11
-267.5105579617868
 21
-1626.750000000551
 31
0.0
  0
LINE
  5
15C
330
85
100
AcDbEntity
  8
0
  6
Continuous
 62
     7
100
AcDbLine
 10
-263.5105579617869
 20
-1601.963203436145
 30
0.0
 11
-231.5105579617868
 21
-1601.963203436145
 31
0.0
  0
LINE
  5
15D
330
85
100
AcDbEntity
  8
0
  6
Continuous
 62
     7
100
AcDbLine
 10
-263.5105579617869
 20
-1630.75000000055
 30
0.0
 11
-237.5105579617868
 21
-1630.75000000055
 31
0.0
  0
LINE
  5
15E
330
85
100
AcDbEntity
  8
0
  6
Continuous
 62
     7
100
AcDbLine
 10
-205.6275488071227
 20
-1621.746864127726
 30
0.0
 11
-208.6713559521663
 21
-1617.78009742627
 31
0.0
  0
LINE
  5
15F
330
85
100
AcDbEntity
  8
0
  6
Continuous
 62
     7
100
AcDbLine
 10
-227.5105579617868
 20
-1601.75000000055
 30
0.0
 11
-227.5105579617868
 21
-1606.963203436145
 31
0.0
  0
LINE
  5
160
330
85
100
AcDbEntity
  8
0
  6
Continuous
 62
     7
100
AcDbLine
 10
-227.5105579617868
 20
-1606.963203436145
 30
0.0
 11
-227.5105579617867
 21
-1624.75000000055
 31
0.0
  0
LINE
  5
161
330
85
100
AcDbEntity
  8
0
  6
Continuous
 62
     7
100
AcDbLine
 10
-227.5105579617868
 20
-1601.75000000055
 30
0.0
 11
-167.1023944113678
 21
-1601.75000000055
 31
0.0
  0
LINE
  5
162
330
85
100
AcDbEntity
  8
0
  6
Continuous
 62
     7
100
AcDbLine
 10
-167.5105579617869
 20
-1528.75000000055
 30
0.0
 11
-235.510557961787
 21
-1528.75000000055
 31
0.0
  0
LINE
  5
163
330
85
100
AcDbEntity
  8
0
  6
Continuous
 62
     7
100
AcDbLine
 10
-167.5105579617865
 20
-1559.75000000055
 30
0.0
 11
-167.5105579617869
 21
-1528.75000000055
 31
0.0
  0
LINE
  5
164
330
85
100
AcDbEntity
  8
0
  6
Continuous
 62
     7
100
AcDbLine
 10
-167.5105579617865
 20
-1559.75000000055
 30
0.0
 11
-227.5105579617868
 21
-1559.75000000055
 31
0.0
  0
LINE
  5
165
330
85
100
AcDbEntity
  8
0
  6
Continuous
 62
     7
100
AcDbLine
 10
-215.9926201651254
 20
-1550.006880270738
 30
0.0
 11
-214.8253933458458
 21
-1545.14503066875
 31
0.0
  0
LINE
  5
166
330
85
100
AcDbEntity
  8
0
  6
Continuous
 62
     7
100
AcDbLine
 10
-167.5105579617865
 20
-1599.574829864415
 30
0.0
 11
-167.5105579617865
 21
-1559.75000000055
 31
0.0
  0
LINE
  5
167
330
85
100
AcDbEntity
  8
0
  6
Continuous
 62
     7
100
AcDbLine
 10
-227.5105579617868
 20
-1548.75000000055
 30
0.0
 11
-227.5105579617868
 21
-1559.75000000055
 31
0.0
  0
LINE
  5
168
330
85
100
AcDbEntity
  8
0
  6
Continuous
 62
     7
100
AcDbLine
 10
-227.5105579617868
 20
-1559.75000000055
 30
0.0
 11
-227.5105579617868
 21
-1597.963203436145
 31
0.0
  0
LINE
  5
169
330
85
100
AcDbEntity
  8
0
  6
Continuous
 62
     7
100
AcDbLine
 10
-227.5105579617868
 20
-1597.963203436145
 30
0.0
 11
-227.5105579617868
 21
-1601.75000000055
 31
0.0
  0
LINE
  5
16A
330
85
100
AcDbEntity
  8
0
  6
Continuous
 62
     7
100
AcDbLine
 10
-235.510557961787
 20
-1528.75000000055
 30
0.0
 11
-235.510557961787
 21
-1537.436291501565
 31
0.0
  0
LINE
  5
16B
330
85
100
AcDbEntity
  8
0
  6
Continuous
 62
     7
100
AcDbLine
 10
-227.6610592098974
 20
-1547.205535904467
 30
0.0
 11
-215.9926201651254
 21
-1550.006880270738
 31
0.0
  0
LINE
  5
16C
330
85
100
AcDbEntity
  8
0
  6
Continuous
 62
     7
100
AcDbLine
 10
-214.8253933458458
 20
-1545.14503066875
 30
0.0
 11
-234.0451536180785
 21
-1540.530774472775
 31
0.0
  0
LINE
  5
16D
330
85
100
AcDbEntity
  8
0
  6
Continuous
 62
     7
100
AcDbLine
 10
-221.4946156129476
 20
-1633.9220927079
 30
0.0
 11
-205.6275488071227
 21
-1621.746864127726
 31
0.0
  0
LINE
  5
16E
330
85
100
AcDbEntity
  8
0
  6
Continuous
 62
     7
100
AcDbLine
 10
-208.6713559521663
 20
-1617.78009742627
 30
0.0
 11
-225.5336953784913
 21
-1630.71902554855
 31
0.0
  0
LINE
  5
16F
330
85
100
AcDbEntity
  8
0
  6
Continuous
 62
     7
100
AcDbLine
 10
-227.5105579617868
 20
-1640.75000000055
 30
0.0
 11
-227.5105579617868
 21
-1713.75000000055
 31
0.0
  0
LINE
  5
170
330
85
100
AcDbEntity
  8
0
  6
Continuous
 62
     7
100
AcDbLine
 10
142.4894420382133
 20
-1624.75000000055
 30
0.0
 11
142.4894420382133
 21
-1606.963203436144
 31
0.0
  0
LINE
  5
171
330
85
100
AcDbEntity
  8
0
  6
Continuous
 62
     7
100
AcDbLine
 10
120.6064328835489
 20
-1621.746864127726
 30
0.0
 11
123.6502400285924
 21
-1617.78009742627
 31
0.0
  0
LINE
  5
172
330
85
100
AcDbEntity
  8
0
  6
Continuous
 62
     7
100
AcDbLine
 10
82.0812784877943
 20
-1601.75000000055
 30
0.0
 11
142.4894420382133
 21
-1601.75000000055
 31
0.0
  0
LINE
  5
173
330
85
100
AcDbEntity
  8
0
  6
Continuous
 62
     7
100
AcDbLine
 10
-227.5105579617868
 20
-1606.963203436145
 30
0.0
 11
-267.5105579617869
 21
-1606.963203436145
 31
0.0
  0
LINE
  5
174
330
85
100
AcDbEntity
  8
0
  6
Continuous
 62
     7
100
AcDbLine
 10
142.4894420382133
 20
-1606.963203436144
 30
0.0
 11
142.4894420382133
 21
-1601.75000000055
 31
0.0
  0
LINE
  5
175
330
85
100
AcDbEntity
  8
0
  6
Continuous
 62
     7
100
AcDbLine
 10
142.4894420382133
 20
-1601.75000000055
 30
0.0
 11
142.4894420382133
 21
-1597.963203436144
 31
0.0
  0
LINE
  5
176
330
85
100
AcDbEntity
  8
0
  6
Continuous
 62
     7
100
AcDbLine
 10
150.4894420382132
 20
-1528.75000000055
 30
0.0
 11
82.48944203821316
 21
-1528.75000000055
 31
0.0
  0
LINE
  5
177
330
85
100
AcDbEntity
  8
0
  6
Continuous
 62
     7
100
AcDbLine
 10
82.48944203821316
 20
-1524.750000000549
 30
0.0
 11
82.48944203821316
 21
-1528.75000000055
 31
0.0
  0
LINE
  5
178
330
85
100
AcDbEntity
  8
0
  6
Continuous
 62
     7
100
AcDbLine
 10
-171.5105579617869
 20
-1524.75000000055
 30
0.0
 11
-231.510557961787
 21
-1524.75000000055
 31
0.0
  0
LINE
  5
179
330
85
100
AcDbEntity
  8
0
  6
Continuous
 62
     7
100
AcDbLine
 10
146.489442038213
 20
-1524.75000000055
 30
0.0
 11
82.48944203821316
 21
-1524.750000000549
 31
0.0
  0
LINE
  5
17A
330
85
100
AcDbEntity
  8
0
  6
Continuous
 62
     7
100
AcDbLine
 10
182.489442038213
 20
-1605.963203436144
 30
0.0
 11
182.4894420382127
 21
-1606.963203436144
 31
0.0
  0
LINE
  5
17B
330
85
100
AcDbEntity
  8
0
  6
Continuous
 62
     7
100
AcDbLine
 10
182.489442038213
 20
-1626.75000000055
 30
0.0
 11
182.4894420382127
 21
-1606.963203436144
 31
0.0
  0
ARC
  5
17C
330
85
100
AcDbEntity
  8
0
  6
Continuous
 62
     7
100
AcDbCircle
 10
-17.26055796178696
 20
-1713.75000000055
 30
0.0
 40
4.0
100
AcDbArc
 50
180.0
 51
270.0
  0
ARC
  5
17D
330
85
100
AcDbEntity
  8
0
  6
Continuous
 62
     7
100
AcDbCircle
 10
-25.26055796178696
 20
-1681.75000000055
 30
0.0
 40
4.0
100
AcDbArc
 50
0.0
 51
90.0
  0
ARC
  5
17E
330
85
100
AcDbEntity
  8
0
  6
Continuous
 62
     7
100
AcDbCircle
 10
-67.5105579617869
 20
-1630.75000000055
 30
0.0
 40
4.0
100
AcDbArc
 50
270.0
 51
0.0
  0
ARC
  5
17F
330
85
100
AcDbEntity
  8
0
  6
Continuous
 62
     7
100
AcDbCircle
 10
-59.7605579617869
 20
-1681.75000000055
 30
0.0
 40
4.0
100
AcDbArc
 50
90.0
 51
180.0
  0
ARC
  5
180
330
85
100
AcDbEntity
  8
0
  6
Continuous
 62
     7
100
AcDbCircle
 10
-67.7605579617869
 20
-1713.75000000055
 30
0.0
 40
4.0
100
AcDbArc
 50
270.0
 51
0.0
  0
ARC
  5
181
330
85
100
AcDbEntity
  8
0
  6
Continuous
 62
     7
100
AcDbCircle
 10
-42.51055796178707
 20
-1068.750000000549
 30
0.0
 40
550.0000000000009
100
AcDbArc
 50
267.8118110686107
 51
269.9999999999997
  0
ARC
  5
182
330
85
100
AcDbEntity
  8
0
  6
Continuous
 62
     7
100
AcDbCircle
 10
-42.5105579617927
 20
-1068.750000000549
 30
0.0
 40
550.0000000000009
100
AcDbArc
 50
270.0000000000003
 51
272.1881889313898
  0
ARC
  5
183
330
85
100
AcDbEntity
  8
0
  6
Continuous
 62
     7
100
AcDbCircle
 10
-17.51055796178696
 20
-1630.75000000055
 30
0.0
 40
4.0
100
AcDbArc
 50
180.0
 51
270.0
  0
ARC
  5
184
330
85
100
AcDbEntity
  8
0
  6
Continuous
 62
     7
100
AcDbCircle
 10
132.4894420382129
 20
-1624.75000000055
 30
0.0
 40
10.0
100
AcDbArc
 50
270.0000000000023
 51
293.478552921709
  0
ARC
  5
185
330
85
100
AcDbEntity
  8
0
  6
Continuous
 62
     7
100
AcDbCircle
 10
132.4894420382129
 20
-1624.75000000055
 30
0.0
 40
9.999999999999847
100
AcDbArc
 50
323.3516199153603
 51
0.0
  0
ARC
  5
186
330
85
100
AcDbEntity
  8
0
  6
Continuous
 62
     7
100
AcDbCircle
 10
132.4894420382129
 20
-1624.75000000055
 30
0.0
 40
9.99999999999978
100
AcDbArc
 50
293.478552921709
 51
323.3516199153603
  0
ARC
  5
187
330
85
100
AcDbEntity
  8
0
  6
Continuous
 62
     7
100
AcDbCircle
 10
76.48944203821372
 20
-1599.574829864413
 30
0.0
 40
6.000000000000012
100
AcDbArc
 50
338.7444475546224
 51
0.0
  0
ARC
  5
188
330
85
100
AcDbEntity
  8
0
  6
Continuous
 62
     7
100
AcDbCircle
 10
150.489442038213
 20
-1548.750000000548
 30
0.0
 40
7.999999999999792
100
AcDbArc
 50
168.8686996626884
 51
180.0000000000147
  0
ARC
  5
189
330
85
100
AcDbEntity
  8
0
  6
Continuous
 62
     7
100
AcDbCircle
 10
146.489442038213
 20
-1537.436291501565
 30
0.0
 40
4.000000000000441
100
AcDbArc
 50
309.3198488283369
 51
0.0
  0
ARC
  5
18A
330
85
100
AcDbEntity
  8
0
  6
Continuous
 62
     7
100
AcDbCircle
 10
146.489442038213
 20
-1537.436291501565
 30
0.0
 40
3.999999999999765
100
AcDbArc
 50
289.4712206344929
 51
309.3198488283369
  0
ARC
  5
18B
330
85
100
AcDbEntity
  8
0
  6
Continuous
 62
     7
100
AcDbCircle
 10
146.489442038213
 20
-1528.75000000055
 30
0.0
 40
4.000000000000199
100
AcDbArc
 50
0.0
 51
90.0
  0
ARC
  5
18C
330
85
100
AcDbEntity
  8
0
  6
Continuous
 62
     7
100
AcDbCircle
 10
150.4894420382129
 20
-1548.75000000055
 30
0.0
 40
8.000000000000497
100
AcDbArc
 50
109.4712206344881
 51
168.8686996626739
  0
ARC
  5
18D
330
85
100
AcDbEntity
  8
0
  6
Continuous
 62
     7
100
AcDbCircle
 10
138.489442038213
 20
-1713.75000000055
 30
0.0
 40
4.0
100
AcDbArc
 50
270.0
 51
0.0
  0
ARC
  5
18E
330
85
100
AcDbEntity
  8
0
  6
Continuous
 62
     7
100
AcDbCircle
 10
178.4894420382132
 20
-1626.75000000055
 30
0.0
 40
4.0
100
AcDbArc
 50
270.0
 51
0.0
  0
ARC
  5
18F
330
85
100
AcDbEntity
  8
0
  6
Continuous
 62
     7
100
AcDbCircle
 10
178.489442038213
 20
-1605.963203436144
 30
0.0
 40
4.0
100
AcDbArc
 50
0.0
 51
90.0
  0
ARC
  5
190
330
85
100
AcDbEntity
  8
0
  6
Continuous
 62
     7
100
AcDbCircle
 10
152.4894420382132
 20
-1640.75000000055
 30
0.0
 40
10.0
100
AcDbArc
 50
90.0
 51
180.0
  0
ARC
  5
191
330
85
100
AcDbEntity
  8
0
  6
Continuous
 62
     7
100
AcDbCircle
 10
-237.5105579617868
 20
-1640.75000000055
 30
0.0
 40
10.0
100
AcDbArc
 50
0.0
 51
90.0
  0
ARC
  5
192
330
85
100
AcDbEntity
  8
0
  6
Continuous
 62
     7
100
AcDbCircle
 10
-263.5105579617869
 20
-1605.963203436145
 30
0.0
 40
4.0
100
AcDbArc
 50
90.0
 51
180.0
  0
ARC
  5
193
330
85
100
AcDbEntity
  8
0
  6
Continuous
 62
     7
100
AcDbCircle
 10
-263.5105579617869
 20
-1626.750000000551
 30
0.0
 40
3.999999999999886
100
AcDbArc
 50
180.0
 51
270.0
  0
ARC
  5
194
330
85
100
AcDbEntity
  8
0
  6
Continuous
 62
     7
100
AcDbCircle
 10
-223.5105579617867
 20
-1713.75000000055
 30
0.0
 40
4.000000000000085
100
AcDbArc
 50
180.0
 51
270.0
  0
ARC
  5
195
330
85
100
AcDbEntity
  8
0
  6
Continuous
 62
     7
100
AcDbCircle
 10
-217.5105579617868
 20
-1624.75000000055
 30
0.0
 40
9.99999999999978
100
AcDbArc
 50
246.521447078291
 51
270.0
  0
ARC
  5
196
330
85
100
AcDbEntity
  8
0
  6
Continuous
 62
     7
100
AcDbCircle
 10
-217.5105579617868
 20
-1624.75000000055
 30
0.0
 40
9.999999999999915
100
AcDbArc
 50
180.0
 51
216.6483800846389
  0
ARC
  5
197
330
85
100
AcDbEntity
  8
0
  6
Continuous
 62
     7
100
AcDbCircle
 10
-231.5105579617868
 20
-1597.963203436145
 30
0.0
 40
4.0
100
AcDbArc
 50
270.0
 51
0.0
  0
ARC
  5
198
330
85
100
AcDbEntity
  8
0
  6
Continuous
 62
     7
100
AcDbCircle
 10
-217.5105579617868
 20
-1624.75000000055
 30
0.0
 40
10.00000000000003
100
AcDbArc
 50
216.6483800846389
 51
246.521447078291
  0
ARC
  5
199
330
85
100
AcDbEntity
  8
0
  6
Continuous
 62
     7
100
AcDbCircle
 10
-171.5105579617869
 20
-1528.75000000055
 30
0.0
 40
4.0
100
AcDbArc
 50
0.0
 51
90.0
  0
ARC
  5
19A
330
85
100
AcDbEntity
  8
0
  6
Continuous
 62
     7
100
AcDbCircle
 10
-161.5105579617865
 20
-1599.574829864415
 30
0.0
 40
6.0
100
AcDbArc
 50
180.0
 51
201.2555524453569
  0
ARC
  5
19B
330
85
100
AcDbEntity
  8
0
  6
Continuous
 62
     7
100
AcDbCircle
 10
-235.5105579617868
 20
-1548.75000000055
 30
0.0
 40
8.0
100
AcDbArc
 50
0.0
 51
11.13130033732599
  0
ARC
  5
19C
330
85
100
AcDbEntity
  8
0
  6
Continuous
 62
     7
100
AcDbCircle
 10
-231.510557961787
 20
-1537.436291501565
 30
0.0
 40
4.0
100
AcDbArc
 50
180.0
 51
230.6801511716693
  0
ARC
  5
19D
330
85
100
AcDbEntity
  8
0
  6
Continuous
 62
     7
100
AcDbCircle
 10
-231.510557961787
 20
-1537.436291501565
 30
0.0
 40
4.000000000000082
100
AcDbArc
 50
230.6801511716693
 51
250.5287793655083
  0
ARC
  5
19E
330
85
100
AcDbEntity
  8
0
  6
Continuous
 62
     7
100
AcDbCircle
 10
-231.510557961787
 20
-1528.75000000055
 30
0.0
 40
4.0
100
AcDbArc
 50
90.0
 51
180.0
  0
ARC
  5
19F
330
85
100
AcDbEntity
  8
0
  6
Continuous
 62
     7
100
AcDbCircle
 10
-235.5105579617868
 20
-1548.75000000055
 30
0.0
 40
8.00000000000016
100
AcDbArc
 50
11.13130033732599
 51
70.52877936551194
  0
ARC
  5
1A0
330
85
100
AcDbEntity
  8
0
  6
Continuous
 62
     7
100
AcDbCircle
 10
-42.51055796179003
 20
-1068.750000000549
 30
0.0
 40
550.0000000000016
100
AcDbArc
 50
257.3643749069793
 51
267.8118110686111
  0
ARC
  5
1A1
330
85
100
AcDbEntity
  8
0
  6
Continuous
 62
     7
100
AcDbCircle
 10
-161.5105579617865
 20
-1599.574829864415
 30
0.0
 40
5.999999999999958
100
AcDbArc
 50
201.2555524453569
 51
257.3643749069797
  0
ARC
  5
1A2
330
85
100
AcDbEntity
  8
0
  6
Continuous
 62
     7
100
AcDbCircle
 10
76.48944203821372
 20
-1599.574829864413
 30
0.0
 40
6.000000000000645
100
AcDbArc
 50
282.635625093022
 51
338.7444475546224
  0
ARC
  5
1A3
330
85
100
AcDbEntity
  8
0
  6
Continuous
 62
     7
100
AcDbCircle
 10
146.4894420382133
 20
-1597.963203436144
 30
0.0
 40
4.0
100
AcDbArc
 50
180.0
 51
270.0
  0
ARC
  5
1A4
330
85
100
AcDbEntity
  8
0
  6
Continuous
 62
     7
100
AcDbCircle
 10
-42.51055796179003
 20
-1068.750000000549
 30
0.0
 40
550.000000000001
100
AcDbArc
 50
272.1881889313896
 51
282.6356250930215
  0
SPLINE
  5
1A5
330
85
100
AcDbEntity
  8
0
  6
Continuous
 62
     7
100
AcDbSpline
210
0.0
220
0.0
230
1.0
 70
  1064
 71
     3
 72
    27
 73
    23
 74
    21
 42
0.000000001
 43
0.0000000001
 44
0.00000001
 40
0.0
 40
0.0
 40
0.0
 40
0.0
 40
0.3873266946265411
 40
0.8447797310614986
 40
1.232582334489986
 40
1.690533550857506
 40
2.077794598543256
 40
2.534882105968641
 40
2.960323704522227
 40
3.380793029376686
 40
3.769328157189758
 40
4.226610301210092
 40
4.429967987997983
 40
4.650257543874834
 40
4.861915089820003
 40
5.072318832281257
 40
5.284963517767805
 40
5.496527029968192
 40
5.719057672607635
 40
5.92110594552329
 40
6.307901768690659
 40
6.766916961451718
 40
6.766916961451718
 40
6.766916961451718
 40
6.766916961451718
 10
-64.70853084221011
 20
-1634.75000000055
 30
0.0
 10
-64.57939542850322
 20
-1634.747121758844
 30
0.0
 10
-64.29774435372191
 20
-1634.740844147991
 30
0.0
 10
-63.88929741718316
 20
-1634.689342933893
 30
0.0
 10
-63.4634297845312
 20
-1634.602265460807
 30
0.0
 10
-63.06845125282805
 20
-1634.486358223366
 30
0.0
 10
-62.66306783595964
 20
-1634.330046574642
 30
0.0
 10
-62.28177567256867
 20
-1634.144832507026
 30
0.0
 10
-61.90927539439109
 20
-1633.920420098901
 30
0.0
 10
-61.57662311473317
 20
-1633.677239216128
 30
0.0
 10
-61.25882902500433
 20
-1633.398716341223
 30
0.0
 10
-61.01867356197393
 20
-1633.143438913044
 30
0.0
 10
-60.8349772949139
 20
-1632.914231853822
 30
0.0
 10
-60.71125839728963
 20
-1632.742221359516
 30
0.0
 10
-60.59584904341904
 20
-1632.561747549111
 30
0.0
 10
-60.49173654312761
 20
-1632.377445665622
 30
0.0
 10
-60.39815333655113
 20
-1632.187602129595
 30
0.0
 10
-60.31413923439202
 20
-1631.988946677505
 30
0.0
 10
-60.2433542998314
 20
-1631.788878417172
 30
0.0
 10
-60.16909820741851
 20
-1631.528782354519
 30
0.0
 10
-60.09888291955552
 20
-1631.185289650511
 30
0.0
 10
-60.08783627504388
 20
-1630.903127337886
 30
0.0
 10
-60.08184135259251
 20
-1630.750000000548
 30
0.0
 11
-64.70853084221011
 21
-1634.75000000055
 31
0.0
 11
-64.32148453859807
 21
-1634.735264778177
 31
0.0
 11
-63.86735352044144
 21
-1634.680234797097
 31
0.0
 11
-63.48749997101942
 21
-1634.602118600129
 31
0.0
 11
-63.0480529281453
 21
-1634.473255831251
 31
0.0
 11
-62.68675794197639
 21
-1634.333839002396
 31
0.0
 11
-62.2756821765621
 21
-1634.133974786427
 31
0.0
 11
-61.91136398270041
 21
-1633.914264049932
 31
0.0
 11
-61.57206260550834
 21
-1633.665931553101
 31
0.0
 11
-61.28002043805193
 21
-1633.409668176103
 31
0.0
 11
-60.96699917547431
 21
-1633.076314536358
 31
0.0
 11
-60.8398537485894
 21
-1632.917606031981
 31
0.0
 11
-60.71127070901093
 21
-1632.738737670955
 31
0.0
 11
-60.59728326858917
 21
-1632.560395919241
 31
0.0
 11
-60.49383781471801
 21
-1632.377178089421
 31
0.0
 11
-60.399865783974
 21
-1632.186424269033
 31
0.0
 11
-60.31748504282854
 21
-1631.991558844928
 31
0.0
 11
-60.24337905919704
 21
-1631.781729889524
 31
0.0
 11
-60.18770535698741
 21
-1631.587503362305
 31
0.0
 11
-60.11326476574762
 21
-1631.207938336154
 31
0.0
 11
-60.08184135259251
 21
-1630.750000000548
 31
0.0
  0
SPLINE
  5
1A6
330
85
100
AcDbEntity
  8
0
  6
Continuous
 62
     7
100
AcDbSpline
210
0.0
220
0.0
230
1.0
 70
  1064
 71
     3
 72
    21
 73
    17
 74
    15
 42
0.000000001
 43
0.0000000001
 44
0.00000001
 40
0.0
 40
0.0
 40
0.0
 40
0.0
 40
0.459015192790833
 40
0.8458110159405469
 40
1.057686425753348
 40
1.270390268844404
 40
1.491007194220482
 40
1.694598065352884
 40
2.528073057098106
 40
3.383641187875882
 40
4.21923202150791
 40
5.072318350220385
 40
5.460051966084499
 40
5.918072556174661
 40
6.340374658485254
 40
6.762856966318412
 40
6.762856966318412
 40
6.762856966318412
 40
6.762856966318412
 10
-24.93927457098141
 20
-1630.75000000055
 30
0.0
 10
-24.93327833147121
 20
-1630.903127773499
 30
0.0
 10
-24.92222926007053
 20
-1631.185290888796
 30
0.0
 10
-24.8513692139731
 20
-1631.532000424913
 30
0.0
 10
-24.77675189828357
 20
-1631.792008221442
 30
0.0
 10
-24.70469192300229
 20
-1631.994806563212
 30
0.0
 10
-24.6216934958448
 20
-1632.190361874913
 30
0.0
 10
-24.43585113449576
 20
-1632.566286606476
 30
0.0
 10
-24.07813166919576
 20
-1633.092483713772
 30
0.0
 10
-23.47049466397083
 20
-1633.682161734896
 30
0.0
 10
-22.76036685678604
 20
-1634.153590707648
 30
0.0
 10
-22.12324735994325
 20
-1634.433199588514
 30
0.0
 10
-21.5805549412731
 20
-1634.596480524678
 30
0.0
 10
-21.16652626510714
 20
-1634.684006142606
 30
0.0
 10
-20.73512975366101
 20
-1634.739833645202
 30
0.0
 10
-20.45345333430406
 20
-1634.74661073841
 30
0.0
 10
-20.31258508136386
 20
-1634.75000000055
 30
0.0
 11
-24.93927457098141
 21
-1630.75000000055
 31
0.0
 11
-24.90785115782192
 21
-1631.207938336186
 31
0.0
 11
-24.83341056658594
 21
-1631.587503362307
 31
0.0
 11
-24.77474276964959
 21
-1631.791094323124
 31
0.0
 11
-24.70363088074487
 21
-1631.991558844929
 31
0.0
 11
-24.6174724231268
 21
-1632.194656231164
 31
0.0
 11
-24.52727810885506
 21
-1632.377178089422
 31
0.0
 11
-24.06105333644095
 21
-1633.068057982667
 31
0.0
 11
-23.44905331806478
 21
-1633.665931553102
 31
0.0
 11
-22.75378645394655
 21
-1634.129414055853
 31
0.0
 11
-21.97306299542811
 21
-1634.473255831251
 31
0.0
 11
-21.6017534573989
 21
-1634.58490968884
 31
0.0
 11
-21.15376240313219
 21
-1634.680234797097
 31
0.0
 11
-20.7347036805036
 21
-1634.732473217079
 31
0.0
 11
-20.31258508136386
 21
-1634.75000000055
 31
0.0
  0
ENDBLK
  5
87
330
85
100
AcDbEntity
  8
0
100
AcDbBlockEnd
  0
BLOCK
  5
89
330
88
100
AcDbEntity
  8
0
100
AcDbBlockBegin
  2
980057503_1__7
 70
     0
 10
182.4894420382127
 20
-1717.75000000055
 30
0.0
  3
980057503_1__7
  1

  0
LINE
  5
1A7
330
88
100
AcDbEntity
  8
0
  6
Continuous
 62
     7
100
AcDbLine
 10
632.4894420382127
 20
-1606.963203436144
 30
0.0
 11
632.4894420382127
 21
-1605.963203436144
 31
0.0
  0
LINE
  5
1A8
330
88
100
AcDbEntity
  8
0
  6
Continuous
 62
     7
100
AcDbLine
 10
632.4894420382127
 20
-1626.75000000055
 30
0.0
 11
632.4894420382127
 21
-1606.963203436144
 31
0.0
  0
LINE
  5
1A9
330
88
100
AcDbEntity
  8
0
  6
Continuous
 62
     7
100
AcDbLine
 10
632.4894420382127
 20
-1630.75000000055
 30
0.0
 11
632.4894420382127
 21
-1626.75000000055
 31
0.0
  0
LINE
  5
1AA
330
88
100
AcDbEntity
  8
0
  6
Continuous
 62
     7
100
AcDbLine
 10
632.4894420382127
 20
-1605.963203436144
 30
0.0
 11
632.4894420382127
 21
-1550.75000000055
 31
0.0
  0
LINE
  5
1AB
330
88
100
AcDbEntity
  8
0
  6
Continuous
 62
     7
100
AcDbLine
 10
632.4894420382127
 20
-1630.75000000055
 30
0.0
 11
628.4894420382127
 21
-1630.75000000055
 31
0.0
  0
LINE
  5
1AC
330
88
100
AcDbEntity
  8
0
  6
Continuous
 62
     7
100
AcDbLine
 10
628.4894420382127
 20
-1630.75000000055
 30
0.0
 11
602.4894420382127
 21
-1630.75000000055
 31
0.0
  0
LINE
  5
1AD
330
88
100
AcDbEntity
  8
0
  6
Continuous
 62
     7
100
AcDbLine
 10
600.4894420382127
 20
-1524.75000000055
 30
0.0
 11
596.4894420382127
 21
-1524.75000000055
 31
0.0
  0
LINE
  5
1AE
330
88
100
AcDbEntity
  8
0
  6
Continuous
 62
     7
100
AcDbLine
 10
600.4894420382127
 20
-1524.75000000055
 30
0.0
 11
600.4894420382127
 21
-1528.75000000055
 31
0.0
  0
LINE
  5
1AF
330
88
100
AcDbEntity
  8
0
  6
Continuous
 62
     7
100
AcDbLine
 10
600.4894420382127
 20
-1537.436291501565
 30
0.0
 11
600.4894420382127
 21
-1546.75000000055
 31
0.0
  0
LINE
  5
1B0
330
88
100
AcDbEntity
  8
0
  6
Continuous
 62
     7
100
AcDbLine
 10
604.4894420382127
 20
-1550.75000000055
 30
0.0
 11
632.4894420382127
 21
-1550.75000000055
 31
0.0
  0
LINE
  5
1B1
330
88
100
AcDbEntity
  8
0
  6
Continuous
 62
     7
100
AcDbLine
 10
214.489442038213
 20
-1537.436291501565
 30
0.0
 11
214.489442038213
 21
-1528.75000000055
 31
0.0
  0
LINE
  5
1B2
330
88
100
AcDbEntity
  8
0
  6
Continuous
 62
     7
100
AcDbLine
 10
214.4894420382132
 20
-1546.75000000055
 30
0.0
 11
214.489442038213
 21
-1537.436291501565
 31
0.0
  0
LINE
  5
1B3
330
88
100
AcDbEntity
  8
0
  6
Continuous
 62
     7
100
AcDbLine
 10
186.4894420382132
 20
-1630.75000000055
 30
0.0
 11
182.4894420382132
 21
-1630.75000000055
 31
0.0
  0
LINE
  5
1B4
330
88
100
AcDbEntity
  8
0
  6
Continuous
 62
     7
100
AcDbLine
 10
182.4894420382132
 20
-1550.75000000055
 30
0.0
 11
182.489442038213
 21
-1605.963203436144
 31
0.0
  0
LINE
  5
1B5
330
88
100
AcDbEntity
  8
0
  6
Continuous
 62
     7
100
AcDbLine
 10
182.4894420382132
 20
-1550.75000000055
 30
0.0
 11
210.4894420382132
 21
-1550.75000000055
 31
0.0
  0
LINE
  5
1B6
330
88
100
AcDbEntity
  8
0
  6
Continuous
 62
     7
100
AcDbLine
 10
600.4894420382127
 20
-1528.75000000055
 30
0.0
 11
600.4894420382127
 21
-1537.436291501565
 31
0.0
  0
LINE
  5
1B7
330
88
100
AcDbEntity
  8
0
  6
Continuous
 62
     7
100
AcDbLine
 10
214.489442038213
 20
-1528.75000000055
 30
0.0
 11
214.4894420382132
 21
-1524.75000000055
 31
0.0
  0
LINE
  5
1B8
330
88
100
AcDbEntity
  8
0
  6
Continuous
 62
     7
100
AcDbLine
 10
596.4894420382127
 20
-1524.75000000055
 30
0.0
 11
532.4894420382127
 21
-1524.750000000549
 31
0.0
  0
LINE
  5
1B9
330
88
100
AcDbEntity
  8
0
  6
Continuous
 62
     7
100
AcDbLine
 10
532.4894420382127
 20
-1524.750000000549
 30
0.0
 11
278.4894420382132
 21
-1524.75000000055
 31
0.0
  0
LINE
  5
1BA
330
88
100
AcDbEntity
  8
0
  6
Continuous
 62
     7
100
AcDbLine
 10
218.489442038213
 20
-1524.75000000055
 30
0.0
 11
214.4894420382132
 21
-1524.75000000055
 31
0.0
  0
LINE
  5
1BB
330
88
100
AcDbEntity
  8
0
  6
Continuous
 62
     7
100
AcDbLine
 10
278.4894420382132
 20
-1524.75000000055
 30
0.0
 11
218.489442038213
 21
-1524.75000000055
 31
0.0
  0
LINE
  5
1BC
330
88
100
AcDbEntity
  8
0
  6
Continuous
 62
     7
100
AcDbLine
 10
212.4894420382132
 20
-1630.75000000055
 30
0.0
 11
186.4894420382132
 21
-1630.75000000055
 31
0.0
  0
LINE
  5
1BD
330
88
100
AcDbEntity
  8
0
  6
Continuous
 62
     7
100
AcDbLine
 10
182.489442038213
 20
-1626.75000000055
 30
0.0
 11
182.4894420382132
 21
-1630.75000000055
 31
0.0
  0
LINE
  5
1BE
330
88
100
AcDbEntity
  8
0
  6
Continuous
 62
     7
100
AcDbLine
 10
182.489442038213
 20
-1605.963203436144
 30
0.0
 11
182.4894420382127
 21
-1606.963203436144
 31
0.0
  0
LINE
  5
1BF
330
88
100
AcDbEntity
  8
0
  6
Continuous
 62
     7
100
AcDbLine
 10
222.4894420382132
 20
-1717.75000000055
 30
0.0
 11
222.4894420382133
 21
-1713.75000000055
 31
0.0
  0
LINE
  5
1C0
330
88
100
AcDbEntity
  8
0
  6
Continuous
 62
     7
100
AcDbLine
 10
222.4894420382132
 20
-1717.75000000055
 30
0.0
 11
226.4894420382134
 21
-1717.75000000055
 31
0.0
  0
LINE
  5
1C1
330
88
100
AcDbEntity
  8
0
  6
Continuous
 62
     7
100
AcDbLine
 10
226.4894420382134
 20
-1717.75000000055
 30
0.0
 11
381.2394420382132
 21
-1717.75000000055
 31
0.0
  0
LINE
  5
1C2
330
88
100
AcDbEntity
  8
0
  6
Continuous
 62
     7
100
AcDbLine
 10
381.2394420382132
 20
-1717.75000000055
 30
0.0
 11
382.2394420382132
 21
-1717.75000000055
 31
0.0
  0
LINE
  5
1C3
330
88
100
AcDbEntity
  8
0
  6
Continuous
 62
     7
100
AcDbLine
 10
432.7394420382132
 20
-1717.75000000055
 30
0.0
 11
433.7394420382133
 21
-1717.75000000055
 31
0.0
  0
LINE
  5
1C4
330
88
100
AcDbEntity
  8
0
  6
Continuous
 62
     7
100
AcDbLine
 10
382.2394420382132
 20
-1717.75000000055
 30
0.0
 11
432.7394420382132
 21
-1717.75000000055
 31
0.0
  0
LINE
  5
1C5
330
88
100
AcDbEntity
  8
0
  6
Continuous
 62
     7
100
AcDbLine
 10
588.4894420382127
 20
-1717.75000000055
 30
0.0
 11
592.4894420382127
 21
-1717.75000000055
 31
0.0
  0
LINE
  5
1C6
330
88
100
AcDbEntity
  8
0
  6
Continuous
 62
     7
100
AcDbLine
 10
433.7394420382133
 20
-1717.75000000055
 30
0.0
 11
588.4894420382127
 21
-1717.75000000055
 31
0.0
  0
LINE
  5
1C7
330
88
100
AcDbEntity
  8
0
  6
Continuous
 62
     7
100
AcDbLine
 10
182.489442038213
 20
-1626.75000000055
 30
0.0
 11
182.4894420382127
 21
-1606.963203436144
 31
0.0
  0
LINE
  5
1C8
330
88
100
AcDbEntity
  8
0
  6
Continuous
 62
     7
100
AcDbLine
 10
222.4894420382133
 20
-1713.75000000055
 30
0.0
 11
222.4894420382132
 21
-1640.75000000055
 31
0.0
  0
LINE
  5
1C9
330
88
100
AcDbEntity
  8
0
  6
Continuous
 62
     7
100
AcDbLine
 10
592.4894420382127
 20
-1713.75000000055
 30
0.0
 11
592.4894420382127
 21
-1717.75000000055
 31
0.0
  0
LINE
  5
1CA
330
88
100
AcDbEntity
  8
0
  6
Continuous
 62
     7
100
AcDbLine
 10
592.4894420382127
 20
-1640.75000000055
 30
0.0
 11
592.4894420382127
 21
-1713.75000000055
 31
0.0
  0
ARC
  5
1CB
330
88
100
AcDbEntity
  8
0
  6
Continuous
 62
     7
100
AcDbCircle
 10
604.4894420382127
 20
-1546.75000000055
 30
0.0
 40
4.0
100
AcDbArc
 50
180.0
 51
270.0
  0
ARC
  5
1CC
330
88
100
AcDbEntity
  8
0
  6
Continuous
 62
     7
100
AcDbCircle
 10
602.4894420382127
 20
-1640.75000000055
 30
0.0
 40
10.0
100
AcDbArc
 50
90.0
 51
180.0
  0
ARC
  5
1CD
330
88
100
AcDbEntity
  8
0
  6
Continuous
 62
     7
100
AcDbCircle
 10
210.4894420382132
 20
-1546.75000000055
 30
0.0
 40
4.0
100
AcDbArc
 50
270.0
 51
0.0
  0
ARC
  5
1CE
330
88
100
AcDbEntity
  8
0
  6
Continuous
 62
     7
100
AcDbCircle
 10
212.4894420382132
 20
-1640.75000000055
 30
0.0
 40
10.0
100
AcDbArc
 50
0.0
 51
90.0
  0
ENDBLK
  5
8A
330
88
100
AcDbEntity
  8
0
100
AcDbBlockEnd
  0
BLOCK
  5
8C
330
8B
100
AcDbEntity
  8
0
100
AcDbBlockBegin
  2
368027497_1__8
 70
     0
 10
182.4894420382127
 20
-1717.75000000055
 30
0.0
  3
368027497_1__8
  1

  0
LINE
  5
1CF
330
8B
100
AcDbEntity
  8
0
  6
Continuous
 62
     7
100
AcDbLine
 10
532.4894420382127
 20
-1528.75000000055
 30
0.0
 11
532.4894420382138
 21
-1559.75000000055
 31
0.0
  0
LINE
  5
1D0
330
8B
100
AcDbEntity
  8
0
  6
Continuous
 62
     7
100
AcDbLine
 10
592.4894420382138
 20
-1559.75000000055
 30
0.0
 11
532.4894420382138
 21
-1559.75000000055
 31
0.0
  0
LINE
  5
1D1
330
8B
100
AcDbEntity
  8
0
  6
Continuous
 62
     7
100
AcDbLine
 10
532.4894420382138
 20
-1559.75000000055
 30
0.0
 11
532.4894420382138
 21
-1599.574829864413
 31
0.0
  0
LINE
  5
1D2
330
8B
100
AcDbEntity
  8
0
  6
Continuous
 62
     7
100
AcDbLine
 10
592.4894420382138
 20
-1606.963203436144
 30
0.0
 11
592.4894420382138
 21
-1601.75000000055
 31
0.0
  0
LINE
  5
1D3
330
8B
100
AcDbEntity
  8
0
  6
Continuous
 62
     7
100
AcDbLine
 10
592.4894420382138
 20
-1624.75000000055
 30
0.0
 11
592.4894420382138
 21
-1606.963203436144
 31
0.0
  0
LINE
  5
1D4
330
8B
100
AcDbEntity
  8
0
  6
Continuous
 62
     7
100
AcDbLine
 10
632.4894420382127
 20
-1606.963203436144
 30
0.0
 11
592.4894420382138
 21
-1606.963203436144
 31
0.0
  0
LINE
  5
1D5
330
8B
100
AcDbEntity
  8
0
  6
Continuous
 62
     7
100
AcDbLine
 10
596.4894420382138
 20
-1601.963203436144
 30
0.0
 11
628.4894420382127
 21
-1601.963203436144
 31
0.0
  0
LINE
  5
1D6
330
8B
100
AcDbEntity
  8
0
  6
Continuous
 62
     7
100
AcDbLine
 10
592.4894420382138
 20
-1601.75000000055
 30
0.0
 11
592.4894420382138
 21
-1597.963203436144
 31
0.0
  0
LINE
  5
1D7
330
8B
100
AcDbEntity
  8
0
  6
Continuous
 62
     7
100
AcDbLine
 10
592.4894420382138
 20
-1597.963203436144
 30
0.0
 11
592.4894420382138
 21
-1559.75000000055
 31
0.0
  0
LINE
  5
1D8
330
8B
100
AcDbEntity
  8
0
  6
Continuous
 62
     7
100
AcDbLine
 10
632.4894420382127
 20
-1606.963203436144
 30
0.0
 11
632.4894420382127
 21
-1605.963203436144
 31
0.0
  0
LINE
  5
1D9
330
8B
100
AcDbEntity
  8
0
  6
Continuous
 62
     7
100
AcDbLine
 10
632.4894420382127
 20
-1626.75000000055
 30
0.0
 11
632.4894420382127
 21
-1606.963203436144
 31
0.0
  0
LINE
  5
1DA
330
8B
100
AcDbEntity
  8
0
  6
Continuous
 62
     7
100
AcDbLine
 10
628.4894420382127
 20
-1630.75000000055
 30
0.0
 11
602.4894420382127
 21
-1630.75000000055
 31
0.0
  0
LINE
  5
1DB
330
8B
100
AcDbEntity
  8
0
  6
Continuous
 62
     7
100
AcDbLine
 10
592.4894420382138
 20
-1559.75000000055
 30
0.0
 11
592.4894420382138
 21
-1548.75000000055
 31
0.0
  0
LINE
  5
1DC
330
8B
100
AcDbEntity
  8
0
  6
Continuous
 62
     7
100
AcDbLine
 10
532.0812784877949
 20
-1601.75000000055
 30
0.0
 11
592.4894420382138
 21
-1601.75000000055
 31
0.0
  0
LINE
  5
1DD
330
8B
100
AcDbEntity
  8
0
  6
Continuous
 62
     7
100
AcDbLine
 10
282.4894420382132
 20
-1528.75000000055
 30
0.0
 11
214.489442038213
 21
-1528.75000000055
 31
0.0
  0
LINE
  5
1DE
330
8B
100
AcDbEntity
  8
0
  6
Continuous
 62
     7
100
AcDbLine
 10
282.4894420382137
 20
-1559.75000000055
 30
0.0
 11
282.4894420382132
 21
-1528.75000000055
 31
0.0
  0
LINE
  5
1DF
330
8B
100
AcDbEntity
  8
0
  6
Continuous
 62
     7
100
AcDbLine
 10
222.3389407901027
 20
-1547.205535904468
 30
0.0
 11
234.0073798348748
 21
-1550.006880270738
 31
0.0
  0
LINE
  5
1E0
330
8B
100
AcDbEntity
  8
0
  6
Continuous
 62
     7
100
AcDbLine
 10
234.0073798348748
 20
-1550.006880270738
 30
0.0
 11
235.1746066541543
 21
-1545.14503066875
 31
0.0
  0
LINE
  5
1E1
330
8B
100
AcDbEntity
  8
0
  6
Continuous
 62
     7
100
AcDbLine
 10
282.4894420382136
 20
-1599.574829864415
 30
0.0
 11
282.4894420382137
 21
-1559.75000000055
 31
0.0
  0
LINE
  5
1E2
330
8B
100
AcDbEntity
  8
0
  6
Continuous
 62
     7
100
AcDbLine
 10
222.4894420382133
 20
-1548.75000000055
 30
0.0
 11
222.4894420382134
 21
-1559.75000000055
 31
0.0
  0
LINE
  5
1E3
330
8B
100
AcDbEntity
  8
0
  6
Continuous
 62
     7
100
AcDbLine
 10
222.4894420382134
 20
-1559.75000000055
 30
0.0
 11
222.4894420382133
 21
-1597.963203436145
 31
0.0
  0
LINE
  5
1E4
330
8B
100
AcDbEntity
  8
0
  6
Continuous
 62
     7
100
AcDbLine
 10
222.4894420382133
 20
-1597.963203436145
 30
0.0
 11
222.4894420382134
 21
-1601.75000000055
 31
0.0
  0
LINE
  5
1E5
330
8B
100
AcDbEntity
  8
0
  6
Continuous
 62
     7
100
AcDbLine
 10
214.489442038213
 20
-1537.436291501565
 30
0.0
 11
214.489442038213
 21
-1528.75000000055
 31
0.0
  0
LINE
  5
1E6
330
8B
100
AcDbEntity
  8
0
  6
Continuous
 62
     7
100
AcDbLine
 10
235.1746066541543
 20
-1545.14503066875
 30
0.0
 11
215.9548463819216
 21
-1540.530774472775
 31
0.0
  0
LINE
  5
1E7
330
8B
100
AcDbEntity
  8
0
  6
Continuous
 62
     7
100
AcDbLine
 10
580.9715042415519
 20
-1550.006880270738
 30
0.0
 11
579.8042774222718
 21
-1545.14503066875
 31
0.0
  0
LINE
  5
1E8
330
8B
100
AcDbEntity
  8
0
  6
Continuous
 62
     7
100
AcDbLine
 10
592.6399432863238
 20
-1547.205535904468
 30
0.0
 11
580.9715042415519
 21
-1550.006880270738
 31
0.0
  0
LINE
  5
1E9
330
8B
100
AcDbEntity
  8
0
  6
Continuous
 62
     7
100
AcDbLine
 10
600.4894420382127
 20
-1528.75000000055
 30
0.0
 11
600.4894420382127
 21
-1537.436291501565
 31
0.0
  0
LINE
  5
1EA
330
8B
100
AcDbEntity
  8
0
  6
Continuous
 62
     7
100
AcDbLine
 10
532.4894420382127
 20
-1524.750000000549
 30
0.0
 11
532.4894420382127
 21
-1528.75000000055
 31
0.0
  0
LINE
  5
1EB
330
8B
100
AcDbEntity
  8
0
  6
Continuous
 62
     7
100
AcDbLine
 10
596.4894420382127
 20
-1524.75000000055
 30
0.0
 11
532.4894420382127
 21
-1524.750000000549
 31
0.0
  0
LINE
  5
1EC
330
8B
100
AcDbEntity
  8
0
  6
Continuous
 62
     7
100
AcDbLine
 10
278.4894420382132
 20
-1524.75000000055
 30
0.0
 11
218.489442038213
 21
-1524.75000000055
 31
0.0
  0
LINE
  5
1ED
330
8B
100
AcDbEntity
  8
0
  6
Continuous
 62
     7
100
AcDbLine
 10
579.8042774222718
 20
-1545.14503066875
 30
0.0
 11
599.0240376945048
 21
-1540.530774472775
 31
0.0
  0
LINE
  5
1EE
330
8B
100
AcDbEntity
  8
0
  6
Continuous
 62
     7
100
AcDbLine
 10
282.4894420382137
 20
-1559.75000000055
 30
0.0
 11
222.4894420382134
 21
-1559.75000000055
 31
0.0
  0
LINE
  5
1EF
330
8B
100
AcDbEntity
  8
0
  6
Continuous
 62
     7
100
AcDbLine
 10
600.4894420382127
 20
-1528.75000000055
 30
0.0
 11
532.4894420382127
 21
-1528.75000000055
 31
0.0
  0
LINE
  5
1F0
330
8B
100
AcDbEntity
  8
0
  6
Continuous
 62
     7
100
AcDbLine
 10
212.4894420382132
 20
-1630.75000000055
 30
0.0
 11
186.4894420382132
 21
-1630.75000000055
 31
0.0
  0
LINE
  5
1F1
330
8B
100
AcDbEntity
  8
0
  6
Continuous
 62
     3
100
AcDbLine
 10
425.0607254290187
 20
-1630.75000000055
 30
0.0
 11
428.4894420382132
 21
-1630.75000000055
 31
0.0
  0
LINE
  5
1F2
330
8B
100
AcDbEntity
  8
0
  6
Continuous
 62
     7
100
AcDbLine
 10
432.4894420382132
 20
-1634.75000000055
 30
0.0
 11
582.4894420382138
 21
-1634.75000000055
 31
0.0
  0
LINE
  5
1F3
330
8B
100
AcDbEntity
  8
0
  6
Continuous
 62
     7
100
AcDbLine
 10
182.489442038213
 20
-1605.963203436144
 30
0.0
 11
182.4894420382127
 21
-1606.963203436144
 31
0.0
  0
LINE
  5
1F4
330
8B
100
AcDbEntity
  8
0
  6
Continuous
 62
     7
100
AcDbLine
 10
222.4894420382134
 20
-1601.75000000055
 30
0.0
 11
222.4894420382133
 21
-1606.963203436145
 31
0.0
  0
LINE
  5
1F5
330
8B
100
AcDbEntity
  8
0
  6
Continuous
 62
     7
100
AcDbLine
 10
222.4894420382134
 20
-1601.75000000055
 30
0.0
 11
282.8976055886323
 21
-1601.75000000055
 31
0.0
  0
LINE
  5
1F6
330
8B
100
AcDbEntity
  8
0
  6
Continuous
 62
     7
100
AcDbLine
 10
222.4894420382133
 20
-1606.963203436145
 30
0.0
 11
182.4894420382127
 21
-1606.963203436144
 31
0.0
  0
LINE
  5
1F7
330
8B
100
AcDbEntity
  8
0
  6
Continuous
 62
     7
100
AcDbLine
 10
186.4894420382132
 20
-1601.963203436145
 30
0.0
 11
218.4894420382133
 21
-1601.963203436145
 31
0.0
  0
LINE
  5
1F8
330
8B
100
AcDbEntity
  8
0
  6
Continuous
 62
     7
100
AcDbLine
 10
226.4894420382134
 20
-1717.75000000055
 30
0.0
 11
381.2394420382132
 21
-1717.75000000055
 31
0.0
  0
LINE
  5
1F9
330
8B
100
AcDbEntity
  8
0
  6
Continuous
 62
     7
100
AcDbLine
 10
381.2394420382132
 20
-1717.75000000055
 30
0.0
 11
382.2394420382132
 21
-1717.75000000055
 31
0.0
  0
LINE
  5
1FA
330
8B
100
AcDbEntity
  8
0
  6
Continuous
 62
     7
100
AcDbLine
 10
432.7394420382132
 20
-1717.75000000055
 30
0.0
 11
433.7394420382133
 21
-1717.75000000055
 31
0.0
  0
LINE
  5
1FB
330
8B
100
AcDbEntity
  8
0
  6
Continuous
 62
     7
100
AcDbLine
 10
433.7394420382133
 20
-1717.75000000055
 30
0.0
 11
588.4894420382127
 21
-1717.75000000055
 31
0.0
  0
LINE
  5
1FC
330
8B
100
AcDbEntity
  8
0
  6
Continuous
 62
     7
100
AcDbLine
 10
182.489442038213
 20
-1626.75000000055
 30
0.0
 11
182.4894420382127
 21
-1606.963203436144
 31
0.0
  0
LINE
  5
1FD
330
8B
100
AcDbEntity
  8
0
  6
Continuous
 62
     7
100
AcDbLine
 10
222.4894420382133
 20
-1606.963203436145
 30
0.0
 11
222.4894420382134
 21
-1624.75000000055
 31
0.0
  0
LINE
  5
1FE
330
8B
100
AcDbEntity
  8
0
  6
Continuous
 62
     7
100
AcDbLine
 10
244.3724511928774
 20
-1621.746864127726
 30
0.0
 11
241.3286440478338
 21
-1617.78009742627
 31
0.0
  0
LINE
  5
1FF
330
8B
100
AcDbEntity
  8
0
  6
Continuous
 62
     7
100
AcDbLine
 10
241.3286440478338
 20
-1617.78009742627
 30
0.0
 11
224.4663046215089
 21
-1630.71902554855
 31
0.0
  0
LINE
  5
200
330
8B
100
AcDbEntity
  8
0
  6
Continuous
 62
     7
100
AcDbLine
 10
228.5053843870526
 20
-1633.9220927079
 30
0.0
 11
244.3724511928774
 21
-1621.746864127726
 31
0.0
  0
LINE
  5
201
330
8B
100
AcDbEntity
  8
0
  6
Continuous
 62
     7
100
AcDbLine
 10
425.0607254290187
 20
-1677.75000000055
 30
0.0
 11
433.7394420382133
 21
-1677.75000000055
 31
0.0
  0
LINE
  5
202
330
8B
100
AcDbEntity
  8
0
  6
Continuous
 62
     7
100
AcDbLine
 10
425.0607254290187
 20
-1677.75000000055
 30
0.0
 11
424.7394420382132
 21
-1677.75000000055
 31
0.0
  0
LINE
  5
203
330
8B
100
AcDbEntity
  8
0
  6
Continuous
 62
     7
100
AcDbLine
 10
390.2394420382132
 20
-1677.75000000055
 30
0.0
 11
389.9181586474076
 21
-1677.75000000055
 31
0.0
  0
LINE
  5
204
330
8B
100
AcDbEntity
  8
0
  6
Continuous
 62
     7
100
AcDbLine
 10
424.7394420382132
 20
-1677.75000000055
 30
0.0
 11
390.2394420382132
 21
-1677.75000000055
 31
0.0
  0
LINE
  5
205
330
8B
100
AcDbEntity
  8
0
  6
Continuous
 62
     7
100
AcDbLine
 10
232.4894420382133
 20
-1634.75000000055
 30
0.0
 11
382.4894420382132
 21
-1634.75000000055
 31
0.0
  0
LINE
  5
206
330
8B
100
AcDbEntity
  8
0
  6
Continuous
 62
     7
100
AcDbLine
 10
222.4894420382133
 20
-1713.75000000055
 30
0.0
 11
222.4894420382132
 21
-1640.75000000055
 31
0.0
  0
LINE
  5
207
330
8B
100
AcDbEntity
  8
0
  6
Continuous
 62
     7
100
AcDbLine
 10
381.2394420382132
 20
-1677.75000000055
 30
0.0
 11
389.9181586474076
 21
-1677.75000000055
 31
0.0
  0
LINE
  5
208
330
8B
100
AcDbEntity
  8
0
  6
Continuous
 62
     7
100
AcDbLine
 10
389.9181586474076
 20
-1677.75000000055
 30
0.0
 11
389.9181586474076
 21
-1630.750000000548
 31
0.0
  0
LINE
  5
209
330
8B
100
AcDbEntity
  8
0
  6
Continuous
 62
     7
100
AcDbLine
 10
570.6064328835487
 20
-1621.746864127726
 30
0.0
 11
573.6502400285929
 21
-1617.78009742627
 31
0.0
  0
LINE
  5
20A
330
8B
100
AcDbEntity
  8
0
  6
Continuous
 62
     7
100
AcDbLine
 10
592.4894420382127
 20
-1640.75000000055
 30
0.0
 11
592.4894420382127
 21
-1713.75000000055
 31
0.0
  0
LINE
  5
20B
330
8B
100
AcDbEntity
  8
0
  6
Continuous
 62
     7
100
AcDbLine
 10
586.4734996893737
 20
-1633.9220927079
 30
0.0
 11
570.6064328835487
 21
-1621.746864127726
 31
0.0
  0
LINE
  5
20C
330
8B
100
AcDbEntity
  8
0
  6
Continuous
 62
     7
100
AcDbLine
 10
573.6502400285929
 20
-1617.78009742627
 30
0.0
 11
590.5125794549178
 21
-1630.71902554855
 31
0.0
  0
LINE
  5
20D
330
8B
100
AcDbEntity
  8
0
  6
Continuous
 62
     7
100
AcDbLine
 10
385.2914691577901
 20
-1634.75000000055
 30
0.0
 11
382.4894420382132
 21
-1634.75000000055
 31
0.0
  0
LINE
  5
20E
330
8B
100
AcDbEntity
  8
0
  6
Continuous
 62
     7
100
AcDbLine
 10
386.2394420382132
 20
-1681.75000000055
 30
0.0
 11
386.2394420382132
 21
-1713.75000000055
 31
0.0
  0
LINE
  5
20F
330
8B
100
AcDbEntity
  8
0
  6
Continuous
 62
     7
100
AcDbLine
 10
381.2394420382132
 20
-1717.75000000055
 30
0.0
 11
381.2394420382132
 21
-1677.75000000055
 31
0.0
  0
LINE
  5
210
330
8B
100
AcDbEntity
  8
0
  6
Continuous
 62
     3
100
AcDbLine
 10
386.4894420382132
 20
-1630.75000000055
 30
0.0
 11
389.9181586474076
 21
-1630.750000000548
 31
0.0
  0
LINE
  5
211
330
8B
100
AcDbEntity
  8
0
  6
Continuous
 62
     7
100
AcDbLine
 10
386.4894420382132
 20
-1630.75000000055
 30
0.0
 11
386.4894420382132
 21
-1618.348944686582
 31
0.0
  0
LINE
  5
212
330
8B
100
AcDbEntity
  8
0
  6
Continuous
 62
     7
100
AcDbLine
 10
428.4894420382132
 20
-1618.348944686582
 30
0.0
 11
428.4894420382132
 21
-1630.75000000055
 31
0.0
  0
LINE
  5
213
330
8B
100
AcDbEntity
  8
0
  6
Continuous
 62
     7
100
AcDbLine
 10
432.4894420382132
 20
-1634.75000000055
 30
0.0
 11
429.6874149186363
 21
-1634.75000000055
 31
0.0
  0
LINE
  5
214
330
8B
100
AcDbEntity
  8
0
  6
Continuous
 62
     7
100
AcDbLine
 10
428.7394420382132
 20
-1713.75000000055
 30
0.0
 11
428.7394420382132
 21
-1681.75000000055
 31
0.0
  0
LINE
  5
215
330
8B
100
AcDbEntity
  8
0
  6
Continuous
 62
     7
100
AcDbLine
 10
425.0607254290187
 20
-1677.75000000055
 30
0.0
 11
425.0607254290187
 21
-1630.75000000055
 31
0.0
  0
LINE
  5
216
330
8B
100
AcDbEntity
  8
0
  6
Continuous
 62
     7
100
AcDbLine
 10
433.7394420382133
 20
-1677.75000000055
 30
0.0
 11
433.7394420382133
 21
-1717.75000000055
 31
0.0
  0
ARC
  5
217
330
8B
100
AcDbEntity
  8
0
  6
Continuous
 62
     7
100
AcDbCircle
 10
628.4894420382127
 20
-1626.75000000055
 30
0.0
 40
4.0
100
AcDbArc
 50
270.0
 51
0.0
  0
ARC
  5
218
330
8B
100
AcDbEntity
  8
0
  6
Continuous
 62
     7
100
AcDbCircle
 10
596.4894420382127
 20
-1528.75000000055
 30
0.0
 40
4.0
100
AcDbArc
 50
0.0
 51
90.0
  0
ARC
  5
219
330
8B
100
AcDbEntity
  8
0
  6
Continuous
 62
     7
100
AcDbCircle
 10
628.4894420382127
 20
-1605.963203436144
 30
0.0
 40
4.0
100
AcDbArc
 50
0.0
 51
90.0
  0
ARC
  5
21A
330
8B
100
AcDbEntity
  8
0
  6
Continuous
 62
     7
100
AcDbCircle
 10
596.4894420382138
 20
-1597.963203436144
 30
0.0
 40
4.0
100
AcDbArc
 50
180.0
 51
270.0
  0
ARC
  5
21B
330
8B
100
AcDbEntity
  8
0
  6
Continuous
 62
     7
100
AcDbCircle
 10
602.4894420382127
 20
-1640.75000000055
 30
0.0
 40
10.0
100
AcDbArc
 50
90.0
 51
180.0
  0
ARC
  5
21C
330
8B
100
AcDbEntity
  8
0
  6
Continuous
 62
     7
100
AcDbCircle
 10
582.4894420382138
 20
-1624.75000000055
 30
0.0
 40
9.99999999999962
100
AcDbArc
 50
323.3516199153594
 51
0.0
  0
ARC
  5
21D
330
8B
100
AcDbEntity
  8
0
  6
Continuous
 62
     7
100
AcDbCircle
 10
214.4894420382133
 20
-1548.75000000055
 30
0.0
 40
8.0
100
AcDbArc
 50
0.0
 51
11.13130033731959
  0
ARC
  5
21E
330
8B
100
AcDbEntity
  8
0
  6
Continuous
 62
     7
100
AcDbCircle
 10
218.489442038213
 20
-1537.436291501565
 30
0.0
 40
4.0
100
AcDbArc
 50
180.0
 51
230.6801511716706
  0
ARC
  5
21F
330
8B
100
AcDbEntity
  8
0
  6
Continuous
 62
     7
100
AcDbCircle
 10
218.489442038213
 20
-1537.436291501565
 30
0.0
 40
4.00000000000001
100
AcDbArc
 50
230.6801511716706
 51
250.5287793655098
  0
ARC
  5
220
330
8B
100
AcDbEntity
  8
0
  6
Continuous
 62
     7
100
AcDbCircle
 10
218.489442038213
 20
-1528.75000000055
 30
0.0
 40
4.0
100
AcDbArc
 50
90.0
 51
180.0
  0
ARC
  5
221
330
8B
100
AcDbEntity
  8
0
  6
Continuous
 62
     7
100
AcDbCircle
 10
214.4894420382133
 20
-1548.75000000055
 30
0.0
 40
7.999999999999984
100
AcDbArc
 50
11.13130033731959
 51
70.52877936551174
  0
ARC
  5
222
330
8B
100
AcDbEntity
  8
0
  6
Continuous
 62
     7
100
AcDbCircle
 10
600.4894420382132
 20
-1548.750000000547
 30
0.0
 40
7.999999999999329
100
AcDbArc
 50
168.8686996627011
 51
180.0000000000212
  0
ARC
  5
223
330
8B
100
AcDbEntity
  8
0
  6
Continuous
 62
     7
100
AcDbCircle
 10
600.4894420382127
 20
-1548.75000000055
 30
0.0
 40
8.000000000000279
100
AcDbArc
 50
109.4712206344836
 51
168.8686996626797
  0
ARC
  5
224
330
8B
100
AcDbEntity
  8
0
  6
Continuous
 62
     7
100
AcDbCircle
 10
596.4894420382127
 20
-1537.436291501565
 30
0.0
 40
4.000000000000478
100
AcDbArc
 50
309.3198488283376
 51
0.0
  0
ARC
  5
225
330
8B
100
AcDbEntity
  8
0
  6
Continuous
 62
     7
100
AcDbCircle
 10
596.4894420382127
 20
-1537.436291501565
 30
0.0
 40
4.00000000000002
100
AcDbArc
 50
289.4712206345033
 51
309.3198488283376
  0
ARC
  5
226
330
8B
100
AcDbEntity
  8
0
  6
Continuous
 62
     7
100
AcDbCircle
 10
278.4894420382132
 20
-1528.75000000055
 30
0.0
 40
4.0
100
AcDbArc
 50
0.0
 51
90.0
  0
ARC
  5
227
330
8B
100
AcDbEntity
  8
0
  6
Continuous
 62
     7
100
AcDbCircle
 10
186.4894420382132
 20
-1626.750000000551
 30
0.0
 40
4.000000000000199
100
AcDbArc
 50
179.999999999987
 51
270.0
  0
ARC
  5
228
330
8B
100
AcDbEntity
  8
0
  6
Continuous
 62
     7
100
AcDbCircle
 10
232.4894420382133
 20
-1624.75000000055
 30
0.0
 40
9.999999999999938
100
AcDbArc
 50
216.6483800846393
 51
246.5214470782915
  0
ARC
  5
229
330
8B
100
AcDbEntity
  8
0
  6
Continuous
 62
     7
100
AcDbCircle
 10
212.4894420382132
 20
-1640.75000000055
 30
0.0
 40
10.0
100
AcDbArc
 50
0.0
 51
90.0
  0
ARC
  5
22A
330
8B
100
AcDbEntity
  8
0
  6
Continuous
 62
     7
100
AcDbCircle
 10
288.4894420382136
 20
-1599.574829864415
 30
0.0
 40
6.0
100
AcDbArc
 50
180.0
 51
201.2555524453569
  0
ARC
  5
22B
330
8B
100
AcDbEntity
  8
0
  6
Continuous
 62
     7
100
AcDbCircle
 10
526.4894420382138
 20
-1599.574829864413
 30
0.0
 40
6.000000000000434
100
AcDbArc
 50
338.7444475546239
 51
0.0
  0
ARC
  5
22C
330
8B
100
AcDbEntity
  8
0
  6
Continuous
 62
     7
100
AcDbCircle
 10
526.4894420382138
 20
-1599.574829864413
 30
0.0
 40
6.000000000000595
100
AcDbArc
 50
282.6356250930198
 51
338.7444475546239
  0
ARC
  5
22D
330
8B
100
AcDbEntity
  8
0
  6
Continuous
 62
     7
100
AcDbCircle
 10
186.4894420382132
 20
-1605.963203436145
 30
0.0
 40
4.0
100
AcDbArc
 50
90.0
 51
179.999999999987
  0
ARC
  5
22E
330
8B
100
AcDbEntity
  8
0
  6
Continuous
 62
     7
100
AcDbCircle
 10
288.4894420382136
 20
-1599.574829864415
 30
0.0
 40
5.999999999999958
100
AcDbArc
 50
201.2555524453569
 51
257.3643749069807
  0
ARC
  5
22F
330
8B
100
AcDbEntity
  8
0
  6
Continuous
 62
     7
100
AcDbCircle
 10
218.4894420382133
 20
-1597.963203436145
 30
0.0
 40
4.0
100
AcDbArc
 50
270.0
 51
0.0
  0
ARC
  5
230
330
8B
100
AcDbEntity
  8
0
  6
Continuous
 62
     7
100
AcDbCircle
 10
226.4894420382134
 20
-1713.75000000055
 30
0.0
 40
4.000000000000114
100
AcDbArc
 50
180.0
 51
270.0
  0
ARC
  5
231
330
8B
100
AcDbEntity
  8
0
  6
Continuous
 62
     7
100
AcDbCircle
 10
432.7394420382132
 20
-1713.75000000055
 30
0.0
 40
4.0
100
AcDbArc
 50
180.0
 51
270.0
  0
ARC
  5
232
330
8B
100
AcDbEntity
  8
0
  6
Continuous
 62
     7
100
AcDbCircle
 10
588.4894420382127
 20
-1713.75000000055
 30
0.0
 40
4.0
100
AcDbArc
 50
270.0
 51
0.0
  0
ARC
  5
233
330
8B
100
AcDbEntity
  8
0
  6
Continuous
 62
     7
100
AcDbCircle
 10
232.4894420382133
 20
-1624.75000000055
 30
0.0
 40
9.999999999999886
100
AcDbArc
 50
180.0
 51
216.6483800846393
  0
ARC
  5
234
330
8B
100
AcDbEntity
  8
0
  6
Continuous
 62
     7
100
AcDbCircle
 10
407.4894420382129
 20
-1068.750000000549
 30
0.0
 40
550.0000000000009
100
AcDbArc
 50
267.8118110686108
 51
269.9999999999997
  0
ARC
  5
235
330
8B
100
AcDbEntity
  8
0
  6
Continuous
 62
     7
100
AcDbCircle
 10
407.4894420382074
 20
-1068.750000000549
 30
0.0
 40
550.0000000000009
100
AcDbArc
 50
270.0000000000003
 51
272.1881889313899
  0
ARC
  5
236
330
8B
100
AcDbEntity
  8
0
  6
Continuous
 62
     7
100
AcDbCircle
 10
424.7394420382132
 20
-1681.75000000055
 30
0.0
 40
4.0
100
AcDbArc
 50
0.0
 51
90.0
  0
ARC
  5
237
330
8B
100
AcDbEntity
  8
0
  6
Continuous
 62
     7
100
AcDbCircle
 10
390.2394420382132
 20
-1681.75000000055
 30
0.0
 40
4.0
100
AcDbArc
 50
90.0
 51
180.0
  0
ARC
  5
238
330
8B
100
AcDbEntity
  8
0
  6
Continuous
 62
     7
100
AcDbCircle
 10
232.4894420382133
 20
-1624.75000000055
 30
0.0
 40
9.999999999999734
100
AcDbArc
 50
246.5214470782915
 51
270.0
  0
ARC
  5
239
330
8B
100
AcDbEntity
  8
0
  6
Continuous
 62
     7
100
AcDbCircle
 10
582.4894420382138
 20
-1624.75000000055
 30
0.0
 40
9.999999999999417
100
AcDbArc
 50
293.4785529217042
 51
323.3516199153594
  0
ARC
  5
23A
330
8B
100
AcDbEntity
  8
0
  6
Continuous
 62
     7
100
AcDbCircle
 10
582.4894420382138
 20
-1624.75000000055
 30
0.0
 40
10.0
100
AcDbArc
 50
270.0
 51
293.4785529217042
  0
ARC
  5
23B
330
8B
100
AcDbEntity
  8
0
  6
Continuous
 62
     7
100
AcDbCircle
 10
382.2394420382132
 20
-1713.75000000055
 30
0.0
 40
4.0
100
AcDbArc
 50
270.0
 51
0.0
  0
ARC
  5
23C
330
8B
100
AcDbEntity
  8
0
  6
Continuous
 62
     7
100
AcDbCircle
 10
382.4894420382132
 20
-1630.75000000055
 30
0.0
 40
4.0
100
AcDbArc
 50
270.0
 51
0.0
  0
ARC
  5
23D
330
8B
100
AcDbEntity
  8
0
  6
Continuous
 62
     7
100
AcDbCircle
 10
432.4894420382132
 20
-1630.75000000055
 30
0.0
 40
4.0
100
AcDbArc
 50
180.0
 51
270.0
  0
ARC
  5
23E
330
8B
100
AcDbEntity
  8
0
  6
Continuous
 62
     7
100
AcDbCircle
 10
407.4894420382101
 20
-1068.750000000549
 30
0.0
 40
550.0000000000016
100
AcDbArc
 50
257.3643749069793
 51
267.8118110686111
  0
ARC
  5
23F
330
8B
100
AcDbEntity
  8
0
  6
Continuous
 62
     7
100
AcDbCircle
 10
407.4894420382101
 20
-1068.750000000549
 30
0.0
 40
550.000000000001
100
AcDbArc
 50
272.1881889313896
 51
282.6356250930215
  0
SPLINE
  5
240
330
8B
100
AcDbEntity
  8
0
  6
Continuous
 62
     7
100
AcDbSpline
210
0.0
220
0.0
230
1.0
 70
  1064
 71
     3
 72
    19
 73
    15
 74
    13
 42
0.000000001
 43
0.0000000001
 44
0.00000001
 40
0.0
 40
0.0
 40
0.0
 40
0.0
 40
0.3873266947208204
 40
0.8447797312122727
 40
1.268665291738664
 40
1.690538696825031
 40
2.543625025575045
 40
3.379215859250471
 40
4.234783990090169
 40
5.068258981925639
 40
5.45789965542287
 40
5.916663137805228
 40
6.340268408584688
 40
6.76248788678873
 40
6.76248788678873
 40
6.76248788678873
 40
6.76248788678873
 10
385.2914691577901
 20
-1634.75000000055
 30
0.0
 10
385.4206056834785
 20
-1634.747120217703
 30
0.0
 10
385.7022591835324
 20
-1634.740839245566
 30
0.0
 10
386.1226429201414
 20
-1634.687858351922
 30
0.0
 10
386.54833043595
 20
-1634.599285800707
 30
0.0
 10
387.0916802458733
 20
-1634.43779176678
 30
0.0
 10
387.7392470254013
 20
-1634.153589338885
 30
0.0
 10
388.4493654451882
 20
-1633.682172734345
 30
0.0
 10
389.0570739861145
 20
-1633.092440318249
 30
0.0
 10
389.4497345590628
 20
-1632.514682596919
 30
0.0
 10
389.6862648415218
 20
-1632.005331937984
 30
0.0
 10
389.8178048566791
 20
-1631.601181964007
 30
0.0
 10
389.9026901788729
 20
-1631.172963726135
 30
0.0
 10
389.9130081308944
 20
-1630.890833829587
 30
0.0
 10
389.9181586474076
 20
-1630.750000000548
 30
0.0
 11
385.2914691577901
 21
-1634.75000000055
 31
0.0
 11
385.6785154614112
 21
-1634.735264778177
 31
0.0
 11
386.1326464795586
 21
-1634.680234797097
 31
0.0
 11
386.5475409121848
 21
-1634.593392536755
 31
0.0
 11
386.9519470718548
 21
-1634.473255831251
 31
0.0
 11
387.7326705303726
 21
-1634.129414055853
 31
0.0
 11
388.4279373944919
 21
-1633.665931553101
 31
0.0
 11
389.0399374128688
 21
-1633.068057982666
 31
0.0
 11
389.5061621852821
 21
-1632.377178089421
 31
0.0
 11
389.6698827690673
 21
-1632.023602884014
 31
0.0
 11
389.8122946430126
 21
-1631.587503362305
 31
0.0
 11
389.8915644152519
 21
-1631.171381107454
 31
0.0
 11
389.9181586474076
 21
-1630.750000000548
 31
0.0
  0
SPLINE
  5
241
330
8B
100
AcDbEntity
  8
0
  6
Continuous
 62
     7
100
AcDbSpline
210
0.0
220
0.0
230
1.0
 70
  1064
 71
     3
 72
    23
 73
    19
 74
    17
 42
0.000000001
 43
0.0000000001
 44
0.00000001
 40
0.0
 40
0.0
 40
0.0
 40
0.0
 40
0.2118515248207442
 40
0.4238797051403437
 40
0.6348018100443331
 40
0.8462384967261397
 40
1.048286769593085
 40
1.270817412858952
 40
1.491434338538076
 40
1.695025209929048
 40
2.528500202530733
 40
3.384068333877597
 40
4.219659167912069
 40
5.072745496992925
 40
5.494618902235505
 40
5.918504462972527
 40
6.30742931210268
 40
6.763284097475569
 40
6.763284097475569
 40
6.763284097475569
 40
6.763284097475569
 10
425.0607254290187
 20
-1630.75000000055
 30
0.0
 10
425.0620171410762
 20
-1630.820628917174
 30
0.0
 10
425.0646016564004
 20
-1630.961945644912
 30
0.0
 10
425.0854230746549
 20
-1631.172734426524
 30
0.0
 10
425.1184235379242
 20
-1631.381711422011
 30
0.0
 10
425.1638297878828
 20
-1631.584982408571
 30
0.0
 10
425.2222979053391
 20
-1631.788883048822
 30
0.0
 10
425.2940115494854
 20
-1631.991789790255
 30
0.0
 10
425.378310232605
 20
-1632.190361777454
 30
0.0
 10
425.5641442964603
 20
-1632.566286710909
 30
0.0
 10
425.9218707162017
 20
-1633.092483908094
 30
0.0
 10
426.5295028386648
 20
-1633.682160859544
 30
0.0
 10
427.2396406200803
 20
-1634.15359394868
 30
0.0
 10
427.8872059150342
 20
-1634.437787099303
 30
0.0
 10
428.4305492258214
 20
-1634.59929319868
 30
0.0
 10
428.8338734892914
 20
-1634.683173692001
 30
0.0
 10
429.2537145153416
 20
-1634.738865388468
 30
0.0
 10
429.5354087887646
 20
-1634.746097474356
 30
0.0
 10
429.6874149186363
 20
-1634.75000000055
 30
0.0
 11
425.0607254290187
 21
-1630.75000000055
 31
0.0
 11
425.0674278831415
 21
-1630.961745477833
 31
0.0
 11
425.0875022207845
 21
-1631.172821225611
 31
0.0
 11
425.1205770982922
 21
-1631.381133941247
 31
0.0
 11
425.1665894334142
 21
-1631.587503362307
 31
0.0
 11
425.2222631355311
 21
-1631.781729889234
 31
0.0
 11
425.2963691192554
 21
-1631.991558844929
 31
0.0
 11
425.3825275768734
 21
-1632.194656231164
 31
0.0
 11
425.4727218911451
 21
-1632.377178089422
 31
0.0
 11
425.9389466635592
 21
-1633.068057982668
 31
0.0
 11
426.5509466819353
 21
-1633.665931553102
 31
0.0
 11
427.2462135460536
 21
-1634.129414055853
 31
0.0
 11
428.0269370045721
 21
-1634.473255831251
 31
0.0
 11
428.4313431642294
 21
-1634.593392536752
 31
0.0
 11
428.8462375968679
 21
-1634.680234797097
 31
0.0
 11
429.232016822685
 21
-1634.729600037029
 31
0.0
 11
429.6874149186363
 21
-1634.75000000055
 31
0.0
  0
ENDBLK
  5
8D
330
8B
100
AcDbEntity
  8
0
100
AcDbBlockEnd
  0
BLOCK
  5
97
330
8E
100
AcDbEntity
  8
0
100
AcDbBlockBegin
  2
539595H_2018-10-05__9
 70
     0
 10
-267.5105579617869
 20
-1717.75000000055
 30
0.0
  3
539595H_2018-10-05__9
  1

  0
INSERT
  5
8F
330
8E
100
AcDbEntity
  8
0
100
AcDbBlockReference
  2
390997584__1
 10
-235.0105579617869
 20
-1521.25000000055
 30
0.0
  0
INSERT
  5
90
330
8E
100
AcDbEntity
  8
0
100
AcDbBlockReference
  2
390997584_1__2
 10
179.9788840758519
 20
-1550.75000000055
 30
0.0
  0
INSERT
  5
91
330
8E
100
AcDbEntity
  8
0
100
AcDbBlockReference
  2
976007501_Plan_1__3
 10
182.4894420382132
 20
-1524.75000000055
 30
0.0
  0
INSERT
  5
92
330
8E
100
AcDbEntity
  8
0
100
AcDbBlockReference
  2
976007501_Plan__4
 10
-267.5105579617869
 20
-1524.75000000055
 30
0.0
  0
INSERT
  5
93
330
8E
100
AcDbEntity
  8
0
100
AcDbBlockReference
  2
980057503__5
 10
-267.5105579617869
 20
-1717.75000000055
 30
0.0
  0
INSERT
  5
94
330
8E
100
AcDbEntity
  8
0
100
AcDbBlockReference
  2
368027497__6
 10
-267.5105579617869
 20
-1717.75000000055
 30
0.0
  0
INSERT
  5
95
330
8E
100
AcDbEntity
  8
0
100
AcDbBlockReference
  2
980057503_1__7
 10
182.4894420382127
 20
-1717.75000000055
 30
0.0
  0
INSERT
  5
96
330
8E
100
AcDbEntity
  8
0
100
AcDbBlockReference
  2
368027497_1__8
 10
182.4894420382127
 20
-1717.75000000055
 30
0.0
  0
ENDBLK
  5
98
330
8E
100
AcDbEntity
  8
0
100
AcDbBlockEnd
  0
BLOCK
  5
9B
330
99
100
AcDbEntity
  8
0
100
AcDbBlockBegin
  2
HL6700_2-WEB-Zeichnung__10
 70
     0
 10
-267.5105579617869
 20
-1717.75000000055
 30
0.0
  3
HL6700_2-WEB-Zeichnung__10
  1

  0
INSERT
  5
9A
330
99
100
AcDbEntity
  8
0
100
AcDbBlockReference
  2
539595H_2018-10-05__9
 10
-267.5105579617869
 20
-1717.75000000055
 30
0.0
  0
ENDBLK
  5
9C
330
99
100
AcDbEntity
  8
0
100
AcDbBlockEnd
  0
BLOCK
  5
9F
330
9D
100
AcDbEntity
  8
0
100
AcDbBlockBegin
  2
Drfsicht1
 70
     0
 10
199.9947210191086
 20
-1619.250000000275
 30
0.0
  3
Drfsicht1
  1

  0
INSERT
  5
9E
330
9D
100
AcDbEntity
  8
0
100
AcDbBlockReference
  2
HL6700_2-WEB-Zeichnung__10
 10
-267.5105579617869
 20
-1717.75000000055
 30
0.0
  0
MTEXT
  5
243
330
9D
100
AcDbEntity
  8
1
 62
     1
100
AcDbMText
 10
199.994721019109
 20
-1722.750000000275
 30
0.0
 40
3.5
 41
0.0
 71
     2
 72
     1
  1
 
  7
CONVERTER_11
 73
     1
 44
1.32052821128451
  0
DIMENSION
  5
24F
330
9D
100
AcDbEntity
  8
1
100
AcDbDimension
  2
*D30
 10
-227.5105579617869
 20
-1798.86672836043
 30
0.0
 11
195.4684711730258
 21
-1771.593096519634
 31
0.0
 70
    32
  1
<>
 71
     5
 42
-1.0
 53
0.00013888888889
  3
ME10_DIM_10
100
AcDbAlignedDimension
 13
592.4894420382127
 23
-1713.75000000055
 33
0.0
 14
-227.5105579617868
 24
-1713.75000000055
 34
0.0
100
AcDbRotatedDimension
  0
DIMENSION
  5
25A
330
9D
100
AcDbEntity
  8
1
100
AcDbDimension
  2
*D31
 10
600.4894420382127
 20
-1446.48969880088
 30
0.0
 11
201.8307854624119
 21
-1419.216066960084
 31
0.0
 70
    32
  1
<>
 71
     5
 42
-1.0
 53
0.00013888888889
  3
ME10_DIM_11
100
AcDbAlignedDimension
 13
-235.5105579617869
 23
-1524.75000000055
 33
0.0
 14
600.4894420382127
 24
-1524.75000000055
 34
0.0
100
AcDbRotatedDimension
  0
DIMENSION
  5
265
330
9D
100
AcDbEntity
  8
1
100
AcDbDimension
  2
*D32
 10
-357.3681639403632
 20
-1717.75000000055
 30
0.0
 11
-388.3731390647413
 21
-1618.67560032379
 31
0.0
 70
    32
  1
<>
 71
     5
 42
-1.0
 53
90.0
  3
ME10_DIM_12
100
AcDbAlignedDimension
 13
-267.5105579617869
 23
-1521.25000000055
 33
0.0
 14
-223.5105579617867
 24
-1717.75000000055
 34
0.0
 50
90.0
100
AcDbRotatedDimension
  0
ENDBLK
  5
A0
330
9D
100
AcDbEntity
  8
0
100
AcDbBlockEnd
  0
BLOCK
  5
A2
330
A1
100
AcDbEntity
  8
0
100
AcDbBlockBegin
  2
368027497__11
 70
     0
 10
782.5000000005546
 20
-1339.749999998675
 30
0.0
  3
368027497__11
  1

  0
LINE
  5
266
330
A1
100
AcDbEntity
  8
0
  6
Continuous
 62
     7
100
AcDbLine
 10
798.2807744727803
 20
-1293.249999998675
 30
0.0
 11
802.8950306687551
 21
-1293.249999998675
 31
0.0
  0
LINE
  5
267
330
A1
100
AcDbEntity
  8
0
  6
Continuous
 62
     7
100
AcDbLine
 10
798.2807744727803
 20
-1293.249999998675
 30
0.0
 11
798.2807744727803
 21
-1296.749999998675
 31
0.0
  0
LINE
  5
268
330
A1
100
AcDbEntity
  8
0
  6
Continuous
 62
     3
100
AcDbLine
 10
798.9575276678986
 20
-1296.749999998675
 30
0.0
 11
798.9575276678986
 21
-1339.749999998675
 31
0.0
  0
LINE
  5
269
330
A1
100
AcDbEntity
  8
0
  6
Continuous
 62
     7
100
AcDbLine
 10
782.5000000005546
 20
-1294.749999998675
 30
0.0
 11
786.5000000005554
 21
-1294.749999998675
 31
0.0
  0
LINE
  5
26A
330
A1
100
AcDbEntity
  8
0
  6
Continuous
 62
     7
100
AcDbLine
 10
786.5000000005554
 20
-1294.749999998675
 30
0.0
 11
786.5000000005554
 21
-1293.249999998675
 31
0.0
  0
LINE
  5
26B
330
A1
100
AcDbEntity
  8
0
  6
Continuous
 62
     3
100
AcDbLine
 10
786.5000000005554
 20
-1294.749999998675
 30
0.0
 11
786.5000000005555
 21
-1339.749999998675
 31
0.0
  0
LINE
  5
26C
330
A1
100
AcDbEntity
  8
0
  6
Continuous
 62
     7
100
AcDbLine
 10
786.5000000005554
 20
-1293.249999998675
 30
0.0
 11
795.1862915015704
 21
-1293.249999998675
 31
0.0
  0
LINE
  5
26D
330
A1
100
AcDbEntity
  8
0
  6
Continuous
 62
     3
100
AcDbLine
 10
795.1862915015704
 20
-1339.749999998675
 30
0.0
 11
795.1862915015704
 21
-1293.249999998675
 31
0.0
  0
LINE
  5
26E
330
A1
100
AcDbEntity
  8
0
  6
Continuous
 62
     7
100
AcDbLine
 10
782.5000000005546
 20
-1339.749999998675
 30
0.0
 11
782.5000000005546
 21
-1294.749999998675
 31
0.0
  0
LINE
  5
26F
330
A1
100
AcDbEntity
  8
0
  6
Continuous
 62
     3
100
AcDbLine
 10
806.5000000005552
 20
-1339.749999998675
 30
0.0
 11
806.5000000005552
 21
-1293.249999998675
 31
0.0
  0
LINE
  5
270
330
A1
100
AcDbEntity
  8
0
  6
Continuous
 62
     3
100
AcDbLine
 10
898.5000000005554
 20
-1323.749999998675
 30
0.0
 11
898.5000000005564
 21
-1339.749999998675
 31
0.0
  0
LINE
  5
271
330
A1
100
AcDbEntity
  8
0
  6
Continuous
 62
     7
100
AcDbLine
 10
884.5000000005565
 20
-1323.749999998675
 30
0.0
 11
888.5000000005559
 21
-1323.749999998675
 31
0.0
  0
LINE
  5
272
330
A1
100
AcDbEntity
  8
0
  6
Continuous
 62
     3
100
AcDbLine
 10
884.5000000005565
 20
-1339.749999998675
 30
0.0
 11
884.5000000005565
 21
-1323.749999998675
 31
0.0
  0
LINE
  5
273
330
A1
100
AcDbEntity
  8
0
  6
Continuous
 62
     7
100
AcDbLine
 10
882.5000000005552
 20
-1323.749999998675
 30
0.0
 11
884.5000000005565
 21
-1323.749999998675
 31
0.0
  0
LINE
  5
274
330
A1
100
AcDbEntity
  8
0
  6
Continuous
 62
     7
100
AcDbLine
 10
888.5000000005559
 20
-1323.749999998675
 30
0.0
 11
888.5000000005559
 21
-1339.749999998675
 31
0.0
  0
LINE
  5
275
330
A1
100
AcDbEntity
  8
0
  6
Continuous
 62
     7
100
AcDbLine
 10
888.4690255485554
 20
-1293.249999998675
 30
0.0
 11
891.6720927079054
 21
-1293.249999998675
 31
0.0
  0
LINE
  5
276
330
A1
100
AcDbEntity
  8
0
  6
Continuous
 62
     7
100
AcDbLine
 10
891.6720927079054
 20
-1293.249999998675
 30
0.0
 11
892.5000000005552
 21
-1293.249999998675
 31
0.0
  0
LINE
  5
277
330
A1
100
AcDbEntity
  8
0
  6
Continuous
 62
     7
100
AcDbLine
 10
892.5000000005552
 20
-1323.749999998675
 30
0.0
 11
892.5000000005552
 21
-1293.249999998675
 31
0.0
  0
LINE
  5
278
330
A1
100
AcDbEntity
  8
0
  6
Continuous
 62
     7
100
AcDbLine
 10
888.4690255485554
 20
-1296.749999998675
 30
0.0
 11
888.4690255485554
 21
-1293.249999998675
 31
0.0
  0
LINE
  5
279
330
A1
100
AcDbEntity
  8
0
  6
Continuous
 62
     7
100
AcDbLine
 10
888.4690255485554
 20
-1296.749999998675
 30
0.0
 11
891.6720927079054
 21
-1296.749999998675
 31
0.0
  0
LINE
  5
27A
330
A1
100
AcDbEntity
  8
0
  6
Continuous
 62
     7
100
AcDbLine
 10
891.6720927079054
 20
-1296.749999998675
 30
0.0
 11
891.6720927079054
 21
-1293.249999998675
 31
0.0
  0
LINE
  5
27B
330
A1
100
AcDbEntity
  8
0
  6
Continuous
 62
     3
100
AcDbLine
 10
882.5000000005552
 20
-1323.749999998675
 30
0.0
 11
882.5000000005552
 21
-1293.249999998675
 31
0.0
  0
LINE
  5
27C
330
A1
100
AcDbEntity
  8
0
  6
Continuous
 62
     7
100
AcDbLine
 10
864.7132034361503
 20
-1323.749999998675
 30
0.0
 11
882.5000000005552
 21
-1323.749999998675
 31
0.0
  0
LINE
  5
27D
330
A1
100
AcDbEntity
  8
0
  6
Continuous
 62
     3
100
AcDbLine
 10
863.7132034361501
 20
-1325.482050806244
 30
0.0
 11
863.7132034361501
 21
-1339.749999998675
 31
0.0
  0
LINE
  5
27E
330
A1
100
AcDbEntity
  8
0
  6
Continuous
 62
     7
100
AcDbLine
 10
864.7132034361503
 20
-1323.749999998675
 30
0.0
 11
863.7132034361501
 21
-1325.482050806244
 31
0.0
  0
LINE
  5
27F
330
A1
100
AcDbEntity
  8
0
  6
Continuous
 62
     7
100
AcDbLine
 10
859.5000000005554
 20
-1293.249999998675
 30
0.0
 11
882.5000000005552
 21
-1293.249999998675
 31
0.0
  0
LINE
  5
280
330
A1
100
AcDbEntity
  8
0
  6
Continuous
 62
     7
100
AcDbLine
 10
882.5000000005552
 20
-1293.249999998675
 30
0.0
 11
888.4690255485554
 21
-1293.249999998675
 31
0.0
  0
LINE
  5
281
330
A1
100
AcDbEntity
  8
0
  6
Continuous
 62
     7
100
AcDbLine
 10
806.5000000005552
 20
-1293.249999998675
 30
0.0
 11
817.5000000005552
 21
-1293.249999998675
 31
0.0
  0
LINE
  5
282
330
A1
100
AcDbEntity
  8
0
  6
Continuous
 62
     7
100
AcDbLine
 10
802.8950306687551
 20
-1293.249999998675
 30
0.0
 11
804.9555359044728
 21
-1293.249999998675
 31
0.0
  0
LINE
  5
283
330
A1
100
AcDbEntity
  8
0
  6
Continuous
 62
     7
100
AcDbLine
 10
802.8950306687551
 20
-1296.749999998675
 30
0.0
 11
802.8950306687551
 21
-1293.249999998675
 31
0.0
  0
LINE
  5
284
330
A1
100
AcDbEntity
  8
0
  6
Continuous
 62
     7
100
AcDbLine
 10
802.8950306687551
 20
-1296.749999998675
 30
0.0
 11
804.9555359044728
 21
-1296.749999998675
 31
0.0
  0
LINE
  5
285
330
A1
100
AcDbEntity
  8
0
  6
Continuous
 62
     7
100
AcDbLine
 10
798.9575276678986
 20
-1296.749999998675
 30
0.0
 11
802.8950306687551
 21
-1296.749999998675
 31
0.0
  0
LINE
  5
286
330
A1
100
AcDbEntity
  8
0
  6
Continuous
 62
     7
100
AcDbLine
 10
804.9555359044728
 20
-1296.749999998675
 30
0.0
 11
804.9555359044728
 21
-1293.249999998675
 31
0.0
  0
LINE
  5
287
330
A1
100
AcDbEntity
  8
0
  6
Continuous
 62
     7
100
AcDbLine
 10
804.9555359044728
 20
-1293.249999998675
 30
0.0
 11
806.5000000005552
 21
-1293.249999998675
 31
0.0
  0
LINE
  5
288
330
A1
100
AcDbEntity
  8
0
  6
Continuous
 62
     7
100
AcDbLine
 10
859.5000000005554
 20
-1312.249999998673
 30
0.0
 11
859.5000000005554
 21
-1293.249999998675
 31
0.0
  0
LINE
  5
289
330
A1
100
AcDbEntity
  8
0
  6
Continuous
 62
     7
100
AcDbLine
 10
975.5000000005552
 20
-1323.749999998675
 30
0.0
 11
975.5000000005552
 21
-1339.749999998675
 31
0.0
  0
LINE
  5
28A
330
A1
100
AcDbEntity
  8
0
  6
Continuous
 62
     7
100
AcDbLine
 10
971.5000000005552
 20
-1323.749999998675
 30
0.0
 11
975.5000000005552
 21
-1323.749999998675
 31
0.0
  0
LINE
  5
28B
330
A1
100
AcDbEntity
  8
0
  6
Continuous
 62
     7
100
AcDbLine
 10
975.5000000005552
 20
-1339.749999998675
 30
0.0
 11
971.5000000005552
 21
-1339.749999998675
 31
0.0
  0
LINE
  5
28C
330
A1
100
AcDbEntity
  8
0
  6
Continuous
 62
     7
100
AcDbLine
 10
892.5000000005552
 20
-1323.749999998675
 30
0.0
 11
898.5000000005554
 21
-1323.749999998675
 31
0.0
  0
LINE
  5
28D
330
A1
100
AcDbEntity
  8
0
  6
Continuous
 62
     7
100
AcDbLine
 10
898.5000000005554
 20
-1323.749999998675
 30
0.0
 11
971.5000000005552
 21
-1323.749999998675
 31
0.0
  0
LINE
  5
28E
330
A1
100
AcDbEntity
  8
0
  6
Continuous
 62
     7
100
AcDbLine
 10
888.5000000005559
 20
-1323.749999998675
 30
0.0
 11
892.5000000005552
 21
-1323.749999998675
 31
0.0
  0
LINE
  5
28F
330
A1
100
AcDbEntity
  8
0
  6
Continuous
 62
     3
100
AcDbLine
 10
971.5000000005552
 20
-1339.749999998675
 30
0.0
 11
971.5000000005552
 21
-1323.749999998675
 31
0.0
  0
LINE
  5
290
330
A1
100
AcDbEntity
  8
0
  6
Continuous
 62
     3
100
AcDbLine
 10
855.7132034361501
 20
-1339.749999998675
 30
0.0
 11
855.7132034361501
 21
-1339.338457266795
 31
0.0
  0
LINE
  5
291
330
A1
100
AcDbEntity
  8
0
  6
Continuous
 62
     7
100
AcDbLine
 10
859.7132034361501
 20
-1332.41025403652
 30
0.0
 11
863.7132034361501
 21
-1325.482050806244
 31
0.0
  0
LINE
  5
292
330
A1
100
AcDbEntity
  8
0
  6
Continuous
 62
     7
100
AcDbLine
 10
857.3248298644185
 20
-1339.749999998675
 30
0.0
 11
855.7132034361501
 21
-1339.749999998675
 31
0.0
  0
LINE
  5
293
330
A1
100
AcDbEntity
  8
0
  6
Continuous
 62
     7
100
AcDbLine
 10
855.7132034361501
 20
-1339.749999998675
 30
0.0
 11
808.5000000005552
 21
-1339.749999998675
 31
0.0
  0
LINE
  5
294
330
A1
100
AcDbEntity
  8
0
  6
Continuous
 62
     7
100
AcDbLine
 10
786.5000000005555
 20
-1339.749999998675
 30
0.0
 11
782.5000000005546
 21
-1339.749999998675
 31
0.0
  0
LINE
  5
295
330
A1
100
AcDbEntity
  8
0
  6
Continuous
 62
     7
100
AcDbLine
 10
939.5000000005552
 20
-1339.749999998675
 30
0.0
 11
935.5000000005552
 21
-1339.749999998675
 31
0.0
  0
LINE
  5
296
330
A1
100
AcDbEntity
  8
0
  6
Continuous
 62
     7
100
AcDbLine
 10
935.5000000005552
 20
-1339.749999998675
 30
0.0
 11
898.5000000005564
 21
-1339.749999998675
 31
0.0
  0
LINE
  5
297
330
A1
100
AcDbEntity
  8
0
  6
Continuous
 62
     7
100
AcDbLine
 10
971.5000000005552
 20
-1339.749999998675
 30
0.0
 11
939.5000000005552
 21
-1339.749999998675
 31
0.0
  0
LINE
  5
298
330
A1
100
AcDbEntity
  8
0
  6
Continuous
 62
     7
100
AcDbLine
 10
863.7132034361501
 20
-1339.749999998675
 30
0.0
 11
863.1795154879171
 21
-1339.749999998675
 31
0.0
  0
LINE
  5
299
330
A1
100
AcDbEntity
  8
0
  6
Continuous
 62
     7
100
AcDbLine
 10
863.1795154879171
 20
-1339.749999998675
 30
0.0
 11
859.7132034361501
 21
-1339.749999998675
 31
0.0
  0
LINE
  5
29A
330
A1
100
AcDbEntity
  8
0
  6
Continuous
 62
     7
100
AcDbLine
 10
876.5000000005555
 20
-1339.749999998675
 30
0.0
 11
863.7132034361501
 21
-1339.749999998675
 31
0.0
  0
LINE
  5
29B
330
A1
100
AcDbEntity
  8
0
  6
Continuous
 62
     7
100
AcDbLine
 10
898.5000000005564
 20
-1339.749999998675
 30
0.0
 11
888.5000000005559
 21
-1339.749999998675
 31
0.0
  0
LINE
  5
29C
330
A1
100
AcDbEntity
  8
0
  6
Continuous
 62
     7
100
AcDbLine
 10
888.5000000005559
 20
-1339.749999998675
 30
0.0
 11
884.5000000005565
 21
-1339.749999998675
 31
0.0
  0
LINE
  5
29D
330
A1
100
AcDbEntity
  8
0
  6
Continuous
 62
     7
100
AcDbLine
 10
884.5000000005565
 20
-1339.749999998675
 30
0.0
 11
876.5000000005555
 21
-1339.749999998675
 31
0.0
  0
LINE
  5
29E
330
A1
100
AcDbEntity
  8
0
  6
Continuous
 62
     7
100
AcDbLine
 10
859.7132034361501
 20
-1339.749999998675
 30
0.0
 11
857.3248298644185
 21
-1339.749999998675
 31
0.0
  0
LINE
  5
29F
330
A1
100
AcDbEntity
  8
0
  6
Continuous
 62
     7
100
AcDbLine
 10
859.7132034361501
 20
-1339.749999998675
 30
0.0
 11
859.7132034361501
 21
-1332.41025403652
 31
0.0
  0
LINE
  5
2A0
330
A1
100
AcDbEntity
  8
0
  6
Continuous
 62
     7
100
AcDbLine
 10
808.5000000005552
 20
-1339.749999998675
 30
0.0
 11
806.5000000005552
 21
-1339.749999998675
 31
0.0
  0
LINE
  5
2A1
330
A1
100
AcDbEntity
  8
0
  6
Continuous
 62
     7
100
AcDbLine
 10
806.5000000005552
 20
-1339.749999998675
 30
0.0
 11
804.5000000005552
 21
-1339.749999998675
 31
0.0
  0
LINE
  5
2A2
330
A1
100
AcDbEntity
  8
0
  6
Continuous
 62
     7
100
AcDbLine
 10
804.5000000005552
 20
-1339.749999998675
 30
0.0
 11
798.9575276678986
 21
-1339.749999998675
 31
0.0
  0
LINE
  5
2A3
330
A1
100
AcDbEntity
  8
0
  6
Continuous
 62
     7
100
AcDbLine
 10
798.9575276678986
 20
-1339.749999998675
 30
0.0
 11
795.1862915015704
 21
-1339.749999998675
 31
0.0
  0
LINE
  5
2A4
330
A1
100
AcDbEntity
  8
0
  6
Continuous
 62
     7
100
AcDbLine
 10
795.1862915015704
 20
-1339.749999998675
 30
0.0
 11
786.5000000005555
 21
-1339.749999998675
 31
0.0
  0
LINE
  5
2A5
330
A1
100
AcDbEntity
  8
0
  6
Continuous
 62
     7
100
AcDbLine
 10
855.7132034361501
 20
-1339.338457266795
 30
0.0
 11
859.7132034361501
 21
-1332.41025403652
 31
0.0
  0
LINE
  5
2A6
330
A1
100
AcDbEntity
  8
0
  6
Continuous
 62
     7
100
AcDbLine
 10
798.2807744727803
 20
-1296.749999998675
 30
0.0
 11
798.9575276678986
 21
-1296.749999998675
 31
0.0
  0
LINE
  5
2A7
330
A1
100
AcDbEntity
  8
0
  6
Continuous
 62
     7
100
AcDbLine
 10
795.1862915015704
 20
-1293.249999998675
 30
0.0
 11
798.2807744727803
 21
-1293.249999998675
 31
0.0
  0
LINE
  5
2A8
330
A1
100
AcDbEntity
  8
0
  6
Continuous
 62
     7
100
AcDbLine
 10
817.5000000005552
 20
-1293.249999998675
 30
0.0
 11
817.5000000005552
 21
-1312.249999998673
 31
0.0
  0
ARC
  5
2A9
330
A1
100
AcDbEntity
  8
0
  6
Continuous
 62
     7
100
AcDbCircle
 10
838.5000000005552
 20
-1312.249999998673
 30
0.0
 40
21.0
100
AcDbArc
 50
180.0
 51
0.0
  0
ENDBLK
  5
A3
330
A1
100
AcDbEntity
  8
0
100
AcDbBlockEnd
  0
BLOCK
  5
A5
330
A4
100
AcDbEntity
  8
0
100
AcDbBlockBegin
  2
980057503__12
 70
     0
 10
782.5000000005546
 20
-1343.749999998675
 30
0.0
  3
980057503__12
  1

  0
LINE
  5
2AA
330
A4
100
AcDbEntity
  8
0
  6
Continuous
 62
     7
100
AcDbLine
 10
898.5000000005552
 20
-1343.749999998675
 30
0.0
 11
975.5000000005552
 21
-1343.749999998675
 31
0.0
  0
LINE
  5
2AB
330
A4
100
AcDbEntity
  8
0
  6
Continuous
 62
     7
100
AcDbLine
 10
975.5000000005552
 20
-1343.749999998675
 30
0.0
 11
975.5000000005552
 21
-1339.749999998675
 31
0.0
  0
LINE
  5
2AC
330
A4
100
AcDbEntity
  8
0
  6
Continuous
 62
     7
100
AcDbLine
 10
975.5000000005552
 20
-1339.749999998675
 30
0.0
 11
971.5000000005552
 21
-1339.749999998675
 31
0.0
  0
LINE
  5
2AD
330
A4
100
AcDbEntity
  8
0
  6
Continuous
 62
     7
100
AcDbLine
 10
857.3248298644185
 20
-1339.749999998675
 30
0.0
 11
855.7132034361501
 21
-1339.749999998675
 31
0.0
  0
LINE
  5
2AE
330
A4
100
AcDbEntity
  8
0
  6
Continuous
 62
     7
100
AcDbLine
 10
855.7132034361501
 20
-1339.749999998675
 30
0.0
 11
808.5000000005552
 21
-1339.749999998675
 31
0.0
  0
LINE
  5
2AF
330
A4
100
AcDbEntity
  8
0
  6
Continuous
 62
     7
100
AcDbLine
 10
786.5000000005555
 20
-1339.749999998675
 30
0.0
 11
782.5000000005546
 21
-1339.749999998675
 31
0.0
  0
LINE
  5
2B0
330
A4
100
AcDbEntity
  8
0
  6
Continuous
 62
     7
100
AcDbLine
 10
939.5000000005552
 20
-1339.749999998675
 30
0.0
 11
935.5000000005552
 21
-1339.749999998675
 31
0.0
  0
LINE
  5
2B1
330
A4
100
AcDbEntity
  8
0
  6
Continuous
 62
     7
100
AcDbLine
 10
935.5000000005552
 20
-1339.749999998675
 30
0.0
 11
898.5000000005564
 21
-1339.749999998675
 31
0.0
  0
LINE
  5
2B2
330
A4
100
AcDbEntity
  8
0
  6
Continuous
 62
     7
100
AcDbLine
 10
971.5000000005552
 20
-1339.749999998675
 30
0.0
 11
939.5000000005552
 21
-1339.749999998675
 31
0.0
  0
LINE
  5
2B3
330
A4
100
AcDbEntity
  8
0
  6
Continuous
 62
     7
100
AcDbLine
 10
808.5000000005552
 20
-1343.749999998675
 30
0.0
 11
838.5000000005554
 21
-1343.749999998675
 31
0.0
  0
LINE
  5
2B4
330
A4
100
AcDbEntity
  8
0
  6
Continuous
 62
     7
100
AcDbLine
 10
838.5000000005554
 20
-1343.749999998675
 30
0.0
 11
888.5000000005552
 21
-1343.749999998675
 31
0.0
  0
LINE
  5
2B5
330
A4
100
AcDbEntity
  8
0
  6
Continuous
 62
     7
100
AcDbLine
 10
898.5000000005552
 20
-1343.749999998675
 30
0.0
 11
888.5000000005552
 21
-1343.749999998675
 31
0.0
  0
LINE
  5
2B6
330
A4
100
AcDbEntity
  8
0
  6
Continuous
 62
     7
100
AcDbLine
 10
863.7132034361501
 20
-1339.749999998675
 30
0.0
 11
863.1795154879171
 21
-1339.749999998675
 31
0.0
  0
LINE
  5
2B7
330
A4
100
AcDbEntity
  8
0
  6
Continuous
 62
     7
100
AcDbLine
 10
863.1795154879171
 20
-1339.749999998675
 30
0.0
 11
859.7132034361501
 21
-1339.749999998675
 31
0.0
  0
LINE
  5
2B8
330
A4
100
AcDbEntity
  8
0
  6
Continuous
 62
     7
100
AcDbLine
 10
876.5000000005555
 20
-1339.749999998675
 30
0.0
 11
863.7132034361501
 21
-1339.749999998675
 31
0.0
  0
LINE
  5
2B9
330
A4
100
AcDbEntity
  8
0
  6
Continuous
 62
     7
100
AcDbLine
 10
898.5000000005564
 20
-1339.749999998675
 30
0.0
 11
888.5000000005559
 21
-1339.749999998675
 31
0.0
  0
LINE
  5
2BA
330
A4
100
AcDbEntity
  8
0
  6
Continuous
 62
     7
100
AcDbLine
 10
888.5000000005559
 20
-1339.749999998675
 30
0.0
 11
884.5000000005565
 21
-1339.749999998675
 31
0.0
  0
LINE
  5
2BB
330
A4
100
AcDbEntity
  8
0
  6
Continuous
 62
     7
100
AcDbLine
 10
884.5000000005565
 20
-1339.749999998675
 30
0.0
 11
876.5000000005555
 21
-1339.749999998675
 31
0.0
  0
LINE
  5
2BC
330
A4
100
AcDbEntity
  8
0
  6
Continuous
 62
     7
100
AcDbLine
 10
888.5000000005552
 20
-1343.749999998675
 30
0.0
 11
888.5000000005559
 21
-1339.749999998675
 31
0.0
  0
LINE
  5
2BD
330
A4
100
AcDbEntity
  8
0
  6
Continuous
 62
     3
100
AcDbLine
 10
898.5000000005564
 20
-1339.749999998675
 30
0.0
 11
898.5000000005552
 21
-1343.749999998675
 31
0.0
  0
LINE
  5
2BE
330
A4
100
AcDbEntity
  8
0
  6
Continuous
 62
     7
100
AcDbLine
 10
859.7132034361501
 20
-1339.749999998675
 30
0.0
 11
857.3248298644185
 21
-1339.749999998675
 31
0.0
  0
LINE
  5
2BF
330
A4
100
AcDbEntity
  8
0
  6
Continuous
 62
     7
100
AcDbLine
 10
808.5000000005552
 20
-1339.749999998675
 30
0.0
 11
806.5000000005552
 21
-1339.749999998675
 31
0.0
  0
LINE
  5
2C0
330
A4
100
AcDbEntity
  8
0
  6
Continuous
 62
     7
100
AcDbLine
 10
804.5000000005552
 20
-1343.749999998675
 30
0.0
 11
808.5000000005552
 21
-1343.749999998675
 31
0.0
  0
LINE
  5
2C1
330
A4
100
AcDbEntity
  8
0
  6
Continuous
 62
     7
100
AcDbLine
 10
806.5000000005552
 20
-1339.749999998675
 30
0.0
 11
804.5000000005552
 21
-1339.749999998675
 31
0.0
  0
LINE
  5
2C2
330
A4
100
AcDbEntity
  8
0
  6
Continuous
 62
     7
100
AcDbLine
 10
804.5000000005552
 20
-1339.749999998675
 30
0.0
 11
798.9575276678986
 21
-1339.749999998675
 31
0.0
  0
LINE
  5
2C3
330
A4
100
AcDbEntity
  8
0
  6
Continuous
 62
     3
100
AcDbLine
 10
804.5000000005552
 20
-1343.749999998675
 30
0.0
 11
804.5000000005552
 21
-1339.749999998675
 31
0.0
  0
LINE
  5
2C4
330
A4
100
AcDbEntity
  8
0
  6
Continuous
 62
     7
100
AcDbLine
 10
808.5000000005552
 20
-1343.749999998675
 30
0.0
 11
808.5000000005552
 21
-1339.749999998675
 31
0.0
  0
LINE
  5
2C5
330
A4
100
AcDbEntity
  8
0
  6
Continuous
 62
     7
100
AcDbLine
 10
798.9575276678986
 20
-1339.749999998675
 30
0.0
 11
795.1862915015704
 21
-1339.749999998675
 31
0.0
  0
LINE
  5
2C6
330
A4
100
AcDbEntity
  8
0
  6
Continuous
 62
     7
100
AcDbLine
 10
795.1862915015704
 20
-1339.749999998675
 30
0.0
 11
786.5000000005555
 21
-1339.749999998675
 31
0.0
  0
LINE
  5
2C7
330
A4
100
AcDbEntity
  8
0
  6
Continuous
 62
     7
100
AcDbLine
 10
782.5000000005555
 20
-1343.749999998675
 30
0.0
 11
804.5000000005552
 21
-1343.749999998675
 31
0.0
  0
LINE
  5
2C8
330
A4
100
AcDbEntity
  8
0
  6
Continuous
 62
     7
100
AcDbLine
 10
782.5000000005546
 20
-1339.749999998675
 30
0.0
 11
782.5000000005555
 21
-1343.749999998675
 31
0.0
  0
ENDBLK
  5
A6
330
A4
100
AcDbEntity
  8
0
100
AcDbBlockEnd
  0
BLOCK
  5
A8
330
A7
100
AcDbEntity
  8
0
100
AcDbBlockBegin
  2
976007501_Plan__13
 70
     0
 10
779.0000000005554
 20
-1343.749999998675
 30
0.0
  3
976007501_Plan__13
  1

  0
LINE
  5
2C9
330
A7
100
AcDbEntity
  8
0
  6
Continuous
 62
     7
100
AcDbLine
 10
782.5000000005546
 20
-1339.749999998675
 30
0.0
 11
782.5000000005546
 21
-1294.749999998675
 31
0.0
  0
LINE
  5
2CA
330
A7
100
AcDbEntity
  8
0
  6
Continuous
 62
     7
100
AcDbLine
 10
779.0000000005554
 20
-1343.749999998675
 30
0.0
 11
782.5000000005555
 21
-1343.749999998675
 31
0.0
  0
LINE
  5
2CB
330
A7
100
AcDbEntity
  8
0
  6
Continuous
 62
     7
100
AcDbLine
 10
782.5000000005546
 20
-1339.749999998675
 30
0.0
 11
782.5000000005555
 21
-1343.749999998675
 31
0.0
  0
LINE
  5
2CC
330
A7
100
AcDbEntity
  8
0
  6
Continuous
 62
     7
100
AcDbLine
 10
782.5000000005555
 20
-1273.749999998675
 30
0.0
 11
779.0000000005555
 21
-1273.749999998675
 31
0.0
  0
LINE
  5
2CD
330
A7
100
AcDbEntity
  8
0
  6
Continuous
 62
     7
100
AcDbLine
 10
779.0000000005554
 20
-1284.249999998675
 30
0.0
 11
779.0000000005554
 21
-1343.749999998675
 31
0.0
  0
LINE
  5
2CE
330
A7
100
AcDbEntity
  8
0
  6
Continuous
 62
     7
100
AcDbLine
 10
779.0000000005555
 20
-1273.749999998675
 30
0.0
 11
779.0000000005554
 21
-1284.249999998675
 31
0.0
  0
LINE
  5
2CF
330
A7
100
AcDbEntity
  8
0
  6
Continuous
 62
     7
100
AcDbLine
 10
782.5000000005555
 20
-1273.749999998675
 30
0.0
 11
782.5000000005546
 21
-1294.749999998675
 31
0.0
  0
ENDBLK
  5
A9
330
A7
100
AcDbEntity
  8
0
100
AcDbBlockEnd
  0
BLOCK
  5
AB
330
AA
100
AcDbEntity
  8
0
100
AcDbBlockBegin
  2
390997584__14
 70
     0
 10
778.5000000005554
 20
-1344.249999998675
 30
0.0
  3
390997584__14
  1

  0
LINE
  5
2D0
330
AA
100
AcDbEntity
  8
0
  6
Continuous
 62
     7
100
AcDbLine
 10
838.5000000005554
 20
-1344.249999998675
 30
0.0
 11
779.0000000005554
 21
-1344.249999998675
 31
0.0
  0
LINE
  5
2D1
330
AA
100
AcDbEntity
  8
0
  6
Continuous
 62
     7
100
AcDbLine
 10
838.5000000005554
 20
-1343.749999998675
 30
0.0
 11
838.5000000005554
 21
-1344.249999998675
 31
0.0
  0
LINE
  5
2D2
330
AA
100
AcDbEntity
  8
0
  6
Continuous
 62
     7
100
AcDbLine
 10
779.0000000005554
 20
-1343.749999998675
 30
0.0
 11
782.5000000005555
 21
-1343.749999998675
 31
0.0
  0
LINE
  5
2D3
330
AA
100
AcDbEntity
  8
0
  6
Continuous
 62
     7
100
AcDbLine
 10
808.5000000005552
 20
-1343.749999998675
 30
0.0
 11
838.5000000005554
 21
-1343.749999998675
 31
0.0
  0
LINE
  5
2D4
330
AA
100
AcDbEntity
  8
0
  6
Continuous
 62
     7
100
AcDbLine
 10
804.5000000005552
 20
-1343.749999998675
 30
0.0
 11
808.5000000005552
 21
-1343.749999998675
 31
0.0
  0
LINE
  5
2D5
330
AA
100
AcDbEntity
  8
0
  6
Continuous
 62
     7
100
AcDbLine
 10
782.5000000005555
 20
-1343.749999998675
 30
0.0
 11
804.5000000005552
 21
-1343.749999998675
 31
0.0
  0
LINE
  5
2D6
330
AA
100
AcDbEntity
  8
0
  6
Continuous
 62
     7
100
AcDbLine
 10
778.5000000005554
 20
-1284.249999998675
 30
0.0
 11
779.0000000005554
 21
-1284.249999998675
 31
0.0
  0
LINE
  5
2D7
330
AA
100
AcDbEntity
  8
0
  6
Continuous
 62
     7
100
AcDbLine
 10
779.0000000005554
 20
-1284.249999998675
 30
0.0
 11
779.0000000005554
 21
-1343.749999998675
 31
0.0
  0
LINE
  5
2D8
330
AA
100
AcDbEntity
  8
0
  6
Continuous
 62
     7
100
AcDbLine
 10
778.5000000005554
 20
-1343.749999998675
 30
0.0
 11
778.5000000005554
 21
-1284.249999998675
 31
0.0
  0
ARC
  5
2D9
330
AA
100
AcDbEntity
  8
0
  6
Continuous
 62
     7
100
AcDbCircle
 10
779.0000000005554
 20
-1343.749999998675
 30
0.0
 40
0.5
100
AcDbArc
 50
180.0
 51
270.0
  0
ENDBLK
  5
AC
330
AA
100
AcDbEntity
  8
0
100
AcDbBlockEnd
  0
BLOCK
  5
B2
330
AD
100
AcDbEntity
  8
0
100
AcDbBlockBegin
  2
539595H_2018-10-05__15
 70
     0
 10
778.5000000005554
 20
-1344.249999998675
 30
0.0
  3
539595H_2018-10-05__15
  1

  0
INSERT
  5
AE
330
AD
100
AcDbEntity
  8
0
100
AcDbBlockReference
  2
368027497__11
 10
782.5000000005546
 20
-1339.749999998675
 30
0.0
  0
INSERT
  5
AF
330
AD
100
AcDbEntity
  8
0
100
AcDbBlockReference
  2
980057503__12
 10
782.5000000005546
 20
-1343.749999998675
 30
0.0
  0
INSERT
  5
B0
330
AD
100
AcDbEntity
  8
0
100
AcDbBlockReference
  2
976007501_Plan__13
 10
779.0000000005554
 20
-1343.749999998675
 30
0.0
  0
INSERT
  5
B1
330
AD
100
AcDbEntity
  8
0
100
AcDbBlockReference
  2
390997584__14
 10
778.5000000005554
 20
-1344.249999998675
 30
0.0
  0
ENDBLK
  5
B3
330
AD
100
AcDbEntity
  8
0
100
AcDbBlockEnd
  0
BLOCK
  5
B6
330
B4
100
AcDbEntity
  8
0
100
AcDbBlockBegin
  2
HL6700_2-WEB-Zeichnung__16
 70
     0
 10
778.5000000005554
 20
-1344.249999998675
 30
0.0
  3
HL6700_2-WEB-Zeichnung__16
  1

  0
INSERT
  5
B5
330
B4
100
AcDbEntity
  8
0
100
AcDbBlockReference
  2
539595H_2018-10-05__15
 10
778.5000000005554
 20
-1344.249999998675
 30
0.0
  0
ENDBLK
  5
B7
330
B4
100
AcDbEntity
  8
0
100
AcDbBlockEnd
  0
BLOCK
  5
BA
330
B8
100
AcDbEntity
  8
0
100
AcDbBlockBegin
  2
SA_Links1
 70
     0
 10
877.0000000002802
 20
-1308.99999999934
 30
0.0
  3
SA_Links1
  1

  0
INSERT
  5
B9
330
B8
100
AcDbEntity
  8
0
100
AcDbBlockReference
  2
HL6700_2-WEB-Zeichnung__16
 10
778.5000000005554
 20
-1344.249999998675
 30
0.0
  0
MTEXT
  5
2DA
330
B8
100
AcDbEntity
  8
1
 62
     1
100
AcDbMText
 10
877.0000000002802
 20
-1349.24999999934
 30
0.0
 40
3.5
 41
0.0
 71
     2
 72
     1
  1
 
  7
CONVERTER_11
 73
     1
 44
1.32052821128451
  0
DIMENSION
  5
2E7
330
B8
100
AcDbEntity
  8
1
100
AcDbDimension
  2
*D33
 10
1014.85154541362
 20
-1343.749999998674
 30
0.0
 11
987.577913572824
 21
-1234.357577782959
 31
0.0
 70
    32
  1
<>
 71
     5
 42
-1.0
 53
90.0
  3
ME10_DIM_13
100
AcDbAlignedDimension
 13
971.5000000005552
 23
-1323.749999998675
 33
0.0
 14
975.5000000005552
 24
-1343.749999998675
 34
0.0
 50
90.0
100
AcDbRotatedDimension
  0
ENDBLK
  5
BB
330
B8
100
AcDbEntity
  8
0
100
AcDbBlockEnd
  0
BLOCK
  5
BD
330
BC
100
AcDbEntity
  8
0
100
AcDbBlockBegin
  2
390997584_1__17
 70
     0
 10
179.9788840758522
 20
-1344.249999998674
 30
0.0
  3
390997584_1__17
  1

  0
LINE
  5
2E8
330
BC
100
AcDbEntity
  8
0
  6
Continuous
 62
     7
100
AcDbLine
 10
179.9788840758522
 20
-1343.749999998674
 30
0.0
 11
179.9788840758522
 21
-1344.249999998674
 31
0.0
  0
LINE
  5
2E9
330
BC
100
AcDbEntity
  8
0
  6
Continuous
 62
     7
100
AcDbLine
 10
564.9788840758521
 20
-1343.749999998674
 30
0.0
 11
564.9788840758521
 21
-1344.249999998674
 31
0.0
  0
LINE
  5
2EA
330
BC
100
AcDbEntity
  8
0
  6
Continuous
 62
     7
100
AcDbLine
 10
182.4894420382135
 20
-1343.749999998674
 30
0.0
 11
179.9788840758522
 21
-1343.749999998674
 31
0.0
  0
LINE
  5
2EB
330
BC
100
AcDbEntity
  8
0
  6
Continuous
 62
     7
100
AcDbLine
 10
222.4894420382135
 20
-1343.749999998674
 30
0.0
 11
212.4894420382135
 21
-1343.749999998674
 31
0.0
  0
LINE
  5
2EC
330
BC
100
AcDbEntity
  8
0
  6
Continuous
 62
     7
100
AcDbLine
 10
212.4894420382135
 20
-1343.749999998674
 30
0.0
 11
182.4894420382135
 21
-1343.749999998674
 31
0.0
  0
LINE
  5
2ED
330
BC
100
AcDbEntity
  8
0
  6
Continuous
 62
     7
100
AcDbLine
 10
564.9788840758521
 20
-1344.249999998674
 30
0.0
 11
179.9788840758522
 21
-1344.249999998674
 31
0.0
  0
LINE
  5
2EE
330
BC
100
AcDbEntity
  8
0
  6
Continuous
 62
     7
100
AcDbLine
 10
564.9788840758521
 20
-1343.749999998674
 30
0.0
 11
222.4894420382135
 21
-1343.749999998674
 31
0.0
  0
ENDBLK
  5
BE
330
BC
100
AcDbEntity
  8
0
100
AcDbBlockEnd
  0
BLOCK
  5
C0
330
BF
100
AcDbEntity
  8
0
100
AcDbBlockBegin
  2
980057503_1__18
 70
     0
 10
182.4894420382135
 20
-1343.749999998674
 30
0.0
  3
980057503_1__18
  1

  0
LINE
  5
2EF
330
BF
100
AcDbEntity
  8
0
  6
Continuous
 62
     7
100
AcDbLine
 10
432.7394420382135
 20
-1339.749999998674
 30
0.0
 11
588.489442038214
 21
-1339.749999998674
 31
0.0
  0
LINE
  5
2F0
330
BF
100
AcDbEntity
  8
0
  6
Continuous
 62
     7
100
AcDbLine
 10
600.489442038214
 20
-1339.749999998674
 30
0.0
 11
602.489442038214
 21
-1339.749999998674
 31
0.0
  0
LINE
  5
2F1
330
BF
100
AcDbEntity
  8
0
  6
Continuous
 62
     7
100
AcDbLine
 10
628.489442038214
 20
-1339.749999998674
 30
0.0
 11
602.489442038214
 21
-1339.749999998674
 31
0.0
  0
LINE
  5
2F2
330
BF
100
AcDbEntity
  8
0
  6
Continuous
 62
     7
100
AcDbLine
 10
592.489442038214
 20
-1339.749999998674
 30
0.0
 11
597.822775371547
 21
-1339.749999998674
 31
0.0
  0
LINE
  5
2F3
330
BF
100
AcDbEntity
  8
0
  6
Continuous
 62
     7
100
AcDbLine
 10
564.9788840758521
 20
-1343.749999998674
 30
0.0
 11
592.489442038214
 21
-1343.749999998674
 31
0.0
  0
LINE
  5
2F4
330
BF
100
AcDbEntity
  8
0
  6
Continuous
 62
     7
100
AcDbLine
 10
592.489442038214
 20
-1343.749999998674
 30
0.0
 11
592.489442038214
 21
-1339.749999998674
 31
0.0
  0
LINE
  5
2F5
330
BF
100
AcDbEntity
  8
0
  6
Continuous
 62
     7
100
AcDbLine
 10
597.822775371547
 20
-1339.749999998674
 30
0.0
 11
600.489442038214
 21
-1339.749999998674
 31
0.0
  0
LINE
  5
2F6
330
BF
100
AcDbEntity
  8
0
  6
Continuous
 62
     7
100
AcDbLine
 10
632.489442038214
 20
-1339.749999998674
 30
0.0
 11
628.489442038214
 21
-1339.749999998674
 31
0.0
  0
LINE
  5
2F7
330
BF
100
AcDbEntity
  8
0
  6
Continuous
 62
     7
100
AcDbLine
 10
602.489442038214
 20
-1343.749999998674
 30
0.0
 11
592.489442038214
 21
-1343.749999998674
 31
0.0
  0
LINE
  5
2F8
330
BF
100
AcDbEntity
  8
0
  6
Continuous
 62
     7
100
AcDbLine
 10
632.489442038214
 20
-1343.749999998674
 30
0.0
 11
632.489442038214
 21
-1339.749999998674
 31
0.0
  0
LINE
  5
2F9
330
BF
100
AcDbEntity
  8
0
  6
Continuous
 62
     7
100
AcDbLine
 10
602.489442038214
 20
-1343.749999998674
 30
0.0
 11
632.489442038214
 21
-1343.749999998674
 31
0.0
  0
LINE
  5
2FA
330
BF
100
AcDbEntity
  8
0
  6
Continuous
 62
     3
100
AcDbLine
 10
602.489442038214
 20
-1339.749999998674
 30
0.0
 11
602.489442038214
 21
-1343.749999998674
 31
0.0
  0
LINE
  5
2FB
330
BF
100
AcDbEntity
  8
0
  6
Continuous
 62
     7
100
AcDbLine
 10
217.1561087048801
 20
-1339.749999998674
 30
0.0
 11
222.4894420382135
 21
-1339.749999998674
 31
0.0
  0
LINE
  5
2FC
330
BF
100
AcDbEntity
  8
0
  6
Continuous
 62
     7
100
AcDbLine
 10
212.4894420382135
 20
-1339.749999998674
 30
0.0
 11
186.4894420382135
 21
-1339.749999998674
 31
0.0
  0
LINE
  5
2FD
330
BF
100
AcDbEntity
  8
0
  6
Continuous
 62
     7
100
AcDbLine
 10
222.4894420382135
 20
-1343.749999998674
 30
0.0
 11
222.4894420382135
 21
-1339.749999998674
 31
0.0
  0
LINE
  5
2FE
330
BF
100
AcDbEntity
  8
0
  6
Continuous
 62
     3
100
AcDbLine
 10
212.4894420382135
 20
-1343.749999998674
 30
0.0
 11
212.4894420382135
 21
-1339.749999998674
 31
0.0
  0
LINE
  5
2FF
330
BF
100
AcDbEntity
  8
0
  6
Continuous
 62
     7
100
AcDbLine
 10
390.2394420382135
 20
-1339.749999998674
 30
0.0
 11
424.7394420382135
 21
-1339.749999998674
 31
0.0
  0
LINE
  5
300
330
BF
100
AcDbEntity
  8
0
  6
Continuous
 62
     7
100
AcDbLine
 10
226.4894420382137
 20
-1339.749999998674
 30
0.0
 11
382.2394420382135
 21
-1339.749999998674
 31
0.0
  0
LINE
  5
301
330
BF
100
AcDbEntity
  8
0
  6
Continuous
 62
     7
100
AcDbLine
 10
212.4894420382135
 20
-1339.749999998674
 30
0.0
 11
214.4894420382134
 21
-1339.749999998674
 31
0.0
  0
LINE
  5
302
330
BF
100
AcDbEntity
  8
0
  6
Continuous
 62
     7
100
AcDbLine
 10
182.4894420382135
 20
-1343.749999998674
 30
0.0
 11
182.4894420382135
 21
-1339.749999998674
 31
0.0
  0
LINE
  5
303
330
BF
100
AcDbEntity
  8
0
  6
Continuous
 62
     7
100
AcDbLine
 10
186.4894420382135
 20
-1339.749999998674
 30
0.0
 11
182.4894420382135
 21
-1339.749999998674
 31
0.0
  0
LINE
  5
304
330
BF
100
AcDbEntity
  8
0
  6
Continuous
 62
     7
100
AcDbLine
 10
428.7394420382135
 20
-1339.749999998674
 30
0.0
 11
432.7394420382135
 21
-1339.749999998674
 31
0.0
  0
LINE
  5
305
330
BF
100
AcDbEntity
  8
0
  6
Continuous
 62
     7
100
AcDbLine
 10
588.489442038214
 20
-1339.749999998674
 30
0.0
 11
592.489442038214
 21
-1339.749999998674
 31
0.0
  0
LINE
  5
306
330
BF
100
AcDbEntity
  8
0
  6
Continuous
 62
     7
100
AcDbLine
 10
382.2394420382135
 20
-1339.749999998674
 30
0.0
 11
386.2394420382135
 21
-1339.749999998674
 31
0.0
  0
LINE
  5
307
330
BF
100
AcDbEntity
  8
0
  6
Continuous
 62
     7
100
AcDbLine
 10
386.2394420382135
 20
-1339.749999998674
 30
0.0
 11
390.2394420382135
 21
-1339.749999998674
 31
0.0
  0
LINE
  5
308
330
BF
100
AcDbEntity
  8
0
  6
Continuous
 62
     7
100
AcDbLine
 10
424.7394420382135
 20
-1339.749999998674
 30
0.0
 11
428.7394420382135
 21
-1339.749999998674
 31
0.0
  0
LINE
  5
309
330
BF
100
AcDbEntity
  8
0
  6
Continuous
 62
     7
100
AcDbLine
 10
214.4894420382134
 20
-1339.749999998674
 30
0.0
 11
217.1561087048801
 21
-1339.749999998674
 31
0.0
  0
LINE
  5
30A
330
BF
100
AcDbEntity
  8
0
  6
Continuous
 62
     7
100
AcDbLine
 10
222.4894420382135
 20
-1339.749999998674
 30
0.0
 11
226.4894420382137
 21
-1339.749999998674
 31
0.0
  0
LINE
  5
30B
330
BF
100
AcDbEntity
  8
0
  6
Continuous
 62
     7
100
AcDbLine
 10
222.4894420382135
 20
-1343.749999998674
 30
0.0
 11
212.4894420382135
 21
-1343.749999998674
 31
0.0
  0
LINE
  5
30C
330
BF
100
AcDbEntity
  8
0
  6
Continuous
 62
     7
100
AcDbLine
 10
212.4894420382135
 20
-1343.749999998674
 30
0.0
 11
182.4894420382135
 21
-1343.749999998674
 31
0.0
  0
LINE
  5
30D
330
BF
100
AcDbEntity
  8
0
  6
Continuous
 62
     7
100
AcDbLine
 10
564.9788840758521
 20
-1343.749999998674
 30
0.0
 11
222.4894420382135
 21
-1343.749999998674
 31
0.0
  0
ENDBLK
  5
C1
330
BF
100
AcDbEntity
  8
0
100
AcDbBlockEnd
  0
BLOCK
  5
C3
330
C2
100
AcDbEntity
  8
0
100
AcDbBlockBegin
  2
368027497_1__19
 70
     0
 10
182.4894420382135
 20
-1339.749999998674
 30
0.0
  3
368027497_1__19
  1

  0
LINE
  5
30E
330
C2
100
AcDbEntity
  8
0
  6
Continuous
 62
     7
100
AcDbLine
 10
386.4894420382135
 20
-1312.249999998674
 30
0.0
 11
386.4894420382135
 21
-1293.249999998674
 31
0.0
  0
LINE
  5
30F
330
C2
100
AcDbEntity
  8
0
  6
Continuous
 62
     7
100
AcDbLine
 10
232.4894420382136
 20
-1323.749999998674
 30
0.0
 11
381.2394420382135
 21
-1323.749999998674
 31
0.0
  0
LINE
  5
310
330
C2
100
AcDbEntity
  8
0
  6
Continuous
 62
     3
100
AcDbLine
 10
382.2394420382135
 20
-1339.749999998674
 30
0.0
 11
382.2394420382135
 21
-1325.482050806243
 31
0.0
  0
LINE
  5
311
330
C2
100
AcDbEntity
  8
0
  6
Continuous
 62
     3
100
AcDbLine
 10
382.4894420382135
 20
-1312.249999998674
 30
0.0
 11
382.4894420382135
 21
-1293.249999998674
 31
0.0
  0
LINE
  5
312
330
C2
100
AcDbEntity
  8
0
  6
Continuous
 62
     3
100
AcDbLine
 10
226.4894420382137
 20
-1323.749999998674
 30
0.0
 11
226.4894420382137
 21
-1339.749999998674
 31
0.0
  0
LINE
  5
313
330
C2
100
AcDbEntity
  8
0
  6
Continuous
 62
     7
100
AcDbLine
 10
226.4894420382137
 20
-1323.749999998674
 30
0.0
 11
232.4894420382136
 21
-1323.749999998674
 31
0.0
  0
LINE
  5
314
330
C2
100
AcDbEntity
  8
0
  6
Continuous
 62
     7
100
AcDbLine
 10
224.4663046215093
 20
-1296.749999998674
 30
0.0
 11
224.4663046215093
 21
-1293.249999998674
 31
0.0
  0
LINE
  5
315
330
C2
100
AcDbEntity
  8
0
  6
Continuous
 62
     7
100
AcDbLine
 10
224.4663046215093
 20
-1296.749999998674
 30
0.0
 11
228.5053843870529
 21
-1296.749999998674
 31
0.0
  0
LINE
  5
316
330
C2
100
AcDbEntity
  8
0
  6
Continuous
 62
     7
100
AcDbLine
 10
228.5053843870529
 20
-1296.749999998674
 30
0.0
 11
228.5053843870529
 21
-1293.249999998674
 31
0.0
  0
LINE
  5
317
330
C2
100
AcDbEntity
  8
0
  6
Continuous
 62
     7
100
AcDbLine
 10
212.4894420382136
 20
-1323.749999998674
 30
0.0
 11
222.4894420382137
 21
-1323.749999998674
 31
0.0
  0
LINE
  5
318
330
C2
100
AcDbEntity
  8
0
  6
Continuous
 62
     7
100
AcDbLine
 10
222.4894420382137
 20
-1323.749999998674
 30
0.0
 11
222.4894420382136
 21
-1293.249999998674
 31
0.0
  0
LINE
  5
319
330
C2
100
AcDbEntity
  8
0
  6
Continuous
 62
     7
100
AcDbLine
 10
215.9548463819219
 20
-1296.749999998674
 30
0.0
 11
217.1561087048801
 21
-1296.749999998674
 31
0.0
  0
LINE
  5
31A
330
C2
100
AcDbEntity
  8
0
  6
Continuous
 62
     3
100
AcDbLine
 10
212.4894420382136
 20
-1323.749999998674
 30
0.0
 11
212.4894420382135
 21
-1339.749999998674
 31
0.0
  0
LINE
  5
31B
330
C2
100
AcDbEntity
  8
0
  6
Continuous
 62
     3
100
AcDbLine
 10
186.4894420382135
 20
-1323.749999998674
 30
0.0
 11
186.4894420382135
 21
-1339.749999998674
 31
0.0
  0
LINE
  5
31C
330
C2
100
AcDbEntity
  8
0
  6
Continuous
 62
     7
100
AcDbLine
 10
215.9548463819219
 20
-1293.249999998674
 30
0.0
 11
215.9548463819219
 21
-1296.749999998674
 31
0.0
  0
LINE
  5
31D
330
C2
100
AcDbEntity
  8
0
  6
Continuous
 62
     7
100
AcDbLine
 10
222.338940790103
 20
-1296.749999998674
 30
0.0
 11
222.338940790103
 21
-1293.249999998674
 31
0.0
  0
LINE
  5
31E
330
C2
100
AcDbEntity
  8
0
  6
Continuous
 62
     7
100
AcDbLine
 10
217.1561087048801
 20
-1296.749999998674
 30
0.0
 11
222.338940790103
 21
-1296.749999998674
 31
0.0
  0
LINE
  5
31F
330
C2
100
AcDbEntity
  8
0
  6
Continuous
 62
     7
100
AcDbLine
 10
186.4894420382135
 20
-1323.749999998674
 30
0.0
 11
212.4894420382136
 21
-1323.749999998674
 31
0.0
  0
LINE
  5
320
330
C2
100
AcDbEntity
  8
0
  6
Continuous
 62
     3
100
AcDbLine
 10
217.1561087048801
 20
-1296.749999998674
 30
0.0
 11
217.1561087048801
 21
-1323.749999998674
 31
0.0
  0
LINE
  5
321
330
C2
100
AcDbEntity
  8
0
  6
Continuous
 62
     3
100
AcDbLine
 10
232.4894420382136
 20
-1323.749999998674
 30
0.0
 11
232.4894420382136
 21
-1293.249999998674
 31
0.0
  0
LINE
  5
322
330
C2
100
AcDbEntity
  8
0
  6
Continuous
 62
     7
100
AcDbLine
 10
382.2394420382135
 20
-1325.482050806243
 30
0.0
 11
381.2394420382135
 21
-1323.749999998674
 31
0.0
  0
LINE
  5
323
330
C2
100
AcDbEntity
  8
0
  6
Continuous
 62
     7
100
AcDbLine
 10
214.4894420382134
 20
-1323.749999998674
 30
0.0
 11
214.4894420382134
 21
-1293.249999998674
 31
0.0
  0
LINE
  5
324
330
C2
100
AcDbEntity
  8
0
  6
Continuous
 62
     7
100
AcDbLine
 10
428.4894420382135
 20
-1293.249999998674
 30
0.0
 11
428.4894420382135
 21
-1312.249999998674
 31
0.0
  0
LINE
  5
325
330
C2
100
AcDbEntity
  8
0
  6
Continuous
 62
     3
100
AcDbLine
 10
432.7394420382135
 20
-1325.482050806243
 30
0.0
 11
432.7394420382135
 21
-1339.749999998674
 31
0.0
  0
LINE
  5
326
330
C2
100
AcDbEntity
  8
0
  6
Continuous
 62
     7
100
AcDbLine
 10
432.7394420382135
 20
-1339.749999998674
 30
0.0
 11
588.489442038214
 21
-1339.749999998674
 31
0.0
  0
LINE
  5
327
330
C2
100
AcDbEntity
  8
0
  6
Continuous
 62
     7
100
AcDbLine
 10
433.7394420382136
 20
-1323.749999998674
 30
0.0
 11
582.489442038214
 21
-1323.749999998674
 31
0.0
  0
LINE
  5
328
330
C2
100
AcDbEntity
  8
0
  6
Continuous
 62
     3
100
AcDbLine
 10
432.4894420382135
 20
-1293.249999998674
 30
0.0
 11
432.4894420382135
 21
-1312.249999998674
 31
0.0
  0
LINE
  5
329
330
C2
100
AcDbEntity
  8
0
  6
Continuous
 62
     3
100
AcDbLine
 10
628.489442038214
 20
-1339.749999998674
 30
0.0
 11
628.489442038214
 21
-1323.749999998674
 31
0.0
  0
LINE
  5
32A
330
C2
100
AcDbEntity
  8
0
  6
Continuous
 62
     3
100
AcDbLine
 10
602.489442038214
 20
-1323.749999998674
 30
0.0
 11
602.489442038214
 21
-1339.749999998674
 31
0.0
  0
LINE
  5
32B
330
C2
100
AcDbEntity
  8
0
  6
Continuous
 62
     7
100
AcDbLine
 10
602.489442038214
 20
-1323.749999998674
 30
0.0
 11
628.489442038214
 21
-1323.749999998674
 31
0.0
  0
LINE
  5
32C
330
C2
100
AcDbEntity
  8
0
  6
Continuous
 62
     7
100
AcDbLine
 10
632.489442038214
 20
-1339.749999998674
 30
0.0
 11
632.489442038214
 21
-1323.749999998674
 31
0.0
  0
LINE
  5
32D
330
C2
100
AcDbEntity
  8
0
  6
Continuous
 62
     7
100
AcDbLine
 10
600.489442038214
 20
-1339.749999998674
 30
0.0
 11
602.489442038214
 21
-1339.749999998674
 31
0.0
  0
LINE
  5
32E
330
C2
100
AcDbEntity
  8
0
  6
Continuous
 62
     7
100
AcDbLine
 10
628.489442038214
 20
-1339.749999998674
 30
0.0
 11
602.489442038214
 21
-1339.749999998674
 31
0.0
  0
LINE
  5
32F
330
C2
100
AcDbEntity
  8
0
  6
Continuous
 62
     7
100
AcDbLine
 10
599.024037694505
 20
-1296.749999998674
 30
0.0
 11
599.024037694505
 21
-1293.249999998674
 31
0.0
  0
LINE
  5
330
330
C2
100
AcDbEntity
  8
0
  6
Continuous
 62
     7
100
AcDbLine
 10
592.489442038214
 20
-1339.749999998674
 30
0.0
 11
597.822775371547
 21
-1339.749999998674
 31
0.0
  0
LINE
  5
331
330
C2
100
AcDbEntity
  8
0
  6
Continuous
 62
     7
100
AcDbLine
 10
597.822775371547
 20
-1296.749999998674
 30
0.0
 11
592.639943286324
 21
-1296.749999998674
 31
0.0
  0
LINE
  5
332
330
C2
100
AcDbEntity
  8
0
  6
Continuous
 62
     7
100
AcDbLine
 10
597.822775371547
 20
-1296.749999998674
 30
0.0
 11
599.024037694505
 21
-1296.749999998674
 31
0.0
  0
LINE
  5
333
330
C2
100
AcDbEntity
  8
0
  6
Continuous
 62
     7
100
AcDbLine
 10
592.489442038214
 20
-1323.749999998674
 30
0.0
 11
602.489442038214
 21
-1323.749999998674
 31
0.0
  0
LINE
  5
334
330
C2
100
AcDbEntity
  8
0
  6
Continuous
 62
     7
100
AcDbLine
 10
628.489442038214
 20
-1323.749999998674
 30
0.0
 11
632.489442038214
 21
-1323.749999998674
 31
0.0
  0
LINE
  5
335
330
C2
100
AcDbEntity
  8
0
  6
Continuous
 62
     7
100
AcDbLine
 10
592.639943286324
 20
-1296.749999998674
 30
0.0
 11
592.639943286324
 21
-1293.249999998674
 31
0.0
  0
LINE
  5
336
330
C2
100
AcDbEntity
  8
0
  6
Continuous
 62
     7
100
AcDbLine
 10
592.489442038214
 20
-1339.749999998674
 30
0.0
 11
592.489442038214
 21
-1323.749999998674
 31
0.0
  0
LINE
  5
337
330
C2
100
AcDbEntity
  8
0
  6
Continuous
 62
     7
100
AcDbLine
 10
592.489442038214
 20
-1323.749999998674
 30
0.0
 11
592.489442038214
 21
-1293.249999998674
 31
0.0
  0
LINE
  5
338
330
C2
100
AcDbEntity
  8
0
  6
Continuous
 62
     3
100
AcDbLine
 10
597.822775371547
 20
-1323.749999998674
 30
0.0
 11
597.822775371547
 21
-1296.749999998674
 31
0.0
  0
LINE
  5
339
330
C2
100
AcDbEntity
  8
0
  6
Continuous
 62
     7
100
AcDbLine
 10
582.489442038214
 20
-1323.749999998674
 30
0.0
 11
588.489442038214
 21
-1323.749999998674
 31
0.0
  0
LINE
  5
33A
330
C2
100
AcDbEntity
  8
0
  6
Continuous
 62
     3
100
AcDbLine
 10
588.489442038214
 20
-1339.749999998674
 30
0.0
 11
588.489442038214
 21
-1323.749999998674
 31
0.0
  0
LINE
  5
33B
330
C2
100
AcDbEntity
  8
0
  6
Continuous
 62
     3
100
AcDbLine
 10
582.489442038214
 20
-1323.749999998674
 30
0.0
 11
582.489442038214
 21
-1293.249999998674
 31
0.0
  0
LINE
  5
33C
330
C2
100
AcDbEntity
  8
0
  6
Continuous
 62
     7
100
AcDbLine
 10
586.4734996893741
 20
-1296.749999998674
 30
0.0
 11
586.4734996893741
 21
-1293.249999998674
 31
0.0
  0
LINE
  5
33D
330
C2
100
AcDbEntity
  8
0
  6
Continuous
 62
     7
100
AcDbLine
 10
590.512579454918
 20
-1296.749999998674
 30
0.0
 11
586.4734996893741
 21
-1296.749999998674
 31
0.0
  0
LINE
  5
33E
330
C2
100
AcDbEntity
  8
0
  6
Continuous
 62
     7
100
AcDbLine
 10
590.512579454918
 20
-1296.749999998674
 30
0.0
 11
590.512579454918
 21
-1293.249999998674
 31
0.0
  0
LINE
  5
33F
330
C2
100
AcDbEntity
  8
0
  6
Continuous
 62
     7
100
AcDbLine
 10
433.7394420382136
 20
-1323.749999998674
 30
0.0
 11
432.7394420382135
 21
-1325.482050806243
 31
0.0
  0
LINE
  5
340
330
C2
100
AcDbEntity
  8
0
  6
Continuous
 62
     7
100
AcDbLine
 10
600.489442038214
 20
-1323.749999998674
 30
0.0
 11
600.489442038214
 21
-1293.249999998674
 31
0.0
  0
LINE
  5
341
330
C2
100
AcDbEntity
  8
0
  6
Continuous
 62
     7
100
AcDbLine
 10
597.822775371547
 20
-1339.749999998674
 30
0.0
 11
600.489442038214
 21
-1339.749999998674
 31
0.0
  0
LINE
  5
342
330
C2
100
AcDbEntity
  8
0
  6
Continuous
 62
     7
100
AcDbLine
 10
632.489442038214
 20
-1339.749999998674
 30
0.0
 11
628.489442038214
 21
-1339.749999998674
 31
0.0
  0
LINE
  5
343
330
C2
100
AcDbEntity
  8
0
  6
Continuous
 62
     7
100
AcDbLine
 10
217.1561087048801
 20
-1339.749999998674
 30
0.0
 11
222.4894420382135
 21
-1339.749999998674
 31
0.0
  0
LINE
  5
344
330
C2
100
AcDbEntity
  8
0
  6
Continuous
 62
     7
100
AcDbLine
 10
212.4894420382135
 20
-1339.749999998674
 30
0.0
 11
186.4894420382135
 21
-1339.749999998674
 31
0.0
  0
LINE
  5
345
330
C2
100
AcDbEntity
  8
0
  6
Continuous
 62
     7
100
AcDbLine
 10
390.2394420382135
 20
-1339.749999998674
 30
0.0
 11
424.7394420382135
 21
-1339.749999998674
 31
0.0
  0
LINE
  5
346
330
C2
100
AcDbEntity
  8
0
  6
Continuous
 62
     7
100
AcDbLine
 10
226.4894420382137
 20
-1339.749999998674
 30
0.0
 11
382.2394420382135
 21
-1339.749999998674
 31
0.0
  0
LINE
  5
347
330
C2
100
AcDbEntity
  8
0
  6
Continuous
 62
     3
100
AcDbLine
 10
386.4894420382135
 20
-1312.249999998674
 30
0.0
 11
382.4894420382135
 21
-1312.249999998674
 31
0.0
  0
LINE
  5
348
330
C2
100
AcDbEntity
  8
0
  6
Continuous
 62
     3
100
AcDbLine
 10
432.4894420382135
 20
-1312.249999998674
 30
0.0
 11
428.4894420382135
 21
-1312.249999998674
 31
0.0
  0
LINE
  5
349
330
C2
100
AcDbEntity
  8
0
  6
Continuous
 62
     7
100
AcDbLine
 10
212.4894420382135
 20
-1339.749999998674
 30
0.0
 11
214.4894420382134
 21
-1339.749999998674
 31
0.0
  0
LINE
  5
34A
330
C2
100
AcDbEntity
  8
0
  6
Continuous
 62
     7
100
AcDbLine
 10
222.4894420382137
 20
-1323.749999998674
 30
0.0
 11
222.4894420382135
 21
-1339.749999998674
 31
0.0
  0
LINE
  5
34B
330
C2
100
AcDbEntity
  8
0
  6
Continuous
 62
     7
100
AcDbLine
 10
385.2914691577904
 20
-1323.749999998674
 30
0.0
 11
389.918158647408
 21
-1323.749999998674
 31
0.0
  0
LINE
  5
34C
330
C2
100
AcDbEntity
  8
0
  6
Continuous
 62
     7
100
AcDbLine
 10
222.4894420382137
 20
-1323.749999998674
 30
0.0
 11
226.4894420382137
 21
-1323.749999998674
 31
0.0
  0
LINE
  5
34D
330
C2
100
AcDbEntity
  8
0
  6
Continuous
 62
     7
100
AcDbLine
 10
182.4894420382135
 20
-1323.749999998674
 30
0.0
 11
186.4894420382135
 21
-1323.749999998674
 31
0.0
  0
LINE
  5
34E
330
C2
100
AcDbEntity
  8
0
  6
Continuous
 62
     7
100
AcDbLine
 10
186.4894420382135
 20
-1339.749999998674
 30
0.0
 11
182.4894420382135
 21
-1339.749999998674
 31
0.0
  0
LINE
  5
34F
330
C2
100
AcDbEntity
  8
0
  6
Continuous
 62
     7
100
AcDbLine
 10
182.4894420382135
 20
-1323.749999998674
 30
0.0
 11
182.4894420382135
 21
-1339.749999998674
 31
0.0
  0
LINE
  5
350
330
C2
100
AcDbEntity
  8
0
  6
Continuous
 62
     7
100
AcDbLine
 10
381.2394420382135
 20
-1323.749999998674
 30
0.0
 11
385.2914691577904
 21
-1323.749999998674
 31
0.0
  0
LINE
  5
351
330
C2
100
AcDbEntity
  8
0
  6
Continuous
 62
     7
100
AcDbLine
 10
382.2394420382135
 20
-1325.482050806243
 30
0.0
 11
386.2394420382135
 21
-1332.410254036518
 31
0.0
  0
LINE
  5
352
330
C2
100
AcDbEntity
  8
0
  6
Continuous
 62
     7
100
AcDbLine
 10
386.2394420382135
 20
-1339.749999998674
 30
0.0
 11
386.2394420382135
 21
-1332.410254036518
 31
0.0
  0
LINE
  5
353
330
C2
100
AcDbEntity
  8
0
  6
Continuous
 62
     3
100
AcDbLine
 10
390.2394420382135
 20
-1339.338457266794
 30
0.0
 11
390.2394420382135
 21
-1339.749999998674
 31
0.0
  0
LINE
  5
354
330
C2
100
AcDbEntity
  8
0
  6
Continuous
 62
     7
100
AcDbLine
 10
386.2394420382135
 20
-1332.410254036518
 30
0.0
 11
390.2394420382135
 21
-1339.338457266794
 31
0.0
  0
LINE
  5
355
330
C2
100
AcDbEntity
  8
0
  6
Continuous
 62
     7
100
AcDbLine
 10
425.060725429019
 20
-1323.749999998674
 30
0.0
 11
429.6874149186366
 21
-1323.749999998674
 31
0.0
  0
LINE
  5
356
330
C2
100
AcDbEntity
  8
0
  6
Continuous
 62
     7
100
AcDbLine
 10
424.7394420382135
 20
-1339.338457266794
 30
0.0
 11
428.7394420382135
 21
-1332.410254036518
 31
0.0
  0
LINE
  5
357
330
C2
100
AcDbEntity
  8
0
  6
Continuous
 62
     7
100
AcDbLine
 10
428.7394420382135
 20
-1332.410254036518
 30
0.0
 11
432.7394420382135
 21
-1325.482050806243
 31
0.0
  0
LINE
  5
358
330
C2
100
AcDbEntity
  8
0
  6
Continuous
 62
     7
100
AcDbLine
 10
428.7394420382135
 20
-1339.749999998674
 30
0.0
 11
428.7394420382135
 21
-1332.410254036518
 31
0.0
  0
LINE
  5
359
330
C2
100
AcDbEntity
  8
0
  6
Continuous
 62
     3
100
AcDbLine
 10
424.7394420382135
 20
-1339.749999998674
 30
0.0
 11
424.7394420382135
 21
-1339.338457266794
 31
0.0
  0
LINE
  5
35A
330
C2
100
AcDbEntity
  8
0
  6
Continuous
 62
     7
100
AcDbLine
 10
429.6874149186366
 20
-1323.749999998674
 30
0.0
 11
433.7394420382136
 21
-1323.749999998674
 31
0.0
  0
LINE
  5
35B
330
C2
100
AcDbEntity
  8
0
  6
Continuous
 62
     7
100
AcDbLine
 10
588.489442038214
 20
-1323.749999998674
 30
0.0
 11
592.489442038214
 21
-1323.749999998674
 31
0.0
  0
LINE
  5
35C
330
C2
100
AcDbEntity
  8
0
  6
Continuous
 62
     7
100
AcDbLine
 10
428.7394420382135
 20
-1339.749999998674
 30
0.0
 11
432.7394420382135
 21
-1339.749999998674
 31
0.0
  0
LINE
  5
35D
330
C2
100
AcDbEntity
  8
0
  6
Continuous
 62
     7
100
AcDbLine
 10
588.489442038214
 20
-1339.749999998674
 30
0.0
 11
592.489442038214
 21
-1339.749999998674
 31
0.0
  0
LINE
  5
35E
330
C2
100
AcDbEntity
  8
0
  6
Continuous
 62
     7
100
AcDbLine
 10
382.2394420382135
 20
-1339.749999998674
 30
0.0
 11
386.2394420382135
 21
-1339.749999998674
 31
0.0
  0
LINE
  5
35F
330
C2
100
AcDbEntity
  8
0
  6
Continuous
 62
     7
100
AcDbLine
 10
386.2394420382135
 20
-1339.749999998674
 30
0.0
 11
390.2394420382135
 21
-1339.749999998674
 31
0.0
  0
LINE
  5
360
330
C2
100
AcDbEntity
  8
0
  6
Continuous
 62
     7
100
AcDbLine
 10
424.7394420382135
 20
-1339.749999998674
 30
0.0
 11
428.7394420382135
 21
-1339.749999998674
 31
0.0
  0
LINE
  5
361
330
C2
100
AcDbEntity
  8
0
  6
Continuous
 62
     7
100
AcDbLine
 10
214.4894420382134
 20
-1339.749999998674
 30
0.0
 11
217.1561087048801
 21
-1339.749999998674
 31
0.0
  0
LINE
  5
362
330
C2
100
AcDbEntity
  8
0
  6
Continuous
 62
     7
100
AcDbLine
 10
222.4894420382135
 20
-1339.749999998674
 30
0.0
 11
226.4894420382137
 21
-1339.749999998674
 31
0.0
  0
LINE
  5
363
330
C2
100
AcDbEntity
  8
0
  6
Continuous
 62
     7
100
AcDbLine
 10
599.024037694505
 20
-1293.249999998674
 30
0.0
 11
600.489442038214
 21
-1293.249999998674
 31
0.0
  0
LINE
  5
364
330
C2
100
AcDbEntity
  8
0
  6
Continuous
 62
     7
100
AcDbLine
 10
592.489442038214
 20
-1293.249999998674
 30
0.0
 11
592.639943286324
 21
-1293.249999998674
 31
0.0
  0
LINE
  5
365
330
C2
100
AcDbEntity
  8
0
  6
Continuous
 62
     7
100
AcDbLine
 10
590.512579454918
 20
-1293.249999998674
 30
0.0
 11
592.489442038214
 21
-1293.249999998674
 31
0.0
  0
LINE
  5
366
330
C2
100
AcDbEntity
  8
0
  6
Continuous
 62
     7
100
AcDbLine
 10
592.639943286324
 20
-1293.249999998674
 30
0.0
 11
599.024037694505
 21
-1293.249999998674
 31
0.0
  0
LINE
  5
367
330
C2
100
AcDbEntity
  8
0
  6
Continuous
 62
     7
100
AcDbLine
 10
590.512579454918
 20
-1293.249999998674
 30
0.0
 11
586.4734996893741
 21
-1293.249999998674
 31
0.0
  0
LINE
  5
368
330
C2
100
AcDbEntity
  8
0
  6
Continuous
 62
     7
100
AcDbLine
 10
432.4894420382135
 20
-1293.249999998674
 30
0.0
 11
582.489442038214
 21
-1293.249999998674
 31
0.0
  0
LINE
  5
369
330
C2
100
AcDbEntity
  8
0
  6
Continuous
 62
     7
100
AcDbLine
 10
582.489442038214
 20
-1293.249999998674
 30
0.0
 11
586.4734996893741
 21
-1293.249999998674
 31
0.0
  0
LINE
  5
36A
330
C2
100
AcDbEntity
  8
0
  6
Continuous
 62
     7
100
AcDbLine
 10
382.4894420382135
 20
-1293.249999998674
 30
0.0
 11
386.4894420382135
 21
-1293.249999998674
 31
0.0
  0
LINE
  5
36B
330
C2
100
AcDbEntity
  8
0
  6
Continuous
 62
     7
100
AcDbLine
 10
428.4894420382135
 20
-1293.249999998674
 30
0.0
 11
432.4894420382135
 21
-1293.249999998674
 31
0.0
  0
LINE
  5
36C
330
C2
100
AcDbEntity
  8
0
  6
Continuous
 62
     7
100
AcDbLine
 10
232.4894420382136
 20
-1293.249999998674
 30
0.0
 11
382.4894420382135
 21
-1293.249999998674
 31
0.0
  0
LINE
  5
36D
330
C2
100
AcDbEntity
  8
0
  6
Continuous
 62
     7
100
AcDbLine
 10
228.5053843870529
 20
-1293.249999998674
 30
0.0
 11
232.4894420382136
 21
-1293.249999998674
 31
0.0
  0
LINE
  5
36E
330
C2
100
AcDbEntity
  8
0
  6
Continuous
 62
     7
100
AcDbLine
 10
214.4894420382134
 20
-1293.249999998674
 30
0.0
 11
215.9548463819219
 21
-1293.249999998674
 31
0.0
  0
LINE
  5
36F
330
C2
100
AcDbEntity
  8
0
  6
Continuous
 62
     7
100
AcDbLine
 10
222.338940790103
 20
-1293.249999998674
 30
0.0
 11
222.4894420382136
 21
-1293.249999998674
 31
0.0
  0
LINE
  5
370
330
C2
100
AcDbEntity
  8
0
  6
Continuous
 62
     7
100
AcDbLine
 10
222.338940790103
 20
-1293.249999998674
 30
0.0
 11
215.9548463819219
 21
-1293.249999998674
 31
0.0
  0
LINE
  5
371
330
C2
100
AcDbEntity
  8
0
  6
Continuous
 62
     7
100
AcDbLine
 10
222.4894420382136
 20
-1293.249999998674
 30
0.0
 11
224.4663046215093
 21
-1293.249999998674
 31
0.0
  0
LINE
  5
372
330
C2
100
AcDbEntity
  8
0
  6
Continuous
 62
     7
100
AcDbLine
 10
228.5053843870529
 20
-1293.249999998674
 30
0.0
 11
224.4663046215093
 21
-1293.249999998674
 31
0.0
  0
LINE
  5
373
330
C2
100
AcDbEntity
  8
1
  6
DOT_CENTER
 62
     2
100
AcDbLine
 10
407.4894420382135
 20
-1312.249999998675
 30
0.0
 11
407.4894420382135
 21
-1293.249999998675
 31
0.0
  0
ARC
  5
374
330
C2
100
AcDbEntity
  8
0
  6
Continuous
 62
     7
100
AcDbCircle
 10
407.4894420382135
 20
-1312.249999998674
 30
0.0
 40
21.0
100
AcDbArc
 50
180.0
 51
213.2038225299704
  0
ARC
  5
375
330
C2
100
AcDbEntity
  8
0
  6
Continuous
 62
     7
100
AcDbCircle
 10
407.4894420382135
 20
-1312.249999998674
 30
0.0
 40
20.99999999999993
100
AcDbArc
 50
326.7961774700296
 51
0.0
  0
ARC
  5
376
330
C2
100
AcDbEntity
  8
0
  6
Continuous
 62
     3
100
AcDbCircle
 10
407.4894420382135
 20
-1312.249999998674
 30
0.0
 40
24.99999999999998
100
AcDbArc
 50
332.6128924973461
 51
0.0
  0
ARC
  5
377
330
C2
100
AcDbEntity
  8
0
  6
Continuous
 62
     3
100
AcDbCircle
 10
407.4894420382135
 20
-1312.249999998674
 30
0.0
 40
25.0
100
AcDbArc
 50
180.0
 51
207.3871075026539
  0
ARC
  5
378
330
C2
100
AcDbEntity
  8
0
  6
Continuous
 62
     7
100
AcDbCircle
 10
407.4894420382135
 20
-1312.249999998674
 30
0.0
 40
20.99999999999993
100
AcDbArc
 50
213.2038225299704
 51
326.7961774700296
  0
ENDBLK
  5
C4
330
C2
100
AcDbEntity
  8
0
100
AcDbBlockEnd
  0
BLOCK
  5
C6
330
C5
100
AcDbEntity
  8
0
100
AcDbBlockBegin
  2
976007501_Plan_1__20
 70
     0
 10
182.4894420382135
 20
-1343.749999998674
 30
0.0
  3
976007501_Plan_1__20
  1

  0
LINE
  5
379
330
C5
100
AcDbEntity
  8
0
  6
Continuous
 62
     7
100
AcDbLine
 10
182.4894420382135
 20
-1273.749999998674
 30
0.0
 11
182.4894420382135
 21
-1323.749999998674
 31
0.0
  0
LINE
  5
37A
330
C5
100
AcDbEntity
  8
0
  6
Continuous
 62
     7
100
AcDbLine
 10
632.489442038214
 20
-1339.749999998674
 30
0.0
 11
632.489442038214
 21
-1323.749999998674
 31
0.0
  0
LINE
  5
37B
330
C5
100
AcDbEntity
  8
0
  6
Continuous
 62
     7
100
AcDbLine
 10
564.9788840758521
 20
-1343.749999998674
 30
0.0
 11
592.489442038214
 21
-1343.749999998674
 31
0.0
  0
LINE
  5
37C
330
C5
100
AcDbEntity
  8
0
  6
Continuous
 62
     7
100
AcDbLine
 10
632.489442038214
 20
-1323.749999998674
 30
0.0
 11
632.489442038214
 21
-1273.749999998674
 31
0.0
  0
LINE
  5
37D
330
C5
100
AcDbEntity
  8
0
  6
Continuous
 62
     7
100
AcDbLine
 10
602.489442038214
 20
-1343.749999998674
 30
0.0
 11
592.489442038214
 21
-1343.749999998674
 31
0.0
  0
LINE
  5
37E
330
C5
100
AcDbEntity
  8
0
  6
Continuous
 62
     7
100
AcDbLine
 10
632.489442038214
 20
-1343.749999998674
 30
0.0
 11
632.489442038214
 21
-1339.749999998674
 31
0.0
  0
LINE
  5
37F
330
C5
100
AcDbEntity
  8
0
  6
Continuous
 62
     7
100
AcDbLine
 10
602.489442038214
 20
-1343.749999998674
 30
0.0
 11
632.489442038214
 21
-1343.749999998674
 31
0.0
  0
LINE
  5
380
330
C5
100
AcDbEntity
  8
0
  6
Continuous
 62
     7
100
AcDbLine
 10
182.4894420382135
 20
-1343.749999998674
 30
0.0
 11
182.4894420382135
 21
-1339.749999998674
 31
0.0
  0
LINE
  5
381
330
C5
100
AcDbEntity
  8
0
  6
Continuous
 62
     7
100
AcDbLine
 10
182.4894420382135
 20
-1323.749999998674
 30
0.0
 11
182.4894420382135
 21
-1339.749999998674
 31
0.0
  0
LINE
  5
382
330
C5
100
AcDbEntity
  8
0
  6
Continuous
 62
     7
100
AcDbLine
 10
222.4894420382135
 20
-1343.749999998674
 30
0.0
 11
212.4894420382135
 21
-1343.749999998674
 31
0.0
  0
LINE
  5
383
330
C5
100
AcDbEntity
  8
0
  6
Continuous
 62
     7
100
AcDbLine
 10
212.4894420382135
 20
-1343.749999998674
 30
0.0
 11
182.4894420382135
 21
-1343.749999998674
 31
0.0
  0
LINE
  5
384
330
C5
100
AcDbEntity
  8
0
  6
Continuous
 62
     7
100
AcDbLine
 10
564.9788840758521
 20
-1343.749999998674
 30
0.0
 11
222.4894420382135
 21
-1343.749999998674
 31
0.0
  0
LINE
  5
385
330
C5
100
AcDbEntity
  8
0
  6
Continuous
 62
     7
100
AcDbLine
 10
632.489442038214
 20
-1273.749999998674
 30
0.0
 11
182.4894420382135
 21
-1273.749999998674
 31
0.0
  0
ENDBLK
  5
C7
330
C5
100
AcDbEntity
  8
0
100
AcDbBlockEnd
  0
BLOCK
  5
C9
330
C8
100
AcDbEntity
  8
0
100
AcDbBlockBegin
  2
390997584__21
 70
     0
 10
-235.0105579617866
 20
-1344.249999998674
 30
0.0
  3
390997584__21
  1

  0
LINE
  5
386
330
C8
100
AcDbEntity
  8
0
  6
Continuous
 62
     7
100
AcDbLine
 10
149.9894420382134
 20
-1343.749999998674
 30
0.0
 11
149.9894420382134
 21
-1344.249999998674
 31
0.0
  0
LINE
  5
387
330
C8
100
AcDbEntity
  8
0
  6
Continuous
 62
     7
100
AcDbLine
 10
149.9894420382134
 20
-1344.249999998674
 30
0.0
 11
-235.0105579617866
 21
-1344.249999998674
 31
0.0
  0
LINE
  5
388
330
C8
100
AcDbEntity
  8
0
  6
Continuous
 62
     7
100
AcDbLine
 10
-235.0105579617866
 20
-1343.749999998674
 30
0.0
 11
-235.0105579617866
 21
-1344.249999998674
 31
0.0
  0
LINE
  5
389
330
C8
100
AcDbEntity
  8
0
  6
Continuous
 62
     7
100
AcDbLine
 10
149.9894420382134
 20
-1343.749999998674
 30
0.0
 11
142.4894420382134
 21
-1343.749999998674
 31
0.0
  0
LINE
  5
38A
330
C8
100
AcDbEntity
  8
0
  6
Continuous
 62
     7
100
AcDbLine
 10
-227.5105579617866
 20
-1343.749999998674
 30
0.0
 11
-235.0105579617866
 21
-1343.749999998674
 31
0.0
  0
LINE
  5
38B
330
C8
100
AcDbEntity
  8
0
  6
Continuous
 62
     7
100
AcDbLine
 10
142.4894420382134
 20
-1343.749999998674
 30
0.0
 11
-227.5105579617866
 21
-1343.749999998674
 31
0.0
  0
ENDBLK
  5
CA
330
C8
100
AcDbEntity
  8
0
100
AcDbBlockEnd
  0
BLOCK
  5
CC
330
CB
100
AcDbEntity
  8
0
100
AcDbBlockBegin
  2
976007501_Plan__22
 70
     0
 10
-267.5105579617866
 20
-1343.749999998674
 30
0.0
  3
976007501_Plan__22
  1

  0
LINE
  5
38C
330
CB
100
AcDbEntity
  8
0
  6
Continuous
 62
     7
100
AcDbLine
 10
182.4894420382135
 20
-1273.749999998674
 30
0.0
 11
182.4894420382135
 21
-1323.749999998674
 31
0.0
  0
LINE
  5
38D
330
CB
100
AcDbEntity
  8
0
  6
Continuous
 62
     7
100
AcDbLine
 10
149.9894420382134
 20
-1343.749999998674
 30
0.0
 11
152.4894420382134
 21
-1343.749999998674
 31
0.0
  0
LINE
  5
38E
330
CB
100
AcDbEntity
  8
0
  6
Continuous
 62
     7
100
AcDbLine
 10
152.4894420382134
 20
-1343.749999998674
 30
0.0
 11
179.9788840758522
 21
-1343.749999998674
 31
0.0
  0
LINE
  5
38F
330
CB
100
AcDbEntity
  8
0
  6
Continuous
 62
     7
100
AcDbLine
 10
-267.5105579617866
 20
-1339.749999998674
 30
0.0
 11
-267.5105579617865
 21
-1343.749999998674
 31
0.0
  0
LINE
  5
390
330
CB
100
AcDbEntity
  8
0
  6
Continuous
 62
     7
100
AcDbLine
 10
-267.5105579617866
 20
-1323.749999998674
 30
0.0
 11
-267.5105579617866
 21
-1339.749999998674
 31
0.0
  0
LINE
  5
391
330
CB
100
AcDbEntity
  8
0
  6
Continuous
 62
     7
100
AcDbLine
 10
-237.5105579617866
 20
-1343.749999998674
 30
0.0
 11
-235.0105579617866
 21
-1343.749999998674
 31
0.0
  0
LINE
  5
392
330
CB
100
AcDbEntity
  8
0
  6
Continuous
 62
     7
100
AcDbLine
 10
-267.5105579617865
 20
-1343.749999998674
 30
0.0
 11
-237.5105579617866
 21
-1343.749999998674
 31
0.0
  0
LINE
  5
393
330
CB
100
AcDbEntity
  8
0
  6
Continuous
 62
     7
100
AcDbLine
 10
-267.5105579617866
 20
-1273.749999998674
 30
0.0
 11
-267.5105579617866
 21
-1323.749999998674
 31
0.0
  0
LINE
  5
394
330
CB
100
AcDbEntity
  8
0
  6
Continuous
 62
     7
100
AcDbLine
 10
182.4894420382135
 20
-1343.749999998674
 30
0.0
 11
182.4894420382135
 21
-1339.749999998674
 31
0.0
  0
LINE
  5
395
330
CB
100
AcDbEntity
  8
0
  6
Continuous
 62
     7
100
AcDbLine
 10
182.4894420382135
 20
-1323.749999998674
 30
0.0
 11
182.4894420382135
 21
-1339.749999998674
 31
0.0
  0
LINE
  5
396
330
CB
100
AcDbEntity
  8
0
  6
Continuous
 62
     7
100
AcDbLine
 10
182.4894420382135
 20
-1343.749999998674
 30
0.0
 11
179.9788840758522
 21
-1343.749999998674
 31
0.0
  0
LINE
  5
397
330
CB
100
AcDbEntity
  8
0
  6
Continuous
 62
     7
100
AcDbLine
 10
182.4894420382135
 20
-1273.749999998674
 30
0.0
 11
-267.5105579617866
 21
-1273.749999998674
 31
0.0
  0
LINE
  5
398
330
CB
100
AcDbEntity
  8
0
  6
Continuous
 62
     7
100
AcDbLine
 10
149.9894420382134
 20
-1343.749999998674
 30
0.0
 11
142.4894420382134
 21
-1343.749999998674
 31
0.0
  0
LINE
  5
399
330
CB
100
AcDbEntity
  8
0
  6
Continuous
 62
     7
100
AcDbLine
 10
-227.5105579617866
 20
-1343.749999998674
 30
0.0
 11
-235.0105579617866
 21
-1343.749999998674
 31
0.0
  0
LINE
  5
39A
330
CB
100
AcDbEntity
  8
0
  6
Continuous
 62
     7
100
AcDbLine
 10
142.4894420382134
 20
-1343.749999998674
 30
0.0
 11
-227.5105579617866
 21
-1343.749999998674
 31
0.0
  0
ENDBLK
  5
CD
330
CB
100
AcDbEntity
  8
0
100
AcDbBlockEnd
  0
BLOCK
  5
CF
330
CE
100
AcDbEntity
  8
0
100
AcDbBlockBegin
  2
980057503__23
 70
     0
 10
-267.5105579617866
 20
-1343.749999998674
 30
0.0
  3
980057503__23
  1

  0
LINE
  5
39B
330
CE
100
AcDbEntity
  8
0
  6
Continuous
 62
     7
100
AcDbLine
 10
149.9894420382134
 20
-1343.749999998674
 30
0.0
 11
152.4894420382134
 21
-1343.749999998674
 31
0.0
  0
LINE
  5
39C
330
CE
100
AcDbEntity
  8
0
  6
Continuous
 62
     3
100
AcDbLine
 10
152.4894420382134
 20
-1339.749999998674
 30
0.0
 11
152.4894420382134
 21
-1343.749999998674
 31
0.0
  0
LINE
  5
39D
330
CE
100
AcDbEntity
  8
0
  6
Continuous
 62
     7
100
AcDbLine
 10
182.4894420382135
 20
-1339.749999998674
 30
0.0
 11
178.4894420382135
 21
-1339.749999998674
 31
0.0
  0
LINE
  5
39E
330
CE
100
AcDbEntity
  8
0
  6
Continuous
 62
     7
100
AcDbLine
 10
152.4894420382134
 20
-1339.749999998674
 30
0.0
 11
150.4894420382134
 21
-1339.749999998674
 31
0.0
  0
LINE
  5
39F
330
CE
100
AcDbEntity
  8
0
  6
Continuous
 62
     7
100
AcDbLine
 10
150.4894420382134
 20
-1339.749999998674
 30
0.0
 11
147.8227753715468
 21
-1339.749999998674
 31
0.0
  0
LINE
  5
3A0
330
CE
100
AcDbEntity
  8
0
  6
Continuous
 62
     7
100
AcDbLine
 10
178.4894420382135
 20
-1339.749999998674
 30
0.0
 11
152.4894420382134
 21
-1339.749999998674
 31
0.0
  0
LINE
  5
3A1
330
CE
100
AcDbEntity
  8
0
  6
Continuous
 62
     7
100
AcDbLine
 10
152.4894420382134
 20
-1343.749999998674
 30
0.0
 11
179.9788840758522
 21
-1343.749999998674
 31
0.0
  0
LINE
  5
3A2
330
CE
100
AcDbEntity
  8
0
  6
Continuous
 62
     7
100
AcDbLine
 10
-267.5105579617866
 20
-1339.749999998674
 30
0.0
 11
-267.5105579617865
 21
-1343.749999998674
 31
0.0
  0
LINE
  5
3A3
330
CE
100
AcDbEntity
  8
0
  6
Continuous
 62
     7
100
AcDbLine
 10
-263.5105579617866
 20
-1339.749999998674
 30
0.0
 11
-267.5105579617866
 21
-1339.749999998674
 31
0.0
  0
LINE
  5
3A4
330
CE
100
AcDbEntity
  8
0
  6
Continuous
 62
     3
100
AcDbLine
 10
-237.5105579617866
 20
-1343.749999998674
 30
0.0
 11
-237.5105579617866
 21
-1339.749999998674
 31
0.0
  0
LINE
  5
3A5
330
CE
100
AcDbEntity
  8
0
  6
Continuous
 62
     7
100
AcDbLine
 10
-235.5105579617867
 20
-1339.749999998674
 30
0.0
 11
-237.5105579617866
 21
-1339.749999998674
 31
0.0
  0
LINE
  5
3A6
330
CE
100
AcDbEntity
  8
0
  6
Continuous
 62
     7
100
AcDbLine
 10
-232.84389129512
 20
-1339.749999998674
 30
0.0
 11
-235.5105579617867
 21
-1339.749999998674
 31
0.0
  0
LINE
  5
3A7
330
CE
100
AcDbEntity
  8
0
  6
Continuous
 62
     7
100
AcDbLine
 10
-237.5105579617866
 20
-1339.749999998674
 30
0.0
 11
-263.5105579617866
 21
-1339.749999998674
 31
0.0
  0
LINE
  5
3A8
330
CE
100
AcDbEntity
  8
0
  6
Continuous
 62
     7
100
AcDbLine
 10
-237.5105579617866
 20
-1343.749999998674
 30
0.0
 11
-235.0105579617866
 21
-1343.749999998674
 31
0.0
  0
LINE
  5
3A9
330
CE
100
AcDbEntity
  8
0
  6
Continuous
 62
     7
100
AcDbLine
 10
-267.5105579617865
 20
-1343.749999998674
 30
0.0
 11
-237.5105579617866
 21
-1343.749999998674
 31
0.0
  0
LINE
  5
3AA
330
CE
100
AcDbEntity
  8
0
  6
Continuous
 62
     7
100
AcDbLine
 10
182.4894420382135
 20
-1343.749999998674
 30
0.0
 11
182.4894420382135
 21
-1339.749999998674
 31
0.0
  0
LINE
  5
3AB
330
CE
100
AcDbEntity
  8
0
  6
Continuous
 62
     7
100
AcDbLine
 10
182.4894420382135
 20
-1343.749999998674
 30
0.0
 11
179.9788840758522
 21
-1343.749999998674
 31
0.0
  0
LINE
  5
3AC
330
CE
100
AcDbEntity
  8
0
  6
Continuous
 62
     7
100
AcDbLine
 10
-227.5105579617865
 20
-1339.749999998674
 30
0.0
 11
-232.84389129512
 21
-1339.749999998674
 31
0.0
  0
LINE
  5
3AD
330
CE
100
AcDbEntity
  8
0
  6
Continuous
 62
     7
100
AcDbLine
 10
147.8227753715468
 20
-1339.749999998674
 30
0.0
 11
142.4894420382136
 21
-1339.749999998674
 31
0.0
  0
LINE
  5
3AE
330
CE
100
AcDbEntity
  8
0
  6
Continuous
 62
     7
100
AcDbLine
 10
-227.5105579617866
 20
-1343.749999998674
 30
0.0
 11
-227.5105579617865
 21
-1339.749999998674
 31
0.0
  0
LINE
  5
3AF
330
CE
100
AcDbEntity
  8
0
  6
Continuous
 62
     7
100
AcDbLine
 10
-63.76055796178662
 20
-1339.749999998674
 30
0.0
 11
-67.76055796178662
 21
-1339.749999998674
 31
0.0
  0
LINE
  5
3B0
330
CE
100
AcDbEntity
  8
0
  6
Continuous
 62
     7
100
AcDbLine
 10
-223.5105579617864
 20
-1339.749999998674
 30
0.0
 11
-227.5105579617865
 21
-1339.749999998674
 31
0.0
  0
LINE
  5
3B1
330
CE
100
AcDbEntity
  8
0
  6
Continuous
 62
     7
100
AcDbLine
 10
-67.76055796178662
 20
-1339.749999998674
 30
0.0
 11
-223.5105579617864
 21
-1339.749999998674
 31
0.0
  0
LINE
  5
3B2
330
CE
100
AcDbEntity
  8
0
  6
Continuous
 62
     7
100
AcDbLine
 10
-17.26055796178662
 20
-1339.749999998674
 30
0.0
 11
-21.26055796178662
 21
-1339.749999998674
 31
0.0
  0
LINE
  5
3B3
330
CE
100
AcDbEntity
  8
0
  6
Continuous
 62
     7
100
AcDbLine
 10
142.4894420382136
 20
-1339.749999998674
 30
0.0
 11
138.4894420382134
 21
-1339.749999998674
 31
0.0
  0
LINE
  5
3B4
330
CE
100
AcDbEntity
  8
0
  6
Continuous
 62
     7
100
AcDbLine
 10
138.4894420382134
 20
-1339.749999998674
 30
0.0
 11
-17.26055796178662
 21
-1339.749999998674
 31
0.0
  0
LINE
  5
3B5
330
CE
100
AcDbEntity
  8
0
  6
Continuous
 62
     7
100
AcDbLine
 10
-59.76055796178662
 20
-1339.749999998674
 30
0.0
 11
-63.76055796178662
 21
-1339.749999998674
 31
0.0
  0
LINE
  5
3B6
330
CE
100
AcDbEntity
  8
0
  6
Continuous
 62
     7
100
AcDbLine
 10
-21.26055796178662
 20
-1339.749999998674
 30
0.0
 11
-25.26055796178662
 21
-1339.749999998674
 31
0.0
  0
LINE
  5
3B7
330
CE
100
AcDbEntity
  8
0
  6
Continuous
 62
     7
100
AcDbLine
 10
142.4894420382134
 20
-1343.749999998674
 30
0.0
 11
142.4894420382136
 21
-1339.749999998674
 31
0.0
  0
LINE
  5
3B8
330
CE
100
AcDbEntity
  8
0
  6
Continuous
 62
     7
100
AcDbLine
 10
-25.26055796178662
 20
-1339.749999998674
 30
0.0
 11
-59.76055796178662
 21
-1339.749999998674
 31
0.0
  0
LINE
  5
3B9
330
CE
100
AcDbEntity
  8
0
  6
Continuous
 62
     7
100
AcDbLine
 10
149.9894420382134
 20
-1343.749999998674
 30
0.0
 11
142.4894420382134
 21
-1343.749999998674
 31
0.0
  0
LINE
  5
3BA
330
CE
100
AcDbEntity
  8
0
  6
Continuous
 62
     7
100
AcDbLine
 10
-227.5105579617866
 20
-1343.749999998674
 30
0.0
 11
-235.0105579617866
 21
-1343.749999998674
 31
0.0
  0
LINE
  5
3BB
330
CE
100
AcDbEntity
  8
0
  6
Continuous
 62
     7
100
AcDbLine
 10
142.4894420382134
 20
-1343.749999998674
 30
0.0
 11
-227.5105579617866
 21
-1343.749999998674
 31
0.0
  0
ENDBLK
  5
D0
330
CE
100
AcDbEntity
  8
0
100
AcDbBlockEnd
  0
BLOCK
  5
D2
330
D1
100
AcDbEntity
  8
0
100
AcDbBlockBegin
  2
368027497__24
 70
     0
 10
-267.5105579617866
 20
-1339.749999998674
 30
0.0
  3
368027497__24
  1

  0
LINE
  5
3BC
330
D1
100
AcDbEntity
  8
0
  6
Continuous
 62
     7
100
AcDbLine
 10
178.4894420382135
 20
-1323.749999998674
 30
0.0
 11
182.4894420382135
 21
-1323.749999998674
 31
0.0
  0
LINE
  5
3BD
330
D1
100
AcDbEntity
  8
0
  6
Continuous
 62
     7
100
AcDbLine
 10
142.4894420382136
 20
-1323.749999998674
 30
0.0
 11
152.4894420382135
 21
-1323.749999998674
 31
0.0
  0
LINE
  5
3BE
330
D1
100
AcDbEntity
  8
0
  6
Continuous
 62
     3
100
AcDbLine
 10
178.4894420382135
 20
-1339.749999998674
 30
0.0
 11
178.4894420382135
 21
-1323.749999998674
 31
0.0
  0
LINE
  5
3BF
330
D1
100
AcDbEntity
  8
0
  6
Continuous
 62
     3
100
AcDbLine
 10
152.4894420382135
 20
-1323.749999998674
 30
0.0
 11
152.4894420382134
 21
-1339.749999998674
 31
0.0
  0
LINE
  5
3C0
330
D1
100
AcDbEntity
  8
0
  6
Continuous
 62
     7
100
AcDbLine
 10
152.4894420382135
 20
-1323.749999998674
 30
0.0
 11
178.4894420382135
 21
-1323.749999998674
 31
0.0
  0
LINE
  5
3C1
330
D1
100
AcDbEntity
  8
0
  6
Continuous
 62
     7
100
AcDbLine
 10
150.4894420382134
 20
-1323.749999998674
 30
0.0
 11
150.4894420382134
 21
-1293.249999998674
 31
0.0
  0
LINE
  5
3C2
330
D1
100
AcDbEntity
  8
0
  6
Continuous
 62
     7
100
AcDbLine
 10
-63.51055796178662
 20
-1312.249999998674
 30
0.0
 11
-63.51055796178662
 21
-1293.249999998674
 31
0.0
  0
LINE
  5
3C3
330
D1
100
AcDbEntity
  8
0
  6
Continuous
 62
     3
100
AcDbLine
 10
-63.51055796178662
 20
-1312.249999998674
 30
0.0
 11
-67.51055796178662
 21
-1312.249999998674
 31
0.0
  0
LINE
  5
3C4
330
D1
100
AcDbEntity
  8
0
  6
Continuous
 62
     3
100
AcDbLine
 10
-17.51055796178662
 20
-1312.249999998674
 30
0.0
 11
-21.51055796178662
 21
-1312.249999998674
 31
0.0
  0
LINE
  5
3C5
330
D1
100
AcDbEntity
  8
0
  6
Continuous
 62
     7
100
AcDbLine
 10
-21.51055796178662
 20
-1293.249999998674
 30
0.0
 11
-21.51055796178662
 21
-1312.249999998674
 31
0.0
  0
LINE
  5
3C6
330
D1
100
AcDbEntity
  8
0
  6
Continuous
 62
     3
100
AcDbLine
 10
-17.51055796178662
 20
-1293.249999998674
 30
0.0
 11
-17.51055796178662
 21
-1312.249999998674
 31
0.0
  0
LINE
  5
3C7
330
D1
100
AcDbEntity
  8
0
  6
Continuous
 62
     7
100
AcDbLine
 10
-217.5105579617865
 20
-1323.749999998674
 30
0.0
 11
-68.76055796178662
 21
-1323.749999998674
 31
0.0
  0
LINE
  5
3C8
330
D1
100
AcDbEntity
  8
0
  6
Continuous
 62
     3
100
AcDbLine
 10
-67.76055796178662
 20
-1339.749999998674
 30
0.0
 11
-67.76055796178662
 21
-1325.482050806243
 31
0.0
  0
LINE
  5
3C9
330
D1
100
AcDbEntity
  8
0
  6
Continuous
 62
     7
100
AcDbLine
 10
-217.5105579617865
 20
-1293.249999998674
 30
0.0
 11
-67.51055796178662
 21
-1293.249999998674
 31
0.0
  0
LINE
  5
3CA
330
D1
100
AcDbEntity
  8
0
  6
Continuous
 62
     3
100
AcDbLine
 10
-67.51055796178662
 20
-1312.249999998674
 30
0.0
 11
-67.51055796178662
 21
-1293.249999998674
 31
0.0
  0
LINE
  5
3CB
330
D1
100
AcDbEntity
  8
0
  6
Continuous
 62
     7
100
AcDbLine
 10
-225.5336953784908
 20
-1296.749999998674
 30
0.0
 11
-225.5336953784908
 21
-1293.249999998674
 31
0.0
  0
LINE
  5
3CC
330
D1
100
AcDbEntity
  8
0
  6
Continuous
 62
     7
100
AcDbLine
 10
-225.5336953784908
 20
-1296.749999998674
 30
0.0
 11
-221.4946156129472
 21
-1296.749999998674
 31
0.0
  0
LINE
  5
3CD
330
D1
100
AcDbEntity
  8
0
  6
Continuous
 62
     7
100
AcDbLine
 10
-221.4946156129472
 20
-1296.749999998674
 30
0.0
 11
-221.4946156129472
 21
-1293.249999998674
 31
0.0
  0
LINE
  5
3CE
330
D1
100
AcDbEntity
  8
0
  6
Continuous
 62
     7
100
AcDbLine
 10
-227.5105579617864
 20
-1323.749999998674
 30
0.0
 11
-227.5105579617865
 21
-1293.249999998674
 31
0.0
  0
LINE
  5
3CF
330
D1
100
AcDbEntity
  8
0
  6
Continuous
 62
     7
100
AcDbLine
 10
-227.6610592098971
 20
-1296.749999998674
 30
0.0
 11
-227.6610592098971
 21
-1293.249999998674
 31
0.0
  0
LINE
  5
3D0
330
D1
100
AcDbEntity
  8
0
  6
Continuous
 62
     7
100
AcDbLine
 10
-232.84389129512
 20
-1296.749999998674
 30
0.0
 11
-227.6610592098971
 21
-1296.749999998674
 31
0.0
  0
LINE
  5
3D1
330
D1
100
AcDbEntity
  8
0
  6
Continuous
 62
     3
100
AcDbLine
 10
-232.84389129512
 20
-1296.749999998674
 30
0.0
 11
-232.84389129512
 21
-1323.749999998674
 31
0.0
  0
LINE
  5
3D2
330
D1
100
AcDbEntity
  8
0
  6
Continuous
 62
     3
100
AcDbLine
 10
-217.5105579617865
 20
-1323.749999998674
 30
0.0
 11
-217.5105579617865
 21
-1293.249999998674
 31
0.0
  0
LINE
  5
3D3
330
D1
100
AcDbEntity
  8
0
  6
Continuous
 62
     7
100
AcDbLine
 10
-67.76055796178662
 20
-1325.482050806243
 30
0.0
 11
-68.76055796178662
 21
-1323.749999998674
 31
0.0
  0
LINE
  5
3D4
330
D1
100
AcDbEntity
  8
0
  6
Continuous
 62
     7
100
AcDbLine
 10
132.4894420382136
 20
-1323.749999998674
 30
0.0
 11
138.4894420382134
 21
-1323.749999998674
 31
0.0
  0
LINE
  5
3D5
330
D1
100
AcDbEntity
  8
0
  6
Continuous
 62
     3
100
AcDbLine
 10
138.4894420382134
 20
-1339.749999998674
 30
0.0
 11
138.4894420382134
 21
-1323.749999998674
 31
0.0
  0
LINE
  5
3D6
330
D1
100
AcDbEntity
  8
0
  6
Continuous
 62
     7
100
AcDbLine
 10
136.4734996893741
 20
-1296.749999998674
 30
0.0
 11
136.4734996893741
 21
-1293.249999998674
 31
0.0
  0
LINE
  5
3D7
330
D1
100
AcDbEntity
  8
0
  6
Continuous
 62
     7
100
AcDbLine
 10
140.5125794549175
 20
-1296.749999998674
 30
0.0
 11
136.4734996893741
 21
-1296.749999998674
 31
0.0
  0
LINE
  5
3D8
330
D1
100
AcDbEntity
  8
0
  6
Continuous
 62
     7
100
AcDbLine
 10
140.5125794549175
 20
-1296.749999998674
 30
0.0
 11
140.5125794549175
 21
-1293.249999998674
 31
0.0
  0
LINE
  5
3D9
330
D1
100
AcDbEntity
  8
0
  6
Continuous
 62
     7
100
AcDbLine
 10
142.4894420382136
 20
-1323.749999998674
 30
0.0
 11
142.4894420382136
 21
-1293.249999998674
 31
0.0
  0
LINE
  5
3DA
330
D1
100
AcDbEntity
  8
0
  6
Continuous
 62
     7
100
AcDbLine
 10
147.8227753715468
 20
-1296.749999998674
 30
0.0
 11
149.0240376945054
 21
-1296.749999998674
 31
0.0
  0
LINE
  5
3DB
330
D1
100
AcDbEntity
  8
0
  6
Continuous
 62
     7
100
AcDbLine
 10
149.0240376945054
 20
-1296.749999998674
 30
0.0
 11
149.0240376945054
 21
-1293.249999998674
 31
0.0
  0
LINE
  5
3DC
330
D1
100
AcDbEntity
  8
0
  6
Continuous
 62
     7
100
AcDbLine
 10
142.639943286324
 20
-1296.749999998674
 30
0.0
 11
142.639943286324
 21
-1293.249999998674
 31
0.0
  0
LINE
  5
3DD
330
D1
100
AcDbEntity
  8
0
  6
Continuous
 62
     7
100
AcDbLine
 10
147.8227753715468
 20
-1296.749999998674
 30
0.0
 11
142.639943286324
 21
-1296.749999998674
 31
0.0
  0
LINE
  5
3DE
330
D1
100
AcDbEntity
  8
0
  6
Continuous
 62
     3
100
AcDbLine
 10
147.8227753715468
 20
-1323.749999998674
 30
0.0
 11
147.8227753715468
 21
-1296.749999998674
 31
0.0
  0
LINE
  5
3DF
330
D1
100
AcDbEntity
  8
0
  6
Continuous
 62
     3
100
AcDbLine
 10
132.4894420382136
 20
-1323.749999998674
 30
0.0
 11
132.4894420382136
 21
-1293.249999998674
 31
0.0
  0
LINE
  5
3E0
330
D1
100
AcDbEntity
  8
0
  6
Continuous
 62
     7
100
AcDbLine
 10
182.4894420382135
 20
-1339.749999998674
 30
0.0
 11
178.4894420382135
 21
-1339.749999998674
 31
0.0
  0
LINE
  5
3E1
330
D1
100
AcDbEntity
  8
0
  6
Continuous
 62
     7
100
AcDbLine
 10
152.4894420382134
 20
-1339.749999998674
 30
0.0
 11
150.4894420382134
 21
-1339.749999998674
 31
0.0
  0
LINE
  5
3E2
330
D1
100
AcDbEntity
  8
0
  6
Continuous
 62
     7
100
AcDbLine
 10
150.4894420382134
 20
-1339.749999998674
 30
0.0
 11
147.8227753715468
 21
-1339.749999998674
 31
0.0
  0
LINE
  5
3E3
330
D1
100
AcDbEntity
  8
0
  6
Continuous
 62
     7
100
AcDbLine
 10
178.4894420382135
 20
-1339.749999998674
 30
0.0
 11
152.4894420382134
 21
-1339.749999998674
 31
0.0
  0
LINE
  5
3E4
330
D1
100
AcDbEntity
  8
0
  6
Continuous
 62
     7
100
AcDbLine
 10
-267.5105579617866
 20
-1323.749999998674
 30
0.0
 11
-267.5105579617866
 21
-1339.749999998674
 31
0.0
  0
LINE
  5
3E5
330
D1
100
AcDbEntity
  8
0
  6
Continuous
 62
     7
100
AcDbLine
 10
-263.5105579617866
 20
-1339.749999998674
 30
0.0
 11
-267.5105579617866
 21
-1339.749999998674
 31
0.0
  0
LINE
  5
3E6
330
D1
100
AcDbEntity
  8
0
  6
Continuous
 62
     7
100
AcDbLine
 10
-267.5105579617866
 20
-1323.749999998674
 30
0.0
 11
-263.5105579617866
 21
-1323.749999998674
 31
0.0
  0
LINE
  5
3E7
330
D1
100
AcDbEntity
  8
0
  6
Continuous
 62
     3
100
AcDbLine
 10
-237.5105579617865
 20
-1323.749999998674
 30
0.0
 11
-237.5105579617866
 21
-1339.749999998674
 31
0.0
  0
LINE
  5
3E8
330
D1
100
AcDbEntity
  8
0
  6
Continuous
 62
     7
100
AcDbLine
 10
-235.5105579617867
 20
-1323.749999998674
 30
0.0
 11
-235.5105579617867
 21
-1293.249999998674
 31
0.0
  0
LINE
  5
3E9
330
D1
100
AcDbEntity
  8
0
  6
Continuous
 62
     7
100
AcDbLine
 10
-235.5105579617867
 20
-1293.249999998674
 30
0.0
 11
-234.0451536180782
 21
-1293.249999998674
 31
0.0
  0
LINE
  5
3EA
330
D1
100
AcDbEntity
  8
0
  6
Continuous
 62
     7
100
AcDbLine
 10
-237.5105579617865
 20
-1323.749999998674
 30
0.0
 11
-227.5105579617864
 21
-1323.749999998674
 31
0.0
  0
LINE
  5
3EB
330
D1
100
AcDbEntity
  8
0
  6
Continuous
 62
     7
100
AcDbLine
 10
-235.5105579617867
 20
-1339.749999998674
 30
0.0
 11
-237.5105579617866
 21
-1339.749999998674
 31
0.0
  0
LINE
  5
3EC
330
D1
100
AcDbEntity
  8
0
  6
Continuous
 62
     7
100
AcDbLine
 10
-232.84389129512
 20
-1339.749999998674
 30
0.0
 11
-235.5105579617867
 21
-1339.749999998674
 31
0.0
  0
LINE
  5
3ED
330
D1
100
AcDbEntity
  8
0
  6
Continuous
 62
     7
100
AcDbLine
 10
-237.5105579617866
 20
-1339.749999998674
 30
0.0
 11
-263.5105579617866
 21
-1339.749999998674
 31
0.0
  0
LINE
  5
3EE
330
D1
100
AcDbEntity
  8
0
  6
Continuous
 62
     7
100
AcDbLine
 10
-263.5105579617866
 20
-1323.749999998674
 30
0.0
 11
-237.5105579617865
 21
-1323.749999998674
 31
0.0
  0
LINE
  5
3EF
330
D1
100
AcDbEntity
  8
0
  6
Continuous
 62
     3
100
AcDbLine
 10
-263.5105579617866
 20
-1323.749999998674
 30
0.0
 11
-263.5105579617866
 21
-1339.749999998674
 31
0.0
  0
LINE
  5
3F0
330
D1
100
AcDbEntity
  8
0
  6
Continuous
 62
     3
100
AcDbLine
 10
-223.5105579617864
 20
-1323.749999998674
 30
0.0
 11
-223.5105579617864
 21
-1339.749999998674
 31
0.0
  0
LINE
  5
3F1
330
D1
100
AcDbEntity
  8
0
  6
Continuous
 62
     7
100
AcDbLine
 10
-223.5105579617864
 20
-1323.749999998674
 30
0.0
 11
-217.5105579617865
 21
-1323.749999998674
 31
0.0
  0
LINE
  5
3F2
330
D1
100
AcDbEntity
  8
0
  6
Continuous
 62
     7
100
AcDbLine
 10
-234.0451536180782
 20
-1296.749999998674
 30
0.0
 11
-232.84389129512
 21
-1296.749999998674
 31
0.0
  0
LINE
  5
3F3
330
D1
100
AcDbEntity
  8
0
  6
Continuous
 62
     7
100
AcDbLine
 10
-234.0451536180782
 20
-1293.249999998674
 30
0.0
 11
-234.0451536180782
 21
-1296.749999998674
 31
0.0
  0
LINE
  5
3F4
330
D1
100
AcDbEntity
  8
0
  6
Continuous
 62
     7
100
AcDbLine
 10
182.4894420382135
 20
-1323.749999998674
 30
0.0
 11
182.4894420382135
 21
-1339.749999998674
 31
0.0
  0
LINE
  5
3F5
330
D1
100
AcDbEntity
  8
0
  6
Continuous
 62
     7
100
AcDbLine
 10
140.5125794549175
 20
-1293.249999998674
 30
0.0
 11
136.4734996893741
 21
-1293.249999998674
 31
0.0
  0
LINE
  5
3F6
330
D1
100
AcDbEntity
  8
0
  6
Continuous
 62
     7
100
AcDbLine
 10
-227.6610592098971
 20
-1293.249999998674
 30
0.0
 11
-234.0451536180782
 21
-1293.249999998674
 31
0.0
  0
LINE
  5
3F7
330
D1
100
AcDbEntity
  8
0
  6
Continuous
 62
     7
100
AcDbLine
 10
-67.51055796178662
 20
-1293.249999998674
 30
0.0
 11
-63.51055796178662
 21
-1293.249999998674
 31
0.0
  0
LINE
  5
3F8
330
D1
100
AcDbEntity
  8
0
  6
Continuous
 62
     7
100
AcDbLine
 10
-227.6610592098971
 20
-1293.249999998674
 30
0.0
 11
-227.5105579617865
 21
-1293.249999998674
 31
0.0
  0
LINE
  5
3F9
330
D1
100
AcDbEntity
  8
0
  6
Continuous
 62
     7
100
AcDbLine
 10
142.4894420382136
 20
-1293.249999998674
 30
0.0
 11
142.639943286324
 21
-1293.249999998674
 31
0.0
  0
LINE
  5
3FA
330
D1
100
AcDbEntity
  8
0
  6
Continuous
 62
     7
100
AcDbLine
 10
140.5125794549175
 20
-1293.249999998674
 30
0.0
 11
142.4894420382136
 21
-1293.249999998674
 31
0.0
  0
LINE
  5
3FB
330
D1
100
AcDbEntity
  8
0
  6
Continuous
 62
     7
100
AcDbLine
 10
142.639943286324
 20
-1293.249999998674
 30
0.0
 11
149.0240376945054
 21
-1293.249999998674
 31
0.0
  0
LINE
  5
3FC
330
D1
100
AcDbEntity
  8
0
  6
Continuous
 62
     7
100
AcDbLine
 10
149.0240376945054
 20
-1293.249999998674
 30
0.0
 11
150.4894420382134
 21
-1293.249999998674
 31
0.0
  0
LINE
  5
3FD
330
D1
100
AcDbEntity
  8
0
  6
Continuous
 62
     7
100
AcDbLine
 10
-221.4946156129472
 20
-1293.249999998674
 30
0.0
 11
-217.5105579617865
 21
-1293.249999998674
 31
0.0
  0
LINE
  5
3FE
330
D1
100
AcDbEntity
  8
0
  6
Continuous
 62
     7
100
AcDbLine
 10
-227.5105579617865
 20
-1293.249999998674
 30
0.0
 11
-225.5336953784908
 21
-1293.249999998674
 31
0.0
  0
LINE
  5
3FF
330
D1
100
AcDbEntity
  8
0
  6
Continuous
 62
     7
100
AcDbLine
 10
-221.4946156129472
 20
-1293.249999998674
 30
0.0
 11
-225.5336953784908
 21
-1293.249999998674
 31
0.0
  0
LINE
  5
400
330
D1
100
AcDbEntity
  8
0
  6
Continuous
 62
     7
100
AcDbLine
 10
-21.51055796178662
 20
-1293.249999998674
 30
0.0
 11
-17.51055796178662
 21
-1293.249999998674
 31
0.0
  0
LINE
  5
401
330
D1
100
AcDbEntity
  8
0
  6
Continuous
 62
     7
100
AcDbLine
 10
-17.51055796178662
 20
-1293.249999998674
 30
0.0
 11
132.4894420382136
 21
-1293.249999998674
 31
0.0
  0
LINE
  5
402
330
D1
100
AcDbEntity
  8
0
  6
Continuous
 62
     7
100
AcDbLine
 10
132.4894420382136
 20
-1293.249999998674
 30
0.0
 11
136.4734996893741
 21
-1293.249999998674
 31
0.0
  0
LINE
  5
403
330
D1
100
AcDbEntity
  8
0
  6
Continuous
 62
     7
100
AcDbLine
 10
-63.76055796178662
 20
-1339.749999998674
 30
0.0
 11
-63.76055796178662
 21
-1332.410254036518
 31
0.0
  0
LINE
  5
404
330
D1
100
AcDbEntity
  8
0
  6
Continuous
 62
     3
100
AcDbLine
 10
-59.76055796178662
 20
-1339.338457266794
 30
0.0
 11
-59.76055796178662
 21
-1339.749999998674
 31
0.0
  0
LINE
  5
405
330
D1
100
AcDbEntity
  8
0
  6
Continuous
 62
     7
100
AcDbLine
 10
-63.76055796178662
 20
-1332.410254036518
 30
0.0
 11
-59.76055796178662
 21
-1339.338457266794
 31
0.0
  0
LINE
  5
406
330
D1
100
AcDbEntity
  8
0
  6
Continuous
 62
     7
100
AcDbLine
 10
-227.5105579617864
 20
-1323.749999998674
 30
0.0
 11
-227.5105579617865
 21
-1339.749999998674
 31
0.0
  0
LINE
  5
407
330
D1
100
AcDbEntity
  8
0
  6
Continuous
 62
     3
100
AcDbLine
 10
-25.26055796178662
 20
-1339.749999998674
 30
0.0
 11
-25.26055796178662
 21
-1339.338457266794
 31
0.0
  0
LINE
  5
408
330
D1
100
AcDbEntity
  8
0
  6
Continuous
 62
     7
100
AcDbLine
 10
-25.26055796178662
 20
-1339.338457266794
 30
0.0
 11
-21.26055796178662
 21
-1332.410254036518
 31
0.0
  0
LINE
  5
409
330
D1
100
AcDbEntity
  8
0
  6
Continuous
 62
     7
100
AcDbLine
 10
-64.70853084220983
 20
-1323.749999998674
 30
0.0
 11
-60.08184135259222
 21
-1323.749999998674
 31
0.0
  0
LINE
  5
40A
330
D1
100
AcDbEntity
  8
0
  6
Continuous
 62
     7
100
AcDbLine
 10
-24.93927457098107
 20
-1323.749999998674
 30
0.0
 11
-20.31258508136352
 21
-1323.749999998674
 31
0.0
  0
LINE
  5
40B
330
D1
100
AcDbEntity
  8
0
  6
Continuous
 62
     7
100
AcDbLine
 10
-16.2605579617865
 20
-1323.749999998674
 30
0.0
 11
132.4894420382136
 21
-1323.749999998674
 31
0.0
  0
LINE
  5
40C
330
D1
100
AcDbEntity
  8
0
  6
Continuous
 62
     7
100
AcDbLine
 10
138.4894420382134
 20
-1323.749999998674
 30
0.0
 11
142.4894420382136
 21
-1323.749999998674
 31
0.0
  0
LINE
  5
40D
330
D1
100
AcDbEntity
  8
0
  6
Continuous
 62
     7
100
AcDbLine
 10
142.4894420382136
 20
-1323.749999998674
 30
0.0
 11
142.4894420382136
 21
-1339.749999998674
 31
0.0
  0
LINE
  5
40E
330
D1
100
AcDbEntity
  8
0
  6
Continuous
 62
     7
100
AcDbLine
 10
-227.5105579617864
 20
-1323.749999998674
 30
0.0
 11
-223.5105579617864
 21
-1323.749999998674
 31
0.0
  0
LINE
  5
40F
330
D1
100
AcDbEntity
  8
0
  6
Continuous
 62
     7
100
AcDbLine
 10
-68.76055796178662
 20
-1323.749999998674
 30
0.0
 11
-64.70853084220983
 21
-1323.749999998674
 31
0.0
  0
LINE
  5
410
330
D1
100
AcDbEntity
  8
0
  6
Continuous
 62
     7
100
AcDbLine
 10
-21.26055796178662
 20
-1339.749999998674
 30
0.0
 11
-21.26055796178662
 21
-1332.410254036518
 31
0.0
  0
LINE
  5
411
330
D1
100
AcDbEntity
  8
0
  6
Continuous
 62
     3
100
AcDbLine
 10
-17.26055796178662
 20
-1325.482050806243
 30
0.0
 11
-17.26055796178662
 21
-1339.749999998674
 31
0.0
  0
LINE
  5
412
330
D1
100
AcDbEntity
  8
0
  6
Continuous
 62
     7
100
AcDbLine
 10
-21.26055796178662
 20
-1332.410254036518
 30
0.0
 11
-17.26055796178662
 21
-1325.482050806243
 31
0.0
  0
LINE
  5
413
330
D1
100
AcDbEntity
  8
0
  6
Continuous
 62
     7
100
AcDbLine
 10
-20.31258508136352
 20
-1323.749999998674
 30
0.0
 11
-16.2605579617865
 21
-1323.749999998674
 31
0.0
  0
LINE
  5
414
330
D1
100
AcDbEntity
  8
0
  6
Continuous
 62
     7
100
AcDbLine
 10
-16.2605579617865
 20
-1323.749999998674
 30
0.0
 11
-17.26055796178662
 21
-1325.482050806243
 31
0.0
  0
LINE
  5
415
330
D1
100
AcDbEntity
  8
0
  6
Continuous
 62
     7
100
AcDbLine
 10
-227.5105579617865
 20
-1339.749999998674
 30
0.0
 11
-232.84389129512
 21
-1339.749999998674
 31
0.0
  0
LINE
  5
416
330
D1
100
AcDbEntity
  8
0
  6
Continuous
 62
     7
100
AcDbLine
 10
147.8227753715468
 20
-1339.749999998674
 30
0.0
 11
142.4894420382136
 21
-1339.749999998674
 31
0.0
  0
LINE
  5
417
330
D1
100
AcDbEntity
  8
0
  6
Continuous
 62
     7
100
AcDbLine
 10
-63.76055796178662
 20
-1339.749999998674
 30
0.0
 11
-67.76055796178662
 21
-1339.749999998674
 31
0.0
  0
LINE
  5
418
330
D1
100
AcDbEntity
  8
0
  6
Continuous
 62
     7
100
AcDbLine
 10
-223.5105579617864
 20
-1339.749999998674
 30
0.0
 11
-227.5105579617865
 21
-1339.749999998674
 31
0.0
  0
LINE
  5
419
330
D1
100
AcDbEntity
  8
0
  6
Continuous
 62
     7
100
AcDbLine
 10
-67.76055796178662
 20
-1339.749999998674
 30
0.0
 11
-223.5105579617864
 21
-1339.749999998674
 31
0.0
  0
LINE
  5
41A
330
D1
100
AcDbEntity
  8
0
  6
Continuous
 62
     7
100
AcDbLine
 10
-17.26055796178662
 20
-1339.749999998674
 30
0.0
 11
-21.26055796178662
 21
-1339.749999998674
 31
0.0
  0
LINE
  5
41B
330
D1
100
AcDbEntity
  8
0
  6
Continuous
 62
     7
100
AcDbLine
 10
142.4894420382136
 20
-1339.749999998674
 30
0.0
 11
138.4894420382134
 21
-1339.749999998674
 31
0.0
  0
LINE
  5
41C
330
D1
100
AcDbEntity
  8
0
  6
Continuous
 62
     7
100
AcDbLine
 10
138.4894420382134
 20
-1339.749999998674
 30
0.0
 11
-17.26055796178662
 21
-1339.749999998674
 31
0.0
  0
LINE
  5
41D
330
D1
100
AcDbEntity
  8
0
  6
Continuous
 62
     7
100
AcDbLine
 10
-59.76055796178662
 20
-1339.749999998674
 30
0.0
 11
-63.76055796178662
 21
-1339.749999998674
 31
0.0
  0
LINE
  5
41E
330
D1
100
AcDbEntity
  8
0
  6
Continuous
 62
     7
100
AcDbLine
 10
-21.26055796178662
 20
-1339.749999998674
 30
0.0
 11
-25.26055796178662
 21
-1339.749999998674
 31
0.0
  0
LINE
  5
41F
330
D1
100
AcDbEntity
  8
0
  6
Continuous
 62
     7
100
AcDbLine
 10
-25.26055796178662
 20
-1339.749999998674
 30
0.0
 11
-59.76055796178662
 21
-1339.749999998674
 31
0.0
  0
LINE
  5
420
330
D1
100
AcDbEntity
  8
0
  6
Continuous
 62
     7
100
AcDbLine
 10
-67.76055796178662
 20
-1325.482050806243
 30
0.0
 11
-63.76055796178662
 21
-1332.410254036518
 31
0.0
  0
LINE
  5
421
330
D1
100
AcDbEntity
  8
1
  6
DOT_CENTER
 62
     2
100
AcDbLine
 10
-42.51055796178662
 20
-1312.249999998675
 30
0.0
 11
-42.51055796178662
 21
-1293.249999998675
 31
0.0
  0
ARC
  5
422
330
D1
100
AcDbEntity
  8
0
  6
Continuous
 62
     7
100
AcDbCircle
 10
-42.51055796178662
 20
-1312.249999998674
 30
0.0
 40
20.99999999999997
100
AcDbArc
 50
326.7961774700296
 51
0.0
  0
ARC
  5
423
330
D1
100
AcDbEntity
  8
0
  6
Continuous
 62
     3
100
AcDbCircle
 10
-42.51055796178662
 20
-1312.249999998674
 30
0.0
 40
24.99999999999999
100
AcDbArc
 50
332.6128924973461
 51
0.0
  0
ARC
  5
424
330
D1
100
AcDbEntity
  8
0
  6
Continuous
 62
     3
100
AcDbCircle
 10
-42.51055796178662
 20
-1312.249999998674
 30
0.0
 40
25.0
100
AcDbArc
 50
180.0
 51
207.3871075026538
  0
ARC
  5
425
330
D1
100
AcDbEntity
  8
0
  6
Continuous
 62
     7
100
AcDbCircle
 10
-42.51055796178662
 20
-1312.249999998674
 30
0.0
 40
21.0
100
AcDbArc
 50
180.0
 51
213.2038225299702
  0
ARC
  5
426
330
D1
100
AcDbEntity
  8
0
  6
Continuous
 62
     7
100
AcDbCircle
 10
-42.51055796178662
 20
-1312.249999998674
 30
0.0
 40
21.00000000000002
100
AcDbArc
 50
213.2038225299702
 51
326.7961774700296
  0
ENDBLK
  5
D3
330
D1
100
AcDbEntity
  8
0
100
AcDbBlockEnd
  0
BLOCK
  5
DD
330
D4
100
AcDbEntity
  8
0
100
AcDbBlockBegin
  2
539595H_2018-10-05__25
 70
     0
 10
-267.5105579617866
 20
-1344.249999998674
 30
0.0
  3
539595H_2018-10-05__25
  1

  0
INSERT
  5
D5
330
D4
100
AcDbEntity
  8
0
100
AcDbBlockReference
  2
390997584_1__17
 10
179.9788840758522
 20
-1344.249999998674
 30
0.0
  0
INSERT
  5
D6
330
D4
100
AcDbEntity
  8
0
100
AcDbBlockReference
  2
980057503_1__18
 10
182.4894420382135
 20
-1343.749999998674
 30
0.0
  0
INSERT
  5
D7
330
D4
100
AcDbEntity
  8
0
100
AcDbBlockReference
  2
368027497_1__19
 10
182.4894420382135
 20
-1339.749999998674
 30
0.0
  0
INSERT
  5
D8
330
D4
100
AcDbEntity
  8
0
100
AcDbBlockReference
  2
976007501_Plan_1__20
 10
182.4894420382135
 20
-1343.749999998674
 30
0.0
  0
INSERT
  5
D9
330
D4
100
AcDbEntity
  8
0
100
AcDbBlockReference
  2
390997584__21
 10
-235.0105579617866
 20
-1344.249999998674
 30
0.0
  0
INSERT
  5
DA
330
D4
100
AcDbEntity
  8
0
100
AcDbBlockReference
  2
976007501_Plan__22
 10
-267.5105579617866
 20
-1343.749999998674
 30
0.0
  0
INSERT
  5
DB
330
D4
100
AcDbEntity
  8
0
100
AcDbBlockReference
  2
980057503__23
 10
-267.5105579617866
 20
-1343.749999998674
 30
0.0
  0
INSERT
  5
DC
330
D4
100
AcDbEntity
  8
0
100
AcDbBlockReference
  2
368027497__24
 10
-267.5105579617866
 20
-1339.749999998674
 30
0.0
  0
ENDBLK
  5
DE
330
D4
100
AcDbEntity
  8
0
100
AcDbBlockEnd
  0
BLOCK
  5
E1
330
DF
100
AcDbEntity
  8
0
100
AcDbBlockBegin
  2
HL6700_2-WEB-Zeichnung__26
 70
     0
 10
-267.5105579617866
 20
-1344.249999998674
 30
0.0
  3
HL6700_2-WEB-Zeichnung__26
  1

  0
INSERT
  5
E0
330
DF
100
AcDbEntity
  8
0
100
AcDbBlockReference
  2
539595H_2018-10-05__25
 10
-267.5105579617866
 20
-1344.249999998674
 30
0.0
  0
ENDBLK
  5
E2
330
DF
100
AcDbEntity
  8
0
100
AcDbBlockEnd
  0
BLOCK
  5
E5
330
E3
100
AcDbEntity
  8
0
100
AcDbBlockBegin
  2
Vordans1
 70
     0
 10
199.994721019109
 20
-1308.999999999339
 30
0.0
  3
Vordans1
  1

  0
INSERT
  5
E4
330
E3
100
AcDbEntity
  8
0
100
AcDbBlockReference
  2
HL6700_2-WEB-Zeichnung__26
 10
-267.5105579617866
 20
-1344.249999998674
 30
0.0
  0
MTEXT
  5
427
330
E3
100
AcDbEntity
  8
1
 62
     1
100
AcDbMText
 10
199.994721019109
 20
-1349.24999999934
 30
0.0
 40
3.5
 41
0.0
 71
     2
 72
     1
  1
 
  7
CONVERTER_11
 73
     1
 44
1.32052821128451
  0
DIMENSION
  5
434
330
E3
100
AcDbEntity
  8
1
100
AcDbDimension
  2
*D34
 10
-359.4806903412361
 20
-1343.749999998674
 30
0.0
 11
-390.4856654656142
 21
-1177.605140231889
 31
0.0
 70
    32
  1
<>
 71
     5
 42
-1.0
 53
90.0
  3
ME10_DIM_14
100
AcDbAlignedDimension
 13
-235.5105579617867
 23
-1293.249999998674
 33
0.0
 14
-267.5105579617865
 24
-1343.749999998674
 34
0.0
 50
90.0
100
AcDbRotatedDimension
  0
DIMENSION
  5
441
330
E3
100
AcDbEntity
  8
1
100
AcDbDimension
  2
*D35
 10
-456.3146943359799
 20
-1343.749999998674
 30
0.0
 11
-483.588326176776
 21
-1187.108040520979
 31
0.0
 70
    32
  1
<>
 71
     5
 42
-1.0
 53
90.0
  3
ME10_DIM_15
100
AcDbAlignedDimension
 13
-267.5105579617866
 23
-1273.749999998674
 33
0.0
 14
-267.5105579617865
 24
-1343.749999998674
 34
0.0
 50
90.0
100
AcDbRotatedDimension
  0
DIMENSION
  5
44C
330
E3
100
AcDbEntity
  8
1
100
AcDbDimension
  2
*D36
 10
-267.5105579617868
 20
-1192.731386031079
 30
0.0
 11
182.403960169653
 21
-1165.457754190283
 31
0.0
 70
    32
  1
<>
 71
     5
 42
-1.0
 53
0.00013888888889
  3
ME10_DIM_16
100
AcDbAlignedDimension
 13
632.489442038214
 23
-1273.749999998674
 33
0.0
 14
-267.5105579617866
 24
-1273.749999998674
 34
0.0
100
AcDbRotatedDimension
  0
ENDBLK
  5
E6
330
E3
100
AcDbEntity
  8
0
100
AcDbBlockEnd
  0
BLOCK
  5
24C
330
244
100
AcDbEntity
  8
0
100
AcDbBlockBegin
  2
*D30
 70
     1
 10
0.0
 20
0.0
 30
0.0
  3
*D30
  1

  0
LINE
  5
245
330
244
100
AcDbEntity
  8
1
  6
Continuous
 62
     4
100
AcDbLine
 10
-227.5105579617869
 20
-1798.86672836043
 30
0.0
 11
592.4894420382127
 21
-1798.86672836043
 31
0.0
  0
LINE
  5
246
330
244
100
AcDbEntity
  8
1
  6
Continuous
 62
     4
100
AcDbLine
 10
-227.5105579617869
 20
-1713.75000000055
 30
0.0
 11
-227.5105579617869
 21
-1800.86672836043
 31
0.0
  0
LINE
  5
247
330
244
100
AcDbEntity
  8
1
  6
Continuous
 62
     4
100
AcDbLine
 10
592.4894420382127
 20
-1713.75000000055
 30
0.0
 11
592.4894420382127
 21
-1800.86672836043
 31
0.0
  0
SOLID
  5
248
330
244
100
AcDbEntity
  8
1
 62
     4
100
AcDbTrace
 10
-177.5105579617869
 20
-1792.28410348106
 30
0.0
 11
-177.5105579617869
 21
-1805.4493532398
 31
0.0
 12
-227.5105579617869
 22
-1798.86672836043
 32
0.0
 13
-227.5105579617869
 23
-1798.86672836043
 33
0.0
  0
SOLID
  5
249
330
244
100
AcDbEntity
  8
1
 62
     4
100
AcDbTrace
 10
542.4894420382127
 20
-1805.4493532398
 30
0.0
 11
542.4894420382127
 21
-1792.28410348106
 31
0.0
 12
592.4894420382127
 22
-1798.86672836043
 32
0.0
 13
592.4894420382127
 23
-1798.86672836043
 33
0.0
  0
MTEXT
  5
24B
330
244
100
AcDbEntity
  8
1
 62
     1
100
AcDbMText
 10
157.4684711730258
 20
-1791.369215922619
 30
0.0
 40
50.0
 41
0.0
 71
     7
 72
     1
  1
820
  7
CONVERTER_12
 11
0.9999999999970619
 21
2.424068405545306E-6
 31
0.0
 73
     1
 44
0.60024009603842
  0
ENDBLK
  5
24D
330
244
100
AcDbEntity
  8
0
100
AcDbBlockEnd
  0
BLOCK
  5
257
330
250
100
AcDbEntity
  8
0
100
AcDbBlockBegin
  2
*D31
 70
     1
 10
0.0
 20
0.0
 30
0.0
  3
*D31
  1

  0
LINE
  5
251
330
250
100
AcDbEntity
  8
1
  6
Continuous
 62
     4
100
AcDbLine
 10
600.4894420382127
 20
-1446.48969880088
 30
0.0
 11
-235.5105579617868
 21
-1446.48969880088
 31
0.0
  0
LINE
  5
252
330
250
100
AcDbEntity
  8
1
  6
Continuous
 62
     4
100
AcDbLine
 10
600.4894420382127
 20
-1524.75000000055
 30
0.0
 11
600.4894420382127
 21
-1444.48969880088
 31
0.0
  0
LINE
  5
253
330
250
100
AcDbEntity
  8
1
  6
Continuous
 62
     4
100
AcDbLine
 10
-235.5105579617869
 20
-1524.75000000055
 30
0.0
 11
-235.5105579617869
 21
-1444.48969880088
 31
0.0
  0
SOLID
  5
254
330
250
100
AcDbEntity
  8
1
 62
     4
100
AcDbTrace
 10
550.4894420382127
 20
-1453.07232368025
 30
0.0
 11
550.4894420382127
 21
-1439.90707392151
 31
0.0
 12
600.4894420382127
 22
-1446.48969880088
 32
0.0
 13
600.4894420382127
 23
-1446.48969880088
 33
0.0
  0
SOLID
  5
255
330
250
100
AcDbEntity
  8
1
 62
     4
100
AcDbTrace
 10
-185.5105579617868
 20
-1439.90707392151
 30
0.0
 11
-185.5105579617868
 21
-1453.07232368025
 31
0.0
 12
-235.5105579617868
 22
-1446.48969880088
 32
0.0
 13
-235.5105579617868
 23
-1446.48969880088
 33
0.0
  0
MTEXT
  5
256
330
250
100
AcDbEntity
  8
1
 62
     1
100
AcDbMText
 10
163.8307854624119
 20
-1438.992186363069
 30
0.0
 40
50.0
 41
0.0
 71
     7
 72
     1
  1
836
  7
CONVERTER_12
 11
0.9999999999970619
 21
2.424068405545306E-6
 31
0.0
 73
     1
 44
0.60024009603842
  0
ENDBLK
  5
258
330
250
100
AcDbEntity
  8
0
100
AcDbBlockEnd
  0
BLOCK
  5
262
330
25B
100
AcDbEntity
  8
0
100
AcDbBlockBegin
  2
*D32
 70
     1
 10
0.0
 20
0.0
 30
0.0
  3
*D32
  1

  0
LINE
  5
25C
330
25B
100
AcDbEntity
  8
1
  6
Continuous
 62
     4
100
AcDbLine
 10
-357.3681639403632
 20
-1717.75000000055
 30
0.0
 11
-357.3681639403632
 21
-1521.25000000055
 31
0.0
  0
LINE
  5
25D
330
25B
100
AcDbEntity
  8
1
  6
Continuous
 62
     4
100
AcDbLine
 10
-223.5105579617868
 20
-1717.75000000055
 30
0.0
 11
-359.3681639403632
 21
-1717.75000000055
 31
0.0
  0
LINE
  5
25E
330
25B
100
AcDbEntity
  8
1
  6
Continuous
 62
     4
100
AcDbLine
 10
-267.510557961787
 20
-1521.25000000055
 30
0.0
 11
-359.3681639403632
 21
-1521.25000000055
 31
0.0
  0
SOLID
  5
25F
330
25B
100
AcDbEntity
  8
1
 62
     4
100
AcDbTrace
 10
-363.950788819733
 20
-1667.75000000055
 30
0.0
 11
-350.7855390609934
 21
-1667.75000000055
 31
0.0
 12
-357.3681639403632
 22
-1717.75000000055
 32
0.0
 13
-357.3681639403632
 23
-1717.75000000055
 33
0.0
  0
SOLID
  5
260
330
25B
100
AcDbEntity
  8
1
 62
     4
100
AcDbTrace
 10
-350.7855390609934
 20
-1571.25000000055
 30
0.0
 11
-363.950788819733
 21
-1571.25000000055
 31
0.0
 12
-357.3681639403632
 22
-1521.25000000055
 32
0.0
 13
-357.3681639403632
 23
-1521.25000000055
 33
0.0
  0
MTEXT
  5
261
330
25B
100
AcDbEntity
  8
1
 62
     1
100
AcDbMText
 10
-372.3283629453383
 20
-1676.37560032379
 30
0.0
 40
50.0
 41
0.0
 71
     7
 72
     1
  1
196,5
  7
CONVERTER_12
 11
0.0
 21
1.0
 31
0.0
 73
     1
 44
0.60024009603842
  0
ENDBLK
  5
263
330
25B
100
AcDbEntity
  8
0
100
AcDbBlockEnd
  0
BLOCK
  5
2E4
330
2DB
100
AcDbEntity
  8
0
100
AcDbBlockBegin
  2
*D33
 70
     1
 10
0.0
 20
0.0
 30
0.0
  3
*D33
  1

  0
LINE
  5
2DC
330
2DB
100
AcDbEntity
  8
1
  6
Continuous
 62
     4
100
AcDbLine
 10
1014.85154541362
 20
-1443.749999998674
 30
0.0
 11
1014.85154541362
 21
-1343.749999998674
 31
0.0
  0
LINE
  5
2DD
330
2DB
100
AcDbEntity
  8
1
  6
Continuous
 62
     4
100
AcDbLine
 10
1014.85154541362
 20
-1343.749999998674
 30
0.0
 11
1014.85154541362
 21
-1323.749999998674
 31
0.0
  0
LINE
  5
2DE
330
2DB
100
AcDbEntity
  8
1
  6
Continuous
 62
     4
100
AcDbLine
 10
1014.85154541362
 20
-1323.749999998674
 30
0.0
 11
1014.85154541362
 21
-1209.357577782959
 31
0.0
  0
LINE
  5
2DF
330
2DB
100
AcDbEntity
  8
1
  6
Continuous
 62
     4
100
AcDbLine
 10
975.5000000005552
 20
-1343.749999998674
 30
0.0
 11
1016.85154541362
 21
-1343.749999998674
 31
0.0
  0
LINE
  5
2E0
330
2DB
100
AcDbEntity
  8
1
  6
Continuous
 62
     4
100
AcDbLine
 10
971.5000000005552
 20
-1323.749999998674
 30
0.0
 11
1016.85154541362
 21
-1323.749999998674
 31
0.0
  0
SOLID
  5
2E1
330
2DB
100
AcDbEntity
  8
1
 62
     4
100
AcDbTrace
 10
1021.43417029299
 20
-1393.749999998674
 30
0.0
 11
1008.26892053425
 21
-1393.749999998674
 31
0.0
 12
1014.85154541362
 22
-1343.749999998674
 32
0.0
 13
1014.85154541362
 23
-1343.749999998674
 33
0.0
  0
SOLID
  5
2E2
330
2DB
100
AcDbEntity
  8
1
 62
     4
100
AcDbTrace
 10
1008.26892053425
 20
-1273.749999998674
 30
0.0
 11
1021.43417029299
 21
-1273.749999998674
 31
0.0
 12
1014.85154541362
 22
-1323.749999998674
 32
0.0
 13
1014.85154541362
 23
-1323.749999998674
 33
0.0
  0
MTEXT
  5
2E3
330
2DB
100
AcDbEntity
  8
1
 62
     1
100
AcDbMText
 10
1007.354032975809
 20
-1259.357577782959
 30
0.0
 40
50.0
 41
0.0
 71
     7
 72
     1
  1
20
  7
CONVERTER_12
 11
0.0
 21
1.0
 31
0.0
 73
     1
 44
0.60024009603842
  0
ENDBLK
  5
2E5
330
2DB
100
AcDbEntity
  8
0
100
AcDbBlockEnd
  0
BLOCK
  5
431
330
428
100
AcDbEntity
  8
0
100
AcDbBlockBegin
  2
*D34
 70
     1
 10
0.0
 20
0.0
 30
0.0
  3
*D34
  1

  0
LINE
  5
429
330
428
100
AcDbEntity
  8
1
  6
Continuous
 62
     4
100
AcDbLine
 10
-359.4806903412361
 20
-1443.749999998674
 30
0.0
 11
-359.4806903412361
 21
-1343.749999998674
 31
0.0
  0
LINE
  5
42A
330
428
100
AcDbEntity
  8
1
  6
Continuous
 62
     4
100
AcDbLine
 10
-359.4806903412361
 20
-1343.749999998674
 30
0.0
 11
-359.4806903412361
 21
-1293.249999998674
 31
0.0
  0
LINE
  5
42B
330
428
100
AcDbEntity
  8
1
  6
Continuous
 62
     4
100
AcDbLine
 10
-359.4806903412361
 20
-1293.249999998674
 30
0.0
 11
-359.4806903412361
 21
-1132.905140231889
 31
0.0
  0
LINE
  5
42C
330
428
100
AcDbEntity
  8
1
  6
Continuous
 62
     4
100
AcDbLine
 10
-267.5105579617866
 20
-1343.749999998674
 30
0.0
 11
-361.4806903412361
 21
-1343.749999998674
 31
0.0
  0
LINE
  5
42D
330
428
100
AcDbEntity
  8
1
  6
Continuous
 62
     4
100
AcDbLine
 10
-235.5105579617868
 20
-1293.249999998674
 30
0.0
 11
-361.4806903412361
 21
-1293.249999998674
 31
0.0
  0
SOLID
  5
42E
330
428
100
AcDbEntity
  8
1
 62
     4
100
AcDbTrace
 10
-352.8980654618663
 20
-1393.749999998674
 30
0.0
 11
-366.0633152206059
 21
-1393.749999998674
 31
0.0
 12
-359.4806903412361
 22
-1343.749999998674
 32
0.0
 13
-359.4806903412361
 23
-1343.749999998674
 33
0.0
  0
SOLID
  5
42F
330
428
100
AcDbEntity
  8
1
 62
     4
100
AcDbTrace
 10
-366.0633152206059
 20
-1243.249999998674
 30
0.0
 11
-352.8980654618663
 21
-1243.249999998674
 31
0.0
 12
-359.4806903412361
 22
-1293.249999998674
 32
0.0
 13
-359.4806903412361
 23
-1293.249999998674
 33
0.0
  0
MTEXT
  5
430
330
428
100
AcDbEntity
  8
1
 62
     1
100
AcDbMText
 10
-374.4408893462112
 20
-1222.305140231889
 30
0.0
 40
50.0
 41
0.0
 71
     7
 72
     1
  1
50,5
  7
CONVERTER_12
 11
0.0
 21
1.0
 31
0.0
 73
     1
 44
0.60024009603842
  0
ENDBLK
  5
432
330
428
100
AcDbEntity
  8
0
100
AcDbBlockEnd
  0
BLOCK
  5
43E
330
435
100
AcDbEntity
  8
0
100
AcDbBlockBegin
  2
*D35
 70
     1
 10
0.0
 20
0.0
 30
0.0
  3
*D35
  1

  0
LINE
  5
436
330
435
100
AcDbEntity
  8
1
  6
Continuous
 62
     4
100
AcDbLine
 10
-456.3146943359799
 20
-1443.749999998674
 30
0.0
 11
-456.3146943359799
 21
-1343.749999998674
 31
0.0
  0
LINE
  5
437
330
435
100
AcDbEntity
  8
1
  6
Continuous
 62
     4
100
AcDbLine
 10
-456.3146943359799
 20
-1343.749999998674
 30
0.0
 11
-456.3146943359799
 21
-1273.749999998674
 31
0.0
  0
LINE
  5
438
330
435
100
AcDbEntity
  8
1
  6
Continuous
 62
     4
100
AcDbLine
 10
-456.3146943359799
 20
-1273.749999998674
 30
0.0
 11
-456.3146943359799
 21
-1162.108040520979
 31
0.0
  0
LINE
  5
439
330
435
100
AcDbEntity
  8
1
  6
Continuous
 62
     4
100
AcDbLine
 10
-267.5105579617865
 20
-1343.749999998674
 30
0.0
 11
-458.3146943359799
 21
-1343.749999998674
 31
0.0
  0
LINE
  5
43A
330
435
100
AcDbEntity
  8
1
  6
Continuous
 62
     4
100
AcDbLine
 10
-267.5105579617866
 20
-1273.749999998674
 30
0.0
 11
-458.3146943359799
 21
-1273.749999998674
 31
0.0
  0
SOLID
  5
43B
330
435
100
AcDbEntity
  8
1
 62
     4
100
AcDbTrace
 10
-449.7320694566101
 20
-1393.749999998674
 30
0.0
 11
-462.8973192153497
 21
-1393.749999998674
 31
0.0
 12
-456.3146943359799
 22
-1343.749999998674
 32
0.0
 13
-456.3146943359799
 23
-1343.749999998674
 33
0.0
  0
SOLID
  5
43C
330
435
100
AcDbEntity
  8
1
 62
     4
100
AcDbTrace
 10
-462.8973192153497
 20
-1223.749999998674
 30
0.0
 11
-449.7320694566101
 21
-1223.749999998674
 31
0.0
 12
-456.3146943359799
 22
-1273.749999998674
 32
0.0
 13
-456.3146943359799
 23
-1273.749999998674
 33
0.0
  0
MTEXT
  5
43D
330
435
100
AcDbEntity
  8
1
 62
     1
100
AcDbMText
 10
-463.8122067737909
 20
-1212.108040520979
 30
0.0
 40
50.0
 41
0.0
 71
     7
 72
     1
  1
70
  7
CONVERTER_12
 11
0.0
 21
1.0
 31
0.0
 73
     1
 44
0.60024009603842
  0
ENDBLK
  5
43F
330
435
100
AcDbEntity
  8
0
100
AcDbBlockEnd
  0
BLOCK
  5
449
330
442
100
AcDbEntity
  8
0
100
AcDbBlockBegin
  2
*D36
 70
     1
 10
0.0
 20
0.0
 30
0.0
  3
*D36
  1

  0
LINE
  5
443
330
442
100
AcDbEntity
  8
1
  6
Continuous
 62
     4
100
AcDbLine
 10
-267.5105579617868
 20
-1192.731386031079
 30
0.0
 11
632.489442038214
 21
-1192.731386031079
 31
0.0
  0
LINE
  5
444
330
442
100
AcDbEntity
  8
1
  6
Continuous
 62
     4
100
AcDbLine
 10
-267.5105579617868
 20
-1273.749999998674
 30
0.0
 11
-267.5105579617868
 21
-1190.731386031079
 31
0.0
  0
LINE
  5
445
330
442
100
AcDbEntity
  8
1
  6
Continuous
 62
     4
100
AcDbLine
 10
632.489442038214
 20
-1273.749999998674
 30
0.0
 11
632.489442038214
 21
-1190.731386031079
 31
0.0
  0
SOLID
  5
446
330
442
100
AcDbEntity
  8
1
 62
     4
100
AcDbTrace
 10
-217.5105579617868
 20
-1186.148761151709
 30
0.0
 11
-217.5105579617868
 21
-1199.314010910449
 31
0.0
 12
-267.5105579617868
 22
-1192.731386031079
 32
0.0
 13
-267.5105579617868
 23
-1192.731386031079
 33
0.0
  0
SOLID
  5
447
330
442
100
AcDbEntity
  8
1
 62
     4
100
AcDbTrace
 10
582.489442038214
 20
-1199.314010910449
 30
0.0
 11
582.489442038214
 21
-1186.148761151709
 31
0.0
 12
632.489442038214
 22
-1192.731386031079
 32
0.0
 13
632.489442038214
 23
-1192.731386031079
 33
0.0
  0
MTEXT
  5
448
330
442
100
AcDbEntity
  8
1
 62
     1
100
AcDbMText
 10
144.403960169653
 20
-1185.233873593268
 30
0.0
 40
50.0
 41
0.0
 71
     7
 72
     1
  1
900
  7
CONVERTER_12
 11
0.9999999999970619
 21
2.424068405545306E-6
 31
0.0
 73
     1
 44
0.60024009603842
  0
ENDBLK
  5
44A
330
442
100
AcDbEntity
  8
0
100
AcDbBlockEnd
  0
ENDSEC
  0
SECTION
  2
ENTITIES
  0
INSERT
  5
E7
330
1F
100
AcDbEntity
  8
0
100
AcDbBlockReference
  2
Drfsicht1
 10
199.9947210191086
 20
-1619.250000000275
 30
0.0
  0
INSERT
  5
E8
330
1F
100
AcDbEntity
  8
0
100
AcDbBlockReference
  2
SA_Links1
 10
877.0000000002802
 20
-1308.99999999934
 30
0.0
  0
INSERT
  5
E9
330
1F
100
AcDbEntity
  8
0
100
AcDbBlockReference
  2
Vordans1
 10
199.994721019109
 20
-1308.999999999339
 30
0.0
  0
ENDSEC
  0
SECTION
  2
OBJECTS
  0
DICTIONARY
  5
C
330
0
100
AcDbDictionary
281
     1
  3
ACAD_GROUP
350
D
  3
ACAD_LAYOUT
350
1A
  3
ACAD_MATERIAL
350
43
  3
ACAD_MLEADERSTYLE
350
6B
  3
ACAD_MLINESTYLE
350
17
  3
ACAD_PLOTSETTINGS
350
19
  3
ACAD_PLOTSTYLENAME
350
E
  3
ACAD_SCALELIST
350
47
  3
ACAD_TABLESTYLE
350
69
  3
ACAD_VISUALSTYLE
350
2A
  3
AcDbVariableDictionary
350
44D
  0
DICTIONARY
  5
454
330
8
100
AcDbDictionary
280
     1
281
     1
  3
ACAD_XREC_ROUNDTRIP
360
455
  0
DICTIONARY
  5
D
102
{ACAD_REACTORS
330
C
102
}
330
C
100
AcDbDictionary
281
     1
  0
DICTIONARY
  5
1A
102
{ACAD_REACTORS
330
C
102
}
330
C
100
AcDbDictionary
281
     1
  3
Layout1
350
1E
  3
Layout2
350
26
  3
Model
350
22
  0
DICTIONARY
  5
43
102
{ACAD_REACTORS
330
C
102
}
330
C
100
AcDbDictionary
281
     1
  3
ByBlock
350
45
  3
ByLayer
350
44
  3
Global
350
46
  0
DICTIONARY
  5
6B
102
{ACAD_REACTORS
330
C
102
}
330
C
100
AcDbDictionary
281
     1
  3
Standard
350
6C
  0
DICTIONARY
  5
17
102
{ACAD_REACTORS
330
C
102
}
330
C
100
AcDbDictionary
281
     1
  3
Standard
350
18
  0
DICTIONARY
  5
19
102
{ACAD_REACTORS
330
C
102
}
330
C
100
AcDbDictionary
281
     1
  0
ACDBDICTIONARYWDFLT
  5
E
102
{ACAD_REACTORS
330
C
102
}
330
C
100
AcDbDictionary
281
     1
  3
Normal
350
F
100
AcDbDictionaryWithDefault
340
F
  0
DICTIONARY
  5
47
102
{ACAD_REACTORS
330
C
102
}
330
C
100
AcDbDictionary
281
     1
  3
A0
350
48
  3
A1
350
49
  3
A2
350
4A
  3
A3
350
4B
  3
A4
350
4C
  3
A5
350
4D
  3
A6
350
4E
  3
A7
350
4F
  3
A8
350
50
  3
A9
350
51
  3
B0
350
52
  3
B1
350
53
  3
B2
350
54
  3
B3
350
55
  3
B4
350
56
  3
B5
350
57
  3
B6
350
58
  3
B7
350
59
  3
B8
350
5A
  3
B9
350
5B
  3
C0
350
5C
  3
C1
350
5D
  3
C2
350
5E
  3
C3
350
5F
  3
C4
350
60
  3
C5
350
61
  3
C6
350
62
  3
C7
350
63
  3
C8
350
64
  3
C9
350
65
  3
D0
350
66
  3
D1
350
67
  3
D2
350
68
  0
DICTIONARY
  5
69
102
{ACAD_REACTORS
330
C
102
}
330
C
100
AcDbDictionary
281
     1
  3
Standard
350
6A
  0
DICTIONARY
  5
2A
102
{ACAD_REACTORS
330
C
102
}
330
C
100
AcDbDictionary
281
     1
  3
2dWireframe
350
2F
  3
Basic
350
32
  3
Brighten
350
36
  3
ColorChange
350
3A
  3
Conceptual
350
34
  3
Dim
350
35
  3
EdgeColorOff
350
3D
  3
Facepattern
350
39
  3
Flat
350
2B
  3
FlatWithEdges
350
2C
  3
Gouraud
350
2D
  3
GouraudWithEdges
350
2E
  3
Hidden
350
31
  3
JitterOff
350
3B
  3
Linepattern
350
38
  3
OverhangOff
350
3C
  3
Realistic
350
33
  3
Shaded
350
42
  3
Shaded with edges
350
41
  3
Shades of Gray
350
3E
  3
Sketchy
350
3F
  3
Thicken
350
37
  3
Wireframe
350
30
  3
X-Ray
350
40
  0
DICTIONARY
  5
44D
102
{ACAD_REACTORS
330
C
102
}
330
C
100
AcDbDictionary
281
     1
  3
CANNOSCALE
350
456
  3
CMLEADERSTYLE
350
44F
  3
CTABLESTYLE
350
44E
  3
DIMASSOC
350
452
  3
HIDETEXT
350
453
  3
MSLTSCALE
350
457
  0
XRECORD
  5
455
102
{ACAD_REACTORS
330
454
102
}
330
454
100
AcDbXrecord
280
     1
102
VTR_0.000_0.000_1.000_1.000_GRIDDISPLAY
 70
     3
102
VTR_0.000_0.000_1.000_1.000_GRIDMAJOR
 70
     5
102
VTR_0.000_0.000_1.000_1.000_DEFAULTLIGHTING
280
     1
102
VTR_0.000_0.000_1.000_1.000_DEFAULTLIGHTINGTYPE
 70
     1
102
VTR_0.000_0.000_1.000_1.000_BRIGHTNESS
141
0.0
102
VTR_0.000_0.000_1.000_1.000_CONTRAST
142
0.0
  0
LAYOUT
  5
1E
102
{ACAD_REACTORS
330
1A
102
}
330
1A
100
AcDbPlotSettings
  1

  2
none_device
  4

  6

 40
0.0
 41
0.0
 42
0.0
 43
0.0
 44
0.0
 45
0.0
 46
0.0
 47
0.0
 48
0.0
 49
0.0
140
0.0
141
0.0
142
1.0
143
1.0
 70
   688
 72
     0
 73
     0
 74
     5
  7

 75
    16
147
1.0
148
0.0
149
0.0
100
AcDbLayout
  1
Layout1
 70
     1
 71
     1
 10
0.0
 20
0.0
 11
12.0
 21
9.0
 12
0.0
 22
0.0
 32
0.0
 14
1.00000000000000E+20
 24
1.00000000000000E+20
 34
1.00000000000000E+20
 15
-1.00000000000000E+20
 25
-1.00000000000000E+20
 35
-1.00000000000000E+20
146
0.0
 13
0.0
 23
0.0
 33
0.0
 16
1.0
 26
0.0
 36
0.0
 17
0.0
 27
1.0
 37
0.0
 76
     0
330
1B
  0
LAYOUT
  5
26
102
{ACAD_REACTORS
330
1A
102
}
330
1A
100
AcDbPlotSettings
  1

  2
none_device
  4

  6

 40
0.0
 41
0.0
 42
0.0
 43
0.0
 44
0.0
 45
0.0
 46
0.0
 47
0.0
 48
0.0
 49
0.0
140
0.0
141
0.0
142
1.0
143
1.0
 70
   688
 72
     0
 73
     0
 74
     5
  7

 75
    16
147
1.0
148
0.0
149
0.0
100
AcDbLayout
  1
Layout2
 70
     1
 71
     2
 10
0.0
 20
0.0
 11
0.0
 21
0.0
 12
0.0
 22
0.0
 32
0.0
 14
0.0
 24
0.0
 34
0.0
 15
0.0
 25
0.0
 35
0.0
146
0.0
 13
0.0
 23
0.0
 33
0.0
 16
1.0
 26
0.0
 36
0.0
 17
0.0
 27
1.0
 37
0.0
 76
     0
330
23
  0
LAYOUT
  5
22
102
{ACAD_REACTORS
330
1A
102
}
330
1A
100
AcDbPlotSettings
  1

  2
none_device
  4
Letter_(8.50_x_11.00_Inches)
  6

 40
6.35
 41
6.35
 42
6.35000508
 43
6.35000508
 44
215.9
 45
279.4
 46
0.0
 47
0.0
 48
0.0
 49
0.0
140
0.0
141
0.0
142
1.0
143
1.0
 70
  1712
 72
     0
 73
     0
 74
     0
  7

 75
     0
147
1.0
148
0.0
149
0.0
100
AcDbLayout
  1
Model
 70
     1
 71
     0
 10
0.0
 20
0.0
 11
12.0
 21
9.0
 12
0.0
 22
0.0
 32
0.0
 14
-503.861958017572
 24
-1805.4493532398
 34
0.0
 15
1021.43417029299
 25
-1132.905140231889
 35
0.0
146
0.0
 13
0.0
 23
0.0
 33
0.0
 16
1.0
 26
0.0
 36
0.0
 17
0.0
 27
1.0
 37
0.0
 76
     0
330
1F
331
29
  0
MATERIAL
  5
45
102
{ACAD_REACTORS
330
43
102
}
102
{ACAD_XDICTIONARY
360
48A
102
}
330
43
100
AcDbMaterial
  1
ByBlock
  0
MATERIAL
  5
44
102
{ACAD_REACTORS
330
43
102
}
102
{ACAD_XDICTIONARY
360
488
102
}
330
43
100
AcDbMaterial
  1
ByLayer
  0
MATERIAL
  5
46
102
{ACAD_REACTORS
330
43
102
}
102
{ACAD_XDICTIONARY
360
48C
102
}
330
43
100
AcDbMaterial
  1
Global
  0
MLEADERSTYLE
  5
6C
102
{ACAD_REACTORS
330
6B
102
}
102
{ACAD_XDICTIONARY
360
48F
102
}
330
6B
100
AcDbMLeaderStyle
170
     2
171
     1
172
     0
 90
        2
 40
0.0
 41
0.0
173
     1
 91
-1056964608
340
14
 92
       -2
290
     1
 42
0.09
291
     1
 43
0.36
  3
Standard
341
0
 44
0.18
300

342
11
174
     1
178
     6
175
     1
176
     0
 93
-1056964608
 45
0.18
292
     0
297
     0
 46
0.18
343
0
 94
-1056964608
 47
1.0
 49
1.0
140
1.0
293
     1
141
0.0
294
     1
177
     0
142
1.0
295
     0
296
     0
143
0.125
1001
ACAD_MLEADERVER
1070
     2
  0
MLINESTYLE
  5
18
102
{ACAD_REACTORS
330
17
102
}
330
17
100
AcDbMlineStyle
  2
Standard
 70
     0
  3

 62
   256
 51
90.0
 52
90.0
 71
     2
 49
0.5
 62
   256
  6
BYLAYER
 49
-0.5
 62
   256
  6
BYLAYER
  0
ACDBPLACEHOLDER
  5
F
102
{ACAD_REACTORS
330
E
102
}
330
E
  0
SCALE
  5
48
102
{ACAD_REACTORS
330
47
102
}
330
47
100
AcDbScale
 70
     0
300
1:1
140
1.0
141
1.0
290
     1
  0
SCALE
  5
49
102
{ACAD_REACTORS
330
47
102
}
330
47
100
AcDbScale
 70
     0
300
1:2
140
1.0
141
2.0
290
     0
  0
SCALE
  5
4A
102
{ACAD_REACTORS
330
47
102
}
330
47
100
AcDbScale
 70
     0
300
1:4
140
1.0
141
4.0
290
     0
  0
SCALE
  5
4B
102
{ACAD_REACTORS
330
47
102
}
330
47
100
AcDbScale
 70
     0
300
1:5
140
1.0
141
5.0
290
     0
  0
SCALE
  5
4C
102
{ACAD_REACTORS
330
47
102
}
330
47
100
AcDbScale
 70
     0
300
1:8
140
1.0
141
8.0
290
     0
  0
SCALE
  5
4D
102
{ACAD_REACTORS
330
47
102
}
330
47
100
AcDbScale
 70
     0
300
1:10
140
1.0
141
10.0
290
     0
  0
SCALE
  5
4E
102
{ACAD_REACTORS
330
47
102
}
330
47
100
AcDbScale
 70
     0
300
1:16
140
1.0
141
16.0
290
     0
  0
SCALE
  5
4F
102
{ACAD_REACTORS
330
47
102
}
330
47
100
AcDbScale
 70
     0
300
1:20
140
1.0
141
20.0
290
     0
  0
SCALE
  5
50
102
{ACAD_REACTORS
330
47
102
}
330
47
100
AcDbScale
 70
     0
300
1:30
140
1.0
141
30.0
290
     0
  0
SCALE
  5
51
102
{ACAD_REACTORS
330
47
102
}
330
47
100
AcDbScale
 70
     0
300
1:40
140
1.0
141
40.0
290
     0
  0
SCALE
  5
52
102
{ACAD_REACTORS
330
47
102
}
330
47
100
AcDbScale
 70
     0
300
1:50
140
1.0
141
50.0
290
     0
  0
SCALE
  5
53
102
{ACAD_REACTORS
330
47
102
}
330
47
100
AcDbScale
 70
     0
300
1:100
140
1.0
141
100.0
290
     0
  0
SCALE
  5
54
102
{ACAD_REACTORS
330
47
102
}
330
47
100
AcDbScale
 70
     0
300
2:1
140
2.0
141
1.0
290
     0
  0
SCALE
  5
55
102
{ACAD_REACTORS
330
47
102
}
330
47
100
AcDbScale
 70
     0
300
4:1
140
4.0
141
1.0
290
     0
  0
SCALE
  5
56
102
{ACAD_REACTORS
330
47
102
}
330
47
100
AcDbScale
 70
     0
300
8:1
140
8.0
141
1.0
290
     0
  0
SCALE
  5
57
102
{ACAD_REACTORS
330
47
102
}
330
47
100
AcDbScale
 70
     0
300
10:1
140
10.0
141
1.0
290
     0
  0
SCALE
  5
58
102
{ACAD_REACTORS
330
47
102
}
330
47
100
AcDbScale
 70
     0
300
100:1
140
100.0
141
1.0
290
     0
  0
SCALE
  5
59
102
{ACAD_REACTORS
330
47
102
}
330
47
100
AcDbScale
 70
     0
300
1/128" = 1'-0"
140
0.0078125
141
12.0
290
     0
  0
SCALE
  5
5A
102
{ACAD_REACTORS
330
47
102
}
330
47
100
AcDbScale
 70
     0
300
1/64" = 1'-0"
140
0.015625
141
12.0
290
     0
  0
SCALE
  5
5B
102
{ACAD_REACTORS
330
47
102
}
330
47
100
AcDbScale
 70
     0
300
1/32" = 1'-0"
140
0.03125
141
12.0
290
     0
  0
SCALE
  5
5C
102
{ACAD_REACTORS
330
47
102
}
330
47
100
AcDbScale
 70
     0
300
1/16" = 1'-0"
140
0.0625
141
12.0
290
     0
  0
SCALE
  5
5D
102
{ACAD_REACTORS
330
47
102
}
330
47
100
AcDbScale
 70
     0
300
3/32" = 1'-0"
140
0.09375
141
12.0
290
     0
  0
SCALE
  5
5E
102
{ACAD_REACTORS
330
47
102
}
330
47
100
AcDbScale
 70
     0
300
1/8" = 1'-0"
140
0.125
141
12.0
290
     0
  0
SCALE
  5
5F
102
{ACAD_REACTORS
330
47
102
}
330
47
100
AcDbScale
 70
     0
300
3/16" = 1'-0"
140
0.1875
141
12.0
290
     0
  0
SCALE
  5
60
102
{ACAD_REACTORS
330
47
102
}
330
47
100
AcDbScale
 70
     0
300
1/4" = 1'-0"
140
0.25
141
12.0
290
     0
  0
SCALE
  5
61
102
{ACAD_REACTORS
330
47
102
}
330
47
100
AcDbScale
 70
     0
300
3/8" = 1'-0"
140
0.375
141
12.0
290
     0
  0
SCALE
  5
62
102
{ACAD_REACTORS
330
47
102
}
330
47
100
AcDbScale
 70
     0
300
1/2" = 1'-0"
140
0.5
141
12.0
290
     0
  0
SCALE
  5
63
102
{ACAD_REACTORS
330
47
102
}
330
47
100
AcDbScale
 70
     0
300
3/4" = 1'-0"
140
0.75
141
12.0
290
     0
  0
SCALE
  5
64
102
{ACAD_REACTORS
330
47
102
}
330
47
100
AcDbScale
 70
     0
300
1" = 1'-0"
140
1.0
141
12.0
290
     0
  0
SCALE
  5
65
102
{ACAD_REACTORS
330
47
102
}
330
47
100
AcDbScale
 70
     0
300
1-1/2" = 1'-0"
140
1.5
141
12.0
290
     0
  0
SCALE
  5
66
102
{ACAD_REACTORS
330
47
102
}
330
47
100
AcDbScale
 70
     0
300
3" = 1'-0"
140
3.0
141
12.0
290
     0
  0
SCALE
  5
67
102
{ACAD_REACTORS
330
47
102
}
330
47
100
AcDbScale
 70
     0
300
6" = 1'-0"
140
6.0
141
12.0
290
     0
  0
SCALE
  5
68
102
{ACAD_REACTORS
330
47
102
}
330
47
100
AcDbScale
 70
     0
300
1'-0" = 1'-0"
140
12.0
141
12.0
290
     0
  0
TABLESTYLE
  5
6A
102
{ACAD_REACTORS
330
69
102
}
330
69
100
AcDbTableStyle
  3
Standard
 70
     0
 71
     0
 40
0.06
 41
0.06
280
     0
281
     0
  7
Standard
140
0.18
170
     2
 62
     0
 63
   257
283
     0
274
    -2
284
     1
 64
     0
275
    -2
285
     1
 65
     0
276
    -2
286
     1
 66
     0
277
    -2
287
     1
 67
     0
278
    -2
288
     1
 68
     0
279
    -2
289
     1
 69
     0
  7
Standard
140
0.25
170
     5
 62
     0
 63
   257
283
     0
274
    -2
284
     1
 64
     0
275
    -2
285
     1
 65
     0
276
    -2
286
     1
 66
     0
277
    -2
287
     1
 67
     0
278
    -2
288
     1
 68
     0
279
    -2
289
     1
 69
     0
  7
Standard
140
0.18
170
     5
 62
     0
 63
   257
283
     0
274
    -2
284
     1
 64
     0
275
    -2
285
     1
 65
     0
276
    -2
286
     1
 66
     0
277
    -2
287
     1
 67
     0
278
    -2
288
     1
 68
     0
279
    -2
289
     1
 69
     0
  0
VISUALSTYLE
  5
2F
102
{ACAD_REACTORS
330
2A
102
}
102
{ACAD_XDICTIONARY
360
460
102
}
330
2A
100
AcDbVisualStyle
  2
2dWireframe
 70
     4
 71
     0
 72
     2
 73
     0
 90
        0
 40
0.6
 41
30.0
 62
     5
 63
     7
 74
     1
 91
        4
 64
     7
 65
   257
 75
     1
175
     1
 42
1.0
 92
        0
 66
   257
 43
1.0
 76
     1
 77
     6
 78
     2
 67
     7
 79
     5
170
     0
171
     0
290
     0
174
     0
 93
        1
 44
0.0
173
     0
291
     0
 45
0.0
1001
ACAD
1000
AcDbSavedByObjectVersion
1070
     0
  0
VISUALSTYLE
  5
32
102
{ACAD_REACTORS
330
2A
102
}
102
{ACAD_XDICTIONARY
360
466
102
}
330
2A
100
AcDbVisualStyle
  2
Basic
 70
     7
 71
     1
 72
     0
 73
     1
 90
        0
 40
0.6
 41
30.0
 62
     5
 63
     7
 74
     0
 91
        4
 64
     7
 65
   257
 75
     1
175
     1
 42
1.0
 92
        8
 66
     7
 43
1.0
 76
     1
 77
     6
 78
     2
 67
     7
 79
     5
170
     0
171
     0
290
     0
174
     0
 93
        1
 44
0.0
173
     0
291
     1
 45
0.0
1001
ACAD
1000
AcDbSavedByObjectVersion
1070
     0
  0
VISUALSTYLE
  5
36
102
{ACAD_REACTORS
330
2A
102
}
102
{ACAD_XDICTIONARY
360
46E
102
}
330
2A
100
AcDbVisualStyle
  2
Brighten
 70
    12
 71
     2
 72
     2
 73
     0
 90
        0
 40
0.6
 41
30.0
 62
     5
 63
     7
 74
     1
 91
        4
 64
     7
 65
   257
 75
     1
175
     1
 42
1.0
 92
        8
 66
     7
 43
1.0
 76
     1
 77
     6
 78
     2
 67
     7
 79
     5
170
     0
171
     0
290
     0
174
     0
 93
        1
 44
50.0
173
     0
291
     1
 45
0.0
1001
ACAD
1000
AcDbSavedByObjectVersion
1070
     0
  0
VISUALSTYLE
  5
3A
102
{ACAD_REACTORS
330
2A
102
}
102
{ACAD_XDICTIONARY
360
476
102
}
330
2A
100
AcDbVisualStyle
  2
ColorChange
 70
    16
 71
     2
 72
     2
 73
     3
 90
        0
 40
0.6
 41
30.0
 62
     5
 63
     8
 74
     1
 91
        4
 64
     7
 65
   257
 75
     1
175
     1
 42
1.0
 92
        8
 66
     8
 43
1.0
 76
     1
 77
     6
 78
     2
 67
     7
 79
     5
170
     0
171
     0
290
     0
174
     0
 93
        1
 44
0.0
173
     0
291
     1
 45
0.0
1001
ACAD
1000
AcDbSavedByObjectVersion
1070
     0
  0
VISUALSTYLE
  5
34
102
{ACAD_REACTORS
330
2A
102
}
102
{ACAD_XDICTIONARY
360
46A
102
}
330
2A
100
AcDbVisualStyle
  2
Conceptual
 70
     9
 71
     3
 72
     2
 73
     0
 90
        0
 40
0.6
 41
30.0
 62
     5
 63
     7
 74
     2
 91
        2
 64
     7
 65
   257
 75
     1
175
     1
 42
179.0
 92
        8
 66
     7
 43
1.0
 76
     1
 77
     6
 78
     2
 67
     7
 79
     3
170
     0
171
     0
290
     0
174
     0
 93
        1
 44
0.0
173
     0
291
     0
 45
0.0
1001
ACAD
1000
AcDbSavedByObjectVersion
1070
     0
  0
VISUALSTYLE
  5
35
102
{ACAD_REACTORS
330
2A
102
}
102
{ACAD_XDICTIONARY
360
46C
102
}
330
2A
100
AcDbVisualStyle
  2
Dim
 70
    11
 71
     2
 72
     2
 73
     0
 90
        0
 40
0.6
 41
30.0
 62
     5
 63
     7
 74
     1
 91
        4
 64
     7
 65
   257
 75
     1
175
     1
 42
1.0
 92
        8
 66
     7
 43
1.0
 76
     1
 77
     6
 78
     2
 67
     7
 79
     5
170
     0
171
     0
290
     0
174
     0
 93
        1
 44
-50.0
173
     0
291
     1
 45
0.0
1001
ACAD
1000
AcDbSavedByObjectVersion
1070
     0
  0
VISUALSTYLE
  5
3D
102
{ACAD_REACTORS
330
2A
102
}
102
{ACAD_XDICTIONARY
360
47C
102
}
330
2A
100
AcDbVisualStyle
  2
EdgeColorOff
 70
    22
 71
     2
 72
     2
 73
     0
 90
        0
 40
0.6
 41
30.0
 62
     5
 63
     7
 74
     1
 91
        4
 64
     7
 65
   257
 75
     1
175
     1
 42
1.0
 92
        8
 66
     7
 43
1.0
 76
     1
 77
     6
 78
     2
 67
     7
 79
     5
170
     0
171
     0
290
     0
174
     0
 93
        1
 44
0.0
173
     0
291
     1
 45
0.0
1001
ACAD
1000
AcDbSavedByObjectVersion
1070
     0
  0
VISUALSTYLE
  5
39
102
{ACAD_REACTORS
330
2A
102
}
102
{ACAD_XDICTIONARY
360
474
102
}
330
2A
100
AcDbVisualStyle
  2
Facepattern
 70
    15
 71
     2
 72
     2
 73
     0
 90
        0
 40
0.6
 41
30.0
 62
     5
 63
     7
 74
     1
 91
        4
 64
     7
 65
   257
 75
     1
175
     1
 42
1.0
 92
        8
 66
     7
 43
1.0
 76
     1
 77
     6
 78
     2
 67
     7
 79
     5
170
     0
171
     0
290
     0
174
     0
 93
        1
 44
0.0
173
     0
291
     1
 45
0.0
1001
ACAD
1000
AcDbSavedByObjectVersion
1070
     0
  0
VISUALSTYLE
  5
2B
102
{ACAD_REACTORS
330
2A
102
}
102
{ACAD_XDICTIONARY
360
458
102
}
330
2A
100
AcDbVisualStyle
  2
Flat
 70
     0
 71
     2
 72
     1
 73
     1
 90
        2
 40
0.6
 41
30.0
 62
     5
 63
     7
 74
     0
 91
        0
 64
     7
 65
   257
 75
     1
175
     1
 42
1.0
 92
        8
 66
     7
 43
1.0
 76
     1
 77
     6
 78
     2
 67
     7
 79
     5
170
     0
171
     0
290
     0
174
     0
 93
       13
 44
0.0
173
     0
291
     1
 45
0.0
1001
ACAD
1000
AcDbSavedByObjectVersion
1070
     0
  0
VISUALSTYLE
  5
2C
102
{ACAD_REACTORS
330
2A
102
}
102
{ACAD_XDICTIONARY
360
45A
102
}
330
2A
100
AcDbVisualStyle
  2
FlatWithEdges
 70
     1
 71
     2
 72
     1
 73
     1
 90
        2
 40
0.6
 41
30.0
 62
     5
 63
     7
 74
     1
 91
        0
 64
     7
 65
   257
 75
     1
175
     1
 42
1.0
 92
        0
 66
   257
 43
1.0
 76
     1
 77
     6
 78
     2
 67
     7
 79
     5
170
     0
171
     0
290
     0
174
     0
 93
       13
 44
0.0
173
     0
291
     1
 45
0.0
1001
ACAD
1000
AcDbSavedByObjectVersion
1070
     0
  0
VISUALSTYLE
  5
2D
102
{ACAD_REACTORS
330
2A
102
}
102
{ACAD_XDICTIONARY
360
45C
102
}
330
2A
100
AcDbVisualStyle
  2
Gouraud
 70
     2
 71
     2
 72
     2
 73
     1
 90
        2
 40
0.6
 41
30.0
 62
     5
 63
     7
 74
     0
 91
        0
 64
     7
 65
   257
 75
     1
175
     1
 42
1.0
 92
        0
 66
     7
 43
1.0
 76
     1
 77
     6
 78
     2
 67
     7
 79
     5
170
     0
171
     0
290
     0
174
     0
 93
       13
 44
0.0
173
     0
291
     1
 45
0.0
1001
ACAD
1000
AcDbSavedByObjectVersion
1070
     0
  0
VISUALSTYLE
  5
2E
102
{ACAD_REACTORS
330
2A
102
}
102
{ACAD_XDICTIONARY
360
45E
102
}
330
2A
100
AcDbVisualStyle
  2
GouraudWithEdges
 70
     3
 71
     2
 72
     2
 73
     1
 90
        2
 40
0.6
 41
30.0
 62
     5
 63
     7
 74
     1
 91
        0
 64
     7
 65
   257
 75
     1
175
     1
 42
1.0
 92
        0
 66
   257
 43
1.0
 76
     1
 77
     6
 78
     2
 67
     7
 79
     5
170
     0
171
     0
290
     0
174
     0
 93
       13
 44
0.0
173
     0
291
     1
 45
0.0
1001
ACAD
1000
AcDbSavedByObjectVersion
1070
     0
  0
VISUALSTYLE
  5
31
102
{ACAD_REACTORS
330
2A
102
}
102
{ACAD_XDICTIONARY
360
464
102
}
330
2A
100
AcDbVisualStyle
  2
Hidden
 70
     6
 71
     1
 72
     2
 73
     2
 90
        0
 40
0.6
 41
30.0
 62
     5
 63
     7
 74
     2
 91
        2
 64
     7
 65
   257
 75
     2
175
     1
 42
40.0
 92
        0
 66
   257
 43
1.0
 76
     1
 77
     6
 78
     2
 67
     7
 79
     3
170
     0
171
     0
290
     0
174
     0
 93
        1
 44
0.0
173
     0
291
     0
 45
0.0
1001
ACAD
1000
AcDbSavedByObjectVersion
1070
     0
  0
VISUALSTYLE
  5
3B
102
{ACAD_REACTORS
330
2A
102
}
102
{ACAD_XDICTIONARY
360
478
102
}
330
2A
100
AcDbVisualStyle
  2
JitterOff
 70
    20
 71
     2
 72
     2
 73
     0
 90
        0
 40
0.6
 41
30.0
 62
     5
 63
     7
 74
     1
 91
        4
 64
     7
 65
   257
 75
     1
175
     1
 42
1.0
 92
       10
 66
     7
 43
1.0
 76
     1
 77
     6
 78
     2
 67
     7
 79
     5
170
     0
171
     0
290
     0
174
     0
 93
        1
 44
0.0
173
     0
291
     1
 45
0.0
1001
ACAD
1000
AcDbSavedByObjectVersion
1070
     0
  0
VISUALSTYLE
  5
38
102
{ACAD_REACTORS
330
2A
102
}
102
{ACAD_XDICTIONARY
360
472
102
}
330
2A
100
AcDbVisualStyle
  2
Linepattern
 70
    14
 71
     2
 72
     2
 73
     0
 90
        0
 40
0.6
 41
30.0
 62
     5
 63
     7
 74
     1
 91
        4
 64
     7
 65
   257
 75
     7
175
     7
 42
1.0
 92
        8
 66
     7
 43
1.0
 76
     1
 77
     6
 78
     2
 67
     7
 79
     5
170
     0
171
     0
290
     0
174
     0
 93
        1
 44
0.0
173
     0
291
     1
 45
0.0
1001
ACAD
1000
AcDbSavedByObjectVersion
1070
     0
  0
VISUALSTYLE
  5
3C
102
{ACAD_REACTORS
330
2A
102
}
102
{ACAD_XDICTIONARY
360
47A
102
}
330
2A
100
AcDbVisualStyle
  2
OverhangOff
 70
    21
 71
     2
 72
     2
 73
     0
 90
        0
 40
0.6
 41
30.0
 62
     5
 63
     7
 74
     1
 91
        4
 64
     7
 65
   257
 75
     1
175
     1
 42
1.0
 92
        9
 66
     7
 43
1.0
 76
     1
 77
     6
 78
     2
 67
     7
 79
     5
170
     0
171
     0
290
     0
174
     0
 93
        1
 44
0.0
173
     0
291
     1
 45
0.0
1001
ACAD
1000
AcDbSavedByObjectVersion
1070
     0
  0
VISUALSTYLE
  5
33
102
{ACAD_REACTORS
330
2A
102
}
102
{ACAD_XDICTIONARY
360
468
102
}
330
2A
100
AcDbVisualStyle
  2
Realistic
 70
     8
 71
     2
 72
     3
 73
     0
 90
        2
 40
0.6
 41
30.0
 62
     5
 63
     7
 74
     0
 91
        0
 64
     7
 65
   257
 75
     1
175
     1
 42
1.0
 92
        8
 66
   257
 43
1.0
 76
     1
 77
     6
 78
     2
 67
     7
 79
     3
170
     0
171
     0
290
     0
174
     0
 93
       13
 44
0.0
173
     0
291
     0
 45
0.0
1001
ACAD
1000
AcDbSavedByObjectVersion
1070
     0
  0
VISUALSTYLE
  5
42
102
{ACAD_REACTORS
330
2A
102
}
102
{ACAD_XDICTIONARY
360
486
102
}
330
2A
100
AcDbVisualStyle
  2
Shaded
 70
    27
 71
     2
 72
     2
 73
     1
 90
        2
 40
0.6
 41
30.0
 62
     5
 63
     7
 74
     0
 91
        4
 64
     7
 65
   257
 75
     1
175
     1
 42
1.0
 92
        8
 66
   257
 43
1.0
 76
     1
 77
     6
 78
     2
 67
     8
 79
     3
170
     0
171
     0
290
     0
174
     0
 93
        5
 44
0.0
173
     0
291
     0
 45
0.0
1001
ACAD
1000
AcDbSavedByObjectVersion
1070
     0
  0
VISUALSTYLE
  5
41
102
{ACAD_REACTORS
330
2A
102
}
102
{ACAD_XDICTIONARY
360
484
102
}
330
2A
100
AcDbVisualStyle
  2
Shaded with edges
 70
    26
 71
     2
 72
     2
 73
     1
 90
        2
 40
0.6
 41
30.0
 62
     5
 63
     7
 74
     1
 91
       10
 64
     7
 65
   257
 75
     2
175
     1
 42
1.0
 92
        8
 66
   257
 43
1.0
 76
     1
 77
     6
 78
     2
 67
     7
 79
     3
170
     0
171
     0
290
     0
174
     0
 93
        5
 44
0.0
173
     0
291
     0
 45
0.0
1001
ACAD
1000
AcDbSavedByObjectVersion
1070
     0
  0
VISUALSTYLE
  5
3E
102
{ACAD_REACTORS
330
2A
102
}
102
{ACAD_XDICTIONARY
360
47E
102
}
330
2A
100
AcDbVisualStyle
  2
Shades of Gray
 70
    23
 71
     2
 72
     2
 73
     3
 90
        0
 40
0.6
 41
30.0
 62
     5
 63
     7
 74
     2
 91
        2
 64
     7
 65
     7
 75
     1
175
     1
 42
40.0
 92
        8
 66
     7
 43
1.0
 76
     1
 77
     6
 78
     2
 67
     7
 79
     3
170
     0
171
     0
290
     0
174
     0
 93
        1
 44
0.0
173
     0
291
     0
 45
0.0
1001
ACAD
1000
AcDbSavedByObjectVersion
1070
     0
  0
VISUALSTYLE
  5
3F
102
{ACAD_REACTORS
330
2A
102
}
102
{ACAD_XDICTIONARY
360
480
102
}
330
2A
100
AcDbVisualStyle
  2
Sketchy
 70
    24
 71
     1
 72
     2
 73
     2
 90
        0
 40
0.6
 41
30.0
 62
     5
 63
     7
 74
     2
 91
        2
 64
     7
 65
     7
 75
     1
175
     1
 42
40.0
 92
       11
 66
     7
 43
1.0
 76
     1
 77
     6
 78
     2
 67
     7
 79
     6
170
     0
171
     0
290
     0
174
     0
 93
        1
 44
0.0
173
     0
291
     0
 45
0.0
1001
ACAD
1000
AcDbSavedByObjectVersion
1070
     0
  0
VISUALSTYLE
  5
37
102
{ACAD_REACTORS
330
2A
102
}
102
{ACAD_XDICTIONARY
360
470
102
}
330
2A
100
AcDbVisualStyle
  2
Thicken
 70
    13
 71
     2
 72
     2
 73
     0
 90
        0
 40
0.6
 41
30.0
 62
     5
 63
     7
 74
     1
 91
        4
 64
     7
 65
   257
 75
     1
175
     1
 42
1.0
 92
       12
 66
     7
 43
1.0
 76
     1
 77
     6
 78
     2
 67
     7
 79
     5
170
     0
171
     0
290
     0
174
     0
 93
        1
 44
0.0
173
     0
291
     1
 45
0.0
1001
ACAD
1000
AcDbSavedByObjectVersion
1070
     0
  0
VISUALSTYLE
  5
30
102
{ACAD_REACTORS
330
2A
102
}
102
{ACAD_XDICTIONARY
360
462
102
}
330
2A
100
AcDbVisualStyle
  2
Wireframe
 70
     5
 71
     0
 72
     2
 73
     0
 90
        0
 40
0.6
 41
30.0
 62
     5
 63
     7
 74
     1
 91
        4
 64
     7
 65
   257
 75
     1
175
     1
 42
1.0
 92
        0
 66
   257
 43
1.0
 76
     1
 77
     6
 78
     2
 67
     7
 79
     3
170
     0
171
     0
290
     0
174
     0
 93
        1
 44
0.0
173
     0
291
     0
 45
0.0
1001
ACAD
1000
AcDbSavedByObjectVersion
1070
     0
  0
VISUALSTYLE
  5
40
102
{ACAD_REACTORS
330
2A
102
}
102
{ACAD_XDICTIONARY
360
482
102
}
330
2A
100
AcDbVisualStyle
  2
X-Ray
 70
    25
 71
     2
 72
     2
 73
     1
 90
        1
 40
0.5
 41
30.0
 62
     5
 63
     7
 74
     1
 91
        0
 64
     7
 65
   257
 75
     1
175
     1
 42
1.0
 92
        8
 66
     7
 43
1.0
 76
     1
 77
     6
 78
     2
 67
     7
 79
     3
170
     0
171
     0
290
     0
174
     0
 93
       13
 44
0.0
173
     0
291
     0
 45
0.0
1001
ACAD
1000
AcDbSavedByObjectVersion
1070
     0
  0
DICTIONARYVAR
  5
456
102
{ACAD_REACTORS
330
44D
102
}
330
44D
100
DictionaryVariables
280
     0
  1
1:1
  0
DICTIONARYVAR
  5
44F
102
{ACAD_REACTORS
330
44D
102
}
330
44D
100
DictionaryVariables
280
     0
  1
Standard
  0
DICTIONARYVAR
  5
44E
102
{ACAD_REACTORS
330
44D
102
}
330
44D
100
DictionaryVariables
280
     0
  1
Standard
  0
DICTIONARYVAR
  5
452
102
{ACAD_REACTORS
330
44D
102
}
330
44D
100
DictionaryVariables
280
     0
  1
2
  0
DICTIONARYVAR
  5
453
102
{ACAD_REACTORS
330
44D
102
}
330
44D
100
DictionaryVariables
280
     0
  1
1
  0
DICTIONARYVAR
  5
457
102
{ACAD_REACTORS
330
44D
102
}
330
44D
100
DictionaryVariables
280
     0
  1
1
  0
DICTIONARY
  5
48A
330
45
100
AcDbDictionary
280
     1
281
     1
  3
ACAD_XREC_ROUNDTRIP
360
48B
  0
DICTIONARY
  5
488
330
44
100
AcDbDictionary
280
     1
281
     1
  3
ACAD_XREC_ROUNDTRIP
360
489
  0
DICTIONARY
  5
48C
330
46
100
AcDbDictionary
280
     1
281
     1
  3
ACAD_XREC_ROUNDTRIP
360
48D
  0
DICTIONARY
  5
48F
330
6C
100
AcDbDictionary
280
     1
281
     1
  3
ACAD_XREC_ROUNDTRIP
360
490
  0
DICTIONARY
  5
460
330
2F
100
AcDbDictionary
280
     1
281
     1
  3
ACAD_XREC_ROUNDTRIP
360
461
  0
DICTIONARY
  5
466
330
32
100
AcDbDictionary
280
     1
281
     1
  3
ACAD_XREC_ROUNDTRIP
360
467
  0
DICTIONARY
  5
46E
330
36
100
AcDbDictionary
280
     1
281
     1
  3
ACAD_XREC_ROUNDTRIP
360
46F
  0
DICTIONARY
  5
476
330
3A
100
AcDbDictionary
280
     1
281
     1
  3
ACAD_XREC_ROUNDTRIP
360
477
  0
DICTIONARY
  5
46A
330
34
100
AcDbDictionary
280
     1
281
     1
  3
ACAD_XREC_ROUNDTRIP
360
46B
  0
DICTIONARY
  5
46C
330
35
100
AcDbDictionary
280
     1
281
     1
  3
ACAD_XREC_ROUNDTRIP
360
46D
  0
DICTIONARY
  5
47C
330
3D
100
AcDbDictionary
280
     1
281
     1
  3
ACAD_XREC_ROUNDTRIP
360
47D
  0
DICTIONARY
  5
474
330
39
100
AcDbDictionary
280
     1
281
     1
  3
ACAD_XREC_ROUNDTRIP
360
475
  0
DICTIONARY
  5
458
330
2B
100
AcDbDictionary
280
     1
281
     1
  3
ACAD_XREC_ROUNDTRIP
360
459
  0
DICTIONARY
  5
45A
330
2C
100
AcDbDictionary
280
     1
281
     1
  3
ACAD_XREC_ROUNDTRIP
360
45B
  0
DICTIONARY
  5
45C
330
2D
100
AcDbDictionary
280
     1
281
     1
  3
ACAD_XREC_ROUNDTRIP
360
45D
  0
DICTIONARY
  5
45E
330
2E
100
AcDbDictionary
280
     1
281
     1
  3
ACAD_XREC_ROUNDTRIP
360
45F
  0
DICTIONARY
  5
464
330
31
100
AcDbDictionary
280
     1
281
     1
  3
ACAD_XREC_ROUNDTRIP
360
465
  0
DICTIONARY
  5
478
330
3B
100
AcDbDictionary
280
     1
281
     1
  3
ACAD_XREC_ROUNDTRIP
360
479
  0
DICTIONARY
  5
472
330
38
100
AcDbDictionary
280
     1
281
     1
  3
ACAD_XREC_ROUNDTRIP
360
473
  0
DICTIONARY
  5
47A
330
3C
100
AcDbDictionary
280
     1
281
     1
  3
ACAD_XREC_ROUNDTRIP
360
47B
  0
DICTIONARY
  5
468
330
33
100
AcDbDictionary
280
     1
281
     1
  3
ACAD_XREC_ROUNDTRIP
360
469
  0
DICTIONARY
  5
486
330
42
100
AcDbDictionary
280
     1
281
     1
  3
ACAD_XREC_ROUNDTRIP
360
487
  0
DICTIONARY
  5
484
330
41
100
AcDbDictionary
280
     1
281
     1
  3
ACAD_XREC_ROUNDTRIP
360
485
  0
DICTIONARY
  5
47E
330
3E
100
AcDbDictionary
280
     1
281
     1
  3
ACAD_XREC_ROUNDTRIP
360
47F
  0
DICTIONARY
  5
480
330
3F
100
AcDbDictionary
280
     1
281
     1
  3
ACAD_XREC_ROUNDTRIP
360
481
  0
DICTIONARY
  5
470
330
37
100
AcDbDictionary
280
     1
281
     1
  3
ACAD_XREC_ROUNDTRIP
360
471
  0
DICTIONARY
  5
462
330
30
100
AcDbDictionary
280
     1
281
     1
  3
ACAD_XREC_ROUNDTRIP
360
463
  0
DICTIONARY
  5
482
330
40
100
AcDbDictionary
280
     1
281
     1
  3
ACAD_XREC_ROUNDTRIP
360
483
  0
XRECORD
  5
48B
102
{ACAD_REACTORS
330
48A
102
}
330
48A
100
AcDbXrecord
280
     1
102
MATERIAL
148
0.0
149
0.0
149
0.0
 93
        0
 94
      127
282
     0
 72
     1
 77
     1
171
     1
175
     1
179
     1
273
     0
  0
XRECORD
  5
489
102
{ACAD_REACTORS
330
488
102
}
330
488
100
AcDbXrecord
280
     1
102
MATERIAL
148
0.0
149
0.0
149
0.0
 93
        0
 94
      127
282
     0
 72
     1
 77
     1
171
     1
175
     1
179
     1
273
     0
  0
XRECORD
  5
48D
102
{ACAD_REACTORS
330
48C
102
}
330
48C
100
AcDbXrecord
280
     1
102
MATERIAL
148
0.0
149
0.0
149
0.0
 93
        0
 94
      127
282
     0
 72
     1
 77
     1
171
     1
175
     1
179
     1
273
     0
  0
XRECORD
  5
490
102
{ACAD_REACTORS
330
48F
102
}
330
48F
100
AcDbXrecord
280
     1
102
ACAD_ROUNDTRIP_2010_MLEADER_STYLE
  0
XRECORD
  5
461
102
{ACAD_REACTORS
330
460
102
}
330
460
100
AcDbXrecord
280
     1
102
RTVSPropertyOp0
 70
     1
102
RTVSPropertyOp1
 70
     1
102
RTVSPropertyOp2
 70
     1
102
RTVSPropertyOp3
 70
     1
102
RTVSPropertyOp4
 70
     1
102
RTVSPropertyOp5
 70
     1
102
RTVSPropertyOp6
 70
     1
102
RTVSPropertyOp7
 70
     1
102
RTVSPropertyOp8
 70
     1
102
RTVSPropertyOp9
 70
     1
102
RTVSPropertyOp10
 70
     1
102
RTVSPropertyOp11
 70
     1
102
RTVSPropertyOp12
 70
     1
102
RTVSPropertyOp13
 70
     1
102
RTVSPropertyOp14
 70
     1
102
RTVSPropertyOp15
 70
     1
102
RTVSPropertyOp16
 70
     1
102
RTVSPropertyOp17
 70
     1
102
RTVSPropertyOp18
 70
     1
102
RTVSPropertyOp19
 70
     1
102
RTVSPropertyOp20
 70
     1
102
RTVSPropertyOp21
 70
     1
102
RTVSPropertyOp22
 70
     1
102
RTVSPropertyOp23
 70
     1
102
RTVSPropertyOp24
 70
     1
102
RTVSPropertyOp25
 70
     1
102
RTVSPropertyOp26
 70
     1
102
RTVSPropertyOp27
 70
     1
102
RTVSPropertyOp28
 70
     1
102
RTVSPropertyOp29
 70
     1
102
RTVSPropertyOp30
 70
     1
102
RTVSPropertyOp31
 70
     1
102
RTVSPropertyOp32
 70
     1
102
RTVSPropertyOp33
 70
     1
102
RTVSPropertyOp34
 70
     1
102
RTVSPropertyOp35
 70
     1
102
RTVSPropertyOp36
 70
     1
102
RTVSPropertyOp37
 70
     1
102
RTVSPropertyOp38
 70
     1
102
RTVSPropertyOp39
 70
     1
102
RTVSPropertyOp40
 70
     1
102
RTVSPropertyOp41
 70
     1
102
RTVSPropertyOp42
 70
     1
102
RTVSPropertyOp43
 70
     1
102
RTVSPropertyOp44
 70
     1
102
RTVSPropertyOp45
 70
     1
102
RTVSPropertyOp46
 70
     1
102
RTVSPropertyOp47
 70
     1
102
RTVSPropertyOp48
 70
     1
102
RTVSPropertyOp49
 70
     1
102
RTVSPropertyOp50
 70
     1
102
RTVSPropertyOp51
 70
     0
102
RTVSPropertyOp52
 70
     0
102
RTVSPropertyOp53
 70
     1
102
RTVSPropertyOp54
 70
     1
102
RTVSPropertyOp55
 70
     1
102
RTVSPropertyOp56
 70
     1
102
RTVSPropertyOp57
 70
     1
102
RTVSPost2010Prop28
280
     1
102
RTVSPost2010PropOp28
 70
     1
102
RTVSPost2010Prop29
280
     1
102
RTVSPost2010PropOp29
 70
     1
102
RTVSPost2010Prop30
280
     0
102
RTVSPost2010PropOp30
 70
     1
102
RTVSPost2010Prop31
280
     0
102
RTVSPost2010PropOp31
 70
     1
102
RTVSPost2010Prop32
280
     0
102
RTVSPost2010PropOp32
 70
     1
102
RTVSPost2010Prop33
280
     0
102
RTVSPost2010PropOp33
 70
     1
102
RTVSPost2010Prop34
280
     0
102
RTVSPost2010PropOp34
 70
     1
102
RTVSPost2010Prop35
280
     0
102
RTVSPost2010PropOp35
 70
     1
102
RTVSPost2010Prop36
280
     0
102
RTVSPost2010PropOp36
 70
     1
102
RTVSPost2010Prop37
 90
       50
102
RTVSPost2010PropOp37
 70
     1
102
RTVSPost2010Prop38
140
0.0
102
RTVSPost2010PropOp38
 70
     1
102
RTVSPost2010Prop39
140
1.0
102
RTVSPost2010PropOp39
 70
     1
102
RTVSPost2010Prop40
 90
        0
102
RTVSPost2010PropOp40
 70
     1
102
RTVSPost2010Prop41ColorIndex
 90
       18
102
RTVSPost2010Prop41ColorRGB
 90
        0
102
RTVSPost2010PropOp41
 70
     1
102
RTVSPost2010Prop42
 90
       50
102
RTVSPost2010PropOp42
 70
     1
102
RTVSPost2010Prop43
 90
        3
102
RTVSPost2010PropOp43
 70
     1
102
RTVSPost2010Prop44ColorIndex
 90
        5
102
RTVSPost2010Prop44ColorRGB
 90
      255
102
RTVSPost2010PropOp44
 70
     1
102
RTVSPost2010Prop45
280
     0
102
RTVSPost2010PropOp45
 70
     1
102
RTVSPost2010Prop46
 90
       50
102
RTVSPost2010PropOp46
 70
     1
102
RTVSPost2010Prop47
 90
       50
102
RTVSPost2010PropOp47
 70
     1
102
RTVSPost2010Prop48
 90
       50
102
RTVSPost2010PropOp48
 70
     1
102
RTVSPost2010Prop49
280
     0
102
RTVSPost2010PropOp49
 70
     1
102
RTVSPost2010Prop50
 90
       50
102
RTVSPost2010PropOp50
 70
     1
102
RTVSPost2010Prop51ColorIndex
 90
      256
102
RTVSPost2010Prop51ColorRGB
 90
-16777216
102
RTVSPost2010PropOp51
 70
     0
102
RTVSPost2010Prop52
140
1.0
102
RTVSPost2010PropOp52
 70
     0
102
RTVSPost2010Prop53
 90
        2
102
RTVSPost2010PropOp53
 70
     1
102
RTVSPost2010Prop54
  1
strokes_ogs.tif
102
RTVSPost2010PropOp54
 70
     1
102
RTVSPost2010Prop55
280
     0
102
RTVSPost2010PropOp55
 70
     1
102
RTVSPost2010Prop56
140
1.0
102
RTVSPost2010PropOp56
 70
     1
102
RTVSPost2010Prop57
140
1.0
102
RTVSPost2010PropOp57
 70
     1
  0
XRECORD
  5
467
102
{ACAD_REACTORS
330
466
102
}
330
466
100
AcDbXrecord
280
     1
102
RTVSPropertyOp0
 70
     1
102
RTVSPropertyOp1
 70
     1
102
RTVSPropertyOp2
 70
     1
102
RTVSPropertyOp3
 70
     1
102
RTVSPropertyOp4
 70
     1
102
RTVSPropertyOp5
 70
     1
102
RTVSPropertyOp6
 70
     1
102
RTVSPropertyOp7
 70
     1
102
RTVSPropertyOp8
 70
     1
102
RTVSPropertyOp9
 70
     1
102
RTVSPropertyOp10
 70
     1
102
RTVSPropertyOp11
 70
     1
102
RTVSPropertyOp12
 70
     1
102
RTVSPropertyOp13
 70
     1
102
RTVSPropertyOp14
 70
     1
102
RTVSPropertyOp15
 70
     1
102
RTVSPropertyOp16
 70
     1
102
RTVSPropertyOp17
 70
     1
102
RTVSPropertyOp18
 70
     1
102
RTVSPropertyOp19
 70
     1
102
RTVSPropertyOp20
 70
     1
102
RTVSPropertyOp21
 70
     1
102
RTVSPropertyOp22
 70
     1
102
RTVSPropertyOp23
 70
     1
102
RTVSPropertyOp24
 70
     1
102
RTVSPropertyOp25
 70
     1
102
RTVSPropertyOp26
 70
     1
102
RTVSPropertyOp27
 70
     1
102
RTVSPropertyOp28
 70
     1
102
RTVSPropertyOp29
 70
     1
102
RTVSPropertyOp30
 70
     1
102
RTVSPropertyOp31
 70
     1
102
RTVSPropertyOp32
 70
     1
102
RTVSPropertyOp33
 70
     1
102
RTVSPropertyOp34
 70
     1
102
RTVSPropertyOp35
 70
     1
102
RTVSPropertyOp36
 70
     1
102
RTVSPropertyOp37
 70
     1
102
RTVSPropertyOp38
 70
     1
102
RTVSPropertyOp39
 70
     1
102
RTVSPropertyOp40
 70
     1
102
RTVSPropertyOp41
 70
     1
102
RTVSPropertyOp42
 70
     1
102
RTVSPropertyOp43
 70
     1
102
RTVSPropertyOp44
 70
     1
102
RTVSPropertyOp45
 70
     1
102
RTVSPropertyOp46
 70
     1
102
RTVSPropertyOp47
 70
     1
102
RTVSPropertyOp48
 70
     1
102
RTVSPropertyOp49
 70
     1
102
RTVSPropertyOp50
 70
     1
102
RTVSPropertyOp51
 70
     0
102
RTVSPropertyOp52
 70
     0
102
RTVSPropertyOp53
 70
     1
102
RTVSPropertyOp54
 70
     1
102
RTVSPropertyOp55
 70
     1
102
RTVSPropertyOp56
 70
     1
102
RTVSPropertyOp57
 70
     1
102
RTVSPost2010Prop28
280
     0
102
RTVSPost2010PropOp28
 70
     1
102
RTVSPost2010Prop29
280
     1
102
RTVSPost2010PropOp29
 70
     1
102
RTVSPost2010Prop30
280
     1
102
RTVSPost2010PropOp30
 70
     1
102
RTVSPost2010Prop31
280
     0
102
RTVSPost2010PropOp31
 70
     1
102
RTVSPost2010Prop32
280
     0
102
RTVSPost2010PropOp32
 70
     1
102
RTVSPost2010Prop33
280
     0
102
RTVSPost2010PropOp33
 70
     1
102
RTVSPost2010Prop34
280
     0
102
RTVSPost2010PropOp34
 70
     1
102
RTVSPost2010Prop35
280
     0
102
RTVSPost2010PropOp35
 70
     1
102
RTVSPost2010Prop36
280
     0
102
RTVSPost2010PropOp36
 70
     1
102
RTVSPost2010Prop37
 90
       50
102
RTVSPost2010PropOp37
 70
     1
102
RTVSPost2010Prop38
140
0.0
102
RTVSPost2010PropOp38
 70
     1
102
RTVSPost2010Prop39
140
1.0
102
RTVSPost2010PropOp39
 70
     1
102
RTVSPost2010Prop40
 90
        0
102
RTVSPost2010PropOp40
 70
     1
102
RTVSPost2010Prop41ColorIndex
 90
       18
102
RTVSPost2010Prop41ColorRGB
 90
        0
102
RTVSPost2010PropOp41
 70
     1
102
RTVSPost2010Prop42
 90
       50
102
RTVSPost2010PropOp42
 70
     1
102
RTVSPost2010Prop43
 90
        3
102
RTVSPost2010PropOp43
 70
     1
102
RTVSPost2010Prop44ColorIndex
 90
        5
102
RTVSPost2010Prop44ColorRGB
 90
      255
102
RTVSPost2010PropOp44
 70
     1
102
RTVSPost2010Prop45
280
     0
102
RTVSPost2010PropOp45
 70
     1
102
RTVSPost2010Prop46
 90
       50
102
RTVSPost2010PropOp46
 70
     1
102
RTVSPost2010Prop47
 90
       50
102
RTVSPost2010PropOp47
 70
     1
102
RTVSPost2010Prop48
 90
       50
102
RTVSPost2010PropOp48
 70
     1
102
RTVSPost2010Prop49
280
     0
102
RTVSPost2010PropOp49
 70
     1
102
RTVSPost2010Prop50
 90
       50
102
RTVSPost2010PropOp50
 70
     1
102
RTVSPost2010Prop51ColorIndex
 90
      256
102
RTVSPost2010Prop51ColorRGB
 90
-16777216
102
RTVSPost2010PropOp51
 70
     0
102
RTVSPost2010Prop52
140
1.0
102
RTVSPost2010PropOp52
 70
     0
102
RTVSPost2010Prop53
 90
        2
102
RTVSPost2010PropOp53
 70
     1
102
RTVSPost2010Prop54
  1
strokes_ogs.tif
102
RTVSPost2010PropOp54
 70
     1
102
RTVSPost2010Prop55
280
     0
102
RTVSPost2010PropOp55
 70
     1
102
RTVSPost2010Prop56
140
1.0
102
RTVSPost2010PropOp56
 70
     1
102
RTVSPost2010Prop57
140
1.0
102
RTVSPost2010PropOp57
 70
     1
  0
XRECORD
  5
46F
102
{ACAD_REACTORS
330
46E
102
}
330
46E
100
AcDbXrecord
280
     1
102
RTVSPropertyOp0
 70
     1
102
RTVSPropertyOp1
 70
     1
102
RTVSPropertyOp2
 70
     1
102
RTVSPropertyOp3
 70
     1
102
RTVSPropertyOp4
 70
     1
102
RTVSPropertyOp5
 70
     1
102
RTVSPropertyOp6
 70
     1
102
RTVSPropertyOp7
 70
     1
102
RTVSPropertyOp8
 70
     1
102
RTVSPropertyOp9
 70
     1
102
RTVSPropertyOp10
 70
     1
102
RTVSPropertyOp11
 70
     1
102
RTVSPropertyOp12
 70
     1
102
RTVSPropertyOp13
 70
     1
102
RTVSPropertyOp14
 70
     1
102
RTVSPropertyOp15
 70
     1
102
RTVSPropertyOp16
 70
     1
102
RTVSPropertyOp17
 70
     1
102
RTVSPropertyOp18
 70
     1
102
RTVSPropertyOp19
 70
     1
102
RTVSPropertyOp20
 70
     1
102
RTVSPropertyOp21
 70
     1
102
RTVSPropertyOp22
 70
     1
102
RTVSPropertyOp23
 70
     1
102
RTVSPropertyOp24
 70
     1
102
RTVSPropertyOp25
 70
     1
102
RTVSPropertyOp26
 70
     1
102
RTVSPropertyOp27
 70
     1
102
RTVSPropertyOp28
 70
     1
102
RTVSPropertyOp29
 70
     1
102
RTVSPropertyOp30
 70
     1
102
RTVSPropertyOp31
 70
     1
102
RTVSPropertyOp32
 70
     1
102
RTVSPropertyOp33
 70
     1
102
RTVSPropertyOp34
 70
     1
102
RTVSPropertyOp35
 70
     1
102
RTVSPropertyOp36
 70
     1
102
RTVSPropertyOp37
 70
     1
102
RTVSPropertyOp38
 70
     1
102
RTVSPropertyOp39
 70
     1
102
RTVSPropertyOp40
 70
     1
102
RTVSPropertyOp41
 70
     1
102
RTVSPropertyOp42
 70
     1
102
RTVSPropertyOp43
 70
     1
102
RTVSPropertyOp44
 70
     1
102
RTVSPropertyOp45
 70
     1
102
RTVSPropertyOp46
 70
     1
102
RTVSPropertyOp47
 70
     1
102
RTVSPropertyOp48
 70
     1
102
RTVSPropertyOp49
 70
     1
102
RTVSPropertyOp50
 70
     1
102
RTVSPropertyOp51
 70
     0
102
RTVSPropertyOp52
 70
     0
102
RTVSPropertyOp53
 70
     1
102
RTVSPropertyOp54
 70
     1
102
RTVSPropertyOp55
 70
     1
102
RTVSPropertyOp56
 70
     1
102
RTVSPropertyOp57
 70
     1
102
RTVSPost2010Prop28
280
     0
102
RTVSPost2010PropOp28
 70
     1
102
RTVSPost2010Prop29
280
     1
102
RTVSPost2010PropOp29
 70
     1
102
RTVSPost2010Prop30
280
     1
102
RTVSPost2010PropOp30
 70
     1
102
RTVSPost2010Prop31
280
     0
102
RTVSPost2010PropOp31
 70
     1
102
RTVSPost2010Prop32
280
     0
102
RTVSPost2010PropOp32
 70
     1
102
RTVSPost2010Prop33
280
     0
102
RTVSPost2010PropOp33
 70
     1
102
RTVSPost2010Prop34
280
     0
102
RTVSPost2010PropOp34
 70
     1
102
RTVSPost2010Prop35
280
     0
102
RTVSPost2010PropOp35
 70
     1
102
RTVSPost2010Prop36
280
     0
102
RTVSPost2010PropOp36
 70
     1
102
RTVSPost2010Prop37
 90
       50
102
RTVSPost2010PropOp37
 70
     1
102
RTVSPost2010Prop38
140
0.0
102
RTVSPost2010PropOp38
 70
     1
102
RTVSPost2010Prop39
140
1.0
102
RTVSPost2010PropOp39
 70
     1
102
RTVSPost2010Prop40
 90
        0
102
RTVSPost2010PropOp40
 70
     1
102
RTVSPost2010Prop41ColorIndex
 90
       18
102
RTVSPost2010Prop41ColorRGB
 90
        0
102
RTVSPost2010PropOp41
 70
     1
102
RTVSPost2010Prop42
 90
       50
102
RTVSPost2010PropOp42
 70
     1
102
RTVSPost2010Prop43
 90
        3
102
RTVSPost2010PropOp43
 70
     1
102
RTVSPost2010Prop44ColorIndex
 90
        5
102
RTVSPost2010Prop44ColorRGB
 90
      255
102
RTVSPost2010PropOp44
 70
     1
102
RTVSPost2010Prop45
280
     0
102
RTVSPost2010PropOp45
 70
     1
102
RTVSPost2010Prop46
 90
       50
102
RTVSPost2010PropOp46
 70
     1
102
RTVSPost2010Prop47
 90
       50
102
RTVSPost2010PropOp47
 70
     1
102
RTVSPost2010Prop48
 90
       50
102
RTVSPost2010PropOp48
 70
     1
102
RTVSPost2010Prop49
280
     0
102
RTVSPost2010PropOp49
 70
     1
102
RTVSPost2010Prop50
 90
       50
102
RTVSPost2010PropOp50
 70
     1
102
RTVSPost2010Prop51ColorIndex
 90
      256
102
RTVSPost2010Prop51ColorRGB
 90
-16777216
102
RTVSPost2010PropOp51
 70
     0
102
RTVSPost2010Prop52
140
1.0
102
RTVSPost2010PropOp52
 70
     0
102
RTVSPost2010Prop53
 90
        2
102
RTVSPost2010PropOp53
 70
     1
102
RTVSPost2010Prop54
  1
strokes_ogs.tif
102
RTVSPost2010PropOp54
 70
     1
102
RTVSPost2010Prop55
280
     0
102
RTVSPost2010PropOp55
 70
     1
102
RTVSPost2010Prop56
140
1.0
102
RTVSPost2010PropOp56
 70
     1
102
RTVSPost2010Prop57
140
1.0
102
RTVSPost2010PropOp57
 70
     1
  0
XRECORD
  5
477
102
{ACAD_REACTORS
330
476
102
}
330
476
100
AcDbXrecord
280
     1
102
RTVSPropertyOp0
 70
     1
102
RTVSPropertyOp1
 70
     1
102
RTVSPropertyOp2
 70
     1
102
RTVSPropertyOp3
 70
     1
102
RTVSPropertyOp4
 70
     1
102
RTVSPropertyOp5
 70
     1
102
RTVSPropertyOp6
 70
     1
102
RTVSPropertyOp7
 70
     1
102
RTVSPropertyOp8
 70
     1
102
RTVSPropertyOp9
 70
     1
102
RTVSPropertyOp10
 70
     1
102
RTVSPropertyOp11
 70
     1
102
RTVSPropertyOp12
 70
     1
102
RTVSPropertyOp13
 70
     1
102
RTVSPropertyOp14
 70
     1
102
RTVSPropertyOp15
 70
     1
102
RTVSPropertyOp16
 70
     1
102
RTVSPropertyOp17
 70
     1
102
RTVSPropertyOp18
 70
     1
102
RTVSPropertyOp19
 70
     1
102
RTVSPropertyOp20
 70
     1
102
RTVSPropertyOp21
 70
     1
102
RTVSPropertyOp22
 70
     1
102
RTVSPropertyOp23
 70
     1
102
RTVSPropertyOp24
 70
     1
102
RTVSPropertyOp25
 70
     1
102
RTVSPropertyOp26
 70
     1
102
RTVSPropertyOp27
 70
     1
102
RTVSPropertyOp28
 70
     1
102
RTVSPropertyOp29
 70
     1
102
RTVSPropertyOp30
 70
     1
102
RTVSPropertyOp31
 70
     1
102
RTVSPropertyOp32
 70
     1
102
RTVSPropertyOp33
 70
     1
102
RTVSPropertyOp34
 70
     1
102
RTVSPropertyOp35
 70
     1
102
RTVSPropertyOp36
 70
     1
102
RTVSPropertyOp37
 70
     1
102
RTVSPropertyOp38
 70
     1
102
RTVSPropertyOp39
 70
     1
102
RTVSPropertyOp40
 70
     1
102
RTVSPropertyOp41
 70
     1
102
RTVSPropertyOp42
 70
     1
102
RTVSPropertyOp43
 70
     1
102
RTVSPropertyOp44
 70
     1
102
RTVSPropertyOp45
 70
     1
102
RTVSPropertyOp46
 70
     1
102
RTVSPropertyOp47
 70
     1
102
RTVSPropertyOp48
 70
     1
102
RTVSPropertyOp49
 70
     1
102
RTVSPropertyOp50
 70
     1
102
RTVSPropertyOp51
 70
     0
102
RTVSPropertyOp52
 70
     0
102
RTVSPropertyOp53
 70
     1
102
RTVSPropertyOp54
 70
     1
102
RTVSPropertyOp55
 70
     1
102
RTVSPropertyOp56
 70
     1
102
RTVSPropertyOp57
 70
     1
102
RTVSPost2010Prop28
280
     0
102
RTVSPost2010PropOp28
 70
     1
102
RTVSPost2010Prop29
280
     1
102
RTVSPost2010PropOp29
 70
     1
102
RTVSPost2010Prop30
280
     1
102
RTVSPost2010PropOp30
 70
     1
102
RTVSPost2010Prop31
280
     0
102
RTVSPost2010PropOp31
 70
     1
102
RTVSPost2010Prop32
280
     0
102
RTVSPost2010PropOp32
 70
     1
102
RTVSPost2010Prop33
280
     0
102
RTVSPost2010PropOp33
 70
     1
102
RTVSPost2010Prop34
280
     0
102
RTVSPost2010PropOp34
 70
     1
102
RTVSPost2010Prop35
280
     0
102
RTVSPost2010PropOp35
 70
     1
102
RTVSPost2010Prop36
280
     0
102
RTVSPost2010PropOp36
 70
     1
102
RTVSPost2010Prop37
 90
       50
102
RTVSPost2010PropOp37
 70
     1
102
RTVSPost2010Prop38
140
0.0
102
RTVSPost2010PropOp38
 70
     1
102
RTVSPost2010Prop39
140
1.0
102
RTVSPost2010PropOp39
 70
     1
102
RTVSPost2010Prop40
 90
        0
102
RTVSPost2010PropOp40
 70
     1
102
RTVSPost2010Prop41ColorIndex
 90
       18
102
RTVSPost2010Prop41ColorRGB
 90
        0
102
RTVSPost2010PropOp41
 70
     1
102
RTVSPost2010Prop42
 90
       50
102
RTVSPost2010PropOp42
 70
     1
102
RTVSPost2010Prop43
 90
        3
102
RTVSPost2010PropOp43
 70
     1
102
RTVSPost2010Prop44ColorIndex
 90
        5
102
RTVSPost2010Prop44ColorRGB
 90
      255
102
RTVSPost2010PropOp44
 70
     1
102
RTVSPost2010Prop45
280
     0
102
RTVSPost2010PropOp45
 70
     1
102
RTVSPost2010Prop46
 90
       50
102
RTVSPost2010PropOp46
 70
     1
102
RTVSPost2010Prop47
 90
       50
102
RTVSPost2010PropOp47
 70
     1
102
RTVSPost2010Prop48
 90
       50
102
RTVSPost2010PropOp48
 70
     1
102
RTVSPost2010Prop49
280
     0
102
RTVSPost2010PropOp49
 70
     1
102
RTVSPost2010Prop50
 90
       50
102
RTVSPost2010PropOp50
 70
     1
102
RTVSPost2010Prop51ColorIndex
 90
      256
102
RTVSPost2010Prop51ColorRGB
 90
-16777216
102
RTVSPost2010PropOp51
 70
     0
102
RTVSPost2010Prop52
140
1.0
102
RTVSPost2010PropOp52
 70
     0
102
RTVSPost2010Prop53
 90
        2
102
RTVSPost2010PropOp53
 70
     1
102
RTVSPost2010Prop54
  1
strokes_ogs.tif
102
RTVSPost2010PropOp54
 70
     1
102
RTVSPost2010Prop55
280
     0
102
RTVSPost2010PropOp55
 70
     1
102
RTVSPost2010Prop56
140
1.0
102
RTVSPost2010PropOp56
 70
     1
102
RTVSPost2010Prop57
140
1.0
102
RTVSPost2010PropOp57
 70
     1
  0
XRECORD
  5
46B
102
{ACAD_REACTORS
330
46A
102
}
330
46A
100
AcDbXrecord
280
     1
102
RTVSPropertyOp0
 70
     1
102
RTVSPropertyOp1
 70
     1
102
RTVSPropertyOp2
 70
     1
102
RTVSPropertyOp3
 70
     1
102
RTVSPropertyOp4
 70
     1
102
RTVSPropertyOp5
 70
     1
102
RTVSPropertyOp6
 70
     1
102
RTVSPropertyOp7
 70
     1
102
RTVSPropertyOp8
 70
     1
102
RTVSPropertyOp9
 70
     1
102
RTVSPropertyOp10
 70
     1
102
RTVSPropertyOp11
 70
     1
102
RTVSPropertyOp12
 70
     1
102
RTVSPropertyOp13
 70
     1
102
RTVSPropertyOp14
 70
     1
102
RTVSPropertyOp15
 70
     1
102
RTVSPropertyOp16
 70
     1
102
RTVSPropertyOp17
 70
     1
102
RTVSPropertyOp18
 70
     1
102
RTVSPropertyOp19
 70
     1
102
RTVSPropertyOp20
 70
     1
102
RTVSPropertyOp21
 70
     1
102
RTVSPropertyOp22
 70
     1
102
RTVSPropertyOp23
 70
     1
102
RTVSPropertyOp24
 70
     1
102
RTVSPropertyOp25
 70
     1
102
RTVSPropertyOp26
 70
     1
102
RTVSPropertyOp27
 70
     1
102
RTVSPropertyOp28
 70
     1
102
RTVSPropertyOp29
 70
     1
102
RTVSPropertyOp30
 70
     1
102
RTVSPropertyOp31
 70
     1
102
RTVSPropertyOp32
 70
     1
102
RTVSPropertyOp33
 70
     1
102
RTVSPropertyOp34
 70
     1
102
RTVSPropertyOp35
 70
     1
102
RTVSPropertyOp36
 70
     1
102
RTVSPropertyOp37
 70
     1
102
RTVSPropertyOp38
 70
     1
102
RTVSPropertyOp39
 70
     1
102
RTVSPropertyOp40
 70
     1
102
RTVSPropertyOp41
 70
     1
102
RTVSPropertyOp42
 70
     1
102
RTVSPropertyOp43
 70
     1
102
RTVSPropertyOp44
 70
     1
102
RTVSPropertyOp45
 70
     1
102
RTVSPropertyOp46
 70
     1
102
RTVSPropertyOp47
 70
     1
102
RTVSPropertyOp48
 70
     1
102
RTVSPropertyOp49
 70
     1
102
RTVSPropertyOp50
 70
     1
102
RTVSPropertyOp51
 70
     0
102
RTVSPropertyOp52
 70
     0
102
RTVSPropertyOp53
 70
     1
102
RTVSPropertyOp54
 70
     1
102
RTVSPropertyOp55
 70
     1
102
RTVSPropertyOp56
 70
     1
102
RTVSPropertyOp57
 70
     1
102
RTVSPost2010Prop28
280
     0
102
RTVSPost2010PropOp28
 70
     1
102
RTVSPost2010Prop29
280
     1
102
RTVSPost2010PropOp29
 70
     1
102
RTVSPost2010Prop30
280
     1
102
RTVSPost2010PropOp30
 70
     1
102
RTVSPost2010Prop31
280
     0
102
RTVSPost2010PropOp31
 70
     1
102
RTVSPost2010Prop32
280
     0
102
RTVSPost2010PropOp32
 70
     1
102
RTVSPost2010Prop33
280
     0
102
RTVSPost2010PropOp33
 70
     1
102
RTVSPost2010Prop34
280
     0
102
RTVSPost2010PropOp34
 70
     1
102
RTVSPost2010Prop35
280
     0
102
RTVSPost2010PropOp35
 70
     1
102
RTVSPost2010Prop36
280
     0
102
RTVSPost2010PropOp36
 70
     1
102
RTVSPost2010Prop37
 90
       50
102
RTVSPost2010PropOp37
 70
     1
102
RTVSPost2010Prop38
140
0.0
102
RTVSPost2010PropOp38
 70
     1
102
RTVSPost2010Prop39
140
1.0
102
RTVSPost2010PropOp39
 70
     1
102
RTVSPost2010Prop40
 90
        0
102
RTVSPost2010PropOp40
 70
     1
102
RTVSPost2010Prop41ColorIndex
 90
       18
102
RTVSPost2010Prop41ColorRGB
 90
        0
102
RTVSPost2010PropOp41
 70
     1
102
RTVSPost2010Prop42
 90
       50
102
RTVSPost2010PropOp42
 70
     1
102
RTVSPost2010Prop43
 90
        3
102
RTVSPost2010PropOp43
 70
     1
102
RTVSPost2010Prop44ColorIndex
 90
        5
102
RTVSPost2010Prop44ColorRGB
 90
      255
102
RTVSPost2010PropOp44
 70
     1
102
RTVSPost2010Prop45
280
     0
102
RTVSPost2010PropOp45
 70
     1
102
RTVSPost2010Prop46
 90
       50
102
RTVSPost2010PropOp46
 70
     1
102
RTVSPost2010Prop47
 90
       50
102
RTVSPost2010PropOp47
 70
     1
102
RTVSPost2010Prop48
 90
       50
102
RTVSPost2010PropOp48
 70
     1
102
RTVSPost2010Prop49
280
     0
102
RTVSPost2010PropOp49
 70
     1
102
RTVSPost2010Prop50
 90
       50
102
RTVSPost2010PropOp50
 70
     1
102
RTVSPost2010Prop51ColorIndex
 90
      256
102
RTVSPost2010Prop51ColorRGB
 90
-16777216
102
RTVSPost2010PropOp51
 70
     0
102
RTVSPost2010Prop52
140
1.0
102
RTVSPost2010PropOp52
 70
     0
102
RTVSPost2010Prop53
 90
        2
102
RTVSPost2010PropOp53
 70
     1
102
RTVSPost2010Prop54
  1
strokes_ogs.tif
102
RTVSPost2010PropOp54
 70
     1
102
RTVSPost2010Prop55
280
     0
102
RTVSPost2010PropOp55
 70
     1
102
RTVSPost2010Prop56
140
1.0
102
RTVSPost2010PropOp56
 70
     1
102
RTVSPost2010Prop57
140
1.0
102
RTVSPost2010PropOp57
 70
     1
  0
XRECORD
  5
46D
102
{ACAD_REACTORS
330
46C
102
}
330
46C
100
AcDbXrecord
280
     1
102
RTVSPropertyOp0
 70
     1
102
RTVSPropertyOp1
 70
     1
102
RTVSPropertyOp2
 70
     1
102
RTVSPropertyOp3
 70
     1
102
RTVSPropertyOp4
 70
     1
102
RTVSPropertyOp5
 70
     1
102
RTVSPropertyOp6
 70
     1
102
RTVSPropertyOp7
 70
     1
102
RTVSPropertyOp8
 70
     1
102
RTVSPropertyOp9
 70
     1
102
RTVSPropertyOp10
 70
     1
102
RTVSPropertyOp11
 70
     1
102
RTVSPropertyOp12
 70
     1
102
RTVSPropertyOp13
 70
     1
102
RTVSPropertyOp14
 70
     1
102
RTVSPropertyOp15
 70
     1
102
RTVSPropertyOp16
 70
     1
102
RTVSPropertyOp17
 70
     1
102
RTVSPropertyOp18
 70
     1
102
RTVSPropertyOp19
 70
     1
102
RTVSPropertyOp20
 70
     1
102
RTVSPropertyOp21
 70
     1
102
RTVSPropertyOp22
 70
     1
102
RTVSPropertyOp23
 70
     1
102
RTVSPropertyOp24
 70
     1
102
RTVSPropertyOp25
 70
     1
102
RTVSPropertyOp26
 70
     1
102
RTVSPropertyOp27
 70
     1
102
RTVSPropertyOp28
 70
     1
102
RTVSPropertyOp29
 70
     1
102
RTVSPropertyOp30
 70
     1
102
RTVSPropertyOp31
 70
     1
102
RTVSPropertyOp32
 70
     1
102
RTVSPropertyOp33
 70
     1
102
RTVSPropertyOp34
 70
     1
102
RTVSPropertyOp35
 70
     1
102
RTVSPropertyOp36
 70
     1
102
RTVSPropertyOp37
 70
     1
102
RTVSPropertyOp38
 70
     1
102
RTVSPropertyOp39
 70
     1
102
RTVSPropertyOp40
 70
     1
102
RTVSPropertyOp41
 70
     1
102
RTVSPropertyOp42
 70
     1
102
RTVSPropertyOp43
 70
     1
102
RTVSPropertyOp44
 70
     1
102
RTVSPropertyOp45
 70
     1
102
RTVSPropertyOp46
 70
     1
102
RTVSPropertyOp47
 70
     1
102
RTVSPropertyOp48
 70
     1
102
RTVSPropertyOp49
 70
     1
102
RTVSPropertyOp50
 70
     1
102
RTVSPropertyOp51
 70
     0
102
RTVSPropertyOp52
 70
     0
102
RTVSPropertyOp53
 70
     1
102
RTVSPropertyOp54
 70
     1
102
RTVSPropertyOp55
 70
     1
102
RTVSPropertyOp56
 70
     1
102
RTVSPropertyOp57
 70
     1
102
RTVSPost2010Prop28
280
     0
102
RTVSPost2010PropOp28
 70
     1
102
RTVSPost2010Prop29
280
     1
102
RTVSPost2010PropOp29
 70
     1
102
RTVSPost2010Prop30
280
     1
102
RTVSPost2010PropOp30
 70
     1
102
RTVSPost2010Prop31
280
     0
102
RTVSPost2010PropOp31
 70
     1
102
RTVSPost2010Prop32
280
     0
102
RTVSPost2010PropOp32
 70
     1
102
RTVSPost2010Prop33
280
     0
102
RTVSPost2010PropOp33
 70
     1
102
RTVSPost2010Prop34
280
     0
102
RTVSPost2010PropOp34
 70
     1
102
RTVSPost2010Prop35
280
     0
102
RTVSPost2010PropOp35
 70
     1
102
RTVSPost2010Prop36
280
     0
102
RTVSPost2010PropOp36
 70
     1
102
RTVSPost2010Prop37
 90
       50
102
RTVSPost2010PropOp37
 70
     1
102
RTVSPost2010Prop38
140
0.0
102
RTVSPost2010PropOp38
 70
     1
102
RTVSPost2010Prop39
140
1.0
102
RTVSPost2010PropOp39
 70
     1
102
RTVSPost2010Prop40
 90
        0
102
RTVSPost2010PropOp40
 70
     1
102
RTVSPost2010Prop41ColorIndex
 90
       18
102
RTVSPost2010Prop41ColorRGB
 90
        0
102
RTVSPost2010PropOp41
 70
     1
102
RTVSPost2010Prop42
 90
       50
102
RTVSPost2010PropOp42
 70
     1
102
RTVSPost2010Prop43
 90
        3
102
RTVSPost2010PropOp43
 70
     1
102
RTVSPost2010Prop44ColorIndex
 90
        5
102
RTVSPost2010Prop44ColorRGB
 90
      255
102
RTVSPost2010PropOp44
 70
     1
102
RTVSPost2010Prop45
280
     0
102
RTVSPost2010PropOp45
 70
     1
102
RTVSPost2010Prop46
 90
       50
102
RTVSPost2010PropOp46
 70
     1
102
RTVSPost2010Prop47
 90
       50
102
RTVSPost2010PropOp47
 70
     1
102
RTVSPost2010Prop48
 90
       50
102
RTVSPost2010PropOp48
 70
     1
102
RTVSPost2010Prop49
280
     0
102
RTVSPost2010PropOp49
 70
     1
102
RTVSPost2010Prop50
 90
       50
102
RTVSPost2010PropOp50
 70
     1
102
RTVSPost2010Prop51ColorIndex
 90
      256
102
RTVSPost2010Prop51ColorRGB
 90
-16777216
102
RTVSPost2010PropOp51
 70
     0
102
RTVSPost2010Prop52
140
1.0
102
RTVSPost2010PropOp52
 70
     0
102
RTVSPost2010Prop53
 90
        2
102
RTVSPost2010PropOp53
 70
     1
102
RTVSPost2010Prop54
  1
strokes_ogs.tif
102
RTVSPost2010PropOp54
 70
     1
102
RTVSPost2010Prop55
280
     0
102
RTVSPost2010PropOp55
 70
     1
102
RTVSPost2010Prop56
140
1.0
102
RTVSPost2010PropOp56
 70
     1
102
RTVSPost2010Prop57
140
1.0
102
RTVSPost2010PropOp57
 70
     1
  0
XRECORD
  5
47D
102
{ACAD_REACTORS
330
47C
102
}
330
47C
100
AcDbXrecord
280
     1
102
RTVSPropertyOp0
 70
     0
102
RTVSPropertyOp1
 70
     0
102
RTVSPropertyOp2
 70
     0
102
RTVSPropertyOp3
 70
     0
102
RTVSPropertyOp4
 70
     0
102
RTVSPropertyOp5
 70
     0
102
RTVSPropertyOp6
 70
     0
102
RTVSPropertyOp7
 70
     0
102
RTVSPropertyOp8
 70
     0
102
RTVSPropertyOp9
 70
     0
102
RTVSPropertyOp10
 70
     0
102
RTVSPropertyOp11
 70
     0
102
RTVSPropertyOp12
 70
     0
102
RTVSPropertyOp13
 70
     0
102
RTVSPropertyOp14
 70
     2
102
RTVSPropertyOp15
 70
     0
102
RTVSPropertyOp16
 70
     0
102
RTVSPropertyOp17
 70
     0
102
RTVSPropertyOp18
 70
     0
102
RTVSPropertyOp19
 70
     0
102
RTVSPropertyOp20
 70
     0
102
RTVSPropertyOp21
 70
     0
102
RTVSPropertyOp22
 70
     0
102
RTVSPropertyOp23
 70
     0
102
RTVSPropertyOp24
 70
     0
102
RTVSPropertyOp25
 70
     0
102
RTVSPropertyOp26
 70
     0
102
RTVSPropertyOp27
 70
     0
102
RTVSPropertyOp28
 70
     0
102
RTVSPropertyOp29
 70
     0
102
RTVSPropertyOp30
 70
     0
102
RTVSPropertyOp31
 70
     0
102
RTVSPropertyOp32
 70
     0
102
RTVSPropertyOp33
 70
     0
102
RTVSPropertyOp34
 70
     0
102
RTVSPropertyOp35
 70
     0
102
RTVSPropertyOp36
 70
     0
102
RTVSPropertyOp37
 70
     0
102
RTVSPropertyOp38
 70
     0
102
RTVSPropertyOp39
 70
     0
102
RTVSPropertyOp40
 70
     0
102
RTVSPropertyOp41
 70
     0
102
RTVSPropertyOp42
 70
     0
102
RTVSPropertyOp43
 70
     0
102
RTVSPropertyOp44
 70
     0
102
RTVSPropertyOp45
 70
     0
102
RTVSPropertyOp46
 70
     0
102
RTVSPropertyOp47
 70
     0
102
RTVSPropertyOp48
 70
     0
102
RTVSPropertyOp49
 70
     0
102
RTVSPropertyOp50
 70
     0
102
RTVSPropertyOp51
 70
     0
102
RTVSPropertyOp52
 70
     0
102
RTVSPropertyOp53
 70
     0
102
RTVSPropertyOp54
 70
     0
102
RTVSPropertyOp55
 70
     0
102
RTVSPropertyOp56
 70
     0
102
RTVSPropertyOp57
 70
     0
102
RTVSPost2010Prop28
280
     0
102
RTVSPost2010PropOp28
 70
     0
102
RTVSPost2010Prop29
280
     1
102
RTVSPost2010PropOp29
 70
     0
102
RTVSPost2010Prop30
280
     1
102
RTVSPost2010PropOp30
 70
     0
102
RTVSPost2010Prop31
280
     0
102
RTVSPost2010PropOp31
 70
     0
102
RTVSPost2010Prop32
280
     0
102
RTVSPost2010PropOp32
 70
     0
102
RTVSPost2010Prop33
280
     0
102
RTVSPost2010PropOp33
 70
     0
102
RTVSPost2010Prop34
280
     0
102
RTVSPost2010PropOp34
 70
     0
102
RTVSPost2010Prop35
280
     0
102
RTVSPost2010PropOp35
 70
     0
102
RTVSPost2010Prop36
280
     0
102
RTVSPost2010PropOp36
 70
     0
102
RTVSPost2010Prop37
 90
       50
102
RTVSPost2010PropOp37
 70
     0
102
RTVSPost2010Prop38
140
0.0
102
RTVSPost2010PropOp38
 70
     0
102
RTVSPost2010Prop39
140
1.0
102
RTVSPost2010PropOp39
 70
     0
102
RTVSPost2010Prop40
 90
        0
102
RTVSPost2010PropOp40
 70
     0
102
RTVSPost2010Prop41ColorIndex
 90
       18
102
RTVSPost2010Prop41ColorRGB
 90
        0
102
RTVSPost2010PropOp41
 70
     0
102
RTVSPost2010Prop42
 90
       50
102
RTVSPost2010PropOp42
 70
     0
102
RTVSPost2010Prop43
 90
        3
102
RTVSPost2010PropOp43
 70
     0
102
RTVSPost2010Prop44ColorIndex
 90
        5
102
RTVSPost2010Prop44ColorRGB
 90
      255
102
RTVSPost2010PropOp44
 70
     0
102
RTVSPost2010Prop45
280
     0
102
RTVSPost2010PropOp45
 70
     0
102
RTVSPost2010Prop46
 90
       50
102
RTVSPost2010PropOp46
 70
     0
102
RTVSPost2010Prop47
 90
       50
102
RTVSPost2010PropOp47
 70
     0
102
RTVSPost2010Prop48
 90
       50
102
RTVSPost2010PropOp48
 70
     0
102
RTVSPost2010Prop49
280
     0
102
RTVSPost2010PropOp49
 70
     0
102
RTVSPost2010Prop50
 90
       50
102
RTVSPost2010PropOp50
 70
     0
102
RTVSPost2010Prop51ColorIndex
 90
      256
102
RTVSPost2010Prop51ColorRGB
 90
-16777216
102
RTVSPost2010PropOp51
 70
     0
102
RTVSPost2010Prop52
140
1.0
102
RTVSPost2010PropOp52
 70
     0
102
RTVSPost2010Prop53
 90
        2
102
RTVSPost2010PropOp53
 70
     0
102
RTVSPost2010Prop54
  1
strokes_ogs.tif
102
RTVSPost2010PropOp54
 70
     0
102
RTVSPost2010Prop55
280
     0
102
RTVSPost2010PropOp55
 70
     0
102
RTVSPost2010Prop56
140
1.0
102
RTVSPost2010PropOp56
 70
     0
102
RTVSPost2010Prop57
140
1.0
102
RTVSPost2010PropOp57
 70
     0
  0
XRECORD
  5
475
102
{ACAD_REACTORS
330
474
102
}
330
474
100
AcDbXrecord
280
     1
102
RTVSPropertyOp0
 70
     1
102
RTVSPropertyOp1
 70
     1
102
RTVSPropertyOp2
 70
     1
102
RTVSPropertyOp3
 70
     1
102
RTVSPropertyOp4
 70
     1
102
RTVSPropertyOp5
 70
     1
102
RTVSPropertyOp6
 70
     1
102
RTVSPropertyOp7
 70
     1
102
RTVSPropertyOp8
 70
     1
102
RTVSPropertyOp9
 70
     1
102
RTVSPropertyOp10
 70
     1
102
RTVSPropertyOp11
 70
     1
102
RTVSPropertyOp12
 70
     1
102
RTVSPropertyOp13
 70
     1
102
RTVSPropertyOp14
 70
     1
102
RTVSPropertyOp15
 70
     1
102
RTVSPropertyOp16
 70
     1
102
RTVSPropertyOp17
 70
     1
102
RTVSPropertyOp18
 70
     1
102
RTVSPropertyOp19
 70
     1
102
RTVSPropertyOp20
 70
     1
102
RTVSPropertyOp21
 70
     1
102
RTVSPropertyOp22
 70
     1
102
RTVSPropertyOp23
 70
     1
102
RTVSPropertyOp24
 70
     1
102
RTVSPropertyOp25
 70
     1
102
RTVSPropertyOp26
 70
     1
102
RTVSPropertyOp27
 70
     1
102
RTVSPropertyOp28
 70
     1
102
RTVSPropertyOp29
 70
     1
102
RTVSPropertyOp30
 70
     1
102
RTVSPropertyOp31
 70
     1
102
RTVSPropertyOp32
 70
     1
102
RTVSPropertyOp33
 70
     1
102
RTVSPropertyOp34
 70
     1
102
RTVSPropertyOp35
 70
     1
102
RTVSPropertyOp36
 70
     1
102
RTVSPropertyOp37
 70
     1
102
RTVSPropertyOp38
 70
     1
102
RTVSPropertyOp39
 70
     1
102
RTVSPropertyOp40
 70
     1
102
RTVSPropertyOp41
 70
     1
102
RTVSPropertyOp42
 70
     1
102
RTVSPropertyOp43
 70
     1
102
RTVSPropertyOp44
 70
     1
102
RTVSPropertyOp45
 70
     1
102
RTVSPropertyOp46
 70
     1
102
RTVSPropertyOp47
 70
     1
102
RTVSPropertyOp48
 70
     1
102
RTVSPropertyOp49
 70
     1
102
RTVSPropertyOp50
 70
     1
102
RTVSPropertyOp51
 70
     0
102
RTVSPropertyOp52
 70
     0
102
RTVSPropertyOp53
 70
     1
102
RTVSPropertyOp54
 70
     1
102
RTVSPropertyOp55
 70
     1
102
RTVSPropertyOp56
 70
     1
102
RTVSPropertyOp57
 70
     1
102
RTVSPost2010Prop28
280
     0
102
RTVSPost2010PropOp28
 70
     1
102
RTVSPost2010Prop29
280
     1
102
RTVSPost2010PropOp29
 70
     1
102
RTVSPost2010Prop30
280
     1
102
RTVSPost2010PropOp30
 70
     1
102
RTVSPost2010Prop31
280
     0
102
RTVSPost2010PropOp31
 70
     1
102
RTVSPost2010Prop32
280
     0
102
RTVSPost2010PropOp32
 70
     1
102
RTVSPost2010Prop33
280
     0
102
RTVSPost2010PropOp33
 70
     1
102
RTVSPost2010Prop34
280
     0
102
RTVSPost2010PropOp34
 70
     1
102
RTVSPost2010Prop35
280
     0
102
RTVSPost2010PropOp35
 70
     1
102
RTVSPost2010Prop36
280
     0
102
RTVSPost2010PropOp36
 70
     1
102
RTVSPost2010Prop37
 90
       50
102
RTVSPost2010PropOp37
 70
     1
102
RTVSPost2010Prop38
140
0.0
102
RTVSPost2010PropOp38
 70
     1
102
RTVSPost2010Prop39
140
1.0
102
RTVSPost2010PropOp39
 70
     1
102
RTVSPost2010Prop40
 90
        0
102
RTVSPost2010PropOp40
 70
     1
102
RTVSPost2010Prop41ColorIndex
 90
       18
102
RTVSPost2010Prop41ColorRGB
 90
        0
102
RTVSPost2010PropOp41
 70
     1
102
RTVSPost2010Prop42
 90
       50
102
RTVSPost2010PropOp42
 70
     1
102
RTVSPost2010Prop43
 90
        3
102
RTVSPost2010PropOp43
 70
     1
102
RTVSPost2010Prop44ColorIndex
 90
        5
102
RTVSPost2010Prop44ColorRGB
 90
      255
102
RTVSPost2010PropOp44
 70
     1
102
RTVSPost2010Prop45
280
     0
102
RTVSPost2010PropOp45
 70
     1
102
RTVSPost2010Prop46
 90
       50
102
RTVSPost2010PropOp46
 70
     1
102
RTVSPost2010Prop47
 90
       50
102
RTVSPost2010PropOp47
 70
     1
102
RTVSPost2010Prop48
 90
       50
102
RTVSPost2010PropOp48
 70
     1
102
RTVSPost2010Prop49
280
     0
102
RTVSPost2010PropOp49
 70
     1
102
RTVSPost2010Prop50
 90
       50
102
RTVSPost2010PropOp50
 70
     1
102
RTVSPost2010Prop51ColorIndex
 90
      256
102
RTVSPost2010Prop51ColorRGB
 90
-16777216
102
RTVSPost2010PropOp51
 70
     0
102
RTVSPost2010Prop52
140
1.0
102
RTVSPost2010PropOp52
 70
     0
102
RTVSPost2010Prop53
 90
        2
102
RTVSPost2010PropOp53
 70
     1
102
RTVSPost2010Prop54
  1
strokes_ogs.tif
102
RTVSPost2010PropOp54
 70
     1
102
RTVSPost2010Prop55
280
     0
102
RTVSPost2010PropOp55
 70
     1
102
RTVSPost2010Prop56
140
1.0
102
RTVSPost2010PropOp56
 70
     1
102
RTVSPost2010Prop57
140
1.0
102
RTVSPost2010PropOp57
 70
     1
  0
XRECORD
  5
459
102
{ACAD_REACTORS
330
458
102
}
330
458
100
AcDbXrecord
280
     1
102
RTVSPropertyOp0
 70
     1
102
RTVSPropertyOp1
 70
     1
102
RTVSPropertyOp2
 70
     1
102
RTVSPropertyOp3
 70
     1
102
RTVSPropertyOp4
 70
     1
102
RTVSPropertyOp5
 70
     1
102
RTVSPropertyOp6
 70
     1
102
RTVSPropertyOp7
 70
     1
102
RTVSPropertyOp8
 70
     1
102
RTVSPropertyOp9
 70
     1
102
RTVSPropertyOp10
 70
     1
102
RTVSPropertyOp11
 70
     1
102
RTVSPropertyOp12
 70
     1
102
RTVSPropertyOp13
 70
     1
102
RTVSPropertyOp14
 70
     1
102
RTVSPropertyOp15
 70
     1
102
RTVSPropertyOp16
 70
     1
102
RTVSPropertyOp17
 70
     1
102
RTVSPropertyOp18
 70
     1
102
RTVSPropertyOp19
 70
     1
102
RTVSPropertyOp20
 70
     1
102
RTVSPropertyOp21
 70
     1
102
RTVSPropertyOp22
 70
     1
102
RTVSPropertyOp23
 70
     1
102
RTVSPropertyOp24
 70
     1
102
RTVSPropertyOp25
 70
     1
102
RTVSPropertyOp26
 70
     1
102
RTVSPropertyOp27
 70
     1
102
RTVSPropertyOp28
 70
     1
102
RTVSPropertyOp29
 70
     1
102
RTVSPropertyOp30
 70
     1
102
RTVSPropertyOp31
 70
     1
102
RTVSPropertyOp32
 70
     1
102
RTVSPropertyOp33
 70
     1
102
RTVSPropertyOp34
 70
     1
102
RTVSPropertyOp35
 70
     1
102
RTVSPropertyOp36
 70
     1
102
RTVSPropertyOp37
 70
     1
102
RTVSPropertyOp38
 70
     1
102
RTVSPropertyOp39
 70
     1
102
RTVSPropertyOp40
 70
     1
102
RTVSPropertyOp41
 70
     1
102
RTVSPropertyOp42
 70
     1
102
RTVSPropertyOp43
 70
     1
102
RTVSPropertyOp44
 70
     1
102
RTVSPropertyOp45
 70
     1
102
RTVSPropertyOp46
 70
     1
102
RTVSPropertyOp47
 70
     1
102
RTVSPropertyOp48
 70
     1
102
RTVSPropertyOp49
 70
     1
102
RTVSPropertyOp50
 70
     1
102
RTVSPropertyOp51
 70
     0
102
RTVSPropertyOp52
 70
     0
102
RTVSPropertyOp53
 70
     1
102
RTVSPropertyOp54
 70
     1
102
RTVSPropertyOp55
 70
     1
102
RTVSPropertyOp56
 70
     1
102
RTVSPropertyOp57
 70
     1
102
RTVSPost2010Prop28
280
     0
102
RTVSPost2010PropOp28
 70
     1
102
RTVSPost2010Prop29
280
     1
102
RTVSPost2010PropOp29
 70
     1
102
RTVSPost2010Prop30
280
     1
102
RTVSPost2010PropOp30
 70
     1
102
RTVSPost2010Prop31
280
     0
102
RTVSPost2010PropOp31
 70
     1
102
RTVSPost2010Prop32
280
     0
102
RTVSPost2010PropOp32
 70
     1
102
RTVSPost2010Prop33
280
     0
102
RTVSPost2010PropOp33
 70
     1
102
RTVSPost2010Prop34
280
     0
102
RTVSPost2010PropOp34
 70
     1
102
RTVSPost2010Prop35
280
     0
102
RTVSPost2010PropOp35
 70
     1
102
RTVSPost2010Prop36
280
     0
102
RTVSPost2010PropOp36
 70
     1
102
RTVSPost2010Prop37
 90
       50
102
RTVSPost2010PropOp37
 70
     1
102
RTVSPost2010Prop38
140
0.0
102
RTVSPost2010PropOp38
 70
     1
102
RTVSPost2010Prop39
140
1.0
102
RTVSPost2010PropOp39
 70
     1
102
RTVSPost2010Prop40
 90
        0
102
RTVSPost2010PropOp40
 70
     1
102
RTVSPost2010Prop41ColorIndex
 90
       18
102
RTVSPost2010Prop41ColorRGB
 90
        0
102
RTVSPost2010PropOp41
 70
     1
102
RTVSPost2010Prop42
 90
       50
102
RTVSPost2010PropOp42
 70
     1
102
RTVSPost2010Prop43
 90
        3
102
RTVSPost2010PropOp43
 70
     1
102
RTVSPost2010Prop44ColorIndex
 90
        5
102
RTVSPost2010Prop44ColorRGB
 90
      255
102
RTVSPost2010PropOp44
 70
     1
102
RTVSPost2010Prop45
280
     0
102
RTVSPost2010PropOp45
 70
     1
102
RTVSPost2010Prop46
 90
       50
102
RTVSPost2010PropOp46
 70
     1
102
RTVSPost2010Prop47
 90
       50
102
RTVSPost2010PropOp47
 70
     1
102
RTVSPost2010Prop48
 90
       50
102
RTVSPost2010PropOp48
 70
     1
102
RTVSPost2010Prop49
280
     0
102
RTVSPost2010PropOp49
 70
     1
102
RTVSPost2010Prop50
 90
       50
102
RTVSPost2010PropOp50
 70
     1
102
RTVSPost2010Prop51ColorIndex
 90
      256
102
RTVSPost2010Prop51ColorRGB
 90
-16777216
102
RTVSPost2010PropOp51
 70
     0
102
RTVSPost2010Prop52
140
1.0
102
RTVSPost2010PropOp52
 70
     0
102
RTVSPost2010Prop53
 90
        2
102
RTVSPost2010PropOp53
 70
     1
102
RTVSPost2010Prop54
  1
strokes_ogs.tif
102
RTVSPost2010PropOp54
 70
     1
102
RTVSPost2010Prop55
280
     0
102
RTVSPost2010PropOp55
 70
     1
102
RTVSPost2010Prop56
140
1.0
102
RTVSPost2010PropOp56
 70
     1
102
RTVSPost2010Prop57
140
1.0
102
RTVSPost2010PropOp57
 70
     1
  0
XRECORD
  5
45B
102
{ACAD_REACTORS
330
45A
102
}
330
45A
100
AcDbXrecord
280
     1
102
RTVSPropertyOp0
 70
     1
102
RTVSPropertyOp1
 70
     1
102
RTVSPropertyOp2
 70
     1
102
RTVSPropertyOp3
 70
     1
102
RTVSPropertyOp4
 70
     1
102
RTVSPropertyOp5
 70
     1
102
RTVSPropertyOp6
 70
     1
102
RTVSPropertyOp7
 70
     1
102
RTVSPropertyOp8
 70
     1
102
RTVSPropertyOp9
 70
     1
102
RTVSPropertyOp10
 70
     1
102
RTVSPropertyOp11
 70
     1
102
RTVSPropertyOp12
 70
     1
102
RTVSPropertyOp13
 70
     1
102
RTVSPropertyOp14
 70
     1
102
RTVSPropertyOp15
 70
     1
102
RTVSPropertyOp16
 70
     1
102
RTVSPropertyOp17
 70
     1
102
RTVSPropertyOp18
 70
     1
102
RTVSPropertyOp19
 70
     1
102
RTVSPropertyOp20
 70
     1
102
RTVSPropertyOp21
 70
     1
102
RTVSPropertyOp22
 70
     1
102
RTVSPropertyOp23
 70
     1
102
RTVSPropertyOp24
 70
     1
102
RTVSPropertyOp25
 70
     1
102
RTVSPropertyOp26
 70
     1
102
RTVSPropertyOp27
 70
     1
102
RTVSPropertyOp28
 70
     1
102
RTVSPropertyOp29
 70
     1
102
RTVSPropertyOp30
 70
     1
102
RTVSPropertyOp31
 70
     1
102
RTVSPropertyOp32
 70
     1
102
RTVSPropertyOp33
 70
     1
102
RTVSPropertyOp34
 70
     1
102
RTVSPropertyOp35
 70
     1
102
RTVSPropertyOp36
 70
     1
102
RTVSPropertyOp37
 70
     1
102
RTVSPropertyOp38
 70
     1
102
RTVSPropertyOp39
 70
     1
102
RTVSPropertyOp40
 70
     1
102
RTVSPropertyOp41
 70
     1
102
RTVSPropertyOp42
 70
     1
102
RTVSPropertyOp43
 70
     1
102
RTVSPropertyOp44
 70
     1
102
RTVSPropertyOp45
 70
     1
102
RTVSPropertyOp46
 70
     1
102
RTVSPropertyOp47
 70
     1
102
RTVSPropertyOp48
 70
     1
102
RTVSPropertyOp49
 70
     1
102
RTVSPropertyOp50
 70
     1
102
RTVSPropertyOp51
 70
     0
102
RTVSPropertyOp52
 70
     0
102
RTVSPropertyOp53
 70
     1
102
RTVSPropertyOp54
 70
     1
102
RTVSPropertyOp55
 70
     1
102
RTVSPropertyOp56
 70
     1
102
RTVSPropertyOp57
 70
     1
102
RTVSPost2010Prop28
280
     0
102
RTVSPost2010PropOp28
 70
     1
102
RTVSPost2010Prop29
280
     1
102
RTVSPost2010PropOp29
 70
     1
102
RTVSPost2010Prop30
280
     1
102
RTVSPost2010PropOp30
 70
     1
102
RTVSPost2010Prop31
280
     0
102
RTVSPost2010PropOp31
 70
     1
102
RTVSPost2010Prop32
280
     0
102
RTVSPost2010PropOp32
 70
     1
102
RTVSPost2010Prop33
280
     0
102
RTVSPost2010PropOp33
 70
     1
102
RTVSPost2010Prop34
280
     0
102
RTVSPost2010PropOp34
 70
     1
102
RTVSPost2010Prop35
280
     0
102
RTVSPost2010PropOp35
 70
     1
102
RTVSPost2010Prop36
280
     0
102
RTVSPost2010PropOp36
 70
     1
102
RTVSPost2010Prop37
 90
       50
102
RTVSPost2010PropOp37
 70
     1
102
RTVSPost2010Prop38
140
0.0
102
RTVSPost2010PropOp38
 70
     1
102
RTVSPost2010Prop39
140
1.0
102
RTVSPost2010PropOp39
 70
     1
102
RTVSPost2010Prop40
 90
        0
102
RTVSPost2010PropOp40
 70
     1
102
RTVSPost2010Prop41ColorIndex
 90
       18
102
RTVSPost2010Prop41ColorRGB
 90
        0
102
RTVSPost2010PropOp41
 70
     1
102
RTVSPost2010Prop42
 90
       50
102
RTVSPost2010PropOp42
 70
     1
102
RTVSPost2010Prop43
 90
        3
102
RTVSPost2010PropOp43
 70
     1
102
RTVSPost2010Prop44ColorIndex
 90
        5
102
RTVSPost2010Prop44ColorRGB
 90
      255
102
RTVSPost2010PropOp44
 70
     1
102
RTVSPost2010Prop45
280
     0
102
RTVSPost2010PropOp45
 70
     1
102
RTVSPost2010Prop46
 90
       50
102
RTVSPost2010PropOp46
 70
     1
102
RTVSPost2010Prop47
 90
       50
102
RTVSPost2010PropOp47
 70
     1
102
RTVSPost2010Prop48
 90
       50
102
RTVSPost2010PropOp48
 70
     1
102
RTVSPost2010Prop49
280
     0
102
RTVSPost2010PropOp49
 70
     1
102
RTVSPost2010Prop50
 90
       50
102
RTVSPost2010PropOp50
 70
     1
102
RTVSPost2010Prop51ColorIndex
 90
      256
102
RTVSPost2010Prop51ColorRGB
 90
-16777216
102
RTVSPost2010PropOp51
 70
     0
102
RTVSPost2010Prop52
140
1.0
102
RTVSPost2010PropOp52
 70
     0
102
RTVSPost2010Prop53
 90
        2
102
RTVSPost2010PropOp53
 70
     1
102
RTVSPost2010Prop54
  1
strokes_ogs.tif
102
RTVSPost2010PropOp54
 70
     1
102
RTVSPost2010Prop55
280
     0
102
RTVSPost2010PropOp55
 70
     1
102
RTVSPost2010Prop56
140
1.0
102
RTVSPost2010PropOp56
 70
     1
102
RTVSPost2010Prop57
140
1.0
102
RTVSPost2010PropOp57
 70
     1
  0
XRECORD
  5
45D
102
{ACAD_REACTORS
330
45C
102
}
330
45C
100
AcDbXrecord
280
     1
102
RTVSPropertyOp0
 70
     1
102
RTVSPropertyOp1
 70
     1
102
RTVSPropertyOp2
 70
     1
102
RTVSPropertyOp3
 70
     1
102
RTVSPropertyOp4
 70
     1
102
RTVSPropertyOp5
 70
     1
102
RTVSPropertyOp6
 70
     1
102
RTVSPropertyOp7
 70
     1
102
RTVSPropertyOp8
 70
     1
102
RTVSPropertyOp9
 70
     1
102
RTVSPropertyOp10
 70
     1
102
RTVSPropertyOp11
 70
     1
102
RTVSPropertyOp12
 70
     1
102
RTVSPropertyOp13
 70
     1
102
RTVSPropertyOp14
 70
     1
102
RTVSPropertyOp15
 70
     1
102
RTVSPropertyOp16
 70
     1
102
RTVSPropertyOp17
 70
     1
102
RTVSPropertyOp18
 70
     1
102
RTVSPropertyOp19
 70
     1
102
RTVSPropertyOp20
 70
     1
102
RTVSPropertyOp21
 70
     1
102
RTVSPropertyOp22
 70
     1
102
RTVSPropertyOp23
 70
     1
102
RTVSPropertyOp24
 70
     1
102
RTVSPropertyOp25
 70
     1
102
RTVSPropertyOp26
 70
     1
102
RTVSPropertyOp27
 70
     1
102
RTVSPropertyOp28
 70
     1
102
RTVSPropertyOp29
 70
     1
102
RTVSPropertyOp30
 70
     1
102
RTVSPropertyOp31
 70
     1
102
RTVSPropertyOp32
 70
     1
102
RTVSPropertyOp33
 70
     1
102
RTVSPropertyOp34
 70
     1
102
RTVSPropertyOp35
 70
     1
102
RTVSPropertyOp36
 70
     1
102
RTVSPropertyOp37
 70
     1
102
RTVSPropertyOp38
 70
     1
102
RTVSPropertyOp39
 70
     1
102
RTVSPropertyOp40
 70
     1
102
RTVSPropertyOp41
 70
     1
102
RTVSPropertyOp42
 70
     1
102
RTVSPropertyOp43
 70
     1
102
RTVSPropertyOp44
 70
     1
102
RTVSPropertyOp45
 70
     1
102
RTVSPropertyOp46
 70
     1
102
RTVSPropertyOp47
 70
     1
102
RTVSPropertyOp48
 70
     1
102
RTVSPropertyOp49
 70
     1
102
RTVSPropertyOp50
 70
     1
102
RTVSPropertyOp51
 70
     0
102
RTVSPropertyOp52
 70
     0
102
RTVSPropertyOp53
 70
     1
102
RTVSPropertyOp54
 70
     1
102
RTVSPropertyOp55
 70
     1
102
RTVSPropertyOp56
 70
     1
102
RTVSPropertyOp57
 70
     1
102
RTVSPost2010Prop28
280
     0
102
RTVSPost2010PropOp28
 70
     1
102
RTVSPost2010Prop29
280
     1
102
RTVSPost2010PropOp29
 70
     1
102
RTVSPost2010Prop30
280
     1
102
RTVSPost2010PropOp30
 70
     1
102
RTVSPost2010Prop31
280
     0
102
RTVSPost2010PropOp31
 70
     1
102
RTVSPost2010Prop32
280
     0
102
RTVSPost2010PropOp32
 70
     1
102
RTVSPost2010Prop33
280
     0
102
RTVSPost2010PropOp33
 70
     1
102
RTVSPost2010Prop34
280
     0
102
RTVSPost2010PropOp34
 70
     1
102
RTVSPost2010Prop35
280
     0
102
RTVSPost2010PropOp35
 70
     1
102
RTVSPost2010Prop36
280
     0
102
RTVSPost2010PropOp36
 70
     1
102
RTVSPost2010Prop37
 90
       50
102
RTVSPost2010PropOp37
 70
     1
102
RTVSPost2010Prop38
140
0.0
102
RTVSPost2010PropOp38
 70
     1
102
RTVSPost2010Prop39
140
1.0
102
RTVSPost2010PropOp39
 70
     1
102
RTVSPost2010Prop40
 90
        0
102
RTVSPost2010PropOp40
 70
     1
102
RTVSPost2010Prop41ColorIndex
 90
       18
102
RTVSPost2010Prop41ColorRGB
 90
        0
102
RTVSPost2010PropOp41
 70
     1
102
RTVSPost2010Prop42
 90
       50
102
RTVSPost2010PropOp42
 70
     1
102
RTVSPost2010Prop43
 90
        3
102
RTVSPost2010PropOp43
 70
     1
102
RTVSPost2010Prop44ColorIndex
 90
        5
102
RTVSPost2010Prop44ColorRGB
 90
      255
102
RTVSPost2010PropOp44
 70
     1
102
RTVSPost2010Prop45
280
     0
102
RTVSPost2010PropOp45
 70
     1
102
RTVSPost2010Prop46
 90
       50
102
RTVSPost2010PropOp46
 70
     1
102
RTVSPost2010Prop47
 90
       50
102
RTVSPost2010PropOp47
 70
     1
102
RTVSPost2010Prop48
 90
       50
102
RTVSPost2010PropOp48
 70
     1
102
RTVSPost2010Prop49
280
     0
102
RTVSPost2010PropOp49
 70
     1
102
RTVSPost2010Prop50
 90
       50
102
RTVSPost2010PropOp50
 70
     1
102
RTVSPost2010Prop51ColorIndex
 90
      256
102
RTVSPost2010Prop51ColorRGB
 90
-16777216
102
RTVSPost2010PropOp51
 70
     0
102
RTVSPost2010Prop52
140
1.0
102
RTVSPost2010PropOp52
 70
     0
102
RTVSPost2010Prop53
 90
        2
102
RTVSPost2010PropOp53
 70
     1
102
RTVSPost2010Prop54
  1
strokes_ogs.tif
102
RTVSPost2010PropOp54
 70
     1
102
RTVSPost2010Prop55
280
     0
102
RTVSPost2010PropOp55
 70
     1
102
RTVSPost2010Prop56
140
1.0
102
RTVSPost2010PropOp56
 70
     1
102
RTVSPost2010Prop57
140
1.0
102
RTVSPost2010PropOp57
 70
     1
  0
XRECORD
  5
45F
102
{ACAD_REACTORS
330
45E
102
}
330
45E
100
AcDbXrecord
280
     1
102
RTVSPropertyOp0
 70
     1
102
RTVSPropertyOp1
 70
     1
102
RTVSPropertyOp2
 70
     1
102
RTVSPropertyOp3
 70
     1
102
RTVSPropertyOp4
 70
     1
102
RTVSPropertyOp5
 70
     1
102
RTVSPropertyOp6
 70
     1
102
RTVSPropertyOp7
 70
     1
102
RTVSPropertyOp8
 70
     1
102
RTVSPropertyOp9
 70
     1
102
RTVSPropertyOp10
 70
     1
102
RTVSPropertyOp11
 70
     1
102
RTVSPropertyOp12
 70
     1
102
RTVSPropertyOp13
 70
     1
102
RTVSPropertyOp14
 70
     1
102
RTVSPropertyOp15
 70
     1
102
RTVSPropertyOp16
 70
     1
102
RTVSPropertyOp17
 70
     1
102
RTVSPropertyOp18
 70
     1
102
RTVSPropertyOp19
 70
     1
102
RTVSPropertyOp20
 70
     1
102
RTVSPropertyOp21
 70
     1
102
RTVSPropertyOp22
 70
     1
102
RTVSPropertyOp23
 70
     1
102
RTVSPropertyOp24
 70
     1
102
RTVSPropertyOp25
 70
     1
102
RTVSPropertyOp26
 70
     1
102
RTVSPropertyOp27
 70
     1
102
RTVSPropertyOp28
 70
     1
102
RTVSPropertyOp29
 70
     1
102
RTVSPropertyOp30
 70
     1
102
RTVSPropertyOp31
 70
     1
102
RTVSPropertyOp32
 70
     1
102
RTVSPropertyOp33
 70
     1
102
RTVSPropertyOp34
 70
     1
102
RTVSPropertyOp35
 70
     1
102
RTVSPropertyOp36
 70
     1
102
RTVSPropertyOp37
 70
     1
102
RTVSPropertyOp38
 70
     1
102
RTVSPropertyOp39
 70
     1
102
RTVSPropertyOp40
 70
     1
102
RTVSPropertyOp41
 70
     1
102
RTVSPropertyOp42
 70
     1
102
RTVSPropertyOp43
 70
     1
102
RTVSPropertyOp44
 70
     1
102
RTVSPropertyOp45
 70
     1
102
RTVSPropertyOp46
 70
     1
102
RTVSPropertyOp47
 70
     1
102
RTVSPropertyOp48
 70
     1
102
RTVSPropertyOp49
 70
     1
102
RTVSPropertyOp50
 70
     1
102
RTVSPropertyOp51
 70
     0
102
RTVSPropertyOp52
 70
     0
102
RTVSPropertyOp53
 70
     1
102
RTVSPropertyOp54
 70
     1
102
RTVSPropertyOp55
 70
     1
102
RTVSPropertyOp56
 70
     1
102
RTVSPropertyOp57
 70
     1
102
RTVSPost2010Prop28
280
     0
102
RTVSPost2010PropOp28
 70
     1
102
RTVSPost2010Prop29
280
     1
102
RTVSPost2010PropOp29
 70
     1
102
RTVSPost2010Prop30
280
     1
102
RTVSPost2010PropOp30
 70
     1
102
RTVSPost2010Prop31
280
     0
102
RTVSPost2010PropOp31
 70
     1
102
RTVSPost2010Prop32
280
     0
102
RTVSPost2010PropOp32
 70
     1
102
RTVSPost2010Prop33
280
     0
102
RTVSPost2010PropOp33
 70
     1
102
RTVSPost2010Prop34
280
     0
102
RTVSPost2010PropOp34
 70
     1
102
RTVSPost2010Prop35
280
     0
102
RTVSPost2010PropOp35
 70
     1
102
RTVSPost2010Prop36
280
     0
102
RTVSPost2010PropOp36
 70
     1
102
RTVSPost2010Prop37
 90
       50
102
RTVSPost2010PropOp37
 70
     1
102
RTVSPost2010Prop38
140
0.0
102
RTVSPost2010PropOp38
 70
     1
102
RTVSPost2010Prop39
140
1.0
102
RTVSPost2010PropOp39
 70
     1
102
RTVSPost2010Prop40
 90
        0
102
RTVSPost2010PropOp40
 70
     1
102
RTVSPost2010Prop41ColorIndex
 90
       18
102
RTVSPost2010Prop41ColorRGB
 90
        0
102
RTVSPost2010PropOp41
 70
     1
102
RTVSPost2010Prop42
 90
       50
102
RTVSPost2010PropOp42
 70
     1
102
RTVSPost2010Prop43
 90
        3
102
RTVSPost2010PropOp43
 70
     1
102
RTVSPost2010Prop44ColorIndex
 90
        5
102
RTVSPost2010Prop44ColorRGB
 90
      255
102
RTVSPost2010PropOp44
 70
     1
102
RTVSPost2010Prop45
280
     0
102
RTVSPost2010PropOp45
 70
     1
102
RTVSPost2010Prop46
 90
       50
102
RTVSPost2010PropOp46
 70
     1
102
RTVSPost2010Prop47
 90
       50
102
RTVSPost2010PropOp47
 70
     1
102
RTVSPost2010Prop48
 90
       50
102
RTVSPost2010PropOp48
 70
     1
102
RTVSPost2010Prop49
280
     0
102
RTVSPost2010PropOp49
 70
     1
102
RTVSPost2010Prop50
 90
       50
102
RTVSPost2010PropOp50
 70
     1
102
RTVSPost2010Prop51ColorIndex
 90
      256
102
RTVSPost2010Prop51ColorRGB
 90
-16777216
102
RTVSPost2010PropOp51
 70
     0
102
RTVSPost2010Prop52
140
1.0
102
RTVSPost2010PropOp52
 70
     0
102
RTVSPost2010Prop53
 90
        2
102
RTVSPost2010PropOp53
 70
     1
102
RTVSPost2010Prop54
  1
strokes_ogs.tif
102
RTVSPost2010PropOp54
 70
     1
102
RTVSPost2010Prop55
280
     0
102
RTVSPost2010PropOp55
 70
     1
102
RTVSPost2010Prop56
140
1.0
102
RTVSPost2010PropOp56
 70
     1
102
RTVSPost2010Prop57
140
1.0
102
RTVSPost2010PropOp57
 70
     1
  0
XRECORD
  5
465
102
{ACAD_REACTORS
330
464
102
}
330
464
100
AcDbXrecord
280
     1
102
RTVSPropertyOp0
 70
     1
102
RTVSPropertyOp1
 70
     1
102
RTVSPropertyOp2
 70
     1
102
RTVSPropertyOp3
 70
     1
102
RTVSPropertyOp4
 70
     1
102
RTVSPropertyOp5
 70
     1
102
RTVSPropertyOp6
 70
     1
102
RTVSPropertyOp7
 70
     1
102
RTVSPropertyOp8
 70
     1
102
RTVSPropertyOp9
 70
     1
102
RTVSPropertyOp10
 70
     1
102
RTVSPropertyOp11
 70
     1
102
RTVSPropertyOp12
 70
     1
102
RTVSPropertyOp13
 70
     1
102
RTVSPropertyOp14
 70
     1
102
RTVSPropertyOp15
 70
     1
102
RTVSPropertyOp16
 70
     1
102
RTVSPropertyOp17
 70
     1
102
RTVSPropertyOp18
 70
     1
102
RTVSPropertyOp19
 70
     1
102
RTVSPropertyOp20
 70
     1
102
RTVSPropertyOp21
 70
     1
102
RTVSPropertyOp22
 70
     1
102
RTVSPropertyOp23
 70
     1
102
RTVSPropertyOp24
 70
     1
102
RTVSPropertyOp25
 70
     1
102
RTVSPropertyOp26
 70
     1
102
RTVSPropertyOp27
 70
     1
102
RTVSPropertyOp28
 70
     1
102
RTVSPropertyOp29
 70
     1
102
RTVSPropertyOp30
 70
     1
102
RTVSPropertyOp31
 70
     1
102
RTVSPropertyOp32
 70
     1
102
RTVSPropertyOp33
 70
     1
102
RTVSPropertyOp34
 70
     1
102
RTVSPropertyOp35
 70
     1
102
RTVSPropertyOp36
 70
     1
102
RTVSPropertyOp37
 70
     1
102
RTVSPropertyOp38
 70
     1
102
RTVSPropertyOp39
 70
     1
102
RTVSPropertyOp40
 70
     1
102
RTVSPropertyOp41
 70
     1
102
RTVSPropertyOp42
 70
     1
102
RTVSPropertyOp43
 70
     1
102
RTVSPropertyOp44
 70
     1
102
RTVSPropertyOp45
 70
     1
102
RTVSPropertyOp46
 70
     1
102
RTVSPropertyOp47
 70
     1
102
RTVSPropertyOp48
 70
     1
102
RTVSPropertyOp49
 70
     1
102
RTVSPropertyOp50
 70
     1
102
RTVSPropertyOp51
 70
     0
102
RTVSPropertyOp52
 70
     0
102
RTVSPropertyOp53
 70
     1
102
RTVSPropertyOp54
 70
     1
102
RTVSPropertyOp55
 70
     1
102
RTVSPropertyOp56
 70
     1
102
RTVSPropertyOp57
 70
     1
102
RTVSPost2010Prop28
280
     0
102
RTVSPost2010PropOp28
 70
     1
102
RTVSPost2010Prop29
280
     1
102
RTVSPost2010PropOp29
 70
     1
102
RTVSPost2010Prop30
280
     1
102
RTVSPost2010PropOp30
 70
     1
102
RTVSPost2010Prop31
280
     0
102
RTVSPost2010PropOp31
 70
     1
102
RTVSPost2010Prop32
280
     0
102
RTVSPost2010PropOp32
 70
     1
102
RTVSPost2010Prop33
280
     0
102
RTVSPost2010PropOp33
 70
     1
102
RTVSPost2010Prop34
280
     0
102
RTVSPost2010PropOp34
 70
     1
102
RTVSPost2010Prop35
280
     0
102
RTVSPost2010PropOp35
 70
     1
102
RTVSPost2010Prop36
280
     0
102
RTVSPost2010PropOp36
 70
     1
102
RTVSPost2010Prop37
 90
       50
102
RTVSPost2010PropOp37
 70
     1
102
RTVSPost2010Prop38
140
0.0
102
RTVSPost2010PropOp38
 70
     1
102
RTVSPost2010Prop39
140
1.0
102
RTVSPost2010PropOp39
 70
     1
102
RTVSPost2010Prop40
 90
        0
102
RTVSPost2010PropOp40
 70
     1
102
RTVSPost2010Prop41ColorIndex
 90
       18
102
RTVSPost2010Prop41ColorRGB
 90
        0
102
RTVSPost2010PropOp41
 70
     1
102
RTVSPost2010Prop42
 90
       50
102
RTVSPost2010PropOp42
 70
     1
102
RTVSPost2010Prop43
 90
        3
102
RTVSPost2010PropOp43
 70
     1
102
RTVSPost2010Prop44ColorIndex
 90
        5
102
RTVSPost2010Prop44ColorRGB
 90
      255
102
RTVSPost2010PropOp44
 70
     1
102
RTVSPost2010Prop45
280
     0
102
RTVSPost2010PropOp45
 70
     1
102
RTVSPost2010Prop46
 90
       50
102
RTVSPost2010PropOp46
 70
     1
102
RTVSPost2010Prop47
 90
       50
102
RTVSPost2010PropOp47
 70
     1
102
RTVSPost2010Prop48
 90
       50
102
RTVSPost2010PropOp48
 70
     1
102
RTVSPost2010Prop49
280
     0
102
RTVSPost2010PropOp49
 70
     1
102
RTVSPost2010Prop50
 90
       50
102
RTVSPost2010PropOp50
 70
     1
102
RTVSPost2010Prop51ColorIndex
 90
      256
102
RTVSPost2010Prop51ColorRGB
 90
-16777216
102
RTVSPost2010PropOp51
 70
     0
102
RTVSPost2010Prop52
140
1.0
102
RTVSPost2010PropOp52
 70
     0
102
RTVSPost2010Prop53
 90
        2
102
RTVSPost2010PropOp53
 70
     1
102
RTVSPost2010Prop54
  1
strokes_ogs.tif
102
RTVSPost2010PropOp54
 70
     1
102
RTVSPost2010Prop55
280
     0
102
RTVSPost2010PropOp55
 70
     1
102
RTVSPost2010Prop56
140
1.0
102
RTVSPost2010PropOp56
 70
     1
102
RTVSPost2010Prop57
140
1.0
102
RTVSPost2010PropOp57
 70
     1
  0
XRECORD
  5
479
102
{ACAD_REACTORS
330
478
102
}
330
478
100
AcDbXrecord
280
     1
102
RTVSPropertyOp0
 70
     0
102
RTVSPropertyOp1
 70
     0
102
RTVSPropertyOp2
 70
     0
102
RTVSPropertyOp3
 70
     0
102
RTVSPropertyOp4
 70
     0
102
RTVSPropertyOp5
 70
     0
102
RTVSPropertyOp6
 70
     0
102
RTVSPropertyOp7
 70
     0
102
RTVSPropertyOp8
 70
     0
102
RTVSPropertyOp9
 70
     0
102
RTVSPropertyOp10
 70
     0
102
RTVSPropertyOp11
 70
     0
102
RTVSPropertyOp12
 70
     0
102
RTVSPropertyOp13
 70
     0
102
RTVSPropertyOp14
 70
     2
102
RTVSPropertyOp15
 70
     0
102
RTVSPropertyOp16
 70
     0
102
RTVSPropertyOp17
 70
     0
102
RTVSPropertyOp18
 70
     0
102
RTVSPropertyOp19
 70
     0
102
RTVSPropertyOp20
 70
     0
102
RTVSPropertyOp21
 70
     0
102
RTVSPropertyOp22
 70
     0
102
RTVSPropertyOp23
 70
     0
102
RTVSPropertyOp24
 70
     0
102
RTVSPropertyOp25
 70
     0
102
RTVSPropertyOp26
 70
     0
102
RTVSPropertyOp27
 70
     0
102
RTVSPropertyOp28
 70
     0
102
RTVSPropertyOp29
 70
     0
102
RTVSPropertyOp30
 70
     0
102
RTVSPropertyOp31
 70
     0
102
RTVSPropertyOp32
 70
     0
102
RTVSPropertyOp33
 70
     0
102
RTVSPropertyOp34
 70
     0
102
RTVSPropertyOp35
 70
     0
102
RTVSPropertyOp36
 70
     0
102
RTVSPropertyOp37
 70
     0
102
RTVSPropertyOp38
 70
     0
102
RTVSPropertyOp39
 70
     0
102
RTVSPropertyOp40
 70
     0
102
RTVSPropertyOp41
 70
     0
102
RTVSPropertyOp42
 70
     0
102
RTVSPropertyOp43
 70
     0
102
RTVSPropertyOp44
 70
     0
102
RTVSPropertyOp45
 70
     0
102
RTVSPropertyOp46
 70
     0
102
RTVSPropertyOp47
 70
     0
102
RTVSPropertyOp48
 70
     0
102
RTVSPropertyOp49
 70
     0
102
RTVSPropertyOp50
 70
     0
102
RTVSPropertyOp51
 70
     0
102
RTVSPropertyOp52
 70
     0
102
RTVSPropertyOp53
 70
     0
102
RTVSPropertyOp54
 70
     0
102
RTVSPropertyOp55
 70
     0
102
RTVSPropertyOp56
 70
     0
102
RTVSPropertyOp57
 70
     0
102
RTVSPost2010Prop28
280
     0
102
RTVSPost2010PropOp28
 70
     0
102
RTVSPost2010Prop29
280
     1
102
RTVSPost2010PropOp29
 70
     0
102
RTVSPost2010Prop30
280
     1
102
RTVSPost2010PropOp30
 70
     0
102
RTVSPost2010Prop31
280
     0
102
RTVSPost2010PropOp31
 70
     0
102
RTVSPost2010Prop32
280
     0
102
RTVSPost2010PropOp32
 70
     0
102
RTVSPost2010Prop33
280
     0
102
RTVSPost2010PropOp33
 70
     0
102
RTVSPost2010Prop34
280
     0
102
RTVSPost2010PropOp34
 70
     0
102
RTVSPost2010Prop35
280
     0
102
RTVSPost2010PropOp35
 70
     0
102
RTVSPost2010Prop36
280
     0
102
RTVSPost2010PropOp36
 70
     0
102
RTVSPost2010Prop37
 90
       50
102
RTVSPost2010PropOp37
 70
     0
102
RTVSPost2010Prop38
140
0.0
102
RTVSPost2010PropOp38
 70
     0
102
RTVSPost2010Prop39
140
1.0
102
RTVSPost2010PropOp39
 70
     0
102
RTVSPost2010Prop40
 90
        0
102
RTVSPost2010PropOp40
 70
     0
102
RTVSPost2010Prop41ColorIndex
 90
       18
102
RTVSPost2010Prop41ColorRGB
 90
        0
102
RTVSPost2010PropOp41
 70
     0
102
RTVSPost2010Prop42
 90
       50
102
RTVSPost2010PropOp42
 70
     0
102
RTVSPost2010Prop43
 90
        3
102
RTVSPost2010PropOp43
 70
     0
102
RTVSPost2010Prop44ColorIndex
 90
        5
102
RTVSPost2010Prop44ColorRGB
 90
      255
102
RTVSPost2010PropOp44
 70
     0
102
RTVSPost2010Prop45
280
     0
102
RTVSPost2010PropOp45
 70
     0
102
RTVSPost2010Prop46
 90
       50
102
RTVSPost2010PropOp46
 70
     0
102
RTVSPost2010Prop47
 90
       50
102
RTVSPost2010PropOp47
 70
     0
102
RTVSPost2010Prop48
 90
       50
102
RTVSPost2010PropOp48
 70
     0
102
RTVSPost2010Prop49
280
     0
102
RTVSPost2010PropOp49
 70
     0
102
RTVSPost2010Prop50
 90
       50
102
RTVSPost2010PropOp50
 70
     0
102
RTVSPost2010Prop51ColorIndex
 90
      256
102
RTVSPost2010Prop51ColorRGB
 90
-16777216
102
RTVSPost2010PropOp51
 70
     0
102
RTVSPost2010Prop52
140
1.0
102
RTVSPost2010PropOp52
 70
     0
102
RTVSPost2010Prop53
 90
        2
102
RTVSPost2010PropOp53
 70
     0
102
RTVSPost2010Prop54
  1
strokes_ogs.tif
102
RTVSPost2010PropOp54
 70
     0
102
RTVSPost2010Prop55
280
     0
102
RTVSPost2010PropOp55
 70
     0
102
RTVSPost2010Prop56
140
1.0
102
RTVSPost2010PropOp56
 70
     0
102
RTVSPost2010Prop57
140
1.0
102
RTVSPost2010PropOp57
 70
     0
  0
XRECORD
  5
473
102
{ACAD_REACTORS
330
472
102
}
330
472
100
AcDbXrecord
280
     1
102
RTVSPropertyOp0
 70
     1
102
RTVSPropertyOp1
 70
     1
102
RTVSPropertyOp2
 70
     1
102
RTVSPropertyOp3
 70
     1
102
RTVSPropertyOp4
 70
     1
102
RTVSPropertyOp5
 70
     1
102
RTVSPropertyOp6
 70
     1
102
RTVSPropertyOp7
 70
     1
102
RTVSPropertyOp8
 70
     1
102
RTVSPropertyOp9
 70
     1
102
RTVSPropertyOp10
 70
     1
102
RTVSPropertyOp11
 70
     1
102
RTVSPropertyOp12
 70
     1
102
RTVSPropertyOp13
 70
     1
102
RTVSPropertyOp14
 70
     1
102
RTVSPropertyOp15
 70
     1
102
RTVSPropertyOp16
 70
     1
102
RTVSPropertyOp17
 70
     1
102
RTVSPropertyOp18
 70
     1
102
RTVSPropertyOp19
 70
     1
102
RTVSPropertyOp20
 70
     1
102
RTVSPropertyOp21
 70
     1
102
RTVSPropertyOp22
 70
     1
102
RTVSPropertyOp23
 70
     1
102
RTVSPropertyOp24
 70
     1
102
RTVSPropertyOp25
 70
     1
102
RTVSPropertyOp26
 70
     1
102
RTVSPropertyOp27
 70
     1
102
RTVSPropertyOp28
 70
     1
102
RTVSPropertyOp29
 70
     1
102
RTVSPropertyOp30
 70
     1
102
RTVSPropertyOp31
 70
     1
102
RTVSPropertyOp32
 70
     1
102
RTVSPropertyOp33
 70
     1
102
RTVSPropertyOp34
 70
     1
102
RTVSPropertyOp35
 70
     1
102
RTVSPropertyOp36
 70
     1
102
RTVSPropertyOp37
 70
     1
102
RTVSPropertyOp38
 70
     1
102
RTVSPropertyOp39
 70
     1
102
RTVSPropertyOp40
 70
     1
102
RTVSPropertyOp41
 70
     1
102
RTVSPropertyOp42
 70
     1
102
RTVSPropertyOp43
 70
     1
102
RTVSPropertyOp44
 70
     1
102
RTVSPropertyOp45
 70
     1
102
RTVSPropertyOp46
 70
     1
102
RTVSPropertyOp47
 70
     1
102
RTVSPropertyOp48
 70
     1
102
RTVSPropertyOp49
 70
     1
102
RTVSPropertyOp50
 70
     1
102
RTVSPropertyOp51
 70
     0
102
RTVSPropertyOp52
 70
     0
102
RTVSPropertyOp53
 70
     1
102
RTVSPropertyOp54
 70
     1
102
RTVSPropertyOp55
 70
     1
102
RTVSPropertyOp56
 70
     1
102
RTVSPropertyOp57
 70
     1
102
RTVSPost2010Prop28
280
     0
102
RTVSPost2010PropOp28
 70
     1
102
RTVSPost2010Prop29
280
     1
102
RTVSPost2010PropOp29
 70
     1
102
RTVSPost2010Prop30
280
     1
102
RTVSPost2010PropOp30
 70
     1
102
RTVSPost2010Prop31
280
     0
102
RTVSPost2010PropOp31
 70
     1
102
RTVSPost2010Prop32
280
     0
102
RTVSPost2010PropOp32
 70
     1
102
RTVSPost2010Prop33
280
     0
102
RTVSPost2010PropOp33
 70
     1
102
RTVSPost2010Prop34
280
     0
102
RTVSPost2010PropOp34
 70
     1
102
RTVSPost2010Prop35
280
     0
102
RTVSPost2010PropOp35
 70
     1
102
RTVSPost2010Prop36
280
     0
102
RTVSPost2010PropOp36
 70
     1
102
RTVSPost2010Prop37
 90
       50
102
RTVSPost2010PropOp37
 70
     1
102
RTVSPost2010Prop38
140
0.0
102
RTVSPost2010PropOp38
 70
     1
102
RTVSPost2010Prop39
140
1.0
102
RTVSPost2010PropOp39
 70
     1
102
RTVSPost2010Prop40
 90
        0
102
RTVSPost2010PropOp40
 70
     1
102
RTVSPost2010Prop41ColorIndex
 90
       18
102
RTVSPost2010Prop41ColorRGB
 90
        0
102
RTVSPost2010PropOp41
 70
     1
102
RTVSPost2010Prop42
 90
       50
102
RTVSPost2010PropOp42
 70
     1
102
RTVSPost2010Prop43
 90
        3
102
RTVSPost2010PropOp43
 70
     1
102
RTVSPost2010Prop44ColorIndex
 90
        5
102
RTVSPost2010Prop44ColorRGB
 90
      255
102
RTVSPost2010PropOp44
 70
     1
102
RTVSPost2010Prop45
280
     0
102
RTVSPost2010PropOp45
 70
     1
102
RTVSPost2010Prop46
 90
       50
102
RTVSPost2010PropOp46
 70
     1
102
RTVSPost2010Prop47
 90
       50
102
RTVSPost2010PropOp47
 70
     1
102
RTVSPost2010Prop48
 90
       50
102
RTVSPost2010PropOp48
 70
     1
102
RTVSPost2010Prop49
280
     0
102
RTVSPost2010PropOp49
 70
     1
102
RTVSPost2010Prop50
 90
       50
102
RTVSPost2010PropOp50
 70
     1
102
RTVSPost2010Prop51ColorIndex
 90
      256
102
RTVSPost2010Prop51ColorRGB
 90
-16777216
102
RTVSPost2010PropOp51
 70
     0
102
RTVSPost2010Prop52
140
1.0
102
RTVSPost2010PropOp52
 70
     0
102
RTVSPost2010Prop53
 90
        2
102
RTVSPost2010PropOp53
 70
     1
102
RTVSPost2010Prop54
  1
strokes_ogs.tif
102
RTVSPost2010PropOp54
 70
     1
102
RTVSPost2010Prop55
280
     0
102
RTVSPost2010PropOp55
 70
     1
102
RTVSPost2010Prop56
140
1.0
102
RTVSPost2010PropOp56
 70
     1
102
RTVSPost2010Prop57
140
1.0
102
RTVSPost2010PropOp57
 70
     1
  0
XRECORD
  5
47B
102
{ACAD_REACTORS
330
47A
102
}
330
47A
100
AcDbXrecord
280
     1
102
RTVSPropertyOp0
 70
     0
102
RTVSPropertyOp1
 70
     0
102
RTVSPropertyOp2
 70
     0
102
RTVSPropertyOp3
 70
     0
102
RTVSPropertyOp4
 70
     0
102
RTVSPropertyOp5
 70
     0
102
RTVSPropertyOp6
 70
     0
102
RTVSPropertyOp7
 70
     0
102
RTVSPropertyOp8
 70
     0
102
RTVSPropertyOp9
 70
     0
102
RTVSPropertyOp10
 70
     0
102
RTVSPropertyOp11
 70
     0
102
RTVSPropertyOp12
 70
     0
102
RTVSPropertyOp13
 70
     0
102
RTVSPropertyOp14
 70
     2
102
RTVSPropertyOp15
 70
     0
102
RTVSPropertyOp16
 70
     0
102
RTVSPropertyOp17
 70
     0
102
RTVSPropertyOp18
 70
     0
102
RTVSPropertyOp19
 70
     0
102
RTVSPropertyOp20
 70
     0
102
RTVSPropertyOp21
 70
     0
102
RTVSPropertyOp22
 70
     0
102
RTVSPropertyOp23
 70
     0
102
RTVSPropertyOp24
 70
     0
102
RTVSPropertyOp25
 70
     0
102
RTVSPropertyOp26
 70
     0
102
RTVSPropertyOp27
 70
     0
102
RTVSPropertyOp28
 70
     0
102
RTVSPropertyOp29
 70
     0
102
RTVSPropertyOp30
 70
     0
102
RTVSPropertyOp31
 70
     0
102
RTVSPropertyOp32
 70
     0
102
RTVSPropertyOp33
 70
     0
102
RTVSPropertyOp34
 70
     0
102
RTVSPropertyOp35
 70
     0
102
RTVSPropertyOp36
 70
     0
102
RTVSPropertyOp37
 70
     0
102
RTVSPropertyOp38
 70
     0
102
RTVSPropertyOp39
 70
     0
102
RTVSPropertyOp40
 70
     0
102
RTVSPropertyOp41
 70
     0
102
RTVSPropertyOp42
 70
     0
102
RTVSPropertyOp43
 70
     0
102
RTVSPropertyOp44
 70
     0
102
RTVSPropertyOp45
 70
     0
102
RTVSPropertyOp46
 70
     0
102
RTVSPropertyOp47
 70
     0
102
RTVSPropertyOp48
 70
     0
102
RTVSPropertyOp49
 70
     0
102
RTVSPropertyOp50
 70
     0
102
RTVSPropertyOp51
 70
     0
102
RTVSPropertyOp52
 70
     0
102
RTVSPropertyOp53
 70
     0
102
RTVSPropertyOp54
 70
     0
102
RTVSPropertyOp55
 70
     0
102
RTVSPropertyOp56
 70
     0
102
RTVSPropertyOp57
 70
     0
102
RTVSPost2010Prop28
280
     0
102
RTVSPost2010PropOp28
 70
     0
102
RTVSPost2010Prop29
280
     1
102
RTVSPost2010PropOp29
 70
     0
102
RTVSPost2010Prop30
280
     1
102
RTVSPost2010PropOp30
 70
     0
102
RTVSPost2010Prop31
280
     0
102
RTVSPost2010PropOp31
 70
     0
102
RTVSPost2010Prop32
280
     0
102
RTVSPost2010PropOp32
 70
     0
102
RTVSPost2010Prop33
280
     0
102
RTVSPost2010PropOp33
 70
     0
102
RTVSPost2010Prop34
280
     0
102
RTVSPost2010PropOp34
 70
     0
102
RTVSPost2010Prop35
280
     0
102
RTVSPost2010PropOp35
 70
     0
102
RTVSPost2010Prop36
280
     0
102
RTVSPost2010PropOp36
 70
     0
102
RTVSPost2010Prop37
 90
       50
102
RTVSPost2010PropOp37
 70
     0
102
RTVSPost2010Prop38
140
0.0
102
RTVSPost2010PropOp38
 70
     0
102
RTVSPost2010Prop39
140
1.0
102
RTVSPost2010PropOp39
 70
     0
102
RTVSPost2010Prop40
 90
        0
102
RTVSPost2010PropOp40
 70
     0
102
RTVSPost2010Prop41ColorIndex
 90
       18
102
RTVSPost2010Prop41ColorRGB
 90
        0
102
RTVSPost2010PropOp41
 70
     0
102
RTVSPost2010Prop42
 90
       50
102
RTVSPost2010PropOp42
 70
     0
102
RTVSPost2010Prop43
 90
        3
102
RTVSPost2010PropOp43
 70
     0
102
RTVSPost2010Prop44ColorIndex
 90
        5
102
RTVSPost2010Prop44ColorRGB
 90
      255
102
RTVSPost2010PropOp44
 70
     0
102
RTVSPost2010Prop45
280
     0
102
RTVSPost2010PropOp45
 70
     0
102
RTVSPost2010Prop46
 90
       50
102
RTVSPost2010PropOp46
 70
     0
102
RTVSPost2010Prop47
 90
       50
102
RTVSPost2010PropOp47
 70
     0
102
RTVSPost2010Prop48
 90
       50
102
RTVSPost2010PropOp48
 70
     0
102
RTVSPost2010Prop49
280
     0
102
RTVSPost2010PropOp49
 70
     0
102
RTVSPost2010Prop50
 90
       50
102
RTVSPost2010PropOp50
 70
     0
102
RTVSPost2010Prop51ColorIndex
 90
      256
102
RTVSPost2010Prop51ColorRGB
 90
-16777216
102
RTVSPost2010PropOp51
 70
     0
102
RTVSPost2010Prop52
140
1.0
102
RTVSPost2010PropOp52
 70
     0
102
RTVSPost2010Prop53
 90
        2
102
RTVSPost2010PropOp53
 70
     0
102
RTVSPost2010Prop54
  1
strokes_ogs.tif
102
RTVSPost2010PropOp54
 70
     0
102
RTVSPost2010Prop55
280
     0
102
RTVSPost2010PropOp55
 70
     0
102
RTVSPost2010Prop56
140
1.0
102
RTVSPost2010PropOp56
 70
     0
102
RTVSPost2010Prop57
140
1.0
102
RTVSPost2010PropOp57
 70
     0
  0
XRECORD
  5
469
102
{ACAD_REACTORS
330
468
102
}
330
468
100
AcDbXrecord
280
     1
102
RTVSPropertyOp0
 70
     1
102
RTVSPropertyOp1
 70
     1
102
RTVSPropertyOp2
 70
     1
102
RTVSPropertyOp3
 70
     1
102
RTVSPropertyOp4
 70
     1
102
RTVSPropertyOp5
 70
     1
102
RTVSPropertyOp6
 70
     1
102
RTVSPropertyOp7
 70
     1
102
RTVSPropertyOp8
 70
     1
102
RTVSPropertyOp9
 70
     1
102
RTVSPropertyOp10
 70
     1
102
RTVSPropertyOp11
 70
     1
102
RTVSPropertyOp12
 70
     1
102
RTVSPropertyOp13
 70
     1
102
RTVSPropertyOp14
 70
     1
102
RTVSPropertyOp15
 70
     1
102
RTVSPropertyOp16
 70
     1
102
RTVSPropertyOp17
 70
     1
102
RTVSPropertyOp18
 70
     1
102
RTVSPropertyOp19
 70
     1
102
RTVSPropertyOp20
 70
     1
102
RTVSPropertyOp21
 70
     1
102
RTVSPropertyOp22
 70
     1
102
RTVSPropertyOp23
 70
     1
102
RTVSPropertyOp24
 70
     1
102
RTVSPropertyOp25
 70
     1
102
RTVSPropertyOp26
 70
     1
102
RTVSPropertyOp27
 70
     1
102
RTVSPropertyOp28
 70
     1
102
RTVSPropertyOp29
 70
     1
102
RTVSPropertyOp30
 70
     1
102
RTVSPropertyOp31
 70
     1
102
RTVSPropertyOp32
 70
     1
102
RTVSPropertyOp33
 70
     1
102
RTVSPropertyOp34
 70
     1
102
RTVSPropertyOp35
 70
     1
102
RTVSPropertyOp36
 70
     1
102
RTVSPropertyOp37
 70
     1
102
RTVSPropertyOp38
 70
     1
102
RTVSPropertyOp39
 70
     1
102
RTVSPropertyOp40
 70
     1
102
RTVSPropertyOp41
 70
     1
102
RTVSPropertyOp42
 70
     1
102
RTVSPropertyOp43
 70
     1
102
RTVSPropertyOp44
 70
     1
102
RTVSPropertyOp45
 70
     1
102
RTVSPropertyOp46
 70
     1
102
RTVSPropertyOp47
 70
     1
102
RTVSPropertyOp48
 70
     1
102
RTVSPropertyOp49
 70
     1
102
RTVSPropertyOp50
 70
     1
102
RTVSPropertyOp51
 70
     0
102
RTVSPropertyOp52
 70
     0
102
RTVSPropertyOp53
 70
     1
102
RTVSPropertyOp54
 70
     1
102
RTVSPropertyOp55
 70
     1
102
RTVSPropertyOp56
 70
     1
102
RTVSPropertyOp57
 70
     1
102
RTVSPost2010Prop28
280
     0
102
RTVSPost2010PropOp28
 70
     1
102
RTVSPost2010Prop29
280
     1
102
RTVSPost2010PropOp29
 70
     1
102
RTVSPost2010Prop30
280
     1
102
RTVSPost2010PropOp30
 70
     1
102
RTVSPost2010Prop31
280
     0
102
RTVSPost2010PropOp31
 70
     1
102
RTVSPost2010Prop32
280
     0
102
RTVSPost2010PropOp32
 70
     1
102
RTVSPost2010Prop33
280
     0
102
RTVSPost2010PropOp33
 70
     1
102
RTVSPost2010Prop34
280
     0
102
RTVSPost2010PropOp34
 70
     1
102
RTVSPost2010Prop35
280
     0
102
RTVSPost2010PropOp35
 70
     1
102
RTVSPost2010Prop36
280
     0
102
RTVSPost2010PropOp36
 70
     1
102
RTVSPost2010Prop37
 90
       50
102
RTVSPost2010PropOp37
 70
     1
102
RTVSPost2010Prop38
140
0.0
102
RTVSPost2010PropOp38
 70
     1
102
RTVSPost2010Prop39
140
1.0
102
RTVSPost2010PropOp39
 70
     1
102
RTVSPost2010Prop40
 90
        0
102
RTVSPost2010PropOp40
 70
     1
102
RTVSPost2010Prop41ColorIndex
 90
       18
102
RTVSPost2010Prop41ColorRGB
 90
        0
102
RTVSPost2010PropOp41
 70
     1
102
RTVSPost2010Prop42
 90
       50
102
RTVSPost2010PropOp42
 70
     1
102
RTVSPost2010Prop43
 90
        3
102
RTVSPost2010PropOp43
 70
     1
102
RTVSPost2010Prop44ColorIndex
 90
        5
102
RTVSPost2010Prop44ColorRGB
 90
      255
102
RTVSPost2010PropOp44
 70
     1
102
RTVSPost2010Prop45
280
     0
102
RTVSPost2010PropOp45
 70
     1
102
RTVSPost2010Prop46
 90
       50
102
RTVSPost2010PropOp46
 70
     1
102
RTVSPost2010Prop47
 90
       50
102
RTVSPost2010PropOp47
 70
     1
102
RTVSPost2010Prop48
 90
       50
102
RTVSPost2010PropOp48
 70
     1
102
RTVSPost2010Prop49
280
     0
102
RTVSPost2010PropOp49
 70
     1
102
RTVSPost2010Prop50
 90
       50
102
RTVSPost2010PropOp50
 70
     1
102
RTVSPost2010Prop51ColorIndex
 90
      256
102
RTVSPost2010Prop51ColorRGB
 90
-16777216
102
RTVSPost2010PropOp51
 70
     0
102
RTVSPost2010Prop52
140
1.0
102
RTVSPost2010PropOp52
 70
     0
102
RTVSPost2010Prop53
 90
        2
102
RTVSPost2010PropOp53
 70
     1
102
RTVSPost2010Prop54
  1
strokes_ogs.tif
102
RTVSPost2010PropOp54
 70
     1
102
RTVSPost2010Prop55
280
     0
102
RTVSPost2010PropOp55
 70
     1
102
RTVSPost2010Prop56
140
1.0
102
RTVSPost2010PropOp56
 70
     1
102
RTVSPost2010Prop57
140
1.0
102
RTVSPost2010PropOp57
 70
     1
  0
XRECORD
  5
487
102
{ACAD_REACTORS
330
486
102
}
330
486
100
AcDbXrecord
280
     1
102
RTVSPropertyOp0
 70
     1
102
RTVSPropertyOp1
 70
     1
102
RTVSPropertyOp2
 70
     1
102
RTVSPropertyOp3
 70
     1
102
RTVSPropertyOp4
 70
     1
102
RTVSPropertyOp5
 70
     1
102
RTVSPropertyOp6
 70
     1
102
RTVSPropertyOp7
 70
     1
102
RTVSPropertyOp8
 70
     1
102
RTVSPropertyOp9
 70
     1
102
RTVSPropertyOp10
 70
     1
102
RTVSPropertyOp11
 70
     1
102
RTVSPropertyOp12
 70
     1
102
RTVSPropertyOp13
 70
     1
102
RTVSPropertyOp14
 70
     1
102
RTVSPropertyOp15
 70
     1
102
RTVSPropertyOp16
 70
     1
102
RTVSPropertyOp17
 70
     1
102
RTVSPropertyOp18
 70
     1
102
RTVSPropertyOp19
 70
     1
102
RTVSPropertyOp20
 70
     1
102
RTVSPropertyOp21
 70
     1
102
RTVSPropertyOp22
 70
     1
102
RTVSPropertyOp23
 70
     1
102
RTVSPropertyOp24
 70
     1
102
RTVSPropertyOp25
 70
     1
102
RTVSPropertyOp26
 70
     1
102
RTVSPropertyOp27
 70
     1
102
RTVSPropertyOp28
 70
     1
102
RTVSPropertyOp29
 70
     1
102
RTVSPropertyOp30
 70
     1
102
RTVSPropertyOp31
 70
     1
102
RTVSPropertyOp32
 70
     1
102
RTVSPropertyOp33
 70
     1
102
RTVSPropertyOp34
 70
     1
102
RTVSPropertyOp35
 70
     1
102
RTVSPropertyOp36
 70
     1
102
RTVSPropertyOp37
 70
     1
102
RTVSPropertyOp38
 70
     1
102
RTVSPropertyOp39
 70
     1
102
RTVSPropertyOp40
 70
     1
102
RTVSPropertyOp41
 70
     1
102
RTVSPropertyOp42
 70
     1
102
RTVSPropertyOp43
 70
     1
102
RTVSPropertyOp44
 70
     1
102
RTVSPropertyOp45
 70
     1
102
RTVSPropertyOp46
 70
     1
102
RTVSPropertyOp47
 70
     1
102
RTVSPropertyOp48
 70
     1
102
RTVSPropertyOp49
 70
     1
102
RTVSPropertyOp50
 70
     1
102
RTVSPropertyOp51
 70
     0
102
RTVSPropertyOp52
 70
     0
102
RTVSPropertyOp53
 70
     1
102
RTVSPropertyOp54
 70
     1
102
RTVSPropertyOp55
 70
     1
102
RTVSPropertyOp56
 70
     1
102
RTVSPropertyOp57
 70
     1
102
RTVSPost2010Prop28
280
     0
102
RTVSPost2010PropOp28
 70
     1
102
RTVSPost2010Prop29
280
     1
102
RTVSPost2010PropOp29
 70
     1
102
RTVSPost2010Prop30
280
     1
102
RTVSPost2010PropOp30
 70
     1
102
RTVSPost2010Prop31
280
     0
102
RTVSPost2010PropOp31
 70
     1
102
RTVSPost2010Prop32
280
     0
102
RTVSPost2010PropOp32
 70
     1
102
RTVSPost2010Prop33
280
     0
102
RTVSPost2010PropOp33
 70
     1
102
RTVSPost2010Prop34
280
     0
102
RTVSPost2010PropOp34
 70
     1
102
RTVSPost2010Prop35
280
     0
102
RTVSPost2010PropOp35
 70
     1
102
RTVSPost2010Prop36
280
     0
102
RTVSPost2010PropOp36
 70
     1
102
RTVSPost2010Prop37
 90
       50
102
RTVSPost2010PropOp37
 70
     1
102
RTVSPost2010Prop38
140
0.0
102
RTVSPost2010PropOp38
 70
     1
102
RTVSPost2010Prop39
140
1.0
102
RTVSPost2010PropOp39
 70
     1
102
RTVSPost2010Prop40
 90
        0
102
RTVSPost2010PropOp40
 70
     1
102
RTVSPost2010Prop41ColorIndex
 90
       18
102
RTVSPost2010Prop41ColorRGB
 90
        0
102
RTVSPost2010PropOp41
 70
     1
102
RTVSPost2010Prop42
 90
       50
102
RTVSPost2010PropOp42
 70
     1
102
RTVSPost2010Prop43
 90
        3
102
RTVSPost2010PropOp43
 70
     1
102
RTVSPost2010Prop44ColorIndex
 90
        5
102
RTVSPost2010Prop44ColorRGB
 90
      255
102
RTVSPost2010PropOp44
 70
     1
102
RTVSPost2010Prop45
280
     0
102
RTVSPost2010PropOp45
 70
     1
102
RTVSPost2010Prop46
 90
       50
102
RTVSPost2010PropOp46
 70
     1
102
RTVSPost2010Prop47
 90
       50
102
RTVSPost2010PropOp47
 70
     1
102
RTVSPost2010Prop48
 90
       50
102
RTVSPost2010PropOp48
 70
     1
102
RTVSPost2010Prop49
280
     0
102
RTVSPost2010PropOp49
 70
     1
102
RTVSPost2010Prop50
 90
       50
102
RTVSPost2010PropOp50
 70
     1
102
RTVSPost2010Prop51ColorIndex
 90
      256
102
RTVSPost2010Prop51ColorRGB
 90
-16777216
102
RTVSPost2010PropOp51
 70
     0
102
RTVSPost2010Prop52
140
1.0
102
RTVSPost2010PropOp52
 70
     0
102
RTVSPost2010Prop53
 90
        2
102
RTVSPost2010PropOp53
 70
     1
102
RTVSPost2010Prop54
  1
strokes_ogs.tif
102
RTVSPost2010PropOp54
 70
     1
102
RTVSPost2010Prop55
280
     0
102
RTVSPost2010PropOp55
 70
     1
102
RTVSPost2010Prop56
140
1.0
102
RTVSPost2010PropOp56
 70
     1
102
RTVSPost2010Prop57
140
1.0
102
RTVSPost2010PropOp57
 70
     1
  0
XRECORD
  5
485
102
{ACAD_REACTORS
330
484
102
}
330
484
100
AcDbXrecord
280
     1
102
RTVSPropertyOp0
 70
     1
102
RTVSPropertyOp1
 70
     1
102
RTVSPropertyOp2
 70
     1
102
RTVSPropertyOp3
 70
     1
102
RTVSPropertyOp4
 70
     1
102
RTVSPropertyOp5
 70
     1
102
RTVSPropertyOp6
 70
     1
102
RTVSPropertyOp7
 70
     1
102
RTVSPropertyOp8
 70
     1
102
RTVSPropertyOp9
 70
     1
102
RTVSPropertyOp10
 70
     1
102
RTVSPropertyOp11
 70
     1
102
RTVSPropertyOp12
 70
     1
102
RTVSPropertyOp13
 70
     1
102
RTVSPropertyOp14
 70
     1
102
RTVSPropertyOp15
 70
     1
102
RTVSPropertyOp16
 70
     1
102
RTVSPropertyOp17
 70
     1
102
RTVSPropertyOp18
 70
     1
102
RTVSPropertyOp19
 70
     1
102
RTVSPropertyOp20
 70
     1
102
RTVSPropertyOp21
 70
     1
102
RTVSPropertyOp22
 70
     1
102
RTVSPropertyOp23
 70
     1
102
RTVSPropertyOp24
 70
     1
102
RTVSPropertyOp25
 70
     1
102
RTVSPropertyOp26
 70
     1
102
RTVSPropertyOp27
 70
     1
102
RTVSPropertyOp28
 70
     1
102
RTVSPropertyOp29
 70
     1
102
RTVSPropertyOp30
 70
     1
102
RTVSPropertyOp31
 70
     1
102
RTVSPropertyOp32
 70
     1
102
RTVSPropertyOp33
 70
     1
102
RTVSPropertyOp34
 70
     1
102
RTVSPropertyOp35
 70
     1
102
RTVSPropertyOp36
 70
     1
102
RTVSPropertyOp37
 70
     1
102
RTVSPropertyOp38
 70
     1
102
RTVSPropertyOp39
 70
     1
102
RTVSPropertyOp40
 70
     1
102
RTVSPropertyOp41
 70
     1
102
RTVSPropertyOp42
 70
     1
102
RTVSPropertyOp43
 70
     1
102
RTVSPropertyOp44
 70
     1
102
RTVSPropertyOp45
 70
     1
102
RTVSPropertyOp46
 70
     1
102
RTVSPropertyOp47
 70
     1
102
RTVSPropertyOp48
 70
     1
102
RTVSPropertyOp49
 70
     1
102
RTVSPropertyOp50
 70
     1
102
RTVSPropertyOp51
 70
     0
102
RTVSPropertyOp52
 70
     0
102
RTVSPropertyOp53
 70
     1
102
RTVSPropertyOp54
 70
     1
102
RTVSPropertyOp55
 70
     1
102
RTVSPropertyOp56
 70
     1
102
RTVSPropertyOp57
 70
     1
102
RTVSPost2010Prop28
280
     0
102
RTVSPost2010PropOp28
 70
     1
102
RTVSPost2010Prop29
280
     1
102
RTVSPost2010PropOp29
 70
     1
102
RTVSPost2010Prop30
280
     1
102
RTVSPost2010PropOp30
 70
     1
102
RTVSPost2010Prop31
280
     0
102
RTVSPost2010PropOp31
 70
     1
102
RTVSPost2010Prop32
280
     0
102
RTVSPost2010PropOp32
 70
     1
102
RTVSPost2010Prop33
280
     0
102
RTVSPost2010PropOp33
 70
     1
102
RTVSPost2010Prop34
280
     0
102
RTVSPost2010PropOp34
 70
     1
102
RTVSPost2010Prop35
280
     0
102
RTVSPost2010PropOp35
 70
     1
102
RTVSPost2010Prop36
280
     0
102
RTVSPost2010PropOp36
 70
     1
102
RTVSPost2010Prop37
 90
       50
102
RTVSPost2010PropOp37
 70
     1
102
RTVSPost2010Prop38
140
0.0
102
RTVSPost2010PropOp38
 70
     1
102
RTVSPost2010Prop39
140
1.0
102
RTVSPost2010PropOp39
 70
     1
102
RTVSPost2010Prop40
 90
        0
102
RTVSPost2010PropOp40
 70
     1
102
RTVSPost2010Prop41ColorIndex
 90
       18
102
RTVSPost2010Prop41ColorRGB
 90
        0
102
RTVSPost2010PropOp41
 70
     1
102
RTVSPost2010Prop42
 90
       50
102
RTVSPost2010PropOp42
 70
     1
102
RTVSPost2010Prop43
 90
        3
102
RTVSPost2010PropOp43
 70
     1
102
RTVSPost2010Prop44ColorIndex
 90
        5
102
RTVSPost2010Prop44ColorRGB
 90
      255
102
RTVSPost2010PropOp44
 70
     1
102
RTVSPost2010Prop45
280
     0
102
RTVSPost2010PropOp45
 70
     1
102
RTVSPost2010Prop46
 90
       50
102
RTVSPost2010PropOp46
 70
     1
102
RTVSPost2010Prop47
 90
       50
102
RTVSPost2010PropOp47
 70
     1
102
RTVSPost2010Prop48
 90
       50
102
RTVSPost2010PropOp48
 70
     1
102
RTVSPost2010Prop49
280
     0
102
RTVSPost2010PropOp49
 70
     1
102
RTVSPost2010Prop50
 90
       50
102
RTVSPost2010PropOp50
 70
     1
102
RTVSPost2010Prop51ColorIndex
 90
      256
102
RTVSPost2010Prop51ColorRGB
 90
-16777216
102
RTVSPost2010PropOp51
 70
     0
102
RTVSPost2010Prop52
140
1.0
102
RTVSPost2010PropOp52
 70
     0
102
RTVSPost2010Prop53
 90
        2
102
RTVSPost2010PropOp53
 70
     1
102
RTVSPost2010Prop54
  1
strokes_ogs.tif
102
RTVSPost2010PropOp54
 70
     1
102
RTVSPost2010Prop55
280
     0
102
RTVSPost2010PropOp55
 70
     1
102
RTVSPost2010Prop56
140
1.0
102
RTVSPost2010PropOp56
 70
     1
102
RTVSPost2010Prop57
140
1.0
102
RTVSPost2010PropOp57
 70
     1
  0
XRECORD
  5
47F
102
{ACAD_REACTORS
330
47E
102
}
330
47E
100
AcDbXrecord
280
     1
102
RTVSPropertyOp0
 70
     1
102
RTVSPropertyOp1
 70
     1
102
RTVSPropertyOp2
 70
     1
102
RTVSPropertyOp3
 70
     1
102
RTVSPropertyOp4
 70
     1
102
RTVSPropertyOp5
 70
     1
102
RTVSPropertyOp6
 70
     1
102
RTVSPropertyOp7
 70
     1
102
RTVSPropertyOp8
 70
     1
102
RTVSPropertyOp9
 70
     1
102
RTVSPropertyOp10
 70
     1
102
RTVSPropertyOp11
 70
     1
102
RTVSPropertyOp12
 70
     1
102
RTVSPropertyOp13
 70
     1
102
RTVSPropertyOp14
 70
     1
102
RTVSPropertyOp15
 70
     1
102
RTVSPropertyOp16
 70
     1
102
RTVSPropertyOp17
 70
     1
102
RTVSPropertyOp18
 70
     1
102
RTVSPropertyOp19
 70
     1
102
RTVSPropertyOp20
 70
     1
102
RTVSPropertyOp21
 70
     1
102
RTVSPropertyOp22
 70
     1
102
RTVSPropertyOp23
 70
     1
102
RTVSPropertyOp24
 70
     1
102
RTVSPropertyOp25
 70
     1
102
RTVSPropertyOp26
 70
     1
102
RTVSPropertyOp27
 70
     1
102
RTVSPropertyOp28
 70
     1
102
RTVSPropertyOp29
 70
     1
102
RTVSPropertyOp30
 70
     1
102
RTVSPropertyOp31
 70
     1
102
RTVSPropertyOp32
 70
     1
102
RTVSPropertyOp33
 70
     1
102
RTVSPropertyOp34
 70
     1
102
RTVSPropertyOp35
 70
     1
102
RTVSPropertyOp36
 70
     1
102
RTVSPropertyOp37
 70
     1
102
RTVSPropertyOp38
 70
     1
102
RTVSPropertyOp39
 70
     1
102
RTVSPropertyOp40
 70
     1
102
RTVSPropertyOp41
 70
     1
102
RTVSPropertyOp42
 70
     1
102
RTVSPropertyOp43
 70
     1
102
RTVSPropertyOp44
 70
     1
102
RTVSPropertyOp45
 70
     1
102
RTVSPropertyOp46
 70
     1
102
RTVSPropertyOp47
 70
     1
102
RTVSPropertyOp48
 70
     1
102
RTVSPropertyOp49
 70
     1
102
RTVSPropertyOp50
 70
     1
102
RTVSPropertyOp51
 70
     0
102
RTVSPropertyOp52
 70
     0
102
RTVSPropertyOp53
 70
     1
102
RTVSPropertyOp54
 70
     1
102
RTVSPropertyOp55
 70
     1
102
RTVSPropertyOp56
 70
     1
102
RTVSPropertyOp57
 70
     1
102
RTVSPost2010Prop28
280
     0
102
RTVSPost2010PropOp28
 70
     1
102
RTVSPost2010Prop29
280
     1
102
RTVSPost2010PropOp29
 70
     1
102
RTVSPost2010Prop30
280
     1
102
RTVSPost2010PropOp30
 70
     1
102
RTVSPost2010Prop31
280
     0
102
RTVSPost2010PropOp31
 70
     1
102
RTVSPost2010Prop32
280
     0
102
RTVSPost2010PropOp32
 70
     1
102
RTVSPost2010Prop33
280
     0
102
RTVSPost2010PropOp33
 70
     1
102
RTVSPost2010Prop34
280
     0
102
RTVSPost2010PropOp34
 70
     1
102
RTVSPost2010Prop35
280
     0
102
RTVSPost2010PropOp35
 70
     1
102
RTVSPost2010Prop36
280
     0
102
RTVSPost2010PropOp36
 70
     1
102
RTVSPost2010Prop37
 90
       50
102
RTVSPost2010PropOp37
 70
     1
102
RTVSPost2010Prop38
140
0.0
102
RTVSPost2010PropOp38
 70
     1
102
RTVSPost2010Prop39
140
1.0
102
RTVSPost2010PropOp39
 70
     1
102
RTVSPost2010Prop40
 90
        0
102
RTVSPost2010PropOp40
 70
     1
102
RTVSPost2010Prop41ColorIndex
 90
       18
102
RTVSPost2010Prop41ColorRGB
 90
        0
102
RTVSPost2010PropOp41
 70
     1
102
RTVSPost2010Prop42
 90
       50
102
RTVSPost2010PropOp42
 70
     1
102
RTVSPost2010Prop43
 90
        3
102
RTVSPost2010PropOp43
 70
     1
102
RTVSPost2010Prop44ColorIndex
 90
        5
102
RTVSPost2010Prop44ColorRGB
 90
      255
102
RTVSPost2010PropOp44
 70
     1
102
RTVSPost2010Prop45
280
     0
102
RTVSPost2010PropOp45
 70
     1
102
RTVSPost2010Prop46
 90
       50
102
RTVSPost2010PropOp46
 70
     1
102
RTVSPost2010Prop47
 90
       50
102
RTVSPost2010PropOp47
 70
     1
102
RTVSPost2010Prop48
 90
       50
102
RTVSPost2010PropOp48
 70
     1
102
RTVSPost2010Prop49
280
     0
102
RTVSPost2010PropOp49
 70
     1
102
RTVSPost2010Prop50
 90
       50
102
RTVSPost2010PropOp50
 70
     1
102
RTVSPost2010Prop51ColorIndex
 90
      256
102
RTVSPost2010Prop51ColorRGB
 90
-16777216
102
RTVSPost2010PropOp51
 70
     0
102
RTVSPost2010Prop52
140
1.0
102
RTVSPost2010PropOp52
 70
     0
102
RTVSPost2010Prop53
 90
        2
102
RTVSPost2010PropOp53
 70
     1
102
RTVSPost2010Prop54
  1
strokes_ogs.tif
102
RTVSPost2010PropOp54
 70
     1
102
RTVSPost2010Prop55
280
     0
102
RTVSPost2010PropOp55
 70
     1
102
RTVSPost2010Prop56
140
1.0
102
RTVSPost2010PropOp56
 70
     1
102
RTVSPost2010Prop57
140
1.0
102
RTVSPost2010PropOp57
 70
     1
  0
XRECORD
  5
481
102
{ACAD_REACTORS
330
480
102
}
330
480
100
AcDbXrecord
280
     1
102
RTVSPropertyOp0
 70
     1
102
RTVSPropertyOp1
 70
     1
102
RTVSPropertyOp2
 70
     1
102
RTVSPropertyOp3
 70
     1
102
RTVSPropertyOp4
 70
     1
102
RTVSPropertyOp5
 70
     1
102
RTVSPropertyOp6
 70
     1
102
RTVSPropertyOp7
 70
     1
102
RTVSPropertyOp8
 70
     1
102
RTVSPropertyOp9
 70
     1
102
RTVSPropertyOp10
 70
     1
102
RTVSPropertyOp11
 70
     1
102
RTVSPropertyOp12
 70
     1
102
RTVSPropertyOp13
 70
     1
102
RTVSPropertyOp14
 70
     1
102
RTVSPropertyOp15
 70
     1
102
RTVSPropertyOp16
 70
     1
102
RTVSPropertyOp17
 70
     1
102
RTVSPropertyOp18
 70
     1
102
RTVSPropertyOp19
 70
     1
102
RTVSPropertyOp20
 70
     1
102
RTVSPropertyOp21
 70
     1
102
RTVSPropertyOp22
 70
     1
102
RTVSPropertyOp23
 70
     1
102
RTVSPropertyOp24
 70
     1
102
RTVSPropertyOp25
 70
     1
102
RTVSPropertyOp26
 70
     1
102
RTVSPropertyOp27
 70
     1
102
RTVSPropertyOp28
 70
     1
102
RTVSPropertyOp29
 70
     1
102
RTVSPropertyOp30
 70
     1
102
RTVSPropertyOp31
 70
     1
102
RTVSPropertyOp32
 70
     1
102
RTVSPropertyOp33
 70
     1
102
RTVSPropertyOp34
 70
     1
102
RTVSPropertyOp35
 70
     1
102
RTVSPropertyOp36
 70
     1
102
RTVSPropertyOp37
 70
     1
102
RTVSPropertyOp38
 70
     1
102
RTVSPropertyOp39
 70
     1
102
RTVSPropertyOp40
 70
     1
102
RTVSPropertyOp41
 70
     1
102
RTVSPropertyOp42
 70
     1
102
RTVSPropertyOp43
 70
     1
102
RTVSPropertyOp44
 70
     1
102
RTVSPropertyOp45
 70
     1
102
RTVSPropertyOp46
 70
     1
102
RTVSPropertyOp47
 70
     1
102
RTVSPropertyOp48
 70
     1
102
RTVSPropertyOp49
 70
     1
102
RTVSPropertyOp50
 70
     1
102
RTVSPropertyOp51
 70
     0
102
RTVSPropertyOp52
 70
     0
102
RTVSPropertyOp53
 70
     1
102
RTVSPropertyOp54
 70
     1
102
RTVSPropertyOp55
 70
     1
102
RTVSPropertyOp56
 70
     1
102
RTVSPropertyOp57
 70
     1
102
RTVSPost2010Prop28
280
     0
102
RTVSPost2010PropOp28
 70
     1
102
RTVSPost2010Prop29
280
     1
102
RTVSPost2010PropOp29
 70
     1
102
RTVSPost2010Prop30
280
     1
102
RTVSPost2010PropOp30
 70
     1
102
RTVSPost2010Prop31
280
     0
102
RTVSPost2010PropOp31
 70
     1
102
RTVSPost2010Prop32
280
     0
102
RTVSPost2010PropOp32
 70
     1
102
RTVSPost2010Prop33
280
     0
102
RTVSPost2010PropOp33
 70
     1
102
RTVSPost2010Prop34
280
     0
102
RTVSPost2010PropOp34
 70
     1
102
RTVSPost2010Prop35
280
     0
102
RTVSPost2010PropOp35
 70
     1
102
RTVSPost2010Prop36
280
     0
102
RTVSPost2010PropOp36
 70
     1
102
RTVSPost2010Prop37
 90
       50
102
RTVSPost2010PropOp37
 70
     1
102
RTVSPost2010Prop38
140
0.0
102
RTVSPost2010PropOp38
 70
     1
102
RTVSPost2010Prop39
140
1.0
102
RTVSPost2010PropOp39
 70
     1
102
RTVSPost2010Prop40
 90
        0
102
RTVSPost2010PropOp40
 70
     1
102
RTVSPost2010Prop41ColorIndex
 90
       18
102
RTVSPost2010Prop41ColorRGB
 90
        0
102
RTVSPost2010PropOp41
 70
     1
102
RTVSPost2010Prop42
 90
       50
102
RTVSPost2010PropOp42
 70
     1
102
RTVSPost2010Prop43
 90
        3
102
RTVSPost2010PropOp43
 70
     1
102
RTVSPost2010Prop44ColorIndex
 90
        5
102
RTVSPost2010Prop44ColorRGB
 90
      255
102
RTVSPost2010PropOp44
 70
     1
102
RTVSPost2010Prop45
280
     0
102
RTVSPost2010PropOp45
 70
     1
102
RTVSPost2010Prop46
 90
       50
102
RTVSPost2010PropOp46
 70
     1
102
RTVSPost2010Prop47
 90
       50
102
RTVSPost2010PropOp47
 70
     1
102
RTVSPost2010Prop48
 90
       50
102
RTVSPost2010PropOp48
 70
     1
102
RTVSPost2010Prop49
280
     0
102
RTVSPost2010PropOp49
 70
     1
102
RTVSPost2010Prop50
 90
       50
102
RTVSPost2010PropOp50
 70
     1
102
RTVSPost2010Prop51ColorIndex
 90
      256
102
RTVSPost2010Prop51ColorRGB
 90
-16777216
102
RTVSPost2010PropOp51
 70
     0
102
RTVSPost2010Prop52
140
1.0
102
RTVSPost2010PropOp52
 70
     0
102
RTVSPost2010Prop53
 90
        2
102
RTVSPost2010PropOp53
 70
     1
102
RTVSPost2010Prop54
  1
strokes_ogs.tif
102
RTVSPost2010PropOp54
 70
     1
102
RTVSPost2010Prop55
280
     0
102
RTVSPost2010PropOp55
 70
     1
102
RTVSPost2010Prop56
140
1.0
102
RTVSPost2010PropOp56
 70
     1
102
RTVSPost2010Prop57
140
1.0
102
RTVSPost2010PropOp57
 70
     1
  0
XRECORD
  5
471
102
{ACAD_REACTORS
330
470
102
}
330
470
100
AcDbXrecord
280
     1
102
RTVSPropertyOp0
 70
     1
102
RTVSPropertyOp1
 70
     1
102
RTVSPropertyOp2
 70
     1
102
RTVSPropertyOp3
 70
     1
102
RTVSPropertyOp4
 70
     1
102
RTVSPropertyOp5
 70
     1
102
RTVSPropertyOp6
 70
     1
102
RTVSPropertyOp7
 70
     1
102
RTVSPropertyOp8
 70
     1
102
RTVSPropertyOp9
 70
     1
102
RTVSPropertyOp10
 70
     1
102
RTVSPropertyOp11
 70
     1
102
RTVSPropertyOp12
 70
     1
102
RTVSPropertyOp13
 70
     1
102
RTVSPropertyOp14
 70
     1
102
RTVSPropertyOp15
 70
     1
102
RTVSPropertyOp16
 70
     1
102
RTVSPropertyOp17
 70
     1
102
RTVSPropertyOp18
 70
     1
102
RTVSPropertyOp19
 70
     1
102
RTVSPropertyOp20
 70
     1
102
RTVSPropertyOp21
 70
     1
102
RTVSPropertyOp22
 70
     1
102
RTVSPropertyOp23
 70
     1
102
RTVSPropertyOp24
 70
     1
102
RTVSPropertyOp25
 70
     1
102
RTVSPropertyOp26
 70
     1
102
RTVSPropertyOp27
 70
     1
102
RTVSPropertyOp28
 70
     1
102
RTVSPropertyOp29
 70
     1
102
RTVSPropertyOp30
 70
     1
102
RTVSPropertyOp31
 70
     1
102
RTVSPropertyOp32
 70
     1
102
RTVSPropertyOp33
 70
     1
102
RTVSPropertyOp34
 70
     1
102
RTVSPropertyOp35
 70
     1
102
RTVSPropertyOp36
 70
     1
102
RTVSPropertyOp37
 70
     1
102
RTVSPropertyOp38
 70
     1
102
RTVSPropertyOp39
 70
     1
102
RTVSPropertyOp40
 70
     1
102
RTVSPropertyOp41
 70
     1
102
RTVSPropertyOp42
 70
     1
102
RTVSPropertyOp43
 70
     1
102
RTVSPropertyOp44
 70
     1
102
RTVSPropertyOp45
 70
     1
102
RTVSPropertyOp46
 70
     1
102
RTVSPropertyOp47
 70
     1
102
RTVSPropertyOp48
 70
     1
102
RTVSPropertyOp49
 70
     1
102
RTVSPropertyOp50
 70
     1
102
RTVSPropertyOp51
 70
     0
102
RTVSPropertyOp52
 70
     0
102
RTVSPropertyOp53
 70
     1
102
RTVSPropertyOp54
 70
     1
102
RTVSPropertyOp55
 70
     1
102
RTVSPropertyOp56
 70
     1
102
RTVSPropertyOp57
 70
     1
102
RTVSPost2010Prop28
280
     0
102
RTVSPost2010PropOp28
 70
     1
102
RTVSPost2010Prop29
280
     1
102
RTVSPost2010PropOp29
 70
     1
102
RTVSPost2010Prop30
280
     1
102
RTVSPost2010PropOp30
 70
     1
102
RTVSPost2010Prop31
280
     0
102
RTVSPost2010PropOp31
 70
     1
102
RTVSPost2010Prop32
280
     0
102
RTVSPost2010PropOp32
 70
     1
102
RTVSPost2010Prop33
280
     0
102
RTVSPost2010PropOp33
 70
     1
102
RTVSPost2010Prop34
280
     0
102
RTVSPost2010PropOp34
 70
     1
102
RTVSPost2010Prop35
280
     0
102
RTVSPost2010PropOp35
 70
     1
102
RTVSPost2010Prop36
280
     0
102
RTVSPost2010PropOp36
 70
     1
102
RTVSPost2010Prop37
 90
       50
102
RTVSPost2010PropOp37
 70
     1
102
RTVSPost2010Prop38
140
0.0
102
RTVSPost2010PropOp38
 70
     1
102
RTVSPost2010Prop39
140
1.0
102
RTVSPost2010PropOp39
 70
     1
102
RTVSPost2010Prop40
 90
        0
102
RTVSPost2010PropOp40
 70
     1
102
RTVSPost2010Prop41ColorIndex
 90
       18
102
RTVSPost2010Prop41ColorRGB
 90
        0
102
RTVSPost2010PropOp41
 70
     1
102
RTVSPost2010Prop42
 90
       50
102
RTVSPost2010PropOp42
 70
     1
102
RTVSPost2010Prop43
 90
        3
102
RTVSPost2010PropOp43
 70
     1
102
RTVSPost2010Prop44ColorIndex
 90
        5
102
RTVSPost2010Prop44ColorRGB
 90
      255
102
RTVSPost2010PropOp44
 70
     1
102
RTVSPost2010Prop45
280
     0
102
RTVSPost2010PropOp45
 70
     1
102
RTVSPost2010Prop46
 90
       50
102
RTVSPost2010PropOp46
 70
     1
102
RTVSPost2010Prop47
 90
       50
102
RTVSPost2010PropOp47
 70
     1
102
RTVSPost2010Prop48
 90
       50
102
RTVSPost2010PropOp48
 70
     1
102
RTVSPost2010Prop49
280
     0
102
RTVSPost2010PropOp49
 70
     1
102
RTVSPost2010Prop50
 90
       50
102
RTVSPost2010PropOp50
 70
     1
102
RTVSPost2010Prop51ColorIndex
 90
      256
102
RTVSPost2010Prop51ColorRGB
 90
-16777216
102
RTVSPost2010PropOp51
 70
     0
102
RTVSPost2010Prop52
140
1.0
102
RTVSPost2010PropOp52
 70
     0
102
RTVSPost2010Prop53
 90
        2
102
RTVSPost2010PropOp53
 70
     1
102
RTVSPost2010Prop54
  1
strokes_ogs.tif
102
RTVSPost2010PropOp54
 70
     1
102
RTVSPost2010Prop55
280
     0
102
RTVSPost2010PropOp55
 70
     1
102
RTVSPost2010Prop56
140
1.0
102
RTVSPost2010PropOp56
 70
     1
102
RTVSPost2010Prop57
140
1.0
102
RTVSPost2010PropOp57
 70
     1
  0
XRECORD
  5
463
102
{ACAD_REACTORS
330
462
102
}
330
462
100
AcDbXrecord
280
     1
102
RTVSPropertyOp0
 70
     1
102
RTVSPropertyOp1
 70
     1
102
RTVSPropertyOp2
 70
     1
102
RTVSPropertyOp3
 70
     1
102
RTVSPropertyOp4
 70
     1
102
RTVSPropertyOp5
 70
     1
102
RTVSPropertyOp6
 70
     1
102
RTVSPropertyOp7
 70
     1
102
RTVSPropertyOp8
 70
     1
102
RTVSPropertyOp9
 70
     1
102
RTVSPropertyOp10
 70
     1
102
RTVSPropertyOp11
 70
     1
102
RTVSPropertyOp12
 70
     1
102
RTVSPropertyOp13
 70
     1
102
RTVSPropertyOp14
 70
     1
102
RTVSPropertyOp15
 70
     1
102
RTVSPropertyOp16
 70
     1
102
RTVSPropertyOp17
 70
     1
102
RTVSPropertyOp18
 70
     1
102
RTVSPropertyOp19
 70
     1
102
RTVSPropertyOp20
 70
     1
102
RTVSPropertyOp21
 70
     1
102
RTVSPropertyOp22
 70
     1
102
RTVSPropertyOp23
 70
     1
102
RTVSPropertyOp24
 70
     1
102
RTVSPropertyOp25
 70
     1
102
RTVSPropertyOp26
 70
     1
102
RTVSPropertyOp27
 70
     1
102
RTVSPropertyOp28
 70
     1
102
RTVSPropertyOp29
 70
     1
102
RTVSPropertyOp30
 70
     1
102
RTVSPropertyOp31
 70
     1
102
RTVSPropertyOp32
 70
     1
102
RTVSPropertyOp33
 70
     1
102
RTVSPropertyOp34
 70
     1
102
RTVSPropertyOp35
 70
     1
102
RTVSPropertyOp36
 70
     1
102
RTVSPropertyOp37
 70
     1
102
RTVSPropertyOp38
 70
     1
102
RTVSPropertyOp39
 70
     1
102
RTVSPropertyOp40
 70
     1
102
RTVSPropertyOp41
 70
     1
102
RTVSPropertyOp42
 70
     1
102
RTVSPropertyOp43
 70
     1
102
RTVSPropertyOp44
 70
     1
102
RTVSPropertyOp45
 70
     1
102
RTVSPropertyOp46
 70
     1
102
RTVSPropertyOp47
 70
     1
102
RTVSPropertyOp48
 70
     1
102
RTVSPropertyOp49
 70
     1
102
RTVSPropertyOp50
 70
     1
102
RTVSPropertyOp51
 70
     0
102
RTVSPropertyOp52
 70
     0
102
RTVSPropertyOp53
 70
     1
102
RTVSPropertyOp54
 70
     1
102
RTVSPropertyOp55
 70
     1
102
RTVSPropertyOp56
 70
     1
102
RTVSPropertyOp57
 70
     1
102
RTVSPost2010Prop28
280
     0
102
RTVSPost2010PropOp28
 70
     1
102
RTVSPost2010Prop29
280
     1
102
RTVSPost2010PropOp29
 70
     1
102
RTVSPost2010Prop30
280
     1
102
RTVSPost2010PropOp30
 70
     1
102
RTVSPost2010Prop31
280
     0
102
RTVSPost2010PropOp31
 70
     1
102
RTVSPost2010Prop32
280
     0
102
RTVSPost2010PropOp32
 70
     1
102
RTVSPost2010Prop33
280
     0
102
RTVSPost2010PropOp33
 70
     1
102
RTVSPost2010Prop34
280
     0
102
RTVSPost2010PropOp34
 70
     1
102
RTVSPost2010Prop35
280
     0
102
RTVSPost2010PropOp35
 70
     1
102
RTVSPost2010Prop36
280
     0
102
RTVSPost2010PropOp36
 70
     1
102
RTVSPost2010Prop37
 90
       50
102
RTVSPost2010PropOp37
 70
     1
102
RTVSPost2010Prop38
140
0.0
102
RTVSPost2010PropOp38
 70
     1
102
RTVSPost2010Prop39
140
1.0
102
RTVSPost2010PropOp39
 70
     1
102
RTVSPost2010Prop40
 90
        0
102
RTVSPost2010PropOp40
 70
     1
102
RTVSPost2010Prop41ColorIndex
 90
       18
102
RTVSPost2010Prop41ColorRGB
 90
        0
102
RTVSPost2010PropOp41
 70
     1
102
RTVSPost2010Prop42
 90
       50
102
RTVSPost2010PropOp42
 70
     1
102
RTVSPost2010Prop43
 90
        3
102
RTVSPost2010PropOp43
 70
     1
102
RTVSPost2010Prop44ColorIndex
 90
        5
102
RTVSPost2010Prop44ColorRGB
 90
      255
102
RTVSPost2010PropOp44
 70
     1
102
RTVSPost2010Prop45
280
     0
102
RTVSPost2010PropOp45
 70
     1
102
RTVSPost2010Prop46
 90
       50
102
RTVSPost2010PropOp46
 70
     1
102
RTVSPost2010Prop47
 90
       50
102
RTVSPost2010PropOp47
 70
     1
102
RTVSPost2010Prop48
 90
       50
102
RTVSPost2010PropOp48
 70
     1
102
RTVSPost2010Prop49
280
     0
102
RTVSPost2010PropOp49
 70
     1
102
RTVSPost2010Prop50
 90
       50
102
RTVSPost2010PropOp50
 70
     1
102
RTVSPost2010Prop51ColorIndex
 90
      256
102
RTVSPost2010Prop51ColorRGB
 90
-16777216
102
RTVSPost2010PropOp51
 70
     0
102
RTVSPost2010Prop52
140
1.0
102
RTVSPost2010PropOp52
 70
     0
102
RTVSPost2010Prop53
 90
        2
102
RTVSPost2010PropOp53
 70
     1
102
RTVSPost2010Prop54
  1
strokes_ogs.tif
102
RTVSPost2010PropOp54
 70
     1
102
RTVSPost2010Prop55
280
     0
102
RTVSPost2010PropOp55
 70
     1
102
RTVSPost2010Prop56
140
1.0
102
RTVSPost2010PropOp56
 70
     1
102
RTVSPost2010Prop57
140
1.0
102
RTVSPost2010PropOp57
 70
     1
  0
XRECORD
  5
483
102
{ACAD_REACTORS
330
482
102
}
330
482
100
AcDbXrecord
280
     1
102
RTVSPropertyOp0
 70
     1
102
RTVSPropertyOp1
 70
     1
102
RTVSPropertyOp2
 70
     1
102
RTVSPropertyOp3
 70
     1
102
RTVSPropertyOp4
 70
     1
102
RTVSPropertyOp5
 70
     1
102
RTVSPropertyOp6
 70
     1
102
RTVSPropertyOp7
 70
     1
102
RTVSPropertyOp8
 70
     1
102
RTVSPropertyOp9
 70
     1
102
RTVSPropertyOp10
 70
     1
102
RTVSPropertyOp11
 70
     1
102
RTVSPropertyOp12
 70
     1
102
RTVSPropertyOp13
 70
     1
102
RTVSPropertyOp14
 70
     1
102
RTVSPropertyOp15
 70
     1
102
RTVSPropertyOp16
 70
     1
102
RTVSPropertyOp17
 70
     1
102
RTVSPropertyOp18
 70
     1
102
RTVSPropertyOp19
 70
     1
102
RTVSPropertyOp20
 70
     1
102
RTVSPropertyOp21
 70
     1
102
RTVSPropertyOp22
 70
     1
102
RTVSPropertyOp23
 70
     1
102
RTVSPropertyOp24
 70
     1
102
RTVSPropertyOp25
 70
     1
102
RTVSPropertyOp26
 70
     1
102
RTVSPropertyOp27
 70
     1
102
RTVSPropertyOp28
 70
     1
102
RTVSPropertyOp29
 70
     1
102
RTVSPropertyOp30
 70
     1
102
RTVSPropertyOp31
 70
     1
102
RTVSPropertyOp32
 70
     1
102
RTVSPropertyOp33
 70
     1
102
RTVSPropertyOp34
 70
     1
102
RTVSPropertyOp35
 70
     1
102
RTVSPropertyOp36
 70
     1
102
RTVSPropertyOp37
 70
     1
102
RTVSPropertyOp38
 70
     1
102
RTVSPropertyOp39
 70
     1
102
RTVSPropertyOp40
 70
     1
102
RTVSPropertyOp41
 70
     1
102
RTVSPropertyOp42
 70
     1
102
RTVSPropertyOp43
 70
     1
102
RTVSPropertyOp44
 70
     1
102
RTVSPropertyOp45
 70
     1
102
RTVSPropertyOp46
 70
     1
102
RTVSPropertyOp47
 70
     1
102
RTVSPropertyOp48
 70
     1
102
RTVSPropertyOp49
 70
     1
102
RTVSPropertyOp50
 70
     1
102
RTVSPropertyOp51
 70
     0
102
RTVSPropertyOp52
 70
     0
102
RTVSPropertyOp53
 70
     1
102
RTVSPropertyOp54
 70
     1
102
RTVSPropertyOp55
 70
     1
102
RTVSPropertyOp56
 70
     1
102
RTVSPropertyOp57
 70
     1
102
RTVSPost2010Prop28
280
     0
102
RTVSPost2010PropOp28
 70
     1
102
RTVSPost2010Prop29
280
     1
102
RTVSPost2010PropOp29
 70
     1
102
RTVSPost2010Prop30
280
     1
102
RTVSPost2010PropOp30
 70
     1
102
RTVSPost2010Prop31
280
     0
102
RTVSPost2010PropOp31
 70
     1
102
RTVSPost2010Prop32
280
     0
102
RTVSPost2010PropOp32
 70
     1
102
RTVSPost2010Prop33
280
     0
102
RTVSPost2010PropOp33
 70
     1
102
RTVSPost2010Prop34
280
     0
102
RTVSPost2010PropOp34
 70
     1
102
RTVSPost2010Prop35
280
     0
102
RTVSPost2010PropOp35
 70
     1
102
RTVSPost2010Prop36
280
     0
102
RTVSPost2010PropOp36
 70
     1
102
RTVSPost2010Prop37
 90
       50
102
RTVSPost2010PropOp37
 70
     1
102
RTVSPost2010Prop38
140
0.0
102
RTVSPost2010PropOp38
 70
     1
102
RTVSPost2010Prop39
140
1.0
102
RTVSPost2010PropOp39
 70
     1
102
RTVSPost2010Prop40
 90
        0
102
RTVSPost2010PropOp40
 70
     1
102
RTVSPost2010Prop41ColorIndex
 90
       18
102
RTVSPost2010Prop41ColorRGB
 90
        0
102
RTVSPost2010PropOp41
 70
     1
102
RTVSPost2010Prop42
 90
       50
102
RTVSPost2010PropOp42
 70
     1
102
RTVSPost2010Prop43
 90
        3
102
RTVSPost2010PropOp43
 70
     1
102
RTVSPost2010Prop44ColorIndex
 90
        5
102
RTVSPost2010Prop44ColorRGB
 90
      255
102
RTVSPost2010PropOp44
 70
     1
102
RTVSPost2010Prop45
280
     0
102
RTVSPost2010PropOp45
 70
     1
102
RTVSPost2010Prop46
 90
       50
102
RTVSPost2010PropOp46
 70
     1
102
RTVSPost2010Prop47
 90
       50
102
RTVSPost2010PropOp47
 70
     1
102
RTVSPost2010Prop48
 90
       50
102
RTVSPost2010PropOp48
 70
     1
102
RTVSPost2010Prop49
280
     0
102
RTVSPost2010PropOp49
 70
     1
102
RTVSPost2010Prop50
 90
       50
102
RTVSPost2010PropOp50
 70
     1
102
RTVSPost2010Prop51ColorIndex
 90
      256
102
RTVSPost2010Prop51ColorRGB
 90
-16777216
102
RTVSPost2010PropOp51
 70
     0
102
RTVSPost2010Prop52
140
1.0
102
RTVSPost2010PropOp52
 70
     0
102
RTVSPost2010Prop53
 90
        2
102
RTVSPost2010PropOp53
 70
     1
102
RTVSPost2010Prop54
  1
strokes_ogs.tif
102
RTVSPost2010PropOp54
 70
     1
102
RTVSPost2010Prop55
280
     0
102
RTVSPost2010PropOp55
 70
     1
102
RTVSPost2010Prop56
140
1.0
102
RTVSPost2010PropOp56
 70
     1
102
RTVSPost2010Prop57
140
1.0
102
RTVSPost2010PropOp57
 70
     1
  0
ENDSEC
  0
EOF
