  0
SECTION
  2
HEADER
  9
$ACADVER
  1
AC1015
  9
$ACADMAINTVER
 70
     6
  9
$DWGCODEPAGE
  3
ANSI_1252
  9
$INSBASE
 10
0.0
 20
0.0
 30
0.0
  9
$EXTMIN
 10
-249.9999850166797
 20
-998.9491116087956
 30
0.0
  9
$EXTMAX
 10
250.0000149833203
 20
152.48972161057
 30
0.0
  9
$LIMMIN
 10
0.0
 20
0.0
  9
$LIMMAX
 10
12.0
 20
9.0
  9
$ORTHOMODE
 70
     0
  9
$REGENMODE
 70
     1
  9
$FILLMODE
 70
     1
  9
$QTEXTMODE
 70
     0
  9
$MIRRTEXT
 70
     1
  9
$LTSCALE
 40
1.0
  9
$ATTMODE
 70
     1
  9
$TEXTSIZE
 40
0.2
  9
$TRACEWID
 40
0.05
  9
$TEXTSTYLE
  7
Standard
  9
$CLAYER
  8
0
  9
$CELTYPE
  6
ByLayer
  9
$CECOLOR
 62
   256
  9
$CELTSCALE
 40
1.0
  9
$DISPSILH
 70
     0
  9
$DIMSCALE
 40
1.0
  9
$DIMASZ
 40
0.18
  9
$DIMEXO
 40
0.0625
  9
$DIMDLI
 40
0.38
  9
$DIMRND
 40
0.0
  9
$DIMDLE
 40
0.0
  9
$DIMEXE
 40
0.18
  9
$DIMTP
 40
0.0
  9
$DIMTM
 40
0.0
  9
$DIMTXT
 40
0.18
  9
$DIMCEN
 40
0.09
  9
$DIMTSZ
 40
0.0
  9
$DIMTOL
 70
     0
  9
$DIMLIM
 70
     0
  9
$DIMTIH
 70
     1
  9
$DIMTOH
 70
     1
  9
$DIMSE1
 70
     0
  9
$DIMSE2
 70
     0
  9
$DIMTAD
 70
     0
  9
$DIMZIN
 70
     0
  9
$DIMBLK
  1

  9
$DIMASO
 70
     1
  9
$DIMSHO
 70
     1
  9
$DIMPOST
  1

  9
$DIMAPOST
  1

  9
$DIMALT
 70
     0
  9
$DIMALTD
 70
     2
  9
$DIMALTF
 40
25.4
  9
$DIMLFAC
 40
1.0
  9
$DIMTOFL
 70
     0
  9
$DIMTVP
 40
0.0
  9
$DIMTIX
 70
     0
  9
$DIMSOXD
 70
     0
  9
$DIMSAH
 70
     0
  9
$DIMBLK1
  1

  9
$DIMBLK2
  1

  9
$DIMSTYLE
  2
Standard
  9
$DIMCLRD
 70
     0
  9
$DIMCLRE
 70
     0
  9
$DIMCLRT
 70
     0
  9
$DIMTFAC
 40
1.0
  9
$DIMGAP
 40
0.09
  9
$DIMJUST
 70
     0
  9
$DIMSD1
 70
     0
  9
$DIMSD2
 70
     0
  9
$DIMTOLJ
 70
     1
  9
$DIMTZIN
 70
     0
  9
$DIMALTZ
 70
     0
  9
$DIMALTTZ
 70
     0
  9
$DIMUPT
 70
     0
  9
$DIMDEC
 70
     4
  9
$DIMTDEC
 70
     4
  9
$DIMALTU
 70
     2
  9
$DIMALTTD
 70
     2
  9
$DIMTXSTY
  7
Standard
  9
$DIMAUNIT
 70
     0
  9
$DIMADEC
 70
     0
  9
$DIMALTRND
 40
0.0
  9
$DIMAZIN
 70
     0
  9
$DIMDSEP
 70
    46
  9
$DIMATFIT
 70
     3
  9
$DIMFRAC
 70
     0
  9
$DIMLDRBLK
  1

  9
$DIMLUNIT
 70
     2
  9
$DIMLWD
 70
    -2
  9
$DIMLWE
 70
    -2
  9
$DIMTMOVE
 70
     0
  9
$LUNITS
 70
     2
  9
$LUPREC
 70
     4
  9
$SKETCHINC
 40
0.1
  9
$FILLETRAD
 40
0.5
  9
$AUNITS
 70
     0
  9
$AUPREC
 70
     0
  9
$MENU
  1
.
  9
$ELEVATION
 40
0.0
  9
$PELEVATION
 40
0.0
  9
$THICKNESS
 40
0.0
  9
$LIMCHECK
 70
     0
  9
$CHAMFERA
 40
0.5
  9
$CHAMFERB
 40
0.5
  9
$CHAMFERC
 40
1.0
  9
$CHAMFERD
 40
0.0
  9
$SKPOLY
 70
     0
  9
$TDCREATE
 40
2454725.432160162
  9
$TDUCREATE
 40
2454725.348826829
  9
$TDUPDATE
 40
2454725.432160174
  9
$TDUUPDATE
 40
2454725.34882684
  9
$TDINDWG
 40
0.0000000116
  9
$TDUSRTIMER
 40
0.0000000116
  9
$USRTIMER
 70
     1
  9
$ANGBASE
 50
0.0
  9
$ANGDIR
 70
     0
  9
$PDMODE
 70
     0
  9
$PDSIZE
 40
0.0
  9
$PLINEWID
 40
0.0
  9
$SPLFRAME
 70
     0
  9
$SPLINETYPE
 70
     6
  9
$SPLINESEGS
 70
     8
  9
$HANDSEED
  5
61E
  9
$SURFTAB1
 70
     6
  9
$SURFTAB2
 70
     6
  9
$SURFTYPE
 70
     6
  9
$SURFU
 70
     6
  9
$SURFV
 70
     6
  9
$UCSBASE
  2

  9
$UCSNAME
  2

  9
$UCSORG
 10
0.0
 20
0.0
 30
0.0
  9
$UCSXDIR
 10
1.0
 20
0.0
 30
0.0
  9
$UCSYDIR
 10
0.0
 20
1.0
 30
0.0
  9
$UCSORTHOREF
  2

  9
$UCSORTHOVIEW
 70
     0
  9
$UCSORGTOP
 10
0.0
 20
0.0
 30
0.0
  9
$UCSORGBOTTOM
 10
0.0
 20
0.0
 30
0.0
  9
$UCSORGLEFT
 10
0.0
 20
0.0
 30
0.0
  9
$UCSORGRIGHT
 10
0.0
 20
0.0
 30
0.0
  9
$UCSORGFRONT
 10
0.0
 20
0.0
 30
0.0
  9
$UCSORGBACK
 10
0.0
 20
0.0
 30
0.0
  9
$PUCSBASE
  2

  9
$PUCSNAME
  2

  9
$PUCSORG
 10
0.0
 20
0.0
 30
0.0
  9
$PUCSXDIR
 10
1.0
 20
0.0
 30
0.0
  9
$PUCSYDIR
 10
0.0
 20
1.0
 30
0.0
  9
$PUCSORTHOREF
  2

  9
$PUCSORTHOVIEW
 70
     0
  9
$PUCSORGTOP
 10
0.0
 20
0.0
 30
0.0
  9
$PUCSORGBOTTOM
 10
0.0
 20
0.0
 30
0.0
  9
$PUCSORGLEFT
 10
0.0
 20
0.0
 30
0.0
  9
$PUCSORGRIGHT
 10
0.0
 20
0.0
 30
0.0
  9
$PUCSORGFRONT
 10
0.0
 20
0.0
 30
0.0
  9
$PUCSORGBACK
 10
0.0
 20
0.0
 30
0.0
  9
$USERI1
 70
     0
  9
$USERI2
 70
     0
  9
$USERI3
 70
     0
  9
$USERI4
 70
     0
  9
$USERI5
 70
     0
  9
$USERR1
 40
15.5
  9
$USERR2
 40
0.0
  9
$USERR3
 40
0.0
  9
$USERR4
 40
0.0
  9
$USERR5
 40
0.0
  9
$WORLDVIEW
 70
     1
  9
$SHADEDGE
 70
     3
  9
$SHADEDIF
 70
    70
  9
$TILEMODE
 70
     1
  9
$MAXACTVP
 70
    64
  9
$PINSBASE
 10
0.0
 20
0.0
 30
0.0
  9
$PLIMCHECK
 70
     0
  9
$PEXTMIN
 10
1.00000000000000E+20
 20
1.00000000000000E+20
 30
1.00000000000000E+20
  9
$PEXTMAX
 10
-1.00000000000000E+20
 20
-1.00000000000000E+20
 30
-1.00000000000000E+20
  9
$PLIMMIN
 10
0.0
 20
0.0
  9
$PLIMMAX
 10
12.0
 20
9.0
  9
$UNITMODE
 70
     0
  9
$VISRETAIN
 70
     1
  9
$PLINEGEN
 70
     0
  9
$PSLTSCALE
 70
     1
  9
$TREEDEPTH
 70
  3020
  9
$CMLSTYLE
  2
Standard
  9
$CMLJUST
 70
     0
  9
$CMLSCALE
 40
1.0
  9
$PROXYGRAPHICS
 70
     1
  9
$MEASUREMENT
 70
     1
  9
$CELWEIGHT
370
    -1
  9
$ENDCAPS
280
     0
  9
$JOINSTYLE
280
     0
  9
$LWDISPLAY
290
     0
  9
$INSUNITS
 70
     1
  9
$HYPERLINKBASE
  1

  9
$STYLESHEET
  1

  9
$XEDIT
290
     1
  9
$CEPSNTYPE
380
     0
  9
$PSTYLEMODE
290
     1
  9
$FINGERPRINTGUID
  2
{70BBA892-A860-4FED-A6D0-4294361C7876}
  9
$VERSIONGUID
  2
{FAEB1C32-E019-11D5-929B-00C0DF256EC4}
  9
$EXTNAMES
290
     1
  9
$PSVPSCALE
 40
0.0
  9
$OLESTARTUP
290
     0
  0
ENDSEC
  0
SECTION
  2
CLASSES
  0
CLASS
  1
ACDBDICTIONARYWDFLT
  2
AcDbDictionaryWithDefault
  3
ObjectDBX Classes
 90
        0
280
     0
281
     0
  0
CLASS
  1
VISUALSTYLE
  2
AcDbVisualStyle
  3
ObjectDBX Classes
 90
     4095
280
     0
281
     0
  0
CLASS
  1

  2
exOdDbCircle
  3

 90
        0
280
     0
281
     1
  0
CLASS
  1

  2
exOdDbSpline
  3

 90
        0
280
     0
281
     1
  0
CLASS
  1

  2
exOdDbPolyline
  3

 90
        0
280
     0
281
     1
  0
CLASS
  1
ACDBPLACEHOLDER
  2
AcDbPlaceHolder
  3
ObjectDBX Classes
 90
        0
280
     0
281
     0
  0
CLASS
  1
LAYOUT
  2
AcDbLayout
  3
ObjectDBX Classes
 90
        0
280
     0
281
     0
  0
ENDSEC
  0
SECTION
  2
TABLES
  0
TABLE
  2
VPORT
  5
8
330
0
100
AcDbSymbolTable
 70
     1
  0
VPORT
  5
29
330
8
100
AcDbSymbolTableRecord
100
AcDbViewportTableRecord
  2
*Active
 70
     0
 10
0.0
 20
0.0
 11
1.0
 21
1.0
 12
0.00001498332031
 22
-423.2296949991128
 13
0.0
 23
0.0
 14
0.5
 24
0.5
 15
0.5
 25
0.5
 16
0.0
 26
0.0
 36
1.0
 17
0.0
 27
0.0
 37
0.0
 40
1266.582716541302
 41
1.60267857142857
 42
50.0
 43
0.0
 44
0.0
 50
0.0
 51
0.0
 71
     0
 72
   100
 73
     1
 74
     3
 75
     0
 76
     0
 77
     0
 78
     0
281
     0
 65
     1
110
0.0
120
0.0
130
0.0
111
1.0
121
0.0
131
0.0
112
0.0
122
1.0
132
0.0
 79
     0
146
0.0
  0
ENDTAB
  0
TABLE
  2
LTYPE
  5
5
330
0
100
AcDbSymbolTable
 70
    10
  0
LTYPE
  5
14
330
5
100
AcDbSymbolTableRecord
100
AcDbLinetypeTableRecord
  2
ByBlock
 70
     0
  3

 72
    65
 73
     0
 40
0.0
  0
LTYPE
  5
15
330
5
100
AcDbSymbolTableRecord
100
AcDbLinetypeTableRecord
  2
ByLayer
 70
     0
  3

 72
    65
 73
     0
 40
0.0
  0
LTYPE
  5
16
330
5
100
AcDbSymbolTableRecord
100
AcDbLinetypeTableRecord
  2
Continuous
 70
     0
  3
Solid line
 72
    65
 73
     0
 40
0.0
  0
LTYPE
  5
3B
330
5
100
AcDbSymbolTableRecord
100
AcDbLinetypeTableRecord
  2
DASHED
 70
     0
  3
Dashed
 72
    65
 73
     2
 40
15.0
 49
7.0
 74
     0
 49
-8.0
 74
     0
  0
LTYPE
  5
3C
330
5
100
AcDbSymbolTableRecord
100
AcDbLinetypeTableRecord
  2
DOTTED
 70
     0
  3
Dotted
 72
    65
 73
     2
 40
1.0
 49
0.0
 74
     0
 49
-1.0
 74
     0
  0
LTYPE
  5
3D
330
5
100
AcDbSymbolTableRecord
100
AcDbLinetypeTableRecord
  2
DOT_CENTER
 70
     0
  3
Dot_Center
 72
    65
 73
     4
 40
14.0
 49
12.0
 74
     0
 49
-1.0
 74
     0
 49
0.0
 74
     0
 49
-1.0
 74
     0
  0
LTYPE
  5
3E
330
5
100
AcDbSymbolTableRecord
100
AcDbLinetypeTableRecord
  2
LONG_DASHED
 70
     0
  3
Long_Dashed
 72
    65
 73
     2
 40
15.0
 49
10.0
 74
     0
 49
-5.0
 74
     0
  0
LTYPE
  5
3F
330
5
100
AcDbSymbolTableRecord
100
AcDbLinetypeTableRecord
  2
DASH_CENTER
 70
     0
  3
Dash_Center
 72
    65
 73
     4
 40
14.0
 49
11.0
 74
     0
 49
-1.0
 74
     0
 49
1.0
 74
     0
 49
-1.0
 74
     0
  0
LTYPE
  5
40
330
5
100
AcDbSymbolTableRecord
100
AcDbLinetypeTableRecord
  2
PHANTOM
 70
     0
  3
Phantom
 72
    65
 73
     6
 40
13.0
 49
10.0
 74
     0
 49
-1.0
 74
     0
 49
0.0
 74
     0
 49
-1.0
 74
     0
 49
0.0
 74
     0
 49
-1.0
 74
     0
  0
LTYPE
  5
41
330
5
100
AcDbSymbolTableRecord
100
AcDbLinetypeTableRecord
  2
CENTER_DASH_DASH
 70
     0
  3
Center_Dash_Dash
 72
    65
 73
     6
 40
14.0
 49
9.0
 74
     0
 49
-1.0
 74
     0
 49
1.0
 74
     0
 49
-1.0
 74
     0
 49
1.0
 74
     0
 49
-1.0
 74
     0
  0
LTYPE
  5
42
330
5
100
AcDbSymbolTableRecord
100
AcDbLinetypeTableRecord
  2
CENTER
 70
     0
  3
CENTER
 72
    65
 73
     4
 40
16.0
 49
10.0
 74
     0
 49
-3.0
 74
     0
 49
0.0
 74
     0
 49
-3.0
 74
     0
  0
LTYPE
  5
43
330
5
100
AcDbSymbolTableRecord
100
AcDbLinetypeTableRecord
  2
DASHDOT
 70
     0
  3
DASHDOT
 72
    65
 73
     4
 40
16.0
 49
10.0
 74
     0
 49
-3.0
 74
     0
 49
0.0
 74
     0
 49
-3.0
 74
     0
  0
ENDTAB
  0
TABLE
  2
LAYER
  5
2
330
0
100
AcDbSymbolTable
 70
    12
  0
LAYER
  5
10
330
2
100
AcDbSymbolTableRecord
100
AcDbLayerTableRecord
  2
0
 70
     0
 62
     7
  6
Continuous
370
    -3
390
F
  0
LAYER
  5
44
330
2
100
AcDbSymbolTableRecord
100
AcDbLayerTableRecord
  2
1
 70
     0
 62
     7
  6
Continuous
370
    -3
390
F
  0
LAYER
  5
45
330
2
100
AcDbSymbolTableRecord
100
AcDbLayerTableRecord
  2
LC-001-002-----0
 70
     0
 62
     7
  6
Continuous
370
    -3
390
F
  0
LAYER
  5
46
330
2
100
AcDbSymbolTableRecord
100
AcDbLayerTableRecord
  2
LC-002-002-RND-0
 70
     0
 62
     7
  6
Continuous
370
    -3
390
F
  0
LAYER
  5
47
330
2
100
AcDbSymbolTableRecord
100
AcDbLayerTableRecord
  2
LC-003-002-RND-0
 70
     0
 62
     7
  6
Continuous
370
    -3
390
F
  0
LAYER
  5
48
330
2
100
AcDbSymbolTableRecord
100
AcDbLayerTableRecord
  2
LC-003-005-----0
 70
     0
 62
     7
  6
Continuous
370
    -3
390
F
  0
LAYER
  5
49
330
2
100
AcDbSymbolTableRecord
100
AcDbLayerTableRecord
  2
LC-003-006-MLN-0
 70
     0
 62
     7
  6
Continuous
370
    -3
390
F
  0
LAYER
  5
4A
330
2
100
AcDbSymbolTableRecord
100
AcDbLayerTableRecord
  2
LC-004-003-----0
 70
     0
 62
     7
  6
Continuous
370
    -3
390
F
  0
LAYER
  5
4B
330
2
100
AcDbSymbolTableRecord
100
AcDbLayerTableRecord
  2
LC-005-002-----0
 70
     0
 62
     7
  6
Continuous
370
    -3
390
F
  0
LAYER
  5
4C
330
2
100
AcDbSymbolTableRecord
100
AcDbLayerTableRecord
  2
LC-005-221-----0
 70
     0
 62
     7
  6
Continuous
370
    -3
390
F
  0
LAYER
  5
4D
330
2
100
AcDbSymbolTableRecord
100
AcDbLayerTableRecord
  2
LC-006-003-----0
 70
     0
 62
     7
  6
Continuous
370
    -3
390
F
  0
LAYER
  5
4E
330
2
100
AcDbSymbolTableRecord
100
AcDbLayerTableRecord
  2
LC-006-005-----0
 70
     0
 62
     7
  6
Continuous
370
    -3
390
F
  0
ENDTAB
  0
TABLE
  2
STYLE
  5
3
330
0
100
AcDbSymbolTable
 70
     2
  0
STYLE
  5
11
330
3
100
AcDbSymbolTableRecord
100
AcDbTextStyleTableRecord
  2
Standard
 70
     0
 40
0.0
 41
1.0
 50
0.0
 71
     0
 42
0.2
  3
txt
  4

  0
STYLE
  5
5D4
330
3
100
AcDbSymbolTableRecord
100
AcDbTextStyleTableRecord
  2
CONVERTER_11
 70
     0
 40
0.0
 41
0.9
 50
0.0
 71
     0
 42
0.2
  3
txt.shx
  4

  0
ENDTAB
  0
TABLE
  2
VIEW
  5
6
330
0
100
AcDbSymbolTable
 70
     0
  0
ENDTAB
  0
TABLE
  2
UCS
  5
7
330
0
100
AcDbSymbolTable
 70
     0
  0
ENDTAB
  0
TABLE
  2
APPID
  5
9
330
0
100
AcDbSymbolTable
 70
     1
  0
APPID
  5
12
330
9
100
AcDbSymbolTableRecord
100
AcDbRegAppTableRecord
  2
ACAD
 70
     0
  0
ENDTAB
  0
TABLE
  2
DIMSTYLE
  5
A
330
0
100
AcDbSymbolTable
 70
     8
100
AcDbDimStyleTable
  0
DIMSTYLE
105
27
330
A
100
AcDbSymbolTableRecord
100
AcDbDimStyleTableRecord
  2
Standard
 70
     0
340
11
  0
DIMSTYLE
105
5D8
102
{ACAD_REACTORS
330
5D9
102
}
330
A
100
AcDbSymbolTableRecord
100
AcDbDimStyleTableRecord
  2
ME10_DIM_10
 70
     0
  3
DN<>
 41
14.0
 42
0.0
 44
2.0
 73
     0
 74
     0
 77
     1
 78
     8
140
14.0
147
2.0
172
     1
173
     1
176
     4
177
     4
178
     1
271
     2
340
5D4
  0
DIMSTYLE
105
5E3
102
{ACAD_REACTORS
330
5E4
102
}
330
A
100
AcDbSymbolTableRecord
100
AcDbDimStyleTableRecord
  2
ME10_DIM_11
 70
     0
  3
Ø<>
 41
14.0
 42
0.0
 44
2.0
 73
     0
 74
     0
 77
     1
 78
     8
140
14.0
147
2.0
172
     1
173
     1
176
     4
177
     4
178
     1
271
     2
340
5D4
  0
DIMSTYLE
105
5EE
102
{ACAD_REACTORS
330
5EF
102
}
330
A
100
AcDbSymbolTableRecord
100
AcDbDimStyleTableRecord
  2
ME10_DIM_12
 70
     0
 41
14.0
 42
0.0
 44
2.0
 73
     0
 74
     0
 77
     1
 78
     8
140
14.0
147
2.0
172
     1
173
     1
176
     4
177
     4
178
     1
271
     2
340
5D4
  0
DIMSTYLE
105
5FA
102
{ACAD_REACTORS
330
5FB
102
}
330
A
100
AcDbSymbolTableRecord
100
AcDbDimStyleTableRecord
  2
ME10_DIM_13
 70
     0
  3
Ø<>
 41
14.0
 42
0.0
 44
2.0
 73
     0
 74
     0
 77
     1
 78
     8
140
14.0
147
2.0
172
     1
173
     1
176
     4
177
     4
178
     1
271
     2
340
5D4
  0
DIMSTYLE
105
605
102
{ACAD_REACTORS
330
606
102
}
330
A
100
AcDbSymbolTableRecord
100
AcDbDimStyleTableRecord
  2
ME10_DIM_14
 70
     0
 41
14.0
 42
0.0
 44
2.0
 73
     0
 74
     0
 77
     1
 78
     8
140
14.0
147
2.0
172
     1
173
     1
176
     4
177
     4
178
     1
271
     2
340
5D4
  0
DIMSTYLE
105
610
102
{ACAD_REACTORS
330
611
102
}
330
A
100
AcDbSymbolTableRecord
100
AcDbDimStyleTableRecord
  2
ME10_DIM_15
 70
     0
 41
14.0
 42
0.0
 44
2.0
 73
     0
 74
     0
 77
     1
 78
     8
140
14.0
147
2.0
172
     1
173
     1
176
     4
177
     4
178
     1
271
     2
340
5D4
  0
DIMSTYLE
105
61B
102
{ACAD_REACTORS
330
61C
102
}
330
A
100
AcDbSymbolTableRecord
100
AcDbDimStyleTableRecord
  2
ME10_DIM_16
 70
     0
 41
14.0
 42
0.0
 44
2.0
 73
     0
 74
     0
 77
     1
 78
     8
140
14.0
147
2.0
172
     1
173
     1
176
     4
177
     4
178
     1
271
     2
340
5D4
  0
ENDTAB
  0
TABLE
  2
BLOCK_RECORD
  5
1
330
0
100
AcDbSymbolTable
 70
    12
  0
BLOCK_RECORD
  5
1F
330
1
100
AcDbSymbolTableRecord
100
AcDbBlockTableRecord
  2
*Model_Space
340
22
  0
BLOCK_RECORD
  5
1B
330
1
100
AcDbSymbolTableRecord
100
AcDbBlockTableRecord
  2
*Paper_Space
340
1E
  0
BLOCK_RECORD
  5
23
330
1
100
AcDbSymbolTableRecord
100
AcDbBlockTableRecord
  2
*Paper_Space0
340
26
  0
BLOCK_RECORD
  5
4F
330
1
100
AcDbSymbolTableRecord
100
AcDbBlockTableRecord
  2
Draufsicht
340
0
102
{BLKREFS
331
59
102
}
  0
BLOCK_RECORD
  5
52
330
1
100
AcDbSymbolTableRecord
100
AcDbBlockTableRecord
  2
_X0
340
0
102
{BLKREFS
331
5A
102
}
  0
BLOCK_RECORD
  5
55
330
1
100
AcDbSymbolTableRecord
100
AcDbBlockTableRecord
  2
_X1
340
0
102
{BLKREFS
331
5B
102
}
  0
BLOCK_RECORD
  5
58
330
1
100
AcDbSymbolTableRecord
100
AcDbBlockTableRecord
  2
TOP
340
0
102
{BLKREFS
331
5E
102
}
  0
BLOCK_RECORD
  5
5CE
330
1
100
AcDbSymbolTableRecord
100
AcDbBlockTableRecord
  2
*D5
340
0
  0
BLOCK_RECORD
  5
5DA
330
1
100
AcDbSymbolTableRecord
100
AcDbBlockTableRecord
  2
*D6
340
0
  0
BLOCK_RECORD
  5
5E5
330
1
100
AcDbSymbolTableRecord
100
AcDbBlockTableRecord
  2
*D7
340
0
  0
BLOCK_RECORD
  5
5F0
330
1
100
AcDbSymbolTableRecord
100
AcDbBlockTableRecord
  2
*D8
340
0
  0
BLOCK_RECORD
  5
5FC
330
1
100
AcDbSymbolTableRecord
100
AcDbBlockTableRecord
  2
*D9
340
0
  0
BLOCK_RECORD
  5
607
330
1
100
AcDbSymbolTableRecord
100
AcDbBlockTableRecord
  2
*D10
340
0
  0
BLOCK_RECORD
  5
612
330
1
100
AcDbSymbolTableRecord
100
AcDbBlockTableRecord
  2
*D11
340
0
  0
ENDTAB
  0
ENDSEC
  0
SECTION
  2
BLOCKS
  0
BLOCK
  5
20
330
1F
100
AcDbEntity
  8
0
100
AcDbBlockBegin
  2
*Model_Space
 70
     0
 71
     0
 10
0.0
 20
0.0
 30
0.0
  3
*Model_Space
  1

  0
ENDBLK
  5
21
330
1F
100
AcDbEntity
  8
0
100
AcDbBlockEnd
  0
BLOCK
  5
1C
330
1B
100
AcDbEntity
 67
     1
  8
0
100
AcDbBlockBegin
  2
*Paper_Space
 70
     0
 71
     0
 10
0.0
 20
0.0
 30
0.0
  3
*Paper_Space
  1

  0
ENDBLK
  5
1D
330
1B
100
AcDbEntity
 67
     1
  8
0
100
AcDbBlockEnd
  0
BLOCK
  5
24
330
23
100
AcDbEntity
  8
0
100
AcDbBlockBegin
  2
*Paper_Space0
 70
     0
 71
     0
 10
0.0
 20
0.0
 30
0.0
  3
*Paper_Space0
  1

  0
ENDBLK
  5
25
330
23
100
AcDbEntity
  8
0
100
AcDbBlockEnd
  0
BLOCK
  5
50
330
4F
100
AcDbEntity
  8
0
100
AcDbBlockBegin
  2
Draufsicht
 70
     0
 71
     0
 10
-121.1350760296518
 20
-925.9491116087956
 30
0.0
  3
Draufsicht
  1

  0
LINE
  5
5F
330
4F
100
AcDbEntity
  8
1
  6
PHANTOM
 62
     2
100
AcDbLine
 10
79.06436023696992
 20
-804.1124728680988
 30
0.0
 11
68.58545285117984
 21
-810.1624728680981
 31
0.0
  0
LINE
  5
60
330
4F
100
AcDbEntity
  8
1
  6
PHANTOM
 62
     2
100
AcDbLine
 10
76.8499065440727
 20
-812.3769265609953
 30
0.0
 11
70.79990654407342
 21
-801.8980191752016
 31
0.0
  0
LINE
  5
61
330
4F
100
AcDbEntity
  8
1
  6
Continuous
 62
     7
100
AcDbLine
 10
72.02185126846857
 20
-803.0144895218909
 30
0.0
 11
74.00791924596601
 21
-806.4544601662055
 31
0.0
  0
LINE
  5
62
330
4F
100
AcDbEntity
  8
1
  6
Continuous
 62
     7
100
AcDbLine
 10
74.00791924596601
 20
-806.4544601662055
 30
0.0
 11
77.4478898902806
 21
-804.4683921887081
 31
0.0
  0
LINE
  5
63
330
4F
100
AcDbEntity
  8
1
  6
Continuous
 62
     7
100
AcDbLine
 10
77.9478898902806
 20
-805.3344175924904
 30
0.0
 11
74.50791924596601
 21
-807.3204855699914
 31
0.0
  0
LINE
  5
64
330
4F
100
AcDbEntity
  8
1
  6
Continuous
 62
     7
100
AcDbLine
 10
74.50791924596601
 20
-807.3204855699914
 30
0.0
 11
76.49398722346709
 21
-810.760456214306
 31
0.0
  0
LINE
  5
65
330
4F
100
AcDbEntity
  8
1
  6
Continuous
 62
     7
100
AcDbLine
 10
75.62796181968119
 20
-811.260456214306
 30
0.0
 11
73.64189384218375
 21
-807.8204855699914
 31
0.0
  0
LINE
  5
66
330
4F
100
AcDbEntity
  8
1
  6
Continuous
 62
     7
100
AcDbLine
 10
73.64189384218375
 20
-807.8204855699914
 30
0.0
 11
70.20192319786551
 21
-809.8065535474889
 31
0.0
  0
LINE
  5
67
330
4F
100
AcDbEntity
  8
1
  6
Continuous
 62
     7
100
AcDbLine
 10
69.70192319786551
 20
-808.9405281437066
 30
0.0
 11
73.14189384218375
 21
-806.9544601662055
 31
0.0
  0
LINE
  5
68
330
4F
100
AcDbEntity
  8
1
  6
Continuous
 62
     7
100
AcDbLine
 10
73.14189384218375
 20
-806.9544601662055
 30
0.0
 11
71.15582586468267
 21
-803.5144895218909
 31
0.0
  0
LINE
  5
69
330
4F
100
AcDbEntity
  8
1
  6
PHANTOM
 62
     2
100
AcDbLine
 10
-8.24068459854711
 20
-845.0025237616901
 30
0.0
 11
-18.71959198434083
 21
-838.9525237616908
 31
0.0
  0
LINE
  5
6A
330
4F
100
AcDbEntity
  8
1
  6
PHANTOM
 62
     2
100
AcDbLine
 10
-16.50513829144361
 20
-847.2169774545873
 30
0.0
 11
-10.45513829144434
 21
-836.7380700687936
 31
0.0
  0
LINE
  5
6B
330
4F
100
AcDbEntity
  8
1
  6
Continuous
 62
     7
100
AcDbLine
 10
-10.81105761204994
 20
-838.3545404154829
 30
0.0
 11
-12.79712558955102
 21
-841.7945110597975
 31
0.0
  0
LINE
  5
6C
330
4F
100
AcDbEntity
  8
1
  6
Continuous
 62
     7
100
AcDbLine
 10
-12.79712558955102
 20
-841.7945110597975
 30
0.0
 11
-9.35715494523642
 21
-843.7805790372986
 31
0.0
  0
LINE
  5
6D
330
4F
100
AcDbEntity
  8
1
  6
Continuous
 62
     7
100
AcDbLine
 10
-9.85715494523642
 20
-844.6466044410809
 30
0.0
 11
-13.29712558955102
 21
-842.6605364635834
 31
0.0
  0
LINE
  5
6E
330
4F
100
AcDbEntity
  8
1
  6
Continuous
 62
     7
100
AcDbLine
 10
-13.29712558955102
 20
-842.6605364635834
 30
0.0
 11
-15.2831935670521
 21
-846.100507107898
 31
0.0
  0
LINE
  5
6F
330
4F
100
AcDbEntity
  8
1
  6
Continuous
 62
     7
100
AcDbLine
 10
-16.14921897083436
 20
-845.600507107898
 30
0.0
 11
-14.16315099333692
 21
-842.1605364635834
 31
0.0
  0
LINE
  5
70
330
4F
100
AcDbEntity
  8
1
  6
Continuous
 62
     7
100
AcDbLine
 10
-14.16315099333692
 20
-842.1605364635834
 30
0.0
 11
-17.60312163765152
 21
-840.1744684860823
 31
0.0
  0
LINE
  5
71
330
4F
100
AcDbEntity
  8
1
  6
Continuous
 62
     7
100
AcDbLine
 10
-17.10312163765152
 20
-839.3084430822964
 30
0.0
 11
-13.66315099333692
 21
-841.2945110597975
 31
0.0
  0
LINE
  5
72
330
4F
100
AcDbEntity
  8
1
  6
Continuous
 62
     7
100
AcDbLine
 10
-13.66315099333692
 20
-841.2945110597975
 30
0.0
 11
-11.67708301583584
 21
-837.8545404154829
 31
0.0
  0
LINE
  5
73
330
4F
100
AcDbEntity
  8
1
  6
PHANTOM
 62
     2
100
AcDbLine
 10
-87.30502985219678
 20
-789.8391625023905
 30
0.0
 11
-87.30502985219678
 21
-777.7391625023884
 31
0.0
  0
LINE
  5
74
330
4F
100
AcDbEntity
  8
1
  6
PHANTOM
 62
     2
100
AcDbLine
 10
-93.35502985219605
 20
-783.7891625023876
 30
0.0
 11
-81.25502985219751
 21
-783.7891625023876
 31
0.0
  0
LINE
  5
75
330
4F
100
AcDbEntity
  8
1
  6
Continuous
 62
     7
100
AcDbLine
 10
-82.83289389719462
 20
-784.2891625023876
 30
0.0
 11
-86.80502985219678
 21
-784.2891625023876
 31
0.0
  0
LINE
  5
76
330
4F
100
AcDbEntity
  8
1
  6
Continuous
 62
     7
100
AcDbLine
 10
-86.80502985219678
 20
-784.2891625023876
 30
0.0
 11
-86.80502985219678
 21
-788.2612984573898
 31
0.0
  0
LINE
  5
77
330
4F
100
AcDbEntity
  8
1
  6
Continuous
 62
     7
100
AcDbLine
 10
-87.80502985219678
 20
-788.2612984573898
 30
0.0
 11
-87.80502985219678
 21
-784.2891625023876
 31
0.0
  0
LINE
  5
78
330
4F
100
AcDbEntity
  8
1
  6
Continuous
 62
     7
100
AcDbLine
 10
-87.80502985219678
 20
-784.2891625023876
 30
0.0
 11
-91.7771658071953
 21
-784.2891625023876
 31
0.0
  0
LINE
  5
79
330
4F
100
AcDbEntity
  8
1
  6
Continuous
 62
     7
100
AcDbLine
 10
-91.7771658071953
 20
-783.2891625023876
 30
0.0
 11
-87.80502985219678
 21
-783.2891625023876
 31
0.0
  0
LINE
  5
7A
330
4F
100
AcDbEntity
  8
1
  6
Continuous
 62
     7
100
AcDbLine
 10
-87.80502985219678
 20
-783.2891625023876
 30
0.0
 11
-87.80502985219678
 21
-779.3170265473891
 31
0.0
  0
LINE
  5
7B
330
4F
100
AcDbEntity
  8
1
  6
Continuous
 62
     7
100
AcDbLine
 10
-86.80502985219678
 20
-779.3170265473891
 30
0.0
 11
-86.80502985219678
 21
-783.2891625023876
 31
0.0
  0
LINE
  5
7C
330
4F
100
AcDbEntity
  8
1
  6
Continuous
 62
     7
100
AcDbLine
 10
-86.80502985219678
 20
-783.2891625023876
 30
0.0
 11
-82.83289389719462
 21
-783.2891625023876
 31
0.0
  0
LINE
  5
7D
330
4F
100
AcDbEntity
  8
1
  6
PHANTOM
 62
     2
100
AcDbLine
 10
-79.0643302703294
 20
-693.7857503494961
 30
0.0
 11
-68.58542288453569
 21
-687.7357503494968
 31
0.0
  0
LINE
  5
7E
330
4F
100
AcDbEntity
  8
1
  6
PHANTOM
 62
     2
100
AcDbLine
 10
-76.84987657743218
 20
-685.5212966565996
 30
0.0
 11
-70.79987657743291
 21
-696.0002040423897
 31
0.0
  0
LINE
  5
7F
330
4F
100
AcDbEntity
  8
1
  6
Continuous
 62
     7
100
AcDbLine
 10
-72.02182130182442
 20
-694.883733695704
 30
0.0
 11
-74.0078892793255
 21
-691.4437630513858
 31
0.0
  0
LINE
  5
80
330
4F
100
AcDbEntity
  8
1
  6
Continuous
 62
     7
100
AcDbLine
 10
-74.0078892793255
 20
-691.4437630513858
 30
0.0
 11
-77.4478599236401
 21
-693.4298310288868
 31
0.0
  0
LINE
  5
81
330
4F
100
AcDbEntity
  8
1
  6
Continuous
 62
     7
100
AcDbLine
 10
-77.9478599236401
 20
-692.5638056251009
 30
0.0
 11
-74.5078892793255
 21
-690.5777376476035
 31
0.0
  0
LINE
  5
82
330
4F
100
AcDbEntity
  8
1
  6
Continuous
 62
     7
100
AcDbLine
 10
-74.5078892793255
 20
-690.5777376476035
 30
0.0
 11
-76.49395725682294
 21
-687.1377670032889
 31
0.0
  0
LINE
  5
83
330
4F
100
AcDbEntity
  8
1
  6
Continuous
 62
     7
100
AcDbLine
 10
-75.62793185304068
 20
-686.6377670032889
 30
0.0
 11
-73.6418638755396
 21
-690.0777376476035
 31
0.0
  0
LINE
  5
84
330
4F
100
AcDbEntity
  8
1
  6
Continuous
 62
     7
100
AcDbLine
 10
-73.6418638755396
 20
-690.0777376476035
 30
0.0
 11
-70.201893231225
 21
-688.0916696701024
 31
0.0
  0
LINE
  5
85
330
4F
100
AcDbEntity
  8
1
  6
Continuous
 62
     7
100
AcDbLine
 10
-69.701893231225
 20
-688.9576950738883
 30
0.0
 11
-73.1418638755396
 21
-690.9437630513858
 31
0.0
  0
LINE
  5
86
330
4F
100
AcDbEntity
  8
1
  6
Continuous
 62
     7
100
AcDbLine
 10
-73.1418638755396
 20
-690.9437630513858
 30
0.0
 11
-71.15579589803852
 21
-694.383733695704
 31
0.0
  0
LINE
  5
87
330
4F
100
AcDbEntity
  8
1
  6
PHANTOM
 62
     2
100
AcDbLine
 10
8.24071456518764
 20
-652.8956994559012
 30
0.0
 11
18.71962195098136
 21
-658.9456994559005
 31
0.0
  0
LINE
  5
88
330
4F
100
AcDbEntity
  8
1
  6
PHANTOM
 62
     2
100
AcDbLine
 10
16.50516825808413
 20
-650.681245763004
 30
0.0
 11
10.45516825808486
 21
-661.1601531487977
 31
0.0
  0
LINE
  5
89
330
4F
100
AcDbEntity
  8
1
  6
Continuous
 62
     7
100
AcDbLine
 10
10.81108757869411
 20
-659.5436828021084
 30
0.0
 11
12.79715555619155
 21
-656.1037121577938
 31
0.0
  0
LINE
  5
8A
330
4F
100
AcDbEntity
  8
1
  6
Continuous
 62
     7
100
AcDbLine
 10
12.79715555619155
 20
-656.1037121577938
 30
0.0
 11
9.35718491187695
 21
-654.1176441802927
 31
0.0
  0
LINE
  5
8B
330
4F
100
AcDbEntity
  8
1
  6
Continuous
 62
     7
100
AcDbLine
 10
9.85718491187695
 20
-653.2516187765104
 30
0.0
 11
13.29715555619155
 21
-655.2376867540079
 31
0.0
  0
LINE
  5
8C
330
4F
100
AcDbEntity
  8
1
  6
Continuous
 62
     7
100
AcDbLine
 10
13.29715555619155
 20
-655.2376867540079
 30
0.0
 11
15.28322353369263
 21
-651.7977161096933
 31
0.0
  0
LINE
  5
8D
330
4F
100
AcDbEntity
  8
1
  6
Continuous
 62
     7
100
AcDbLine
 10
16.14924893747853
 20
-652.2977161096933
 30
0.0
 11
14.16318095997745
 21
-655.7376867540079
 31
0.0
  0
LINE
  5
8E
330
4F
100
AcDbEntity
  8
1
  6
Continuous
 62
     7
100
AcDbLine
 10
14.16318095997745
 20
-655.7376867540079
 30
0.0
 11
17.60315160429204
 21
-657.723754731509
 31
0.0
  0
LINE
  5
8F
330
4F
100
AcDbEntity
  8
1
  6
Continuous
 62
     7
100
AcDbLine
 10
17.10315160429204
 20
-658.5897801352912
 30
0.0
 11
13.66318095997745
 21
-656.6037121577938
 31
0.0
  0
LINE
  5
90
330
4F
100
AcDbEntity
  8
1
  6
Continuous
 62
     7
100
AcDbLine
 10
13.66318095997745
 20
-656.6037121577938
 30
0.0
 11
11.67711298247637
 21
-660.0436828021084
 31
0.0
  0
LINE
  5
91
330
4F
100
AcDbEntity
  8
1
  6
Continuous
 62
     7
100
AcDbLine
 10
86.8050598188373
 20
-714.6090607152
 30
0.0
 11
82.83292386383877
 21
-714.6090607152
 31
0.0
  0
LINE
  5
92
330
4F
100
AcDbEntity
  8
1
  6
Continuous
 62
     7
100
AcDbLine
 10
86.8050598188373
 20
-718.5811966701986
 30
0.0
 11
86.8050598188373
 21
-714.6090607152
 31
0.0
  0
LINE
  5
93
330
4F
100
AcDbEntity
  8
1
  6
Continuous
 62
     7
100
AcDbLine
 10
87.8050598188373
 20
-714.6090607152
 30
0.0
 11
87.8050598188373
 21
-718.5811966701986
 31
0.0
  0
LINE
  5
94
330
4F
100
AcDbEntity
  8
1
  6
Continuous
 62
     7
100
AcDbLine
 10
91.77719577383945
 20
-714.6090607152
 30
0.0
 11
87.8050598188373
 21
-714.6090607152
 31
0.0
  0
LINE
  5
95
330
4F
100
AcDbEntity
  8
1
  6
Continuous
 62
     7
100
AcDbLine
 10
87.8050598188373
 20
-713.6090607152
 30
0.0
 11
91.77719577383945
 21
-713.6090607152
 31
0.0
  0
LINE
  5
96
330
4F
100
AcDbEntity
  8
1
  6
Continuous
 62
     7
100
AcDbLine
 10
87.8050598188373
 20
-709.6369247602015
 30
0.0
 11
87.8050598188373
 21
-713.6090607152
 31
0.0
  0
LINE
  5
97
330
4F
100
AcDbEntity
  8
1
  6
Continuous
 62
     7
100
AcDbLine
 10
86.8050598188373
 20
-713.6090607152
 30
0.0
 11
86.8050598188373
 21
-709.6369247602015
 31
0.0
  0
LINE
  5
98
330
4F
100
AcDbEntity
  8
1
  6
Continuous
 62
     7
100
AcDbLine
 10
82.83292386383877
 20
-713.6090607152
 30
0.0
 11
86.8050598188373
 21
-713.6090607152
 31
0.0
  0
LINE
  5
99
330
4F
100
AcDbEntity
  8
1
  6
PHANTOM
 62
     2
100
AcDbLine
 10
87.3050598188373
 20
-708.0590607152008
 30
0.0
 11
87.3050598188373
 21
-720.1590607151993
 31
0.0
  0
LINE
  5
9A
330
4F
100
AcDbEntity
  8
1
  6
PHANTOM
 62
     2
100
AcDbLine
 10
93.3550598188402
 20
-714.1090607152
 30
0.0
 11
81.25505981883802
 21
-714.1090607152
 31
0.0
  0
LINE
  5
9B
330
4F
100
AcDbEntity
  8
1
  6
Continuous
 62
     7
100
AcDbLine
 10
-249.9999850166797
 20
-998.9491116087956
 30
0.0
 11
-249.9999850166797
 21
-498.9491116087957
 31
0.0
  0
LINE
  5
9C
330
4F
100
AcDbEntity
  8
1
  6
Continuous
 62
     7
100
AcDbLine
 10
250.0000149833203
 20
-998.9491116087956
 30
0.0
 11
-249.9999850166797
 21
-998.9491116087956
 31
0.0
  0
LINE
  5
9D
330
4F
100
AcDbEntity
  8
1
  6
Continuous
 62
     7
100
AcDbLine
 10
250.0000149833203
 20
-498.9491116087957
 30
0.0
 11
250.0000149833203
 21
-998.9491116087956
 31
0.0
  0
LINE
  5
9E
330
4F
100
AcDbEntity
  8
1
  6
Continuous
 62
     7
100
AcDbLine
 10
-249.9999850166797
 20
-498.9491116087957
 30
0.0
 11
250.0000149833203
 21
-498.9491116087957
 31
0.0
  0
LINE
  5
9F
330
4F
100
AcDbEntity
  8
0
  6
Continuous
 62
     7
100
AcDbLine
 10
-78.43953944197452
 20
-714.6937384587654
 30
0.0
 11
-67.66059740459346
 21
-719.2295636429881
 31
0.0
  0
LINE
  5
A0
330
4F
100
AcDbEntity
  8
0
  6
Continuous
 62
     7
100
AcDbLine
 10
-84.63271940700102
 20
-736.1626125686344
 30
0.0
 11
-73.04710297009038
 21
-737.7540877722786
 31
0.0
  0
LINE
  5
A1
330
4F
100
AcDbEntity
  8
0
  6
Continuous
 62
     7
100
AcDbLine
 10
-84.94572296573565
 20
-738.441214941191
 30
0.0
 11
-73.36010652882501
 21
-740.0326901448352
 31
0.0
  0
LINE
  5
A2
330
4F
100
AcDbEntity
  8
0
  6
Continuous
 62
     7
100
AcDbLine
 10
-84.94572296573565
 20
-738.441214941191
 30
0.0
 11
-84.63271940700102
 21
-736.1626125686344
 31
0.0
  0
LINE
  5
A3
330
4F
100
AcDbEntity
  8
0
  6
Continuous
 62
     7
100
AcDbLine
 10
-65.2622711115047
 20
-713.2252538429202
 30
0.0
 11
-64.86221078750273
 21
-713.5358137102048
 31
0.0
  0
LINE
  5
A4
330
4F
100
AcDbEntity
  8
0
  6
Continuous
 62
     7
100
AcDbLine
 10
-65.2622711115047
 20
-713.2252538429202
 30
0.0
 11
-65.74225205400322
 21
-712.8526529903575
 31
0.0
  0
LINE
  5
A5
330
4F
100
AcDbEntity
  8
0
  6
Continuous
 62
     7
100
AcDbLine
 10
-79.33162335330886
 20
-716.8136880560742
 30
0.0
 11
-68.5526813159278
 21
-721.3495132402968
 31
0.0
  0
LINE
  5
A6
330
4F
100
AcDbEntity
  8
0
  6
Continuous
 62
     7
100
AcDbLine
 10
-67.66059740459346
 20
-719.2295636429881
 30
0.0
 11
-57.20179811963785
 21
-723.6306713796221
 31
0.0
  0
LINE
  5
A7
330
4F
100
AcDbEntity
  8
0
  6
Continuous
 62
     7
100
AcDbLine
 10
-79.33162335330886
 20
-716.8136880560742
 30
0.0
 11
-78.43953944197452
 21
-714.6937384587654
 31
0.0
  0
LINE
  5
A8
330
4F
100
AcDbEntity
  8
0
  6
Continuous
 62
     7
100
AcDbLine
 10
37.44384316709225
 20
-698.8389273260727
 30
0.0
 11
34.73110996701403
 21
-702.3334449289068
 31
0.0
  0
LINE
  5
A9
330
4F
100
AcDbEntity
  8
0
  6
Continuous
 62
     7
100
AcDbLine
 10
46.21874899842701
 20
-691.2859637061665
 30
0.0
 11
39.26066892748245
 21
-700.249297545688
 31
0.0
  0
LINE
  5
AA
330
4F
100
AcDbEntity
  8
0
  6
Continuous
 62
     7
100
AcDbLine
 10
54.05557642151221
 20
-698.5585740287897
 30
0.0
 11
54.36613636706429
 21
-698.1585136039648
 31
0.0
  0
LINE
  5
AB
330
4F
100
AcDbEntity
  8
0
  6
Continuous
 62
     7
100
AcDbLine
 10
54.73873731211538
 20
-697.6785325423261
 30
0.0
 11
54.36613636706429
 21
-698.1585136039648
 31
0.0
  0
LINE
  5
AC
330
4F
100
AcDbEntity
  8
0
  6
Continuous
 62
     7
100
AcDbLine
 10
34.73110996701403
 20
-702.3334449289068
 30
0.0
 11
33.54647608962373
 21
-703.8594792390031
 31
0.0
  0
LINE
  5
AD
330
4F
100
AcDbEntity
  8
0
  6
Continuous
 62
     7
100
AcDbLine
 10
43.28767279188728
 20
-744.6562475941173
 30
0.0
 11
44.88027008616232
 21
-744.4556647976351
 31
0.0
  0
LINE
  5
AE
330
4F
100
AcDbEntity
  8
0
  6
Continuous
 62
     7
100
AcDbLine
 10
40.70160665514673
 20
-733.5988531295334
 30
0.0
 11
42.18802286471223
 21
-732.9929105151641
 31
0.0
  0
LINE
  5
AF
330
4F
100
AcDbEntity
  8
0
  6
Continuous
 62
     7
100
AcDbLine
 10
43.00026532275556
 20
-742.3742754324376
 30
0.0
 11
44.5928626170306
 21
-742.1736926359517
 31
0.0
  0
LINE
  5
B0
330
4F
100
AcDbEntity
  8
0
  6
Continuous
 62
     7
100
AcDbLine
 10
7.05709702153658
 20
-706.0253700069079
 30
0.0
 11
7.27554342903645
 21
-704.4351245016405
 31
0.0
  0
LINE
  5
B1
330
4F
100
AcDbEntity
  8
0
  6
Continuous
 62
     7
100
AcDbLine
 10
17.92611459590157
 20
-709.3144682689126
 30
0.0
 11
18.54870344572087
 21
-707.8349471558322
 31
0.0
  0
LINE
  5
B2
330
4F
100
AcDbEntity
  8
0
  6
Continuous
 62
     7
100
AcDbLine
 10
25.75667234556281
 20
-713.8942317555702
 30
0.0
 11
26.74097523645728
 21
-712.6262619535046
 31
0.0
  0
LINE
  5
B3
330
4F
100
AcDbEntity
  8
0
  6
Continuous
 62
     7
100
AcDbLine
 10
33.54647608962373
 20
-703.8594792390031
 30
0.0
 11
28.80048779864487
 21
-709.9732170828865
 31
0.0
  0
LINE
  5
B4
330
4F
100
AcDbEntity
  8
0
  6
Continuous
 62
     7
100
AcDbLine
 10
21.48265426646217
 20
-694.9327664139673
 30
0.0
 11
20.73335255252719
 21
-696.71340817483
 31
0.0
  0
LINE
  5
B5
330
4F
100
AcDbEntity
  8
0
  6
Continuous
 62
     7
100
AcDbLine
 10
20.73335255252719
 20
-696.71340817483
 30
0.0
 11
17.73143168176362
 21
-703.84717761094
 31
0.0
  0
LINE
  5
B6
330
4F
100
AcDbEntity
  8
0
  6
Continuous
 62
     7
100
AcDbLine
 10
22.85330214983592
 20
-697.6054920861643
 30
0.0
 11
19.85138127907599
 21
-704.7392615222743
 31
0.0
  0
LINE
  5
B7
330
4F
100
AcDbEntity
  8
0
  6
Continuous
 62
     7
100
AcDbLine
 10
-6.57482119303781
 20
-705.948861269364
 30
0.0
 11
-6.77540398952365
 21
-704.3562639750926
 31
0.0
  0
LINE
  5
B8
330
4F
100
AcDbEntity
  8
0
  6
Continuous
 62
     7
100
AcDbLine
 10
-4.29284903135444
 20
-705.6614538002323
 30
0.0
 11
-4.49343182784028
 21
-704.0688565059609
 31
0.0
  0
LINE
  5
B9
330
4F
100
AcDbEntity
  8
0
  6
Continuous
 62
     7
100
AcDbLine
 10
4.77849464897995
 20
-705.7123664481733
 30
0.0
 11
4.99694105647982
 21
-704.1221209429059
 31
0.0
  0
LINE
  5
BA
330
4F
100
AcDbEntity
  8
0
  6
Continuous
 62
     7
100
AcDbLine
 10
53.12427626681788
 20
-772.5517004892463
 30
0.0
 11
51.34363450595524
 21
-771.8023987753113
 31
0.0
  0
LINE
  5
BB
330
4F
100
AcDbEntity
  8
0
  6
Continuous
 62
     7
100
AcDbLine
 10
57.20182808628201
 20
-774.2675518379765
 30
0.0
 11
53.12427626681788
 21
-772.5517004892463
 31
0.0
  0
LINE
  5
BC
330
4F
100
AcDbEntity
  8
0
  6
Continuous
 62
     7
100
AcDbLine
 10
54.01636017815586
 20
-770.4317508919376
 30
0.0
 11
52.23571841728958
 21
-769.6824491780026
 31
0.0
  0
LINE
  5
BD
330
4F
100
AcDbEntity
  8
0
  6
Continuous
 62
     7
100
AcDbLine
 10
68.55271128257559
 20
-776.5487099772981
 30
0.0
 11
58.09391199761999
 21
-772.1476022406641
 31
0.0
  0
LINE
  5
BE
330
4F
100
AcDbEntity
  8
0
  6
Continuous
 62
     7
100
AcDbLine
 10
51.34363450595524
 20
-771.8023987753113
 30
0.0
 11
44.20986506984523
 21
-768.8004779045514
 31
0.0
  0
LINE
  5
BF
330
4F
100
AcDbEntity
  8
0
  6
Continuous
 62
     7
100
AcDbLine
 10
58.09391199761999
 20
-772.1476022406641
 30
0.0
 11
54.01636017815586
 21
-770.4317508919376
 31
0.0
  0
LINE
  5
C0
330
4F
100
AcDbEntity
  8
0
  6
Continuous
 62
     7
100
AcDbLine
 10
52.23571841728958
 20
-769.6824491780026
 30
0.0
 11
45.10194898117957
 21
-766.680528307239
 31
0.0
  0
LINE
  5
C1
330
4F
100
AcDbEntity
  8
0
  6
Continuous
 62
     7
100
AcDbLine
 10
45.08964735312006
 20
-782.4955727150991
 30
0.0
 11
38.975909509233
 21
-777.7495844241166
 31
0.0
  0
LINE
  5
C2
330
4F
100
AcDbEntity
  8
0
  6
Continuous
 62
     7
100
AcDbLine
 10
46.61568166321272
 20
-783.6802065924858
 30
0.0
 11
45.08964735312006
 21
-782.4955727150991
 31
0.0
  0
LINE
  5
C3
330
4F
100
AcDbEntity
  8
0
  6
Continuous
 62
     7
100
AcDbLine
 10
50.11019926605045
 20
-786.3929397925676
 30
0.0
 11
46.61568166321272
 21
-783.6802065924858
 31
0.0
  0
LINE
  5
C4
330
4F
100
AcDbEntity
  8
0
  6
Continuous
 62
     7
100
AcDbLine
 10
67.66062737124125
 20
-778.6686595746105
 30
0.0
 11
57.20182808628201
 21
-774.2675518379765
 31
0.0
  0
LINE
  5
C5
330
4F
100
AcDbEntity
  8
0
  6
Continuous
 62
     7
100
AcDbLine
 10
65.26230107815249
 20
-784.6729693746747
 30
0.0
 11
64.86224075414688
 21
-784.3624095073901
 31
0.0
  0
LINE
  5
C6
330
4F
100
AcDbEntity
  8
0
  6
Continuous
 62
     7
100
AcDbLine
 10
39.63465832320694
 20
-766.875211221377
 30
0.0
 11
41.11417943629099
 21
-767.4978000711963
 31
0.0
  0
LINE
  5
C7
330
4F
100
AcDbEntity
  8
0
  6
Continuous
 62
     7
100
AcDbLine
 10
35.05489483655297
 20
-774.7057689710346
 30
0.0
 11
36.32286463861497
 21
-775.6900718619327
 31
0.0
  0
LINE
  5
C8
330
4F
100
AcDbEntity
  8
0
  6
Continuous
 62
     7
100
AcDbLine
 10
42.92375658521528
 20
-756.006193647012
 30
0.0
 11
44.51400209048266
 21
-756.2246400545118
 31
0.0
  0
LINE
  5
C9
330
4F
100
AcDbEntity
  8
0
  6
Continuous
 62
     7
100
AcDbLine
 10
43.23676014394992
 20
-753.7275912744553
 30
0.0
 11
44.82700564921365
 21
-753.9460376819552
 31
0.0
  0
LINE
  5
CA
330
4F
100
AcDbEntity
  8
0
  6
Continuous
 62
     7
100
AcDbLine
 10
40.52674223454492
 20
-764.7552616240646
 30
0.0
 11
42.00626334762533
 21
-765.3778504738839
 31
0.0
  0
LINE
  5
CB
330
4F
100
AcDbEntity
  8
0
  6
Continuous
 62
     7
100
AcDbLine
 10
-17.4800728150632
 20
-709.1157520899142
 30
0.0
 11
-18.08601542943611
 21
-707.6293358803487
 31
0.0
  0
LINE
  5
CC
330
4F
100
AcDbEntity
  8
0
  6
Continuous
 62
     7
100
AcDbLine
 10
-38.71153031996177
 20
-699.8116808849991
 30
0.0
 11
-36.03819253342331
 21
-703.3364276518478
 31
0.0
  0
LINE
  5
CD
330
4F
100
AcDbEntity
  8
0
  6
Continuous
 62
     7
100
AcDbLine
 10
-36.03819253342331
 20
-703.3364276518478
 30
0.0
 11
-34.87076239044213
 21
-704.8756628516458
 31
0.0
  0
LINE
  5
CE
330
4F
100
AcDbEntity
  8
0
  6
Continuous
 62
     7
100
AcDbLine
 10
-36.87898819178113
 20
-698.4217926346537
 30
0.0
 11
-34.20565040524266
 21
-701.9465394015024
 31
0.0
  0
LINE
  5
CF
330
4F
100
AcDbEntity
  8
0
  6
Continuous
 62
     7
100
AcDbLine
 10
-34.20565040524266
 20
-701.9465394015024
 30
0.0
 11
-33.03822026226148
 21
-703.4857746013004
 31
0.0
  0
LINE
  5
D0
330
4F
100
AcDbEntity
  8
0
  6
Continuous
 62
     7
100
AcDbLine
 10
-27.19408534084246
 20
-714.9972205339363
 30
0.0
 11
-28.1640937852982
 21
-713.7182822173418
 31
0.0
  0
LINE
  5
D1
330
4F
100
AcDbEntity
  8
0
  6
Continuous
 62
     7
100
AcDbLine
 10
-33.64449465028624
 20
-721.3756284861702
 30
0.0
 11
-34.91246445235188
 21
-720.3913255952757
 31
0.0
  0
LINE
  5
D2
330
4F
100
AcDbEntity
  8
0
  6
Continuous
 62
     7
100
AcDbLine
 10
-52.63548736367843
 20
-681.4531992824523
 30
0.0
 11
-45.56856232549867
 21
-690.7708101378012
 31
0.0
  0
LINE
  5
D3
330
4F
100
AcDbEntity
  8
0
  6
Continuous
 62
     7
100
AcDbLine
 10
-52.63548736367843
 20
-681.4531992824523
 30
0.0
 11
-50.80294523549778
 21
-680.0633110321032
 31
0.0
  0
LINE
  5
D4
330
4F
100
AcDbEntity
  8
0
  6
Continuous
 62
     7
100
AcDbLine
 10
-15.350243495942
 20
-708.2475199369765
 30
0.0
 11
-15.95618611031127
 21
-706.761103727411
 31
0.0
  0
LINE
  5
D5
330
4F
100
AcDbEntity
  8
0
  6
Continuous
 62
     7
100
AcDbLine
 10
-50.80294523549778
 20
-680.0633110321032
 30
0.0
 11
-43.73602019731802
 21
-689.3809218874558
 31
0.0
  0
LINE
  5
D6
330
4F
100
AcDbEntity
  8
0
  6
Continuous
 62
     7
100
AcDbLine
 10
-43.73602019731802
 20
-689.3809218874558
 30
0.0
 11
-36.87898819178113
 21
-698.4217926346537
 31
0.0
  0
LINE
  5
D7
330
4F
100
AcDbEntity
  8
0
  6
Continuous
 62
     7
100
AcDbLine
 10
-45.56856232549867
 20
-690.7708101378012
 30
0.0
 11
-38.71153031996177
 21
-699.8116808849991
 31
0.0
  0
LINE
  5
D8
330
4F
100
AcDbEntity
  8
0
  6
Continuous
 62
     7
100
AcDbLine
 10
-34.87076239044213
 20
-704.8756628516458
 30
0.0
 11
-30.19369726941036
 21
-711.0422873039315
 31
0.0
  0
LINE
  5
D9
330
4F
100
AcDbEntity
  8
0
  6
Continuous
 62
     7
100
AcDbLine
 10
-25.36154321266545
 20
-713.607332283591
 30
0.0
 11
-26.33155165711755
 21
-712.3283939669964
 31
0.0
  0
LINE
  5
DA
330
4F
100
AcDbEntity
  8
0
  6
Continuous
 62
     7
100
AcDbLine
 10
-57.66313291930887
 20
-702.7303775936925
 30
0.0
 11
-48.69979907978736
 21
-709.6884576646407
 31
0.0
  0
LINE
  5
DB
330
4F
100
AcDbEntity
  8
0
  6
Continuous
 62
     7
100
AcDbLine
 10
-50.39052259668565
 20
-694.8935501706073
 30
0.0
 11
-50.79058302151056
 21
-694.5829902250589
 31
0.0
  0
LINE
  5
DC
330
4F
100
AcDbEntity
  8
0
  6
Continuous
 62
     7
100
AcDbLine
 10
-51.27056408314925
 20
-694.2103892800042
 30
0.0
 11
-50.79058302151056
 21
-694.5829902250589
 31
0.0
  0
LINE
  5
DD
330
4F
100
AcDbEntity
  8
0
  6
Continuous
 62
     7
100
AcDbLine
 10
-33.03822026226148
 20
-703.4857746013004
 30
0.0
 11
-28.36115514122971
 21
-709.6523990535861
 31
0.0
  0
LINE
  5
DE
330
4F
100
AcDbEntity
  8
0
  6
Continuous
 62
     7
100
AcDbLine
 10
-8.09240768325358
 20
-675.4935284623461
 30
0.0
 11
-6.67447914549225
 21
-686.751668204517
 31
0.0
  0
LINE
  5
DF
330
4F
100
AcDbEntity
  8
0
  6
Continuous
 62
     7
100
AcDbLine
 10
-10.37437984493331
 20
-675.7809359314742
 30
0.0
 11
-8.95645130717198
 21
-687.0390756736488
 31
0.0
  0
LINE
  5
E0
330
4F
100
AcDbEntity
  8
0
  6
Continuous
 62
     7
100
AcDbLine
 10
-8.95645130717198
 20
-687.0390756736488
 30
0.0
 11
-8.40364625455654
 21
-691.4282648089138
 31
0.0
  0
LINE
  5
E1
330
4F
100
AcDbEntity
  8
0
  6
Continuous
 62
     7
100
AcDbLine
 10
-6.12167409287681
 20
-691.1408573397821
 30
0.0
 11
-5.88026753181216
 21
-693.0575891966982
 31
0.0
  0
LINE
  5
E2
330
4F
100
AcDbEntity
  8
0
  6
Continuous
 62
     7
100
AcDbLine
 10
-6.67447914549225
 20
-686.751668204517
 30
0.0
 11
-6.12167409287681
 21
-691.1408573397821
 31
0.0
  0
LINE
  5
E3
330
4F
100
AcDbEntity
  8
0
  6
Continuous
 62
     7
100
AcDbLine
 10
-8.40364625455654
 20
-691.4282648089138
 30
0.0
 11
-8.16223969349189
 21
-693.34499666583
 31
0.0
  0
LINE
  5
E4
330
4F
100
AcDbEntity
  8
0
  6
Continuous
 62
     7
100
AcDbLine
 10
-9.55373886528209
 20
-663.8907782399401
 30
0.0
 11
-8.09240768325358
 21
-675.4935284623461
 31
0.0
  0
LINE
  5
E5
330
4F
100
AcDbEntity
  8
0
  6
Continuous
 62
     7
100
AcDbLine
 10
-11.83571102696183
 20
-664.1781857090718
 30
0.0
 11
-10.37437984493331
 21
-675.7809359314742
 31
0.0
  0
LINE
  5
E6
330
4F
100
AcDbEntity
  8
0
  6
Continuous
 62
     7
100
AcDbLine
 10
-11.83571102696183
 20
-664.1781857090718
 30
0.0
 11
-9.55373886528209
 21
-663.8907782399401
 31
0.0
  0
LINE
  5
E7
330
4F
100
AcDbEntity
  8
0
  6
Continuous
 62
     7
100
AcDbLine
 10
-43.67924716685698
 20
-713.5858247421056
 30
0.0
 11
-37.56550932296991
 21
-718.3318130330881
 31
0.0
  0
LINE
  5
E8
330
4F
100
AcDbEntity
  8
0
  6
Continuous
 62
     7
100
AcDbLine
 10
-26.82836895498362
 20
-680.0909398696458
 30
0.0
 11
-22.54493418282905
 21
-690.5984808924113
 31
0.0
  0
LINE
  5
E9
330
4F
100
AcDbEntity
  8
0
  6
Continuous
 62
     7
100
AcDbLine
 10
-28.95819827410846
 20
-680.9591720225835
 30
0.0
 11
-24.67476350195388
 21
-691.4667130453527
 31
0.0
  0
LINE
  5
EA
330
4F
100
AcDbEntity
  8
0
  6
Continuous
 62
     7
100
AcDbLine
 10
-20.14569222394598
 20
-696.4839757458358
 30
0.0
 11
-17.22403408455389
 21
-703.650991093833
 31
0.0
  0
LINE
  5
EB
330
4F
100
AcDbEntity
  8
0
  6
Continuous
 62
     7
100
AcDbLine
 10
-24.67476350195388
 20
-691.4667130453527
 30
0.0
 11
-23.00478908396431
 21
-695.5632677117283
 31
0.0
  0
LINE
  5
EC
330
4F
100
AcDbEntity
  8
0
  6
Continuous
 62
     7
100
AcDbLine
 10
-22.54493418282905
 20
-690.5984808924113
 30
0.0
 11
-20.87495976483947
 21
-694.6950355587869
 31
0.0
  0
LINE
  5
ED
330
4F
100
AcDbEntity
  8
0
  6
Continuous
 62
     7
100
AcDbLine
 10
-22.27552154307082
 20
-697.3522078987771
 30
0.0
 11
-19.35386340367872
 21
-704.5192232467707
 31
0.0
  0
LINE
  5
EE
330
4F
100
AcDbEntity
  8
0
  6
Continuous
 62
     7
100
AcDbLine
 10
-23.00478908396431
 20
-695.5632677117283
 30
0.0
 11
-22.27552154307082
 21
-697.3522078987771
 31
0.0
  0
LINE
  5
EF
330
4F
100
AcDbEntity
  8
0
  6
Continuous
 62
     7
100
AcDbLine
 10
-20.87495976483947
 20
-694.6950355587869
 30
0.0
 11
-20.14569222394598
 21
-696.4839757458358
 31
0.0
  0
LINE
  5
F0
330
4F
100
AcDbEntity
  8
0
  6
Continuous
 62
     7
100
AcDbLine
 10
-45.20528147694963
 20
-712.401190864719
 30
0.0
 11
-43.67924716685698
 21
-713.5858247421056
 31
0.0
  0
LINE
  5
F1
330
4F
100
AcDbEntity
  8
0
  6
Continuous
 62
     7
100
AcDbLine
 10
-48.69979907978736
 20
-709.6884576646407
 30
0.0
 11
-45.20528147694963
 21
-712.401190864719
 31
0.0
  0
LINE
  5
F2
330
4F
100
AcDbEntity
  8
0
  6
Continuous
 62
     7
100
AcDbLine
 10
-31.24291921759245
 20
-669.2617641149554
 30
0.0
 11
-26.82836895498362
 21
-680.0909398696458
 31
0.0
  0
LINE
  5
F3
330
4F
100
AcDbEntity
  8
0
  6
Continuous
 62
     7
100
AcDbLine
 10
-33.37274853671729
 20
-670.1299962678931
 30
0.0
 11
-28.95819827410846
 21
-680.9591720225835
 31
0.0
  0
LINE
  5
F4
330
4F
100
AcDbEntity
  8
0
  6
Continuous
 62
     7
100
AcDbLine
 10
-33.37274853671729
 20
-670.1299962678931
 30
0.0
 11
-31.24291921759245
 21
-669.2617641149554
 31
0.0
  0
LINE
  5
F5
330
4F
100
AcDbEntity
  8
0
  6
Continuous
 62
     7
100
AcDbLine
 10
84.9457529323798
 20
-759.4570082764076
 30
0.0
 11
73.36013649546916
 21
-757.8655330727634
 31
0.0
  0
LINE
  5
F6
330
4F
100
AcDbEntity
  8
0
  6
Continuous
 62
     7
100
AcDbLine
 10
73.16819066064531
 20
-738.5747167805421
 30
0.0
 11
61.91005091847442
 21
-739.9926453183034
 31
0.0
  0
LINE
  5
F7
330
4F
100
AcDbEntity
  8
0
  6
Continuous
 62
     7
100
AcDbLine
 10
73.45559812977703
 20
-740.8566889422218
 30
0.0
 11
62.1974583876025
 21
-742.2746174799831
 31
0.0
  0
LINE
  5
F8
330
4F
100
AcDbEntity
  8
0
  6
Continuous
 62
     7
100
AcDbLine
 10
84.7709408830477
 20
-737.1133855985136
 30
0.0
 11
73.16819066064531
 21
-738.5747167805421
 31
0.0
  0
LINE
  5
F9
330
4F
100
AcDbEntity
  8
0
  6
Continuous
 62
     7
100
AcDbLine
 10
85.05834835217942
 20
-739.3953577601933
 30
0.0
 11
73.45559812977703
 21
-740.8566889422218
 31
0.0
  0
LINE
  5
FA
330
4F
100
AcDbEntity
  8
0
  6
Continuous
 62
     7
100
AcDbLine
 10
84.7709408830477
 20
-737.1133855985136
 30
0.0
 11
85.05834835217942
 21
-739.3953577601933
 31
0.0
  0
LINE
  5
FB
330
4F
100
AcDbEntity
  8
0
  6
Continuous
 62
     7
100
AcDbLine
 10
73.36013649546916
 20
-757.8655330727634
 30
0.0
 11
62.11862165236639
 21
-756.3213258895194
 31
0.0
  0
LINE
  5
FC
330
4F
100
AcDbEntity
  8
0
  6
Continuous
 62
     7
100
AcDbLine
 10
35.36330185001393
 20
-705.2698494586184
 30
0.0
 11
30.61731355903508
 21
-711.3835873025055
 31
0.0
  0
LINE
  5
FD
330
4F
100
AcDbEntity
  8
0
  6
Continuous
 62
     7
100
AcDbLine
 10
62.1974583876025
 20
-742.2746174799831
 30
0.0
 11
57.80826925233746
 21
-742.8274225325986
 31
0.0
  0
LINE
  5
FE
330
4F
100
AcDbEntity
  8
0
  6
Continuous
 62
     7
100
AcDbLine
 10
57.52086178320574
 20
-740.5454503709188
 30
0.0
 11
55.60412992628958
 21
-740.7868569319835
 31
0.0
  0
LINE
  5
FF
330
4F
100
AcDbEntity
  8
0
  6
Continuous
 62
     7
100
AcDbLine
 10
51.59691869334606
 20
-726.6735750824046
 30
0.0
 11
44.42990334534884
 21
-729.5952332217967
 31
0.0
  0
LINE
  5
100
330
4F
100
AcDbEntity
  8
0
  6
Continuous
 62
     7
100
AcDbLine
 10
57.80826925233746
 20
-742.8274225325986
 30
0.0
 11
55.8915373954213
 21
-743.0688290936632
 31
0.0
  0
LINE
  5
101
330
4F
100
AcDbEntity
  8
0
  6
Continuous
 62
     7
100
AcDbLine
 10
59.56820470466378
 20
-705.2130764281537
 30
0.0
 11
50.5273339574695
 21
-712.0701084336943
 31
0.0
  0
LINE
  5
102
330
4F
100
AcDbEntity
  8
0
  6
Continuous
 62
     7
100
AcDbLine
 10
33.95190605818321
 20
-721.7550112846329
 30
0.0
 11
35.23084437477778
 21
-720.7850028401772
 31
0.0
  0
LINE
  5
103
330
4F
100
AcDbEntity
  8
0
  6
Continuous
 62
     7
100
AcDbLine
 10
39.83337450220538
 20
-731.4690238104085
 30
0.0
 11
41.31979071177089
 21
-730.8630811960393
 31
0.0
  0
LINE
  5
104
330
4F
100
AcDbEntity
  8
0
  6
Continuous
 62
     7
100
AcDbLine
 10
35.3417943085286
 20
-723.5875534128099
 30
0.0
 11
36.62073262512318
 21
-722.6175449683542
 31
0.0
  0
LINE
  5
105
330
4F
100
AcDbEntity
  8
0
  6
Continuous
 62
     7
100
AcDbLine
 10
27.57349810594938
 20
-715.3046019751855
 30
0.0
 11
28.55780099684748
 21
-714.0366321731235
 31
0.0
  0
LINE
  5
106
330
4F
100
AcDbEntity
  8
0
  6
Continuous
 62
     7
100
AcDbLine
 10
52.46515084628377
 20
-728.8034044015294
 30
0.0
 11
45.29813549828655
 21
-731.7250625409215
 31
0.0
  0
LINE
  5
107
330
4F
100
AcDbEntity
  8
0
  6
Continuous
 62
     7
100
AcDbLine
 10
61.91005091847442
 20
-739.9926453183034
 30
0.0
 11
57.52086178320574
 21
-740.5454503709188
 31
0.0
  0
LINE
  5
108
330
4F
100
AcDbEntity
  8
0
  6
Continuous
 62
     7
100
AcDbLine
 10
57.48241354677052
 20
-724.2743331235215
 30
0.0
 11
53.38585888039493
 21
-725.9443075415111
 31
0.0
  0
LINE
  5
109
330
4F
100
AcDbEntity
  8
0
  6
Continuous
 62
     7
100
AcDbLine
 10
49.13744570712047
 20
-710.2375663055136
 30
0.0
 11
45.61269894027542
 21
-712.9109040920521
 31
0.0
  0
LINE
  5
10A
330
4F
100
AcDbEntity
  8
0
  6
Continuous
 62
     7
100
AcDbLine
 10
39.26066892748245
 20
-700.249297545688
 30
0.0
 11
36.54793572740423
 21
-703.7438151485258
 31
0.0
  0
LINE
  5
10B
330
4F
100
AcDbEntity
  8
0
  6
Continuous
 62
     7
100
AcDbLine
 10
50.5273339574695
 20
-712.0701084336943
 30
0.0
 11
47.00258719062081
 21
-714.7434462202327
 31
0.0
  0
LINE
  5
10C
330
4F
100
AcDbEntity
  8
0
  6
Continuous
 62
     7
100
AcDbLine
 10
36.54793572740423
 20
-703.7438151485258
 30
0.0
 11
35.36330185001393
 21
-705.2698494586184
 31
0.0
  0
LINE
  5
10D
330
4F
100
AcDbEntity
  8
0
  6
Continuous
 62
     7
100
AcDbLine
 10
47.00258719062081
 20
-714.7434462202327
 30
0.0
 11
45.46335199082282
 21
-715.9108763632139
 31
0.0
  0
LINE
  5
10E
330
4F
100
AcDbEntity
  8
0
  6
Continuous
 62
     7
100
AcDbLine
 10
45.61269894027542
 20
-712.9109040920521
 30
0.0
 11
44.07346374047743
 21
-714.0783342350333
 31
0.0
  0
LINE
  5
10F
330
4F
100
AcDbEntity
  8
0
  6
Continuous
 62
     7
100
AcDbLine
 10
44.07346374047743
 20
-714.0783342350333
 30
0.0
 11
37.90683928819167
 21
-718.755399356065
 31
0.0
  0
LINE
  5
110
330
4F
100
AcDbEntity
  8
0
  6
Continuous
 62
     7
100
AcDbLine
 10
45.46335199082282
 20
-715.9108763632139
 30
0.0
 11
39.29672753853706
 21
-720.5879414842457
 31
0.0
  0
LINE
  5
111
330
4F
100
AcDbEntity
  8
0
  6
Continuous
 62
     7
100
AcDbLine
 10
53.38585888039493
 20
-725.9443075415111
 30
0.0
 11
51.59691869334606
 21
-726.6735750824046
 31
0.0
  0
LINE
  5
112
330
4F
100
AcDbEntity
  8
0
  6
Continuous
 62
     7
100
AcDbLine
 10
54.25409103333264
 20
-728.0741368606359
 30
0.0
 11
52.46515084628377
 21
-728.8034044015294
 31
0.0
  0
LINE
  5
113
330
4F
100
AcDbEntity
  8
0
  6
Continuous
 62
     7
100
AcDbLine
 10
79.68736247716774
 20
-717.7061774078829
 30
0.0
 11
68.85818672247737
 21
-722.1207276704918
 31
0.0
  0
LINE
  5
114
330
4F
100
AcDbEntity
  8
0
  6
Continuous
 62
     7
100
AcDbLine
 10
68.85818672247737
 20
-722.1207276704918
 30
0.0
 11
58.35064569970823
 21
-726.4041624426463
 31
0.0
  0
LINE
  5
115
330
4F
100
AcDbEntity
  8
0
  6
Continuous
 62
     7
100
AcDbLine
 10
58.35064569970823
 20
-726.4041624426463
 30
0.0
 11
54.25409103333264
 21
-728.0741368606359
 31
0.0
  0
LINE
  5
116
330
4F
100
AcDbEntity
  8
0
  6
Continuous
 62
     7
100
AcDbLine
 10
67.98995456953966
 20
-719.9908983513669
 30
0.0
 11
57.48241354677052
 21
-724.2743331235215
 31
0.0
  0
LINE
  5
117
330
4F
100
AcDbEntity
  8
0
  6
Continuous
 62
     7
100
AcDbLine
 10
78.81913032422639
 20
-715.5763480887581
 30
0.0
 11
79.68736247716774
 21
-717.7061774078829
 31
0.0
  0
LINE
  5
118
330
4F
100
AcDbEntity
  8
0
  6
Continuous
 62
     7
100
AcDbLine
 10
78.81913032422639
 20
-715.5763480887581
 30
0.0
 11
67.98995456953966
 21
-719.9908983513669
 31
0.0
  0
LINE
  5
119
330
4F
100
AcDbEntity
  8
0
  6
Continuous
 62
     7
100
AcDbLine
 10
55.60412992628958
 20
-740.7868569319835
 30
0.0
 11
47.92514393449788
 21
-741.7540019158077
 31
0.0
  0
LINE
  5
11A
330
4F
100
AcDbEntity
  8
0
  6
Continuous
 62
     7
100
AcDbLine
 10
55.8915373954213
 20
-743.0688290936632
 30
0.0
 11
48.2125514036296
 21
-744.0359740774875
 31
0.0
  0
LINE
  5
11B
330
4F
100
AcDbEntity
  8
0
  6
Continuous
 62
     7
100
AcDbLine
 10
-8.16223969349189
 20
-693.34499666583
 30
0.0
 11
-7.19509470966764
 21
-701.0239826576217
 31
0.0
  0
LINE
  5
11C
330
4F
100
AcDbEntity
  8
0
  6
Continuous
 62
     7
100
AcDbLine
 10
-5.88026753181216
 20
-693.0575891966982
 30
0.0
 11
-4.9131225479879
 21
-700.7365751884936
 31
0.0
  0
LINE
  5
11D
330
4F
100
AcDbEntity
  8
0
  6
Continuous
 62
     7
100
AcDbLine
 10
6.5072863235499
 20
-693.1271139761011
 30
0.0
 11
5.45400881943974
 21
-700.7947604064757
 31
0.0
  0
LINE
  5
11E
330
4F
100
AcDbEntity
  8
0
  6
Continuous
 62
     7
100
AcDbLine
 10
8.78588869610653
 20
-693.4401175348357
 30
0.0
 11
7.73261119199638
 21
-701.1077639652103
 31
0.0
  0
LINE
  5
11F
330
4F
100
AcDbEntity
  8
0
  6
Continuous
 62
     7
100
AcDbLine
 10
15.80616499859284
 20
-708.4223843575783
 30
0.0
 11
16.4287538484085
 21
-706.9428632444942
 31
0.0
  0
LINE
  5
120
330
4F
100
AcDbEntity
  8
0
  6
Continuous
 62
     7
100
AcDbLine
 10
67.49592730967092
 20
-696.313609261797
 30
0.0
 11
58.17831645431838
 21
-703.3805342999767
 31
0.0
  0
LINE
  5
121
330
4F
100
AcDbEntity
  8
0
  6
Continuous
 62
     7
100
AcDbLine
 10
68.88581556001631
 20
-698.1461513899776
 30
0.0
 11
59.56820470466378
 21
-705.2130764281537
 31
0.0
  0
LINE
  5
122
330
4F
100
AcDbEntity
  8
0
  6
Continuous
 62
     7
100
AcDbLine
 10
67.49592730967092
 20
-696.313609261797
 30
0.0
 11
68.88581556001631
 21
-698.1461513899776
 31
0.0
  0
LINE
  5
123
330
4F
100
AcDbEntity
  8
0
  6
Continuous
 62
     7
100
AcDbLine
 10
58.17831645431838
 20
-703.3805342999767
 30
0.0
 11
49.13744570712047
 21
-710.2375663055136
 31
0.0
  0
LINE
  5
124
330
4F
100
AcDbEntity
  8
0
  6
Continuous
 62
     7
100
AcDbLine
 10
44.40192323804045
 20
-689.8755934865476
 30
0.0
 11
37.44384316709225
 21
-698.8389273260727
 31
0.0
  0
LINE
  5
125
330
4F
100
AcDbEntity
  8
0
  6
Continuous
 62
     7
100
AcDbLine
 10
9.04879457305911
 20
-691.5262161165556
 30
0.0
 11
8.78588869610653
 21
-693.4401175348357
 31
0.0
  0
LINE
  5
126
330
4F
100
AcDbEntity
  8
0
  6
Continuous
 62
     7
100
AcDbLine
 10
7.37222926404397
 20
-686.8305049397532
 30
0.0
 11
6.77019220050247
 21
-691.213212557821
 31
0.0
  0
LINE
  5
127
330
4F
100
AcDbEntity
  8
0
  6
Continuous
 62
     7
100
AcDbLine
 10
9.65083163660061
 20
-687.1435084984878
 30
0.0
 11
9.04879457305911
 21
-691.5262161165556
 31
0.0
  0
LINE
  5
128
330
4F
100
AcDbEntity
  8
0
  6
Continuous
 62
     7
100
AcDbLine
 10
8.91643644728797
 20
-675.5889900966504
 30
0.0
 11
7.37222926404397
 21
-686.8305049397532
 31
0.0
  0
LINE
  5
129
330
4F
100
AcDbEntity
  8
0
  6
Continuous
 62
     7
100
AcDbLine
 10
11.19503881984461
 20
-675.901993655385
 30
0.0
 11
9.65083163660061
 21
-687.1435084984878
 31
0.0
  0
LINE
  5
12A
330
4F
100
AcDbEntity
  8
0
  6
Continuous
 62
     7
100
AcDbLine
 10
12.78651402348883
 20
-664.3163772184744
 30
0.0
 11
11.19503881984461
 21
-675.901993655385
 31
0.0
  0
LINE
  5
12B
330
4F
100
AcDbEntity
  8
0
  6
Continuous
 62
     7
100
AcDbLine
 10
10.50791165093219
 20
-664.0033736597397
 30
0.0
 11
8.91643644728797
 21
-675.5889900966504
 31
0.0
  0
LINE
  5
12C
330
4F
100
AcDbEntity
  8
0
  6
Continuous
 62
     7
100
AcDbLine
 10
10.50791165093219
 20
-664.0033736597397
 30
0.0
 11
12.78651402348883
 21
-664.3163772184744
 31
0.0
  0
LINE
  5
12D
330
4F
100
AcDbEntity
  8
0
  6
Continuous
 62
     7
100
AcDbLine
 10
6.77019220050247
 20
-691.213212557821
 30
0.0
 11
6.5072863235499
 21
-693.1271139761011
 31
0.0
  0
LINE
  5
12E
330
4F
100
AcDbEntity
  8
0
  6
Continuous
 62
     7
100
AcDbLine
 10
32.13543853604538
 20
-669.6174732721665
 30
0.0
 11
27.59961335182275
 21
-680.3964153095476
 31
0.0
  0
LINE
  5
12F
330
4F
100
AcDbEntity
  8
0
  6
Continuous
 62
     7
100
AcDbLine
 10
32.13543853604538
 20
-669.6174732721665
 30
0.0
 11
34.25538813335775
 21
-670.5095571835009
 31
0.0
  0
LINE
  5
130
330
4F
100
AcDbEntity
  8
0
  6
Continuous
 62
     7
100
AcDbLine
 10
34.25538813335775
 20
-670.5095571835009
 30
0.0
 11
29.71956294913512
 21
-681.2884992208819
 31
0.0
  0
LINE
  5
131
330
4F
100
AcDbEntity
  8
0
  6
Continuous
 62
     7
100
AcDbLine
 10
27.59961335182275
 20
-680.3964153095476
 30
0.0
 11
23.19850561518874
 21
-690.8552145945032
 31
0.0
  0
LINE
  5
132
330
4F
100
AcDbEntity
  8
0
  6
Continuous
 62
     7
100
AcDbLine
 10
29.71956294913512
 20
-681.2884992208819
 30
0.0
 11
25.31845521250111
 21
-691.7472985058375
 31
0.0
  0
LINE
  5
133
330
4F
100
AcDbEntity
  8
0
  6
Continuous
 62
     7
100
AcDbLine
 10
23.6026038637709
 20
-695.8248503253017
 30
0.0
 11
22.85330214983592
 21
-697.6054920861643
 31
0.0
  0
LINE
  5
134
330
4F
100
AcDbEntity
  8
0
  6
Continuous
 62
     7
100
AcDbLine
 10
25.31845521250111
 20
-691.7472985058375
 30
0.0
 11
23.6026038637709
 21
-695.8248503253017
 31
0.0
  0
LINE
  5
135
330
4F
100
AcDbEntity
  8
0
  6
Continuous
 62
     7
100
AcDbLine
 10
23.19850561518874
 20
-690.8552145945032
 30
0.0
 11
21.48265426646217
 21
-694.9327664139673
 31
0.0
  0
LINE
  5
136
330
4F
100
AcDbEntity
  8
0
  6
Continuous
 62
     7
100
AcDbLine
 10
35.72387274920298
 20
-683.686825513967
 30
0.0
 11
35.41331288191837
 21
-684.0868858379727
 31
0.0
  0
LINE
  5
137
330
4F
100
AcDbEntity
  8
0
  6
Continuous
 62
     7
100
AcDbLine
 10
35.72387274920298
 20
-683.686825513967
 30
0.0
 11
36.09647360176573
 21
-683.2068445714722
 31
0.0
  0
LINE
  5
138
330
4F
100
AcDbEntity
  8
0
  6
Continuous
 62
     7
100
AcDbLine
 10
65.26230107815249
 20
-784.6729693746747
 30
0.0
 11
65.742282020651
 21
-785.0455702272411
 31
0.0
  0
LINE
  5
139
330
4F
100
AcDbEntity
  8
0
  6
Continuous
 62
     7
100
AcDbLine
 10
50.39055256332981
 20
-803.0046730469876
 30
0.0
 11
50.79061298815473
 21
-803.315232992536
 31
0.0
  0
LINE
  5
13A
330
4F
100
AcDbEntity
  8
0
  6
Continuous
 62
     7
100
AcDbLine
 10
51.27059404979705
 20
-803.6878339375908
 30
0.0
 11
50.79061298815473
 21
-803.315232992536
 31
0.0
  0
LINE
  5
13B
330
4F
100
AcDbEntity
  8
0
  6
Continuous
 62
     7
100
AcDbLine
 10
-35.72384278255517
 20
-814.2113977036279
 30
0.0
 11
-35.41328291527056
 21
-813.8113373796223
 31
0.0
  0
LINE
  5
13C
330
4F
100
AcDbEntity
  8
0
  6
Continuous
 62
     7
100
AcDbLine
 10
-35.72384278255517
 20
-814.2113977036279
 30
0.0
 11
-36.09644363511793
 21
-814.6913786461228
 31
0.0
  0
LINE
  5
13D
330
4F
100
AcDbEntity
  8
0
  6
Continuous
 62
     7
100
AcDbLine
 10
-54.05554645486441
 20
-799.3396491888052
 30
0.0
 11
-54.36610640041649
 21
-799.7397096136301
 31
0.0
  0
LINE
  5
13E
330
4F
100
AcDbEntity
  8
0
  6
Continuous
 62
     7
100
AcDbLine
 10
-54.73870734546758
 20
-800.2196906752688
 30
0.0
 11
-54.36610640041649
 21
-799.7397096136301
 31
0.0
  0
LINE
  5
13F
330
4F
100
AcDbEntity
  8
0
  6
Continuous
 62
     7
100
AcDbLine
 10
-46.21871903178285
 20
-806.6122595114321
 30
0.0
 11
-39.26063896083465
 21
-797.6489256719069
 31
0.0
  0
LINE
  5
140
330
4F
100
AcDbEntity
  8
0
  6
Continuous
 62
     7
100
AcDbLine
 10
-44.40189327139265
 20
-808.0226297310473
 30
0.0
 11
-37.44381320044445
 21
-799.0592958915258
 31
0.0
  0
LINE
  5
141
330
4F
100
AcDbEntity
  8
0
  6
Continuous
 62
     7
100
AcDbLine
 10
-78.81910035758224
 20
-782.3218751288368
 30
0.0
 11
-67.98992460289188
 21
-777.907324866228
 31
0.0
  0
LINE
  5
142
330
4F
100
AcDbEntity
  8
0
  6
Continuous
 62
     7
100
AcDbLine
 10
-79.68733251051995
 20
-780.192045809712
 30
0.0
 11
-68.85815675582958
 21
-775.7774955471068
 31
0.0
  0
LINE
  5
143
330
4F
100
AcDbEntity
  8
0
  6
Continuous
 62
     7
100
AcDbLine
 10
-78.81910035758224
 20
-782.3218751288368
 30
0.0
 11
-79.68733251051995
 21
-780.192045809712
 31
0.0
  0
LINE
  5
144
330
4F
100
AcDbEntity
  8
0
  6
Continuous
 62
     7
100
AcDbLine
 10
-27.59958338517858
 20
-817.501807908051
 30
0.0
 11
-23.19847564854458
 21
-807.0430086230954
 31
0.0
  0
LINE
  5
145
330
4F
100
AcDbEntity
  8
0
  6
Continuous
 62
     7
100
AcDbLine
 10
-58.17828648767058
 20
-794.5176889176182
 30
0.0
 11
-49.13741574047631
 21
-787.6606569120813
 31
0.0
  0
LINE
  5
146
330
4F
100
AcDbEntity
  8
0
  6
Continuous
 62
     7
100
AcDbLine
 10
-59.56817473801598
 20
-792.6851467894412
 30
0.0
 11
-50.5273039908217
 21
-785.8281147839043
 31
0.0
  0
LINE
  5
147
330
4F
100
AcDbEntity
  8
0
  6
Continuous
 62
     7
100
AcDbLine
 10
-37.44381320044445
 20
-799.0592958915258
 30
0.0
 11
-34.73108000036623
 21
-795.5647782886881
 31
0.0
  0
LINE
  5
148
330
4F
100
AcDbEntity
  8
0
  6
Continuous
 62
     7
100
AcDbLine
 10
-39.26063896083465
 20
-797.6489256719069
 30
0.0
 11
-36.54790576075643
 21
-794.1544080690692
 31
0.0
  0
LINE
  5
149
330
4F
100
AcDbEntity
  8
0
  6
Continuous
 62
     7
100
AcDbLine
 10
-12.78648405684103
 20
-833.5818459991206
 30
0.0
 11
-11.1950088531968
 21
-821.9962295622099
 31
0.0
  0
LINE
  5
14A
330
4F
100
AcDbEntity
  8
0
  6
Continuous
 62
     7
100
AcDbLine
 10
-10.50788168428439
 20
-833.8948495578552
 30
0.0
 11
-12.78648405684103
 21
-833.5818459991206
 31
0.0
  0
LINE
  5
14B
330
4F
100
AcDbEntity
  8
0
  6
Continuous
 62
     7
100
AcDbLine
 10
-10.50788168428439
 20
-833.8948495578552
 30
0.0
 11
-8.91640648064017
 21
-822.3092331209446
 31
0.0
  0
LINE
  5
14C
330
4F
100
AcDbEntity
  8
0
  6
Continuous
 62
     7
100
AcDbLine
 10
8.40367622120434
 20
-806.4699584086811
 30
0.0
 11
8.16226966013969
 21
-804.553226551765
 31
0.0
  0
LINE
  5
14D
330
4F
100
AcDbEntity
  8
0
  6
Continuous
 62
     7
100
AcDbLine
 10
28.95822824075626
 20
-816.9390511950114
 30
0.0
 11
24.67479346859805
 21
-806.4315101722459
 31
0.0
  0
LINE
  5
14E
330
4F
100
AcDbEntity
  8
0
  6
Continuous
 62
     7
100
AcDbLine
 10
15.35027346258617
 20
-789.6507032806221
 30
0.0
 11
15.95621607695907
 21
-791.1371194901876
 31
0.0
  0
LINE
  5
14F
330
4F
100
AcDbEntity
  8
0
  6
Continuous
 62
     7
100
AcDbLine
 10
-55.82198264937428
 20
-742.4418402685733
 30
0.0
 11
-48.1543362189997
 21
-743.4951177726834
 31
0.0
  0
LINE
  5
150
330
4F
100
AcDbEntity
  8
0
  6
Continuous
 62
     7
100
AcDbLine
 10
-55.50897909063965
 20
-740.1632378960167
 30
0.0
 11
-47.84133266026506
 21
-741.2165154001268
 31
0.0
  0
LINE
  5
151
330
4F
100
AcDbEntity
  8
0
  6
Continuous
 62
     7
100
AcDbLine
 10
6.57485115968198
 20
-791.949361948231
 30
0.0
 11
6.77543395616781
 21
-793.541959242506
 31
0.0
  0
LINE
  5
152
330
4F
100
AcDbEntity
  8
0
  6
Continuous
 62
     7
100
AcDbLine
 10
8.16226966013969
 20
-804.553226551765
 30
0.0
 11
7.19512467631544
 21
-796.8742405599733
 31
0.0
  0
LINE
  5
153
330
4F
100
AcDbEntity
  8
0
  6
Continuous
 62
     7
100
AcDbLine
 10
4.29287899800224
 20
-792.2367694173627
 30
0.0
 11
4.49346179448808
 21
-793.8293667116377
 31
0.0
  0
LINE
  5
154
330
4F
100
AcDbEntity
  8
0
  6
Continuous
 62
     7
100
AcDbLine
 10
20.14572219059378
 20
-801.4142474717592
 30
0.0
 11
17.22406405119805
 21
-794.2472321237619
 31
0.0
  0
LINE
  5
155
330
4F
100
AcDbEntity
  8
0
  6
Continuous
 62
     7
100
AcDbLine
 10
20.87498973148727
 20
-803.203187658808
 30
0.0
 11
20.14572219059378
 21
-801.4142474717592
 31
0.0
  0
LINE
  5
156
330
4F
100
AcDbEntity
  8
0
  6
Continuous
 62
     7
100
AcDbLine
 10
22.54496414947321
 20
-807.2997423251836
 30
0.0
 11
20.87498973148727
 21
-803.203187658808
 31
0.0
  0
LINE
  5
157
330
4F
100
AcDbEntity
  8
0
  6
Continuous
 62
     7
100
AcDbLine
 10
24.67479346859805
 20
-806.4315101722459
 30
0.0
 11
23.00481905061211
 21
-802.3349555058667
 31
0.0
  0
LINE
  5
158
330
4F
100
AcDbEntity
  8
0
  6
Continuous
 62
     7
100
AcDbLine
 10
22.27555150971862
 20
-800.5460153188214
 30
0.0
 11
19.35389337032289
 21
-793.3789999708242
 31
0.0
  0
LINE
  5
159
330
4F
100
AcDbEntity
  8
0
  6
Continuous
 62
     7
100
AcDbLine
 10
23.00481905061211
 20
-802.3349555058667
 30
0.0
 11
22.27555150971862
 21
-800.5460153188214
 31
0.0
  0
LINE
  5
15A
330
4F
100
AcDbEntity
  8
0
  6
Continuous
 62
     7
100
AcDbLine
 10
26.82839892163143
 20
-817.8072833479528
 30
0.0
 11
22.54496414947321
 21
-807.2997423251836
 31
0.0
  0
LINE
  5
15B
330
4F
100
AcDbEntity
  8
0
  6
Continuous
 62
     7
100
AcDbLine
 10
-67.98992460289188
 20
-777.907324866228
 30
0.0
 11
-57.48238358012272
 21
-773.6238900940734
 31
0.0
  0
LINE
  5
15C
330
4F
100
AcDbEntity
  8
0
  6
Continuous
 62
     7
100
AcDbLine
 10
-4.77846468233215
 20
-792.1858567694253
 30
0.0
 11
-4.99691108983566
 21
-793.776102274689
 31
0.0
  0
LINE
  5
15D
330
4F
100
AcDbEntity
  8
0
  6
Continuous
 62
     7
100
AcDbLine
 10
6.67450911214005
 20
-811.1465550130779
 30
0.0
 11
6.12170405952461
 21
-806.7573658778128
 31
0.0
  0
LINE
  5
15E
330
4F
100
AcDbEntity
  8
0
  6
Continuous
 62
     7
100
AcDbLine
 10
10.37440981158111
 20
-822.1172872861207
 30
0.0
 11
8.95648127381978
 21
-810.8591475439462
 31
0.0
  0
LINE
  5
15F
330
4F
100
AcDbEntity
  8
0
  6
Continuous
 62
     7
100
AcDbLine
 10
8.09243764989774
 20
-822.4046947552524
 30
0.0
 11
6.67450911214005
 21
-811.1465550130779
 31
0.0
  0
LINE
  5
160
330
4F
100
AcDbEntity
  8
0
  6
Continuous
 62
     7
100
AcDbLine
 10
11.83574099360963
 20
-833.7200375085231
 30
0.0
 11
10.37440981158111
 21
-822.1172872861207
 31
0.0
  0
LINE
  5
161
330
4F
100
AcDbEntity
  8
0
  6
Continuous
 62
     7
100
AcDbLine
 10
11.83574099360963
 20
-833.7200375085231
 30
0.0
 11
9.55376883192626
 21
-834.0074449776548
 31
0.0
  0
LINE
  5
162
330
4F
100
AcDbEntity
  8
0
  6
Continuous
 62
     7
100
AcDbLine
 10
9.55376883192626
 20
-834.0074449776548
 30
0.0
 11
8.09243764989774
 21
-822.4046947552524
 31
0.0
  0
LINE
  5
163
330
4F
100
AcDbEntity
  8
0
  6
Continuous
 62
     7
100
AcDbLine
 10
-68.85815675582958
 20
-775.7774955471068
 30
0.0
 11
-58.35061573306407
 21
-771.4940607749486
 31
0.0
  0
LINE
  5
164
330
4F
100
AcDbEntity
  8
0
  6
Continuous
 62
     7
100
AcDbLine
 10
-49.13741574047631
 20
-787.6606569120813
 30
0.0
 11
-45.61266897362761
 21
-784.9873191255429
 31
0.0
  0
LINE
  5
165
330
4F
100
AcDbEntity
  8
0
  6
Continuous
 62
     7
100
AcDbLine
 10
-50.5273039908217
 20
-785.8281147839043
 30
0.0
 11
-47.00255722397301
 21
-783.1547769973622
 31
0.0
  0
LINE
  5
166
330
4F
100
AcDbEntity
  8
0
  6
Continuous
 62
     7
100
AcDbLine
 10
-34.73108000036623
 20
-795.5647782886881
 30
0.0
 11
-33.54644612297957
 21
-794.0387439785954
 31
0.0
  0
LINE
  5
167
330
4F
100
AcDbEntity
  8
0
  6
Continuous
 62
     7
100
AcDbLine
 10
-36.54790576075643
 20
-794.1544080690692
 30
0.0
 11
-35.36327188336977
 21
-792.6283737589765
 31
0.0
  0
LINE
  5
168
330
4F
100
AcDbEntity
  8
0
  6
Continuous
 62
     7
100
AcDbLine
 10
-25.31842524585331
 20
-806.1509247117574
 30
0.0
 11
-23.60257389712674
 21
-802.0733728922933
 31
0.0
  0
LINE
  5
169
330
4F
100
AcDbEntity
  8
0
  6
Continuous
 62
     7
100
AcDbLine
 10
-23.60257389712674
 20
-802.0733728922933
 30
0.0
 11
-22.85327218319176
 21
-800.2927311314306
 31
0.0
  0
LINE
  5
16A
330
4F
100
AcDbEntity
  8
0
  6
Continuous
 62
     7
100
AcDbLine
 10
-21.48262429981437
 20
-802.9654568036312
 30
0.0
 11
-20.73332258587939
 21
-801.184815042765
 31
0.0
  0
LINE
  5
16B
330
4F
100
AcDbEntity
  8
0
  6
Continuous
 62
     7
100
AcDbLine
 10
-23.19847564854458
 20
-807.0430086230954
 30
0.0
 11
-21.48262429981437
 21
-802.9654568036312
 31
0.0
  0
LINE
  5
16C
330
4F
100
AcDbEntity
  8
0
  6
Continuous
 62
     7
100
AcDbLine
 10
-45.61266897362761
 20
-784.9873191255429
 30
0.0
 11
-44.07343377382963
 21
-783.8198889825617
 31
0.0
  0
LINE
  5
16D
330
4F
100
AcDbEntity
  8
0
  6
Continuous
 62
     7
100
AcDbLine
 10
-58.35061573306407
 20
-771.4940607749486
 30
0.0
 11
-54.25406106668483
 21
-769.8240863569627
 31
0.0
  0
LINE
  5
16E
330
4F
100
AcDbEntity
  8
0
  6
Continuous
 62
     7
100
AcDbLine
 10
-22.85327218319176
 20
-800.2927311314306
 30
0.0
 11
-19.85135131242819
 21
-793.1589616953206
 31
0.0
  0
LINE
  5
16F
330
4F
100
AcDbEntity
  8
0
  6
Continuous
 62
     7
100
AcDbLine
 10
-20.73332258587939
 20
-801.184815042765
 30
0.0
 11
-17.73140171511945
 21
-794.051045606655
 31
0.0
  0
LINE
  5
170
330
4F
100
AcDbEntity
  8
0
  6
Continuous
 62
     7
100
AcDbLine
 10
-45.46332202417502
 20
-781.9873468543847
 30
0.0
 11
-39.29669757188926
 21
-777.3102817333529
 31
0.0
  0
LINE
  5
171
330
4F
100
AcDbEntity
  8
0
  6
Continuous
 62
     7
100
AcDbLine
 10
-39.83334453556122
 20
-766.4291994071864
 30
0.0
 11
-41.31976074512672
 21
-767.0351420215557
 31
0.0
  0
LINE
  5
172
330
4F
100
AcDbEntity
  8
0
  6
Continuous
 62
     7
100
AcDbLine
 10
-35.34176434188444
 20
-774.310669804785
 30
0.0
 11
-36.62070265847901
 21
-775.2806782492407
 31
0.0
  0
LINE
  5
173
330
4F
100
AcDbEntity
  8
0
  6
Continuous
 62
     7
100
AcDbLine
 10
-52.46512087963961
 20
-769.0948188160692
 30
0.0
 11
-45.29810553164239
 21
-766.1731606766734
 31
0.0
  0
LINE
  5
174
330
4F
100
AcDbEntity
  8
0
  6
Continuous
 62
     7
100
AcDbLine
 10
-33.95187609153904
 20
-776.1432119329656
 30
0.0
 11
-35.23081440813362
 21
-777.1132203774177
 31
0.0
  0
LINE
  5
175
330
4F
100
AcDbEntity
  8
0
  6
Continuous
 62
     7
100
AcDbLine
 10
-17.92608462925377
 20
-788.5837549486823
 30
0.0
 11
-18.54867347907307
 21
-790.0632760617664
 31
0.0
  0
LINE
  5
176
330
4F
100
AcDbEntity
  8
0
  6
Continuous
 62
     7
100
AcDbLine
 10
5.88029749845632
 20
-804.8406340208967
 30
0.0
 11
4.91315251463207
 21
-797.161648029105
 31
0.0
  0
LINE
  5
177
330
4F
100
AcDbEntity
  8
0
  6
Continuous
 62
     7
100
AcDbLine
 10
6.12170405952461
 20
-806.7573658778128
 30
0.0
 11
5.88029749845632
 21
-804.8406340208967
 31
0.0
  0
LINE
  5
178
330
4F
100
AcDbEntity
  8
0
  6
Continuous
 62
     7
100
AcDbLine
 10
8.95648127381978
 20
-810.8591475439462
 30
0.0
 11
8.40367622120434
 21
-806.4699584086811
 31
0.0
  0
LINE
  5
179
330
4F
100
AcDbEntity
  8
0
  6
Continuous
 62
     7
100
AcDbLine
 10
-51.59688872669826
 20
-771.224648135194
 30
0.0
 11
-44.42987337870468
 21
-768.3029899957983
 31
0.0
  0
LINE
  5
17A
330
4F
100
AcDbEntity
  8
0
  6
Continuous
 62
     7
100
AcDbLine
 10
-25.75664237891501
 20
-784.0039914620247
 30
0.0
 11
-26.74094526980948
 21
-785.2719612640904
 31
0.0
  0
LINE
  5
17B
330
4F
100
AcDbEntity
  8
0
  6
Continuous
 62
     7
100
AcDbLine
 10
-27.57346813930521
 20
-782.5936212424094
 30
0.0
 11
-28.55777103019968
 21
-783.8615910444714
 31
0.0
  0
LINE
  5
17C
330
4F
100
AcDbEntity
  8
0
  6
Continuous
 62
     7
100
AcDbLine
 10
-47.00255722397301
 20
-783.1547769973622
 30
0.0
 11
-45.46332202417502
 21
-781.9873468543847
 31
0.0
  0
LINE
  5
17D
330
4F
100
AcDbEntity
  8
0
  6
Continuous
 62
     7
100
AcDbLine
 10
-53.38582891374713
 20
-771.9539156760839
 30
0.0
 11
-51.59688872669826
 21
-771.224648135194
 31
0.0
  0
LINE
  5
17E
330
4F
100
AcDbEntity
  8
0
  6
Continuous
 62
     7
100
AcDbLine
 10
-57.48238358012272
 20
-773.6238900940734
 30
0.0
 11
-53.38582891374713
 21
-771.9539156760839
 31
0.0
  0
LINE
  5
17F
330
4F
100
AcDbEntity
  8
0
  6
Continuous
 62
     7
100
AcDbLine
 10
-54.25406106668483
 20
-769.8240863569627
 30
0.0
 11
-52.46512087963961
 21
-769.0948188160692
 31
0.0
  0
LINE
  5
180
330
4F
100
AcDbEntity
  8
0
  6
Continuous
 62
     7
100
AcDbLine
 10
-35.36327188336977
 20
-792.6283737589765
 30
0.0
 11
-30.61728359238727
 21
-786.5146359150931
 31
0.0
  0
LINE
  5
181
330
4F
100
AcDbEntity
  8
0
  6
Continuous
 62
     7
100
AcDbLine
 10
-33.54644612297957
 20
-794.0387439785954
 30
0.0
 11
-28.80045783199707
 21
-787.9250061347084
 31
0.0
  0
LINE
  5
182
330
4F
100
AcDbEntity
  8
0
  6
Continuous
 62
     7
100
AcDbLine
 10
-44.07343377382963
 20
-783.8198889825617
 30
0.0
 11
-37.90680932154387
 21
-779.1428238615299
 31
0.0
  0
LINE
  5
183
330
4F
100
AcDbEntity
  8
0
  6
Continuous
 62
     7
100
AcDbLine
 10
31.24294918423662
 20
-828.6364591026395
 30
0.0
 11
26.82839892163143
 21
-817.8072833479528
 31
0.0
  0
LINE
  5
184
330
4F
100
AcDbEntity
  8
0
  6
Continuous
 62
     7
100
AcDbLine
 10
-42.92372661856748
 20
-741.8920295705866
 30
0.0
 11
-44.51397212383485
 21
-741.6735831630831
 31
0.0
  0
LINE
  5
185
330
4F
100
AcDbEntity
  8
0
  6
Continuous
 62
     7
100
AcDbLine
 10
59.07353310557196
 20
-793.3510198635122
 30
0.0
 11
50.11019926605045
 21
-786.3929397925676
 31
0.0
  0
LINE
  5
186
330
4F
100
AcDbEntity
  8
0
  6
Continuous
 62
     7
100
AcDbLine
 10
57.66316288595667
 20
-795.1678456239024
 30
0.0
 11
48.69982904643153
 21
-788.2097655529578
 31
0.0
  0
LINE
  5
187
330
4F
100
AcDbEntity
  8
0
  6
Continuous
 62
     7
100
AcDbLine
 10
48.69982904643153
 20
-788.2097655529578
 30
0.0
 11
45.20531144359743
 21
-785.497032352876
 31
0.0
  0
LINE
  5
188
330
4F
100
AcDbEntity
  8
0
  6
Continuous
 62
     7
100
AcDbLine
 10
45.20531144359743
 20
-785.497032352876
 30
0.0
 11
43.67927713350114
 21
-784.3123984754893
 31
0.0
  0
LINE
  5
189
330
4F
100
AcDbEntity
  8
0
  6
Continuous
 62
     7
100
AcDbLine
 10
43.67927713350114
 20
-784.3123984754893
 30
0.0
 11
37.56553928961771
 21
-779.5664101845068
 31
0.0
  0
LINE
  5
18A
330
4F
100
AcDbEntity
  8
0
  6
Continuous
 62
     7
100
AcDbLine
 10
27.19411502937042
 20
-782.9010023169649
 30
0.0
 11
28.164123751946
 21
-784.1799410002532
 31
0.0
  0
LINE
  5
18B
330
4F
100
AcDbEntity
  8
0
  6
Continuous
 62
     7
100
AcDbLine
 10
25.36157317930961
 20
-784.290890934004
 30
0.0
 11
26.33158162376535
 21
-785.5698292505986
 31
0.0
  0
LINE
  5
18C
330
4F
100
AcDbEntity
  8
0
  6
Continuous
 62
     7
100
AcDbLine
 10
33.64452461693404
 20
-776.5225947314248
 30
0.0
 11
34.91249441899968
 21
-777.5068976223229
 31
0.0
  0
LINE
  5
18D
330
4F
100
AcDbEntity
  8
0
  6
Continuous
 62
     7
100
AcDbLine
 10
17.480102781711
 20
-788.7824711276808
 30
0.0
 11
18.08604539608391
 21
-790.2688873372463
 31
0.0
  0
LINE
  5
18E
330
4F
100
AcDbEntity
  8
0
  6
Continuous
 62
     7
100
AcDbLine
 10
-39.63462835656278
 20
-731.023011996218
 30
0.0
 11
-41.11414946964319
 21
-730.4004231464023
 31
0.0
  0
LINE
  5
18F
330
4F
100
AcDbEntity
  8
0
  6
Continuous
 62
     7
100
AcDbLine
 10
-40.52671226789712
 20
-733.1429615935303
 30
0.0
 11
-42.00623338097753
 21
-732.520372743711
 31
0.0
  0
LINE
  5
190
330
4F
100
AcDbEntity
  8
0
  6
Continuous
 62
     7
100
AcDbLine
 10
-35.05486486990517
 20
-723.1924542465604
 30
0.0
 11
-36.3228346719708
 21
-722.2081513556659
 31
0.0
  0
LINE
  5
191
330
4F
100
AcDbEntity
  8
0
  6
Continuous
 62
     7
100
AcDbLine
 10
33.37277850336145
 20
-827.7682269497018
 30
0.0
 11
28.95822824075626
 21
-816.9390511950114
 31
0.0
  0
LINE
  5
192
330
4F
100
AcDbEntity
  8
0
  6
Continuous
 62
     7
100
AcDbLine
 10
-57.4228805089198
 20
-739.9003320190604
 30
0.0
 11
-55.50897909063965
 21
-740.1632378960167
 31
0.0
  0
LINE
  5
193
330
4F
100
AcDbEntity
  8
0
  6
Continuous
 62
     7
100
AcDbLine
 10
33.37277850336145
 20
-827.7682269497018
 30
0.0
 11
31.24294918423662
 21
-828.6364591026395
 31
0.0
  0
LINE
  5
194
330
4F
100
AcDbEntity
  8
0
  6
Continuous
 62
     7
100
AcDbLine
 10
34.8707923570863
 20
-793.0225603659492
 30
0.0
 11
30.19372723605816
 21
-786.8559359136634
 31
0.0
  0
LINE
  5
195
330
4F
100
AcDbEntity
  8
0
  6
Continuous
 62
     7
100
AcDbLine
 10
34.20568037189046
 20
-795.9516838160962
 30
0.0
 11
33.03825022890928
 21
-794.4124486162946
 31
0.0
  0
LINE
  5
196
330
4F
100
AcDbEntity
  8
0
  6
Continuous
 62
     7
100
AcDbLine
 10
33.03825022890928
 20
-794.4124486162946
 30
0.0
 11
28.36118510787751
 21
-788.2458241640088
 31
0.0
  0
LINE
  5
197
330
4F
100
AcDbEntity
  8
0
  6
Continuous
 62
     7
100
AcDbLine
 10
36.03822250006747
 20
-794.5617955657472
 30
0.0
 11
34.8707923570863
 21
-793.0225603659492
 31
0.0
  0
LINE
  5
198
330
4F
100
AcDbEntity
  8
0
  6
Continuous
 62
     7
100
AcDbLine
 10
36.87901815842893
 20
-799.4764305829412
 30
0.0
 11
34.20568037189046
 21
-795.9516838160962
 31
0.0
  0
LINE
  5
199
330
4F
100
AcDbEntity
  8
0
  6
Continuous
 62
     7
100
AcDbLine
 10
38.71156028660594
 20
-798.0865423325959
 30
0.0
 11
36.03822250006747
 21
-794.5617955657472
 31
0.0
  0
LINE
  5
19A
330
4F
100
AcDbEntity
  8
0
  6
Continuous
 62
     7
100
AcDbLine
 10
-6.5072563569021
 20
-804.7711092414938
 30
0.0
 11
-5.45397885279194
 21
-797.1034628111192
 31
0.0
  0
LINE
  5
19B
330
4F
100
AcDbEntity
  8
0
  6
Continuous
 62
     7
100
AcDbLine
 10
-8.78585872945873
 20
-804.4581056827592
 30
0.0
 11
-7.73258122534858
 21
-796.7904592523846
 31
0.0
  0
LINE
  5
19C
330
4F
100
AcDbEntity
  8
0
  6
Continuous
 62
     7
100
AcDbLine
 10
-7.05706705488878
 20
-791.8728532106907
 30
0.0
 11
-7.27551346239229
 21
-793.4630987159544
 31
0.0
  0
LINE
  5
19D
330
4F
100
AcDbEntity
  8
0
  6
Continuous
 62
     7
100
AcDbLine
 10
-15.80613503194504
 20
-789.4758388600203
 30
0.0
 11
-16.42872388176433
 21
-790.9553599731007
 31
0.0
  0
LINE
  5
19E
330
4F
100
AcDbEntity
  8
0
  6
Continuous
 62
     7
100
AcDbLine
 10
-9.04876460641494
 20
-806.3720071010393
 30
0.0
 11
-8.78585872945873
 21
-804.4581056827592
 31
0.0
  0
LINE
  5
19F
330
4F
100
AcDbEntity
  8
0
  6
Continuous
 62
     7
100
AcDbLine
 10
-6.77016223385831
 20
-806.685010659774
 30
0.0
 11
-6.5072563569021
 21
-804.7711092414938
 31
0.0
  0
LINE
  5
1A0
330
4F
100
AcDbEntity
  8
0
  6
Continuous
 62
     7
100
AcDbLine
 10
-9.65080166995281
 20
-810.7547147191071
 30
0.0
 11
-9.04876460641494
 21
-806.3720071010393
 31
0.0
  0
LINE
  5
1A1
330
4F
100
AcDbEntity
  8
0
  6
Continuous
 62
     7
100
AcDbLine
 10
-7.37219929739617
 20
-811.0677182778418
 30
0.0
 11
-6.77016223385831
 21
-806.685010659774
 31
0.0
  0
LINE
  5
1A2
330
4F
100
AcDbEntity
  8
0
  6
Continuous
 62
     7
100
AcDbLine
 10
-8.91640648064017
 20
-822.3092331209446
 30
0.0
 11
-7.37219929739617
 21
-811.0677182778418
 31
0.0
  0
LINE
  5
1A3
330
4F
100
AcDbEntity
  8
0
  6
Continuous
 62
     7
100
AcDbLine
 10
-11.1950088531968
 20
-821.9962295622099
 30
0.0
 11
-9.65080166995281
 21
-810.7547147191071
 31
0.0
  0
LINE
  5
1A4
330
4F
100
AcDbEntity
  8
0
  6
Continuous
 62
     7
100
AcDbLine
 10
43.73605016396582
 20
-808.5173013301392
 30
0.0
 11
36.87901815842893
 21
-799.4764305829412
 31
0.0
  0
LINE
  5
1A5
330
4F
100
AcDbEntity
  8
0
  6
Continuous
 62
     7
100
AcDbLine
 10
-43.0002353561114
 20
-755.5239477851574
 30
0.0
 11
-44.5928326503828
 21
-755.7245305816432
 31
0.0
  0
LINE
  5
1A6
330
4F
100
AcDbEntity
  8
0
  6
Continuous
 62
     7
100
AcDbLine
 10
-57.73588406765443
 20
-742.1789343916171
 30
0.0
 11
-55.82198264937428
 21
-742.4418402685733
 31
0.0
  0
LINE
  5
1A7
330
4F
100
AcDbEntity
  8
0
  6
Continuous
 62
     7
100
AcDbLine
 10
-40.70157668849893
 20
-764.2993700880616
 30
0.0
 11
-42.18799289806443
 21
-764.9053127024345
 31
0.0
  0
LINE
  5
1A8
330
4F
100
AcDbEntity
  8
0
  6
Continuous
 62
     7
100
AcDbLine
 10
-61.80558812698759
 20
-739.2982949555226
 30
0.0
 11
-57.4228805089198
 21
-739.9003320190604
 31
0.0
  0
LINE
  5
1A9
330
4F
100
AcDbEntity
  8
0
  6
Continuous
 62
     7
100
AcDbLine
 10
-62.11859168572223
 20
-741.5768973280792
 30
0.0
 11
-57.73588406765443
 21
-742.1789343916171
 31
0.0
  0
LINE
  5
1AA
330
4F
100
AcDbEntity
  8
0
  6
Continuous
 62
     7
100
AcDbLine
 10
-51.34360453931108
 20
-726.0958244422836
 30
0.0
 11
-44.20983510320107
 21
-729.0977453130472
 31
0.0
  0
LINE
  5
1AB
330
4F
100
AcDbEntity
  8
0
  6
Continuous
 62
     7
100
AcDbLine
 10
-52.23568845064542
 20
-728.2157740395924
 30
0.0
 11
-45.10191901453541
 21
-731.2176949103559
 31
0.0
  0
LINE
  5
1AC
330
4F
100
AcDbEntity
  8
0
  6
Continuous
 62
     7
100
AcDbLine
 10
-68.5526813159278
 20
-721.3495132402968
 30
0.0
 11
-58.09388203097219
 21
-725.7506209769308
 31
0.0
  0
LINE
  5
1AD
330
4F
100
AcDbEntity
  8
0
  6
Continuous
 62
     7
100
AcDbLine
 10
-73.36010652882501
 20
-740.0326901448352
 30
0.0
 11
-62.11859168572223
 21
-741.5768973280792
 31
0.0
  0
LINE
  5
1AE
330
4F
100
AcDbEntity
  8
0
  6
Continuous
 62
     7
100
AcDbLine
 10
-45.08961738647226
 20
-715.4026505024958
 30
0.0
 11
-38.97587954258884
 21
-720.1486387934783
 31
0.0
  0
LINE
  5
1AF
330
4F
100
AcDbEntity
  8
0
  6
Continuous
 62
     7
100
AcDbLine
 10
-54.01633021150806
 20
-727.466472325661
 30
0.0
 11
-52.23568845064542
 21
-728.2157740395924
 31
0.0
  0
LINE
  5
1B0
330
4F
100
AcDbEntity
  8
0
  6
Continuous
 62
     7
100
AcDbLine
 10
-53.12424630017372
 20
-725.3465227283486
 30
0.0
 11
-51.34360453931108
 21
-726.0958244422836
 31
0.0
  0
LINE
  5
1B1
330
4F
100
AcDbEntity
  8
0
  6
Continuous
 62
     7
100
AcDbLine
 10
-50.11016929940265
 20
-711.5052834250309
 30
0.0
 11
-46.61565169656492
 21
-714.2180166251092
 31
0.0
  0
LINE
  5
1B2
330
4F
100
AcDbEntity
  8
0
  6
Continuous
 62
     7
100
AcDbLine
 10
-46.61565169656492
 20
-714.2180166251092
 30
0.0
 11
-45.08961738647226
 21
-715.4026505024958
 31
0.0
  0
LINE
  5
1B3
330
4F
100
AcDbEntity
  8
0
  6
Continuous
 62
     7
100
AcDbLine
 10
-58.09388203097219
 20
-725.7506209769308
 30
0.0
 11
-54.01633021150806
 21
-727.466472325661
 31
0.0
  0
LINE
  5
1B4
330
4F
100
AcDbEntity
  8
0
  6
Continuous
 62
     7
100
AcDbLine
 10
-57.20179811963785
 20
-723.6306713796221
 30
0.0
 11
-53.12424630017372
 21
-725.3465227283486
 31
0.0
  0
LINE
  5
1B5
330
4F
100
AcDbEntity
  8
0
  6
Continuous
 62
     7
100
AcDbLine
 10
-73.04710297009038
 20
-737.7540877722786
 30
0.0
 11
-61.80558812698759
 21
-739.2982949555226
 31
0.0
  0
LINE
  5
1B6
330
4F
100
AcDbEntity
  8
0
  6
Continuous
 62
     7
100
AcDbLine
 10
84.63274937364517
 20
-761.7356106489642
 30
0.0
 11
73.04713293673453
 21
-760.14413544532
 31
0.0
  0
LINE
  5
1B7
330
4F
100
AcDbEntity
  8
0
  6
Continuous
 62
     7
100
AcDbLine
 10
84.9457529323798
 20
-759.4570082764076
 30
0.0
 11
84.63274937364517
 21
-761.7356106489642
 31
0.0
  0
LINE
  5
1B8
330
4F
100
AcDbEntity
  8
0
  6
Continuous
 62
     7
100
AcDbLine
 10
26.74097523645728
 20
-712.6262619535046
 30
0.0
 11
28.80048779864487
 21
-709.9732170828865
 31
0.0
  0
LINE
  5
1B9
330
4F
100
AcDbEntity
  8
0
  6
Continuous
 62
     7
100
AcDbLine
 10
16.4287538484085
 20
-706.9428632444942
 30
0.0
 11
17.73143168176362
 21
-703.84717761094
 31
0.0
  0
LINE
  5
1BA
330
4F
100
AcDbEntity
  8
0
  6
Continuous
 62
     7
100
AcDbLine
 10
18.54870344572087
 20
-707.8349471558322
 30
0.0
 11
19.85138127907599
 21
-704.7392615222743
 31
0.0
  0
LINE
  5
1BB
330
4F
100
AcDbEntity
  8
0
  6
Continuous
 62
     7
100
AcDbLine
 10
57.7359140342986
 20
-755.7192888259779
 30
0.0
 11
55.82201261601845
 21
-755.4563829490253
 31
0.0
  0
LINE
  5
1BC
330
4F
100
AcDbEntity
  8
0
  6
Continuous
 62
     7
100
AcDbLine
 10
57.42291047556396
 20
-757.9978911985345
 30
0.0
 11
55.50900905728381
 21
-757.7349853215783
 31
0.0
  0
LINE
  5
1BD
330
4F
100
AcDbEntity
  8
0
  6
Continuous
 62
     7
100
AcDbLine
 10
61.80561809363176
 20
-758.599928262076
 30
0.0
 11
57.42291047556396
 21
-757.9978911985345
 31
0.0
  0
LINE
  5
1BE
330
4F
100
AcDbEntity
  8
0
  6
Continuous
 62
     7
100
AcDbLine
 10
55.82201261601845
 20
-755.4563829490253
 30
0.0
 11
48.15436618564386
 21
-754.4031054449151
 31
0.0
  0
LINE
  5
1BF
330
4F
100
AcDbEntity
  8
0
  6
Continuous
 62
     7
100
AcDbLine
 10
55.50900905728381
 20
-757.7349853215783
 30
0.0
 11
47.84136262690922
 21
-756.6817078174718
 31
0.0
  0
LINE
  5
1C0
330
4F
100
AcDbEntity
  8
0
  6
Continuous
 62
     7
100
AcDbLine
 10
62.11862165236639
 20
-756.3213258895194
 30
0.0
 11
57.7359140342986
 21
-755.7192888259779
 31
0.0
  0
LINE
  5
1C1
330
4F
100
AcDbEntity
  8
0
  6
Continuous
 62
     7
100
AcDbLine
 10
-35.23081440813362
 20
-777.1132203774177
 30
0.0
 11
-37.90680932154387
 21
-779.1428238615299
 31
0.0
  0
LINE
  5
1C2
330
4F
100
AcDbEntity
  8
0
  6
Continuous
 62
     7
100
AcDbLine
 10
-36.62070265847901
 20
-775.2806782492407
 30
0.0
 11
-39.29669757188926
 21
-777.3102817333529
 31
0.0
  0
LINE
  5
1C3
330
4F
100
AcDbEntity
  8
0
  6
Continuous
 62
     7
100
AcDbLine
 10
1.48793256911709
 20
-751.559991945076
 30
0.0
 11
6.26233584705447
 21
-789.4680372781659
 31
0.0
  0
LINE
  5
1C4
330
4F
100
AcDbEntity
  8
0
  6
Continuous
 62
     7
100
AcDbLine
 10
-0.79403959256629
 20
-751.8473994142078
 30
0.0
 11
3.98036368537473
 21
-789.7554447472976
 31
0.0
  0
LINE
  5
1C5
330
4F
100
AcDbEntity
  8
0
  6
Continuous
 62
     7
100
AcDbLine
 10
-16.42872388176433
 20
-790.9553599731007
 30
0.0
 11
-17.73140171511945
 21
-794.051045606655
 31
0.0
  0
LINE
  5
1C6
330
4F
100
AcDbEntity
  8
0
  6
Continuous
 62
     7
100
AcDbLine
 10
-18.54867347907307
 20
-790.0632760617664
 30
0.0
 11
-19.85135131242819
 21
-793.1589616953206
 31
0.0
  0
LINE
  5
1C7
330
4F
100
AcDbEntity
  8
0
  6
Continuous
 62
     7
100
AcDbLine
 10
-7.27551346239229
 20
-793.4630987159544
 30
0.0
 11
-7.73258122534858
 21
-796.7904592523846
 31
0.0
  0
LINE
  5
1C8
330
4F
100
AcDbEntity
  8
0
  6
Continuous
 62
     7
100
AcDbLine
 10
5.76028340086746
 20
-756.2057849346311
 30
0.0
 11
24.71846524841644
 21
-770.9226915741128
 31
0.0
  0
LINE
  5
1C9
330
4F
100
AcDbEntity
  8
0
  6
Continuous
 62
     7
100
AcDbLine
 10
18.08604539608391
 20
-790.2688873372463
 30
0.0
 11
19.35389337032289
 21
-793.3789999708242
 31
0.0
  0
LINE
  5
1CA
330
4F
100
AcDbEntity
  8
0
  6
Continuous
 62
     7
100
AcDbLine
 10
6.77543395616781
 20
-793.541959242506
 30
0.0
 11
7.19512467631544
 21
-796.8742405599733
 31
0.0
  0
LINE
  5
1CB
330
4F
100
AcDbEntity
  8
0
  6
Continuous
 62
     7
100
AcDbLine
 10
-4.99691108983566
 20
-793.776102274689
 30
0.0
 11
-5.45397885279194
 21
-797.1034628111192
 31
0.0
  0
LINE
  5
1CC
330
4F
100
AcDbEntity
  8
0
  6
Continuous
 62
     7
100
AcDbLine
 10
4.49346179448808
 20
-793.8293667116377
 30
0.0
 11
4.91315251463207
 21
-797.161648029105
 31
0.0
  0
LINE
  5
1CD
330
4F
100
AcDbEntity
  8
0
  6
Continuous
 62
     7
100
AcDbLine
 10
15.95621607695907
 20
-791.1371194901876
 30
0.0
 11
17.22406405119805
 21
-794.2472321237619
 31
0.0
  0
LINE
  5
1CE
330
4F
100
AcDbEntity
  8
0
  6
Continuous
 62
     7
100
AcDbLine
 10
5.61422382269561
 20
-754.7631600354871
 30
0.0
 11
5.58356360053117
 21
-754.8026562476698
 31
0.0
  0
LINE
  5
1CF
330
4F
100
AcDbEntity
  8
0
  6
Continuous
 62
     7
100
AcDbLine
 10
26.33158162376535
 20
-785.5698292505986
 30
0.0
 11
28.36118510787751
 21
-788.2458241640088
 31
0.0
  0
LINE
  5
1D0
330
4F
100
AcDbEntity
  8
0
  6
Continuous
 62
     7
100
AcDbLine
 10
28.164123751946
 20
-784.1799410002532
 30
0.0
 11
30.19372723605816
 21
-786.8559359136634
 31
0.0
  0
LINE
  5
1D1
330
4F
100
AcDbEntity
  8
0
  6
Continuous
 62
     7
100
AcDbLine
 10
34.91249441899968
 20
-777.5068976223229
 30
0.0
 11
37.56553928961771
 21
-779.5664101845068
 31
0.0
  0
LINE
  5
1D2
330
4F
100
AcDbEntity
  8
0
  6
Continuous
 62
     7
100
AcDbLine
 10
36.32286463861497
 20
-775.6900718619327
 30
0.0
 11
38.975909509233
 21
-777.7495844241166
 31
0.0
  0
LINE
  5
1D3
330
4F
100
AcDbEntity
  8
0
  6
Continuous
 62
     7
100
AcDbLine
 10
42.00626334762533
 20
-765.3778504738839
 30
0.0
 11
45.10194898117957
 21
-766.680528307239
 31
0.0
  0
LINE
  5
1D4
330
4F
100
AcDbEntity
  8
0
  6
Continuous
 62
     7
100
AcDbLine
 10
41.11417943629099
 20
-767.4978000711963
 30
0.0
 11
44.20986506984523
 21
-768.8004779045514
 31
0.0
  0
LINE
  5
1D5
330
4F
100
AcDbEntity
  8
0
  6
Continuous
 62
     7
100
AcDbLine
 10
26.12159393537409
 20
-770.7459717737765
 30
0.0
 11
26.15225415754217
 21
-770.7064755615975
 31
0.0
  0
LINE
  5
1D6
330
4F
100
AcDbEntity
  8
0
  6
Continuous
 62
     7
100
AcDbLine
 10
26.15225415754217
 20
-770.7064755615975
 30
0.0
 11
31.66898105605547
 21
-774.9890146454491
 31
0.0
  0
LINE
  5
1D7
330
4F
100
AcDbEntity
  8
0
  6
Continuous
 62
     7
100
AcDbLine
 10
27.56262437715746
 20
-768.8896498012073
 30
0.0
 11
33.07935127567075
 21
-773.1721888850625
 31
0.0
  0
LINE
  5
1D8
330
4F
100
AcDbEntity
  8
0
  6
Continuous
 62
     7
100
AcDbLine
 10
27.56262437715746
 20
-768.8896498012073
 30
0.0
 11
27.59328459932554
 21
-768.8501535890246
 31
0.0
  0
LINE
  5
1D9
330
4F
100
AcDbEntity
  8
0
  6
Continuous
 62
     7
100
AcDbLine
 10
-61.91002095182662
 20
-757.9055778992952
 30
0.0
 11
-57.52083181656158
 21
-757.3527728466797
 31
0.0
  0
LINE
  5
1DA
330
4F
100
AcDbEntity
  8
0
  6
Continuous
 62
     7
100
AcDbLine
 10
-62.19742842095834
 20
-755.6236057376118
 30
0.0
 11
-57.80823928568966
 21
-755.0708006849964
 31
0.0
  0
LINE
  5
1DB
330
4F
100
AcDbEntity
  8
0
  6
Continuous
 62
     7
100
AcDbLine
 10
-57.80823928568966
 20
-755.0708006849964
 30
0.0
 11
-55.89150742877714
 21
-754.8293941239317
 31
0.0
  0
LINE
  5
1DC
330
4F
100
AcDbEntity
  8
0
  6
Continuous
 62
     7
100
AcDbLine
 10
-28.55777103019968
 20
-783.8615910444714
 30
0.0
 11
-30.61728359238727
 21
-786.5146359150931
 31
0.0
  0
LINE
  5
1DD
330
4F
100
AcDbEntity
  8
0
  6
Continuous
 62
     7
100
AcDbLine
 10
-26.74094526980948
 20
-785.2719612640904
 30
0.0
 11
-28.80045783199707
 21
-787.9250061347084
 31
0.0
  0
LINE
  5
1DE
330
4F
100
AcDbEntity
  8
0
  6
Continuous
 62
     7
100
AcDbLine
 10
-2.61086535295649
 20
-750.4370291945925
 30
0.0
 11
-26.03988833556027
 21
-780.6180780450959
 31
0.0
  0
LINE
  5
1DF
330
4F
100
AcDbEntity
  8
0
  6
Continuous
 62
     7
100
AcDbLine
 10
-41.31976074512672
 20
-767.0351420215557
 30
0.0
 11
-44.42987337870468
 21
-768.3029899957983
 31
0.0
  0
LINE
  5
1E0
330
4F
100
AcDbEntity
  8
0
  6
Continuous
 62
     7
100
AcDbLine
 10
-42.18799289806443
 20
-764.9053127024345
 30
0.0
 11
-45.29810553164239
 21
-766.1731606766734
 31
0.0
  0
LINE
  5
1E1
330
4F
100
AcDbEntity
  8
0
  6
Continuous
 62
     7
100
AcDbLine
 10
-55.60409995964542
 20
-757.1113662856114
 30
0.0
 11
-47.92511396785007
 21
-756.1442213017908
 31
0.0
  0
LINE
  5
1E2
330
4F
100
AcDbEntity
  8
0
  6
Continuous
 62
     7
100
AcDbLine
 10
-57.52083181656158
 20
-757.3527728466797
 30
0.0
 11
-55.60409995964542
 21
-757.1113662856114
 31
0.0
  0
LINE
  5
1E3
330
4F
100
AcDbEntity
  8
0
  6
Continuous
 62
     7
100
AcDbLine
 10
-43.28764282524312
 20
-753.2419756234776
 30
0.0
 11
-44.88024011951452
 21
-753.4425584199635
 31
0.0
  0
LINE
  5
1E4
330
4F
100
AcDbEntity
  8
0
  6
Continuous
 62
     7
100
AcDbLine
 10
-43.23673017730211
 20
-744.1706319431432
 30
0.0
 11
-44.82697568256949
 21
-743.9521855356397
 31
0.0
  0
LINE
  5
1E5
330
4F
100
AcDbEntity
  8
0
  6
Continuous
 62
     7
100
AcDbLine
 10
-0.79403959256629
 20
-751.8473994142078
 30
0.0
 11
-24.22306257517007
 21
-782.0284482647112
 31
0.0
  0
LINE
  5
1E6
330
4F
100
AcDbEntity
  8
0
  6
Continuous
 62
     7
100
AcDbLine
 10
7.27554342903645
 20
-704.4351245016405
 30
0.0
 11
7.73261119199638
 21
-701.1077639652103
 31
0.0
  0
LINE
  5
1E7
330
4F
100
AcDbEntity
  8
0
  6
Continuous
 62
     7
100
AcDbLine
 10
-55.89150742877714
 20
-754.8293941239317
 30
0.0
 11
-48.2125214369818
 21
-753.8622491401075
 31
0.0
  0
LINE
  5
1E8
330
4F
100
AcDbEntity
  8
0
  6
Continuous
 62
     7
100
AcDbLine
 10
-44.51397212383485
 20
-741.6735831630831
 30
0.0
 11
-47.84133266026506
 21
-741.2165154001268
 31
0.0
  0
LINE
  5
1E9
330
4F
100
AcDbEntity
  8
0
  6
Continuous
 62
     7
100
AcDbLine
 10
-44.82697568256949
 20
-743.9521855356397
 30
0.0
 11
-48.1543362189997
 21
-743.4951177726834
 31
0.0
  0
LINE
  5
1EA
330
4F
100
AcDbEntity
  8
0
  6
Continuous
 62
     7
100
AcDbLine
 10
-36.3228346719708
 20
-722.2081513556659
 30
0.0
 11
-38.97587954258884
 21
-720.1486387934783
 31
0.0
  0
LINE
  5
1EB
330
4F
100
AcDbEntity
  8
0
  6
Continuous
 62
     7
100
AcDbLine
 10
-34.91246445235188
 20
-720.3913255952757
 30
0.0
 11
-37.56550932296991
 21
-718.3318130330881
 31
0.0
  0
LINE
  5
1EC
330
4F
100
AcDbEntity
  8
0
  6
Continuous
 62
     7
100
AcDbLine
 10
-28.1640937852982
 20
-713.7182822173418
 30
0.0
 11
-30.19369726941036
 21
-711.0422873039315
 31
0.0
  0
LINE
  5
1ED
330
4F
100
AcDbEntity
  8
0
  6
Continuous
 62
     7
100
AcDbLine
 10
-26.33155165711755
 20
-712.3283939669964
 30
0.0
 11
-28.36115514122971
 21
-709.6523990535861
 31
0.0
  0
LINE
  5
1EE
330
4F
100
AcDbEntity
  8
0
  6
Continuous
 62
     7
100
AcDbLine
 10
-42.00623338097753
 20
-732.520372743711
 30
0.0
 11
-45.10191901453541
 21
-731.2176949103559
 31
0.0
  0
LINE
  5
1EF
330
4F
100
AcDbEntity
  8
0
  6
Continuous
 62
     7
100
AcDbLine
 10
-41.11414946964319
 20
-730.4004231464023
 30
0.0
 11
-44.20983510320107
 21
-729.0977453130472
 31
0.0
  0
LINE
  5
1F0
330
4F
100
AcDbEntity
  8
0
  6
Continuous
 62
     7
100
AcDbLine
 10
-18.08601542943611
 20
-707.6293358803487
 30
0.0
 11
-19.35386340367872
 21
-704.5192232467707
 31
0.0
  0
LINE
  5
1F1
330
4F
100
AcDbEntity
  8
0
  6
Continuous
 62
     7
100
AcDbLine
 10
-15.95618611031127
 20
-706.761103727411
 30
0.0
 11
-17.22403408455389
 21
-703.650991093833
 31
0.0
  0
LINE
  5
1F2
330
4F
100
AcDbEntity
  8
0
  6
Continuous
 62
     7
100
AcDbLine
 10
-6.77540398952365
 20
-704.3562639750926
 30
0.0
 11
-7.19509470966764
 21
-701.0239826576217
 31
0.0
  0
LINE
  5
1F3
330
4F
100
AcDbEntity
  8
0
  6
Continuous
 62
     7
100
AcDbLine
 10
-27.56259441446778
 20
-729.0085734214881
 30
0.0
 11
-33.07932168021684
 21
-724.7260340607208
 31
0.0
  0
LINE
  5
1F4
330
4F
100
AcDbEntity
  8
0
  6
Continuous
 62
     7
100
AcDbLine
 10
-26.15222419089437
 20
-727.1917476560011
 30
0.0
 11
-26.12156396872992
 21
-727.1522514438184
 31
0.0
  0
LINE
  5
1F5
330
4F
100
AcDbEntity
  8
0
  6
Continuous
 62
     7
100
AcDbLine
 10
-26.15222419089437
 20
-727.1917476560011
 30
0.0
 11
-31.66895144477635
 21
-722.9092082799434
 31
0.0
  0
LINE
  5
1F6
330
4F
100
AcDbEntity
  8
0
  6
Continuous
 62
     7
100
AcDbLine
 10
-2.61086535295649
 20
-750.4370291945925
 30
0.0
 11
-40.51891068604268
 21
-755.2114324725299
 31
0.0
  0
LINE
  5
1F7
330
4F
100
AcDbEntity
  8
0
  6
Continuous
 62
     7
100
AcDbLine
 10
-40.8063181551744
 20
-752.9294603108501
 30
0.0
 11
-2.89827282208821
 21
-748.1550570329091
 31
0.0
  0
LINE
  5
1F8
330
4F
100
AcDbEntity
  8
0
  6
Continuous
 62
     7
100
AcDbLine
 10
-44.5928326503828
 20
-755.7245305816432
 30
0.0
 11
-47.92511396785007
 21
-756.1442213017908
 31
0.0
  0
LINE
  5
1F9
330
4F
100
AcDbEntity
  8
0
  6
Continuous
 62
     7
100
AcDbLine
 10
-44.88024011951452
 20
-753.4425584199635
 30
0.0
 11
-48.2125214369818
 21
-753.8622491401075
 31
0.0
  0
LINE
  5
1FA
330
4F
100
AcDbEntity
  8
0
  6
Continuous
 62
     7
100
AcDbLine
 10
0.79406955921045
 20
-746.0508238033872
 30
0.0
 11
-3.98033370588123
 21
-708.1427784690459
 31
0.0
  0
LINE
  5
1FB
330
4F
100
AcDbEntity
  8
0
  6
Continuous
 62
     7
100
AcDbLine
 10
-1.48790260246928
 20
-746.3382312725189
 30
0.0
 11
-6.26230589316869
 21
-708.4301859414045
 31
0.0
  0
LINE
  5
1FC
330
4F
100
AcDbEntity
  8
0
  6
Continuous
 62
     7
100
AcDbLine
 10
-24.71843528176864
 20
-726.9755316434821
 30
0.0
 11
-5.76025343422329
 21
-741.6924382829675
 31
0.0
  0
LINE
  5
1FD
330
4F
100
AcDbEntity
  8
0
  6
Continuous
 62
     7
100
AcDbLine
 10
-27.59325463267773
 20
-729.048069628574
 30
0.0
 11
-27.56259441446778
 21
-729.0085734214881
 31
0.0
  0
LINE
  5
1FE
330
4F
100
AcDbEntity
  8
0
  6
Continuous
 62
     7
100
AcDbLine
 10
-4.49343182784028
 20
-704.0688565059609
 30
0.0
 11
-4.9131225479879
 21
-700.7365751884936
 31
0.0
  0
LINE
  5
1FF
330
4F
100
AcDbEntity
  8
0
  6
Continuous
 62
     7
100
AcDbLine
 10
-8.45835298479246
 20
-745.168104955017
 30
0.0
 11
-27.41653483234145
 21
-730.4511983155317
 31
0.0
  0
LINE
  5
200
330
4F
100
AcDbEntity
  8
0
  6
Continuous
 62
     7
100
AcDbLine
 10
4.99694105647982
 20
-704.1221209429059
 30
0.0
 11
5.45400881943974
 21
-700.7947604064757
 31
0.0
  0
LINE
  5
201
330
4F
100
AcDbEntity
  8
0
  6
Continuous
 62
     7
100
AcDbLine
 10
-7.02456407566674
 20
-744.951888942498
 30
0.0
 11
-7.05522429783482
 21
-744.9913851546808
 31
0.0
  0
LINE
  5
202
330
4F
100
AcDbEntity
  8
0
  6
Continuous
 62
     7
100
AcDbLine
 10
-5.58353363388701
 20
-743.0955669699251
 30
0.0
 11
-5.61419385209333
 21
-743.135063177011
 31
0.0
  0
LINE
  5
203
330
4F
100
AcDbEntity
  8
0
  6
Continuous
 62
     7
100
AcDbLine
 10
-2.89827282208821
 20
-748.1550570329091
 30
0.0
 11
-7.02456407566674
 21
-744.951888942498
 31
0.0
  0
LINE
  5
204
330
4F
100
AcDbEntity
  8
0
  6
Continuous
 62
     7
100
AcDbLine
 10
-1.48790260246928
 20
-746.3382312725189
 30
0.0
 11
-5.61419385209333
 21
-743.135063177011
 31
0.0
  0
LINE
  5
205
330
4F
100
AcDbEntity
  8
0
  6
Continuous
 62
     7
100
AcDbLine
 10
0.79406955921045
 20
-746.0508238033872
 30
0.0
 11
24.22309254181423
 21
-715.8697749528837
 31
0.0
  0
LINE
  5
206
330
4F
100
AcDbEntity
  8
0
  6
Continuous
 62
     7
100
AcDbLine
 10
2.89830278873237
 20
-749.7431661846858
 30
0.0
 11
40.8063481218222
 21
-744.9687629067485
 31
0.0
  0
LINE
  5
207
330
4F
100
AcDbEntity
  8
0
  6
Continuous
 62
     7
100
AcDbLine
 10
2.61089531960065
 20
-747.4611940230061
 30
0.0
 11
40.51894065269048
 21
-742.6867907450651
 31
0.0
  0
LINE
  5
208
330
4F
100
AcDbEntity
  8
0
  6
Continuous
 62
     7
100
AcDbLine
 10
28.55780099684748
 20
-714.0366321731235
 30
0.0
 11
30.61731355903508
 21
-711.3835873025055
 31
0.0
  0
LINE
  5
209
330
4F
100
AcDbEntity
  8
0
  6
Continuous
 62
     7
100
AcDbLine
 10
35.23084437477778
 20
-720.7850028401772
 30
0.0
 11
37.90683928819167
 21
-718.755399356065
 31
0.0
  0
LINE
  5
20A
330
4F
100
AcDbEntity
  8
0
  6
Continuous
 62
     7
100
AcDbLine
 10
41.31979071177089
 20
-730.8630811960393
 30
0.0
 11
44.42990334534884
 21
-729.5952332217967
 31
0.0
  0
LINE
  5
20B
330
4F
100
AcDbEntity
  8
0
  6
Continuous
 62
     7
100
AcDbLine
 10
44.82700564921365
 20
-753.9460376819552
 30
0.0
 11
48.15436618564386
 21
-754.4031054449151
 31
0.0
  0
LINE
  5
20C
330
4F
100
AcDbEntity
  8
0
  6
Continuous
 62
     7
100
AcDbLine
 10
44.88027008616232
 20
-744.4556647976351
 30
0.0
 11
48.2125514036296
 21
-744.0359740774875
 31
0.0
  0
LINE
  5
20D
330
4F
100
AcDbEntity
  8
0
  6
Continuous
 62
     7
100
AcDbLine
 10
44.5928626170306
 20
-742.1736926359517
 30
0.0
 11
47.92514393449788
 21
-741.7540019158077
 31
0.0
  0
LINE
  5
20E
330
4F
100
AcDbEntity
  8
0
  6
Continuous
 62
     7
100
AcDbLine
 10
44.51400209048266
 20
-756.2246400545118
 30
0.0
 11
47.84136262690922
 21
-756.6817078174718
 31
0.0
  0
LINE
  5
20F
330
4F
100
AcDbEntity
  8
0
  6
Continuous
 62
     7
100
AcDbLine
 10
42.18802286471223
 20
-732.9929105151641
 30
0.0
 11
45.29813549828655
 21
-731.7250625409215
 31
0.0
  0
LINE
  5
210
330
4F
100
AcDbEntity
  8
0
  6
Continuous
 62
     7
100
AcDbLine
 10
36.62073262512318
 20
-722.6175449683542
 30
0.0
 11
39.29672753853706
 21
-720.5879414842457
 31
0.0
  0
LINE
  5
211
330
4F
100
AcDbEntity
  8
0
  6
Continuous
 62
     7
100
AcDbLine
 10
2.61089531960065
 20
-747.4611940230061
 30
0.0
 11
26.03991830220443
 21
-717.2801451725027
 31
0.0
  0
LINE
  5
212
330
4F
100
AcDbEntity
  8
0
  6
Continuous
 62
     7
100
AcDbLine
 10
2.89830278873237
 20
-749.7431661846858
 30
0.0
 11
7.02459404231454
 21
-752.9463342750969
 31
0.0
  0
LINE
  5
213
330
4F
100
AcDbEntity
  8
0
  6
Continuous
 62
     7
100
AcDbLine
 10
1.48793256911709
 20
-751.559991945076
 30
0.0
 11
5.61422382269561
 21
-754.7631600354871
 31
0.0
  0
LINE
  5
214
330
4F
100
AcDbEntity
  8
0
  6
Continuous
 62
     7
100
AcDbLine
 10
27.41656479898925
 20
-767.4470249020633
 30
0.0
 11
8.45838295144026
 21
-752.7301182625779
 31
0.0
  0
LINE
  5
215
330
4F
100
AcDbEntity
  8
0
  6
Continuous
 62
     7
100
AcDbLine
 10
7.05525426447898
 20
-752.9068380629142
 30
0.0
 11
7.02459404231454
 21
-752.9463342750969
 31
0.0
  0
LINE
  5
216
330
4F
100
AcDbEntity
  8
0
  6
Continuous
 62
     7
100
AcDbLine
 10
-85.05831838553163
 20
-758.5028654574016
 30
0.0
 11
-73.45556816312924
 21
-757.0415342753731
 31
0.0
  0
LINE
  5
217
330
4F
100
AcDbEntity
  8
0
  6
Continuous
 62
     7
100
AcDbLine
 10
-73.45556816312924
 20
-757.0415342753731
 30
0.0
 11
-62.19742842095834
 21
-755.6236057376118
 31
0.0
  0
LINE
  5
218
330
4F
100
AcDbEntity
  8
0
  6
Continuous
 62
     7
100
AcDbLine
 10
-84.77091091639991
 20
-760.7848376190814
 30
0.0
 11
-73.16816069399752
 21
-759.3235064370529
 31
0.0
  0
LINE
  5
219
330
4F
100
AcDbEntity
  8
0
  6
Continuous
 62
     7
100
AcDbLine
 10
-84.77091091639991
 20
-760.7848376190814
 30
0.0
 11
-85.05831838553163
 21
-758.5028654574016
 31
0.0
  0
LINE
  5
21A
330
4F
100
AcDbEntity
  8
0
  6
Continuous
 62
     7
100
AcDbLine
 10
-73.16816069399752
 20
-759.3235064370529
 30
0.0
 11
-61.91002095182662
 21
-757.9055778992952
 31
0.0
  0
LINE
  5
21B
330
4F
100
AcDbEntity
  8
0
  6
Continuous
 62
     7
100
AcDbLine
 10
-29.71953298248732
 20
-816.609723996713
 30
0.0
 11
-25.31842524585331
 21
-806.1509247117574
 31
0.0
  0
LINE
  5
21C
330
4F
100
AcDbEntity
  8
0
  6
Continuous
 62
     7
100
AcDbLine
 10
73.04713293673453
 20
-760.14413544532
 30
0.0
 11
61.80561809363176
 21
-758.599928262076
 31
0.0
  0
LINE
  5
21D
330
4F
100
AcDbEntity
  8
0
  6
Continuous
 62
     7
100
AcDbLine
 10
-67.49589734302313
 20
-801.584613955798
 30
0.0
 11
-68.88578559336852
 21
-799.752071827621
 31
0.0
  0
LINE
  5
21E
330
4F
100
AcDbEntity
  8
0
  6
Continuous
 62
     7
100
AcDbLine
 10
-68.88578559336852
 20
-799.752071827621
 30
0.0
 11
-59.56817473801598
 21
-792.6851467894412
 31
0.0
  0
LINE
  5
21F
330
4F
100
AcDbEntity
  8
0
  6
Continuous
 62
     7
100
AcDbLine
 10
-67.49589734302313
 20
-801.584613955798
 30
0.0
 11
-58.17828648767058
 21
-794.5176889176182
 31
0.0
  0
LINE
  5
220
330
4F
100
AcDbEntity
  8
0
  6
Continuous
 62
     7
100
AcDbLine
 10
-32.13540856940121
 20
-828.280749945432
 30
0.0
 11
-27.59958338517858
 21
-817.501807908051
 31
0.0
  0
LINE
  5
221
330
4F
100
AcDbEntity
  8
0
  6
Continuous
 62
     7
100
AcDbLine
 10
-32.13540856940121
 20
-828.280749945432
 30
0.0
 11
-34.25535816670995
 21
-827.3886660340941
 31
0.0
  0
LINE
  5
222
330
4F
100
AcDbEntity
  8
0
  6
Continuous
 62
     7
100
AcDbLine
 10
-34.25535816670995
 20
-827.3886660340941
 30
0.0
 11
-29.71953298248732
 21
-816.609723996713
 31
0.0
  0
LINE
  5
223
330
4F
100
AcDbEntity
  8
0
  6
Continuous
 62
     7
100
AcDbLine
 10
79.33165331995664
 20
-781.0845351615208
 30
0.0
 11
68.55271128257559
 21
-776.5487099772981
 31
0.0
  0
LINE
  5
224
330
4F
100
AcDbEntity
  8
0
  6
Continuous
 62
     7
100
AcDbLine
 10
52.63551733032623
 20
-816.4450239351463
 30
0.0
 11
50.80297520214558
 21
-817.8349121854917
 31
0.0
  0
LINE
  5
225
330
4F
100
AcDbEntity
  8
0
  6
Continuous
 62
     7
100
AcDbLine
 10
52.63551733032623
 20
-816.4450239351463
 30
0.0
 11
45.56859229214283
 21
-807.1274130797938
 31
0.0
  0
LINE
  5
226
330
4F
100
AcDbEntity
  8
0
  6
Continuous
 62
     7
100
AcDbLine
 10
50.80297520214558
 20
-817.8349121854917
 30
0.0
 11
43.73605016396582
 21
-808.5173013301392
 31
0.0
  0
LINE
  5
227
330
4F
100
AcDbEntity
  8
0
  6
Continuous
 62
     7
100
AcDbLine
 10
45.56859229214283
 20
-807.1274130797938
 30
0.0
 11
38.71156028660594
 21
-798.0865423325959
 31
0.0
  0
LINE
  5
228
330
4F
100
AcDbEntity
  8
0
  6
Continuous
 62
     7
100
AcDbLine
 10
78.43956940861867
 20
-783.2044847588331
 30
0.0
 11
67.66062737124125
 21
-778.6686595746105
 31
0.0
  0
LINE
  5
229
330
4F
100
AcDbEntity
  8
0
  6
Continuous
 62
     7
100
AcDbLine
 10
79.33165331995664
 20
-781.0845351615208
 30
0.0
 11
78.43956940861867
 21
-783.2044847588331
 31
0.0
  0
LINE
  5
22A
330
4F
100
AcDbEntity
  8
0
  6
Continuous
 62
     7
100
AcDbLine
 10
51.57298941234226
 20
-680.6378929355014
 30
0.0
 11
44.40192323804045
 21
-689.8755934865476
 31
0.0
  0
LINE
  5
22B
330
4F
100
AcDbEntity
  8
0
  6
Continuous
 62
     7
100
AcDbLine
 10
51.57298941234226
 20
-680.6378929355014
 30
0.0
 11
53.38981517273246
 21
-682.0482631551204
 31
0.0
  0
LINE
  5
22C
330
4F
100
AcDbEntity
  8
0
  6
Continuous
 62
     7
100
AcDbLine
 10
-68.31120368997395
 20
-697.3761371797773
 30
0.0
 11
-66.90083347035502
 21
-695.5593114193871
 31
0.0
  0
LINE
  5
22D
330
4F
100
AcDbEntity
  8
0
  6
Continuous
 62
     7
100
AcDbLine
 10
-68.31120368997395
 20
-697.3761371797773
 30
0.0
 11
-59.0735031389278
 21
-704.5472033540827
 31
0.0
  0
LINE
  5
22E
330
4F
100
AcDbEntity
  8
0
  6
Continuous
 62
     7
100
AcDbLine
 10
-59.0735031389278
 20
-704.5472033540827
 30
0.0
 11
-50.11016929940265
 21
-711.5052834250309
 31
0.0
  0
LINE
  5
22F
330
4F
100
AcDbEntity
  8
0
  6
Continuous
 62
     7
100
AcDbLine
 10
68.3112336566181
 20
-800.5220860378176
 30
0.0
 11
59.07353310557196
 21
-793.3510198635122
 31
0.0
  0
LINE
  5
230
330
4F
100
AcDbEntity
  8
0
  6
Continuous
 62
     7
100
AcDbLine
 10
66.90086343700281
 20
-802.3389117982078
 30
0.0
 11
57.66316288595667
 21
-795.1678456239024
 31
0.0
  0
LINE
  5
231
330
4F
100
AcDbEntity
  8
0
  6
Continuous
 62
     7
100
AcDbLine
 10
-66.90083347035502
 20
-695.5593114193871
 30
0.0
 11
-57.66313291930887
 21
-702.7303775936925
 31
0.0
  0
LINE
  5
232
330
4F
100
AcDbEntity
  8
0
  6
Continuous
 62
     7
100
AcDbLine
 10
68.3112336566181
 20
-800.5220860378176
 30
0.0
 11
66.90086343700281
 21
-802.3389117982078
 31
0.0
  0
LINE
  5
233
330
4F
100
AcDbEntity
  8
0
  6
Continuous
 62
     7
100
AcDbLine
 10
-51.57295944569446
 20
-817.2603302820935
 30
0.0
 11
-44.40189327139265
 21
-808.0226297310473
 31
0.0
  0
LINE
  5
234
330
4F
100
AcDbEntity
  8
0
  6
Continuous
 62
     7
100
AcDbLine
 10
-53.38978520608466
 20
-815.8499600624782
 30
0.0
 11
-46.21871903178285
 21
-806.6122595114321
 31
0.0
  0
LINE
  5
235
330
4F
100
AcDbEntity
  8
0
  6
Continuous
 62
     7
100
AcDbLine
 10
53.38981517273246
 20
-682.0482631551204
 30
0.0
 11
46.21874899842701
 21
-691.2859637061665
 31
0.0
  0
LINE
  5
236
330
4F
100
AcDbEntity
  8
0
  6
Continuous
 62
     7
100
AcDbLine
 10
-51.57295944569446
 20
-817.2603302820935
 30
0.0
 11
-53.38978520608466
 21
-815.8499600624782
 31
0.0
  0
LINE
  5
237
330
4F
100
AcDbEntity
  8
0
  6
Continuous
 62
     7
100
AcDbLine
 10
92.07449700096808
 20
-761.6053942034741
 30
0.0
 11
92.18199460219952
 21
-761.1767487997276
 31
0.0
  0
LINE
  5
238
330
4F
100
AcDbEntity
  8
0
  6
Continuous
 62
     7
100
AcDbLine
 10
89.39601983630459
 20
-763.0200086336008
 30
0.0
 11
89.72673950022258
 21
-760.7388678037933
 31
0.0
  0
LINE
  5
239
330
4F
100
AcDbEntity
  8
0
  6
Continuous
 62
     7
100
AcDbLine
 10
89.80296209691991
 20
-763.0787956992681
 30
0.0
 11
89.39601983630459
 21
-763.0200086336008
 31
0.0
  0
LINE
  5
23A
330
4F
100
AcDbEntity
  8
0
  6
Continuous
 62
     7
100
AcDbLine
 10
90.04792705699478
 20
-761.386718229438
 30
0.0
 11
89.80296209691991
 21
-763.0787956992681
 31
0.0
  0
ARC
  5
23B
330
4F
100
AcDbEntity
  8
1
  6
Continuous
 62
     7
100
AcDbCircle
 10
73.82490654407488
 20
-807.1374728681003
 30
0.0
 40
4.499999999997949
100
AcDbArc
 50
-66.37937020844888
 51
-53.6206297915424
  0
ARC
  5
23C
330
4F
100
AcDbEntity
  8
1
  6
Continuous
 62
     7
100
AcDbCircle
 10
73.82490654407488
 20
-807.1374728681003
 30
0.0
 40
4.500000000001283
100
AcDbArc
 50
-156.3793702084674
 51
-143.6206297916072
  0
ARC
  5
23D
330
4F
100
AcDbEntity
  8
1
  6
Continuous
 62
     7
100
AcDbCircle
 10
73.82490654407488
 20
-807.1374728681003
 30
0.0
 40
4.500000000001283
100
AcDbArc
 50
113.6206297915326
 51
126.3793702084301
  0
ARC
  5
23E
330
4F
100
AcDbEntity
  8
1
  6
Continuous
 62
     7
100
AcDbCircle
 10
73.82490654407488
 20
-807.1374728681003
 30
0.0
 40
4.499999999999407
100
AcDbArc
 50
23.62062979159357
 51
36.37937020845761
  0
ARC
  5
23F
330
4F
100
AcDbEntity
  8
1
  6
Continuous
 62
     7
100
AcDbCircle
 10
-13.48013829144215
 20
-841.9775237616886
 30
0.0
 40
4.500000000001689
100
AcDbArc
 50
-126.3793702084301
 51
-113.620629791575
  0
ARC
  5
240
330
4F
100
AcDbEntity
  8
1
  6
Continuous
 62
     7
100
AcDbCircle
 10
-13.48013829144215
 20
-841.9775237616886
 30
0.0
 40
4.50000000000169
100
AcDbArc
 50
143.6206297915699
 51
156.3793702084674
  0
ARC
  5
241
330
4F
100
AcDbEntity
  8
1
  6
Continuous
 62
     7
100
AcDbCircle
 10
-13.48013829144215
 20
-841.9775237616886
 30
0.0
 40
4.49999999999876
100
AcDbArc
 50
53.62062979154238
 51
66.37937020844889
  0
ARC
  5
242
330
4F
100
AcDbEntity
  8
1
  6
Continuous
 62
     7
100
AcDbCircle
 10
-13.48013829144215
 20
-841.9775237616886
 30
0.0
 40
4.499999999998758
100
AcDbArc
 50
-36.37937020845762
 51
-23.62062979159357
  0
ARC
  5
243
330
4F
100
AcDbEntity
  8
1
  6
Continuous
 62
     7
100
AcDbCircle
 10
-87.30502985219678
 20
-783.7891625023876
 30
0.0
 40
4.499999999998948
100
AcDbArc
 50
173.6206297915557
 51
-173.6206297915557
  0
ARC
  5
244
330
4F
100
AcDbEntity
  8
1
  6
Continuous
 62
     7
100
AcDbCircle
 10
-87.30502985219678
 20
-783.7891625023876
 30
0.0
 40
4.499999999998948
100
AcDbArc
 50
83.62062979155571
 51
96.3793702084443
  0
ARC
  5
245
330
4F
100
AcDbEntity
  8
1
  6
Continuous
 62
     7
100
AcDbCircle
 10
-87.30502985219678
 20
-783.7891625023876
 30
0.0
 40
4.500000000002563
100
AcDbArc
 50
-6.37937020843915
 51
6.37937020843915
  0
ARC
  5
246
330
4F
100
AcDbEntity
  8
1
  6
Continuous
 62
     7
100
AcDbCircle
 10
-87.30502985219678
 20
-783.7891625023876
 30
0.0
 40
4.500000000002563
100
AcDbArc
 50
-96.37937020843916
 51
-83.62062979156084
  0
ARC
  5
247
330
4F
100
AcDbEntity
  8
1
  6
Continuous
 62
     7
100
AcDbCircle
 10
-73.82487657743073
 20
-690.7607503494946
 30
0.0
 40
4.499999999999407
100
AcDbArc
 50
113.6206297915936
 51
126.3793702084576
  0
ARC
  5
248
330
4F
100
AcDbEntity
  8
1
  6
Continuous
 62
     7
100
AcDbCircle
 10
-73.82487657743073
 20
-690.7607503494946
 30
0.0
 40
4.499999999997949
100
AcDbArc
 50
23.62062979155112
 51
36.37937020845761
  0
ARC
  5
249
330
4F
100
AcDbEntity
  8
1
  6
Continuous
 62
     7
100
AcDbCircle
 10
-73.82487657743073
 20
-690.7607503494946
 30
0.0
 40
4.500000000001283
100
AcDbArc
 50
-66.37937020846744
 51
-53.62062979156987
  0
ARC
  5
24A
330
4F
100
AcDbEntity
  8
1
  6
Continuous
 62
     7
100
AcDbCircle
 10
-73.82487657743073
 20
-690.7607503494946
 30
0.0
 40
4.500000000001283
100
AcDbArc
 50
-156.3793702084674
 51
-143.6206297915699
  0
ARC
  5
24B
330
4F
100
AcDbEntity
  8
1
  6
Continuous
 62
     7
100
AcDbCircle
 10
13.48016825808632
 20
-655.9206994559026
 30
0.0
 40
4.500000000001688
100
AcDbArc
 50
53.62062979156987
 51
66.37937020846745
  0
ARC
  5
24C
330
4F
100
AcDbEntity
  8
1
  6
Continuous
 62
     7
100
AcDbCircle
 10
13.48016825808632
 20
-655.9206994559026
 30
0.0
 40
4.499999999996597
100
AcDbArc
 50
-36.37937020842037
 51
-23.62062979155116
  0
ARC
  5
24D
330
4F
100
AcDbEntity
  8
1
  6
Continuous
 62
     7
100
AcDbCircle
 10
13.48016825808632
 20
-655.9206994559026
 30
0.0
 40
4.49999999999876
100
AcDbArc
 50
-126.3793702084576
 51
-113.6206297915936
  0
ARC
  5
24E
330
4F
100
AcDbEntity
  8
1
  6
Continuous
 62
     7
100
AcDbCircle
 10
13.48016825808632
 20
-655.9206994559026
 30
0.0
 40
4.500000000001691
100
AcDbArc
 50
143.6206297915699
 51
156.379370208425
  0
ARC
  5
24F
330
4F
100
AcDbEntity
  8
1
  6
Continuous
 62
     7
100
AcDbCircle
 10
87.3050598188373
 20
-714.1090607152
 30
0.0
 40
4.499999999998948
100
AcDbArc
 50
83.62062979155571
 51
96.3793702084443
  0
ARC
  5
250
330
4F
100
AcDbEntity
  8
1
  6
Continuous
 62
     7
100
AcDbCircle
 10
87.3050598188373
 20
-714.1090607152
 30
0.0
 40
4.499999999998948
100
AcDbArc
 50
173.6206297915557
 51
-173.6206297915557
  0
ARC
  5
251
330
4F
100
AcDbEntity
  8
1
  6
Continuous
 62
     7
100
AcDbCircle
 10
87.3050598188373
 20
-714.1090607152
 30
0.0
 40
4.499999999998948
100
AcDbArc
 50
-96.3793702084443
 51
-83.62062979155571
  0
ARC
  5
252
330
4F
100
AcDbEntity
  8
1
  6
Continuous
 62
     7
100
AcDbCircle
 10
87.3050598188373
 20
-714.1090607152
 30
0.0
 40
4.500000000002563
100
AcDbArc
 50
-6.37937020843915
 51
6.37937020843915
  0
ARC
  5
253
330
4F
100
AcDbEntity
  8
0
  6
Continuous
 62
     7
100
AcDbCircle
 10
0.0000149833239
 20
-748.9491116087993
 30
0.0
 40
70.50000000000107
100
AcDbArc
 50
143.1130859681924
 51
156.2437790509309
  0
ARC
  5
254
330
4F
100
AcDbEntity
  8
0
  6
Continuous
 62
     7
100
AcDbCircle
 10
0.0000149833239
 20
-748.9491116087993
 30
0.0
 40
73.9000000000018
100
AcDbArc
 50
143.0700807650843
 51
151.3664650696025
  0
ARC
  5
255
330
4F
100
AcDbEntity
  8
0
  6
Continuous
 62
     7
100
AcDbCircle
 10
0.0000149833239
 20
-748.9491116087993
 30
0.0
 40
73.9000000000019
100
AcDbArc
 50
151.3664650696025
 51
156.2867842540391
  0
ARC
  5
256
330
4F
100
AcDbEntity
  8
0
  6
Continuous
 62
     7
100
AcDbCircle
 10
0.0000149833239
 20
-748.9491116087993
 30
0.0
 40
73.90000000000055
100
AcDbArc
 50
158.0700807650826
 51
171.2867842540396
  0
ARC
  5
257
330
4F
100
AcDbEntity
  8
0
  6
Continuous
 62
     7
100
AcDbCircle
 10
0.0000149833239
 20
-748.9491116087993
 30
0.0
 40
70.49999999999979
100
AcDbArc
 50
158.1130859681896
 51
171.2437790509339
  0
ARC
  5
258
330
4F
100
AcDbEntity
  8
0
  6
Continuous
 62
     7
100
AcDbCircle
 10
0.0000149833239
 20
-748.9491116087993
 30
0.0
 40
73.9000000000007
100
AcDbArc
 50
42.99031006067008
 51
51.28678425404065
  0
ARC
  5
259
330
4F
100
AcDbEntity
  8
0
  6
Continuous
 62
     7
100
AcDbCircle
 10
0.0000149833239
 20
-748.9491116087993
 30
0.0
 40
45.1046379249474
100
AcDbArc
 50
8.6394194571629
 51
20.71744556196385
  0
ARC
  5
25A
330
4F
100
AcDbEntity
  8
0
  6
Continuous
 62
     7
100
AcDbCircle
 10
0.0000149833239
 20
-748.9491116087993
 30
0.0
 40
45.10463792494984
100
AcDbArc
 50
68.63941945716371
 51
80.71744556196464
  0
ARC
  5
25B
330
4F
100
AcDbEntity
  8
0
  6
Continuous
 62
     7
100
AcDbCircle
 10
0.0000149833239
 20
-748.9491116087993
 30
0.0
 40
45.1046379249496
100
AcDbArc
 50
53.63941945716279
 51
65.71744556196235
  0
ARC
  5
25C
330
4F
100
AcDbEntity
  8
0
  6
Continuous
 62
     7
100
AcDbCircle
 10
0.0000149833239
 20
-748.9491116087993
 30
0.0
 40
45.1046379249474
100
AcDbArc
 50
98.6394194571629
 51
110.7174455619639
  0
ARC
  5
25D
330
4F
100
AcDbEntity
  8
0
  6
Continuous
 62
     7
100
AcDbCircle
 10
0.0000149833239
 20
-748.9491116087993
 30
0.0
 40
45.10463792494824
100
AcDbArc
 50
83.63941945716283
 51
95.71744556196211
  0
ARC
  5
25E
330
4F
100
AcDbEntity
  8
0
  6
Continuous
 62
     7
100
AcDbCircle
 10
0.0000149833239
 20
-748.9491116087993
 30
0.0
 40
70.50000000000045
100
AcDbArc
 50
-21.8869140318038
 51
-8.75622094906608
  0
ARC
  5
25F
330
4F
100
AcDbEntity
  8
0
  6
Continuous
 62
     7
100
AcDbCircle
 10
0.0000149833239
 20
-748.9491116087993
 30
0.0
 40
73.8999999999992
100
AcDbArc
 50
-21.92991923491481
 51
-8.7132157459608
  0
ARC
  5
260
330
4F
100
AcDbEntity
  8
0
  6
Continuous
 62
     7
100
AcDbCircle
 10
0.0000149833239
 20
-748.9491116087993
 30
0.0
 40
70.49999999999888
100
AcDbArc
 50
-36.88691403180528
 51
-23.7562209490664
  0
ARC
  5
261
330
4F
100
AcDbEntity
  8
0
  6
Continuous
 62
     7
100
AcDbCircle
 10
0.0000149833239
 20
-748.9491116087993
 30
0.0
 40
73.89999999999696
100
AcDbArc
 50
-28.63353493039634
 51
-23.7132157459609
  0
ARC
  5
262
330
4F
100
AcDbEntity
  8
0
  6
Continuous
 62
     7
100
AcDbCircle
 10
0.0000149833239
 20
-748.9491116087993
 30
0.0
 40
45.10463792494668
100
AcDbArc
 50
-36.36058054283995
 51
-24.28255443803765
  0
ARC
  5
263
330
4F
100
AcDbEntity
  8
0
  6
Continuous
 62
     7
100
AcDbCircle
 10
0.0000149833239
 20
-748.9491116087993
 30
0.0
 40
45.10463792494462
100
AcDbArc
 50
-6.36058054283768
 51
5.7174455619621
  0
ARC
  5
264
330
4F
100
AcDbEntity
  8
0
  6
Continuous
 62
     7
100
AcDbCircle
 10
0.0000149833239
 20
-748.9491116087993
 30
0.0
 40
45.10463792494645
100
AcDbArc
 50
-21.36058054283797
 51
-9.28255443803535
  0
ARC
  5
265
330
4F
100
AcDbEntity
  8
0
  6
Continuous
 62
     7
100
AcDbCircle
 10
0.0000149833239
 20
-748.9491116087993
 30
0.0
 40
45.10463792494888
100
AcDbArc
 50
113.6394194571613
 51
125.7174455619614
  0
ARC
  5
266
330
4F
100
AcDbEntity
  8
0
  6
Continuous
 62
     7
100
AcDbCircle
 10
0.0000149833239
 20
-748.9491116087993
 30
0.0
 40
45.10463792494917
100
AcDbArc
 50
128.6394194571606
 51
140.7174455619635
  0
ARC
  5
267
330
4F
100
AcDbEntity
  8
0
  6
Continuous
 62
     7
100
AcDbCircle
 10
0.0000149833239
 20
-748.9491116087993
 30
0.0
 40
73.90000000000337
100
AcDbArc
 50
132.9903100606682
 51
141.2867842540385
  0
ARC
  5
268
330
4F
100
AcDbEntity
  8
0
  6
Continuous
 62
     7
100
AcDbCircle
 10
0.0000149833239
 20
-748.9491116087993
 30
0.0
 40
70.50000000000266
100
AcDbArc
 50
128.1130859681925
 51
141.2437790509311
  0
ARC
  5
269
330
4F
100
AcDbEntity
  8
0
  6
Continuous
 62
     7
100
AcDbCircle
 10
0.0000149833239
 20
-748.9491116087993
 30
0.0
 40
73.90000000000319
100
AcDbArc
 50
98.0700807650839
 51
111.2867842540399
  0
ARC
  5
26A
330
4F
100
AcDbEntity
  8
0
  6
Continuous
 62
     7
100
AcDbCircle
 10
0.0000149833239
 20
-748.9491116087993
 30
0.0
 40
70.50000000000124
100
AcDbArc
 50
98.1130859681924
 51
111.2437790509304
  0
ARC
  5
26B
330
4F
100
AcDbEntity
  8
0
  6
Continuous
 62
     7
100
AcDbCircle
 10
0.0000149833239
 20
-748.9491116087993
 30
0.0
 40
73.90000000000326
100
AcDbArc
 50
128.0700807650833
 51
132.9903100606682
  0
ARC
  5
26C
330
4F
100
AcDbEntity
  8
0
  6
Continuous
 62
     7
100
AcDbCircle
 10
0.0000149833239
 20
-748.9491116087993
 30
0.0
 40
73.90000000000136
100
AcDbArc
 50
113.0700807650847
 51
126.2867842540375
  0
ARC
  5
26D
330
4F
100
AcDbEntity
  8
0
  6
Continuous
 62
     7
100
AcDbCircle
 10
0.0000149833239
 20
-748.9491116087993
 30
0.0
 40
70.50000000000225
100
AcDbArc
 50
113.1130859681931
 51
126.2437790509314
  0
ARC
  5
26E
330
4F
100
AcDbEntity
  8
0
  6
Continuous
 62
     7
100
AcDbCircle
 10
0.0000149833239
 20
-748.9491116087993
 30
0.0
 40
73.90000000000136
100
AcDbArc
 50
23.07008076508469
 51
36.28678425404142
  0
ARC
  5
26F
330
4F
100
AcDbEntity
  8
0
  6
Continuous
 62
     7
100
AcDbCircle
 10
0.0000149833239
 20
-748.9491116087993
 30
0.0
 40
70.50000000000081
100
AcDbArc
 50
23.11308596819041
 51
36.24377905093552
  0
ARC
  5
270
330
4F
100
AcDbEntity
  8
0
  6
Continuous
 62
     7
100
AcDbCircle
 10
0.0000149833239
 20
-748.9491116087993
 30
0.0
 40
73.90000000000039
100
AcDbArc
 50
38.07008076508501
 51
42.99031006067008
  0
ARC
  5
271
330
4F
100
AcDbEntity
  8
0
  6
Continuous
 62
     7
100
AcDbCircle
 10
0.0000149833239
 20
-748.9491116087993
 30
0.0
 40
45.10463792494633
100
AcDbArc
 50
38.63941945716351
 51
50.71744556196352
  0
ARC
  5
272
330
4F
100
AcDbEntity
  8
0
  6
Continuous
 62
     7
100
AcDbCircle
 10
0.0000149833239
 20
-748.9491116087993
 30
0.0
 40
45.10463792494556
100
AcDbArc
 50
23.63941945716316
 51
35.71744556196787
  0
ARC
  5
273
330
4F
100
AcDbEntity
  8
0
  6
Continuous
 62
     7
100
AcDbCircle
 10
0.0000149833239
 20
-748.9491116087993
 30
0.0
 40
73.8999999999996
100
AcDbArc
 50
8.07008076508429
 51
21.28678425403994
  0
ARC
  5
274
330
4F
100
AcDbEntity
  8
0
  6
Continuous
 62
     7
100
AcDbCircle
 10
0.0000149833239
 20
-748.9491116087993
 30
0.0
 40
70.50000000000072
100
AcDbArc
 50
8.11308596818947
 51
21.24377905093311
  0
ARC
  5
275
330
4F
100
AcDbEntity
  8
0
  6
Continuous
 62
     7
100
AcDbCircle
 10
0.0000149833239
 20
-748.9491116087993
 30
0.0
 40
70.49999999999844
100
AcDbArc
 50
-6.88691403180551
 51
6.2437790509332
  0
ARC
  5
276
330
4F
100
AcDbEntity
  8
0
  6
Continuous
 62
     7
100
AcDbCircle
 10
0.0000149833239
 20
-748.9491116087993
 30
0.0
 40
70.50000000000266
100
AcDbArc
 50
38.11308596819251
 51
51.24377905093297
  0
ARC
  5
277
330
4F
100
AcDbEntity
  8
0
  6
Continuous
 62
     7
100
AcDbCircle
 10
0.0000149833239
 20
-748.9491116087993
 30
0.0
 40
73.9000000000018
100
AcDbArc
 50
53.07008076508433
 51
61.36646506960254
  0
ARC
  5
278
330
4F
100
AcDbEntity
  8
0
  6
Continuous
 62
     7
100
AcDbCircle
 10
0.0000149833239
 20
-748.9491116087993
 30
0.0
 40
70.50000000000107
100
AcDbArc
 50
53.11308596819235
 51
66.2437790509321
  0
ARC
  5
279
330
4F
100
AcDbEntity
  8
0
  6
Continuous
 62
     7
100
AcDbCircle
 10
0.0000149833239
 20
-748.9491116087993
 30
0.0
 40
70.50000000000247
100
AcDbArc
 50
83.11308596819191
 51
96.2437790509332
  0
ARC
  5
27A
330
4F
100
AcDbEntity
  8
0
  6
Continuous
 62
     7
100
AcDbCircle
 10
0.0000149833239
 20
-748.9491116087993
 30
0.0
 40
73.8999999999992
100
AcDbArc
 50
68.0700807650852
 51
81.28678425403963
  0
ARC
  5
27B
330
4F
100
AcDbEntity
  8
0
  6
Continuous
 62
     7
100
AcDbCircle
 10
0.0000149833239
 20
-748.9491116087993
 30
0.0
 40
70.50000000000182
100
AcDbArc
 50
68.11308596819346
 51
81.24377905093147
  0
ARC
  5
27C
330
4F
100
AcDbEntity
  8
0
  6
Continuous
 62
     7
100
AcDbCircle
 10
0.0000149833239
 20
-748.9491116087993
 30
0.0
 40
73.9000000000019
100
AcDbArc
 50
61.36646506960254
 51
66.2867842540391
  0
ARC
  5
27D
330
4F
100
AcDbEntity
  8
0
  6
Continuous
 62
     7
100
AcDbCircle
 10
0.0000149833239
 20
-748.9491116087993
 30
0.0
 40
73.90000000000198
100
AcDbArc
 50
83.07008076508481
 51
96.2867842540403
  0
ARC
  5
27E
330
4F
100
AcDbEntity
  8
0
  6
Continuous
 62
     7
100
AcDbCircle
 10
0.0000149833239
 20
-748.9491116087993
 30
0.0
 40
73.89999999999823
100
AcDbArc
 50
-47.00968993933198
 51
-38.71321574595935
  0
ARC
  5
27F
330
4F
100
AcDbEntity
  8
0
  6
Continuous
 62
     7
100
AcDbCircle
 10
0.0000149833239
 20
-748.9491116087993
 30
0.0
 40
73.8999999999989
100
AcDbArc
 50
-126.9299192349174
 51
-118.6335349303988
  0
ARC
  5
280
330
4F
100
AcDbEntity
  8
0
  6
Continuous
 62
     7
100
AcDbCircle
 10
0.0000149833239
 20
-748.9491116087993
 30
0.0
 40
73.8999999999987
100
AcDbArc
 50
-118.6335349303988
 51
-113.713215745962
  0
ARC
  5
281
330
4F
100
AcDbEntity
  8
0
  6
Continuous
 62
     7
100
AcDbCircle
 10
0.0000149833239
 20
-748.9491116087993
 30
0.0
 40
70.49999999999815
100
AcDbArc
 50
-126.8869140318094
 51
-113.7562209490691
  0
ARC
  5
282
330
4F
100
AcDbEntity
  8
0
  6
Continuous
 62
     7
100
AcDbCircle
 10
0.0000149833239
 20
-748.9491116087993
 30
0.0
 40
70.49999999999756
100
AcDbArc
 50
-141.886914031808
 51
-128.7562209490689
  0
ARC
  5
283
330
4F
100
AcDbEntity
  8
0
  6
Continuous
 62
     7
100
AcDbCircle
 10
0.0000149833239
 20
-748.9491116087993
 30
0.0
 40
73.89999999999823
100
AcDbArc
 50
-137.009689939332
 51
-128.7132157459615
  0
ARC
  5
284
330
4F
100
AcDbEntity
  8
0
  6
Continuous
 62
     7
100
AcDbCircle
 10
0.0000149833239
 20
-748.9491116087993
 30
0.0
 40
70.50000000000081
100
AcDbArc
 50
-156.8869140318096
 51
-143.7562209490669
  0
ARC
  5
285
330
4F
100
AcDbEntity
  8
0
  6
Continuous
 62
     7
100
AcDbCircle
 10
0.0000149833239
 20
-748.9491116087993
 30
0.0
 40
70.49999999999844
100
AcDbArc
 50
-111.8869140318076
 51
-98.756220949069
  0
ARC
  5
286
330
4F
100
AcDbEntity
  8
0
  6
Continuous
 62
     7
100
AcDbCircle
 10
0.0000149833239
 20
-748.9491116087993
 30
0.0
 40
73.89999999999814
100
AcDbArc
 50
-141.9299192349172
 51
-137.009689939332
  0
ARC
  5
287
330
4F
100
AcDbEntity
  8
0
  6
Continuous
 62
     7
100
AcDbCircle
 10
0.0000149833239
 20
-748.9491116087993
 30
0.0
 40
45.10463792494686
100
AcDbArc
 50
-81.36058054284167
 51
-69.28255443803616
  0
ARC
  5
288
330
4F
100
AcDbEntity
  8
0
  6
Continuous
 62
     7
100
AcDbCircle
 10
0.0000149833239
 20
-748.9491116087993
 30
0.0
 40
45.10463792494743
100
AcDbArc
 50
-156.3605805428429
 51
-144.2825544380386
  0
ARC
  5
289
330
4F
100
AcDbEntity
  8
0
  6
Continuous
 62
     7
100
AcDbCircle
 10
0.0000149833239
 20
-748.9491116087993
 30
0.0
 40
45.10463792494502
100
AcDbArc
 50
-96.36058054284229
 51
-84.2825544380379
  0
ARC
  5
28A
330
4F
100
AcDbEntity
  8
0
  6
Continuous
 62
     7
100
AcDbCircle
 10
0.0000149833239
 20
-748.9491116087993
 30
0.0
 40
70.49999999999712
100
AcDbArc
 50
-81.88691403181012
 51
-68.75622094906964
  0
ARC
  5
28B
330
4F
100
AcDbEntity
  8
0
  6
Continuous
 62
     7
100
AcDbCircle
 10
0.0000149833239
 20
-748.9491116087993
 30
0.0
 40
45.10463792494667
100
AcDbArc
 50
-126.36058054284
 51
-114.2825544380377
  0
ARC
  5
28C
330
4F
100
AcDbEntity
  8
0
  6
Continuous
 62
     7
100
AcDbCircle
 10
0.0000149833239
 20
-748.9491116087993
 30
0.0
 40
45.1046379249469
100
AcDbArc
 50
-141.360580542843
 51
-129.2825544380394
  0
ARC
  5
28D
330
4F
100
AcDbEntity
  8
0
  6
Continuous
 62
     7
100
AcDbCircle
 10
0.0000149833239
 20
-748.9491116087993
 30
0.0
 40
73.89999999999671
100
AcDbArc
 50
-36.92991923491511
 51
-28.63353493039634
  0
ARC
  5
28E
330
4F
100
AcDbEntity
  8
0
  6
Continuous
 62
     7
100
AcDbCircle
 10
0.0000149833239
 20
-748.9491116087993
 30
0.0
 40
73.89999999999814
100
AcDbArc
 50
-51.92991923491722
 51
-47.00968993933198
  0
ARC
  5
28F
330
4F
100
AcDbEntity
  8
0
  6
Continuous
 62
     7
100
AcDbCircle
 10
0.0000149833239
 20
-748.9491116087993
 30
0.0
 40
70.49999999999756
100
AcDbArc
 50
-51.88691403180798
 51
-38.75622094906658
  0
ARC
  5
290
330
4F
100
AcDbEntity
  8
0
  6
Continuous
 62
     7
100
AcDbCircle
 10
0.0000149833239
 20
-748.9491116087993
 30
0.0
 40
45.10463792494633
100
AcDbArc
 50
-51.36058054283649
 51
-39.28255443803649
  0
ARC
  5
291
330
4F
100
AcDbEntity
  8
0
  6
Continuous
 62
     7
100
AcDbCircle
 10
0.0000149833239
 20
-748.9491116087993
 30
0.0
 40
45.10463792494555
100
AcDbArc
 50
-66.36058054283684
 51
-54.28255443803588
  0
ARC
  5
292
330
4F
100
AcDbEntity
  8
0
  6
Continuous
 62
     7
100
AcDbCircle
 10
0.0000149833239
 20
-748.9491116087993
 30
0.0
 40
45.1046379249496
100
AcDbArc
 50
143.6394194571628
 51
155.7174455619624
  0
ARC
  5
293
330
4F
100
AcDbEntity
  8
0
  6
Continuous
 62
     7
100
AcDbCircle
 10
0.0000149833239
 20
-748.9491116087993
 30
0.0
 40
45.10463792494777
100
AcDbArc
 50
158.6394194571577
 51
170.7174455619601
  0
ARC
  5
294
330
4F
100
AcDbEntity
  8
0
  6
Continuous
 62
     7
100
AcDbCircle
 10
0.0000149833239
 20
-748.9491116087993
 30
0.0
 40
73.8999999999996
100
AcDbArc
 50
-81.92991923491572
 51
-68.71321574596006
  0
ARC
  5
295
330
4F
100
AcDbEntity
  8
0
  6
Continuous
 62
     7
100
AcDbCircle
 10
0.0000149833239
 20
-748.9491116087993
 30
0.0
 40
45.10463792494777
100
AcDbArc
 50
-111.3605805428423
 51
-99.28255443804066
  0
ARC
  5
296
330
4F
100
AcDbEntity
  8
0
  6
Continuous
 62
     7
100
AcDbCircle
 10
0.0000149833239
 20
-748.9491116087993
 30
0.0
 40
70.49999999999844
100
AcDbArc
 50
-96.88691403180552
 51
-83.75622094906649
  0
ARC
  5
297
330
4F
100
AcDbEntity
  8
0
  6
Continuous
 62
     7
100
AcDbCircle
 10
0.0000149833239
 20
-748.9491116087993
 30
0.0
 40
73.89999999999802
100
AcDbArc
 50
-66.92991923491421
 51
-53.71321574596085
  0
ARC
  5
298
330
4F
100
AcDbEntity
  8
0
  6
Continuous
 62
     7
100
AcDbCircle
 10
0.0000149833239
 20
-748.9491116087993
 30
0.0
 40
70.49999999999747
100
AcDbArc
 50
-66.88691403180843
 51
-53.75622094906686
  0
ARC
  5
299
330
4F
100
AcDbEntity
  8
0
  6
Continuous
 62
     7
100
AcDbCircle
 10
0.0000149833239
 20
-748.9491116087993
 30
0.0
 40
45.10463792494686
100
AcDbArc
 50
-171.3605805428417
 51
-159.2825544380362
  0
ARC
  5
29A
330
4F
100
AcDbEntity
  8
0
  6
Continuous
 62
     7
100
AcDbCircle
 10
0.0000149833239
 20
-748.9491116087993
 30
0.0
 40
70.49999999999844
100
AcDbArc
 50
173.1130859681945
 51
-173.7562209490698
  0
ARC
  5
29B
330
4F
100
AcDbEntity
  8
0
  6
Continuous
 62
     7
100
AcDbCircle
 10
0.0000149833239
 20
-748.9491116087993
 30
0.0
 40
58.13148319780721
100
AcDbArc
 50
53.31197394583185
 51
66.04489107329519
  0
ARC
  5
29C
330
4F
100
AcDbEntity
  8
0
  6
Continuous
 62
     7
100
AcDbCircle
 10
0.0000149833239
 20
-748.9491116087993
 30
0.0
 40
56.19999999999873
100
AcDbArc
 50
53.35093687884108
 51
66.00592814028717
  0
ARC
  5
29D
330
4F
100
AcDbEntity
  8
0
  6
Continuous
 62
     7
100
AcDbCircle
 10
0.0000149833239
 20
-748.9491116087993
 30
0.0
 40
56.20000000000257
100
AcDbArc
 50
83.35093687883968
 51
96.00592814028596
  0
ARC
  5
29E
330
4F
100
AcDbEntity
  8
0
  6
Continuous
 62
     7
100
AcDbCircle
 10
0.0000149833239
 20
-748.9491116087993
 30
0.0
 40
58.13148319780569
100
AcDbArc
 50
83.3119739458328
 51
96.04489107329404
  0
ARC
  5
29F
330
4F
100
AcDbEntity
  8
0
  6
Continuous
 62
     7
100
AcDbCircle
 10
0.0000149833239
 20
-748.9491116087993
 30
0.0
 40
56.20000000000116
100
AcDbArc
 50
68.3509368788411
 51
81.00592814028353
  0
ARC
  5
2A0
330
4F
100
AcDbEntity
  8
0
  6
Continuous
 62
     7
100
AcDbCircle
 10
0.0000149833239
 20
-748.9491116087993
 30
0.0
 40
58.13148319780497
100
AcDbArc
 50
68.31197394583052
 51
81.04489107329529
  0
ARC
  5
2A1
330
4F
100
AcDbEntity
  8
0
  6
Continuous
 62
     7
100
AcDbCircle
 10
0.0000149833239
 20
-748.9491116087993
 30
0.0
 40
43.50000000000116
100
AcDbArc
 50
53.69332501522609
 51
65.66354000389929
  0
ARC
  5
2A2
330
4F
100
AcDbEntity
  8
0
  6
Continuous
 62
     7
100
AcDbCircle
 10
0.0000149833239
 20
-748.9491116087993
 30
0.0
 40
56.20000000000039
100
AcDbArc
 50
23.35093687884036
 51
36.00592814028388
  0
ARC
  5
2A3
330
4F
100
AcDbEntity
  8
0
  6
Continuous
 62
     7
100
AcDbCircle
 10
0.0000149833239
 20
-748.9491116087993
 30
0.0
 40
58.13148319780561
100
AcDbArc
 50
23.31197394583103
 51
36.04489107329388
  0
ARC
  5
2A4
330
4F
100
AcDbEntity
  8
0
  6
Continuous
 62
     7
100
AcDbCircle
 10
0.0000149833239
 20
-748.9491116087993
 30
0.0
 40
56.19999999999778
100
AcDbArc
 50
-21.64906312116028
 51
-8.99407185971338
  0
ARC
  5
2A5
330
4F
100
AcDbEntity
  8
0
  6
Continuous
 62
     7
100
AcDbCircle
 10
0.0000149833239
 20
-748.9491116087993
 30
0.0
 40
58.13148319780497
100
AcDbArc
 50
-21.68802605416948
 51
-8.95510892670527
  0
ARC
  5
2A6
330
4F
100
AcDbEntity
  8
0
  6
Continuous
 62
     7
100
AcDbCircle
 10
0.0000149833239
 20
-748.9491116087993
 30
0.0
 40
56.19999999999659
100
AcDbArc
 50
-51.64906312115968
 51
-38.99407185971617
  0
ARC
  5
2A7
330
4F
100
AcDbEntity
  8
0
  6
Continuous
 62
     7
100
AcDbCircle
 10
0.0000149833239
 20
-748.9491116087993
 30
0.0
 40
56.19999999999872
100
AcDbArc
 50
-36.64906312115892
 51
-23.99407185971435
  0
ARC
  5
2A8
330
4F
100
AcDbEntity
  8
0
  6
Continuous
 62
     7
100
AcDbCircle
 10
0.0000149833239
 20
-748.9491116087993
 30
0.0
 40
56.20000000000039
100
AcDbArc
 50
-66.64906312115964
 51
-53.99407185971395
  0
ARC
  5
2A9
330
4F
100
AcDbEntity
  8
0
  6
Continuous
 62
     7
100
AcDbCircle
 10
0.0000149833239
 20
-748.9491116087993
 30
0.0
 40
58.13148319780227
100
AcDbArc
 50
-66.68802605416755
 51
-53.95510892670612
  0
ARC
  5
2AA
330
4F
100
AcDbEntity
  8
0
  6
Continuous
 62
     7
100
AcDbCircle
 10
0.0000149833239
 20
-748.9491116087993
 30
0.0
 40
58.13148319780211
100
AcDbArc
 50
-36.68802605416742
 51
-23.95510892670628
  0
ARC
  5
2AB
330
4F
100
AcDbEntity
  8
0
  6
Continuous
 62
     7
100
AcDbCircle
 10
0.0000149833239
 20
-748.9491116087993
 30
0.0
 40
58.13148319780154
100
AcDbArc
 50
-51.6880260541684
 51
-38.95510892670372
  0
ARC
  5
2AC
330
4F
100
AcDbEntity
  8
0
  6
Continuous
 62
     7
100
AcDbCircle
 10
0.0000149833239
 20
-748.9491116087993
 30
0.0
 40
58.13148319780728
100
AcDbArc
 50
-171.6880260541701
 51
-158.9551089267059
  0
ARC
  5
2AD
330
4F
100
AcDbEntity
  8
0
  6
Continuous
 62
     7
100
AcDbCircle
 10
0.0000149833239
 20
-748.9491116087993
 30
0.0
 40
56.20000000000076
100
AcDbArc
 50
-171.6490631211632
 51
-158.9940718597167
  0
ARC
  5
2AE
330
4F
100
AcDbEntity
  8
0
  6
Continuous
 62
     7
100
AcDbCircle
 10
0.0000149833239
 20
-748.9491116087993
 30
0.0
 40
40.99999999999964
100
AcDbArc
 50
-126.2142799496886
 51
-84.42885503119138
  0
ARC
  5
2AF
330
4F
100
AcDbEntity
  8
0
  6
Continuous
 62
     7
100
AcDbCircle
 10
0.0000149833239
 20
-748.9491116087993
 30
0.0
 40
43.50000000000054
100
AcDbArc
 50
-111.3066749847746
 51
-99.33645999610346
  0
ARC
  5
2B0
330
4F
100
AcDbEntity
  8
0
  6
Continuous
 62
     7
100
AcDbCircle
 10
0.0000149833239
 20
-748.9491116087993
 30
0.0
 40
56.19999999999895
100
AcDbArc
 50
-96.64906312116075
 51
-83.99407185971734
  0
ARC
  5
2B1
330
4F
100
AcDbEntity
  8
0
  6
Continuous
 62
     7
100
AcDbCircle
 10
0.0000149833239
 20
-748.9491116087993
 30
0.0
 40
58.1314831978025
100
AcDbArc
 50
-96.68802605417117
 51
-83.95510892670559
  0
ARC
  5
2B2
330
4F
100
AcDbEntity
  8
0
  6
Continuous
 62
     7
100
AcDbCircle
 10
0.0000149833239
 20
-748.9491116087993
 30
0.0
 40
43.499999999997
100
AcDbArc
 50
-81.30667498477618
 51
-69.33645999610371
  0
ARC
  5
2B3
330
4F
100
AcDbEntity
  8
0
  6
Continuous
 62
     7
100
AcDbCircle
 10
0.0000149833239
 20
-748.9491116087993
 30
0.0
 40
43.50000000000006
100
AcDbArc
 50
-96.30667498477433
 51
-84.3364599961034
  0
ARC
  5
2B4
330
4F
100
AcDbEntity
  8
0
  6
Continuous
 62
     7
100
AcDbCircle
 10
0.0000149833239
 20
-748.9491116087993
 30
0.0
 40
56.19999999999769
100
AcDbArc
 50
-81.64906312115893
 51
-68.99407185971532
  0
ARC
  5
2B5
330
4F
100
AcDbEntity
  8
0
  6
Continuous
 62
     7
100
AcDbCircle
 10
0.0000149833239
 20
-748.9491116087993
 30
0.0
 40
58.13148319780368
100
AcDbArc
 50
-81.68802605416957
 51
-68.95510892670595
  0
ARC
  5
2B6
330
4F
100
AcDbEntity
  8
0
  6
Continuous
 62
     7
100
AcDbCircle
 10
6.37348784417814
 20
-755.4158606909805
 30
0.0
 40
0.9999999999985943
100
AcDbArc
 50
142.1784325095841
 51
-127.8215674902881
  0
ARC
  5
2B7
330
4F
100
AcDbEntity
  8
0
  6
Continuous
 62
     7
100
AcDbCircle
 10
0.00001442289327
 20
-748.9491119281811
 30
0.0
 40
40.99999976996521
100
AcDbArc
 50
-81.21427910752679
 51
-39.42885420707078
  0
ARC
  5
2B8
330
4F
100
AcDbEntity
  8
0
  6
Continuous
 62
     7
100
AcDbCircle
 10
25.33166969172712
 20
-770.1327673304659
 30
0.0
 40
0.9999999999985966
100
AcDbArc
 50
-127.8215674904161
 51
-37.82156749041581
  0
ARC
  5
2B9
330
4F
100
AcDbEntity
  8
0
  6
Continuous
 62
     7
100
AcDbCircle
 10
0.0000149833239
 20
-748.9491116087993
 30
0.0
 40
43.49999999999756
100
AcDbArc
 50
-66.30667498477345
 51
-54.33645999610297
  0
ARC
  5
2BA
330
4F
100
AcDbEntity
  8
0
  6
Continuous
 62
     7
100
AcDbCircle
 10
0.0000149833239
 20
-748.9491116087993
 30
0.0
 40
56.19999999999895
100
AcDbArc
 50
-6.64906312116075
 51
6.00592814028635
  0
ARC
  5
2BB
330
4F
100
AcDbEntity
  8
0
  6
Continuous
 62
     7
100
AcDbCircle
 10
0.0000149833239
 20
-748.9491116087993
 30
0.0
 40
58.13148319780208
100
AcDbArc
 50
-6.68802605416761
 51
6.04489107329441
  0
ARC
  5
2BC
330
4F
100
AcDbEntity
  8
0
  6
Continuous
 62
     7
100
AcDbCircle
 10
0.00001655204219
 20
-748.949110057587
 30
0.0
 40
43.49999976996589
100
AcDbArc
 50
-51.30667785873823
 51
-39.33646288609098
  0
ARC
  5
2BD
330
4F
100
AcDbEntity
  8
0
  6
Continuous
 62
     7
100
AcDbCircle
 10
0.0000149833239
 20
-748.9491116087993
 30
0.0
 40
43.49999999999901
100
AcDbArc
 50
-36.30667498477005
 51
-24.33645999610269
  0
ARC
  5
2BE
330
4F
100
AcDbEntity
  8
0
  6
Continuous
 62
     7
100
AcDbCircle
 10
26.80336035567493
 20
-768.2369491457102
 30
0.0
 40
1.000000000003704
100
AcDbArc
 50
-37.82156749045252
 51
52.17843250941925
  0
ARC
  5
2BF
330
4F
100
AcDbEntity
  8
0
  6
Continuous
 62
     7
100
AcDbCircle
 10
0.0000149833239
 20
-748.9491116087993
 30
0.0
 40
43.49999999999823
100
AcDbArc
 50
-126.3066749847768
 51
-114.3364599961027
  0
ARC
  5
2C0
330
4F
100
AcDbEntity
  8
0
  6
Continuous
 62
     7
100
AcDbCircle
 10
0.0000149833239
 20
-748.9491116087993
 30
0.0
 40
43.5000000000021
100
AcDbArc
 50
-141.3066749847757
 51
-129.3364599961042
  0
ARC
  5
2C1
330
4F
100
AcDbEntity
  8
0
  6
Continuous
 62
     7
100
AcDbCircle
 10
0.0000149833239
 20
-748.9491116087993
 30
0.0
 40
45.10463792494864
100
AcDbArc
 50
173.6394194571583
 51
-174.2825544380379
  0
ARC
  5
2C2
330
4F
100
AcDbEntity
  8
0
  6
Continuous
 62
     7
100
AcDbCircle
 10
0.0000149833239
 20
-748.9491116087993
 30
0.0
 40
40.99999999999962
100
AcDbArc
 50
-171.2142799496868
 51
-129.4288550311935
  0
ARC
  5
2C3
330
4F
100
AcDbEntity
  8
0
  6
Continuous
 62
     7
100
AcDbCircle
 10
0.0000149833239
 20
-748.9491116087993
 30
0.0
 40
43.50000000000089
100
AcDbArc
 50
-156.3066749847754
 51
-144.3364599961058
  0
ARC
  5
2C4
330
4F
100
AcDbEntity
  8
0
  6
Continuous
 62
     7
100
AcDbCircle
 10
0.0000149833239
 20
-748.9491116087993
 30
0.0
 40
41.00000000000043
100
AcDbArc
 50
53.78572005031852
 51
95.57114495077181
  0
ARC
  5
2C5
330
4F
100
AcDbEntity
  8
0
  6
Continuous
 62
     7
100
AcDbCircle
 10
0.0000149833239
 20
-748.9491116087993
 30
0.0
 40
41.00000000000113
100
AcDbArc
 50
143.7857200683534
 51
-174.4288550311914
  0
ARC
  5
2C6
330
4F
100
AcDbEntity
  8
0
  6
Continuous
 62
     7
100
AcDbCircle
 10
0.0000149833239
 20
-748.9491116087993
 30
0.0
 40
43.50000000000054
100
AcDbArc
 50
158.6933250152254
 51
170.6635400038966
  0
ARC
  5
2C7
330
4F
100
AcDbEntity
  8
0
  6
Continuous
 62
     7
100
AcDbCircle
 10
0.0000149833239
 20
-748.9491116087993
 30
0.0
 40
43.50000000000116
100
AcDbArc
 50
143.6933250152261
 51
155.6635400038949
  0
ARC
  5
2C8
330
4F
100
AcDbEntity
  8
0
  6
Continuous
 62
     7
100
AcDbCircle
 10
0.0000149833239
 20
-748.9491116087993
 30
0.0
 40
43.5000000000021
100
AcDbArc
 50
128.6933250152243
 51
140.6635400038958
  0
ARC
  5
2C9
330
4F
100
AcDbEntity
  8
0
  6
Continuous
 62
     7
100
AcDbCircle
 10
0.0000149833239
 20
-748.9491116087993
 30
0.0
 40
56.20000000000129
100
AcDbArc
 50
98.35093687884054
 51
111.0059281402834
  0
ARC
  5
2CA
330
4F
100
AcDbEntity
  8
0
  6
Continuous
 62
     7
100
AcDbCircle
 10
0.0000149833239
 20
-748.9491116087993
 30
0.0
 40
58.13148319780728
100
AcDbArc
 50
98.31197394582992
 51
111.0448910732928
  0
ARC
  5
2CB
330
4F
100
AcDbEntity
  8
0
  6
Continuous
 62
     7
100
AcDbCircle
 10
0.0000149833239
 20
-748.9491116087993
 30
0.0
 40
56.20000000000256
100
AcDbArc
 50
173.3509368788397
 51
-173.9940718597177
  0
ARC
  5
2CC
330
4F
100
AcDbEntity
  8
0
  6
Continuous
 62
     7
100
AcDbCircle
 10
0.0000149833239
 20
-748.9491116087993
 30
0.0
 40
58.13148319780611
100
AcDbArc
 50
173.3119739458293
 51
-173.9551089267092
  0
ARC
  5
2CD
330
4F
100
AcDbEntity
  8
0
  6
Continuous
 62
     7
100
AcDbCircle
 10
0.0000149833239
 20
-748.9491116087993
 30
0.0
 40
41.00000000000024
100
AcDbArc
 50
98.78572006835925
 51
140.5711449507682
  0
ARC
  5
2CE
330
4F
100
AcDbEntity
  8
0
  6
Continuous
 62
     7
100
AcDbCircle
 10
-25.33163972508296
 20
-727.7654558871291
 30
0.0
 40
1.000000000000827
100
AcDbArc
 50
52.17843250941925
 51
142.1784325095838
  0
ARC
  5
2CF
330
4F
100
AcDbEntity
  8
0
  6
Continuous
 62
     7
100
AcDbCircle
 10
0.0000149833239
 20
-748.9491116087993
 30
0.0
 40
43.50000000000089
100
AcDbArc
 50
113.6933250152246
 51
125.6635400038981
  0
ARC
  5
2D0
330
4F
100
AcDbEntity
  8
0
  6
Continuous
 62
     7
100
AcDbCircle
 10
0.0000149833239
 20
-748.9491116087993
 30
0.0
 40
43.50000000000115
100
AcDbArc
 50
98.69332501522783
 51
110.6635400039008
  0
ARC
  5
2D1
330
4F
100
AcDbEntity
  8
0
  6
Continuous
 62
     7
100
AcDbCircle
 10
0.0000149833239
 20
-748.9491116087993
 30
0.0
 40
43.50000000000061
100
AcDbArc
 50
-171.3066749847769
 51
-159.3364599961037
  0
ARC
  5
2D2
330
4F
100
AcDbEntity
  8
0
  6
Continuous
 62
     7
100
AcDbCircle
 10
0.0000149833239
 20
-748.9491116087993
 30
0.0
 40
43.50000000000006
100
AcDbArc
 50
173.6933250152257
 51
-174.3364599961039
  0
ARC
  5
2D3
330
4F
100
AcDbEntity
  8
0
  6
Continuous
 62
     7
100
AcDbCircle
 10
-26.80333038903077
 20
-729.6612740718847
 30
0.0
 40
0.9999999999985915
100
AcDbArc
 50
142.1784325095839
 51
-127.8215674904161
  0
ARC
  5
2D4
330
4F
100
AcDbEntity
  8
0
  6
Continuous
 62
     7
100
AcDbCircle
 10
-6.37345787753397
 20
-742.4823625266145
 30
0.0
 40
0.9999999999985943
100
AcDbArc
 50
-37.82156749041594
 51
52.17843250958407
  0
ARC
  5
2D5
330
4F
100
AcDbEntity
  8
0
  6
Continuous
 62
     7
100
AcDbCircle
 10
-7.84514854148178
 20
-744.3781807113701
 30
0.0
 40
0.9999999999985943
100
AcDbArc
 50
-127.8215674904159
 51
-37.82156749041594
  0
ARC
  5
2D6
330
4F
100
AcDbEntity
  8
0
  6
Continuous
 62
     7
100
AcDbCircle
 10
0.0000149833239
 20
-748.9491116087993
 30
0.0
 40
43.50000000000053
100
AcDbArc
 50
68.69332501522543
 51
80.66354000389656
  0
ARC
  5
2D7
330
4F
100
AcDbEntity
  8
0
  6
Continuous
 62
     7
100
AcDbCircle
 10
0.0000149833239
 20
-748.9491116087993
 30
0.0
 40
43.50000000000006
100
AcDbArc
 50
83.69332501522567
 51
95.66354000389613
  0
ARC
  5
2D8
330
4F
100
AcDbEntity
  8
0
  6
Continuous
 62
     7
100
AcDbCircle
 10
0.0000149833239
 20
-748.9491116087993
 30
0.0
 40
41.00000000000018
100
AcDbArc
 50
8.78572005031826
 51
50.57114496881043
  0
ARC
  5
2D9
330
4F
100
AcDbEntity
  8
0
  6
Continuous
 62
     7
100
AcDbCircle
 10
0.0000149833239
 20
-748.9491116087993
 30
0.0
 40
43.49999999999926
100
AcDbArc
 50
38.69332501522732
 51
50.66354000390258
  0
ARC
  5
2DA
330
4F
100
AcDbEntity
  8
0
  6
Continuous
 62
     7
100
AcDbCircle
 10
0.0000149833239
 20
-748.9491116087993
 30
0.0
 40
43.49999999999902
100
AcDbArc
 50
23.69332501523094
 51
35.66354000390093
  0
ARC
  5
2DB
330
4F
100
AcDbEntity
  8
0
  6
Continuous
 62
     7
100
AcDbCircle
 10
0.0000149833239
 20
-748.9491116087993
 30
0.0
 40
43.49999999999756
100
AcDbArc
 50
8.69332501522855
 51
20.66354000390076
  0
ARC
  5
2DC
330
4F
100
AcDbEntity
  8
0
  6
Continuous
 62
     7
100
AcDbCircle
 10
0.0000149833239
 20
-748.9491116087993
 30
0.0
 40
43.50000000000007
100
AcDbArc
 50
-6.30667498477433
 51
5.66354000390137
  0
ARC
  5
2DD
330
4F
100
AcDbEntity
  8
0
  6
Continuous
 62
     7
100
AcDbCircle
 10
0.0000149833239
 20
-748.9491116087993
 30
0.0
 40
43.49999999999922
100
AcDbArc
 50
-21.30667498477012
 51
-9.33645999610345
  0
ARC
  5
2DE
330
4F
100
AcDbEntity
  8
0
  6
Continuous
 62
     7
100
AcDbCircle
 10
0.0000149833239
 20
-748.9491116087993
 30
0.0
 40
56.19999999999769
100
AcDbArc
 50
8.35093687884107
 51
21.00592814028468
  0
ARC
  5
2DF
330
4F
100
AcDbEntity
  8
0
  6
Continuous
 62
     7
100
AcDbCircle
 10
0.0000149833239
 20
-748.9491116087993
 30
0.0
 40
58.13148319780368
100
AcDbArc
 50
8.31197394583043
 51
21.04489107329405
  0
ARC
  5
2E0
330
4F
100
AcDbEntity
  8
0
  6
Continuous
 62
     7
100
AcDbCircle
 10
0.00001515376685
 20
-748.9491109866758
 30
0.0
 40
40.99999976996593
100
AcDbArc
 50
-36.21428077380514
 51
5.57114412664739
  0
ARC
  5
2E1
330
4F
100
AcDbEntity
  8
0
  6
Continuous
 62
     7
100
AcDbCircle
 10
7.84517850812595
 20
-753.5200425062285
 30
0.0
 40
1.000000000003699
100
AcDbArc
 50
52.17843250954724
 51
142.1784325094194
  0
ARC
  5
2E2
330
4F
100
AcDbEntity
  8
0
  6
Continuous
 62
     7
100
AcDbCircle
 10
0.0000149833239
 20
-748.9491116087993
 30
0.0
 40
58.13148319780429
100
AcDbArc
 50
143.3119739458297
 51
156.0448910732919
  0
ARC
  5
2E3
330
4F
100
AcDbEntity
  8
0
  6
Continuous
 62
     7
100
AcDbCircle
 10
0.0000149833239
 20
-748.9491116087993
 30
0.0
 40
73.90000000000198
100
AcDbArc
 50
173.0700807650848
 51
-173.7132157459625
  0
ARC
  5
2E4
330
4F
100
AcDbEntity
  8
0
  6
Continuous
 62
     7
100
AcDbCircle
 10
0.0000149833239
 20
-748.9491116087993
 30
0.0
 40
56.2000000000025
100
AcDbArc
 50
158.3509368788376
 51
171.0059281402835
  0
ARC
  5
2E5
330
4F
100
AcDbEntity
  8
0
  6
Continuous
 62
     7
100
AcDbCircle
 10
0.0000149833239
 20
-748.9491116087993
 30
0.0
 40
58.13148319780497
100
AcDbArc
 50
158.3119739458305
 51
171.0448910732918
  0
ARC
  5
2E6
330
4F
100
AcDbEntity
  8
0
  6
Continuous
 62
     7
100
AcDbCircle
 10
0.0000149833239
 20
-748.9491116087993
 30
0.0
 40
56.20000000000091
100
AcDbArc
 50
143.3509368788381
 51
156.0059281402838
  0
ARC
  5
2E7
330
4F
100
AcDbEntity
  8
0
  6
Continuous
 62
     7
100
AcDbCircle
 10
0.0000149833239
 20
-748.9491116087993
 30
0.0
 40
58.13148319780417
100
AcDbArc
 50
-156.6880260541723
 51
-143.955108926709
  0
ARC
  5
2E8
330
4F
100
AcDbEntity
  8
0
  6
Continuous
 62
     7
100
AcDbCircle
 10
0.0000149833239
 20
-748.9491116087993
 30
0.0
 40
56.19999999999778
100
AcDbArc
 50
-111.6490631211603
 51
-98.99407185971705
  0
ARC
  5
2E9
330
4F
100
AcDbEntity
  8
0
  6
Continuous
 62
     7
100
AcDbCircle
 10
0.0000149833239
 20
-748.9491116087993
 30
0.0
 40
58.13148319780497
100
AcDbArc
 50
-111.6880260541695
 51
-98.95510892670882
  0
ARC
  5
2EA
330
4F
100
AcDbEntity
  8
0
  6
Continuous
 62
     7
100
AcDbCircle
 10
0.0000149833239
 20
-748.9491116087993
 30
0.0
 40
58.1314831978044
100
AcDbArc
 50
-141.6880260541706
 51
-128.9551089267088
  0
ARC
  5
2EB
330
4F
100
AcDbEntity
  8
0
  6
Continuous
 62
     7
100
AcDbCircle
 10
0.0000149833239
 20
-748.9491116087993
 30
0.0
 40
58.13148319780429
100
AcDbArc
 50
-126.6880260541703
 51
-113.9551089267096
  0
ARC
  5
2EC
330
4F
100
AcDbEntity
  8
0
  6
Continuous
 62
     7
100
AcDbCircle
 10
0.0000149833239
 20
-748.9491116087993
 30
0.0
 40
56.20000000000039
100
AcDbArc
 50
-156.6490631211597
 51
-143.9940718597161
  0
ARC
  5
2ED
330
4F
100
AcDbEntity
  8
0
  6
Continuous
 62
     7
100
AcDbCircle
 10
0.0000149833239
 20
-748.9491116087993
 30
0.0
 40
56.20000000000039
100
AcDbArc
 50
113.3509368788404
 51
126.0059281402839
  0
ARC
  5
2EE
330
4F
100
AcDbEntity
  8
0
  6
Continuous
 62
     7
100
AcDbCircle
 10
0.0000149833239
 20
-748.9491116087993
 30
0.0
 40
58.13148319780561
100
AcDbArc
 50
113.311973945831
 51
126.0448910732939
  0
ARC
  5
2EF
330
4F
100
AcDbEntity
  8
0
  6
Continuous
 62
     7
100
AcDbCircle
 10
0.0000149833239
 20
-748.9491116087993
 30
0.0
 40
56.20000000000169
100
AcDbArc
 50
128.3509368788409
 51
141.0059281402833
  0
ARC
  5
2F0
330
4F
100
AcDbEntity
  8
0
  6
Continuous
 62
     7
100
AcDbCircle
 10
0.0000149833239
 20
-748.9491116087993
 30
0.0
 40
58.13148319780666
100
AcDbArc
 50
38.31197394583219
 51
51.04489107329349
  0
ARC
  5
2F1
330
4F
100
AcDbEntity
  8
0
  6
Continuous
 62
     7
100
AcDbCircle
 10
0.0000149833239
 20
-748.9491116087993
 30
0.0
 40
56.19999999999944
100
AcDbArc
 50
-141.649063121162
 51
-128.994071859719
  0
ARC
  5
2F2
330
4F
100
AcDbEntity
  8
0
  6
Continuous
 62
     7
100
AcDbCircle
 10
0.0000149833239
 20
-748.9491116087993
 30
0.0
 40
56.20000000000091
100
AcDbArc
 50
-126.6490631211619
 51
-113.9940718597177
  0
ARC
  5
2F3
330
4F
100
AcDbEntity
  8
0
  6
Continuous
 62
     7
100
AcDbCircle
 10
0.0000149833239
 20
-748.9491116087993
 30
0.0
 40
56.20000000000169
100
AcDbArc
 50
38.35093687884093
 51
51.00592814028617
  0
ARC
  5
2F4
330
4F
100
AcDbEntity
  8
0
  6
Continuous
 62
     7
100
AcDbCircle
 10
0.0000149833239
 20
-748.9491116087993
 30
0.0
 40
58.13148319780666
100
AcDbArc
 50
128.3119739458322
 51
141.0448910732935
  0
ARC
  5
2F5
330
4F
100
AcDbEntity
  8
0
  6
Continuous
 62
     7
100
AcDbCircle
 10
0.0000149833239
 20
-748.9491116087993
 30
0.0
 40
70.50000000000072
100
AcDbArc
 50
-171.8869140318105
 51
-158.7562209490696
  0
ARC
  5
2F6
330
4F
100
AcDbEntity
  8
0
  6
Continuous
 62
     7
100
AcDbCircle
 10
0.0000149833239
 20
-748.9491116087993
 30
0.0
 40
73.89999999999836
100
AcDbArc
 50
-96.92991923491554
 51
-83.71321574596251
  0
ARC
  5
2F7
330
4F
100
AcDbEntity
  8
0
  6
Continuous
 62
     7
100
AcDbCircle
 10
0.0000149833239
 20
-748.9491116087993
 30
0.0
 40
73.89999999999836
100
AcDbArc
 50
-6.92991923491554
 51
6.2867842540403
  0
ARC
  5
2F8
330
4F
100
AcDbEntity
  8
0
  6
Continuous
 62
     7
100
AcDbCircle
 10
0.0000149833239
 20
-748.9491116087993
 30
0.0
 40
73.89999999999908
100
AcDbArc
 50
-171.9299192349185
 51
-158.7132157459601
  0
ARC
  5
2F9
330
4F
100
AcDbEntity
  8
0
  6
Continuous
 62
     7
100
AcDbCircle
 10
0.0000149833239
 20
-748.9491116087993
 30
0.0
 40
73.89999999999993
100
AcDbArc
 50
-156.9299192349179
 51
-143.7132157459609
  0
ARC
  5
2FA
330
4F
100
AcDbEntity
  8
0
  6
Continuous
 62
     7
100
AcDbCircle
 10
0.0000149833239
 20
-748.9491116087993
 30
0.0
 40
73.90000000000055
100
AcDbArc
 50
-111.9299192349174
 51
-98.7132157459608
  0
ARC
  5
2FB
330
4F
100
AcDbEntity
  8
0
  6
Continuous
 62
     7
100
AcDbCircle
 10
0.00001498332026
 20
-748.9491116087956
 30
0.0
 40
74.99999999999848
100
AcDbArc
 50
143.0570022246421
 51
156.2998627944833
  0
ARC
  5
2FC
330
4F
100
AcDbEntity
  8
0
  6
Continuous
 62
     7
100
AcDbCircle
 10
0.00001498332026
 20
-748.9491116087956
 30
0.0
 40
75.00000000000095
100
AcDbArc
 50
158.0570022246412
 51
171.2998627944881
  0
ARC
  5
2FD
330
4F
100
AcDbEntity
  8
0
  6
Continuous
 62
     7
100
AcDbCircle
 10
0.00001498332026
 20
-748.9491116087956
 30
0.0
 40
78.99999999999754
100
AcDbArc
 50
143.0125144556235
 51
156.344350563503
  0
ARC
  5
2FE
330
4F
100
AcDbEntity
  8
0
  6
Continuous
 62
     7
100
AcDbCircle
 10
0.00001498332026
 20
-748.9491116087956
 30
0.0
 40
78.99999999999997
100
AcDbArc
 50
38.01251445562218
 51
51.34435056349909
  0
ARC
  5
2FF
330
4F
100
AcDbEntity
  8
0
  6
Continuous
 62
     7
100
AcDbCircle
 10
0.00001498332026
 20
-748.9491116087956
 30
0.0
 40
74.99999999999939
100
AcDbArc
 50
38.05700222463656
 51
51.29986279448326
  0
ARC
  5
300
330
4F
100
AcDbEntity
  8
0
  6
Continuous
 62
     7
100
AcDbCircle
 10
0.00001498332026
 20
-748.9491116087956
 30
0.0
 40
75.00000000000021
100
AcDbArc
 50
23.05700222463587
 51
36.29986279448384
  0
ARC
  5
301
330
4F
100
AcDbEntity
  8
0
  6
Continuous
 62
     7
100
AcDbCircle
 10
0.00001498332026
 20
-748.9491116087956
 30
0.0
 40
75.00000000000232
100
AcDbArc
 50
-21.94299777536139
 51
-8.70013720551744
  0
ARC
  5
302
330
4F
100
AcDbEntity
  8
0
  6
Continuous
 62
     7
100
AcDbCircle
 10
0.00001498332026
 20
-748.9491116087956
 30
0.0
 40
75.00000000000006
100
AcDbArc
 50
133.126210423383
 51
141.2998627944854
  0
ARC
  5
303
330
4F
100
AcDbEntity
  8
0
  6
Continuous
 62
     7
100
AcDbCircle
 10
0.00001498332026
 20
-748.9491116087993
 30
0.0
 40
75.00000000000102
100
AcDbArc
 50
128.0570022246426
 51
133.1262104233812
  0
ARC
  5
304
330
4F
100
AcDbEntity
  8
0
  6
Continuous
 62
     7
100
AcDbCircle
 10
0.00001498332026
 20
-748.9491116087956
 30
0.0
 40
74.99999999999852
100
AcDbArc
 50
98.0570022246395
 51
111.299862794484
  0
ARC
  5
305
330
4F
100
AcDbEntity
  8
0
  6
Continuous
 62
     7
100
AcDbCircle
 10
0.00001498332026
 20
-748.9491116087956
 30
0.0
 40
74.99999999999972
100
AcDbArc
 50
113.0570022246421
 51
126.2998627944839
  0
ARC
  5
306
330
4F
100
AcDbEntity
  8
0
  6
Continuous
 62
     7
100
AcDbCircle
 10
0.00001498332026
 20
-748.9491116087956
 30
0.0
 40
78.99999999999852
100
AcDbArc
 50
98.01251445562225
 51
111.3443505635026
  0
ARC
  5
307
330
4F
100
AcDbEntity
  8
0
  6
Continuous
 62
     7
100
AcDbCircle
 10
0.00001498332026
 20
-748.9491116087956
 30
0.0
 40
78.99999999999622
100
AcDbArc
 50
113.0125144556249
 51
126.3443505634999
  0
ARC
  5
308
330
4F
100
AcDbEntity
  8
0
  6
Continuous
 62
     7
100
AcDbCircle
 10
0.00001498332026
 20
-748.9491116087956
 30
0.0
 40
78.99999999999935
100
AcDbArc
 50
128.0125144556259
 51
141.3443505635028
  0
ARC
  5
309
330
4F
100
AcDbEntity
  8
0
  6
Continuous
 62
     7
100
AcDbCircle
 10
0.00001498332026
 20
-748.9491116087956
 30
0.0
 40
78.99999999999899
100
AcDbArc
 50
83.01251445562244
 51
96.34435056350169
  0
ARC
  5
30A
330
4F
100
AcDbEntity
  8
0
  6
Continuous
 62
     7
100
AcDbCircle
 10
0.00001498332026
 20
-748.9491116087956
 30
0.0
 40
74.9999999999995
100
AcDbArc
 50
-6.94299777536149
 51
6.29986279448198
  0
ARC
  5
30B
330
4F
100
AcDbEntity
  8
0
  6
Continuous
 62
     7
100
AcDbCircle
 10
0.00001498332026
 20
-748.9491116087956
 30
0.0
 40
79.00000000000149
100
AcDbArc
 50
23.01251445562044
 51
36.34435056349989
  0
ARC
  5
30C
330
4F
100
AcDbEntity
  8
0
  6
Continuous
 62
     7
100
AcDbCircle
 10
0.00001498332026
 20
-748.9491116087956
 30
0.0
 40
75.0000000000016
100
AcDbArc
 50
8.05700222463636
 51
21.29986279448294
  0
ARC
  5
30D
330
4F
100
AcDbEntity
  8
0
  6
Continuous
 62
     7
100
AcDbCircle
 10
0.00001498332026
 20
-748.9491116087956
 30
0.0
 40
79.00000000000162
100
AcDbArc
 50
8.01251445561927
 51
21.3443505634992
  0
ARC
  5
30E
330
4F
100
AcDbEntity
  8
0
  6
Continuous
 62
     7
100
AcDbCircle
 10
0.00001498332026
 20
-748.9491116087956
 30
0.0
 40
78.99999999999899
100
AcDbArc
 50
-6.98748554437756
 51
6.34435056349908
  0
ARC
  5
30F
330
4F
100
AcDbEntity
  8
0
  6
Continuous
 62
     7
100
AcDbCircle
 10
0.00001498332026
 20
-748.9491116087956
 30
0.0
 40
78.99999999999933
100
AcDbArc
 50
68.01251445562312
 51
81.34435056349814
  0
ARC
  5
310
330
4F
100
AcDbEntity
  8
0
  6
Continuous
 62
     7
100
AcDbCircle
 10
0.00001498332026
 20
-748.9491116087956
 30
0.0
 40
74.99999999999893
100
AcDbArc
 50
68.05700222463757
 51
81.29986279448255
  0
ARC
  5
311
330
4F
100
AcDbEntity
  8
0
  6
Continuous
 62
     7
100
AcDbCircle
 10
0.00001498332026
 20
-748.9491116087956
 30
0.0
 40
78.99999999999973
100
AcDbArc
 50
53.01251445562143
 51
66.34435056349957
  0
ARC
  5
312
330
4F
100
AcDbEntity
  8
0
  6
Continuous
 62
     7
100
AcDbCircle
 10
0.00001498332026
 20
-748.9491116087956
 30
0.0
 40
74.99999999999777
100
AcDbArc
 50
53.05700222463821
 51
66.2998627944833
  0
ARC
  5
313
330
4F
100
AcDbEntity
  8
0
  6
Continuous
 62
     7
100
AcDbCircle
 10
0.00001498332026
 20
-748.9491116087956
 30
0.0
 40
74.9999999999995
100
AcDbArc
 50
83.05700222463851
 51
96.29986279448475
  0
ARC
  5
314
330
4F
100
AcDbEntity
  8
0
  6
Continuous
 62
     7
100
AcDbCircle
 10
0.00001498332026
 20
-748.9491116087993
 30
0.0
 40
74.99999999999879
100
AcDbArc
 50
-51.94299777535954
 51
-46.87378957661696
  0
ARC
  5
315
330
4F
100
AcDbEntity
  8
0
  6
Continuous
 62
     7
100
AcDbCircle
 10
0.00001498332026
 20
-748.9491116087956
 30
0.0
 40
75.00000000000286
100
AcDbArc
 50
-36.94299777536234
 51
-28.76943394102487
  0
ARC
  5
316
330
4F
100
AcDbEntity
  8
0
  6
Continuous
 62
     7
100
AcDbCircle
 10
0.00001498332026
 20
-748.9491116087993
 30
0.0
 40
75.00000000000074
100
AcDbArc
 50
-28.76943394102243
 51
-23.70013720551415
  0
ARC
  5
317
330
4F
100
AcDbEntity
  8
0
  6
Continuous
 62
     7
100
AcDbCircle
 10
0.00001498332026
 20
-748.9491116087956
 30
0.0
 40
75.00000000000271
100
AcDbArc
 50
-46.87378957661885
 51
-38.70013720551674
  0
ARC
  5
318
330
4F
100
AcDbEntity
  8
0
  6
Continuous
 62
     7
100
AcDbCircle
 10
0.00001498332026
 20
-748.9491116087956
 30
0.0
 40
79.00000000000222
100
AcDbArc
 50
-141.9874855443757
 51
-128.6556494364993
  0
ARC
  5
319
330
4F
100
AcDbEntity
  8
0
  6
Continuous
 62
     7
100
AcDbCircle
 10
0.00001498332026
 20
-748.9491116087956
 30
0.0
 40
79.00000000000263
100
AcDbArc
 50
-126.987485544377
 51
-113.6556494364994
  0
ARC
  5
31A
330
4F
100
AcDbEntity
  8
0
  6
Continuous
 62
     7
100
AcDbCircle
 10
0.00001498332026
 20
-748.9491116087956
 30
0.0
 40
78.99999999999903
100
AcDbArc
 50
-171.9874855443751
 51
-158.6556494364984
  0
ARC
  5
31B
330
4F
100
AcDbEntity
  8
0
  6
Continuous
 62
     7
100
AcDbCircle
 10
0.00001498332026
 20
-748.9491116087956
 30
0.0
 40
78.99999999999957
100
AcDbArc
 50
-156.9874855443761
 51
-143.655649436498
  0
ARC
  5
31C
330
4F
100
AcDbEntity
  8
0
  6
Continuous
 62
     7
100
AcDbCircle
 10
0.00001498332026
 20
-748.9491116087956
 30
0.0
 40
75.00000000000067
100
AcDbArc
 50
-126.9429977753601
 51
-113.7001372055156
  0
ARC
  5
31D
330
4F
100
AcDbEntity
  8
0
  6
Continuous
 62
     7
100
AcDbCircle
 10
0.00001498332026
 20
-748.9491116087956
 30
0.0
 40
75.00000000000102
100
AcDbArc
 50
-141.9429977753574
 51
-128.700137205515
  0
ARC
  5
31E
330
4F
100
AcDbEntity
  8
0
  6
Continuous
 62
     7
100
AcDbCircle
 10
0.00001498332026
 20
-748.9491116087956
 30
0.0
 40
75.00000000000165
100
AcDbArc
 50
-156.9429977753616
 51
-143.7001372055139
  0
ARC
  5
31F
330
4F
100
AcDbEntity
  8
0
  6
Continuous
 62
     7
100
AcDbCircle
 10
0.00001498332026
 20
-748.9491116087956
 30
0.0
 40
75.00000000000095
100
AcDbArc
 50
-111.9429977753588
 51
-98.70013720551702
  0
ARC
  5
320
330
4F
100
AcDbEntity
  8
0
  6
Continuous
 62
     7
100
AcDbCircle
 10
0.00001498332026
 20
-748.9491116087956
 30
0.0
 40
79.0000000000027
100
AcDbArc
 50
-111.9874855443759
 51
-98.65564943649886
  0
ARC
  5
321
330
4F
100
AcDbEntity
  8
0
  6
Continuous
 62
     7
100
AcDbCircle
 10
0.00001498332026
 20
-748.9491116087956
 30
0.0
 40
74.99999999999903
100
AcDbArc
 50
-171.9429977753578
 51
-158.7001372055171
  0
ARC
  5
322
330
4F
100
AcDbEntity
  8
0
  6
Continuous
 62
     7
100
AcDbCircle
 10
0.00001498332026
 20
-748.9491116087956
 30
0.0
 40
79.00000000000149
100
AcDbArc
 50
-66.98748554437957
 51
-53.65564943650167
  0
ARC
  5
323
330
4F
100
AcDbEntity
  8
0
  6
Continuous
 62
     7
100
AcDbCircle
 10
0.00001498332026
 20
-748.9491116087956
 30
0.0
 40
79.00000000000213
100
AcDbArc
 50
-81.98748554437812
 51
-68.65564943649835
  0
ARC
  5
324
330
4F
100
AcDbEntity
  8
0
  6
Continuous
 62
     7
100
AcDbCircle
 10
0.00001498332026
 20
-748.9491116087956
 30
0.0
 40
75.00000000000165
100
AcDbArc
 50
-66.94299777536159
 51
-53.7001372055178
  0
ARC
  5
325
330
4F
100
AcDbEntity
  8
0
  6
Continuous
 62
     7
100
AcDbCircle
 10
0.00001498332026
 20
-748.9491116087956
 30
0.0
 40
75.00000000000267
100
AcDbArc
 50
-96.9429977753584
 51
-83.70013720551556
  0
ARC
  5
326
330
4F
100
AcDbEntity
  8
0
  6
Continuous
 62
     7
100
AcDbCircle
 10
0.00001498332026
 20
-748.9491116087956
 30
0.0
 40
75.00000000000212
100
AcDbArc
 50
-81.9429977753609
 51
-68.70013720551705
  0
ARC
  5
327
330
4F
100
AcDbEntity
  8
0
  6
Continuous
 62
     7
100
AcDbCircle
 10
0.00001498332026
 20
-748.9491116087956
 30
0.0
 40
79.0000000000026
100
AcDbArc
 50
-96.98748554437724
 51
-83.65564943649859
  0
ARC
  5
328
330
4F
100
AcDbEntity
  8
0
  6
Continuous
 62
     7
100
AcDbCircle
 10
0.00001498332026
 20
-748.9491116087956
 30
0.0
 40
78.99999999999933
100
AcDbArc
 50
-21.98748554437689
 51
-8.65564943649925
  0
ARC
  5
329
330
4F
100
AcDbEntity
  8
0
  6
Continuous
 62
     7
100
AcDbCircle
 10
0.00001498332026
 20
-748.9491116087956
 30
0.0
 40
78.99999999999973
100
AcDbArc
 50
-36.98748554437857
 51
-23.65564943649937
  0
ARC
  5
32A
330
4F
100
AcDbEntity
  8
0
  6
Continuous
 62
     7
100
AcDbCircle
 10
0.00001498332026
 20
-748.9491116087956
 30
0.0
 40
79.00000000000284
100
AcDbArc
 50
-51.98748554437945
 51
-38.65564943649927
  0
ARC
  5
32B
330
4F
100
AcDbEntity
  8
0
  6
Continuous
 62
     7
100
AcDbCircle
 10
0.00001498332026
 20
-748.9491116087956
 30
0.0
 40
78.99999999999933
100
AcDbArc
 50
158.0125144556231
 51
171.344350563506
  0
ARC
  5
32C
330
4F
100
AcDbEntity
  8
0
  6
Continuous
 62
     7
100
AcDbCircle
 10
0.00001498332026
 20
-748.9491116087956
 30
0.0
 40
74.99999999999862
100
AcDbArc
 50
173.057002224644
 51
-173.7001372055153
  0
ARC
  5
32D
330
4F
100
AcDbEntity
  8
0
  6
Continuous
 62
     7
100
AcDbCircle
 10
0.00001498332026
 20
-748.9491116087956
 30
0.0
 40
78.99999999999855
100
AcDbArc
 50
173.0125144556251
 51
-173.6556494364957
  0
ARC
  5
32E
330
4F
100
AcDbEntity
  8
0
  6
Continuous
 62
     7
100
AcDbCircle
 10
0.00001498332026
 20
-748.9491116087956
 30
0.0
 40
70.50000000000107
100
AcDbArc
 50
143.1130859681924
 51
156.2437790509309
  0
ARC
  5
32F
330
4F
100
AcDbEntity
  8
0
  6
Continuous
 62
     7
100
AcDbCircle
 10
0.00001498332026
 20
-748.9491116087956
 30
0.0
 40
70.49999999999979
100
AcDbArc
 50
158.1130859681896
 51
171.2437790509339
  0
ARC
  5
330
330
4F
100
AcDbEntity
  8
0
  6
Continuous
 62
     7
100
AcDbCircle
 10
0.00001498332026
 20
-748.9491116087956
 30
0.0
 40
52.00000000000149
100
AcDbArc
 50
68.44565402226284
 51
80.91121099685917
  0
ARC
  5
331
330
4F
100
AcDbEntity
  8
0
  6
Continuous
 62
     7
100
AcDbCircle
 10
0.00001498332026
 20
-748.9491116087956
 30
0.0
 40
70.50000000000045
100
AcDbArc
 50
-21.8869140318038
 51
-8.75622094906608
  0
ARC
  5
332
330
4F
100
AcDbEntity
  8
0
  6
Continuous
 62
     7
100
AcDbCircle
 10
0.00001498332026
 20
-748.9491116087956
 30
0.0
 40
64.49999999999775
100
AcDbArc
 50
-21.79996070122021
 51
-8.84317427964996
  0
ARC
  5
333
330
4F
100
AcDbEntity
  8
0
  6
Continuous
 62
     7
100
AcDbCircle
 10
0.00001498332026
 20
-748.9491116087956
 30
0.0
 40
70.49999999999888
100
AcDbArc
 50
-36.88691403180528
 51
-23.7562209490664
  0
ARC
  5
334
330
4F
100
AcDbEntity
  8
0
  6
Continuous
 62
     7
100
AcDbCircle
 10
0.00001498332026
 20
-748.9491116087956
 30
0.0
 40
51.9999999999979
100
AcDbArc
 50
-36.55434597773833
 51
-24.08878900313619
  0
ARC
  5
335
330
4F
100
AcDbEntity
  8
0
  6
Continuous
 62
     7
100
AcDbCircle
 10
0.00001498332026
 20
-748.9491116087956
 30
0.0
 40
64.5000000000006
100
AcDbArc
 50
-36.79996070122234
 51
-23.84317427965112
  0
ARC
  5
336
330
4F
100
AcDbEntity
  8
0
  6
Continuous
 62
     7
100
AcDbCircle
 10
0.00001498332026
 20
-748.9491116087956
 30
0.0
 40
52.00000000000016
100
AcDbArc
 50
-21.55434597773343
 51
-9.08878900313292
  0
ARC
  5
337
330
4F
100
AcDbEntity
  8
0
  6
Continuous
 62
     7
100
AcDbCircle
 10
0.00001498332026
 20
-748.9491116087956
 30
0.0
 40
64.49999999999956
100
AcDbArc
 50
128.2000392987784
 51
141.156825720347
  0
ARC
  5
338
330
4F
100
AcDbEntity
  8
0
  6
Continuous
 62
     7
100
AcDbCircle
 10
0.00001498332026
 20
-748.9491116087956
 30
0.0
 40
70.50000000000266
100
AcDbArc
 50
128.1130859681925
 51
141.2437790509311
  0
ARC
  5
339
330
4F
100
AcDbEntity
  8
0
  6
Continuous
 62
     7
100
AcDbCircle
 10
0.00001498332026
 20
-748.9491116087956
 30
0.0
 40
51.99999999999955
100
AcDbArc
 50
128.4456540222627
 51
140.91121099686
  0
ARC
  5
33A
330
4F
100
AcDbEntity
  8
0
  6
Continuous
 62
     7
100
AcDbCircle
 10
0.00001498332026
 20
-748.9491116087956
 30
0.0
 40
64.50000000000217
100
AcDbArc
 50
113.2000392987781
 51
126.1568257203459
  0
ARC
  5
33B
330
4F
100
AcDbEntity
  8
0
  6
Continuous
 62
     7
100
AcDbCircle
 10
0.00001498332026
 20
-748.9491116087956
 30
0.0
 40
51.99999999999989
100
AcDbArc
 50
98.44565402226067
 51
110.9112109968599
  0
ARC
  5
33C
330
4F
100
AcDbEntity
  8
0
  6
Continuous
 62
     7
100
AcDbCircle
 10
0.00001498332026
 20
-748.9491116087956
 30
0.0
 40
52.00000000000205
100
AcDbArc
 50
113.4456540222643
 51
125.9112109968595
  0
ARC
  5
33D
330
4F
100
AcDbEntity
  8
0
  6
Continuous
 62
     7
100
AcDbCircle
 10
0.00001498332026
 20
-748.9491116087956
 30
0.0
 40
70.50000000000124
100
AcDbArc
 50
98.1130859681924
 51
111.2437790509304
  0
ARC
  5
33E
330
4F
100
AcDbEntity
  8
0
  6
Continuous
 62
     7
100
AcDbCircle
 10
0.00001498332026
 20
-748.9491116087956
 30
0.0
 40
64.50000000000088
100
AcDbArc
 50
98.20003929877724
 51
111.1568257203458
  0
ARC
  5
33F
330
4F
100
AcDbEntity
  8
0
  6
Continuous
 62
     7
100
AcDbCircle
 10
0.00001498332026
 20
-748.9491116087956
 30
0.0
 40
70.50000000000225
100
AcDbArc
 50
113.1130859681931
 51
126.2437790509314
  0
ARC
  5
340
330
4F
100
AcDbEntity
  8
0
  6
Continuous
 62
     7
100
AcDbCircle
 10
0.00001498332026
 20
-748.9491116087956
 30
0.0
 40
52.00000000000061
100
AcDbArc
 50
23.44565402226058
 51
35.91121099686509
  0
ARC
  5
341
330
4F
100
AcDbEntity
  8
0
  6
Continuous
 62
     7
100
AcDbCircle
 10
0.00001498332026
 20
-748.9491116087956
 30
0.0
 40
51.99999999999955
100
AcDbArc
 50
38.44565402226272
 51
50.91121099686316
  0
ARC
  5
342
330
4F
100
AcDbEntity
  8
0
  6
Continuous
 62
     7
100
AcDbCircle
 10
0.00001498332026
 20
-748.9491116087956
 30
0.0
 40
51.99999999999989
100
AcDbArc
 50
8.44565402226067
 51
20.91121099686502
  0
ARC
  5
343
330
4F
100
AcDbEntity
  8
0
  6
Continuous
 62
     7
100
AcDbCircle
 10
0.00001498332026
 20
-748.9491116087956
 30
0.0
 40
70.50000000000081
100
AcDbArc
 50
23.11308596819041
 51
36.24377905093552
  0
ARC
  5
344
330
4F
100
AcDbEntity
  8
0
  6
Continuous
 62
     7
100
AcDbCircle
 10
0.00001498332026
 20
-748.9491116087956
 30
0.0
 40
64.50000000000037
100
AcDbArc
 50
8.20003929877404
 51
21.15682572034879
  0
ARC
  5
345
330
4F
100
AcDbEntity
  8
0
  6
Continuous
 62
     7
100
AcDbCircle
 10
0.00001498332026
 20
-748.9491116087956
 30
0.0
 40
70.50000000000072
100
AcDbArc
 50
8.11308596818947
 51
21.24377905093311
  0
ARC
  5
346
330
4F
100
AcDbEntity
  8
0
  6
Continuous
 62
     7
100
AcDbCircle
 10
0.00001498332026
 20
-748.9491116087956
 30
0.0
 40
70.49999999999844
100
AcDbArc
 50
-6.88691403180551
 51
6.2437790509332
  0
ARC
  5
347
330
4F
100
AcDbEntity
  8
0
  6
Continuous
 62
     7
100
AcDbCircle
 10
0.00001498332026
 20
-748.9491116087956
 30
0.0
 40
52.00000000000082
100
AcDbArc
 50
53.44565402226405
 51
65.9112109968618
  0
ARC
  5
348
330
4F
100
AcDbEntity
  8
0
  6
Continuous
 62
     7
100
AcDbCircle
 10
0.00001498332026
 20
-748.9491116087956
 30
0.0
 40
70.50000000000266
100
AcDbArc
 50
38.11308596819252
 51
51.24377905093298
  0
ARC
  5
349
330
4F
100
AcDbEntity
  8
0
  6
Continuous
 62
     7
100
AcDbCircle
 10
0.00001498332026
 20
-748.9491116087956
 30
0.0
 40
70.50000000000107
100
AcDbArc
 50
53.11308596819235
 51
66.24377905093209
  0
ARC
  5
34A
330
4F
100
AcDbEntity
  8
0
  6
Continuous
 62
     7
100
AcDbCircle
 10
0.00001498332026
 20
-748.9491116087956
 30
0.0
 40
70.50000000000247
100
AcDbArc
 50
83.11308596819191
 51
96.2437790509332
  0
ARC
  5
34B
330
4F
100
AcDbEntity
  8
0
  6
Continuous
 62
     7
100
AcDbCircle
 10
0.00001498332026
 20
-748.9491116087956
 30
0.0
 40
70.50000000000182
100
AcDbArc
 50
68.11308596819346
 51
81.24377905093147
  0
ARC
  5
34C
330
4F
100
AcDbEntity
  8
0
  6
Continuous
 62
     7
100
AcDbCircle
 10
0.00001498332026
 20
-748.9491116087956
 30
0.0
 40
64.50000000000249
100
AcDbArc
 50
68.200039298778
 51
81.15682572034366
  0
ARC
  5
34D
330
4F
100
AcDbEntity
  8
0
  6
Continuous
 62
     7
100
AcDbCircle
 10
0.00001498332026
 20
-748.9491116087956
 30
0.0
 40
64.5000000000006
100
AcDbArc
 50
53.20003929877766
 51
66.15682572034592
  0
ARC
  5
34E
330
4F
100
AcDbEntity
  8
0
  6
Continuous
 62
     7
100
AcDbCircle
 10
0.00001498332026
 20
-748.9491116087956
 30
0.0
 40
70.49999999999815
100
AcDbArc
 50
-126.8869140318094
 51
-113.7562209490691
  0
ARC
  5
34F
330
4F
100
AcDbEntity
  8
0
  6
Continuous
 62
     7
100
AcDbCircle
 10
0.00001498332026
 20
-748.9491116087956
 30
0.0
 40
70.49999999999756
100
AcDbArc
 50
-141.886914031808
 51
-128.7562209490689
  0
ARC
  5
350
330
4F
100
AcDbEntity
  8
0
  6
Continuous
 62
     7
100
AcDbCircle
 10
0.00001498332026
 20
-748.9491116087956
 30
0.0
 40
64.4999999999973
100
AcDbArc
 50
-141.7999607012242
 51
-128.843174279653
  0
ARC
  5
351
330
4F
100
AcDbEntity
  8
0
  6
Continuous
 62
     7
100
AcDbCircle
 10
0.00001498332026
 20
-748.9491116087956
 30
0.0
 40
70.50000000000081
100
AcDbArc
 50
-156.8869140318096
 51
-143.7562209490669
  0
ARC
  5
352
330
4F
100
AcDbEntity
  8
0
  6
Continuous
 62
     7
100
AcDbCircle
 10
0.00001498332026
 20
-748.9491116087956
 30
0.0
 40
64.49999999999767
100
AcDbArc
 50
-126.7999607012243
 51
-113.8431742796554
  0
ARC
  5
353
330
4F
100
AcDbEntity
  8
0
  6
Continuous
 62
     7
100
AcDbCircle
 10
0.00001498332026
 20
-748.9491116087956
 30
0.0
 40
70.49999999999844
100
AcDbArc
 50
-111.8869140318076
 51
-98.756220949069
  0
ARC
  5
354
330
4F
100
AcDbEntity
  8
0
  6
Continuous
 62
     7
100
AcDbCircle
 10
0.00001498332026
 20
-748.9491116087956
 30
0.0
 40
51.99999999999989
100
AcDbArc
 50
-81.55434597773933
 51
-69.08878900313873
  0
ARC
  5
355
330
4F
100
AcDbEntity
  8
0
  6
Continuous
 62
     7
100
AcDbCircle
 10
0.00001498332026
 20
-748.9491116087956
 30
0.0
 40
52.0000000000016
100
AcDbArc
 50
173.445654022263
 51
-174.0887890031375
  0
ARC
  5
356
330
4F
100
AcDbEntity
  8
0
  6
Continuous
 62
     7
100
AcDbCircle
 10
0.00001498332026
 20
-748.9491116087956
 30
0.0
 40
64.49999999999909
100
AcDbArc
 50
-111.7999607012232
 51
-98.84317427965365
  0
ARC
  5
357
330
4F
100
AcDbEntity
  8
0
  6
Continuous
 62
     7
100
AcDbCircle
 10
0.00001498332026
 20
-748.9491116087956
 30
0.0
 40
64.50000000000075
100
AcDbArc
 50
-156.7999607012249
 51
-143.8431742796522
  0
ARC
  5
358
330
4F
100
AcDbEntity
  8
0
  6
Continuous
 62
     7
100
AcDbCircle
 10
0.00001498332026
 20
-748.9491116087956
 30
0.0
 40
51.9999999999979
100
AcDbArc
 50
-126.5543459777383
 51
-114.0887890031399
  0
ARC
  5
359
330
4F
100
AcDbEntity
  8
0
  6
Continuous
 62
     7
100
AcDbCircle
 10
0.00001498332026
 20
-748.9491116087956
 30
0.0
 40
51.99999999999955
100
AcDbArc
 50
-141.5543459777373
 51
-129.0887890031394
  0
ARC
  5
35A
330
4F
100
AcDbEntity
  8
0
  6
Continuous
 62
     7
100
AcDbCircle
 10
0.00001498332026
 20
-748.9491116087956
 30
0.0
 40
64.49999999999676
100
AcDbArc
 50
-81.79996070122552
 51
-68.84317427965422
  0
ARC
  5
35B
330
4F
100
AcDbEntity
  8
0
  6
Continuous
 62
     7
100
AcDbCircle
 10
0.00001498332026
 20
-748.9491116087956
 30
0.0
 40
51.99999999999916
100
AcDbArc
 50
-156.5543459777431
 51
-144.0887890031381
  0
ARC
  5
35C
330
4F
100
AcDbEntity
  8
0
  6
Continuous
 62
     7
100
AcDbCircle
 10
0.00001498332026
 20
-748.9491116087956
 30
0.0
 40
51.9999999999981
100
AcDbArc
 50
-111.5543459777386
 51
-99.0887890031375
  0
ARC
  5
35D
330
4F
100
AcDbEntity
  8
0
  6
Continuous
 62
     7
100
AcDbCircle
 10
0.00001498332026
 20
-748.9491116087956
 30
0.0
 40
70.49999999999712
100
AcDbArc
 50
-81.88691403181012
 51
-68.75622094906964
  0
ARC
  5
35E
330
4F
100
AcDbEntity
  8
0
  6
Continuous
 62
     7
100
AcDbCircle
 10
0.00001498332026
 20
-748.9491116087956
 30
0.0
 40
64.49999999999956
100
AcDbArc
 50
-51.79996070122162
 51
-38.843174279653
  0
ARC
  5
35F
330
4F
100
AcDbEntity
  8
0
  6
Continuous
 62
     7
100
AcDbCircle
 10
0.00001498332026
 20
-748.9491116087956
 30
0.0
 40
70.49999999999756
100
AcDbArc
 50
-51.88691403180798
 51
-38.75622094906658
  0
ARC
  5
360
330
4F
100
AcDbEntity
  8
0
  6
Continuous
 62
     7
100
AcDbCircle
 10
0.00001498332026
 20
-748.9491116087956
 30
0.0
 40
51.99999999999944
100
AcDbArc
 50
158.4456540222577
 51
170.9112109968631
  0
ARC
  5
361
330
4F
100
AcDbEntity
  8
0
  6
Continuous
 62
     7
100
AcDbCircle
 10
0.00001498332026
 20
-748.9491116087956
 30
0.0
 40
52.00000000000298
100
AcDbArc
 50
143.4456540222608
 51
155.9112109968601
  0
ARC
  5
362
330
4F
100
AcDbEntity
  8
0
  6
Continuous
 62
     7
100
AcDbCircle
 10
0.00001498332026
 20
-748.9491116087956
 30
0.0
 40
64.49999999999777
100
AcDbArc
 50
-96.79996070122051
 51
-83.84317427965084
  0
ARC
  5
363
330
4F
100
AcDbEntity
  8
0
  6
Continuous
 62
     7
100
AcDbCircle
 10
0.00001498332026
 20
-748.9491116087956
 30
0.0
 40
51.99999999999955
100
AcDbArc
 50
-51.55434597773727
 51
-39.08878900313685
  0
ARC
  5
364
330
4F
100
AcDbEntity
  8
0
  6
Continuous
 62
     7
100
AcDbCircle
 10
0.00001498332026
 20
-748.9491116087956
 30
0.0
 40
51.99999999999727
100
AcDbArc
 50
-66.55434597773782
 51
-54.08878900313815
  0
ARC
  5
365
330
4F
100
AcDbEntity
  8
0
  6
Continuous
 62
     7
100
AcDbCircle
 10
0.00001498332026
 20
-748.9491116087956
 30
0.0
 40
64.4999999999974
100
AcDbArc
 50
-66.79996070122361
 51
-53.84317427965225
  0
ARC
  5
366
330
4F
100
AcDbEntity
  8
0
  6
Continuous
 62
     7
100
AcDbCircle
 10
0.00001498332026
 20
-748.9491116087956
 30
0.0
 40
51.99999999999798
100
AcDbArc
 50
-96.55434597773748
 51
-84.0887890031371
  0
ARC
  5
367
330
4F
100
AcDbEntity
  8
0
  6
Continuous
 62
     7
100
AcDbCircle
 10
0.00001498332026
 20
-748.9491116087956
 30
0.0
 40
70.49999999999844
100
AcDbArc
 50
-96.88691403180552
 51
-83.75622094906649
  0
ARC
  5
368
330
4F
100
AcDbEntity
  8
0
  6
Continuous
 62
     7
100
AcDbCircle
 10
0.00001498332026
 20
-748.9491116087956
 30
0.0
 40
70.49999999999747
100
AcDbArc
 50
-66.88691403180843
 51
-53.75622094906687
  0
ARC
  5
369
330
4F
100
AcDbEntity
  8
0
  6
Continuous
 62
     7
100
AcDbCircle
 10
0.00001498332026
 20
-748.9491116087956
 30
0.0
 40
64.50000000000138
100
AcDbArc
 50
-6.79996070122013
 51
6.1568257203456
  0
ARC
  5
36A
330
4F
100
AcDbEntity
  8
0
  6
Continuous
 62
     7
100
AcDbCircle
 10
0.00001498332026
 20
-748.9491116087956
 30
0.0
 40
64.50000000000074
100
AcDbArc
 50
23.20003929877513
 51
36.15682572035037
  0
ARC
  5
36B
330
4F
100
AcDbEntity
  8
0
  6
Continuous
 62
     7
100
AcDbCircle
 10
0.00001498332026
 20
-748.9491116087956
 30
0.0
 40
64.50000000000242
100
AcDbArc
 50
38.20003929877638
 51
51.15682572034903
  0
ARC
  5
36C
330
4F
100
AcDbEntity
  8
0
  6
Continuous
 62
     7
100
AcDbCircle
 10
0.00001498332026
 20
-748.9491116087956
 30
0.0
 40
64.5000000000018
100
AcDbArc
 50
83.20003929877666
 51
96.15682572034882
  0
ARC
  5
36D
330
4F
100
AcDbEntity
  8
0
  6
Continuous
 62
     7
100
AcDbCircle
 10
0.00001498332026
 20
-748.9491116087956
 30
0.0
 40
52.00000000000159
100
AcDbArc
 50
83.44565402226299
 51
95.91121099686251
  0
ARC
  5
36E
330
4F
100
AcDbEntity
  8
0
  6
Continuous
 62
     7
100
AcDbCircle
 10
0.00001498332026
 20
-748.9491116087956
 30
0.0
 40
64.5000000000018
100
AcDbArc
 50
173.2000392987767
 51
-173.8431742796544
  0
ARC
  5
36F
330
4F
100
AcDbEntity
  8
0
  6
Continuous
 62
     7
100
AcDbCircle
 10
0.00001498332026
 20
-748.9491116087956
 30
0.0
 40
64.50000000000045
100
AcDbArc
 50
158.2000392987738
 51
171.15682572035
  0
ARC
  5
370
330
4F
100
AcDbEntity
  8
0
  6
Continuous
 62
     7
100
AcDbCircle
 10
0.00001498332026
 20
-748.9491116087956
 30
0.0
 40
64.5000000000006
100
AcDbArc
 50
143.2000392987777
 51
156.1568257203459
  0
ARC
  5
371
330
4F
100
AcDbEntity
  8
0
  6
Continuous
 62
     7
100
AcDbCircle
 10
0.00001498332026
 20
-748.9491116087956
 30
0.0
 40
70.49999999999844
100
AcDbArc
 50
173.1130859681945
 51
-173.7562209490698
  0
ARC
  5
372
330
4F
100
AcDbEntity
  8
0
  6
Continuous
 62
     7
100
AcDbCircle
 10
0.00001498332026
 20
-748.9491116087956
 30
0.0
 40
51.99999999999989
100
AcDbArc
 50
-171.5543459777394
 51
-159.0887890031425
  0
ARC
  5
373
330
4F
100
AcDbEntity
  8
0
  6
Continuous
 62
     7
100
AcDbCircle
 10
0.00001498332026
 20
-748.9491116087956
 30
0.0
 40
52.00000000000159
100
AcDbArc
 50
-6.55434597773702
 51
5.9112109968625
  0
ARC
  5
374
330
4F
100
AcDbEntity
  8
0
  6
Continuous
 62
     7
100
AcDbCircle
 10
0.00001498332026
 20
-748.9491116087956
 30
0.0
 40
70.50000000000072
100
AcDbArc
 50
-171.8869140318105
 51
-158.7562209490696
  0
ARC
  5
375
330
4F
100
AcDbEntity
  8
0
  6
Continuous
 62
     7
100
AcDbCircle
 10
0.00001498332026
 20
-748.9491116087956
 30
0.0
 40
64.50000000000036
100
AcDbArc
 50
-171.799960701226
 51
-158.8431742796572
  0
CIRCLE
  5
376
330
4F
100
AcDbEntity
  8
0
  6
Continuous
 62
     7
100
AcDbCircle
 10
73.82490654408215
 20
-807.137472868093
 30
0.0
 40
6.899999999997339
  0
CIRCLE
  5
377
330
4F
100
AcDbEntity
  8
1
  6
Continuous
 62
     7
100
AcDbCircle
 10
73.82490654407488
 20
-807.1374728681003
 30
0.0
 40
5.499999999999073
  0
CIRCLE
  5
378
330
4F
100
AcDbEntity
  8
0
  6
Continuous
 62
     7
100
AcDbCircle
 10
-13.48013829143851
 20
-841.9775237616923
 30
0.0
 40
6.899999999995374
  0
CIRCLE
  5
379
330
4F
100
AcDbEntity
  8
1
  6
Continuous
 62
     7
100
AcDbCircle
 10
-13.48013829144215
 20
-841.9775237616886
 30
0.0
 40
5.500000000002223
  0
CIRCLE
  5
37A
330
4F
100
AcDbEntity
  8
0
  6
Continuous
 62
     7
100
AcDbCircle
 10
-87.30502985219678
 20
-783.7891625023949
 30
0.0
 40
6.899999999996075
  0
CIRCLE
  5
37B
330
4F
100
AcDbEntity
  8
1
  6
Continuous
 62
     7
100
AcDbCircle
 10
-87.30502985219678
 20
-783.7891625023876
 30
0.0
 40
5.5
  0
CIRCLE
  5
37C
330
4F
100
AcDbEntity
  8
0
  6
Continuous
 62
     7
100
AcDbCircle
 10
-73.824876577438
 20
-690.7607503494983
 30
0.0
 40
6.899999999995087
  0
CIRCLE
  5
37D
330
4F
100
AcDbEntity
  8
1
  6
Continuous
 62
     7
100
AcDbCircle
 10
-73.82487657743073
 20
-690.7607503494946
 30
0.0
 40
5.499999999999073
  0
CIRCLE
  5
37E
330
4F
100
AcDbEntity
  8
0
  6
Continuous
 62
     7
100
AcDbCircle
 10
13.48016825807904
 20
-655.9206994558954
 30
0.0
 40
6.899999999995895
  0
CIRCLE
  5
37F
330
4F
100
AcDbEntity
  8
1
  6
Continuous
 62
     7
100
AcDbCircle
 10
13.48016825808632
 20
-655.9206994559026
 30
0.0
 40
5.500000000002224
  0
CIRCLE
  5
380
330
4F
100
AcDbEntity
  8
1
  6
Continuous
 62
     7
100
AcDbCircle
 10
87.3050598188373
 20
-714.1090607152
 30
0.0
 40
5.5
  0
CIRCLE
  5
381
330
4F
100
AcDbEntity
  8
0
  6
Continuous
 62
     7
100
AcDbCircle
 10
87.3050598188373
 20
-714.1090607151928
 30
0.0
 40
6.899999999996075
  0
CIRCLE
  5
382
330
4F
100
AcDbEntity
  8
0
  6
Continuous
 62
     7
100
AcDbCircle
 10
0.00001498332026
 20
-748.9491116087956
 30
0.0
 40
101.7999999999976
  0
CIRCLE
  5
383
330
4F
100
AcDbEntity
  8
0
  6
Continuous
 62
     7
100
AcDbCircle
 10
0.00001498332026
 20
-748.9491116087956
 30
0.0
 40
124.4999999999977
  0
CIRCLE
  5
384
330
4F
100
AcDbEntity
  8
0
  6
Continuous
 62
     7
100
AcDbCircle
 10
0.00001498332026
 20
-748.9491116087956
 30
0.0
 40
123.3859144827011
  0
SPLINE
  5
385
330
4F
100
AcDbEntity
  8
0
  6
Continuous
 62
     7
100
AcDbSpline
210
0.0
220
0.0
230
1.0
 70
     8
 71
     3
 72
    37
 73
    33
 74
    31
 42
0.0000000001
 43
0.0000000001
 44
0.00000001
 40
0.0
 40
0.0
 40
0.0
 40
0.0
 40
0.0124083622939905
 40
0.03403545488703
 40
0.0638180645413078
 40
0.1007066596833891
 40
0.1436704959846185
 40
0.1917030036855339
 40
0.2438287472597456
 40
0.299112756096728
 40
0.3566732199307536
 40
0.4722610300418727
 40
0.5874331804942844
 40
0.702395529948303
 40
0.8176981844911965
 40
0.8265720949639815
 40
0.8498622721527903
 40
0.8857629960571302
 40
0.9325515112447236
 40
0.9886119963467858
 40
1.052466852879926
 40
1.122817457848899
 40
1.19859626212191
 40
1.279031092406967
 40
1.346539024926822
 40
1.40941692895142
 40
1.466869850766863
 40
1.517948504072879
 40
1.56158091043255
 40
1.596597982267293
 40
1.621754207669224
 40
1.635746639133254
 40
1.635746639133254
 40
1.635746639133254
 40
1.635746639133254
 10
93.01734390753231
 20
-762.4414892604
 30
0.0
 10
93.01671681721558
 20
-762.4455775573168
 30
0.0
 10
93.01499674298827
 20
-762.4567915307632
 30
0.0
 10
93.0117377867409
 20
-762.4778134950277
 30
0.0
 10
93.00669570145516
 20
-762.5068133095847
 30
0.0
 10
92.99970650821125
 20
-762.5426868289677
 30
0.0
 10
92.99049886460797
 20
-762.5843143189024
 30
0.0
 10
92.97883886511028
 20
-762.6305830868275
 30
0.0
 10
92.96447499670603
 20
-762.6803778371052
 30
0.0
 10
92.94717163692926
 20
-762.7325939661409
 30
0.0
 10
92.91988297743092
 20
-762.8037043849101
 30
0.0
 10
92.878676320095
 20
-762.8907509366134
 30
0.0
 10
92.81831977697209
 20
-762.9891435286438
 30
0.0
 10
92.7475144515949
 20
-763.0804151997324
 30
0.0
 10
92.6897373263381
 20
-763.1356088167345
 30
0.0
 10
92.65339767008953
 20
-763.1687082063727
 30
0.0
 10
92.63607140733501
 20
-763.1833679870188
 30
0.0
 10
92.60828962162608
 20
-763.2052020139465
 30
0.0
 10
92.57062920853204
 20
-763.2320829898938
 30
0.0
 10
92.52375635725582
 20
-763.2619815743127
 30
0.0
 10
92.46828868942428
 20
-763.29282560082
 30
0.0
 10
92.4048474727314
 20
-763.3225483796865
 30
0.0
 10
92.33404970507856
 20
-763.3491000669987
 30
0.0
 10
92.26199230253239
 20
-763.3687810497115
 30
0.0
 10
92.19275881815679
 20
-763.3812107442002
 30
0.0
 10
92.13046976094677
 20
-763.3879919050718
 30
0.0
 10
92.07336280333365
 20
-763.3906457487017
 30
0.0
 10
92.02262114404027
 20
-763.3902744326115
 30
0.0
 10
91.9794293424514
 20
-763.3879279709752
 30
0.0
 10
91.9449680655286
 20
-763.3847171607458
 30
0.0
 10
91.92044377772241
 20
-763.381580932086
 30
0.0
 10
91.9075164069812
 20
-763.3797999482474
 30
0.0
 10
91.90289593303427
 20
-763.3791633927103
 30
0.0
 11
93.01734390753231
 21
-762.4414892604
 31
0.0
 11
93.01546024514623
 21
-762.4537538138298
 31
0.0
 11
93.01209933856913
 21
-762.4751181635978
 31
0.0
 11
93.00701304391261
 21
-762.5044632388999
 31
0.0
 11
92.99995321728822
 21
-762.5406699689316
 31
0.0
 11
92.9906717148075
 21
-762.5826192828881
 31
0.0
 11
92.97892039258204
 21
-762.6291921099656
 31
0.0
 11
92.96445110672337
 21
-762.6792693793591
 31
0.0
 11
92.94701571334308
 21
-762.7317320202644
 31
0.0
 11
92.92636606855271
 21
-762.7854609618771
 31
0.0
 11
92.87678378631321
 21
-762.8898742710585
 31
0.0
 11
92.8165313916796
 21
-762.9880286045377
 31
0.0
 11
92.74548168012402
 21
-763.0784071433611
 31
0.0
 11
92.66350744711858
 21
-763.1594930685751
 31
0.0
 11
92.65693031210431
 21
-763.1654502140394
 31
0.0
 11
92.63921195357811
 21
-763.1805661700007
 31
0.0
 11
92.61099907871825
 21
-763.2027674237715
 31
0.0
 11
92.57293839470299
 21
-763.2299804626638
 31
0.0
 11
92.52567660871063
 21
-763.26013177399
 31
0.0
 11
92.46986042791943
 21
-763.2911478450621
 31
0.0
 11
92.40613655950769
 21
-763.3209551631928
 31
0.0
 11
92.3351517106537
 21
-763.3474802156946
 31
0.0
 11
92.25755258853573
 21
-763.3686494898793
 31
0.0
 11
92.19112614432908
 21
-763.3806847905887
 31
0.0
 11
92.12861979920812
 21
-763.38751030406
 31
0.0
 11
92.07122984109701
 21
-763.3901993435048
 31
0.0
 11
92.02015255791989
 21
-763.3898252221338
 31
0.0
 11
91.97658423760092
 21
-763.3874612531579
 31
0.0
 11
91.94172116806422
 21
-763.3841807497881
 31
0.0
 11
91.91675963723395
 21
-763.3810570252352
 31
0.0
 11
91.90289593303427
 21
-763.3791633927103
 31
0.0
  0
SPLINE
  5
386
330
4F
100
AcDbEntity
  8
0
  6
Continuous
 62
     7
100
AcDbSpline
210
0.0
220
0.0
230
1.0
 70
     8
 71
     3
 72
    39
 73
    35
 74
    33
 42
0.0000000001
 43
0.0000000001
 44
0.00000001
 40
0.0
 40
0.0
 40
0.0
 40
0.0
 40
0.0603117730424048
 40
0.1206030355236273
 40
0.1777326189681844
 40
0.2348694222640464
 40
0.2894329758052688
 40
0.3440033194640857
 40
0.3964207826226833
 40
0.4488221181918974
 40
0.4995937423646032
 40
0.5503796535558152
 40
0.5999419239006946
 40
0.649496142045766
 40
0.6982209997603842
 40
0.7469416839836482
 40
0.7957559278396081
 40
0.8445839698097551
 40
0.8934927608126786
 40
0.9423836300947555
 40
0.9914996682909671
 40
1.040636060275802
 40
1.09054405685211
 40
1.140427671606437
 40
1.191601659114813
 40
1.242807508714726
 40
1.29597914715933
 40
1.349113714056049
 40
1.404216501571427
 40
1.459358785703728
 40
1.517299303939721
 40
1.575202549968174
 40
1.63556727717395
 40
1.695968970045335
 40
1.695968970045335
 40
1.695968970045335
 40
1.695968970045335
 10
92.18199460219952
 20
-761.1767487997276
 30
0.0
 10
92.20145239330355
 20
-761.1818046396456
 30
0.0
 10
92.24036135839202
 20
-761.191914600114
 30
0.0
 10
92.29735486899783
 20
-761.2081381886087
 30
0.0
 10
92.35256389963361
 20
-761.2265761555987
 30
0.0
 10
92.40510854869918
 20
-761.2467823051468
 30
0.0
 10
92.45590815431382
 20
-761.2689885479833
 30
0.0
 10
92.50430771418445
 20
-761.2926305808278
 30
0.0
 10
92.55109394630296
 20
-761.3178385174817
 30
0.0
 10
92.5955489151576
 20
-761.3445998266125
 30
0.0
 10
92.63799773230312
 20
-761.3734852843066
 30
0.0
 10
92.67816645265553
 20
-761.4039133609414
 30
0.0
 10
92.71656759607288
 20
-761.4359128192225
 30
0.0
 10
92.75278461129021
 20
-761.4693685772811
 30
0.0
 10
92.78688319467025
 20
-761.5045937935413
 30
0.0
 10
92.81874899808099
 20
-761.541529180741
 30
0.0
 10
92.84837855852076
 20
-761.5803231687748
 30
0.0
 10
92.875916359166
 20
-761.6206959986334
 30
0.0
 10
92.90150704531871
 20
-761.6623597962458
 30
0.0
 10
92.9249156892595
 20
-761.7054044724194
 30
0.0
 10
92.94582579287925
 20
-761.74980029442
 30
0.0
 10
92.96454116987053
 20
-761.795523262468
 30
0.0
 10
92.98123174469595
 20
-761.8422954422351
 30
0.0
 10
92.9957113377758
 20
-761.890516104197
 30
0.0
 10
93.00752472620051
 20
-761.9399015479626
 30
0.0
 10
93.01732054612312
 20
-761.9908291201815
 30
0.0
 10
93.0255552394166
 20
-762.0426946402988
 30
0.0
 10
93.03160690951198
 20
-762.0961821570241
 30
0.0
 10
93.03460663103768
 20
-762.1505861224259
 30
0.0
 10
93.035254331388
 20
-762.2066540324262
 30
0.0
 10
93.0342428113016
 20
-762.2636494370709
 30
0.0
 10
93.03098350441901
 20
-762.3223150494707
 30
0.0
 10
93.02491664467036
 20
-762.381576769181
 30
0.0
 10
93.01986866829381
 20
-762.4215143551319
 30
0.0
 10
93.01734390753231
 20
-762.4414892604
 30
0.0
 11
92.18199460219952
 21
-761.1767487997276
 31
0.0
 11
92.2403091566775
 21
-761.1921410933694
 31
0.0
 11
92.29823281210716
 21
-761.2088709012955
 31
0.0
 11
92.35241733369868
 21
-761.2269768926919
 31
0.0
 11
92.40574268616709
 21
-761.2474956907803
 31
0.0
 11
92.45574427903398
 21
-761.2693365260624
 31
0.0
 11
92.50478408734475
 21
-761.2932743540316
 31
0.0
 11
92.55089378233771
 21
-761.3182039844268
 31
0.0
 11
92.59574833851862
 21
-761.3452958422304
 31
0.0
 11
92.63774230120463
 21
-761.3738311697922
 31
0.0
 11
92.6782441168103
 21
-761.4044712041944
 31
0.0
 11
92.71629203457607
 21
-761.4362324163159
 31
0.0
 11
92.7526627450981
 21
-761.469889391107
 31
0.0
 11
92.78654082605051
 21
-761.5049092053597
 31
0.0
 11
92.81835303753638
 21
-761.5418102659347
 31
0.0
 11
92.84802110448159
 21
-761.5805741177423
 31
0.0
 11
92.87557485709078
 21
-761.6208850145296
 31
0.0
 11
92.90113853357475
 21
-761.662581156821
 31
0.0
 11
92.92445966367478
 21
-761.7055514022243
 31
0.0
 11
92.94543524041558
 21
-761.7499632293482
 31
0.0
 11
92.96409640847199
 21
-761.7954181061389
 31
0.0
 11
92.98083116605547
 21
-761.8424367833946
 31
0.0
 11
92.99513627733167
 21
-761.890225263307
 31
0.0
 11
93.00714853411357
 21
-761.9399694356744
 31
0.0
 11
93.01692808440154
 21
-761.9902327366942
 31
0.0
 11
93.02516391600295
 21
-762.0427626730421
 31
0.0
 11
93.03103406434873
 21
-762.0955719862142
 31
0.0
 11
93.03420629676279
 21
-762.1505833862461
 31
0.0
 11
93.03498093369389
 21
-762.2057202290733
 31
0.0
 11
93.03387799660145
 21
-762.2636502487801
 31
0.0
 11
93.03059079006582
 21
-762.3214601110341
 31
0.0
 11
93.02468122885013
 21
-762.3815348759264
 31
0.0
 11
93.01734390753231
 21
-762.4414892604
 31
0.0
  0
SPLINE
  5
387
330
4F
100
AcDbEntity
  8
0
  6
Continuous
 62
     7
100
AcDbSpline
210
0.0
220
0.0
230
1.0
 70
     8
 71
     3
 72
    24
 73
    20
 74
    18
 42
0.0000000001
 43
0.0000000001
 44
0.00000001
 40
0.0
 40
0.0
 40
0.0
 40
0.0
 40
0.0508778541447812
 40
0.1089926109576745
 40
0.176279618710299
 40
0.2552221642585682
 40
0.3541845089952099
 40
0.4528488093851467
 40
0.551867657234598
 40
0.6506946517290644
 40
0.7493617373674525
 40
0.8484790128941989
 40
0.8597637687190319
 40
0.8858748027945426
 40
0.9251690320886905
 40
0.9761120724997769
 40
1.018785634648447
 40
1.058992235270777
 40
1.10371467142963
 40
1.10371467142963
 40
1.10371467142963
 40
1.10371467142963
 10
92.66742779746241
 20
-762.3818369987457
 30
0.0
 10
92.66948483385113
 20
-762.3650023891934
 30
0.0
 10
92.6738915009681
 20
-762.3289386030842
 30
0.0
 10
92.678137210115
 20
-762.2702818303213
 30
0.0
 10
92.67706865920124
 20
-762.2020765364882
 30
0.0
 10
92.66803372241145
 20
-762.1207076426302
 30
0.0
 10
92.6458828755988
 20
-762.0307811127473
 30
0.0
 10
92.60596856428396
 20
-761.9398235483995
 30
0.0
 10
92.55234839724896
 20
-761.856279406585
 30
0.0
 10
92.4851764816027
 20
-761.7830901852643
 30
0.0
 10
92.40663179496018
 20
-761.7223168029699
 30
0.0
 10
92.34535951692871
 20
-761.6885972629266
 30
0.0
 10
92.30414684397539
 20
-761.6693072680796
 30
0.0
 10
92.2805776669569
 20
-761.6593828553403
 30
0.0
 10
92.24422335626888
 20
-761.6458390678201
 30
0.0
 10
92.20195788734026
 20
-761.6324832975113
 30
0.0
 10
92.15879834404724
 20
-761.6211271160785
 30
0.0
 10
92.11710044545192
 20
-761.6126537603255
 30
0.0
 10
92.08919278330569
 20
-761.6078983406078
 30
0.0
 10
92.07449700096808
 20
-761.6053942034741
 30
0.0
 11
92.66742779746241
 21
-762.3818369987457
 31
0.0
 11
92.67321069671843
 21
-762.3312888620978
 31
0.0
 11
92.67712680319423
 21
-762.2733062002972
 31
0.0
 11
92.67615061627346
 21
-762.2060262740829
 31
0.0
 11
92.66725663533984
 21
-762.1275863441952
 31
0.0
 11
92.64316016115376
 21
-762.0316024621754
 31
0.0
 11
92.60373701021082
 21
-761.9411565703883
 31
0.0
 11
92.55004882726539
 21
-761.8579561422557
 31
0.0
 11
92.48324781082073
 21
-761.7851248368797
 31
0.0
 11
92.40535976306305
 21
-761.7245554898066
 31
0.0
 11
92.31883310135422
 21
-761.6762091236415
 31
0.0
 11
92.30860432184788
 21
-761.6714428060023
 31
0.0
 11
92.28457578265929
 21
-761.6612244203689
 31
0.0
 11
92.24776840186931
 21
-761.6474674884724
 31
0.0
 11
92.19920309755875
 21
-761.6320855320446
 31
0.0
 11
92.15790895027241
 21
-761.6213232689763
 31
0.0
 11
92.11854147744752
 21
-761.6131518053996
 31
0.0
 11
92.07449700096808
 21
-761.6053942034741
 31
0.0
  0
SPLINE
  5
388
330
4F
100
AcDbEntity
  8
0
  6
Continuous
 62
     7
100
AcDbSpline
210
0.0
220
0.0
230
1.0
 70
     8
 71
     3
 72
    39
 73
    35
 74
    33
 42
0.0000000001
 43
0.0000000001
 44
0.00000001
 40
0.0
 40
0.0
 40
0.0
 40
0.0
 40
0.0312232123363286
 40
0.0624119636269032
 40
0.0926110070693774
 40
0.1228421662250481
 40
0.1528190601008468
 40
0.182767331494338
 40
0.2119273021120593
 40
0.241112026180908
 40
0.2703049737394498
 40
0.2994758732907826
 40
0.3289402038553434
 40
0.3584260078775685
 40
0.3884919318154694
 40
0.4185375643321027
 40
0.449574280464988
 40
0.4806271851665641
 40
0.511788299563831
 40
0.5429482436440805
 40
0.573869093444626
 40
0.6047724568699
 40
0.6356119917978995
 40
0.6664778743084467
 40
0.6978396191517612
 40
0.729177968212595
 40
0.7611864550151529
 40
0.793206274857677
 40
0.8259897484467741
 40
0.8587814475162527
 40
0.8930869416027105
 40
0.9273682713033813
 40
0.9629554988066527
 40
0.9985733607338789
 40
0.9985733607338789
 40
0.9985733607338789
 40
0.9985733607338789
 10
91.97537624264336
 20
-762.9441100786971
 30
0.0
 10
91.98570830443379
 20
-762.9453623167989
 30
0.0
 10
92.00636102452259
 20
-762.9478654109083
 30
0.0
 10
92.03712566354005
 20
-762.950587256924
 30
0.0
 10
92.06767563551679
 20
-762.9513324800564
 30
0.0
 10
92.09780913860091
 20
-762.950529455753
 30
0.0
 10
92.12780501871106
 20
-762.948548126014
 30
0.0
 10
92.15730910025474
 20
-762.9450130680543
 30
0.0
 10
92.1862515214336
 20
-762.9395679784143
 30
0.0
 10
92.2146082337086
 20
-762.9326487694191
 30
0.0
 10
92.24265941028241
 20
-762.9245679053956
 30
0.0
 10
92.27035870971469
 20
-762.9150386953504
 30
0.0
 10
92.29751581848164
 20
-762.9038013614695
 30
0.0
 10
92.32434103025535
 20
-762.8910996345406
 30
0.0
 10
92.35082269223388
 20
-762.8772716468951
 30
0.0
 10
92.37702431432723
 20
-762.8618557467938
 30
0.0
 10
92.40247836864935
 20
-762.8446373561694
 30
0.0
 10
92.427281157691
 20
-762.8258850265437
 30
0.0
 10
92.45131232634581
 20
-762.8060904602968
 30
0.0
 10
92.47439553451096
 20
-762.7852608941278
 30
0.0
 10
92.49639062908818
 20
-762.7634041013372
 30
0.0
 10
92.51701868166413
 20
-762.7403836110225
 30
0.0
 10
92.53601485169541
 20
-762.7160257486361
 30
0.0
 10
92.55387119880541
 20
-762.6906501083508
 30
0.0
 10
92.57103827845441
 20
-762.6646038443539
 30
0.0
 10
92.58716365487169
 20
-762.6374427658565
 30
0.0
 10
92.60162153119961
 20
-762.6091081094775
 30
0.0
 10
92.61462880270456
 20
-762.5795586008574
 30
0.0
 10
92.62621153676805
 20
-762.5491458870298
 30
0.0
 10
92.63677977312145
 20
-762.5175676758789
 30
0.0
 10
92.64650524985814
 20
-762.4851978173269
 30
0.0
 10
92.65503260337489
 20
-762.4515186796058
 30
0.0
 10
92.66169986453644
 20
-762.4169807124315
 30
0.0
 10
92.66551793893956
 20
-762.3935549294501
 30
0.0
 10
92.66742779746241
 20
-762.3818369987457
 30
0.0
 11
91.97537624264336
 21
-762.9441100786971
 31
0.0
 11
92.00639245941589
 21
-762.9476994081218
 31
0.0
 11
92.03747430635602
 21
-762.9502795239828
 31
0.0
 11
92.0676628601051
 21
-762.951075418058
 31
0.0
 11
92.09788478919995
 21
-762.9503284336664
 31
0.0
 11
92.12779174931154
 21
-762.9482819969279
 31
0.0
 11
92.15751873999623
 21
-762.9446481306273
 31
0.0
 11
92.18618711600182
 21
-762.9393163294656
 31
0.0
 11
92.21455406110925
 21
-762.9324559691072
 31
0.0
 11
92.24259307827698
 21
-762.9243293644396
 31
0.0
 11
92.27016166432338
 21
-762.9147944578309
 31
0.0
 11
92.29740865884929
 21
-762.9035807133661
 31
0.0
 11
92.32408168667337
 21
-762.8910124109535
 31
0.0
 11
92.35070685990665
 21
-762.8770460251455
 31
0.0
 11
92.37657399112379
 21
-762.8617610143206
 31
0.0
 11
92.40231427269809
 21
-762.8444198594343
 31
0.0
 11
92.42711885174022
 21
-762.8257378962359
 31
0.0
 11
92.45115990120965
 21
-762.8059125843622
 31
0.0
 11
92.47428243691495
 21
-762.7850250173033
 31
0.0
 11
92.49617926665586
 21
-762.7631932102391
 31
0.0
 11
92.51676237495151
 21
-762.740142103457
 31
0.0
 11
92.5358051053566
 21
-762.7158840876004
 31
0.0
 11
92.55364761703026
 21
-762.6906978318182
 31
0.0
 11
92.57083530915095
 21
-762.6644653656897
 31
0.0
 11
92.58676026078763
 21
-762.6374748481469
 31
0.0
 11
92.60134384049172
 21
-762.6089816484248
 31
0.0
 11
92.61427820859096
 21
-762.5796905066816
 31
0.0
 11
92.62599957595523
 21
-762.5490740782864
 31
0.0
 11
92.63646132340517
 21
-762.517995993272
 31
0.0
 11
92.6462660489761
 21
-762.4851214699904
 31
0.0
 11
92.6546119769274
 21
-762.4518715819804
 31
0.0
 11
92.661527465585
 21
-762.4169627467378
 31
0.0
 11
92.66742779746241
 21
-762.3818369987457
 31
0.0
  0
SPLINE
  5
389
330
4F
100
AcDbEntity
  8
0
  6
Continuous
 62
     7
100
AcDbSpline
210
0.0
220
0.0
230
1.0
 70
     8
 71
     3
 72
    15
 73
    11
 74
     9
 42
0.0000000001
 43
0.0000000001
 44
0.00000001
 40
0.0
 40
0.0
 40
0.0
 40
0.0
 40
0.1082164627490746
 40
0.2836004453313685
 40
0.5635304672053861
 40
0.9180057313013117
 40
1.174110824834437
 40
1.377525703576212
 40
1.602358092415098
 40
1.837105237286468
 40
1.837105237286468
 40
1.837105237286468
 40
1.837105237286468
 10
91.90289593303427
 20
-763.3791633927103
 30
0.0
 10
91.86734458738718
 20
-763.3728787889908
 30
0.0
 10
91.77417597697878
 20
-763.3564088696427
 30
0.0
 10
91.59610909517413
 20
-763.2928142380347
 30
0.0
 10
91.36477737024869
 20
-763.1484797417579
 30
0.0
 10
91.1562345709869
 20
-762.9342209309903
 30
0.0
 10
90.99024474936544
 20
-762.7195247265807
 30
0.0
 10
90.86109356367002
 20
-762.5314053924901
 30
0.0
 10
90.73887272469227
 20
-762.3472754602058
 30
0.0
 10
90.65737021371244
 20
-762.2175532988472
 30
0.0
 10
90.6157398095082
 20
-762.1512929352502
 30
0.0
 11
91.90289593303427
 21
-763.3791633927103
 31
0.0
 11
91.79675955724164
 21
-763.3580476984635
 31
0.0
 11
91.63119203398568
 21
-763.3001949838399
 31
0.0
 11
91.39243206274327
 21
-763.1540632170036
 31
0.0
 11
91.13942591164854
 21
-762.9057879657921
 31
0.0
 11
90.98166968753489
 21
-762.7040386344747
 31
0.0
 11
90.8655580630028
 21
-762.5370185651955
 31
0.0
 11
90.74147099039676
 21
-762.3495298949163
 31
0.0
 11
90.6157398095082
 21
-762.1512929352502
 31
0.0
  0
SPLINE
  5
38A
330
4F
100
AcDbEntity
  8
0
  6
Continuous
 62
     7
100
AcDbSpline
210
0.0
220
0.0
230
1.0
 70
     8
 71
     3
 72
    11
 73
     7
 74
     5
 42
0.0000000001
 43
0.0000000001
 44
0.00000001
 40
0.0
 40
0.0
 40
0.0
 40
0.0
 40
0.2391362193913213
 40
0.4782667052095132
 40
0.759682454553585
 40
0.9562789610826299
 40
0.9562789610826299
 40
0.9562789610826299
 40
0.9562789610826299
 10
90.6157398095082
 20
-762.1512929352502
 30
0.0
 10
90.57364450309173
 20
-762.0835722483839
 30
0.0
 10
90.4894548995434
 20
-761.9481324983344
 30
0.0
 10
90.35213690461251
 20
-761.7358147686841
 30
0.0
 10
90.21516942258144
 20
-761.5378993677251
 30
0.0
 10
90.09666532819794
 20
-761.4307758896653
 30
0.0
 10
90.04792705699478
 20
-761.386718229438
 30
0.0
 11
90.6157398095082
 21
-762.1512929352502
 31
0.0
 11
90.48888875232055
 21
-761.948574064113
 31
0.0
 11
90.3586560947177
 21
-761.7480177275356
 31
0.0
 11
90.18953957490733
 21
-761.5230856784494
 31
0.0
 11
90.04792705699478
 21
-761.386718229438
 31
0.0
  0
SPLINE
  5
38B
330
4F
100
AcDbEntity
  8
0
  6
Continuous
 62
     7
100
AcDbSpline
210
0.0
220
0.0
230
1.0
 70
     8
 71
     3
 72
    19
 73
    15
 74
    13
 42
0.0000000001
 43
0.0000000001
 44
0.00000001
 40
0.0
 40
0.0
 40
0.0
 40
0.0
 40
0.407364993522249
 40
0.8143956493558625
 40
0.9458106961492388
 40
1.077177162271808
 40
1.148655917637409
 40
1.208578854354454
 40
1.290730077067793
 40
1.339985559615603
 40
1.412201867896306
 40
1.484440384422547
 40
1.567419941779812
 40
1.628872913979295
 40
1.628872913979295
 40
1.628872913979295
 40
1.628872913979295
 10
90.87380504415236
 20
-761.8067452684445
 30
0.0
 10
90.94499522599912
 20
-761.9223768868244
 30
0.0
 10
91.0873171615969
 20
-762.1535452209571
 30
0.0
 10
91.26866568704325
 20
-762.4120021852849
 30
0.0
 10
91.41011520624866
 20
-762.5848611378606
 30
0.0
 10
91.48646585870841
 20
-762.6661803838153
 30
0.0
 10
91.5505974544957
 20
-762.7259046802975
 30
0.0
 10
91.60534874686563
 20
-762.771429102161
 30
0.0
 10
91.65629299614015
 20
-762.8098789402404
 30
0.0
 10
91.71295616332444
 20
-762.8473040204406
 30
0.0
 10
91.76962209983056
 20
-762.8784888140171
 30
0.0
 10
91.8389619400993
 20
-762.9092263621249
 30
0.0
 10
91.90767581131861
 20
-762.9324462573478
 30
0.0
 10
91.95516892989622
 20
-762.9406286461387
 30
0.0
 10
91.97537624264336
 20
-762.9441100786971
 30
0.0
 11
90.87380504415236
 21
-761.8067452684445
 31
0.0
 11
91.09083573844948
 21
-762.1514827275062
 31
0.0
 11
91.32749309442337
 21
-762.4826431880865
 31
0.0
 11
91.41125839937953
 21
-762.5839017097492
 31
0.0
 11
91.50147620007814
 21
-762.6793893888425
 31
0.0
 11
91.55389686572458
 21
-762.727982457091
 31
0.0
 11
91.59989953992667
 21
-762.7663818361361
 31
0.0
 11
91.66566879994693
 21
-762.8156081281932
 31
0.0
 11
91.70685143964769
 21
-762.8426283566951
 31
0.0
 11
91.7700614402323
 21
-762.8775524315975
 31
0.0
 11
91.83609927584152
 21
-762.9068339537225
 31
0.0
 11
91.91505999090745
 21
-762.9323449790936
 31
0.0
 11
91.97537624264336
 21
-762.9441100786971
 31
0.0
  0
SPLINE
  5
38C
330
4F
100
AcDbEntity
  8
0
  6
Continuous
 62
     7
100
AcDbSpline
210
0.0
220
0.0
230
1.0
 70
     8
 71
     3
 72
    18
 73
    14
 74
    12
 42
0.0000000001
 43
0.0000000001
 44
0.00000001
 40
0.0
 40
0.0
 40
0.0
 40
0.0
 40
0.0799378774762687
 40
0.1847720433014069
 40
0.3289714865848583
 40
0.5208526455718708
 40
0.6578623695851
 40
0.8222830153970878
 40
0.9867813589526728
 40
1.056292721957
 40
1.118163004115675
 40
1.196580488224949
 40
1.31572088235228
 40
1.31572088235228
 40
1.31572088235228
 40
1.31572088235228
 10
90.01348446929737
 20
-760.8312780837223
 30
0.0
 10
90.03656654200596
 20
-760.8445995909021
 30
0.0
 10
90.0899194939812
 20
-760.8753915280811
 30
0.0
 10
90.18061018122548
 20
-760.9373193107582
 30
0.0
 10
90.2935668180653
 20
-761.0316526413734
 30
0.0
 10
90.40546921176511
 20
-761.1431975908697
 30
0.0
 10
90.51099594131053
 20
-761.2694122948321
 30
0.0
 10
90.60563844703464
 20
-761.3926390282531
 30
0.0
 10
90.68047669042438
 20
-761.5024024613328
 30
0.0
 10
90.73541492372405
 20
-761.5843097697691
 30
0.0
 10
90.77319161082028
 20
-761.6431681753392
 30
0.0
 10
90.81860839347942
 20
-761.7167594187631
 30
0.0
 10
90.8530403248926
 20
-761.7728930168457
 30
0.0
 10
90.87380504415236
 20
-761.8067452684445
 30
0.0
 11
90.01348446929737
 21
-760.8312780837223
 31
0.0
 11
90.08227865837644
 21
-760.8719895539041
 31
0.0
 11
90.16889775233147
 21
-760.9310432149816
 31
0.0
 11
90.28013549827196
 21
-761.0228018294074
 31
0.0
 11
90.41591598514955
 21
-761.1583822061493
 31
0.0
 11
90.50446048303169
 21
-761.2629361939689
 31
0.0
 11
90.60436564568485
 21
-761.3935237402529
 31
0.0
 11
90.6980691261368
 21
-761.5287249339744
 31
0.0
 11
90.73662715257328
 21
-761.5865618441966
 31
0.0
 11
90.77007577232129
 21
-761.6386110675467
 31
0.0
 11
90.81145504848095
 21
-761.7052223077283
 31
0.0
 11
90.87380504415236
 21
-761.8067452684445
 31
0.0
  0
SPLINE
  5
38D
330
4F
100
AcDbEntity
  8
0
  6
Continuous
 62
     7
100
AcDbSpline
210
0.0
220
0.0
230
1.0
 70
     8
 71
     3
 72
    11
 73
     7
 74
     5
 42
0.0000000001
 43
0.0000000001
 44
0.00000001
 40
0.0
 40
0.0
 40
0.0
 40
0.0
 40
0.0710666732518099
 40
0.1516132822064528
 40
0.2323342454307904
 40
0.3032257578288781
 40
0.3032257578288781
 40
0.3032257578288781
 40
0.3032257578288781
 10
89.72673950022258
 20
-760.7388678037933
 30
0.0
 10
89.75019534115914
 20
-760.7422524409973
 30
0.0
 10
89.80023591388591
 20
-760.7494732089341
 30
0.0
 10
89.87547096418893
 20
-760.7686444019465
 30
0.0
 10
89.94783951013791
 20
-760.7966763129895
 30
0.0
 10
89.99256947142463
 20
-760.8202536886959
 30
0.0
 10
90.01348446929737
 20
-760.8312780837223
 30
0.0
 11
89.72673950022258
 21
-760.7388678037933
 31
0.0
 11
89.79689944077595
 21
-760.7501839333713
 31
0.0
 11
89.8749276101324
 21
-760.7701679520105
 31
0.0
 11
89.9501861938987
 21
-760.7993573246204
 31
0.0
 11
90.01348446929737
 21
-760.8312780837223
 31
0.0
  0
ENDBLK
  5
51
330
4F
100
AcDbEntity
  8
0
100
AcDbBlockEnd
  0
BLOCK
  5
53
330
52
100
AcDbEntity
  8
0
100
AcDbBlockBegin
  2
_X0
 70
     0
 71
     0
 10
337.961464640079
 20
-415.845958
 30
0.0
  3
_X0
  1

  0
LINE
  5
38E
330
52
100
AcDbEntity
  8
LC-003-005-----0
  6
Continuous
 62
     2
100
AcDbLine
 10
-56.36509599999999
 20
30.70072800000003
 30
0.0
 11
-56.19726400000002
 21
30.86856
 31
0.0
  0
LINE
  5
38F
330
52
100
AcDbEntity
  8
LC-003-005-----0
  6
Continuous
 62
     2
100
AcDbLine
 10
-56.99637900000005
 20
32.897873
 30
0.0
 11
-56.19726400000002
 21
33.69698700000004
 31
0.0
  0
LINE
  5
390
330
52
100
AcDbEntity
  8
LC-003-005-----0
  6
Continuous
 62
     2
100
AcDbLine
 10
-43.09121599999992
 20
66.60202500000003
 30
0.0
 11
-42.20445099999995
 21
67.48879
 31
0.0
  0
LINE
  5
391
330
52
100
AcDbEntity
  8
LC-003-005-----0
  6
Continuous
 62
     2
100
AcDbLine
 10
-44.04776099999992
 20
68.473907
 30
0.0
 11
-41.72823899999992
 21
70.793429
 31
0.0
  0
ENDBLK
  5
54
330
52
100
AcDbEntity
  8
0
100
AcDbBlockEnd
  0
BLOCK
  5
56
330
55
100
AcDbEntity
  8
0
100
AcDbBlockBegin
  2
_X1
 70
     0
 71
     0
 10
337.961464640079
 20
-415.845958
 30
0.0
  3
_X1
  1

  0
LINE
  5
392
330
55
100
AcDbEntity
  8
LC-003-005-----0
  6
Continuous
 62
     2
100
AcDbLine
 10
56.71064800000011
 20
30.639387
 30
0.0
 11
57.520487
 21
31.44922600000001
 31
0.0
  0
LINE
  5
393
330
55
100
AcDbEntity
  8
LC-003-005-----0
  6
Continuous
 62
     2
100
AcDbLine
 10
56.19404700000007
 20
32.951213
 30
0.0
 11
56.76572799999997
 21
33.52289400000001
 31
0.0
  0
LINE
  5
394
330
55
100
AcDbEntity
  8
LC-003-005-----0
  6
Continuous
 62
     2
100
AcDbLine
 10
44.36496599999998
 20
66.37696700000004
 30
0.0
 11
44.689573
 21
66.701573
 31
0.0
  0
LINE
  5
395
330
55
100
AcDbEntity
  8
LC-003-005-----0
  6
Continuous
 62
     2
100
AcDbLine
 10
42.32051100000001
 20
67.16093800000004
 30
0.0
 11
43.93481299999996
 21
68.775241
 31
0.0
  0
LINE
  5
396
330
55
100
AcDbEntity
  8
LC-003-005-----0
  6
Continuous
 62
     2
100
AcDbLine
 10
41.56575099999998
 20
69.23460600000004
 30
0.0
 11
43.1246910000001
 21
70.79354599999999
 31
0.0
  0
ENDBLK
  5
57
330
55
100
AcDbEntity
  8
0
100
AcDbBlockEnd
  0
BLOCK
  5
5C
330
58
100
AcDbEntity
  8
0
100
AcDbBlockBegin
  2
TOP
 70
     0
 71
     0
 10
337.961464640079
 20
-415.845958
 30
0.0
  3
TOP
  1

  0
INSERT
  5
59
330
58
100
AcDbEntity
  8
0
100
AcDbBlockReference
  2
Draufsicht
 10
-121.1350760296518
 20
-925.9491116087956
 30
0.0
  0
INSERT
  5
5A
330
58
100
AcDbEntity
  8
LC-003-005-----0
100
AcDbBlockReference
  2
_X0
 10
337.961464640079
 20
-415.845958
 30
0.0
  0
INSERT
  5
5B
330
58
100
AcDbEntity
  8
LC-003-005-----0
100
AcDbBlockReference
  2
_X1
 10
337.961464640079
 20
-415.845958
 30
0.0
  0
POINT
  5
397
330
58
100
AcDbEntity
  8
LC-006-003-----0
 62
     7
100
AcDbPoint
 10
80.25
 20
-47.18767700000001
 30
0.0
  0
POINT
  5
398
330
58
100
AcDbEntity
  8
LC-006-003-----0
 62
     7
100
AcDbPoint
 10
-177.0
 20
-6.236469
 30
0.0
  0
POINT
  5
399
330
58
100
AcDbEntity
  8
LC-006-003-----0
 62
     7
100
AcDbPoint
 10
177.0000000000001
 20
-6.236469
 30
0.0
  0
POINT
  5
39A
330
58
100
AcDbEntity
  8
LC-006-003-----0
 62
     7
100
AcDbPoint
 10
-231.995428
 20
0.0
 30
0.0
  0
POINT
  5
39B
330
58
100
AcDbEntity
  8
LC-006-003-----0
 62
     7
100
AcDbPoint
 10
231.9937100000001
 20
0.0
 30
0.0
  0
POINT
  5
39C
330
58
100
AcDbEntity
  8
LC-006-003-----0
 62
     7
100
AcDbPoint
 10
175.0000000000001
 20
-3.236469
 30
0.0
  0
POINT
  5
39D
330
58
100
AcDbEntity
  8
LC-004-003-----0
 62
     7
100
AcDbPoint
 10
79.49208700000008
 20
-334.8110431960393
 30
0.0
  0
POINT
  5
39E
330
58
100
AcDbEntity
  8
LC-004-003-----0
 62
     7
100
AcDbPoint
 10
-79.50608699999998
 20
-334.8110431960393
 30
0.0
  0
POINT
  5
39F
330
58
100
AcDbEntity
  8
LC-004-003-----0
 62
     7
100
AcDbPoint
 10
62.49469900000008
 20
-343.2385211960393
 30
0.0
  0
POINT
  5
3A0
330
58
100
AcDbEntity
  8
LC-004-003-----0
 62
     7
100
AcDbPoint
 10
-62.50530099999992
 20
-343.2357621960393
 30
0.0
  0
POINT
  5
3A1
330
58
100
AcDbEntity
  8
LC-004-003-----0
 62
     7
100
AcDbPoint
 10
70.00123500000007
 20
-47.18989519603929
 30
0.0
  0
POINT
  5
3A2
330
58
100
AcDbEntity
  8
LC-004-003-----0
 62
     7
100
AcDbPoint
 10
-69.99876499999993
 20
-47.1868041960393
 30
0.0
  0
POINT
  5
3A3
330
58
100
AcDbEntity
  8
LC-004-003-----0
 62
     7
100
AcDbPoint
 10
59.49458900000013
 20
-348.2384551960393
 30
0.0
  0
POINT
  5
3A4
330
58
100
AcDbEntity
  8
LC-004-003-----0
 62
     7
100
AcDbPoint
 10
59.49458900000013
 20
-348.2384551960393
 30
0.0
  0
POINT
  5
3A5
330
58
100
AcDbEntity
  8
LC-004-003-----0
 62
     7
100
AcDbPoint
 10
77.75123500000007
 20
-47.19006619603931
 30
0.0
  0
POINT
  5
3A6
330
58
100
AcDbEntity
  8
LC-004-003-----0
 62
     7
100
AcDbPoint
 10
59.49458900000013
 20
-348.2384551960393
 30
0.0
  0
POINT
  5
3A7
330
58
100
AcDbEntity
  8
LC-004-003-----0
 62
     7
100
AcDbPoint
 10
78.82708100000013
 20
-112.2369941960393
 30
0.0
  0
LINE
  5
3A8
330
58
100
AcDbEntity
  8
LC-001-002-----0
  6
Continuous
 62
     7
100
AcDbLine
 10
-46.0675195999048
 20
5.61161000000004
 30
0.0
 11
-38.57226899999989
 21
30.43110400000001
 31
0.0
  0
LINE
  5
3A9
330
58
100
AcDbEntity
  8
LC-001-002-----0
  6
Continuous
 62
     7
100
AcDbLine
 10
-47.69903140939145
 20
5.61161000000004
 30
0.0
 11
-40.21684100000005
 21
30.43110400000001
 31
0.0
  0
LINE
  5
3AA
330
58
100
AcDbEntity
  8
LC-001-002-----0
  6
Continuous
 62
     7
100
AcDbLine
 10
46.06441645721838
 20
5.61161000000004
 30
0.0
 11
38.56905900000004
 21
30.43121000000002
 31
0.0
  0
LINE
  5
3AB
330
58
100
AcDbEntity
  8
LC-001-002-----0
  6
Continuous
 62
     7
100
AcDbLine
 10
47.69592948831206
 20
5.61161000000004
 30
0.0
 11
40.21363099999996
 21
30.43121400000001
 31
0.0
  0
LINE
  5
3AC
330
58
100
AcDbEntity
  8
LC-001-002-----0
  6
Continuous
 62
     7
100
AcDbLine
 10
100.249926
 20
-0.00030199946704
 30
0.0
 11
100.2499939999975
 21
1.53427800053251
 31
0.0
  0
LINE
  5
3AD
330
58
100
AcDbEntity
  8
LC-001-002-----0
  6
Continuous
 62
     7
100
AcDbLine
 10
87.74992599999996
 20
0.00030200053007
 30
0.0
 11
87.74999399999751
 21
1.53480400053232
 31
0.0
  0
LINE
  5
3AE
330
58
100
AcDbEntity
  8
LC-001-002-----0
  6
Continuous
 62
     7
100
AcDbLine
 10
100.249926
 20
-0.00030199946704
 30
0.0
 11
87.74992599999996
 21
0.00030200053007
 31
0.0
  0
LINE
  5
3AF
330
58
100
AcDbEntity
  8
LC-001-002-----0
  6
Continuous
 62
     7
100
AcDbLine
 10
97.74992599999996
 20
-0.0001889994688
 30
0.0
 11
98.97875199999862
 21
-0.00025099946797
 31
0.0
  0
LINE
  5
3B0
330
58
100
AcDbEntity
  8
LC-001-002-----0
  6
Continuous
 62
     7
100
AcDbLine
 10
90.24992599999996
 20
0.00018900053183
 30
0.0
 11
87.99992999999768
 21
0.00030300053041
 31
0.0
  0
LINE
  5
3B1
330
58
100
AcDbEntity
  8
LC-001-002-----0
  6
Continuous
 62
     7
100
AcDbLine
 10
87.74992599999996
 20
0.00404200053018
 30
0.0
 11
87.73903199999722
 21
0.00404200053018
 31
0.0
  0
LINE
  5
3B2
330
58
100
AcDbEntity
  8
LC-001-002-----0
  6
Continuous
 62
     7
100
AcDbLine
 10
40.75000002781917
 20
0.99384285131819
 30
0.0
 11
40.75002399999676
 21
1.53480400053232
 31
0.0
  0
LINE
  5
3B3
330
58
100
AcDbEntity
  8
LC-001-002-----0
  6
Continuous
 62
     7
100
AcDbLine
 10
53.25000005355059
 20
0.9938700603183
 30
0.0
 11
53.25002399999676
 21
1.53427800053251
 31
0.0
  0
LINE
  5
3B4
330
58
100
AcDbEntity
  8
LC-001-002-----0
  6
Continuous
 62
     7
100
AcDbLine
 10
40.7499559999992
 20
0.00404200053018
 30
0.0
 11
40.73906199999647
 21
0.00404200053018
 31
0.0
  0
LINE
  5
3B5
330
58
100
AcDbEntity
  8
LC-001-002-----0
  6
Continuous
 62
     7
100
AcDbLine
 10
43.2499559999992
 20
0.00018900053183
 30
0.0
 11
40.99995999999692
 21
0.00030300053041
 31
0.0
  0
LINE
  5
3B6
330
58
100
AcDbEntity
  8
LC-001-002-----0
  6
Continuous
 62
     7
100
AcDbLine
 10
50.7499559999992
 20
-0.0001889994688
 30
0.0
 11
51.97878199999786
 21
-0.00025099946797
 31
0.0
  0
LINE
  5
3B7
330
58
100
AcDbEntity
  8
LC-001-002-----0
  6
Continuous
 62
     7
100
AcDbLine
 10
53.2499559999992
 20
-0.00030199946704
 30
0.0
 11
40.7499559999992
 21
0.00030200053007
 31
0.0
  0
LINE
  5
3B8
330
58
100
AcDbEntity
  8
LC-001-002-----0
  6
Continuous
 62
     7
100
AcDbLine
 10
40.7499559999992
 20
0.00030200053007
 30
0.0
 11
40.75000002781917
 21
0.99384285131819
 31
0.0
  0
LINE
  5
3B9
330
58
100
AcDbEntity
  8
LC-001-002-----0
  6
Continuous
 62
     7
100
AcDbLine
 10
53.2499559999992
 20
-0.00030199946704
 30
0.0
 11
53.25000005355059
 21
0.9938700603183
 31
0.0
  0
LINE
  5
3BA
330
58
100
AcDbEntity
  8
LC-001-002-----0
  6
Continuous
 62
     7
100
AcDbLine
 10
-53.2499339811734
 20
0.99363994147862
 30
0.0
 11
-53.24991000000273
 21
1.53480400053232
 31
0.0
  0
LINE
  5
3BB
330
58
100
AcDbEntity
  8
LC-001-002-----0
  6
Continuous
 62
     7
100
AcDbLine
 10
-40.74993395544561
 20
0.99366702939952
 30
0.0
 11
-40.74991000000273
 21
1.53427800053251
 31
0.0
  0
LINE
  5
3BC
330
58
100
AcDbEntity
  8
LC-001-002-----0
  6
Continuous
 62
     7
100
AcDbLine
 10
-40.74997800000028
 20
-0.00030199946704
 30
0.0
 11
-40.74993395544561
 21
0.99366702939952
 31
0.0
  0
LINE
  5
3BD
330
58
100
AcDbEntity
  8
LC-001-002-----0
  6
Continuous
 62
     7
100
AcDbLine
 10
-53.24997800000028
 20
0.00030200053007
 30
0.0
 11
-53.2499339811734
 21
0.99363994147862
 31
0.0
  0
LINE
  5
3BE
330
58
100
AcDbEntity
  8
LC-001-002-----0
  6
Continuous
 62
     7
100
AcDbLine
 10
-40.74997800000028
 20
-0.00030199946704
 30
0.0
 11
-53.24997800000028
 21
0.00030200053007
 31
0.0
  0
LINE
  5
3BF
330
58
100
AcDbEntity
  8
LC-001-002-----0
  6
Continuous
 62
     7
100
AcDbLine
 10
-43.24997800000028
 20
-0.0001889994688
 30
0.0
 11
-42.02115200000162
 21
-0.00025099946797
 31
0.0
  0
LINE
  5
3C0
330
58
100
AcDbEntity
  8
LC-001-002-----0
  6
Continuous
 62
     7
100
AcDbLine
 10
-50.74997800000028
 20
0.00018900053183
 30
0.0
 11
-52.99997400000257
 21
0.00030300053041
 31
0.0
  0
LINE
  5
3C1
330
58
100
AcDbEntity
  8
LC-001-002-----0
  6
Continuous
 62
     7
100
AcDbLine
 10
-53.24997800000028
 20
0.00404200053018
 30
0.0
 11
-53.26087200000302
 21
0.00404200053018
 31
0.0
  0
LINE
  5
3C2
330
58
100
AcDbEntity
  8
LC-001-002-----0
  6
Continuous
 62
     7
100
AcDbLine
 10
-100.2609720000005
 20
0.00412500053281
 30
0.0
 11
-100.2609720000005
 21
1.53870500053236
 31
0.0
  0
LINE
  5
3C3
330
58
100
AcDbEntity
  8
LC-001-002-----0
  6
Continuous
 62
     7
100
AcDbLine
 10
-87.76097200000049
 20
0.00417700053222
 30
0.0
 11
-87.76097200000049
 21
1.53867900053083
 31
0.0
  0
LINE
  5
3C4
330
58
100
AcDbEntity
  8
LC-001-002-----0
  6
Continuous
 62
     7
100
AcDbLine
 10
-100.2609720000005
 20
0.00412500053281
 30
0.0
 11
-87.76097200000049
 21
0.00417700053222
 31
0.0
  0
LINE
  5
3C5
330
58
100
AcDbEntity
  8
LC-001-002-----0
  6
Continuous
 62
     7
100
AcDbLine
 10
-97.76097200000049
 20
0.00412800053019
 30
0.0
 11
-98.98979800000279
 21
0.00412000053112
 31
0.0
  0
LINE
  5
3C6
330
58
100
AcDbEntity
  8
LC-001-002-----0
  6
Continuous
 62
     7
100
AcDbLine
 10
-90.26097200000049
 20
0.00417500053155
 30
0.0
 11
-88.01097600000185
 21
0.00418900053265
 31
0.0
  0
LINE
  5
3C7
330
58
100
AcDbEntity
  8
LC-001-002-----0
  6
Continuous
 62
     7
100
AcDbLine
 10
-100.2609680000028
 20
0.00412500053281
 30
0.0
 11
-100.2609680000028
 21
0.00404200053018
 31
0.0
  0
LINE
  5
3C8
330
58
100
AcDbEntity
  8
LC-001-002-----0
  6
Continuous
 62
     7
100
AcDbLine
 10
-90.86097200000268
 20
0.00404200053018
 30
0.0
 11
-87.76096800000278
 21
0.00404200053018
 31
0.0
  0
LINE
  5
3C9
330
58
100
AcDbEntity
  8
LC-001-002-----0
  6
Continuous
 62
     7
100
AcDbLine
 10
-100.2609680000028
 20
0.00404200053018
 30
0.0
 11
-97.16097200000195
 21
0.00404200053018
 31
0.0
  0
LINE
  5
3CA
330
58
100
AcDbEntity
  8
LC-001-002-----0
  6
Continuous
 62
     7
100
AcDbLine
 10
-3.30697399999997
 20
55.99348200000003
 30
0.0
 11
-3.30697399999997
 21
70.79348200000004
 31
0.0
  0
LINE
  5
3CB
330
58
100
AcDbEntity
  8
LC-001-002-----0
  6
Continuous
 62
     7
100
AcDbLine
 10
3.30369400000006
 20
55.99349100000001
 30
0.0
 11
3.30365300000005
 21
70.79349100000002
 31
0.0
  0
LINE
  5
3CC
330
58
100
AcDbEntity
  8
LC-001-002-----0
  6
Continuous
 62
     7
100
AcDbLine
 10
-90.5014829999999
 20
-30.24411199999997
 30
0.0
 11
-87.00147400000003
 21
-30.24411199999997
 31
0.0
  0
LINE
  5
3CD
330
58
100
AcDbEntity
  8
LC-001-002-----0
  6
Continuous
 62
     7
100
AcDbLine
 10
-35.13401099999999
 20
0.99367900000004
 30
0.0
 11
-40.74993395544563
 21
0.99366702886664
 31
0.0
  0
LINE
  5
3CE
330
58
100
AcDbEntity
  8
LC-001-002-----0
  6
Continuous
 62
     7
100
AcDbLine
 10
-84.720056
 20
0.0
 30
0.0
 11
-79.47633699999994
 21
14.40700000000004
 31
0.0
  0
LINE
  5
3CF
330
58
100
AcDbEntity
  8
LC-001-002-----0
  6
Continuous
 62
     7
100
AcDbLine
 10
84.71701399999995
 20
0.0
 30
0.0
 11
79.48844399999996
 21
14.36525599999999
 31
0.0
  0
LINE
  5
3D0
330
58
100
AcDbEntity
  8
LC-001-002-----0
  6
Continuous
 62
     7
100
AcDbLine
 10
-48.45026599999994
 20
70.79342000000003
 30
0.0
 11
48.44694500000003
 21
70.79355300000003
 31
0.0
  0
LINE
  5
3D1
330
58
100
AcDbEntity
  8
LC-001-002-----0
  6
Continuous
 62
     7
100
AcDbLine
 10
68.96716700000002
 20
0.0
 30
0.0
 11
43.2002040000001
 21
70.79354599999999
 31
0.0
  0
LINE
  5
3D2
330
58
100
AcDbEntity
  8
LC-001-002-----0
  6
Continuous
 62
     7
100
AcDbLine
 10
42.48521900000003
 20
66.70841200000001
 30
0.0
 11
40.99833999999999
 21
70.793543
 31
0.0
  0
LINE
  5
3D3
330
58
100
AcDbEntity
  8
LC-001-002-----0
  6
Continuous
 62
     7
100
AcDbLine
 10
44.83808499999998
 20
66.293544
 30
0.0
 11
42.48521900000003
 21
66.70841200000001
 31
0.0
  0
LINE
  5
3D4
330
58
100
AcDbEntity
  8
LC-001-002-----0
  6
Continuous
 62
     7
100
AcDbLine
 10
-68.97022499999991
 20
0.0
 30
0.0
 11
-43.20352500000001
 21
70.79342700000001
 31
0.0
  0
LINE
  5
3D5
330
58
100
AcDbEntity
  8
LC-001-002-----0
  6
Continuous
 62
     7
100
AcDbLine
 10
-42.48852799999997
 20
66.70829500000002
 30
0.0
 11
-41.00166000000002
 21
70.79343
 31
0.0
  0
LINE
  5
3D6
330
58
100
AcDbEntity
  8
LC-001-002-----0
  6
Continuous
 62
     7
100
AcDbLine
 10
-44.84139300000004
 20
66.29342100000002
 30
0.0
 11
-42.48852799999997
 21
66.70829500000002
 31
0.0
  0
LINE
  5
3D7
330
58
100
AcDbEntity
  8
LC-001-002-----0
  6
Continuous
 62
     7
100
AcDbLine
 10
56.19404100000008
 20
35.09357600000004
 30
0.0
 11
56.19405300000005
 21
30.73047500000001
 31
0.0
  0
LINE
  5
3D8
330
58
100
AcDbEntity
  8
LC-001-002-----0
  6
Continuous
 62
     7
100
AcDbLine
 10
57.99048400000004
 20
30.41372100000001
 30
0.0
 11
56.19405300000005
 21
30.73047500000001
 31
0.0
  0
LINE
  5
3D9
330
58
100
AcDbEntity
  8
LC-001-002-----0
  6
Continuous
 62
     7
100
AcDbLine
 10
1.14870299999995
 20
55.99348800000001
 30
0.0
 11
1.14870299999995
 21
35.09342100000004
 31
0.0
  0
LINE
  5
3DA
330
58
100
AcDbEntity
  8
LC-001-002-----0
  6
Continuous
 62
     7
100
AcDbLine
 10
-1.151297
 20
55.99348500000002
 30
0.0
 11
-1.151297
 21
35.09342100000004
 31
0.0
  0
LINE
  5
3DB
330
58
100
AcDbEntity
  8
LC-001-002-----0
  6
Continuous
 62
     7
100
AcDbLine
 10
-56.19726400000002
 20
35.09342100000004
 30
0.0
 11
-56.19726400000002
 21
30.730321
 31
0.0
  0
LINE
  5
3DC
330
58
100
AcDbEntity
  8
LC-001-002-----0
  6
Continuous
 62
     7
100
AcDbLine
 10
-57.89420899999993
 20
30.43110400000001
 30
0.0
 11
-56.19726400000002
 21
30.730321
 31
0.0
  0
LINE
  5
3DD
330
58
100
AcDbEntity
  8
LC-001-002-----0
  6
Continuous
 62
     7
100
AcDbLine
 10
-48.59028699999999
 20
55.99342000000002
 30
0.0
 11
48.58700699999997
 21
55.99355300000002
 31
0.0
  0
LINE
  5
3DE
330
58
100
AcDbEntity
  8
LC-001-002-----0
  6
Continuous
 62
     7
100
AcDbLine
 10
-56.19726400000002
 20
35.09342100000004
 30
0.0
 11
56.19404100000008
 21
35.09342100000004
 31
0.0
  0
LINE
  5
3DF
330
58
100
AcDbEntity
  8
LC-001-002-----0
  6
Continuous
 62
     7
100
AcDbLine
 10
-57.89420899999993
 20
30.43110400000001
 30
0.0
 11
57.89099900000008
 21
30.43110400000001
 31
0.0
  0
LINE
  5
3E0
330
58
100
AcDbEntity
  8
LC-001-002-----0
  6
Continuous
 62
     7
100
AcDbLine
 10
-1.151297
 20
30.43110400000001
 30
0.0
 11
-1.151297
 21
0.0
 31
0.0
  0
LINE
  5
3E1
330
58
100
AcDbEntity
  8
LC-001-002-----0
  6
Continuous
 62
     7
100
AcDbLine
 10
1.14870299999995
 20
30.43110400000001
 30
0.0
 11
1.14870299999995
 21
0.0
 31
0.0
  0
LINE
  5
3E2
330
58
100
AcDbEntity
  8
LC-001-002-----0
  6
Continuous
 62
     7
100
AcDbLine
 10
-51.60831199999996
 20
35.09342100000004
 30
0.0
 11
-43.00152199999991
 21
55.99342799999999
 31
0.0
  0
LINE
  5
3E3
330
58
100
AcDbEntity
  8
LC-001-002-----0
  6
Continuous
 62
     7
100
AcDbLine
 10
-58.91982399999995
 20
0.0
 30
0.0
 11
-47.68414700000005
 21
30.43110400000001
 31
0.0
  0
LINE
  5
3E4
330
58
100
AcDbEntity
  8
LC-001-002-----0
  6
Continuous
 62
     7
100
AcDbLine
 10
-33.353972
 20
0.0
 30
0.0
 11
-26.86705300000006
 21
30.43110400000001
 31
0.0
  0
LINE
  5
3E5
330
58
100
AcDbEntity
  8
LC-001-002-----0
  6
Continuous
 62
     7
100
AcDbLine
 10
-35.34582999999998
 20
0.0
 30
0.0
 11
-28.85891099999992
 21
30.43110400000001
 31
0.0
  0
LINE
  5
3E6
330
58
100
AcDbEntity
  8
LC-001-002-----0
  6
Continuous
 62
     7
100
AcDbLine
 10
-18.89225799999997
 20
0.0
 30
0.0
 11
-15.53438199999994
 21
30.43110400000001
 31
0.0
  0
LINE
  5
3E7
330
58
100
AcDbEntity
  8
LC-001-002-----0
  6
Continuous
 62
     7
100
AcDbLine
 10
-16.67062799999997
 20
0.0
 30
0.0
 11
-13.31275300000004
 21
30.43110400000001
 31
0.0
  0
LINE
  5
3E8
330
58
100
AcDbEntity
  8
LC-001-002-----0
  6
Continuous
 62
     7
100
AcDbLine
 10
-60.06982400000004
 20
0.0
 30
0.0
 11
-48.83414699999992
 21
30.43110400000001
 31
0.0
  0
LINE
  5
3E9
330
58
100
AcDbEntity
  8
LC-001-002-----0
  6
Continuous
 62
     7
100
AcDbLine
 10
-52.20359499999995
 20
35.09342100000004
 30
0.0
 11
-43.5968059999999
 21
55.993427
 31
0.0
  0
LINE
  5
3EA
330
58
100
AcDbEntity
  8
LC-001-002-----0
  6
Continuous
 62
     7
100
AcDbLine
 10
-46.39300261906374
 20
4.53381763889879
 30
0.0
 11
-46.0675195999048
 21
5.61161000000004
 31
0.0
  0
LINE
  5
3EB
330
58
100
AcDbEntity
  8
LC-001-002-----0
  6
Continuous
 62
     7
100
AcDbLine
 10
-48.03320373179889
 20
4.50311268876518
 30
0.0
 11
-47.69903140939145
 21
5.61161000000004
 31
0.0
  0
LINE
  5
3EC
330
58
100
AcDbEntity
  8
LC-001-002-----0
  6
Continuous
 62
     7
100
AcDbLine
 10
-47.11273999999992
 20
35.09342100000004
 30
0.0
 11
-39.39610299999993
 21
55.99343300000004
 31
0.0
  0
LINE
  5
3ED
330
58
100
AcDbEntity
  8
LC-001-002-----0
  6
Continuous
 62
     7
100
AcDbLine
 10
-45.96274000000005
 20
35.09342100000004
 30
0.0
 11
-38.24610299999995
 21
55.99343400000004
 31
0.0
  0
LINE
  5
3EE
330
58
100
AcDbEntity
  8
LC-001-002-----0
  6
Continuous
 62
     7
100
AcDbLine
 10
-66.0600619999999
 20
0.0
 30
0.0
 11
-53.52829099999997
 21
30.43110400000001
 31
0.0
  0
LINE
  5
3EF
330
58
100
AcDbEntity
  8
LC-001-002-----0
  6
Continuous
 62
     7
100
AcDbLine
 10
-66.6553459999999
 20
0.0
 30
0.0
 11
-54.12357499999996
 21
30.43110400000001
 31
0.0
  0
LINE
  5
3F0
330
58
100
AcDbEntity
  8
LC-001-002-----0
  6
Continuous
 62
     7
100
AcDbLine
 10
-38.81131799999992
 20
35.09342100000004
 30
0.0
 11
-32.51070799999991
 21
55.99344200000002
 31
0.0
  0
LINE
  5
3F1
330
58
100
AcDbEntity
  8
LC-001-002-----0
  6
Continuous
 62
     7
100
AcDbLine
 10
-37.16429299999993
 20
35.09342100000004
 30
0.0
 11
-30.85268499999995
 21
55.99344400000001
 31
0.0
  0
LINE
  5
3F2
330
58
100
AcDbEntity
  8
LC-001-002-----0
  6
Continuous
 62
     7
100
AcDbLine
 10
-27.86505699999998
 20
35.09342100000004
 30
0.0
 11
-23.409851
 21
55.99345500000004
 31
0.0
  0
LINE
  5
3F3
330
58
100
AcDbEntity
  8
LC-001-002-----0
  6
Continuous
 62
     7
100
AcDbLine
 10
-25.873199
 20
35.09342100000004
 30
0.0
 11
-21.41799299999991
 21
55.99345700000004
 31
0.0
  0
LINE
  5
3F4
330
58
100
AcDbEntity
  8
LC-001-002-----0
  6
Continuous
 62
     7
100
AcDbLine
 10
-15.01992499999994
 20
35.09342100000004
 30
0.0
 11
-12.71374000000003
 21
55.99346900000001
 31
0.0
  0
LINE
  5
3F5
330
58
100
AcDbEntity
  8
LC-001-002-----0
  6
Continuous
 62
     7
100
AcDbLine
 10
-12.79829600000005
 20
35.09342100000004
 30
0.0
 11
-10.49211099999991
 21
55.993472
 31
0.0
  0
LINE
  5
3F6
330
58
100
AcDbEntity
  8
LC-001-002-----0
  6
Continuous
 62
     7
100
AcDbLine
 10
16.667507
 20
0.0
 30
0.0
 11
13.30954299999996
 21
30.43114000000003
 31
0.0
  0
LINE
  5
3F7
330
58
100
AcDbEntity
  8
LC-001-002-----0
  6
Continuous
 62
     7
100
AcDbLine
 10
18.88913700000001
 20
0.0
 30
0.0
 11
15.53117200000008
 21
30.43114600000001
 31
0.0
  0
LINE
  5
3F8
330
58
100
AcDbEntity
  8
LC-001-002-----0
  6
Continuous
 62
     7
100
AcDbLine
 10
12.795073
 20
35.093457
 30
0.0
 11
10.48883100000001
 21
55.99350100000004
 31
0.0
  0
LINE
  5
3F9
330
58
100
AcDbEntity
  8
LC-001-002-----0
  6
Continuous
 62
     7
100
AcDbLine
 10
15.01670300000001
 20
35.09346300000004
 30
0.0
 11
12.71046000000001
 21
55.99350400000003
 31
0.0
  0
LINE
  5
3FA
330
58
100
AcDbEntity
  8
LC-001-002-----0
  6
Continuous
 62
     7
100
AcDbLine
 10
25.86997600000007
 20
35.09349200000003
 30
0.0
 11
21.41471300000001
 21
55.993516
 31
0.0
  0
LINE
  5
3FB
330
58
100
AcDbEntity
  8
LC-001-002-----0
  6
Continuous
 62
     7
100
AcDbLine
 10
27.86183400000004
 20
35.09349800000001
 30
0.0
 11
23.4065710000001
 21
55.99351899999999
 31
0.0
  0
LINE
  5
3FC
330
58
100
AcDbEntity
  8
LC-001-002-----0
  6
Continuous
 62
     7
100
AcDbLine
 10
37.16107100000011
 20
35.09352300000001
 30
0.0
 11
30.84940500000005
 21
55.99352900000002
 31
0.0
  0
LINE
  5
3FD
330
58
100
AcDbEntity
  8
LC-001-002-----0
  6
Continuous
 62
     7
100
AcDbLine
 10
38.80809600000009
 20
35.09352799999999
 30
0.0
 11
32.507428
 21
55.99353100000002
 31
0.0
  0
LINE
  5
3FE
330
58
100
AcDbEntity
  8
LC-001-002-----0
  6
Continuous
 62
     7
100
AcDbLine
 10
35.34272500000009
 20
0.0
 30
0.0
 11
28.85570100000007
 21
30.43118300000003
 31
0.0
  0
LINE
  5
3FF
330
58
100
AcDbEntity
  8
LC-001-002-----0
  6
Continuous
 62
     7
100
AcDbLine
 10
33.350865
 20
0.0
 30
0.0
 11
26.86384299999997
 21
30.43117799999999
 31
0.0
  0
LINE
  5
400
330
58
100
AcDbEntity
  8
LC-001-002-----0
  6
Continuous
 62
     7
100
AcDbLine
 10
46.389942815942
 20
4.5336848898112
 30
0.0
 11
46.06441645721838
 21
5.61161000000004
 31
0.0
  0
LINE
  5
401
330
58
100
AcDbEntity
  8
LC-001-002-----0
  6
Continuous
 62
     7
100
AcDbLine
 10
48.03003411677889
 20
4.50334833601178
 30
0.0
 11
47.69592948831206
 21
5.61161000000004
 31
0.0
  0
LINE
  5
402
330
58
100
AcDbEntity
  8
LC-001-002-----0
  6
Continuous
 62
     7
100
AcDbLine
 10
58.91675799999996
 20
0.0
 30
0.0
 11
47.68093699999997
 21
30.43123500000002
 31
0.0
  0
LINE
  5
403
330
58
100
AcDbEntity
  8
LC-001-002-----0
  6
Continuous
 62
     7
100
AcDbLine
 10
60.06675900000005
 20
0.0
 30
0.0
 11
48.83093700000006
 21
30.43123800000001
 31
0.0
  0
LINE
  5
404
330
58
100
AcDbEntity
  8
LC-001-002-----0
  6
Continuous
 62
     7
100
AcDbLine
 10
45.959518
 20
35.093548
 30
0.0
 11
38.24282300000004
 21
55.993539
 31
0.0
  0
LINE
  5
405
330
58
100
AcDbEntity
  8
LC-001-002-----0
  6
Continuous
 62
     7
100
AcDbLine
 10
47.10951699999998
 20
35.09355099999999
 30
0.0
 11
39.39282300000002
 21
55.99354099999999
 31
0.0
  0
LINE
  5
406
330
58
100
AcDbEntity
  8
LC-001-002-----0
  6
Continuous
 62
     7
100
AcDbLine
 10
51.60508900000002
 20
35.09356300000002
 30
0.0
 11
42.99824200000001
 21
55.99354600000004
 31
0.0
  0
LINE
  5
407
330
58
100
AcDbEntity
  8
LC-001-002-----0
  6
Continuous
 62
     7
100
AcDbLine
 10
51.60508900000002
 20
35.09356300000002
 30
0.0
 11
42.99824200000001
 21
55.99354600000004
 31
0.0
  0
LINE
  5
408
330
58
100
AcDbEntity
  8
LC-001-002-----0
  6
Continuous
 62
     7
100
AcDbLine
 10
52.20037300000001
 20
35.09356500000001
 30
0.0
 11
43.593526
 21
55.99354600000004
 31
0.0
  0
LINE
  5
409
330
58
100
AcDbEntity
  8
LC-001-002-----0
  6
Continuous
 62
     7
100
AcDbLine
 10
66.05701099999999
 20
0.0
 30
0.0
 11
53.525081
 21
30.43125100000003
 31
0.0
  0
LINE
  5
40A
330
58
100
AcDbEntity
  8
LC-001-002-----0
  6
Continuous
 62
     7
100
AcDbLine
 10
66.65229499999998
 20
0.0
 30
0.0
 11
54.12036500000011
 21
30.43125200000003
 31
0.0
  0
LINE
  5
40B
330
58
100
AcDbEntity
  8
LC-001-002-----0
  6
Continuous
 62
     7
100
AcDbLine
 10
-231.995428
 20
0.0
 30
0.0
 11
-231.995428
 21
-3.236469
 31
0.0
  0
LINE
  5
40C
330
58
100
AcDbEntity
  8
LC-001-002-----0
  6
Continuous
 62
     7
100
AcDbLine
 10
-68.60858199999996
 20
0.993606
 30
0.0
 11
-66.2461689999999
 21
0.99361200000004
 31
0.0
  0
LINE
  5
40D
330
58
100
AcDbEntity
  8
LC-001-002-----0
  6
Continuous
 62
     7
100
AcDbLine
 10
-53.24993398117342
 20
0.993639940945
 30
0.0
 11
-58.55295999999999
 21
0.993628
 31
0.0
  0
LINE
  5
40E
330
58
100
AcDbEntity
  8
LC-001-002-----0
  6
Continuous
 62
     7
100
AcDbLine
 10
-47.69903140939145
 20
5.61161000000004
 30
0.0
 11
-56.84792299999992
 21
5.61161000000004
 31
0.0
  0
LINE
  5
40F
330
58
100
AcDbEntity
  8
LC-001-002-----0
  6
Continuous
 62
     7
100
AcDbLine
 10
-34.14961800000003
 20
5.61161000000004
 30
0.0
 11
-46.0675195999048
 21
5.61161000000004
 31
0.0
  0
LINE
  5
410
330
58
100
AcDbEntity
  8
LC-001-002-----0
  6
Continuous
 62
     7
100
AcDbLine
 10
-18.273053
 20
5.61161000000004
 30
0.0
 11
-32.15775999999994
 21
5.61161000000004
 31
0.0
  0
LINE
  5
411
330
58
100
AcDbEntity
  8
LC-001-002-----0
  6
Continuous
 62
     7
100
AcDbLine
 10
-1.151297
 20
5.61161000000004
 30
0.0
 11
-16.051423
 21
5.61161000000004
 31
0.0
  0
LINE
  5
412
330
58
100
AcDbEntity
  8
LC-001-002-----0
  6
Continuous
 62
     7
100
AcDbLine
 10
16.04828600000008
 20
5.61161000000004
 30
0.0
 11
1.14870299999995
 21
5.61161000000004
 31
0.0
  0
LINE
  5
413
330
58
100
AcDbEntity
  8
LC-001-002-----0
  6
Continuous
 62
     7
100
AcDbLine
 10
32.15463699999998
 20
5.61161000000004
 30
0.0
 11
18.26991600000008
 21
5.61161000000004
 31
0.0
  0
LINE
  5
414
330
58
100
AcDbEntity
  8
LC-001-002-----0
  6
Continuous
 62
     7
100
AcDbLine
 10
46.06441645721838
 20
5.61161000000004
 30
0.0
 11
34.14649599999996
 21
5.61161000000004
 31
0.0
  0
LINE
  5
415
330
58
100
AcDbEntity
  8
LC-001-002-----0
  6
Continuous
 62
     7
100
AcDbLine
 10
56.84483899999998
 20
5.61161000000004
 30
0.0
 11
47.69592948831206
 21
5.61161000000004
 31
0.0
  0
LINE
  5
416
330
58
100
AcDbEntity
  8
LC-001-002-----0
  6
Continuous
 62
     7
100
AcDbLine
 10
-79.47633699999994
 20
14.40700000000004
 30
0.0
 11
-62.54563399999995
 21
60.923722
 31
0.0
  0
LINE
  5
417
330
58
100
AcDbEntity
  8
LC-001-002-----0
  6
Continuous
 62
     7
100
AcDbLine
 10
79.48844399999996
 20
14.36525599999999
 30
0.0
 11
62.54234099999997
 21
60.92389400000002
 31
0.0
  0
LINE
  5
418
330
58
100
AcDbEntity
  8
LC-001-002-----0
  6
Continuous
 62
     7
100
AcDbLine
 10
16.55784600000004
 20
0.99379100000004
 30
0.0
 11
1.14870299999995
 21
0.99375700000002
 31
0.0
  0
LINE
  5
419
330
58
100
AcDbEntity
  8
LC-001-002-----0
  6
Continuous
 62
     7
100
AcDbLine
 10
33.1390110000001
 20
0.99382700000001
 30
0.0
 11
18.77947500000005
 21
0.99379500000003
 31
0.0
  0
LINE
  5
41A
330
58
100
AcDbEntity
  8
LC-001-002-----0
  6
Continuous
 62
     7
100
AcDbLine
 10
40.75000002781915
 20
0.99384285078331
 30
0.0
 11
35.13087000000007
 21
0.993831
 31
0.0
  0
LINE
  5
41B
330
58
100
AcDbEntity
  8
LC-001-002-----0
  6
Continuous
 62
     7
100
AcDbLine
 10
58.54979700000001
 20
0.99388200000004
 30
0.0
 11
53.25000005355057
 21
0.99387005978444
 31
0.0
  0
LINE
  5
41C
330
58
100
AcDbEntity
  8
LC-001-002-----0
  6
Continuous
 62
     7
100
AcDbLine
 10
-140.919893
 20
-3.236469
 30
0.0
 11
-221.995428
 21
-3.236469
 31
0.0
  0
LINE
  5
41D
330
58
100
AcDbEntity
  8
LC-001-002-----0
  6
Continuous
 62
     7
100
AcDbLine
 10
-59.70296099999996
 20
0.99362600000001
 30
0.0
 11
-65.6508849999999
 21
0.99361300000004
 31
0.0
  0
LINE
  5
41E
330
58
100
AcDbEntity
  8
LC-001-002-----0
  6
Continuous
 62
     7
100
AcDbLine
 10
-1.151297
 20
0.99375200000003
 30
0.0
 11
-16.56097799999998
 21
0.993719
 31
0.0
  0
LINE
  5
41F
330
58
100
AcDbEntity
  8
LC-001-002-----0
  6
Continuous
 62
     7
100
AcDbLine
 10
-18.78260799999998
 20
0.99371400000001
 30
0.0
 11
-33.1421509999999
 21
0.99368300000003
 31
0.0
  0
LINE
  5
420
330
58
100
AcDbEntity
  8
LC-001-002-----0
  6
Continuous
 62
     7
100
AcDbLine
 10
-16.56097799999998
 20
0.993719
 30
0.0
 11
-1.151297
 21
0.99375200000003
 31
0.0
  0
LINE
  5
421
330
58
100
AcDbEntity
  8
LC-001-002-----0
  6
Continuous
 62
     7
100
AcDbLine
 10
-33.1421509999999
 20
0.99368300000003
 30
0.0
 11
-18.78260799999998
 21
0.99371400000001
 31
0.0
  0
LINE
  5
422
330
58
100
AcDbEntity
  8
LC-001-002-----0
  6
Continuous
 62
     7
100
AcDbLine
 10
-65.6508849999999
 20
0.99361300000004
 30
0.0
 11
-59.70296099999996
 21
0.99362600000001
 31
0.0
  0
LINE
  5
423
330
58
100
AcDbEntity
  8
LC-001-002-----0
  6
Continuous
 62
     7
100
AcDbLine
 10
-221.995428
 20
0.0
 30
0.0
 11
-231.995428
 21
0.0
 31
0.0
  0
LINE
  5
424
330
58
100
AcDbEntity
  8
LC-001-002-----0
  6
Continuous
 62
     7
100
AcDbLine
 10
-221.995428
 20
-3.236469
 30
0.0
 11
-231.995428
 21
-3.236469
 31
0.0
  0
LINE
  5
425
330
58
100
AcDbEntity
  8
LC-001-002-----0
  6
Continuous
 62
     7
100
AcDbLine
 10
-85.500001
 20
-31.736469
 30
0.0
 11
-81.75
 21
-31.736469
 31
0.0
  0
LINE
  5
426
330
58
100
AcDbEntity
  8
LC-001-002-----0
  6
Continuous
 62
     7
100
AcDbLine
 10
-103.951415
 20
-14.995091
 30
0.0
 11
-101.005186
 21
-14.99480499999999
 31
0.0
  0
LINE
  5
427
330
58
100
AcDbEntity
  8
LC-001-002-----0
  6
Continuous
 62
     7
100
AcDbLine
 10
-81.75
 20
-31.736469
 30
0.0
 11
-80.75
 21
-32.736469
 31
0.0
  0
LINE
  5
428
330
58
100
AcDbEntity
  8
LC-001-002-----0
  6
Continuous
 62
     7
100
AcDbLine
 10
85.500001
 20
-31.736469
 30
0.0
 11
81.75
 21
-31.736469
 31
0.0
  0
LINE
  5
429
330
58
100
AcDbEntity
  8
LC-001-002-----0
  6
Continuous
 62
     7
100
AcDbLine
 10
81.75
 20
-31.736469
 30
0.0
 11
80.75
 21
-32.736469
 31
0.0
  0
LINE
  5
42A
330
58
100
AcDbEntity
  8
LC-001-002-----0
  6
Continuous
 62
     7
100
AcDbLine
 10
-80.75
 20
-32.736469
 30
0.0
 11
-80.73356533875017
 21
-43.8856897294831
 31
0.0
  0
LINE
  5
42B
330
58
100
AcDbEntity
  8
LC-001-002-----0
  6
Continuous
 62
     7
100
AcDbLine
 10
-85.500001
 20
-31.736469
 30
0.0
 11
-85.500001
 21
-30.23617300000001
 31
0.0
  0
LINE
  5
42C
330
58
100
AcDbEntity
  8
LC-001-002-----0
  6
Continuous
 62
     7
100
AcDbLine
 10
103.938662
 20
-14.99508900000001
 30
0.0
 11
101.005186
 21
-14.99480499999999
 31
0.0
  0
LINE
  5
42D
330
58
100
AcDbEntity
  8
LC-001-002-----0
  6
Continuous
 62
     7
100
AcDbLine
 10
85.500001
 20
-31.736469
 30
0.0
 11
85.500001
 21
-30.23620999999997
 31
0.0
  0
LINE
  5
42E
330
58
100
AcDbEntity
  8
LC-001-002-----0
  6
Continuous
 62
     7
100
AcDbLine
 10
80.75
 20
-32.736469
 30
0.0
 11
80.75
 21
-44.27844212487634
 31
0.0
  0
LINE
  5
42F
330
58
100
AcDbEntity
  8
LC-001-002-----0
  6
Continuous
 62
     7
100
AcDbLine
 10
-128.015855
 20
-6.236469
 30
0.0
 11
-103.951415
 21
-14.995091
 31
0.0
  0
LINE
  5
430
330
58
100
AcDbEntity
  8
LC-001-002-----0
  6
Continuous
 62
     7
100
AcDbLine
 10
-100.00518
 20
-15.99461600000001
 30
0.0
 11
-100.005098
 21
-29.73649499999999
 31
0.0
  0
LINE
  5
431
330
58
100
AcDbEntity
  8
LC-001-002-----0
  6
Continuous
 62
     7
100
AcDbLine
 10
-99.50509599999998
 20
-30.236492
 30
0.0
 11
-94.00348999999994
 21
-30.23645899999997
 31
0.0
  0
LINE
  5
432
330
58
100
AcDbEntity
  8
LC-001-002-----0
  6
Continuous
 62
     7
100
AcDbLine
 10
-94.00348899999995
 20
-30.23658499999999
 30
0.0
 11
-85.500001
 21
-30.23617300000001
 31
0.0
  0
LINE
  5
433
330
58
100
AcDbEntity
  8
LC-001-002-----0
  6
Continuous
 62
     7
100
AcDbLine
 10
128.010255
 20
-6.236469
 30
0.0
 11
103.938662
 21
-14.99508900000001
 31
0.0
  0
LINE
  5
434
330
58
100
AcDbEntity
  8
LC-001-002-----0
  6
Continuous
 62
     7
100
AcDbLine
 10
100.005186
 20
-15.99460999999997
 30
0.0
 11
100.0051970000001
 21
-29.736468
 31
0.0
  0
LINE
  5
435
330
58
100
AcDbEntity
  8
LC-001-002-----0
  6
Continuous
 62
     7
100
AcDbLine
 10
99.50519700000007
 20
-30.236469
 30
0.0
 11
96.49993700000005
 21
-30.23646299999996
 31
0.0
  0
LINE
  5
436
330
58
100
AcDbEntity
  8
LC-001-002-----0
  6
Continuous
 62
     7
100
AcDbLine
 10
96.49993700000005
 20
-30.23645799999997
 30
0.0
 11
85.500001
 21
-30.23620999999997
 31
0.0
  0
LINE
  5
437
330
58
100
AcDbEntity
  8
LC-001-002-----0
  6
Continuous
 62
     7
100
AcDbLine
 10
177.0000000000001
 20
-5.236469
 30
0.0
 11
177.0000000000001
 21
-6.236469
 31
0.0
  0
LINE
  5
438
330
58
100
AcDbEntity
  8
LC-001-002-----0
  6
Continuous
 62
     7
100
AcDbLine
 10
127.736207
 20
-3.236469
 30
0.0
 11
175.0000000000001
 21
-3.236469
 31
0.0
  0
LINE
  5
439
330
58
100
AcDbEntity
  8
LC-001-002-----0
  6
Continuous
 62
     7
100
AcDbLine
 10
128.010255
 20
-6.236469
 30
0.0
 11
177.0000000000001
 21
-6.236469
 31
0.0
  0
LINE
  5
43A
330
58
100
AcDbEntity
  8
LC-001-002-----0
  6
Continuous
 62
     7
100
AcDbLine
 10
-127.599904
 20
-3.236469
 30
0.0
 11
-175.0
 21
-3.236469
 31
0.0
  0
LINE
  5
43B
330
58
100
AcDbEntity
  8
LC-001-002-----0
  6
Continuous
 62
     7
100
AcDbLine
 10
-128.010255
 20
-6.236469
 30
0.0
 11
-177.0
 21
-6.236469
 31
0.0
  0
LINE
  5
43C
330
58
100
AcDbEntity
  8
LC-001-002-----0
  6
Continuous
 62
     7
100
AcDbLine
 10
-177.0
 20
-5.236469
 30
0.0
 11
-177.0
 21
-6.236469
 31
0.0
  0
LINE
  5
43D
330
58
100
AcDbEntity
  8
LC-001-002-----0
  6
Continuous
 62
     7
100
AcDbLine
 10
-101.005186
 20
-14.99480499999999
 30
0.0
 11
-100.00518
 21
-15.99461600000001
 31
0.0
  0
LINE
  5
43E
330
58
100
AcDbEntity
  8
LC-001-002-----0
  6
Continuous
 62
     7
100
AcDbLine
 10
101.005186
 20
-14.99480499999999
 30
0.0
 11
100.005186
 21
-15.99460999999997
 31
0.0
  0
LINE
  5
43F
330
58
100
AcDbEntity
  8
LC-001-002-----0
  6
DASHDOT
 62
     2
100
AcDbLine
 10
0.0
 20
70.79348700000003
 30
0.0
 11
0.0
 21
-54.37111799999997
 31
0.0
  0
LINE
  5
440
330
58
100
AcDbEntity
  8
LC-001-002-----0
  6
DASHDOT
 62
     2
100
AcDbLine
 10
0.0
 20
-54.80111799999997
 30
0.0
 11
0.0
 21
-348.236469
 31
0.0
  0
LINE
  5
441
330
58
100
AcDbEntity
  8
LC-001-002-----0
  6
Continuous
 62
     7
100
AcDbLine
 10
127.246697
 20
0.0
 30
0.0
 11
-231.993711
 21
0.0
 31
0.0
  0
LINE
  5
442
330
58
100
AcDbEntity
  8
LC-001-002-----0
  6
Continuous
 62
     7
100
AcDbLine
 10
231.9954280000001
 20
0.0
 30
0.0
 11
231.9954280000001
 21
-3.236469
 31
0.0
  0
LINE
  5
443
330
58
100
AcDbEntity
  8
LC-001-002-----0
  6
Continuous
 62
     7
100
AcDbLine
 10
221.9954280000001
 20
0.0
 30
0.0
 11
231.9954280000001
 21
0.0
 31
0.0
  0
LINE
  5
444
330
58
100
AcDbEntity
  8
LC-001-002-----0
  6
Continuous
 62
     7
100
AcDbLine
 10
127.246697
 20
0.0
 30
0.0
 11
231.9937100000001
 21
0.0
 31
0.0
  0
LINE
  5
445
330
58
100
AcDbEntity
  8
LC-001-002-----0
  6
Continuous
 62
     7
100
AcDbLine
 10
140.919893
 20
-3.236469
 30
0.0
 11
231.9954280000001
 21
-3.236469
 31
0.0
  0
LINE
  5
446
330
58
100
AcDbEntity
  8
LC-001-002-----0
  6
Continuous
 62
     7
100
AcDbLine
 10
90.99993700000005
 20
-37.23642599999999
 30
0.0
 11
90.99993700000005
 21
-30.236334
 31
0.0
  0
LINE
  5
447
330
58
100
AcDbEntity
  8
LC-001-002-----0
  6
Continuous
 62
     7
100
AcDbLine
 10
96.49993700000005
 20
-37.73642599999999
 30
0.0
 11
91.49993700000005
 21
-37.73642599999999
 31
0.0
  0
LINE
  5
448
330
58
100
AcDbEntity
  8
LC-001-002-----0
  6
Continuous
 62
     7
100
AcDbLine
 10
96.99993700000005
 20
-37.23642599999999
 30
0.0
 11
96.99993700000005
 21
-30.23646399999996
 31
0.0
  0
LINE
  5
449
330
58
100
AcDbEntity
  8
LC-001-002-----0
  6
Continuous
 62
     7
100
AcDbLine
 10
96.49993700000005
 20
-37.73642599999999
 30
0.0
 11
96.99993700000005
 21
-37.23642599999999
 31
0.0
  0
LINE
  5
44A
330
58
100
AcDbEntity
  8
LC-001-002-----0
  6
Continuous
 62
     7
100
AcDbLine
 10
91.49993700000005
 20
-37.73642599999999
 30
0.0
 11
90.99993700000005
 21
-37.23642599999999
 31
0.0
  0
LINE
  5
44B
330
58
100
AcDbEntity
  8
LC-001-002-----0
  6
Continuous
 62
     7
100
AcDbLine
 10
-90.99993699999993
 20
-37.23642599999999
 30
0.0
 11
-90.99993699999993
 21
-30.23643999999996
 31
0.0
  0
LINE
  5
44C
330
58
100
AcDbEntity
  8
LC-001-002-----0
  6
Continuous
 62
     7
100
AcDbLine
 10
-96.49993699999993
 20
-37.73642599999999
 30
0.0
 11
-91.49993699999993
 21
-37.73642599999999
 31
0.0
  0
LINE
  5
44D
330
58
100
AcDbEntity
  8
LC-001-002-----0
  6
Continuous
 62
     7
100
AcDbLine
 10
-96.99993699999993
 20
-37.23642599999999
 30
0.0
 11
-96.99993699999993
 21
-30.23647699999998
 31
0.0
  0
LINE
  5
44E
330
58
100
AcDbEntity
  8
LC-001-002-----0
  6
Continuous
 62
     7
100
AcDbLine
 10
-96.49993699999993
 20
-37.73642599999999
 30
0.0
 11
-96.99993699999993
 21
-37.23642599999999
 31
0.0
  0
LINE
  5
44F
330
58
100
AcDbEntity
  8
LC-001-002-----0
  6
Continuous
 62
     7
100
AcDbLine
 10
-91.49993699999993
 20
-37.73642599999999
 30
0.0
 11
-90.99993699999993
 21
-37.23642599999999
 31
0.0
  0
LINE
  5
450
330
58
100
AcDbEntity
  8
LC-001-002-----0
  6
Continuous
 62
     7
100
AcDbLine
 10
-80.75
 20
-32.736469
 30
0.0
 11
-49.99996699999997
 21
-32.736469
 31
0.0
  0
LINE
  5
451
330
58
100
AcDbEntity
  8
LC-001-002-----0
  6
Continuous
 62
     7
100
AcDbLine
 10
81.75
 20
-31.736469
 30
0.0
 11
49.99996700000008
 21
-31.736469
 31
0.0
  0
LINE
  5
452
330
58
100
AcDbEntity
  8
LC-001-002-----0
  6
Continuous
 62
     7
100
AcDbLine
 10
-85.500001
 20
-30.23617300000001
 30
0.0
 11
85.500001
 21
-30.23617300000001
 31
0.0
  0
LINE
  5
453
330
58
100
AcDbEntity
  8
LC-001-002-----0
  6
Continuous
 62
     7
100
AcDbLine
 10
100.005186
 20
-15.99460999999997
 30
0.0
 11
-100.00518
 21
-15.99460999999997
 31
0.0
  0
LINE
  5
454
330
58
100
AcDbEntity
  8
LC-001-002-----0
  6
Continuous
 62
     7
100
AcDbLine
 10
-101.005186
 20
-14.99480499999999
 30
0.0
 11
101.005186
 21
-14.99480499999999
 31
0.0
  0
LINE
  5
455
330
58
100
AcDbEntity
  8
LC-001-002-----0
  6
Continuous
 62
     7
100
AcDbLine
 10
128.010255
 20
-6.236469
 30
0.0
 11
-128.015855
 21
-6.236469
 31
0.0
  0
LINE
  5
456
330
58
100
AcDbEntity
  8
LC-001-002-----0
  6
Continuous
 62
     7
100
AcDbLine
 10
-127.741663
 20
-3.236469
 30
0.0
 11
128.010255
 21
-3.236469
 31
0.0
  0
LINE
  5
457
330
58
100
AcDbEntity
  8
LC-001-002-----0
  6
DASHDOT
 62
     2
100
AcDbLine
 10
93.99993700000005
 20
12.26357400000001
 30
0.0
 11
93.99993700000005
 21
-37.73642599999999
 31
0.0
  0
LINE
  5
458
330
58
100
AcDbEntity
  8
LC-001-002-----0
  6
DASHDOT
 62
     2
100
AcDbLine
 10
-93.99993699999993
 20
12.26357400000001
 30
0.0
 11
-93.99993699999993
 21
-37.73642599999999
 31
0.0
  0
LINE
  5
459
330
58
100
AcDbEntity
  8
LC-001-002-----0
  6
DASHDOT
 62
     2
100
AcDbLine
 10
-46.99996699999997
 20
12.26357400000001
 30
0.0
 11
-46.99996699999997
 21
-37.73642599999999
 31
0.0
  0
LINE
  5
45A
330
58
100
AcDbEntity
  8
LC-001-002-----0
  6
Continuous
 62
     7
100
AcDbLine
 10
-43.99996699999997
 20
-37.23642599999999
 30
0.0
 11
-43.99996699999997
 21
-30.23643999999996
 31
0.0
  0
LINE
  5
45B
330
58
100
AcDbEntity
  8
LC-001-002-----0
  6
Continuous
 62
     7
100
AcDbLine
 10
-49.49996699999997
 20
-37.73642599999999
 30
0.0
 11
-44.49996699999997
 21
-37.73642599999999
 31
0.0
  0
LINE
  5
45C
330
58
100
AcDbEntity
  8
LC-001-002-----0
  6
Continuous
 62
     7
100
AcDbLine
 10
-49.99996699999997
 20
-37.23642599999999
 30
0.0
 11
-49.99996699999997
 21
-30.23647699999998
 31
0.0
  0
LINE
  5
45D
330
58
100
AcDbEntity
  8
LC-001-002-----0
  6
Continuous
 62
     7
100
AcDbLine
 10
-49.49996699999997
 20
-37.73642599999999
 30
0.0
 11
-49.99996699999997
 21
-37.23642599999999
 31
0.0
  0
LINE
  5
45E
330
58
100
AcDbEntity
  8
LC-001-002-----0
  6
Continuous
 62
     7
100
AcDbLine
 10
-44.49996699999997
 20
-37.73642599999999
 30
0.0
 11
-43.99996699999997
 21
-37.23642599999999
 31
0.0
  0
LINE
  5
45F
330
58
100
AcDbEntity
  8
LC-001-002-----0
  6
Continuous
 62
     7
100
AcDbLine
 10
-43.99996699999997
 20
-32.736469
 30
0.0
 11
43.99996700000008
 21
-32.736469
 31
0.0
  0
LINE
  5
460
330
58
100
AcDbEntity
  8
LC-001-002-----0
  6
Continuous
 62
     7
100
AcDbLine
 10
-49.99996699999997
 20
-31.736469
 30
0.0
 11
-81.75
 21
-31.736469
 31
0.0
  0
LINE
  5
461
330
58
100
AcDbEntity
  8
LC-001-002-----0
  6
DASHDOT
 62
     2
100
AcDbLine
 10
46.99996700000008
 20
12.26357400000001
 30
0.0
 11
46.99996700000008
 21
-37.73642599999999
 31
0.0
  0
LINE
  5
462
330
58
100
AcDbEntity
  8
LC-001-002-----0
  6
Continuous
 62
     7
100
AcDbLine
 10
43.99996700000008
 20
-37.23642599999999
 30
0.0
 11
43.99996700000008
 21
-30.23643999999996
 31
0.0
  0
LINE
  5
463
330
58
100
AcDbEntity
  8
LC-001-002-----0
  6
Continuous
 62
     7
100
AcDbLine
 10
49.49996700000008
 20
-37.73642599999999
 30
0.0
 11
44.49996700000008
 21
-37.73642599999999
 31
0.0
  0
LINE
  5
464
330
58
100
AcDbEntity
  8
LC-001-002-----0
  6
Continuous
 62
     7
100
AcDbLine
 10
49.99996700000008
 20
-37.23642599999999
 30
0.0
 11
49.99996700000008
 21
-30.23647699999998
 31
0.0
  0
LINE
  5
465
330
58
100
AcDbEntity
  8
LC-001-002-----0
  6
Continuous
 62
     7
100
AcDbLine
 10
49.49996700000008
 20
-37.73642599999999
 30
0.0
 11
49.99996700000008
 21
-37.23642599999999
 31
0.0
  0
LINE
  5
466
330
58
100
AcDbEntity
  8
LC-001-002-----0
  6
Continuous
 62
     7
100
AcDbLine
 10
44.49996700000008
 20
-37.73642599999999
 30
0.0
 11
43.99996700000008
 21
-37.23642599999999
 31
0.0
  0
LINE
  5
467
330
58
100
AcDbEntity
  8
LC-001-002-----0
  6
Continuous
 62
     7
100
AcDbLine
 10
43.99996700000008
 20
-31.736469
 30
0.0
 11
-43.99996699999997
 21
-31.736469
 31
0.0
  0
LINE
  5
468
330
58
100
AcDbEntity
  8
LC-001-002-----0
  6
Continuous
 62
     7
100
AcDbLine
 10
49.99996700000008
 20
-32.736469
 30
0.0
 11
80.75
 21
-32.736469
 31
0.0
  0
LINE
  5
469
330
58
100
AcDbEntity
  8
1
  6
Continuous
 62
     7
100
AcDbLine
 10
74.50002699999956
 20
-390.7583180000001
 30
0.0
 11
80.00002734934014
 21
-388.1505752395272
 31
0.0
  0
LINE
  5
46A
330
58
100
AcDbEntity
  8
1
  6
Continuous
 62
     7
100
AcDbLine
 10
13.00002699999959
 20
-387.758318
 30
0.0
 11
74.50002699999956
 21
-390.7583180000001
 31
0.0
  0
LINE
  5
46B
330
58
100
AcDbEntity
  8
1
  6
Continuous
 62
     7
100
AcDbLine
 10
-10.99997300000041
 20
-390.758318
 30
0.0
 11
13.00002699999959
 21
-387.758318
 31
0.0
  0
LINE
  5
46C
330
58
100
AcDbEntity
  8
1
  6
Continuous
 62
     7
100
AcDbLine
 10
-67.49997300000041
 20
-385.7583180000001
 30
0.0
 11
-10.99997300000041
 21
-390.758318
 31
0.0
  0
LINE
  5
46D
330
58
100
AcDbEntity
  8
1
  6
Continuous
 62
     7
100
AcDbLine
 10
-79.99997250254592
 20
-388.2583179005091
 30
0.0
 11
-67.49997300000041
 21
-385.7583180000001
 31
0.0
  0
LWPOLYLINE
  5
46E
330
58
100
AcDbEntity
  8
LC-006-005-----0
  6
Continuous
 62
     3
100
AcDbPolyline
 90
        2
 70
     0
 43
1.0
 10
0.04459799999961
 20
-367.898053
 10
-0.05812100000037
 20
-367.795334
  0
LWPOLYLINE
  5
46F
330
58
100
AcDbEntity
  8
LC-006-005-----0
  6
Continuous
 62
     3
100
AcDbPolyline
 90
        2
 70
     0
 43
1.0
 10
0.11040699999967
 20
-367.398177
 10
-0.14388800000029
 20
-367.143882
  0
LWPOLYLINE
  5
470
330
58
100
AcDbEntity
  8
LC-006-005-----0
  6
Continuous
 62
     3
100
AcDbPolyline
 90
        2
 70
     0
 43
1.0
 10
0.17621699999961
 20
-366.898302
 10
-0.22965500000032
 20
-366.492429
  0
LWPOLYLINE
  5
471
330
58
100
AcDbEntity
  8
LC-006-005-----0
  6
Continuous
 62
     3
100
AcDbPolyline
 90
        2
 70
     0
 43
1.0
 10
0.24202699999967
 20
-366.398426
 10
-0.31542300000035
 20
-365.840976
  0
LWPOLYLINE
  5
472
330
58
100
AcDbEntity
  8
LC-006-005-----0
  6
Continuous
 62
     3
100
AcDbPolyline
 90
        2
 70
     0
 43
1.0
 10
0.30783699999961
 20
-365.89855
 10
-0.40119000000038
 20
-365.189524
  0
LWPOLYLINE
  5
473
330
58
100
AcDbEntity
  8
LC-006-005-----0
  6
Continuous
 62
     3
100
AcDbPolyline
 90
        2
 70
     0
 43
1.0
 10
0.37364699999966
 20
-365.398675
 10
-0.4869570000003
 20
-364.538071
  0
LWPOLYLINE
  5
474
330
58
100
AcDbEntity
  8
LC-006-005-----0
  6
Continuous
 62
     3
100
AcDbPolyline
 90
        2
 70
     0
 43
1.0
 10
0.43945699999972
 20
-364.898799
 10
-0.57272400000033
 20
-363.886618
  0
LWPOLYLINE
  5
475
330
58
100
AcDbEntity
  8
LC-006-005-----0
  6
Continuous
 62
     3
100
AcDbPolyline
 90
        2
 70
     0
 43
1.0
 10
0.50526699999966
 20
-364.398924
 10
-0.65849100000037
 20
-363.235166
  0
LWPOLYLINE
  5
476
330
58
100
AcDbEntity
  8
LC-006-005-----0
  6
Continuous
 62
     3
100
AcDbPolyline
 90
        2
 70
     0
 43
1.0
 10
0.57107599999972
 20
-363.899048
 10
-0.7442580000004
 20
-362.583713
  0
LWPOLYLINE
  5
477
330
58
100
AcDbEntity
  8
LC-006-005-----0
  6
Continuous
 62
     3
100
AcDbPolyline
 90
        2
 70
     0
 43
1.0
 10
0.63688599999966
 20
-363.399173
 10
-0.83002600000032
 20
-361.932261
  0
LWPOLYLINE
  5
478
330
58
100
AcDbEntity
  8
LC-006-005-----0
  6
Continuous
 62
     3
100
AcDbPolyline
 90
        2
 70
     0
 43
1.0
 10
0.70269599999961
 20
-362.899297
 10
-0.91579300000035
 20
-361.280808
  0
LWPOLYLINE
  5
479
330
58
100
AcDbEntity
  8
LC-006-005-----0
  6
Continuous
 62
     3
100
AcDbPolyline
 90
        2
 70
     0
 43
1.0
 10
0.76850599999966
 20
-362.399422
 10
-1.00156000000038
 20
-360.629355
  0
LWPOLYLINE
  5
47A
330
58
100
AcDbEntity
  8
LC-006-005-----0
  6
Continuous
 62
     3
100
AcDbPolyline
 90
        2
 70
     0
 43
1.0
 10
0.83431599999972
 20
-361.899546
 10
-1.08732700000041
 20
-359.977903
  0
LWPOLYLINE
  5
47B
330
58
100
AcDbEntity
  8
LC-006-005-----0
  6
Continuous
 62
     3
100
AcDbPolyline
 90
        2
 70
     0
 43
1.0
 10
0.90012599999966
 20
-361.39967
 10
-1.17309400000033
 20
-359.32645
  0
LWPOLYLINE
  5
47C
330
58
100
AcDbEntity
  8
LC-006-005-----0
  6
Continuous
 62
     3
100
AcDbPolyline
 90
        2
 70
     0
 43
1.0
 10
0.9659359999996
 20
-360.899795
 10
-1.25886200000036
 20
-358.674998
  0
LWPOLYLINE
  5
47D
330
58
100
AcDbEntity
  8
LC-006-005-----0
  6
Continuous
 62
     3
100
AcDbPolyline
 90
        2
 70
     0
 43
1.0
 10
1.03174599999966
 20
-360.399919
 10
-1.3446290000004
 20
-358.023545
  0
LWPOLYLINE
  5
47E
330
58
100
AcDbEntity
  8
LC-006-005-----0
  6
Continuous
 62
     3
100
AcDbPolyline
 90
        2
 70
     0
 43
1.0
 10
1.0975549999996
 20
-359.900044
 10
-1.43039600000031
 20
-357.372092
  0
LWPOLYLINE
  5
47F
330
58
100
AcDbEntity
  8
LC-006-005-----0
  6
Continuous
 62
     3
100
AcDbPolyline
 90
        2
 70
     0
 43
1.0
 10
1.16336499999966
 20
-359.400168
 10
-1.51616300000035
 20
-356.72064
  0
LWPOLYLINE
  5
480
330
58
100
AcDbEntity
  8
LC-006-005-----0
  6
Continuous
 62
     3
100
AcDbPolyline
 90
        2
 70
     0
 43
1.0
 10
1.22917499999971
 20
-358.900293
 10
-1.60193000000038
 20
-356.069187
  0
LWPOLYLINE
  5
481
330
58
100
AcDbEntity
  8
LC-006-005-----0
  6
Continuous
 62
     3
100
AcDbPolyline
 90
        2
 70
     0
 43
1.0
 10
1.29498499999966
 20
-358.400417
 10
-1.68769700000041
 20
-355.417735
  0
LWPOLYLINE
  5
482
330
58
100
AcDbEntity
  8
LC-006-005-----0
  6
Continuous
 62
     3
100
AcDbPolyline
 90
        2
 70
     0
 43
1.0
 10
1.36079499999971
 20
-357.900541
 10
-1.77346500000033
 20
-354.766282
  0
LWPOLYLINE
  5
483
330
58
100
AcDbEntity
  8
LC-006-005-----0
  6
Continuous
 62
     3
100
AcDbPolyline
 90
        2
 70
     0
 43
1.0
 10
1.42660499999965
 20
-357.400666
 10
-1.85923200000036
 20
-354.114829
  0
LWPOLYLINE
  5
484
330
58
100
AcDbEntity
  8
LC-006-005-----0
  6
Continuous
 62
     3
100
AcDbPolyline
 90
        2
 70
     0
 43
1.0
 10
1.49241499999971
 20
-356.90079
 10
-1.33752800000036
 20
-354.070848
  0
LWPOLYLINE
  5
485
330
58
100
AcDbEntity
  8
LC-006-005-----0
  6
Continuous
 62
     3
100
AcDbPolyline
 90
        2
 70
     0
 43
1.0
 10
1.55822399999965
 20
-356.400915
 10
-0.77184200000033
 20
-354.070848
  0
LWPOLYLINE
  5
486
330
58
100
AcDbEntity
  8
LC-006-005-----0
  6
Continuous
 62
     3
100
AcDbPolyline
 90
        2
 70
     0
 43
1.0
 10
1.6240339999996
 20
-355.901039
 10
-0.2061570000003
 20
-354.070848
  0
LWPOLYLINE
  5
487
330
58
100
AcDbEntity
  8
LC-006-005-----0
  6
Continuous
 62
     3
100
AcDbPolyline
 90
        2
 70
     0
 43
1.0
 10
1.68984399999965
 20
-355.401164
 10
0.35952799999961
 20
-354.070848
  0
LWPOLYLINE
  5
488
330
58
100
AcDbEntity
  8
LC-006-005-----0
  6
Continuous
 62
     3
100
AcDbPolyline
 90
        2
 70
     0
 43
1.0
 10
1.7556539999996
 20
-354.901288
 10
0.92521399999964
 20
-354.070848
  0
LWPOLYLINE
  5
489
330
58
100
AcDbEntity
  8
LC-006-005-----0
  6
Continuous
 62
     3
100
AcDbPolyline
 90
        2
 70
     0
 43
1.0
 10
1.82146399999965
 20
-354.401413
 10
1.49089899999967
 20
-354.070848
  0
LWPOLYLINE
  5
48A
330
58
100
AcDbEntity
  8
LC-005-002-----0
  6
Continuous
 62
     7
100
AcDbPolyline
 90
        2
 70
     0
 43
1.0
 10
-1.86502200000041
 20
-354.070848
 10
1.86498399999959
 20
-354.070848
  0
LWPOLYLINE
  5
48B
330
58
100
AcDbEntity
  8
LC-005-002-----0
  6
Continuous
 62
     7
100
AcDbPolyline
 90
        2
 70
     0
 43
1.0
 10
-0.00000000000034
 20
-368.236801
 10
-1.86502200000041
 20
-354.070848
  0
LWPOLYLINE
  5
48C
330
58
100
AcDbEntity
  8
LC-005-002-----0
  6
Continuous
 62
     7
100
AcDbPolyline
 90
        2
 70
     0
 43
1.0
 10
-0.00000000000034
 20
-368.236801
 10
1.86498399999959
 20
-354.070843
  0
LINE
  5
48D
330
58
100
AcDbEntity
  8
LC-005-002-----0
  6
Continuous
 62
     7
100
AcDbLine
 10
2.79499899999973
 20
-368.236801
 30
0.0
 11
79.99999999999967
 21
-368.236801
 31
0.0
  0
LINE
  5
48E
330
58
100
AcDbEntity
  8
LC-005-002-----0
  6
Continuous
 62
     7
100
AcDbLine
 10
79.99999999999967
 20
-368.236801
 30
0.0
 11
80.00002734934014
 21
-388.1505752395272
 31
0.0
  0
LINE
  5
48F
330
58
100
AcDbEntity
  8
LC-005-002-----0
  6
Continuous
 62
     7
100
AcDbLine
 10
-80.00000000000034
 20
-368.236698
 30
0.0
 11
-2.29995800000029
 21
-368.236698
 31
0.0
  0
LINE
  5
490
330
58
100
AcDbEntity
  8
LC-005-002-----0
  6
Continuous
 62
     7
100
AcDbLine
 10
-80.00000000000034
 20
-368.236698
 30
0.0
 11
-79.99997250254592
 21
-388.2583179005091
 31
0.0
  0
LINE
  5
491
330
58
100
AcDbEntity
  8
1
  6
PHANTOM
 62
     2
100
AcDbLine
 10
-0.00000000022196
 20
-368.2365881289524
 30
0.0
 11
0.00002749723247
 21
-388.2582080294615
 31
0.0
  0
LINE
  5
492
330
58
100
AcDbEntity
  8
LC-001-002-----0
  6
Continuous
 62
     7
100
AcDbLine
 10
-63.50699999999995
 20
-114.7221941960393
 30
0.0
 11
63.49300000000005
 21
-114.7221941960393
 31
0.0
  0
LINE
  5
493
330
58
100
AcDbEntity
  8
LC-001-002-----0
  6
Continuous
 62
     7
100
AcDbLine
 10
-63.50699999999995
 20
-127.0523591960393
 30
0.0
 11
63.49300000000005
 21
-127.0523591960393
 31
0.0
  0
LINE
  5
494
330
58
100
AcDbEntity
  8
LC-001-002-----0
  6
Continuous
 62
     7
100
AcDbLine
 10
-63.50699999999995
 20
-139.3825251960393
 30
0.0
 11
63.49300000000005
 21
-139.3825251960393
 31
0.0
  0
LINE
  5
495
330
58
100
AcDbEntity
  8
LC-001-002-----0
  6
Continuous
 62
     7
100
AcDbLine
 10
-63.50699999999995
 20
-151.7126911960393
 30
0.0
 11
63.49300000000005
 21
-151.7126911960393
 31
0.0
  0
LINE
  5
496
330
58
100
AcDbEntity
  8
LC-001-002-----0
  6
Continuous
 62
     7
100
AcDbLine
 10
-63.50699999999995
 20
-164.0428561960393
 30
0.0
 11
63.49300000000005
 21
-164.0428561960393
 31
0.0
  0
LINE
  5
497
330
58
100
AcDbEntity
  8
LC-001-002-----0
  6
Continuous
 62
     7
100
AcDbLine
 10
-63.50699999999995
 20
-176.3730221960393
 30
0.0
 11
63.49300000000005
 21
-176.3730221960393
 31
0.0
  0
LINE
  5
498
330
58
100
AcDbEntity
  8
LC-001-002-----0
  6
Continuous
 62
     7
100
AcDbLine
 10
-63.50699999999995
 20
-188.7031881960393
 30
0.0
 11
63.49300000000005
 21
-188.7031881960393
 31
0.0
  0
LINE
  5
499
330
58
100
AcDbEntity
  8
LC-001-002-----0
  6
Continuous
 62
     7
100
AcDbLine
 10
-63.50699999999995
 20
-201.0333531960393
 30
0.0
 11
63.49300000000005
 21
-201.0333531960393
 31
0.0
  0
LINE
  5
49A
330
58
100
AcDbEntity
  8
LC-001-002-----0
  6
Continuous
 62
     7
100
AcDbLine
 10
-63.50699999999995
 20
-213.3635191960393
 30
0.0
 11
63.49300000000005
 21
-213.3635191960393
 31
0.0
  0
LINE
  5
49B
330
58
100
AcDbEntity
  8
LC-001-002-----0
  6
Continuous
 62
     7
100
AcDbLine
 10
-63.50699999999995
 20
-225.6936851960393
 30
0.0
 11
63.49300000000005
 21
-225.6936851960393
 31
0.0
  0
LINE
  5
49C
330
58
100
AcDbEntity
  8
LC-001-002-----0
  6
Continuous
 62
     7
100
AcDbLine
 10
-63.50699999999995
 20
-238.0238501960393
 30
0.0
 11
63.49300000000005
 21
-238.0238501960393
 31
0.0
  0
LINE
  5
49D
330
58
100
AcDbEntity
  8
LC-001-002-----0
  6
Continuous
 62
     7
100
AcDbLine
 10
-63.50699999999995
 20
-250.3540161960393
 30
0.0
 11
63.49300000000005
 21
-250.3540161960393
 31
0.0
  0
LINE
  5
49E
330
58
100
AcDbEntity
  8
LC-001-002-----0
  6
Continuous
 62
     7
100
AcDbLine
 10
-63.50699999999995
 20
-262.6841821960393
 30
0.0
 11
63.49300000000005
 21
-262.6841821960393
 31
0.0
  0
LINE
  5
49F
330
58
100
AcDbEntity
  8
LC-001-002-----0
  6
Continuous
 62
     7
100
AcDbLine
 10
-63.50699999999995
 20
-275.0143471960393
 30
0.0
 11
63.49300000000005
 21
-275.0143471960393
 31
0.0
  0
LINE
  5
4A0
330
58
100
AcDbEntity
  8
LC-001-002-----0
  6
Continuous
 62
     7
100
AcDbLine
 10
-63.50699999999995
 20
-287.3445131960393
 30
0.0
 11
63.49300000000005
 21
-287.3445131960393
 31
0.0
  0
LINE
  5
4A1
330
58
100
AcDbEntity
  8
LC-001-002-----0
  6
Continuous
 62
     7
100
AcDbLine
 10
-63.50699999999995
 20
-299.6746791960393
 30
0.0
 11
63.49300000000005
 21
-299.6746791960393
 31
0.0
  0
LINE
  5
4A2
330
58
100
AcDbEntity
  8
LC-001-002-----0
  6
Continuous
 62
     7
100
AcDbLine
 10
-63.50699999999995
 20
-312.0048441960393
 30
0.0
 11
63.49300000000005
 21
-312.0048441960393
 31
0.0
  0
LINE
  5
4A3
330
58
100
AcDbEntity
  8
LC-001-002-----0
  6
Continuous
 62
     7
100
AcDbLine
 10
-63.50699999999995
 20
-324.3350101960393
 30
0.0
 11
63.49300000000005
 21
-324.3350101960393
 31
0.0
  0
LINE
  5
4A4
330
58
100
AcDbEntity
  8
LC-001-002-----0
  6
Continuous
 62
     7
100
AcDbLine
 10
-64.00699999999995
 20
-124.5671601960393
 30
0.0
 11
63.99300000000005
 21
-124.5671601960393
 31
0.0
  0
LINE
  5
4A5
330
58
100
AcDbEntity
  8
LC-001-002-----0
  6
Continuous
 62
     7
100
AcDbLine
 10
-64.00699999999995
 20
-136.8973251960393
 30
0.0
 11
63.99300000000005
 21
-136.8973251960393
 31
0.0
  0
LINE
  5
4A6
330
58
100
AcDbEntity
  8
LC-001-002-----0
  6
Continuous
 62
     7
100
AcDbLine
 10
-64.00699999999995
 20
-149.2274911960393
 30
0.0
 11
63.99300000000005
 21
-149.2274911960393
 31
0.0
  0
LINE
  5
4A7
330
58
100
AcDbEntity
  8
LC-001-002-----0
  6
Continuous
 62
     7
100
AcDbLine
 10
-64.00699999999995
 20
-161.5576571960393
 30
0.0
 11
63.99300000000005
 21
-161.5576571960393
 31
0.0
  0
LINE
  5
4A8
330
58
100
AcDbEntity
  8
LC-001-002-----0
  6
Continuous
 62
     7
100
AcDbLine
 10
-64.00699999999995
 20
-173.8878221960393
 30
0.0
 11
63.99300000000005
 21
-173.8878221960393
 31
0.0
  0
LINE
  5
4A9
330
58
100
AcDbEntity
  8
LC-001-002-----0
  6
Continuous
 62
     7
100
AcDbLine
 10
-64.00699999999995
 20
-186.2179881960393
 30
0.0
 11
63.99300000000005
 21
-186.2179881960393
 31
0.0
  0
LINE
  5
4AA
330
58
100
AcDbEntity
  8
LC-001-002-----0
  6
Continuous
 62
     7
100
AcDbLine
 10
-64.00699999999995
 20
-198.5481541960393
 30
0.0
 11
63.99300000000005
 21
-198.5481541960393
 31
0.0
  0
LINE
  5
4AB
330
58
100
AcDbEntity
  8
LC-001-002-----0
  6
Continuous
 62
     7
100
AcDbLine
 10
-64.00699999999995
 20
-210.8783191960393
 30
0.0
 11
63.99300000000005
 21
-210.8783191960393
 31
0.0
  0
LINE
  5
4AC
330
58
100
AcDbEntity
  8
LC-001-002-----0
  6
Continuous
 62
     7
100
AcDbLine
 10
-64.00699999999995
 20
-223.2084851960393
 30
0.0
 11
63.99300000000005
 21
-223.2084851960393
 31
0.0
  0
LINE
  5
4AD
330
58
100
AcDbEntity
  8
LC-001-002-----0
  6
Continuous
 62
     7
100
AcDbLine
 10
-64.00699999999995
 20
-235.5386511960393
 30
0.0
 11
63.99300000000005
 21
-235.5386511960393
 31
0.0
  0
LINE
  5
4AE
330
58
100
AcDbEntity
  8
LC-001-002-----0
  6
Continuous
 62
     7
100
AcDbLine
 10
-64.00699999999995
 20
-247.8688161960393
 30
0.0
 11
63.99300000000005
 21
-247.8688161960393
 31
0.0
  0
LINE
  5
4AF
330
58
100
AcDbEntity
  8
LC-001-002-----0
  6
Continuous
 62
     7
100
AcDbLine
 10
-64.00699999999995
 20
-260.1989821960393
 30
0.0
 11
63.99300000000005
 21
-260.1989821960393
 31
0.0
  0
LINE
  5
4B0
330
58
100
AcDbEntity
  8
LC-001-002-----0
  6
Continuous
 62
     7
100
AcDbLine
 10
-64.00699999999995
 20
-272.5291481960393
 30
0.0
 11
63.99300000000005
 21
-272.5291481960393
 31
0.0
  0
LINE
  5
4B1
330
58
100
AcDbEntity
  8
LC-001-002-----0
  6
Continuous
 62
     7
100
AcDbLine
 10
-64.00699999999995
 20
-284.8593131960393
 30
0.0
 11
63.99300000000005
 21
-284.8593131960393
 31
0.0
  0
LINE
  5
4B2
330
58
100
AcDbEntity
  8
LC-001-002-----0
  6
Continuous
 62
     7
100
AcDbLine
 10
-64.00699999999995
 20
-297.1894791960393
 30
0.0
 11
63.99300000000005
 21
-297.1894791960393
 31
0.0
  0
LINE
  5
4B3
330
58
100
AcDbEntity
  8
LC-001-002-----0
  6
Continuous
 62
     7
100
AcDbLine
 10
-64.00699999999995
 20
-309.5196451960393
 30
0.0
 11
63.99300000000005
 21
-309.5196451960393
 31
0.0
  0
LINE
  5
4B4
330
58
100
AcDbEntity
  8
LC-001-002-----0
  6
Continuous
 62
     7
100
AcDbLine
 10
-64.00699999999995
 20
-321.8498101960393
 30
0.0
 11
63.99300000000005
 21
-321.8498101960393
 31
0.0
  0
LINE
  5
4B5
330
58
100
AcDbEntity
  8
LC-001-002-----0
  6
Continuous
 62
     7
100
AcDbLine
 10
63.99300000000005
 20
-334.1799761960393
 30
0.0
 11
-64.00699999999995
 21
-334.1799761960393
 31
0.0
  0
LINE
  5
4B6
330
58
100
AcDbEntity
  8
LC-001-002-----0
  6
Continuous
 62
     7
100
AcDbLine
 10
-62.50699999999995
 20
-338.2371421960393
 30
0.0
 11
62.49475400000006
 21
-338.2371421960393
 31
0.0
  0
LINE
  5
4B7
330
58
100
AcDbEntity
  8
LC-001-002-----0
  6
Continuous
 62
     7
100
AcDbLine
 10
-62.50530099999992
 20
-343.2357621960393
 30
0.0
 11
62.49469900000008
 21
-343.2357621960393
 31
0.0
  0
LINE
  5
4B8
330
58
100
AcDbEntity
  8
LC-001-002-----0
  6
Continuous
 62
     7
100
AcDbLine
 10
11.19377400000008
 20
-54.68972919603931
 30
0.0
 11
-22.96943199999987
 21
-54.68972919603931
 31
0.0
  0
LINE
  5
4B9
330
58
100
AcDbEntity
  8
LC-001-002-----0
  6
Continuous
 62
     7
100
AcDbLine
 10
62.50107000000003
 20
-54.68972919603931
 30
0.0
 11
11.19377400000008
 21
-54.68972919603931
 31
0.0
  0
LINE
  5
4BA
330
58
100
AcDbEntity
  8
LC-001-002-----0
  6
Continuous
 62
     7
100
AcDbLine
 10
-62.49892999999997
 20
-54.68696919603929
 30
0.0
 11
-22.96943199999987
 21
-54.68696919603929
 31
0.0
  0
LINE
  5
4BB
330
58
100
AcDbEntity
  8
LC-001-002-----0
  6
Continuous
 62
     7
100
AcDbLine
 10
-62.49892999999997
 20
-54.68696919603929
 30
0.0
 11
-62.50020099999995
 21
-112.2342341960393
 31
0.0
  0
LINE
  5
4BC
330
58
100
AcDbEntity
  8
LC-001-002-----0
  6
Continuous
 62
     7
100
AcDbLine
 10
62.49480900000003
 20
-338.2371421960393
 30
0.0
 11
62.49469900000008
 21
-343.2385211960393
 31
0.0
  0
LINE
  5
4BD
330
58
100
AcDbEntity
  8
LC-003-006-MLN-0
  6
CENTER
 62
     7
100
AcDbLine
 10
-0.00448499999993
 20
-306.2963471960393
 30
0.0
 11
-0.00563199999988
 21
-358.2371421960393
 31
0.0
  0
LINE
  5
4BE
330
58
100
AcDbEntity
  8
LC-003-006-MLN-0
  6
CENTER
 62
     2
100
AcDbLine
 10
0.0
 20
-103.1482641960393
 30
0.0
 11
-0.00381199999993
 21
-275.8062591960393
 31
0.0
  0
LINE
  5
4BF
330
58
100
AcDbEntity
  8
LC-001-002-----0
  6
Continuous
 62
     7
100
AcDbLine
 10
-78.91068899999993
 20
-113.5651841960393
 30
0.0
 11
-64.40247199999999
 21
-114.7221941960393
 31
0.0
  0
LINE
  5
4C0
330
58
100
AcDbEntity
  8
LC-001-002-----0
  6
Continuous
 62
     7
100
AcDbLine
 10
-62.50699999999995
 20
-338.2371421960393
 30
0.0
 11
-62.50699999999995
 21
-112.2369941960393
 31
0.0
  0
LINE
  5
4C1
330
58
100
AcDbEntity
  8
LC-001-002-----0
  6
Continuous
 62
     7
100
AcDbLine
 10
-63.50699999999995
 20
-337.7371421960393
 30
0.0
 11
-63.00699999999995
 21
-338.2371421960393
 31
0.0
  0
LINE
  5
4C2
330
58
100
AcDbEntity
  8
LC-001-002-----0
  6
Continuous
 62
     7
100
AcDbLine
 10
-63.00699999999995
 20
-338.2371421960393
 30
0.0
 11
-62.50699999999995
 21
-338.2371421960393
 31
0.0
  0
LINE
  5
4C3
330
58
100
AcDbEntity
  8
LC-001-002-----0
  6
Continuous
 62
     7
100
AcDbLine
 10
-63.50699999999995
 20
-333.6799761960393
 30
0.0
 11
-63.50699999999995
 21
-325.3295321960393
 31
0.0
  0
LINE
  5
4C4
330
58
100
AcDbEntity
  8
LC-001-002-----0
  6
Continuous
 62
     7
100
AcDbLine
 10
78.89668900000004
 20
-335.5081651960393
 30
0.0
 11
64.38847099999998
 21
-336.6651761960393
 31
0.0
  0
LINE
  5
4C5
330
58
100
AcDbEntity
  8
LC-001-002-----0
  6
Continuous
 62
     7
100
AcDbLine
 10
78.82708100000013
 20
-334.1799761960393
 30
0.0
 11
63.99300000000005
 21
-334.1799761960393
 31
0.0
  0
LINE
  5
4C6
330
58
100
AcDbEntity
  8
LC-001-002-----0
  6
Continuous
 62
     7
100
AcDbLine
 10
78.89668900000004
 20
-323.1780001960393
 30
0.0
 11
64.38847099999998
 21
-324.3350101960393
 31
0.0
  0
LINE
  5
4C7
330
58
100
AcDbEntity
  8
LC-001-002-----0
  6
Continuous
 62
     7
100
AcDbLine
 10
78.82708100000013
 20
-321.8498101960393
 30
0.0
 11
63.99300000000005
 21
-321.8498101960393
 31
0.0
  0
LINE
  5
4C8
330
58
100
AcDbEntity
  8
LC-001-002-----0
  6
Continuous
 62
     7
100
AcDbLine
 10
78.89668900000004
 20
-310.8478341960393
 30
0.0
 11
64.38847099999998
 21
-312.0048441960393
 31
0.0
  0
LINE
  5
4C9
330
58
100
AcDbEntity
  8
LC-001-002-----0
  6
Continuous
 62
     7
100
AcDbLine
 10
78.82708100000013
 20
-309.5196451960393
 30
0.0
 11
63.99300000000005
 21
-309.5196451960393
 31
0.0
  0
LINE
  5
4CA
330
58
100
AcDbEntity
  8
LC-001-002-----0
  6
Continuous
 62
     7
100
AcDbLine
 10
78.89668900000004
 20
-298.5176681960393
 30
0.0
 11
64.38847099999998
 21
-299.6746791960393
 31
0.0
  0
LINE
  5
4CB
330
58
100
AcDbEntity
  8
LC-001-002-----0
  6
Continuous
 62
     7
100
AcDbLine
 10
78.82708100000013
 20
-297.1894791960393
 30
0.0
 11
63.99300000000005
 21
-297.1894791960393
 31
0.0
  0
LINE
  5
4CC
330
58
100
AcDbEntity
  8
LC-001-002-----0
  6
Continuous
 62
     7
100
AcDbLine
 10
78.89668900000004
 20
-286.1875031960393
 30
0.0
 11
64.38847099999998
 21
-287.3445131960393
 31
0.0
  0
LINE
  5
4CD
330
58
100
AcDbEntity
  8
LC-001-002-----0
  6
Continuous
 62
     7
100
AcDbLine
 10
78.82708100000013
 20
-284.8593131960393
 30
0.0
 11
63.99300000000005
 21
-284.8593131960393
 31
0.0
  0
LINE
  5
4CE
330
58
100
AcDbEntity
  8
LC-001-002-----0
  6
Continuous
 62
     7
100
AcDbLine
 10
78.89668900000004
 20
-273.8573371960393
 30
0.0
 11
64.38847099999998
 21
-275.0143471960393
 31
0.0
  0
LINE
  5
4CF
330
58
100
AcDbEntity
  8
LC-001-002-----0
  6
Continuous
 62
     7
100
AcDbLine
 10
78.82708100000013
 20
-272.5291481960393
 30
0.0
 11
63.99300000000005
 21
-272.5291481960393
 31
0.0
  0
LINE
  5
4D0
330
58
100
AcDbEntity
  8
LC-001-002-----0
  6
Continuous
 62
     7
100
AcDbLine
 10
78.89668900000004
 20
-261.5271711960393
 30
0.0
 11
64.38847099999998
 21
-262.6841821960393
 31
0.0
  0
LINE
  5
4D1
330
58
100
AcDbEntity
  8
LC-001-002-----0
  6
Continuous
 62
     7
100
AcDbLine
 10
78.82708100000013
 20
-260.1989821960393
 30
0.0
 11
63.99300000000005
 21
-260.1989821960393
 31
0.0
  0
LINE
  5
4D2
330
58
100
AcDbEntity
  8
LC-001-002-----0
  6
Continuous
 62
     7
100
AcDbLine
 10
78.89668900000004
 20
-249.1970061960393
 30
0.0
 11
64.38847099999998
 21
-250.3540161960393
 31
0.0
  0
LINE
  5
4D3
330
58
100
AcDbEntity
  8
LC-001-002-----0
  6
Continuous
 62
     7
100
AcDbLine
 10
78.82708100000013
 20
-247.8688161960393
 30
0.0
 11
63.99300000000005
 21
-247.8688161960393
 31
0.0
  0
LINE
  5
4D4
330
58
100
AcDbEntity
  8
LC-001-002-----0
  6
Continuous
 62
     7
100
AcDbLine
 10
78.89668900000004
 20
-236.8668401960393
 30
0.0
 11
64.38847099999998
 21
-238.0238501960393
 31
0.0
  0
LINE
  5
4D5
330
58
100
AcDbEntity
  8
LC-001-002-----0
  6
Continuous
 62
     7
100
AcDbLine
 10
78.82708100000013
 20
-235.5386511960393
 30
0.0
 11
63.99300000000005
 21
-235.5386511960393
 31
0.0
  0
LINE
  5
4D6
330
58
100
AcDbEntity
  8
LC-001-002-----0
  6
Continuous
 62
     7
100
AcDbLine
 10
78.89668900000004
 20
-224.5366751960393
 30
0.0
 11
64.38847099999998
 21
-225.6936851960393
 31
0.0
  0
LINE
  5
4D7
330
58
100
AcDbEntity
  8
LC-001-002-----0
  6
Continuous
 62
     7
100
AcDbLine
 10
78.82708100000013
 20
-223.2084851960393
 30
0.0
 11
63.99300000000005
 21
-223.2084851960393
 31
0.0
  0
LINE
  5
4D8
330
58
100
AcDbEntity
  8
LC-001-002-----0
  6
Continuous
 62
     7
100
AcDbLine
 10
78.89668900000004
 20
-212.2065091960393
 30
0.0
 11
64.38847099999998
 21
-213.3635191960393
 31
0.0
  0
LINE
  5
4D9
330
58
100
AcDbEntity
  8
LC-001-002-----0
  6
Continuous
 62
     7
100
AcDbLine
 10
78.82708100000013
 20
-210.8783191960393
 30
0.0
 11
63.99300000000005
 21
-210.8783191960393
 31
0.0
  0
LINE
  5
4DA
330
58
100
AcDbEntity
  8
LC-001-002-----0
  6
Continuous
 62
     7
100
AcDbLine
 10
-63.50699999999995
 20
-321.3498101960393
 30
0.0
 11
-63.50699999999995
 21
-312.9993661960393
 31
0.0
  0
LINE
  5
4DB
330
58
100
AcDbEntity
  8
LC-001-002-----0
  6
Continuous
 62
     7
100
AcDbLine
 10
-63.50699999999995
 20
-309.0196451960393
 30
0.0
 11
-63.50699999999995
 21
-300.6692011960393
 31
0.0
  0
LINE
  5
4DC
330
58
100
AcDbEntity
  8
LC-001-002-----0
  6
Continuous
 62
     7
100
AcDbLine
 10
-63.50699999999995
 20
-296.6894791960393
 30
0.0
 11
-63.50699999999995
 21
-288.3390351960393
 31
0.0
  0
LINE
  5
4DD
330
58
100
AcDbEntity
  8
LC-001-002-----0
  6
Continuous
 62
     7
100
AcDbLine
 10
-63.50699999999995
 20
-284.3593131960393
 30
0.0
 11
-63.50699999999995
 21
-276.0088691960393
 31
0.0
  0
LINE
  5
4DE
330
58
100
AcDbEntity
  8
LC-001-002-----0
  6
Continuous
 62
     7
100
AcDbLine
 10
-63.50699999999995
 20
-272.0291481960393
 30
0.0
 11
-63.50699999999995
 21
-263.6787041960393
 31
0.0
  0
LINE
  5
4DF
330
58
100
AcDbEntity
  8
LC-001-002-----0
  6
Continuous
 62
     7
100
AcDbLine
 10
-63.50699999999995
 20
-259.6989821960393
 30
0.0
 11
-63.50699999999995
 21
-251.3485381960393
 31
0.0
  0
LINE
  5
4E0
330
58
100
AcDbEntity
  8
LC-001-002-----0
  6
Continuous
 62
     7
100
AcDbLine
 10
-63.50699999999995
 20
-247.3688161960393
 30
0.0
 11
-63.50699999999995
 21
-239.0183721960393
 31
0.0
  0
LINE
  5
4E1
330
58
100
AcDbEntity
  8
LC-001-002-----0
  6
Continuous
 62
     7
100
AcDbLine
 10
-63.50699999999995
 20
-235.0386511960393
 30
0.0
 11
-63.50699999999995
 21
-226.6882071960393
 31
0.0
  0
LINE
  5
4E2
330
58
100
AcDbEntity
  8
LC-001-002-----0
  6
Continuous
 62
     7
100
AcDbLine
 10
-63.50699999999995
 20
-222.7084851960393
 30
0.0
 11
-63.50699999999995
 21
-214.3580411960393
 31
0.0
  0
LINE
  5
4E3
330
58
100
AcDbEntity
  8
LC-001-002-----0
  6
Continuous
 62
     7
100
AcDbLine
 10
-63.50699999999995
 20
-198.0481541960393
 30
0.0
 11
-63.50699999999995
 21
-189.6977101960393
 31
0.0
  0
LINE
  5
4E4
330
58
100
AcDbEntity
  8
LC-001-002-----0
  6
Continuous
 62
     7
100
AcDbLine
 10
-63.50699999999995
 20
-173.3878221960393
 30
0.0
 11
-63.50699999999995
 21
-165.0373781960393
 31
0.0
  0
LINE
  5
4E5
330
58
100
AcDbEntity
  8
LC-001-002-----0
  6
Continuous
 62
     7
100
AcDbLine
 10
-63.50699999999995
 20
-148.7274911960393
 30
0.0
 11
-63.50699999999995
 21
-140.3770471960393
 31
0.0
  0
LINE
  5
4E6
330
58
100
AcDbEntity
  8
LC-001-002-----0
  6
Continuous
 62
     7
100
AcDbLine
 10
-63.50699999999995
 20
-124.0671601960393
 30
0.0
 11
-63.50699999999995
 21
-115.7167161960393
 31
0.0
  0
LINE
  5
4E7
330
58
100
AcDbEntity
  8
LC-001-002-----0
  6
Continuous
 62
     7
100
AcDbLine
 10
-78.91068899999993
 20
-335.5081651960393
 30
0.0
 11
-64.40247199999999
 21
-336.6651761960393
 31
0.0
  0
LINE
  5
4E8
330
58
100
AcDbEntity
  8
LC-001-002-----0
  6
Continuous
 62
     7
100
AcDbLine
 10
-78.84108099999992
 20
-334.1799761960393
 30
0.0
 11
-64.00699999999995
 21
-334.1799761960393
 31
0.0
  0
LINE
  5
4E9
330
58
100
AcDbEntity
  8
LC-001-002-----0
  6
Continuous
 62
     7
100
AcDbLine
 10
78.89668900000004
 20
-199.8763431960393
 30
0.0
 11
64.38847099999998
 21
-201.0333531960393
 31
0.0
  0
LINE
  5
4EA
330
58
100
AcDbEntity
  8
LC-001-002-----0
  6
Continuous
 62
     7
100
AcDbLine
 10
-78.91068899999993
 20
-323.1780001960393
 30
0.0
 11
-64.40247199999999
 21
-324.3350101960393
 31
0.0
  0
LINE
  5
4EB
330
58
100
AcDbEntity
  8
LC-001-002-----0
  6
Continuous
 62
     7
100
AcDbLine
 10
-78.84108099999992
 20
-321.8498101960393
 30
0.0
 11
-64.00699999999995
 21
-321.8498101960393
 31
0.0
  0
LINE
  5
4EC
330
58
100
AcDbEntity
  8
LC-001-002-----0
  6
Continuous
 62
     7
100
AcDbLine
 10
78.82708100000013
 20
-198.5481541960393
 30
0.0
 11
63.99300000000005
 21
-198.5481541960393
 31
0.0
  0
LINE
  5
4ED
330
58
100
AcDbEntity
  8
LC-001-002-----0
  6
Continuous
 62
     7
100
AcDbLine
 10
-78.91068899999993
 20
-310.8478341960393
 30
0.0
 11
-64.40247199999999
 21
-312.0048441960393
 31
0.0
  0
LINE
  5
4EE
330
58
100
AcDbEntity
  8
LC-001-002-----0
  6
Continuous
 62
     7
100
AcDbLine
 10
-78.84108099999992
 20
-309.5196451960393
 30
0.0
 11
-64.00699999999995
 21
-309.5196451960393
 31
0.0
  0
LINE
  5
4EF
330
58
100
AcDbEntity
  8
LC-001-002-----0
  6
Continuous
 62
     7
100
AcDbLine
 10
-78.91068899999993
 20
-298.5176681960393
 30
0.0
 11
-64.40247199999999
 21
-299.6746791960393
 31
0.0
  0
LINE
  5
4F0
330
58
100
AcDbEntity
  8
LC-001-002-----0
  6
Continuous
 62
     7
100
AcDbLine
 10
-78.84108099999992
 20
-297.1894791960393
 30
0.0
 11
-64.00699999999995
 21
-297.1894791960393
 31
0.0
  0
LINE
  5
4F1
330
58
100
AcDbEntity
  8
LC-001-002-----0
  6
Continuous
 62
     7
100
AcDbLine
 10
-78.91068899999993
 20
-286.1875031960393
 30
0.0
 11
-64.40247199999999
 21
-287.3445131960393
 31
0.0
  0
LINE
  5
4F2
330
58
100
AcDbEntity
  8
LC-001-002-----0
  6
Continuous
 62
     7
100
AcDbLine
 10
-78.84108099999992
 20
-284.8593131960393
 30
0.0
 11
-64.00699999999995
 21
-284.8593131960393
 31
0.0
  0
LINE
  5
4F3
330
58
100
AcDbEntity
  8
LC-001-002-----0
  6
Continuous
 62
     7
100
AcDbLine
 10
78.89668900000004
 20
-187.5461781960393
 30
0.0
 11
64.38847099999998
 21
-188.7031881960393
 31
0.0
  0
LINE
  5
4F4
330
58
100
AcDbEntity
  8
LC-001-002-----0
  6
Continuous
 62
     7
100
AcDbLine
 10
-78.91068899999993
 20
-273.8573371960393
 30
0.0
 11
-64.40247199999999
 21
-275.0143471960393
 31
0.0
  0
LINE
  5
4F5
330
58
100
AcDbEntity
  8
LC-001-002-----0
  6
Continuous
 62
     7
100
AcDbLine
 10
-78.84108099999992
 20
-272.5291481960393
 30
0.0
 11
-64.00699999999995
 21
-272.5291481960393
 31
0.0
  0
LINE
  5
4F6
330
58
100
AcDbEntity
  8
LC-001-002-----0
  6
Continuous
 62
     7
100
AcDbLine
 10
-63.50699999999995
 20
-210.3783191960393
 30
0.0
 11
-63.50699999999995
 21
-202.0278751960393
 31
0.0
  0
LINE
  5
4F7
330
58
100
AcDbEntity
  8
LC-001-002-----0
  6
Continuous
 62
     7
100
AcDbLine
 10
78.82708100000013
 20
-186.2179881960393
 30
0.0
 11
63.99300000000005
 21
-186.2179881960393
 31
0.0
  0
LINE
  5
4F8
330
58
100
AcDbEntity
  8
LC-001-002-----0
  6
Continuous
 62
     7
100
AcDbLine
 10
-63.50699999999995
 20
-185.7179881960393
 30
0.0
 11
-63.50699999999995
 21
-177.3675441960393
 31
0.0
  0
LINE
  5
4F9
330
58
100
AcDbEntity
  8
LC-001-002-----0
  6
Continuous
 62
     7
100
AcDbLine
 10
-78.91068899999993
 20
-261.5271711960393
 30
0.0
 11
-64.40247199999999
 21
-262.6841821960393
 31
0.0
  0
LINE
  5
4FA
330
58
100
AcDbEntity
  8
LC-001-002-----0
  6
Continuous
 62
     7
100
AcDbLine
 10
78.89668900000004
 20
-175.2160121960393
 30
0.0
 11
64.38847099999998
 21
-176.3730221960393
 31
0.0
  0
LINE
  5
4FB
330
58
100
AcDbEntity
  8
LC-001-002-----0
  6
Continuous
 62
     7
100
AcDbLine
 10
78.82708100000013
 20
-173.8878221960393
 30
0.0
 11
63.99300000000005
 21
-173.8878221960393
 31
0.0
  0
LINE
  5
4FC
330
58
100
AcDbEntity
  8
LC-001-002-----0
  6
Continuous
 62
     7
100
AcDbLine
 10
78.89668900000004
 20
-162.8858461960393
 30
0.0
 11
64.38847099999998
 21
-164.0428561960393
 31
0.0
  0
LINE
  5
4FD
330
58
100
AcDbEntity
  8
LC-001-002-----0
  6
Continuous
 62
     7
100
AcDbLine
 10
78.82708100000013
 20
-161.5576571960393
 30
0.0
 11
63.99300000000005
 21
-161.5576571960393
 31
0.0
  0
LINE
  5
4FE
330
58
100
AcDbEntity
  8
LC-001-002-----0
  6
Continuous
 62
     7
100
AcDbLine
 10
78.89668900000004
 20
-150.5556811960393
 30
0.0
 11
64.38847099999998
 21
-151.7126911960393
 31
0.0
  0
LINE
  5
4FF
330
58
100
AcDbEntity
  8
LC-001-002-----0
  6
Continuous
 62
     7
100
AcDbLine
 10
78.82708100000013
 20
-149.2274911960393
 30
0.0
 11
63.99300000000005
 21
-149.2274911960393
 31
0.0
  0
LINE
  5
500
330
58
100
AcDbEntity
  8
LC-001-002-----0
  6
Continuous
 62
     7
100
AcDbLine
 10
78.89668900000004
 20
-138.2255151960393
 30
0.0
 11
64.38847099999998
 21
-139.3825251960393
 31
0.0
  0
LINE
  5
501
330
58
100
AcDbEntity
  8
LC-001-002-----0
  6
Continuous
 62
     7
100
AcDbLine
 10
78.82708100000013
 20
-136.8973251960393
 30
0.0
 11
63.99300000000005
 21
-136.8973251960393
 31
0.0
  0
LINE
  5
502
330
58
100
AcDbEntity
  8
LC-001-002-----0
  6
Continuous
 62
     7
100
AcDbLine
 10
78.89668900000004
 20
-125.8953491960393
 30
0.0
 11
64.38847099999998
 21
-127.0523591960393
 31
0.0
  0
LINE
  5
503
330
58
100
AcDbEntity
  8
LC-001-002-----0
  6
Continuous
 62
     7
100
AcDbLine
 10
78.82708100000013
 20
-124.5671601960393
 30
0.0
 11
63.99300000000005
 21
-124.5671601960393
 31
0.0
  0
LINE
  5
504
330
58
100
AcDbEntity
  8
LC-001-002-----0
  6
Continuous
 62
     7
100
AcDbLine
 10
-78.84108099999992
 20
-260.1989821960393
 30
0.0
 11
-64.00699999999995
 21
-260.1989821960393
 31
0.0
  0
LINE
  5
505
330
58
100
AcDbEntity
  8
LC-001-002-----0
  6
Continuous
 62
     7
100
AcDbLine
 10
78.89668900000004
 20
-113.5651841960393
 30
0.0
 11
64.38847099999998
 21
-114.7221941960393
 31
0.0
  0
LINE
  5
506
330
58
100
AcDbEntity
  8
LC-001-002-----0
  6
Continuous
 62
     7
100
AcDbLine
 10
-78.91068899999993
 20
-249.1970061960393
 30
0.0
 11
-64.40247199999999
 21
-250.3540161960393
 31
0.0
  0
LINE
  5
507
330
58
100
AcDbEntity
  8
LC-001-002-----0
  6
Continuous
 62
     7
100
AcDbLine
 10
-78.84108099999992
 20
-247.8688161960393
 30
0.0
 11
-64.00699999999995
 21
-247.8688161960393
 31
0.0
  0
LINE
  5
508
330
58
100
AcDbEntity
  8
LC-001-002-----0
  6
Continuous
 62
     7
100
AcDbLine
 10
63.49300000000005
 20
-337.7371421960393
 30
0.0
 11
62.99300000000005
 21
-338.2371421960393
 31
0.0
  0
LINE
  5
509
330
58
100
AcDbEntity
  8
LC-001-002-----0
  6
Continuous
 62
     7
100
AcDbLine
 10
62.99300000000005
 20
-338.2371421960393
 30
0.0
 11
62.49300000000005
 21
-338.2371421960393
 31
0.0
  0
LINE
  5
50A
330
58
100
AcDbEntity
  8
LC-001-002-----0
  6
Continuous
 62
     7
100
AcDbLine
 10
63.49300000000005
 20
-333.6799761960393
 30
0.0
 11
63.49300000000005
 21
-325.3295321960393
 31
0.0
  0
LINE
  5
50B
330
58
100
AcDbEntity
  8
LC-001-002-----0
  6
Continuous
 62
     7
100
AcDbLine
 10
63.49300000000005
 20
-321.3498101960393
 30
0.0
 11
63.49300000000005
 21
-312.9993661960393
 31
0.0
  0
LINE
  5
50C
330
58
100
AcDbEntity
  8
LC-001-002-----0
  6
Continuous
 62
     7
100
AcDbLine
 10
63.49300000000005
 20
-309.0196451960393
 30
0.0
 11
63.49300000000005
 21
-300.6692011960393
 31
0.0
  0
LINE
  5
50D
330
58
100
AcDbEntity
  8
LC-001-002-----0
  6
Continuous
 62
     7
100
AcDbLine
 10
63.49300000000005
 20
-296.6894791960393
 30
0.0
 11
63.49300000000005
 21
-288.3390351960393
 31
0.0
  0
LINE
  5
50E
330
58
100
AcDbEntity
  8
LC-001-002-----0
  6
Continuous
 62
     7
100
AcDbLine
 10
63.49300000000005
 20
-284.3593131960393
 30
0.0
 11
63.49300000000005
 21
-276.0088691960393
 31
0.0
  0
LINE
  5
50F
330
58
100
AcDbEntity
  8
LC-001-002-----0
  6
Continuous
 62
     7
100
AcDbLine
 10
63.49300000000005
 20
-272.0291481960393
 30
0.0
 11
63.49300000000005
 21
-263.6787041960393
 31
0.0
  0
LINE
  5
510
330
58
100
AcDbEntity
  8
LC-001-002-----0
  6
Continuous
 62
     7
100
AcDbLine
 10
-63.50699999999995
 20
-136.3973251960393
 30
0.0
 11
-63.50699999999995
 21
-128.0468811960393
 31
0.0
  0
LINE
  5
511
330
58
100
AcDbEntity
  8
LC-001-002-----0
  6
Continuous
 62
     7
100
AcDbLine
 10
-63.50699999999995
 20
-161.0576571960393
 30
0.0
 11
-63.50699999999995
 21
-152.7072131960393
 31
0.0
  0
LINE
  5
512
330
58
100
AcDbEntity
  8
LC-001-002-----0
  6
Continuous
 62
     7
100
AcDbLine
 10
63.49300000000005
 20
-259.6989821960393
 30
0.0
 11
63.49300000000005
 21
-251.3485381960393
 31
0.0
  0
LINE
  5
513
330
58
100
AcDbEntity
  8
LC-001-002-----0
  6
Continuous
 62
     7
100
AcDbLine
 10
-78.91068899999993
 20
-236.8668401960393
 30
0.0
 11
-64.40247199999999
 21
-238.0238501960393
 31
0.0
  0
LINE
  5
514
330
58
100
AcDbEntity
  8
LC-001-002-----0
  6
Continuous
 62
     7
100
AcDbLine
 10
-78.84108099999992
 20
-235.5386511960393
 30
0.0
 11
-64.00699999999995
 21
-235.5386511960393
 31
0.0
  0
LINE
  5
515
330
58
100
AcDbEntity
  8
LC-001-002-----0
  6
Continuous
 62
     7
100
AcDbLine
 10
63.49300000000005
 20
-247.3688161960393
 30
0.0
 11
63.49300000000005
 21
-239.0183721960393
 31
0.0
  0
LINE
  5
516
330
58
100
AcDbEntity
  8
LC-001-002-----0
  6
Continuous
 62
     7
100
AcDbLine
 10
-78.91068899999993
 20
-224.5366751960393
 30
0.0
 11
-64.40247199999999
 21
-225.6936851960393
 31
0.0
  0
LINE
  5
517
330
58
100
AcDbEntity
  8
LC-001-002-----0
  6
Continuous
 62
     7
100
AcDbLine
 10
-78.84108099999992
 20
-223.2084851960393
 30
0.0
 11
-64.00699999999995
 21
-223.2084851960393
 31
0.0
  0
LINE
  5
518
330
58
100
AcDbEntity
  8
LC-001-002-----0
  6
Continuous
 62
     7
100
AcDbLine
 10
63.49300000000005
 20
-235.0386511960393
 30
0.0
 11
63.49300000000005
 21
-226.6882071960393
 31
0.0
  0
LINE
  5
519
330
58
100
AcDbEntity
  8
LC-001-002-----0
  6
Continuous
 62
     7
100
AcDbLine
 10
-78.91068899999993
 20
-212.2065091960393
 30
0.0
 11
-64.40247199999999
 21
-213.3635191960393
 31
0.0
  0
LINE
  5
51A
330
58
100
AcDbEntity
  8
LC-001-002-----0
  6
Continuous
 62
     7
100
AcDbLine
 10
63.49300000000005
 20
-222.7084851960393
 30
0.0
 11
63.49300000000005
 21
-214.3580411960393
 31
0.0
  0
LINE
  5
51B
330
58
100
AcDbEntity
  8
LC-001-002-----0
  6
Continuous
 62
     7
100
AcDbLine
 10
-78.84108099999992
 20
-210.8783191960393
 30
0.0
 11
-64.00699999999995
 21
-210.8783191960393
 31
0.0
  0
LINE
  5
51C
330
58
100
AcDbEntity
  8
LC-001-002-----0
  6
Continuous
 62
     7
100
AcDbLine
 10
-78.84108099999992
 20
-112.2369941960393
 30
0.0
 11
62.49300000000005
 21
-112.2369941960393
 31
0.0
  0
LINE
  5
51D
330
58
100
AcDbEntity
  8
LC-001-002-----0
  6
Continuous
 62
     7
100
AcDbLine
 10
63.49300000000005
 20
-198.0481541960393
 30
0.0
 11
63.49300000000005
 21
-189.6977101960393
 31
0.0
  0
LINE
  5
51E
330
58
100
AcDbEntity
  8
LC-001-002-----0
  6
Continuous
 62
     7
100
AcDbLine
 10
-78.91068899999993
 20
-199.8763431960393
 30
0.0
 11
-64.40247199999999
 21
-201.0333531960393
 31
0.0
  0
LINE
  5
51F
330
58
100
AcDbEntity
  8
LC-001-002-----0
  6
Continuous
 62
     7
100
AcDbLine
 10
-78.84108099999992
 20
-198.5481541960393
 30
0.0
 11
-64.00699999999995
 21
-198.5481541960393
 31
0.0
  0
LINE
  5
520
330
58
100
AcDbEntity
  8
LC-001-002-----0
  6
Continuous
 62
     7
100
AcDbLine
 10
63.49300000000005
 20
-173.3878221960393
 30
0.0
 11
63.49300000000005
 21
-165.0373781960393
 31
0.0
  0
LINE
  5
521
330
58
100
AcDbEntity
  8
LC-001-002-----0
  6
Continuous
 62
     7
100
AcDbLine
 10
-78.91068899999993
 20
-187.5461781960393
 30
0.0
 11
-64.40247199999999
 21
-188.7031881960393
 31
0.0
  0
LINE
  5
522
330
58
100
AcDbEntity
  8
LC-001-002-----0
  6
Continuous
 62
     7
100
AcDbLine
 10
-78.84108099999992
 20
-186.2179881960393
 30
0.0
 11
-64.00699999999995
 21
-186.2179881960393
 31
0.0
  0
LINE
  5
523
330
58
100
AcDbEntity
  8
LC-001-002-----0
  6
Continuous
 62
     7
100
AcDbLine
 10
63.49300000000005
 20
-148.7274911960393
 30
0.0
 11
63.49300000000005
 21
-140.3770471960393
 31
0.0
  0
LINE
  5
524
330
58
100
AcDbEntity
  8
LC-001-002-----0
  6
Continuous
 62
     7
100
AcDbLine
 10
-78.91068899999993
 20
-175.2160121960393
 30
0.0
 11
-64.40247199999999
 21
-176.3730221960393
 31
0.0
  0
LINE
  5
525
330
58
100
AcDbEntity
  8
LC-001-002-----0
  6
Continuous
 62
     7
100
AcDbLine
 10
-78.84108099999992
 20
-173.8878221960393
 30
0.0
 11
-64.00699999999995
 21
-173.8878221960393
 31
0.0
  0
LINE
  5
526
330
58
100
AcDbEntity
  8
LC-001-002-----0
  6
Continuous
 62
     7
100
AcDbLine
 10
63.49300000000005
 20
-124.0671601960393
 30
0.0
 11
63.49300000000005
 21
-115.7167161960393
 31
0.0
  0
LINE
  5
527
330
58
100
AcDbEntity
  8
LC-001-002-----0
  6
Continuous
 62
     7
100
AcDbLine
 10
63.49300000000005
 20
-210.3783191960393
 30
0.0
 11
63.49300000000005
 21
-202.0278751960393
 31
0.0
  0
LINE
  5
528
330
58
100
AcDbEntity
  8
LC-001-002-----0
  6
Continuous
 62
     7
100
AcDbLine
 10
63.49300000000005
 20
-185.7179881960393
 30
0.0
 11
63.49300000000005
 21
-177.3675441960393
 31
0.0
  0
LINE
  5
529
330
58
100
AcDbEntity
  8
LC-001-002-----0
  6
Continuous
 62
     7
100
AcDbLine
 10
-78.91068899999993
 20
-162.8858461960393
 30
0.0
 11
-64.40247199999999
 21
-164.0428561960393
 31
0.0
  0
LINE
  5
52A
330
58
100
AcDbEntity
  8
LC-001-002-----0
  6
Continuous
 62
     7
100
AcDbLine
 10
-78.84108099999992
 20
-161.5576571960393
 30
0.0
 11
-64.00699999999995
 21
-161.5576571960393
 31
0.0
  0
LINE
  5
52B
330
58
100
AcDbEntity
  8
LC-001-002-----0
  6
Continuous
 62
     7
100
AcDbLine
 10
63.49300000000005
 20
-136.3973251960393
 30
0.0
 11
63.49300000000005
 21
-128.0468811960393
 31
0.0
  0
LINE
  5
52C
330
58
100
AcDbEntity
  8
LC-001-002-----0
  6
Continuous
 62
     7
100
AcDbLine
 10
-78.91068899999993
 20
-150.5556811960393
 30
0.0
 11
-64.40247199999999
 21
-151.7126911960393
 31
0.0
  0
LINE
  5
52D
330
58
100
AcDbEntity
  8
LC-001-002-----0
  6
Continuous
 62
     7
100
AcDbLine
 10
-78.84108099999992
 20
-149.2274911960393
 30
0.0
 11
-64.00699999999995
 21
-149.2274911960393
 31
0.0
  0
LINE
  5
52E
330
58
100
AcDbEntity
  8
LC-001-002-----0
  6
Continuous
 62
     7
100
AcDbLine
 10
-78.91068899999993
 20
-138.2255151960393
 30
0.0
 11
-64.40247199999999
 21
-139.3825251960393
 31
0.0
  0
LINE
  5
52F
330
58
100
AcDbEntity
  8
LC-001-002-----0
  6
Continuous
 62
     7
100
AcDbLine
 10
-78.84108099999992
 20
-136.8973251960393
 30
0.0
 11
-64.00699999999995
 21
-136.8973251960393
 31
0.0
  0
LINE
  5
530
330
58
100
AcDbEntity
  8
LC-001-002-----0
  6
Continuous
 62
     7
100
AcDbLine
 10
63.49300000000005
 20
-161.0576571960393
 30
0.0
 11
63.49300000000005
 21
-152.7072131960393
 31
0.0
  0
LINE
  5
531
330
58
100
AcDbEntity
  8
LC-001-002-----0
  6
Continuous
 62
     7
100
AcDbLine
 10
-78.91068899999993
 20
-125.8953491960393
 30
0.0
 11
-64.40247199999999
 21
-127.0523591960393
 31
0.0
  0
LINE
  5
532
330
58
100
AcDbEntity
  8
LC-001-002-----0
  6
Continuous
 62
     7
100
AcDbLine
 10
-78.84108099999992
 20
-124.5671601960393
 30
0.0
 11
-64.00699999999995
 21
-124.5671601960393
 31
0.0
  0
LINE
  5
533
330
58
100
AcDbEntity
  8
LC-001-002-----0
  6
Continuous
 62
     7
100
AcDbLine
 10
78.82708100000013
 20
-112.2369941960393
 30
0.0
 11
62.49300000000005
 21
-112.2369941960393
 31
0.0
  0
LINE
  5
534
330
58
100
AcDbEntity
  8
LC-001-002-----0
  6
Continuous
 62
     7
100
AcDbLine
 10
63.49300000000005
 20
-337.6596981960393
 30
0.0
 11
63.49300000000005
 21
-337.7371421960393
 31
0.0
  0
LINE
  5
535
330
58
100
AcDbEntity
  8
LC-001-002-----0
  6
Continuous
 62
     7
100
AcDbLine
 10
-63.50699999999995
 20
-337.6596981960393
 30
0.0
 11
-63.50699999999995
 21
-337.7371421960393
 31
0.0
  0
LINE
  5
536
330
58
100
AcDbEntity
  8
LC-001-002-----0
  6
Continuous
 62
     7
100
AcDbLine
 10
62.49469900000008
 20
-343.2385211960393
 30
0.0
 11
61.15484300000003
 21
-348.2384921960393
 31
0.0
  0
LINE
  5
537
330
58
100
AcDbEntity
  8
LC-001-002-----0
  6
Continuous
 62
     7
100
AcDbLine
 10
70.00123500000007
 20
-47.18989519603929
 30
0.0
 11
62.50107000000003
 21
-54.68972919603931
 31
0.0
  0
LINE
  5
538
330
58
100
AcDbEntity
  8
LC-001-002-----0
  6
Continuous
 62
     7
100
AcDbLine
 10
59.49458900000013
 20
-348.2384551960393
 30
0.0
 11
-0.00541099999987
 21
-348.2371421960393
 31
0.0
  0
LINE
  5
539
330
58
100
AcDbEntity
  8
LC-001-002-----0
  6
Continuous
 62
     7
100
AcDbLine
 10
0.00123500000007
 20
-47.18834919603927
 30
0.0
 11
77.75123500000007
 21
-47.19006619603931
 31
0.0
  0
LINE
  5
53A
330
58
100
AcDbEntity
  8
LC-001-002-----0
  6
Continuous
 62
     7
100
AcDbLine
 10
-62.50530099999992
 20
-343.2357621960393
 30
0.0
 11
-61.16566499999999
 21
-348.2357911960393
 31
0.0
  0
LINE
  5
53B
330
58
100
AcDbEntity
  8
LC-001-002-----0
  6
Continuous
 62
     7
100
AcDbLine
 10
-69.99876499999993
 20
-47.1868041960393
 30
0.0
 11
-62.49892999999997
 21
-54.68696919603929
 31
0.0
  0
LINE
  5
53C
330
58
100
AcDbEntity
  8
LC-001-002-----0
  6
Continuous
 62
     7
100
AcDbLine
 10
-59.50541099999987
 20
-348.2358281960393
 30
0.0
 11
-0.00541099999987
 21
-348.2371421960393
 31
0.0
  0
LINE
  5
53D
330
58
100
AcDbEntity
  8
LC-001-002-----0
  6
Continuous
 62
     7
100
AcDbLine
 10
0.00123500000007
 20
-47.18834919603927
 30
0.0
 11
-77.74876499999993
 21
-47.18663319603928
 31
0.0
  0
LINE
  5
53E
330
58
100
AcDbEntity
  8
LC-001-002-----0
  6
Continuous
 62
     7
100
AcDbLine
 10
-61.16566499999999
 20
-348.2357911960393
 30
0.0
 11
-59.50541099999987
 21
-348.2358281960393
 31
0.0
  0
LINE
  5
53F
330
58
100
AcDbEntity
  8
LC-001-002-----0
  6
Continuous
 62
     7
100
AcDbLine
 10
61.15484300000003
 20
-348.2384921960393
 30
0.0
 11
59.49458900000013
 21
-348.2384551960393
 31
0.0
  0
LINE
  5
540
330
58
100
AcDbEntity
  8
LC-001-002-----0
  6
Continuous
 62
     7
100
AcDbLine
 10
62.50107000000003
 20
-54.68972919603931
 30
0.0
 11
62.49979900000005
 21
-112.2369941960393
 31
0.0
  0
ARC
  5
541
330
58
100
AcDbEntity
  8
LC-001-002-----0
  6
Continuous
 62
     7
100
AcDbCircle
 10
-47.00025500000311
 20
-6.85148699946657
 30
0.0
 40
11.4014874978041
100
AcDbArc
 50
63.12196099999268
 51
86.94693616129528
  0
ARC
  5
542
330
58
100
AcDbEntity
  8
LC-001-002-----0
  6
Continuous
 62
     7
100
AcDbCircle
 10
-47.00025500000311
 20
-6.85148699946657
 30
0.0
 40
11.40148749780223
100
AcDbArc
 50
86.94693616208932
 51
95.19799420433854
  0
LINE
  5
543
330
58
100
AcDbEntity
  8
LC-001-002-----0
  6
Continuous
 62
     7
100
AcDbLine
 10
46.38994281610167
 20
4.53368488982088
 30
0.0
 11
46.389942815942
 21
4.5336848898112
 31
0.0
  0
ARC
  5
544
330
58
100
AcDbEntity
  8
LC-003-002-RND-0
  6
Continuous
 62
     7
100
AcDbCircle
 10
89.74999399999751
 20
1.53471600053163
 30
0.0
 40
1.999999999999658
100
AcDbArc
 50
116.8733199999782
 51
179.9974700000051
  0
ARC
  5
545
330
58
100
AcDbEntity
  8
LC-001-002-----0
  6
Continuous
 62
     7
100
AcDbCircle
 10
93.99964899999713
 20
-6.85148699946657
 30
0.0
 40
11.4014874978041
100
AcDbArc
 50
63.12196099999268
 51
116.8733199999972
  0
ARC
  5
546
330
58
100
AcDbEntity
  8
LC-003-002-RND-0
  6
Continuous
 62
     7
100
AcDbCircle
 10
98.24999399999751
 20
1.5343660005332
 30
0.0
 40
1.999999999999912
100
AcDbArc
 50
-0.00252999999489
 51
63.12196099999152
  0
ARC
  5
547
330
58
100
AcDbEntity
  8
LC-001-002-----0
  6
Continuous
 62
     7
100
AcDbCircle
 10
46.99967899999638
 20
-6.85148699946657
 30
0.0
 40
11.4014874978041
100
AcDbArc
 50
63.12196099999268
 51
84.81509314757537
  0
ARC
  5
548
330
58
100
AcDbEntity
  8
LC-001-002-----0
  6
Continuous
 62
     7
100
AcDbCircle
 10
46.99967899999638
 20
-6.85148699946657
 30
0.0
 40
11.4014874978008
100
AcDbArc
 50
84.81509314757537
 51
93.0655634827716
  0
ARC
  5
549
330
58
100
AcDbEntity
  8
LC-003-002-RND-0
  6
Continuous
 62
     7
100
AcDbCircle
 10
51.25002399999676
 20
1.5343660005332
 30
0.0
 40
1.999999999999862
100
AcDbArc
 50
-0.00252999999489
 51
63.12196099999171
  0
ARC
  5
54A
330
58
100
AcDbEntity
  8
LC-001-002-----0
  6
Continuous
 62
     7
100
AcDbCircle
 10
46.99967899999638
 20
-6.85148699946657
 30
0.0
 40
11.40148749780247
100
AcDbArc
 50
93.06556348357546
 51
116.8733199999972
  0
ARC
  5
54B
330
58
100
AcDbEntity
  8
LC-003-002-RND-0
  6
Continuous
 62
     7
100
AcDbCircle
 10
42.75002399999676
 20
1.53471600053163
 30
0.0
 40
1.999999999999662
100
AcDbArc
 50
116.8733199999784
 51
179.9974700000051
  0
LINE
  5
54C
330
58
100
AcDbEntity
  8
LC-001-002-----0
  6
Continuous
 62
     7
100
AcDbLine
 10
-48.03320373179889
 20
4.50311268876518
 30
0.0
 11
-48.03320373196448
 21
4.50311268875012
 31
0.0
  0
LINE
  5
54D
330
58
100
AcDbEntity
  8
LC-001-002-----0
  6
Continuous
 62
     7
100
AcDbLine
 10
-46.39300261906374
 20
4.53381763889879
 30
0.0
 11
-46.39300261922153
 21
4.53381763890721
 31
0.0
  0
ARC
  5
54E
330
58
100
AcDbEntity
  8
LC-003-002-RND-0
  6
Continuous
 62
     7
100
AcDbCircle
 10
-51.24991000000273
 20
1.53471600053163
 30
0.0
 40
1.999999999999655
100
AcDbArc
 50
116.8733199999781
 51
179.9974700000051
  0
ARC
  5
54F
330
58
100
AcDbEntity
  8
LC-001-002-----0
  6
Continuous
 62
     7
100
AcDbCircle
 10
-47.00025500000311
 20
-6.85148699946657
 30
0.0
 40
11.40148749780094
100
AcDbArc
 50
95.19799420517408
 51
116.8733199999972
  0
ARC
  5
550
330
58
100
AcDbEntity
  8
LC-003-002-RND-0
  6
Continuous
 62
     7
100
AcDbCircle
 10
-42.74991000000273
 20
1.5343660005332
 30
0.0
 40
1.999999999999862
100
AcDbArc
 50
-0.00252999999489
 51
63.12196099999152
  0
ARC
  5
551
330
58
100
AcDbEntity
  8
LC-003-002-RND-0
  6
Continuous
 62
     7
100
AcDbCircle
 10
-89.76097200000049
 20
1.53867900053083
 30
0.0
 40
2.0
100
AcDbArc
 50
0.0
 51
63.12415000007062
  0
ARC
  5
552
330
58
100
AcDbEntity
  8
LC-001-002-----0
  6
Continuous
 62
     7
100
AcDbCircle
 10
-94.01099700000168
 20
-6.84733599946921
 30
0.0
 40
11.40148749780681
100
AcDbArc
 50
63.12415000000443
 51
116.8755089999916
  0
ARC
  5
553
330
58
100
AcDbEntity
  8
LC-003-002-RND-0
  6
Continuous
 62
     7
100
AcDbCircle
 10
-98.26097200000049
 20
1.53870500053236
 30
0.0
 40
2.000000000001474
100
AcDbArc
 50
116.8755089999991
 51
180.0
  0
ARC
  5
554
330
58
100
AcDbEntity
  8
LC-002-002-RND-0
  6
Continuous
 62
     7
100
AcDbCircle
 10
48.44696600000009
 20
55.79355300000003
 30
0.0
 40
14.99999999999944
100
AcDbArc
 50
20.00015699999918
 51
90.00007900000188
  0
ARC
  5
555
330
58
100
AcDbEntity
  8
LC-002-002-RND-0
  6
Continuous
 62
     7
100
AcDbCircle
 10
-48.450245
 20
55.79342000000003
 30
0.0
 40
15.00000000000027
100
AcDbArc
 50
90.00007900000142
 51
160.0000000000008
  0
ARC
  5
556
330
58
100
AcDbEntity
  8
LC-002-002-RND-0
  6
Continuous
 62
     7
100
AcDbCircle
 10
-99.50509799999998
 20
-29.736492
 30
0.0
 40
0.4999999999995142
100
AcDbArc
 50
-179.9996659999872
 51
-89.99975200002976
  0
ARC
  5
557
330
58
100
AcDbEntity
  8
LC-002-002-RND-0
  6
Continuous
 62
     7
100
AcDbCircle
 10
99.50519700000007
 20
-29.736469
 30
0.0
 40
0.5
100
AcDbArc
 50
-90.0
 51
0.00004499999191
  0
ARC
  5
558
330
58
100
AcDbEntity
  8
LC-002-002-RND-0
  6
Continuous
 62
     7
100
AcDbCircle
 10
-175.0
 20
-5.236469
 30
0.0
 40
2.0
100
AcDbArc
 50
90.0
 51
180.0
  0
ARC
  5
559
330
58
100
AcDbEntity
  8
LC-002-002-RND-0
  6
Continuous
 62
     7
100
AcDbCircle
 10
175.0000000000001
 20
-5.236469
 30
0.0
 40
2.0
100
AcDbArc
 50
0.0
 51
90.0
  0
ARC
  5
55A
330
58
100
AcDbEntity
  8
LC-002-002-RND-0
  6
Continuous
 62
     7
100
AcDbCircle
 10
63.99300000000005
 20
-333.6799761960393
 30
0.0
 40
0.5
100
AcDbArc
 50
180.0
 51
-90.0
  0
ARC
  5
55B
330
58
100
AcDbEntity
  8
LC-002-002-RND-0
  6
Continuous
 62
     7
100
AcDbCircle
 10
63.99300000000005
 20
-321.3498101960393
 30
0.0
 40
0.5
100
AcDbArc
 50
180.0
 51
-90.0
  0
ARC
  5
55C
330
58
100
AcDbEntity
  8
LC-002-002-RND-0
  6
Continuous
 62
     7
100
AcDbCircle
 10
63.99300000000005
 20
-309.0196451960393
 30
0.0
 40
0.5
100
AcDbArc
 50
180.0
 51
-90.0
  0
ARC
  5
55D
330
58
100
AcDbEntity
  8
LC-002-002-RND-0
  6
Continuous
 62
     7
100
AcDbCircle
 10
63.99300000000005
 20
-296.6894791960393
 30
0.0
 40
0.5
100
AcDbArc
 50
180.0
 51
-90.0
  0
ARC
  5
55E
330
58
100
AcDbEntity
  8
LC-002-002-RND-0
  6
Continuous
 62
     7
100
AcDbCircle
 10
63.99300000000005
 20
-284.3593131960393
 30
0.0
 40
0.5
100
AcDbArc
 50
180.0
 51
-90.0
  0
ARC
  5
55F
330
58
100
AcDbEntity
  8
LC-002-002-RND-0
  6
Continuous
 62
     7
100
AcDbCircle
 10
63.99300000000005
 20
-272.0291481960393
 30
0.0
 40
0.5
100
AcDbArc
 50
180.0
 51
-90.0
  0
ARC
  5
560
330
58
100
AcDbEntity
  8
LC-002-002-RND-0
  6
Continuous
 62
     7
100
AcDbCircle
 10
63.99300000000005
 20
-259.6989821960393
 30
0.0
 40
0.5
100
AcDbArc
 50
180.0
 51
-90.0
  0
ARC
  5
561
330
58
100
AcDbEntity
  8
LC-002-002-RND-0
  6
Continuous
 62
     7
100
AcDbCircle
 10
63.99300000000005
 20
-247.3688161960393
 30
0.0
 40
0.5
100
AcDbArc
 50
180.0
 51
-90.0
  0
ARC
  5
562
330
58
100
AcDbEntity
  8
LC-002-002-RND-0
  6
Continuous
 62
     7
100
AcDbCircle
 10
63.99300000000005
 20
-235.0386511960393
 30
0.0
 40
0.5
100
AcDbArc
 50
180.0
 51
-90.0
  0
ARC
  5
563
330
58
100
AcDbEntity
  8
LC-002-002-RND-0
  6
Continuous
 62
     7
100
AcDbCircle
 10
63.99300000000005
 20
-222.7084851960393
 30
0.0
 40
0.5
100
AcDbArc
 50
180.0
 51
-90.0
  0
ARC
  5
564
330
58
100
AcDbEntity
  8
LC-002-002-RND-0
  6
Continuous
 62
     7
100
AcDbCircle
 10
63.99300000000005
 20
-210.3783191960393
 30
0.0
 40
0.5
100
AcDbArc
 50
180.0
 51
-90.0
  0
ARC
  5
565
330
58
100
AcDbEntity
  8
LC-002-002-RND-0
  6
Continuous
 62
     7
100
AcDbCircle
 10
63.99300000000005
 20
-198.0481541960393
 30
0.0
 40
0.5
100
AcDbArc
 50
180.0
 51
-90.0
  0
ARC
  5
566
330
58
100
AcDbEntity
  8
LC-002-002-RND-0
  6
Continuous
 62
     7
100
AcDbCircle
 10
63.99300000000005
 20
-161.0576571960393
 30
0.0
 40
0.5
100
AcDbArc
 50
180.0
 51
-90.0
  0
ARC
  5
567
330
58
100
AcDbEntity
  8
LC-002-002-RND-0
  6
Continuous
 62
     7
100
AcDbCircle
 10
63.99300000000005
 20
-148.7274911960393
 30
0.0
 40
0.5
100
AcDbArc
 50
180.0
 51
-90.0
  0
ARC
  5
568
330
58
100
AcDbEntity
  8
LC-002-002-RND-0
  6
Continuous
 62
     7
100
AcDbCircle
 10
64.49300000000005
 20
-337.6596981960393
 30
0.0
 40
1.000000000000033
100
AcDbArc
 50
96.00000000001467
 51
180.0
  0
ARC
  5
569
330
58
100
AcDbEntity
  8
LC-001-002-----0
  6
Continuous
 62
     7
100
AcDbCircle
 10
78.82708100000013
 20
-334.8458951960393
 30
0.0
 40
0.6659190000001008
100
AcDbArc
 50
-83.99999999998037
 51
90.0
  0
ARC
  5
56A
330
58
100
AcDbEntity
  8
LC-002-002-RND-0
  6
Continuous
 62
     7
100
AcDbCircle
 10
64.49300000000005
 20
-325.3295321960393
 30
0.0
 40
0.9999999999997506
100
AcDbArc
 50
96.00000000001636
 51
180.0
  0
ARC
  5
56B
330
58
100
AcDbEntity
  8
LC-001-002-----0
  6
Continuous
 62
     7
100
AcDbCircle
 10
78.82708100000013
 20
-322.5157291960393
 30
0.0
 40
0.665919000000327
100
AcDbArc
 50
-83.99999999998242
 51
90.0
  0
ARC
  5
56C
330
58
100
AcDbEntity
  8
LC-002-002-RND-0
  6
Continuous
 62
     7
100
AcDbCircle
 10
64.49300000000005
 20
-312.9993661960393
 30
0.0
 40
0.9999999999997506
100
AcDbArc
 50
96.00000000001636
 51
180.0
  0
ARC
  5
56D
330
58
100
AcDbEntity
  8
LC-001-002-----0
  6
Continuous
 62
     7
100
AcDbCircle
 10
78.82708100000013
 20
-310.1855631960393
 30
0.0
 40
0.6659190000002705
100
AcDbArc
 50
-83.9999999999819
 51
90.0
  0
ARC
  5
56E
330
58
100
AcDbEntity
  8
LC-002-002-RND-0
  6
Continuous
 62
     7
100
AcDbCircle
 10
64.49300000000005
 20
-300.6692011960393
 30
0.0
 40
0.9999999999997506
100
AcDbArc
 50
96.00000000001636
 51
180.0
  0
ARC
  5
56F
330
58
100
AcDbEntity
  8
LC-001-002-----0
  6
Continuous
 62
     7
100
AcDbCircle
 10
78.82708100000013
 20
-297.8553981960393
 30
0.0
 40
0.6659190000002705
100
AcDbArc
 50
-83.9999999999819
 51
90.0
  0
ARC
  5
570
330
58
100
AcDbEntity
  8
LC-002-002-RND-0
  6
Continuous
 62
     7
100
AcDbCircle
 10
64.49300000000005
 20
-288.3390351960393
 30
0.0
 40
0.9999999999997506
100
AcDbArc
 50
96.00000000001636
 51
180.0
  0
ARC
  5
571
330
58
100
AcDbEntity
  8
LC-001-002-----0
  6
Continuous
 62
     7
100
AcDbCircle
 10
78.82708100000013
 20
-285.5252321960393
 30
0.0
 40
0.6659190000002705
100
AcDbArc
 50
-83.9999999999819
 51
90.0
  0
ARC
  5
572
330
58
100
AcDbEntity
  8
LC-002-002-RND-0
  6
Continuous
 62
     7
100
AcDbCircle
 10
64.49300000000005
 20
-276.0088691960393
 30
0.0
 40
0.9999999999997506
100
AcDbArc
 50
96.00000000001636
 51
180.0
  0
ARC
  5
573
330
58
100
AcDbEntity
  8
LC-001-002-----0
  6
Continuous
 62
     7
100
AcDbCircle
 10
78.82708100000013
 20
-273.1950661960393
 30
0.0
 40
0.6659190000002705
100
AcDbArc
 50
-83.9999999999819
 51
90.0
  0
ARC
  5
574
330
58
100
AcDbEntity
  8
LC-002-002-RND-0
  6
Continuous
 62
     7
100
AcDbCircle
 10
64.49300000000005
 20
-263.6787041960393
 30
0.0
 40
0.9999999999997506
100
AcDbArc
 50
96.00000000001636
 51
180.0
  0
ARC
  5
575
330
58
100
AcDbEntity
  8
LC-001-002-----0
  6
Continuous
 62
     7
100
AcDbCircle
 10
78.82708100000013
 20
-260.8649011960393
 30
0.0
 40
0.6659190000002705
100
AcDbArc
 50
-83.9999999999819
 51
90.0
  0
ARC
  5
576
330
58
100
AcDbEntity
  8
LC-002-002-RND-0
  6
Continuous
 62
     7
100
AcDbCircle
 10
64.49300000000005
 20
-251.3485381960393
 30
0.0
 40
0.9999999999997506
100
AcDbArc
 50
96.00000000001636
 51
180.0
  0
ARC
  5
577
330
58
100
AcDbEntity
  8
LC-001-002-----0
  6
Continuous
 62
     7
100
AcDbCircle
 10
78.82708100000013
 20
-248.5347351960393
 30
0.0
 40
0.6659190000002987
100
AcDbArc
 50
-83.99999999998217
 51
90.0
  0
ARC
  5
578
330
58
100
AcDbEntity
  8
LC-002-002-RND-0
  6
Continuous
 62
     7
100
AcDbCircle
 10
-64.00699999999995
 20
-333.6799761960393
 30
0.0
 40
0.5
100
AcDbArc
 50
-90.0
 51
0.0
  0
ARC
  5
579
330
58
100
AcDbEntity
  8
LC-002-002-RND-0
  6
Continuous
 62
     7
100
AcDbCircle
 10
-64.00699999999995
 20
-321.3498101960393
 30
0.0
 40
0.5
100
AcDbArc
 50
-90.0
 51
0.0
  0
ARC
  5
57A
330
58
100
AcDbEntity
  8
LC-002-002-RND-0
  6
Continuous
 62
     7
100
AcDbCircle
 10
-64.00699999999995
 20
-309.0196451960393
 30
0.0
 40
0.5
100
AcDbArc
 50
-90.0
 51
0.0
  0
ARC
  5
57B
330
58
100
AcDbEntity
  8
LC-002-002-RND-0
  6
Continuous
 62
     7
100
AcDbCircle
 10
-64.00699999999995
 20
-296.6894791960393
 30
0.0
 40
0.5
100
AcDbArc
 50
-90.0
 51
0.0
  0
ARC
  5
57C
330
58
100
AcDbEntity
  8
LC-002-002-RND-0
  6
Continuous
 62
     7
100
AcDbCircle
 10
64.49300000000005
 20
-239.0183721960393
 30
0.0
 40
0.9999999999997506
100
AcDbArc
 50
96.00000000001636
 51
180.0
  0
ARC
  5
57D
330
58
100
AcDbEntity
  8
LC-002-002-RND-0
  6
Continuous
 62
     7
100
AcDbCircle
 10
-64.00699999999995
 20
-284.3593131960393
 30
0.0
 40
0.5
100
AcDbArc
 50
-90.0
 51
0.0
  0
ARC
  5
57E
330
58
100
AcDbEntity
  8
LC-002-002-RND-0
  6
Continuous
 62
     7
100
AcDbCircle
 10
-64.00699999999995
 20
-272.0291481960393
 30
0.0
 40
0.5
100
AcDbArc
 50
-90.0
 51
0.0
  0
ARC
  5
57F
330
58
100
AcDbEntity
  8
LC-002-002-RND-0
  6
Continuous
 62
     7
100
AcDbCircle
 10
-64.00699999999995
 20
-259.6989821960393
 30
0.0
 40
0.5
100
AcDbArc
 50
-90.0
 51
0.0
  0
ARC
  5
580
330
58
100
AcDbEntity
  8
LC-001-002-----0
  6
Continuous
 62
     7
100
AcDbCircle
 10
78.82708100000013
 20
-236.2045691960393
 30
0.0
 40
0.6659190000002705
100
AcDbArc
 50
-83.9999999999819
 51
90.0
  0
ARC
  5
581
330
58
100
AcDbEntity
  8
LC-002-002-RND-0
  6
Continuous
 62
     7
100
AcDbCircle
 10
-64.00699999999995
 20
-247.3688161960393
 30
0.0
 40
0.5
100
AcDbArc
 50
-90.0
 51
0.0
  0
ARC
  5
582
330
58
100
AcDbEntity
  8
LC-002-002-RND-0
  6
Continuous
 62
     7
100
AcDbCircle
 10
64.49300000000005
 20
-226.6882071960393
 30
0.0
 40
0.9999999999997506
100
AcDbArc
 50
96.00000000001636
 51
180.0
  0
ARC
  5
583
330
58
100
AcDbEntity
  8
LC-002-002-RND-0
  6
Continuous
 62
     7
100
AcDbCircle
 10
-64.00699999999995
 20
-235.0386511960393
 30
0.0
 40
0.5
100
AcDbArc
 50
-90.0
 51
0.0
  0
ARC
  5
584
330
58
100
AcDbEntity
  8
LC-002-002-RND-0
  6
Continuous
 62
     7
100
AcDbCircle
 10
-64.00699999999995
 20
-222.7084851960393
 30
0.0
 40
0.5
100
AcDbArc
 50
-90.0
 51
0.0
  0
ARC
  5
585
330
58
100
AcDbEntity
  8
LC-002-002-RND-0
  6
Continuous
 62
     7
100
AcDbCircle
 10
-64.00699999999995
 20
-210.3783191960393
 30
0.0
 40
0.5
100
AcDbArc
 50
-90.0
 51
0.0
  0
ARC
  5
586
330
58
100
AcDbEntity
  8
LC-002-002-RND-0
  6
Continuous
 62
     7
100
AcDbCircle
 10
-64.00699999999995
 20
-198.0481541960393
 30
0.0
 40
0.5
100
AcDbArc
 50
-90.0
 51
0.0
  0
ARC
  5
587
330
58
100
AcDbEntity
  8
LC-002-002-RND-0
  6
Continuous
 62
     7
100
AcDbCircle
 10
-64.00699999999995
 20
-185.7179881960393
 30
0.0
 40
0.5
100
AcDbArc
 50
-90.0
 51
0.0
  0
ARC
  5
588
330
58
100
AcDbEntity
  8
LC-002-002-RND-0
  6
Continuous
 62
     7
100
AcDbCircle
 10
64.49300000000005
 20
-214.3580411960393
 30
0.0
 40
0.9999999999997506
100
AcDbArc
 50
96.00000000001636
 51
180.0
  0
ARC
  5
589
330
58
100
AcDbEntity
  8
LC-002-002-RND-0
  6
Continuous
 62
     7
100
AcDbCircle
 10
-64.00699999999995
 20
-173.3878221960393
 30
0.0
 40
0.5
100
AcDbArc
 50
-90.0
 51
0.0
  0
ARC
  5
58A
330
58
100
AcDbEntity
  8
LC-002-002-RND-0
  6
Continuous
 62
     7
100
AcDbCircle
 10
-64.00699999999995
 20
-161.0576571960393
 30
0.0
 40
0.5
100
AcDbArc
 50
-90.0
 51
0.0
  0
ARC
  5
58B
330
58
100
AcDbEntity
  8
LC-002-002-RND-0
  6
Continuous
 62
     7
100
AcDbCircle
 10
-64.00699999999995
 20
-148.7274911960393
 30
0.0
 40
0.5
100
AcDbArc
 50
-90.0
 51
0.0
  0
ARC
  5
58C
330
58
100
AcDbEntity
  8
LC-002-002-RND-0
  6
Continuous
 62
     7
100
AcDbCircle
 10
-64.00699999999995
 20
-136.3973251960393
 30
0.0
 40
0.5
100
AcDbArc
 50
-90.0
 51
0.0
  0
ARC
  5
58D
330
58
100
AcDbEntity
  8
LC-001-002-----0
  6
Continuous
 62
     7
100
AcDbCircle
 10
78.82708100000013
 20
-211.5442381960393
 30
0.0
 40
0.6659190000002987
100
AcDbArc
 50
-83.99999999998217
 51
90.0
  0
ARC
  5
58E
330
58
100
AcDbEntity
  8
LC-002-002-RND-0
  6
Continuous
 62
     7
100
AcDbCircle
 10
-64.50699999999995
 20
-337.6596981960393
 30
0.0
 40
1.0
100
AcDbArc
 50
0.0
 51
83.99999999997887
  0
ARC
  5
58F
330
58
100
AcDbEntity
  8
LC-001-002-----0
  6
Continuous
 62
     7
100
AcDbCircle
 10
-78.84108099999992
 20
-334.8458951960393
 30
0.0
 40
0.665918999999974
100
AcDbArc
 50
90.0
 51
-96.00000000002936
  0
ARC
  5
590
330
58
100
AcDbEntity
  8
LC-002-002-RND-0
  6
Continuous
 62
     7
100
AcDbCircle
 10
-64.50699999999995
 20
-325.3295321960393
 30
0.0
 40
1.0
100
AcDbArc
 50
0.0
 51
83.99999999997716
  0
ARC
  5
591
330
58
100
AcDbEntity
  8
LC-001-002-----0
  6
Continuous
 62
     7
100
AcDbCircle
 10
-78.84108099999992
 20
-322.5157291960393
 30
0.0
 40
0.665918999999974
100
AcDbArc
 50
90.0
 51
-96.00000000002733
  0
ARC
  5
592
330
58
100
AcDbEntity
  8
LC-002-002-RND-0
  6
Continuous
 62
     7
100
AcDbCircle
 10
-64.50699999999995
 20
-312.9993661960393
 30
0.0
 40
1.0
100
AcDbArc
 50
0.0
 51
83.99999999997716
  0
ARC
  5
593
330
58
100
AcDbEntity
  8
LC-001-002-----0
  6
Continuous
 62
     7
100
AcDbCircle
 10
-78.84108099999992
 20
-310.1855631960393
 30
0.0
 40
0.6659190000000308
100
AcDbArc
 50
90.0
 51
-96.00000000002782
  0
ARC
  5
594
330
58
100
AcDbEntity
  8
LC-002-002-RND-0
  6
Continuous
 62
     7
100
AcDbCircle
 10
64.49300000000005
 20
-202.0278751960393
 30
0.0
 40
0.9999999999997506
100
AcDbArc
 50
96.00000000001636
 51
180.0
  0
ARC
  5
595
330
58
100
AcDbEntity
  8
LC-002-002-RND-0
  6
Continuous
 62
     7
100
AcDbCircle
 10
-64.50699999999995
 20
-300.6692011960393
 30
0.0
 40
1.0
100
AcDbArc
 50
0.0
 51
83.99999999997716
  0
ARC
  5
596
330
58
100
AcDbEntity
  8
LC-001-002-----0
  6
Continuous
 62
     7
100
AcDbCircle
 10
-78.84108099999992
 20
-297.8553981960393
 30
0.0
 40
0.665918999999974
100
AcDbArc
 50
90.0
 51
-96.00000000002782
  0
ARC
  5
597
330
58
100
AcDbEntity
  8
LC-001-002-----0
  6
Continuous
 62
     7
100
AcDbCircle
 10
78.82708100000013
 20
-199.2140721960393
 30
0.0
 40
0.6659190000002705
100
AcDbArc
 50
-83.9999999999819
 51
90.0
  0
ARC
  5
598
330
58
100
AcDbEntity
  8
LC-002-002-RND-0
  6
Continuous
 62
     7
100
AcDbCircle
 10
-64.50699999999995
 20
-288.3390351960393
 30
0.0
 40
1.0
100
AcDbArc
 50
0.0
 51
83.99999999997716
  0
ARC
  5
599
330
58
100
AcDbEntity
  8
LC-001-002-----0
  6
Continuous
 62
     7
100
AcDbCircle
 10
-78.84108099999992
 20
-285.5252321960393
 30
0.0
 40
0.6659190000000308
100
AcDbArc
 50
90.0
 51
-96.00000000002782
  0
ARC
  5
59A
330
58
100
AcDbEntity
  8
LC-002-002-RND-0
  6
Continuous
 62
     7
100
AcDbCircle
 10
-64.50699999999995
 20
-276.0088691960393
 30
0.0
 40
1.0
100
AcDbArc
 50
0.0
 51
83.99999999997716
  0
ARC
  5
59B
330
58
100
AcDbEntity
  8
LC-001-002-----0
  6
Continuous
 62
     7
100
AcDbCircle
 10
-78.84108099999992
 20
-273.1950661960393
 30
0.0
 40
0.6659190000000308
100
AcDbArc
 50
90.0
 51
-96.00000000002782
  0
ARC
  5
59C
330
58
100
AcDbEntity
  8
LC-002-002-RND-0
  6
Continuous
 62
     7
100
AcDbCircle
 10
64.49300000000005
 20
-189.6977101960393
 30
0.0
 40
0.999999999999779
100
AcDbArc
 50
96.00000000001619
 51
180.0
  0
ARC
  5
59D
330
58
100
AcDbEntity
  8
LC-001-002-----0
  6
Continuous
 62
     7
100
AcDbCircle
 10
78.82708100000013
 20
-186.8839071960393
 30
0.0
 40
0.6659190000002705
100
AcDbArc
 50
-83.9999999999819
 51
90.0
  0
ARC
  5
59E
330
58
100
AcDbEntity
  8
LC-002-002-RND-0
  6
Continuous
 62
     7
100
AcDbCircle
 10
64.49300000000005
 20
-177.3675441960393
 30
0.0
 40
0.9999999999997506
100
AcDbArc
 50
96.00000000001636
 51
180.0
  0
ARC
  5
59F
330
58
100
AcDbEntity
  8
LC-001-002-----0
  6
Continuous
 62
     7
100
AcDbCircle
 10
78.82708100000013
 20
-174.5537411960393
 30
0.0
 40
0.6659190000002705
100
AcDbArc
 50
-83.9999999999819
 51
90.0
  0
ARC
  5
5A0
330
58
100
AcDbEntity
  8
LC-002-002-RND-0
  6
Continuous
 62
     7
100
AcDbCircle
 10
64.49300000000005
 20
-165.0373781960393
 30
0.0
 40
0.9999999999997506
100
AcDbArc
 50
96.00000000001636
 51
180.0
  0
ARC
  5
5A1
330
58
100
AcDbEntity
  8
LC-001-002-----0
  6
Continuous
 62
     7
100
AcDbCircle
 10
78.82708100000013
 20
-162.2235751960393
 30
0.0
 40
0.6659190000002987
100
AcDbArc
 50
-83.99999999998217
 51
90.0
  0
ARC
  5
5A2
330
58
100
AcDbEntity
  8
LC-002-002-RND-0
  6
Continuous
 62
     7
100
AcDbCircle
 10
64.49300000000005
 20
-152.7072131960393
 30
0.0
 40
0.9999999999997506
100
AcDbArc
 50
96.00000000001636
 51
180.0
  0
ARC
  5
5A3
330
58
100
AcDbEntity
  8
LC-001-002-----0
  6
Continuous
 62
     7
100
AcDbCircle
 10
78.82708100000013
 20
-149.8934101960393
 30
0.0
 40
0.6659190000002705
100
AcDbArc
 50
-83.9999999999819
 51
90.0
  0
ARC
  5
5A4
330
58
100
AcDbEntity
  8
LC-002-002-RND-0
  6
Continuous
 62
     7
100
AcDbCircle
 10
64.49300000000005
 20
-140.3770471960393
 30
0.0
 40
0.999999999999779
100
AcDbArc
 50
96.00000000001619
 51
180.0
  0
ARC
  5
5A5
330
58
100
AcDbEntity
  8
LC-002-002-RND-0
  6
Continuous
 62
     7
100
AcDbCircle
 10
64.49300000000005
 20
-128.0468811960393
 30
0.0
 40
0.9999999999997506
100
AcDbArc
 50
96.00000000001636
 51
180.0
  0
ARC
  5
5A6
330
58
100
AcDbEntity
  8
LC-001-002-----0
  6
Continuous
 62
     7
100
AcDbCircle
 10
78.82708100000013
 20
-125.2330781960393
 30
0.0
 40
0.6659190000002705
100
AcDbArc
 50
-83.9999999999819
 51
90.0
  0
ARC
  5
5A7
330
58
100
AcDbEntity
  8
LC-001-002-----0
  6
Continuous
 62
     7
100
AcDbCircle
 10
78.82708100000013
 20
-137.5632441960393
 30
0.0
 40
0.6659190000002705
100
AcDbArc
 50
-83.9999999999819
 51
90.0
  0
ARC
  5
5A8
330
58
100
AcDbEntity
  8
LC-002-002-RND-0
  6
Continuous
 62
     7
100
AcDbCircle
 10
-64.50699999999995
 20
-263.6787041960393
 30
0.0
 40
1.0
100
AcDbArc
 50
0.0
 51
83.99999999997716
  0
ARC
  5
5A9
330
58
100
AcDbEntity
  8
LC-002-002-RND-0
  6
Continuous
 62
     7
100
AcDbCircle
 10
63.99300000000005
 20
-124.0671601960393
 30
0.0
 40
0.5
100
AcDbArc
 50
180.0
 51
-90.0
  0
ARC
  5
5AA
330
58
100
AcDbEntity
  8
LC-001-002-----0
  6
Continuous
 62
     7
100
AcDbCircle
 10
78.82708100000013
 20
-112.9029131960393
 30
0.0
 40
0.6659190000002846
100
AcDbArc
 50
-83.99999999998204
 51
90.0
  0
ARC
  5
5AB
330
58
100
AcDbEntity
  8
LC-001-002-----0
  6
Continuous
 62
     7
100
AcDbCircle
 10
-78.84108099999992
 20
-260.8649011960393
 30
0.0
 40
0.665918999999974
100
AcDbArc
 50
90.0
 51
-96.00000000002782
  0
ARC
  5
5AC
330
58
100
AcDbEntity
  8
LC-002-002-RND-0
  6
Continuous
 62
     7
100
AcDbCircle
 10
63.99300000000005
 20
-185.7179881960393
 30
0.0
 40
0.5
100
AcDbArc
 50
180.0
 51
-90.0
  0
ARC
  5
5AD
330
58
100
AcDbEntity
  8
LC-002-002-RND-0
  6
Continuous
 62
     7
100
AcDbCircle
 10
63.99300000000005
 20
-173.3878221960393
 30
0.0
 40
0.5
100
AcDbArc
 50
180.0
 51
-90.0
  0
ARC
  5
5AE
330
58
100
AcDbEntity
  8
LC-002-002-RND-0
  6
Continuous
 62
     7
100
AcDbCircle
 10
63.99300000000005
 20
-136.3973251960393
 30
0.0
 40
0.5
100
AcDbArc
 50
180.0
 51
-90.0
  0
ARC
  5
5AF
330
58
100
AcDbEntity
  8
LC-002-002-RND-0
  6
Continuous
 62
     7
100
AcDbCircle
 10
-64.50699999999995
 20
-251.3485381960393
 30
0.0
 40
1.0
100
AcDbArc
 50
0.0
 51
83.99999999997716
  0
ARC
  5
5B0
330
58
100
AcDbEntity
  8
LC-001-002-----0
  6
Continuous
 62
     7
100
AcDbCircle
 10
-78.84108099999992
 20
-248.5347351960393
 30
0.0
 40
0.6659190000000024
100
AcDbArc
 50
90.0
 51
-96.00000000002758
  0
ARC
  5
5B1
330
58
100
AcDbEntity
  8
LC-002-002-RND-0
  6
Continuous
 62
     7
100
AcDbCircle
 10
-64.50699999999995
 20
-337.6596981960393
 30
0.0
 40
1.0
100
AcDbArc
 50
0.0
 51
83.99999999997887
  0
ARC
  5
5B2
330
58
100
AcDbEntity
  8
LC-002-002-RND-0
  6
Continuous
 62
     7
100
AcDbCircle
 10
-64.50699999999995
 20
-239.0183721960393
 30
0.0
 40
1.0
100
AcDbArc
 50
0.0
 51
83.99999999997716
  0
ARC
  5
5B3
330
58
100
AcDbEntity
  8
LC-001-002-----0
  6
Continuous
 62
     7
100
AcDbCircle
 10
-78.84108099999992
 20
-236.2045691960393
 30
0.0
 40
0.6659190000000024
100
AcDbArc
 50
90.0
 51
-96.00000000002782
  0
ARC
  5
5B4
330
58
100
AcDbEntity
  8
LC-002-002-RND-0
  6
Continuous
 62
     7
100
AcDbCircle
 10
-64.50699999999995
 20
-226.6882071960393
 30
0.0
 40
1.0
100
AcDbArc
 50
0.0
 51
83.99999999997716
  0
ARC
  5
5B5
330
58
100
AcDbEntity
  8
LC-001-002-----0
  6
Continuous
 62
     7
100
AcDbCircle
 10
-78.84108099999992
 20
-223.8744041960393
 30
0.0
 40
0.6659190000000024
100
AcDbArc
 50
90.0
 51
-96.00000000002782
  0
ARC
  5
5B6
330
58
100
AcDbEntity
  8
LC-002-002-RND-0
  6
Continuous
 62
     7
100
AcDbCircle
 10
-64.50699999999995
 20
-214.3580411960393
 30
0.0
 40
1.0
100
AcDbArc
 50
0.0
 51
83.99999999997716
  0
ARC
  5
5B7
330
58
100
AcDbEntity
  8
LC-001-002-----0
  6
Continuous
 62
     7
100
AcDbCircle
 10
-78.84108099999992
 20
-211.5442381960393
 30
0.0
 40
0.665918999999974
100
AcDbArc
 50
90.0
 51
-96.00000000002758
  0
ARC
  5
5B8
330
58
100
AcDbEntity
  8
LC-002-002-RND-0
  6
Continuous
 62
     7
100
AcDbCircle
 10
-64.50699999999995
 20
-202.0278751960393
 30
0.0
 40
1.0
100
AcDbArc
 50
0.0
 51
83.99999999997716
  0
ARC
  5
5B9
330
58
100
AcDbEntity
  8
LC-001-002-----0
  6
Continuous
 62
     7
100
AcDbCircle
 10
-78.84108099999992
 20
-199.2140721960393
 30
0.0
 40
0.6659190000000024
100
AcDbArc
 50
90.0
 51
-96.00000000002782
  0
ARC
  5
5BA
330
58
100
AcDbEntity
  8
LC-002-002-RND-0
  6
Continuous
 62
     7
100
AcDbCircle
 10
-64.50699999999995
 20
-189.6977101960393
 30
0.0
 40
1.0
100
AcDbArc
 50
0.0
 51
83.99999999997733
  0
ARC
  5
5BB
330
58
100
AcDbEntity
  8
LC-001-002-----0
  6
Continuous
 62
     7
100
AcDbCircle
 10
-78.84108099999992
 20
-186.8839071960393
 30
0.0
 40
0.6659190000000024
100
AcDbArc
 50
90.0
 51
-96.00000000002782
  0
ARC
  5
5BC
330
58
100
AcDbEntity
  8
LC-002-002-RND-0
  6
Continuous
 62
     7
100
AcDbCircle
 10
-64.50699999999995
 20
-177.3675441960393
 30
0.0
 40
1.0
100
AcDbArc
 50
0.0
 51
83.99999999997716
  0
ARC
  5
5BD
330
58
100
AcDbEntity
  8
LC-001-002-----0
  6
Continuous
 62
     7
100
AcDbCircle
 10
-78.84108099999992
 20
-174.5537411960393
 30
0.0
 40
0.6659190000000024
100
AcDbArc
 50
90.0
 51
-96.00000000002782
  0
ARC
  5
5BE
330
58
100
AcDbEntity
  8
LC-002-002-RND-0
  6
Continuous
 62
     7
100
AcDbCircle
 10
-64.50699999999995
 20
-165.0373781960393
 30
0.0
 40
1.0
100
AcDbArc
 50
0.0
 51
83.99999999997716
  0
ARC
  5
5BF
330
58
100
AcDbEntity
  8
LC-001-002-----0
  6
Continuous
 62
     7
100
AcDbCircle
 10
-78.84108099999992
 20
-162.2235751960393
 30
0.0
 40
0.6659190000000024
100
AcDbArc
 50
90.0
 51
-96.00000000002758
  0
ARC
  5
5C0
330
58
100
AcDbEntity
  8
LC-002-002-RND-0
  6
Continuous
 62
     7
100
AcDbCircle
 10
-64.50699999999995
 20
-152.7072131960393
 30
0.0
 40
1.0
100
AcDbArc
 50
0.0
 51
83.99999999997716
  0
ARC
  5
5C1
330
58
100
AcDbEntity
  8
LC-001-002-----0
  6
Continuous
 62
     7
100
AcDbCircle
 10
-78.84108099999992
 20
-149.8934101960393
 30
0.0
 40
0.6659190000000024
100
AcDbArc
 50
90.0
 51
-96.00000000002782
  0
ARC
  5
5C2
330
58
100
AcDbEntity
  8
LC-002-002-RND-0
  6
Continuous
 62
     7
100
AcDbCircle
 10
64.49300000000005
 20
-337.6596981960393
 30
0.0
 40
1.000000000000033
100
AcDbArc
 50
96.00000000001467
 51
180.0
  0
ARC
  5
5C3
330
58
100
AcDbEntity
  8
LC-002-002-RND-0
  6
Continuous
 62
     7
100
AcDbCircle
 10
-64.50699999999995
 20
-140.3770471960393
 30
0.0
 40
1.0
100
AcDbArc
 50
0.0
 51
83.99999999997733
  0
ARC
  5
5C4
330
58
100
AcDbEntity
  8
LC-002-002-RND-0
  6
Continuous
 62
     7
100
AcDbCircle
 10
-64.50699999999995
 20
-128.0468811960393
 30
0.0
 40
1.0
100
AcDbArc
 50
0.0
 51
83.99999999997716
  0
ARC
  5
5C5
330
58
100
AcDbEntity
  8
LC-001-002-----0
  6
Continuous
 62
     7
100
AcDbCircle
 10
-78.84108099999992
 20
-125.2330781960393
 30
0.0
 40
0.6659190000000024
100
AcDbArc
 50
90.0
 51
-96.00000000002782
  0
ARC
  5
5C6
330
58
100
AcDbEntity
  8
LC-001-002-----0
  6
Continuous
 62
     7
100
AcDbCircle
 10
-78.84108099999992
 20
-137.5632441960393
 30
0.0
 40
0.6659190000000024
100
AcDbArc
 50
90.0
 51
-96.00000000002782
  0
ARC
  5
5C7
330
58
100
AcDbEntity
  8
LC-002-002-RND-0
  6
Continuous
 62
     7
100
AcDbCircle
 10
-64.00699999999995
 20
-124.0671601960393
 30
0.0
 40
0.5
100
AcDbArc
 50
-90.0
 51
0.0
  0
ARC
  5
5C8
330
58
100
AcDbEntity
  8
LC-002-002-RND-0
  6
Continuous
 62
     7
100
AcDbCircle
 10
64.49300000000005
 20
-115.7167161960393
 30
0.0
 40
0.9999999999997506
100
AcDbArc
 50
96.00000000001636
 51
180.0
  0
ARC
  5
5C9
330
58
100
AcDbEntity
  8
LC-002-002-RND-0
  6
Continuous
 62
     7
100
AcDbCircle
 10
-64.50699999999995
 20
-115.7167161960393
 30
0.0
 40
1.0
100
AcDbArc
 50
0.0
 51
83.99999999997716
  0
ARC
  5
5CA
330
58
100
AcDbEntity
  8
LC-001-002-----0
  6
Continuous
 62
     7
100
AcDbCircle
 10
-78.84108099999992
 20
-112.9029131960393
 30
0.0
 40
0.6659189999999882
100
AcDbArc
 50
90.0
 51
-96.00000000002771
  0
ARC
  5
5CB
330
58
100
AcDbEntity
  8
LC-002-002-RND-0
  6
Continuous
 62
     7
100
AcDbCircle
 10
-77.74869799999988
 20
-44.18663319603928
 30
0.0
 40
3.000000000000183
100
AcDbArc
 50
174.2427195750467
 51
-90.00126499999932
  0
ARC
  5
5CC
330
58
100
AcDbEntity
  8
LC-002-002-RND-0
  6
Continuous
 62
     7
100
AcDbCircle
 10
77.75130200000012
 20
-44.19006619603931
 30
0.0
 40
3.000000000000171
100
AcDbArc
 50
-90.00126499999932
 51
-1.68810012985547
  0
CIRCLE
  5
5CD
330
58
100
AcDbEntity
  8
LC-005-221-----0
  6
Continuous
 62
     7
100
AcDbCircle
 10
-79.05758999999989
 20
-125.2228581960393
 30
0.0
 40
0.5
  0
ENDBLK
  5
5D
330
58
100
AcDbEntity
  8
0
100
AcDbBlockEnd
  0
BLOCK
  5
5D6
330
5CE
100
AcDbEntity
  8
0
100
AcDbBlockBegin
  2
*D5
 70
     1
 71
     0
 10
0.0
 20
0.0
 30
0.0
  3
*D5
  1

  0
LINE
  5
5CF
330
5CE
100
AcDbEntity
  8
1
  6
Continuous
 62
     4
100
AcDbLine
 10
80.00007109637656
 20
-420.0039432373865
 30
0.0
 11
-79.9999289031802
 21
-420.0041629794818
 31
0.0
  0
LINE
  5
5D0
330
5CE
100
AcDbEntity
  8
1
  6
Continuous
 62
     4
100
AcDbLine
 10
80.00002734934014
 20
-388.1505752395273
 30
0.0
 11
80.00007384315275
 21
-422.0039432373846
 31
0.0
  0
LINE
  5
5D1
330
5CE
100
AcDbEntity
  8
1
  6
Continuous
 62
     4
100
AcDbLine
 10
-79.99997250254592
 20
-388.2583179005092
 30
0.0
 11
-79.99992615640402
 21
-422.0041629794799
 31
0.0
  0
SOLID
  5
5D2
330
5CE
100
AcDbEntity
  8
1
 62
     4
100
AcDbTrace
 10
66.00007362772939
 20
-421.8470974310417
 30
0.0
 11
66.00006856505013
 21
-418.1608274985982
 31
0.0
 12
80.00007109637656
 22
-420.0039432373865
 32
0.0
 13
80.00007109637656
 23
-420.0039432373865
 33
0.0
  0
SOLID
  5
5D3
330
5CE
100
AcDbEntity
  8
1
 62
     4
100
AcDbTrace
 10
-65.99993143453304
 20
-418.1610087858266
 30
0.0
 11
-65.99992637185377
 21
-421.8472787182702
 31
0.0
 12
-79.9999289031802
 22
-420.0041629794818
 32
0.0
 13
-79.9999289031802
 23
-420.0041629794818
 33
0.0
  0
MTEXT
  5
5D5
330
5CE
100
AcDbEntity
  8
1
 62
     1
100
AcDbMText
 10
-17.89862266825146
 20
-418.0041018139052
 30
0.0
 40
14.0
 41
0.0
 71
     7
 72
     1
  1
\C1;DN\C1;160
  7
CONVERTER_11
 11
0.9999999999970619
 21
2.424068405545306E-6
 31
0.0
 73
     1
 44
0.60024009603842
  0
ENDBLK
  5
5D7
330
5CE
100
AcDbEntity
  8
0
100
AcDbBlockEnd
  0
BLOCK
  5
5E1
330
5DA
100
AcDbEntity
  8
0
100
AcDbBlockBegin
  2
*D6
 70
     1
 71
     0
 10
0.0
 20
0.0
 30
0.0
  3
*D6
  1

  0
LINE
  5
5DB
330
5DA
100
AcDbEntity
  8
1
  6
Continuous
 62
     4
100
AcDbLine
 10
-177.0
 20
96.194292433471
 30
0.0
 11
177.0000000000001
 21
96.194292433471
 31
0.0
  0
LINE
  5
5DC
330
5DA
100
AcDbEntity
  8
1
  6
Continuous
 62
     4
100
AcDbLine
 10
-177.0
 20
-5.236469
 30
0.0
 11
-177.0
 21
98.194292433471
 31
0.0
  0
LINE
  5
5DD
330
5DA
100
AcDbEntity
  8
1
  6
Continuous
 62
     4
100
AcDbLine
 10
177.0000000000001
 20
-5.236469
 30
0.0
 11
177.0000000000001
 21
98.194292433471
 31
0.0
  0
SOLID
  5
5DE
330
5DA
100
AcDbEntity
  8
1
 62
     4
100
AcDbTrace
 10
-163.0
 20
98.03742739969455
 30
0.0
 11
-163.0
 21
94.35115746724746
 31
0.0
 12
-177.0
 22
96.194292433471
 32
0.0
 13
-177.0
 23
96.194292433471
 33
0.0
  0
SOLID
  5
5DF
330
5DA
100
AcDbEntity
  8
1
 62
     4
100
AcDbTrace
 10
163.0000000000001
 20
94.35115746724746
 30
0.0
 11
163.0000000000001
 21
98.03742739969455
 31
0.0
 12
177.0000000000001
 22
96.194292433471
 32
0.0
 13
177.0000000000001
 23
96.194292433471
 33
0.0
  0
MTEXT
  5
5E0
330
5DA
100
AcDbEntity
  8
1
 62
     1
100
AcDbMText
 10
-30.70507523641351
 20
98.19423677686042
 30
0.0
 40
14.0
 41
0.0
 71
     7
 72
     1
  1
\C1;\U+00d8\C1;354
  7
CONVERTER_11
 11
0.9999999999970619
 21
2.424068405545306E-6
 31
0.0
 73
     1
 44
0.60024009603842
  0
ENDBLK
  5
5E2
330
5DA
100
AcDbEntity
  8
0
100
AcDbBlockEnd
  0
BLOCK
  5
5EC
330
5E5
100
AcDbEntity
  8
0
100
AcDbBlockBegin
  2
*D7
 70
     1
 71
     0
 10
0.0
 20
0.0
 30
0.0
  3
*D7
  1

  0
LINE
  5
5E6
330
5E5
100
AcDbEntity
  8
1
  6
Continuous
 62
     4
100
AcDbLine
 10
-231.995428
 20
136.48972161057
 30
0.0
 11
231.9954280000001
 21
136.48972161057
 31
0.0
  0
LINE
  5
5E7
330
5E5
100
AcDbEntity
  8
1
  6
Continuous
 62
     4
100
AcDbLine
 10
-231.995428
 20
0.0
 30
0.0
 11
-231.995428
 21
138.48972161057
 31
0.0
  0
LINE
  5
5E8
330
5E5
100
AcDbEntity
  8
1
  6
Continuous
 62
     4
100
AcDbLine
 10
231.9954280000001
 20
0.0
 30
0.0
 11
231.9954280000001
 21
138.48972161057
 31
0.0
  0
SOLID
  5
5E9
330
5E5
100
AcDbEntity
  8
1
 62
     4
100
AcDbTrace
 10
-217.995428
 20
138.3328565767935
 30
0.0
 11
-217.995428
 21
134.6465866443465
 31
0.0
 12
-231.995428
 22
136.48972161057
 32
0.0
 13
-231.995428
 23
136.48972161057
 33
0.0
  0
SOLID
  5
5EA
330
5E5
100
AcDbEntity
  8
1
 62
     4
100
AcDbTrace
 10
217.9954280000001
 20
134.6465866443465
 30
0.0
 11
217.9954280000001
 21
138.3328565767935
 31
0.0
 12
231.9954280000001
 22
136.48972161057
 32
0.0
 13
231.9954280000001
 23
136.48972161057
 33
0.0
  0
MTEXT
  5
5EB
330
5E5
100
AcDbEntity
  8
1
 62
     1
100
AcDbMText
 10
-39.95557767865
 20
138.48972161057
 30
0.0
 40
14.0
 41
0.0
 71
     7
 72
     1
  1
500x500
  7
CONVERTER_11
 11
0.9999999999970619
 21
2.424068405545306E-6
 31
0.0
 73
     1
 44
0.60024009603842
  0
ENDBLK
  5
5ED
330
5E5
100
AcDbEntity
  8
0
100
AcDbBlockEnd
  0
BLOCK
  5
5F8
330
5F0
100
AcDbEntity
  8
0
100
AcDbBlockBegin
  2
*D8
 70
     1
 71
     0
 10
0.0
 20
0.0
 30
0.0
  3
*D8
  1

  0
LINE
  5
5F1
330
5F0
100
AcDbEntity
  8
1
  6
Continuous
 62
     4
100
AcDbLine
 10
70.00123500000011
 20
-67.68989519603929
 30
0.0
 11
-69.99876499999993
 21
-67.68989519603929
 31
0.0
  0
LINE
  5
5F2
330
5F0
100
AcDbEntity
  8
1
  6
Continuous
 62
     4
100
AcDbLine
 10
-69.99876499999993
 20
-67.68989519603929
 30
0.0
 11
-120.8724578208797
 21
-67.68989519603929
 31
0.0
  0
LINE
  5
5F3
330
5F0
100
AcDbEntity
  8
1
  6
Continuous
 62
     4
100
AcDbLine
 10
70.00123500000011
 20
-47.18989519603929
 30
0.0
 11
70.00123500000011
 21
-69.68989519603929
 31
0.0
  0
LINE
  5
5F4
330
5F0
100
AcDbEntity
  8
1
  6
Continuous
 62
     4
100
AcDbLine
 10
-69.99876499999993
 20
-47.1868041960393
 30
0.0
 11
-69.99876499999993
 21
-69.68989519603929
 31
0.0
  0
SOLID
  5
5F5
330
5F0
100
AcDbEntity
  8
1
 62
     4
100
AcDbTrace
 10
56.00123500000011
 20
-69.53303016226283
 30
0.0
 11
56.00123500000011
 21
-65.84676022981574
 31
0.0
 12
70.00123500000011
 22
-67.68989519603929
 32
0.0
 13
70.00123500000011
 23
-67.68989519603929
 33
0.0
  0
SOLID
  5
5F6
330
5F0
100
AcDbEntity
  8
1
 62
     4
100
AcDbTrace
 10
-55.99876499999993
 20
-65.84676022981574
 30
0.0
 11
-55.99876499999993
 21
-69.53303016226283
 31
0.0
 12
-69.99876499999993
 22
-67.68989519603929
 32
0.0
 13
-69.99876499999993
 23
-67.68989519603929
 33
0.0
  0
MTEXT
  5
5F7
330
5F0
100
AcDbEntity
  8
1
 62
     1
100
AcDbMText
 10
-127.0324578208122
 20
-65.68995085264987
 30
0.0
 40
14.0
 41
0.0
 71
     7
 72
     1
  1
\C1;\U+00d8\C1;140
  7
CONVERTER_11
 11
0.9999999999970619
 21
2.424068405545306E-6
 31
0.0
 73
     1
 44
0.60024009603842
  0
ENDBLK
  5
5F9
330
5F0
100
AcDbEntity
  8
0
100
AcDbBlockEnd
  0
BLOCK
  5
603
330
5FC
100
AcDbEntity
  8
0
100
AcDbBlockBegin
  2
*D9
 70
     1
 71
     0
 10
0.0
 20
0.0
 30
0.0
  3
*D9
  1

  0
LINE
  5
5FD
330
5FC
100
AcDbEntity
  8
1
  6
Continuous
 62
     4
100
AcDbLine
 10
129.4735261678355
 20
-348.2400010956596
 30
0.0
 11
129.4787385510807
 21
-112.2381128983225
 31
0.0
  0
LINE
  5
5FE
330
5FC
100
AcDbEntity
  8
1
  6
Continuous
 62
     4
100
AcDbLine
 10
61.15484300000003
 20
-348.2384921960393
 30
0.0
 11
131.4735261673477
 21
-348.2400452680455
 31
0.0
  0
LINE
  5
5FF
330
5FC
100
AcDbEntity
  8
1
  6
Continuous
 62
     4
100
AcDbLine
 10
78.82708100000013
 20
-112.2369941960393
 30
0.0
 11
131.4787385505929
 21
-112.2381570707084
 31
0.0
  0
SOLID
  5
600
330
5FC
100
AcDbEntity
  8
1
 62
     4
100
AcDbTrace
 10
127.6307004087629
 20
-334.2399603912397
 30
0.0
 11
131.3169703403109
 21
-334.2400418069087
 31
0.0
 12
129.4735261678355
 22
-348.2400010956596
 32
0.0
 13
129.4735261678355
 23
-348.2400010956596
 33
0.0
  0
SOLID
  5
601
330
5FC
100
AcDbEntity
  8
1
 62
     4
100
AcDbTrace
 10
131.3215643101533
 20
-126.2381536027424
 30
0.0
 11
127.6352943786053
 21
-126.2380721870734
 31
0.0
 12
129.4787385510807
 22
-112.2381128983225
 32
0.0
 13
129.4787385510807
 23
-112.2381128983225
 33
0.0
  0
MTEXT
  5
602
330
5FC
100
AcDbEntity
  8
1
 62
     1
100
AcDbMText
 10
127.4757358343518
 20
-248.1925639189762
 30
0.0
 40
14.0
 41
0.0
 71
     7
 72
     1
  1
236
  7
CONVERTER_11
 11
2.208619296965898E-5
 21
0.9999999997561
 31
0.0
 73
     1
 44
0.60024009603842
  0
ENDBLK
  5
604
330
5FC
100
AcDbEntity
  8
0
100
AcDbBlockEnd
  0
BLOCK
  5
60E
330
607
100
AcDbEntity
  8
0
100
AcDbBlockBegin
  2
*D10
 70
     1
 71
     0
 10
0.0
 20
0.0
 30
0.0
  3
*D10
  1

  0
LINE
  5
608
330
607
100
AcDbEntity
  8
1
  6
Continuous
 62
     4
100
AcDbLine
 10
241.9878081329678
 20
-348.2424861078035
 30
0.0
 11
241.9954279975611
 21
-3.2366898619297
 31
0.0
  0
LINE
  5
609
330
607
100
AcDbEntity
  8
1
  6
Continuous
 62
     4
100
AcDbLine
 10
61.15484300000011
 20
-348.2384921960393
 30
0.0
 11
243.98780813248
 21
-348.2425302801894
 31
0.0
  0
LINE
  5
60A
330
607
100
AcDbEntity
  8
1
  6
Continuous
 62
     4
100
AcDbLine
 10
231.9954280000001
 20
-3.236469
 30
0.0
 11
243.9954279970733
 21
-3.23673403431559
 31
0.0
  0
SOLID
  5
60B
330
607
100
AcDbEntity
  8
1
 62
     4
100
AcDbTrace
 10
240.1449823738951
 20
-334.2424454033836
 30
0.0
 11
243.8312523054431
 21
-334.2425268190526
 31
0.0
 12
241.9878081329678
 22
-348.2424861078035
 32
0.0
 13
241.9878081329678
 23
-348.2424861078035
 33
0.0
  0
SOLID
  5
60C
330
607
100
AcDbEntity
  8
1
 62
     4
100
AcDbTrace
 10
243.8382537566337
 20
-17.23673056634961
 30
0.0
 11
240.1519838250858
 21
-17.2366491506806
 31
0.0
 12
241.9954279975611
 22
-3.2366898619297
 32
0.0
 13
241.9954279975611
 23
-3.2366898619297
 33
0.0
  0
MTEXT
  5
60D
330
607
100
AcDbEntity
  8
1
 62
     1
100
AcDbMText
 10
239.9911271273959
 20
-197.9678362526072
 30
0.0
 40
14.0
 41
0.0
 71
     7
 72
     1
  1
345
  7
CONVERTER_11
 11
2.208619296965898E-5
 21
0.9999999997561
 31
0.0
 73
     1
 44
0.60024009603842
  0
ENDBLK
  5
60F
330
607
100
AcDbEntity
  8
0
100
AcDbBlockEnd
  0
BLOCK
  5
619
330
612
100
AcDbEntity
  8
0
100
AcDbBlockBegin
  2
*D11
 70
     1
 71
     0
 10
0.0
 20
0.0
 30
0.0
  3
*D11
  1

  0
LINE
  5
613
330
612
100
AcDbEntity
  8
1
  6
Continuous
 62
     4
100
AcDbLine
 10
185.4195262657801
 20
-348.2412367298139
 30
0.0
 11
185.426175287504
 21
-47.19244432480119
 31
0.0
  0
LINE
  5
614
330
612
100
AcDbEntity
  8
1
  6
Continuous
 62
     4
100
AcDbLine
 10
61.15484300000001
 20
-348.2384921960393
 30
0.0
 11
187.4195262652923
 21
-348.2412809021998
 31
0.0
  0
LINE
  5
615
330
612
100
AcDbEntity
  8
1
  6
Continuous
 62
     4
100
AcDbLine
 10
77.75123576475505
 20
-47.19006619530828
 30
0.0
 11
187.4261752870162
 21
-47.1924884971871
 31
0.0
  0
SOLID
  5
616
330
612
100
AcDbEntity
  8
1
 62
     4
100
AcDbTrace
 10
183.5767005067075
 20
-334.2411960253939
 30
0.0
 11
187.2629704382555
 21
-334.2412774410629
 31
0.0
 12
185.4195262657801
 22
-348.2412367298139
 32
0.0
 13
185.4195262657801
 23
-348.2412367298139
 33
0.0
  0
SOLID
  5
617
330
612
100
AcDbEntity
  8
1
 62
     4
100
AcDbTrace
 10
187.2690010465766
 20
-61.1924850292211
 30
0.0
 11
183.5827311150287
 21
-61.19240361355208
 31
0.0
 12
185.426175287504
 22
-47.19244432480119
 32
0.0
 13
185.426175287504
 23
-47.19244432480119
 33
0.0
  0
MTEXT
  5
618
330
612
100
AcDbEntity
  8
1
 62
     1
100
AcDbMText
 10
183.4224703726171
 20
-214.9404307410134
 30
0.0
 40
14.0
 41
0.0
 71
     7
 72
     1
  1
301
  7
CONVERTER_11
 11
2.208619296965898E-5
 21
0.9999999997561
 31
0.0
 73
     1
 44
0.60024009603842
  0
ENDBLK
  5
61A
330
612
100
AcDbEntity
  8
0
100
AcDbBlockEnd
  0
ENDSEC
  0
SECTION
  2
ENTITIES
  0
INSERT
  5
5E
330
1F
100
AcDbEntity
  8
0
100
AcDbBlockReference
  2
TOP
 10
337.961464640079
 20
-415.845958
 30
0.0
  0
DIMENSION
  5
5D9
330
1F
100
AcDbEntity
  8
1
100
AcDbDimension
  2
*D5
 10
80.00007109637656
 20
-420.0039432373865
 30
0.0
 11
4.36136771796508
 21
-411.0040471186728
 31
0.0
 70
    32
  1
<>
 71
     5
 42
-1.0
 53
0.00013888888889
  3
ME10_DIM_10
100
AcDbAlignedDimension
 13
-79.99997250254592
 23
-388.2583179005091
 33
0.0
 14
80.00002734934014
 24
-388.1505752395272
 34
0.0
 50
0.00007868934151
100
AcDbRotatedDimension
  0
DIMENSION
  5
5E4
330
1F
100
AcDbEntity
  8
1
100
AcDbDimension
  2
*D6
 10
-177.0
 20
96.194292433471
 30
0.0
 11
0.65492476351903
 21
105.194292433471
 31
0.0
 70
    32
  1
<>
 71
     5
 42
-1.0
 53
0.00013888888889
  3
ME10_DIM_11
100
AcDbAlignedDimension
 13
177.0000000000001
 23
-5.236469
 33
0.0
 14
-177.0
 24
-5.236469
 34
0.0
100
AcDbRotatedDimension
  0
DIMENSION
  5
5EF
330
1F
100
AcDbEntity
  8
1
100
AcDbDimension
  2
*D7
 10
-231.995428
 20
136.48972161057
 30
0.0
 11
2.04442232135
 21
145.48972161057
 31
0.0
 70
    32
  1
500x500
 71
     5
 42
-1.0
 53
0.00013888888889
  3
ME10_DIM_12
100
AcDbAlignedDimension
 13
231.9954280000001
 23
0.0
 33
0.0
 14
-231.995428
 24
0.0
 34
0.0
100
AcDbRotatedDimension
  0
DIMENSION
  5
5FB
330
1F
100
AcDbEntity
  8
1
100
AcDbDimension
  2
*D8
 10
70.00123500000011
 20
-67.68989519603929
 30
0.0
 11
-97.7724578208797
 21
-58.68989519603929
 31
0.0
 70
    32
  1
<>
 71
     5
 42
-1.0
 53
0.00013888888889
  3
ME10_DIM_13
100
AcDbAlignedDimension
 13
-69.99876499999993
 23
-47.1868041960393
 33
0.0
 14
70.00123500000007
 24
-47.18989519603929
 34
0.0
100
AcDbRotatedDimension
  0
DIMENSION
  5
606
330
1F
100
AcDbEntity
  8
1
100
AcDbDimension
  2
*D9
 10
129.4735261678355
 20
-348.2400010956596
 30
0.0
 11
120.476106884101
 21
-231.392409319723
 31
0.0
 70
    32
  1
<>
 71
     5
 42
-1.0
 53
89.99873455435723
  3
ME10_DIM_14
100
AcDbAlignedDimension
 13
78.82708100000013
 23
-112.2369941960393
 33
0.0
 14
61.15484300000003
 24
-348.2384921960393
 34
0.0
 50
89.99873455435723
100
AcDbRotatedDimension
  0
DIMENSION
  5
611
330
1F
100
AcDbEntity
  8
1
100
AcDbDimension
  2
*D10
 10
241.9878081329678
 20
-348.2424861078035
 30
0.0
 11
232.9914981771451
 21
-181.1676816533539
 31
0.0
 70
    32
  1
345
 71
     5
 42
-1.0
 53
89.99873455435723
  3
ME10_DIM_15
100
AcDbAlignedDimension
 13
231.9954280000001
 23
-3.236469
 33
0.0
 14
61.15484300000003
 24
-348.2384921960393
 34
0.0
 50
89.99873455435723
100
AcDbRotatedDimension
  0
DIMENSION
  5
61C
330
1F
100
AcDbEntity
  8
1
100
AcDbDimension
  2
*D11
 10
185.4195262657801
 20
-348.2412367298139
 30
0.0
 11
176.422795041361
 21
-200.240276141248
 31
0.0
 70
    32
  1
301
 71
     5
 42
-1.0
 53
89.99873455435723
  3
ME10_DIM_16
100
AcDbAlignedDimension
 13
77.75123576475505
 23
-47.1900661953083
 33
0.0
 14
61.15484300000003
 24
-348.2384921960393
 34
0.0
 50
89.99873455435723
100
AcDbRotatedDimension
  0
ENDSEC
  0
SECTION
  2
OBJECTS
  0
DICTIONARY
  5
C
330
0
100
AcDbDictionary
281
     1
  3
ACAD_GROUP
350
D
  3
ACAD_LAYOUT
350
1A
  3
ACAD_MLINESTYLE
350
17
  3
ACAD_PLOTSETTINGS
350
19
  3
ACAD_PLOTSTYLENAME
350
E
  3
ACAD_TABLESTYLE
350
61D
  3
ACAD_VISUALSTYLE
350
2A
  0
DICTIONARY
  5
D
102
{ACAD_REACTORS
330
C
102
}
330
C
100
AcDbDictionary
281
     1
  0
DICTIONARY
  5
1A
102
{ACAD_REACTORS
330
C
102
}
330
C
100
AcDbDictionary
281
     1
  3
Layout1
350
1E
  3
Layout2
350
26
  3
Model
350
22
  0
DICTIONARY
  5
17
102
{ACAD_REACTORS
330
C
102
}
330
C
100
AcDbDictionary
281
     1
  3
Standard
350
18
  0
DICTIONARY
  5
19
102
{ACAD_REACTORS
330
C
102
}
330
C
100
AcDbDictionary
281
     1
  0
ACDBDICTIONARYWDFLT
  5
E
102
{ACAD_REACTORS
330
C
102
}
330
C
100
AcDbDictionary
281
     1
  3
Normal
350
F
100
AcDbDictionaryWithDefault
340
F
  0
DICTIONARY
  5
61D
102
{ACAD_REACTORS
330
C
102
}
330
C
100
AcDbDictionary
281
     1
  0
DICTIONARY
  5
2A
102
{ACAD_REACTORS
330
C
102
}
330
C
100
AcDbDictionary
281
     1
  3
2dWireframe
350
2F
  3
3D Hidden
350
31
  3
3dWireframe
350
30
  3
Basic
350
32
  3
Brighten
350
36
  3
ColorChange
350
3A
  3
Conceptual
350
34
  3
Dim
350
35
  3
Facepattern
350
39
  3
Flat
350
2B
  3
FlatWithEdges
350
2C
  3
Gouraud
350
2D
  3
GouraudWithEdges
350
2E
  3
Linepattern
350
38
  3
Realistic
350
33
  3
Thicken
350
37
  0
LAYOUT
  5
1E
102
{ACAD_REACTORS
330
1A
102
}
330
1A
100
AcDbPlotSettings
  1

  2
none_device
  4

  6

 40
0.0
 41
0.0
 42
0.0
 43
0.0
 44
0.0
 45
0.0
 46
0.0
 47
0.0
 48
0.0
 49
0.0
140
0.0
141
0.0
142
1.0
143
1.0
 70
   688
 72
     0
 73
     0
 74
     5
  7

 75
    16
147
1.0
148
0.0
149
0.0
100
AcDbLayout
  1
Layout1
 70
     1
 71
     1
 10
0.0
 20
0.0
 11
12.0
 21
9.0
 12
0.0
 22
0.0
 32
0.0
 14
1.00000000000000E+20
 24
1.00000000000000E+20
 34
1.00000000000000E+20
 15
-1.00000000000000E+20
 25
-1.00000000000000E+20
 35
-1.00000000000000E+20
146
0.0
 13
0.0
 23
0.0
 33
0.0
 16
1.0
 26
0.0
 36
0.0
 17
0.0
 27
1.0
 37
0.0
 76
     0
330
1B
  0
LAYOUT
  5
26
102
{ACAD_REACTORS
330
1A
102
}
330
1A
100
AcDbPlotSettings
  1

  2
none_device
  4

  6

 40
0.0
 41
0.0
 42
0.0
 43
0.0
 44
0.0
 45
0.0
 46
0.0
 47
0.0
 48
0.0
 49
0.0
140
0.0
141
0.0
142
1.0
143
1.0
 70
   688
 72
     0
 73
     0
 74
     5
  7

 75
    16
147
1.0
148
0.0
149
0.0
100
AcDbLayout
  1
Layout2
 70
     1
 71
     2
 10
0.0
 20
0.0
 11
0.0
 21
0.0
 12
0.0
 22
0.0
 32
0.0
 14
0.0
 24
0.0
 34
0.0
 15
0.0
 25
0.0
 35
0.0
146
0.0
 13
0.0
 23
0.0
 33
0.0
 16
1.0
 26
0.0
 36
0.0
 17
0.0
 27
1.0
 37
0.0
 76
     0
330
23
  0
LAYOUT
  5
22
102
{ACAD_REACTORS
330
1A
102
}
330
1A
100
AcDbPlotSettings
  1

  2
none_device
  4

  6

 40
0.0
 41
0.0
 42
0.0
 43
0.0
 44
0.0
 45
0.0
 46
0.0
 47
0.0
 48
0.0
 49
0.0
140
0.0
141
0.0
142
1.0
143
1.0
 70
  1712
 72
     0
 73
     0
 74
     0
  7

 75
     0
147
1.0
148
0.0
149
0.0
100
AcDbLayout
  1
Model
 70
     1
 71
     0
 10
0.0
 20
0.0
 11
12.0
 21
9.0
 12
0.0
 22
0.0
 32
0.0
 14
-249.9999850166797
 24
-998.9491116087956
 34
0.0
 15
250.0000149833203
 25
152.48972161057
 35
0.0
146
0.0
 13
0.0
 23
0.0
 33
0.0
 16
1.0
 26
0.0
 36
0.0
 17
0.0
 27
1.0
 37
0.0
 76
     0
330
1F
331
29
  0
MLINESTYLE
  5
18
102
{ACAD_REACTORS
330
17
102
}
330
17
100
AcDbMlineStyle
  2
Standard
 70
     0
  3

 62
   256
 51
90.0
 52
90.0
 71
     2
 49
0.5
 62
   256
  6
BYLAYER
 49
-0.5
 62
   256
  6
BYLAYER
  0
ACDBPLACEHOLDER
  5
F
102
{ACAD_REACTORS
330
E
102
}
330
E
  0
VISUALSTYLE
  5
2F
102
{ACAD_REACTORS
330
2A
102
}
330
2A
100
AcDbVisualStyle
  2
2dWireframe
 70
     4
 71
     0
 72
     2
 73
     0
 90
        0
 40
-0.6
 41
-30.0
 62
     5
 63
     7
 74
     1
 91
        4
 64
     7
 65
   257
 75
     1
175
     1
 42
1.0
 92
        0
 66
   257
 43
1.0
 76
     1
 77
     6
 78
     2
 67
     7
 79
     5
170
     0
171
     0
290
     0
174
     0
 93
        1
 44
0.0
173
     0
291
     0
 45
0.0
1001
ACAD
1000
AcDbSavedByObjectVersion
1070
     0
  0
VISUALSTYLE
  5
31
102
{ACAD_REACTORS
330
2A
102
}
330
2A
100
AcDbVisualStyle
  2
3D Hidden
 70
     6
 71
     1
 72
     2
 73
     2
 90
        0
 40
-0.6
 41
-30.0
 62
     5
 63
     7
 74
     2
 91
        2
 64
     7
 65
   257
 75
     2
175
     1
 42
40.0
 92
        0
 66
   257
 43
1.0
 76
     1
 77
     6
 78
     2
 67
     7
 79
     3
170
     0
171
     0
290
     0
174
     0
 93
        1
 44
0.0
173
     0
291
     0
 45
0.0
1001
ACAD
1000
AcDbSavedByObjectVersion
1070
     0
  0
VISUALSTYLE
  5
30
102
{ACAD_REACTORS
330
2A
102
}
330
2A
100
AcDbVisualStyle
  2
3dWireframe
 70
     5
 71
     0
 72
     2
 73
     0
 90
        0
 40
-0.6
 41
-30.0
 62
     5
 63
     7
 74
     1
 91
        4
 64
     7
 65
   257
 75
     1
175
     1
 42
1.0
 92
        0
 66
   257
 43
1.0
 76
     1
 77
     6
 78
     2
 67
     7
 79
     5
170
     0
171
     0
290
     0
174
     0
 93
        1
 44
0.0
173
     0
291
     0
 45
0.0
1001
ACAD
1000
AcDbSavedByObjectVersion
1070
     0
  0
VISUALSTYLE
  5
32
102
{ACAD_REACTORS
330
2A
102
}
330
2A
100
AcDbVisualStyle
  2
Basic
 70
     7
 71
     1
 72
     0
 73
     1
 90
        0
 40
-0.6
 41
-30.0
 62
     5
 63
     7
 74
     0
 91
        4
 64
     7
 65
   257
 75
     1
175
     1
 42
1.0
 92
        8
 66
     7
 43
1.0
 76
     1
 77
     6
 78
     2
 67
     7
 79
     5
170
     0
171
     0
290
     0
174
     0
 93
        1
 44
0.0
173
     0
291
     1
 45
0.0
1001
ACAD
1000
AcDbSavedByObjectVersion
1070
     0
  0
VISUALSTYLE
  5
36
102
{ACAD_REACTORS
330
2A
102
}
330
2A
100
AcDbVisualStyle
  2
Brighten
 70
    12
 71
     2
 72
     2
 73
     0
 90
        0
 40
-0.6
 41
-30.0
 62
     5
 63
     7
 74
     1
 91
        4
 64
     7
 65
   257
 75
     1
175
     1
 42
1.0
 92
        8
 66
     7
 43
1.0
 76
     1
 77
     6
 78
     2
 67
     7
 79
     5
170
     0
171
     0
290
     0
174
     0
 93
        1
 44
50.0
173
     0
291
     1
 45
0.0
1001
ACAD
1000
AcDbSavedByObjectVersion
1070
     0
  0
VISUALSTYLE
  5
3A
102
{ACAD_REACTORS
330
2A
102
}
330
2A
100
AcDbVisualStyle
  2
ColorChange
 70
    16
 71
     2
 72
     2
 73
     3
 90
        0
 40
-0.6
 41
-30.0
 62
     5
 63
     8
 74
     1
 91
        4
 64
     7
 65
   257
 75
     1
175
     1
 42
1.0
 92
        8
 66
     8
 43
1.0
 76
     1
 77
     6
 78
     2
 67
     7
 79
     5
170
     0
171
     0
290
     0
174
     0
 93
        1
 44
0.0
173
     0
291
     1
 45
0.0
1001
ACAD
1000
AcDbSavedByObjectVersion
1070
     0
  0
VISUALSTYLE
  5
34
102
{ACAD_REACTORS
330
2A
102
}
330
2A
100
AcDbVisualStyle
  2
Conceptual
 70
     9
 71
     3
 72
     2
 73
     0
 90
        0
 40
-0.6
 41
-30.0
 62
     5
 63
     7
 74
     2
 91
        2
 64
     7
 65
   257
 75
     1
175
     1
 42
40.0
 92
        8
 66
     7
 43
1.0
 76
     1
 77
     6
 78
     2
 67
     7
 79
     3
170
     0
171
     0
290
     0
174
     0
 93
        1
 44
0.0
173
     0
291
     0
 45
0.0
1001
ACAD
1000
AcDbSavedByObjectVersion
1070
     0
  0
VISUALSTYLE
  5
35
102
{ACAD_REACTORS
330
2A
102
}
330
2A
100
AcDbVisualStyle
  2
Dim
 70
    11
 71
     2
 72
     2
 73
     0
 90
        0
 40
-0.6
 41
-30.0
 62
     5
 63
     7
 74
     1
 91
        4
 64
     7
 65
   257
 75
     1
175
     1
 42
1.0
 92
        8
 66
     7
 43
1.0
 76
     1
 77
     6
 78
     2
 67
     7
 79
     5
170
     0
171
     0
290
     0
174
     0
 93
        1
 44
-50.0
173
     0
291
     1
 45
0.0
1001
ACAD
1000
AcDbSavedByObjectVersion
1070
     0
  0
VISUALSTYLE
  5
39
102
{ACAD_REACTORS
330
2A
102
}
330
2A
100
AcDbVisualStyle
  2
Facepattern
 70
    15
 71
     2
 72
     2
 73
     0
 90
        0
 40
-0.6
 41
-30.0
 62
     5
 63
     7
 74
     1
 91
        4
 64
     7
 65
   257
 75
     1
175
     1
 42
1.0
 92
        8
 66
     7
 43
1.0
 76
     1
 77
     6
 78
     2
 67
     7
 79
     5
170
     0
171
     0
290
     0
174
     0
 93
        1
 44
0.0
173
     0
291
     1
 45
0.0
1001
ACAD
1000
AcDbSavedByObjectVersion
1070
     0
  0
VISUALSTYLE
  5
2B
102
{ACAD_REACTORS
330
2A
102
}
330
2A
100
AcDbVisualStyle
  2
Flat
 70
     0
 71
     2
 72
     1
 73
     1
 90
        2
 40
-0.6
 41
30.0
 62
     5
 63
     7
 74
     0
 91
        4
 64
     7
 65
   257
 75
     1
175
     1
 42
1.0
 92
        8
 66
     7
 43
1.0
 76
     1
 77
     6
 78
     2
 67
     7
 79
     5
170
     0
171
     0
290
     0
174
     0
 93
       13
 44
0.0
173
     0
291
     1
 45
0.0
1001
ACAD
1000
AcDbSavedByObjectVersion
1070
     0
  0
VISUALSTYLE
  5
2C
102
{ACAD_REACTORS
330
2A
102
}
330
2A
100
AcDbVisualStyle
  2
FlatWithEdges
 70
     1
 71
     2
 72
     1
 73
     1
 90
        2
 40
-0.6
 41
30.0
 62
     5
 63
     7
 74
     1
 91
        4
 64
     7
 65
   257
 75
     1
175
     1
 42
1.0
 92
        0
 66
   257
 43
1.0
 76
     1
 77
     6
 78
     2
 67
     7
 79
     5
170
     0
171
     0
290
     0
174
     0
 93
       13
 44
0.0
173
     0
291
     1
 45
0.0
1001
ACAD
1000
AcDbSavedByObjectVersion
1070
     0
  0
VISUALSTYLE
  5
2D
102
{ACAD_REACTORS
330
2A
102
}
330
2A
100
AcDbVisualStyle
  2
Gouraud
 70
     2
 71
     2
 72
     2
 73
     1
 90
        2
 40
-0.6
 41
30.0
 62
     5
 63
     7
 74
     0
 91
        4
 64
     7
 65
   257
 75
     1
175
     1
 42
1.0
 92
        0
 66
     7
 43
1.0
 76
     1
 77
     6
 78
     2
 67
     7
 79
     5
170
     0
171
     0
290
     0
174
     0
 93
       13
 44
0.0
173
     0
291
     1
 45
0.0
1001
ACAD
1000
AcDbSavedByObjectVersion
1070
     0
  0
VISUALSTYLE
  5
2E
102
{ACAD_REACTORS
330
2A
102
}
330
2A
100
AcDbVisualStyle
  2
GouraudWithEdges
 70
     3
 71
     2
 72
     2
 73
     1
 90
        2
 40
-0.6
 41
30.0
 62
     5
 63
     7
 74
     1
 91
        4
 64
     7
 65
   257
 75
     1
175
     1
 42
1.0
 92
        0
 66
   257
 43
1.0
 76
     1
 77
     6
 78
     2
 67
     7
 79
     5
170
     0
171
     0
290
     0
174
     0
 93
       13
 44
0.0
173
     0
291
     1
 45
0.0
1001
ACAD
1000
AcDbSavedByObjectVersion
1070
     0
  0
VISUALSTYLE
  5
38
102
{ACAD_REACTORS
330
2A
102
}
330
2A
100
AcDbVisualStyle
  2
Linepattern
 70
    14
 71
     2
 72
     2
 73
     0
 90
        0
 40
-0.6
 41
-30.0
 62
     5
 63
     7
 74
     1
 91
        4
 64
     7
 65
   257
 75
     7
175
     7
 42
1.0
 92
        8
 66
     7
 43
1.0
 76
     1
 77
     6
 78
     2
 67
     7
 79
     5
170
     0
171
     0
290
     0
174
     0
 93
        1
 44
0.0
173
     0
291
     1
 45
0.0
1001
ACAD
1000
AcDbSavedByObjectVersion
1070
     0
  0
VISUALSTYLE
  5
33
102
{ACAD_REACTORS
330
2A
102
}
330
2A
100
AcDbVisualStyle
  2
Realistic
 70
     8
 71
     2
 72
     2
 73
     0
 90
        0
 40
-0.6
 41
-30.0
 62
     5
 63
     7
 74
     1
 91
        0
 64
     7
 65
   257
 75
     1
175
     1
 42
1.0
 92
        8
 66
     8
 43
1.0
 76
     1
 77
     6
 78
     2
 67
     7
 79
     5
170
     0
171
     0
290
     0
174
     0
 93
       13
 44
0.0
173
     0
291
     0
 45
0.0
1001
ACAD
1000
AcDbSavedByObjectVersion
1070
     0
  0
VISUALSTYLE
  5
37
102
{ACAD_REACTORS
330
2A
102
}
330
2A
100
AcDbVisualStyle
  2
Thicken
 70
    13
 71
     2
 72
     2
 73
     0
 90
        0
 40
-0.6
 41
-30.0
 62
     5
 63
     7
 74
     1
 91
        4
 64
     7
 65
   257
 75
     1
175
     1
 42
1.0
 92
       12
 66
     7
 43
1.0
 76
     1
 77
     6
 78
     2
 67
     7
 79
     5
170
     0
171
     0
290
     0
174
     0
 93
        1
 44
0.0
173
     0
291
     1
 45
0.0
1001
ACAD
1000
AcDbSavedByObjectVersion
1070
     0
  0
ENDSEC
  0
EOF
