  0
SECTION
  2
HEADER
  9
$ACADVER
  1
AC1015
  9
$ACADMAINTVER
 70
     6
  9
$DWGCODEPAGE
  3
ANSI_1252
  9
$INSBASE
 10
0.0
 20
0.0
 30
0.0
  9
$EXTMIN
 10
-177.000403
 20
-813.7870265400525
 30
0.0
  9
$EXTMAX
 10
187.0004029970733
 20
158.3856657210126
 30
0.0
  9
$LIMMIN
 10
0.0
 20
0.0
  9
$LIMMAX
 10
12.0
 20
9.0
  9
$ORTHOMODE
 70
     0
  9
$REGENMODE
 70
     1
  9
$FILLMODE
 70
     1
  9
$QTEXTMODE
 70
     0
  9
$MIRRTEXT
 70
     1
  9
$LTSCALE
 40
1.0
  9
$ATTMODE
 70
     1
  9
$TEXTSIZE
 40
0.2
  9
$TRACEWID
 40
0.05
  9
$TEXTSTYLE
  7
Standard
  9
$CLAYER
  8
0
  9
$CELTYPE
  6
ByLayer
  9
$CECOLOR
 62
   256
  9
$CELTSCALE
 40
1.0
  9
$DISPSILH
 70
     0
  9
$DIMSCALE
 40
1.0
  9
$DIMASZ
 40
0.18
  9
$DIMEXO
 40
0.0625
  9
$DIMDLI
 40
0.38
  9
$DIMRND
 40
0.0
  9
$DIMDLE
 40
0.0
  9
$DIMEXE
 40
0.18
  9
$DIMTP
 40
0.0
  9
$DIMTM
 40
0.0
  9
$DIMTXT
 40
0.18
  9
$DIMCEN
 40
0.09
  9
$DIMTSZ
 40
0.0
  9
$DIMTOL
 70
     0
  9
$DIMLIM
 70
     0
  9
$DIMTIH
 70
     1
  9
$DIMTOH
 70
     1
  9
$DIMSE1
 70
     0
  9
$DIMSE2
 70
     0
  9
$DIMTAD
 70
     0
  9
$DIMZIN
 70
     0
  9
$DIMBLK
  1

  9
$DIMASO
 70
     1
  9
$DIMSHO
 70
     1
  9
$DIMPOST
  1

  9
$DIMAPOST
  1

  9
$DIMALT
 70
     0
  9
$DIMALTD
 70
     2
  9
$DIMALTF
 40
25.4
  9
$DIMLFAC
 40
1.0
  9
$DIMTOFL
 70
     0
  9
$DIMTVP
 40
0.0
  9
$DIMTIX
 70
     0
  9
$DIMSOXD
 70
     0
  9
$DIMSAH
 70
     0
  9
$DIMBLK1
  1

  9
$DIMBLK2
  1

  9
$DIMSTYLE
  2
Standard
  9
$DIMCLRD
 70
     0
  9
$DIMCLRE
 70
     0
  9
$DIMCLRT
 70
     0
  9
$DIMTFAC
 40
1.0
  9
$DIMGAP
 40
0.09
  9
$DIMJUST
 70
     0
  9
$DIMSD1
 70
     0
  9
$DIMSD2
 70
     0
  9
$DIMTOLJ
 70
     1
  9
$DIMTZIN
 70
     0
  9
$DIMALTZ
 70
     0
  9
$DIMALTTZ
 70
     0
  9
$DIMUPT
 70
     0
  9
$DIMDEC
 70
     4
  9
$DIMTDEC
 70
     4
  9
$DIMALTU
 70
     2
  9
$DIMALTTD
 70
     2
  9
$DIMTXSTY
  7
Standard
  9
$DIMAUNIT
 70
     0
  9
$DIMADEC
 70
     0
  9
$DIMALTRND
 40
0.0
  9
$DIMAZIN
 70
     0
  9
$DIMDSEP
 70
    46
  9
$DIMATFIT
 70
     3
  9
$DIMFRAC
 70
     0
  9
$DIMLDRBLK
  1

  9
$DIMLUNIT
 70
     2
  9
$DIMLWD
 70
    -2
  9
$DIMLWE
 70
    -2
  9
$DIMTMOVE
 70
     0
  9
$LUNITS
 70
     2
  9
$LUPREC
 70
     4
  9
$SKETCHINC
 40
0.1
  9
$FILLETRAD
 40
0.5
  9
$AUNITS
 70
     0
  9
$AUPREC
 70
     0
  9
$MENU
  1
.
  9
$ELEVATION
 40
0.0
  9
$PELEVATION
 40
0.0
  9
$THICKNESS
 40
0.0
  9
$LIMCHECK
 70
     0
  9
$CHAMFERA
 40
0.5
  9
$CHAMFERB
 40
0.5
  9
$CHAMFERC
 40
1.0
  9
$CHAMFERD
 40
0.0
  9
$SKPOLY
 70
     0
  9
$TDCREATE
 40
2454725.589666227
  9
$TDUCREATE
 40
2454725.506332893
  9
$TDUPDATE
 40
2454725.589666239
  9
$TDUUPDATE
 40
2454725.506332905
  9
$TDINDWG
 40
0.0000000116
  9
$TDUSRTIMER
 40
0.0000000116
  9
$USRTIMER
 70
     1
  9
$ANGBASE
 50
0.0
  9
$ANGDIR
 70
     0
  9
$PDMODE
 70
     0
  9
$PDSIZE
 40
0.0
  9
$PLINEWID
 40
0.0
  9
$SPLFRAME
 70
     0
  9
$SPLINETYPE
 70
     6
  9
$SPLINESEGS
 70
     8
  9
$HANDSEED
  5
5C0
  9
$SURFTAB1
 70
     6
  9
$SURFTAB2
 70
     6
  9
$SURFTYPE
 70
     6
  9
$SURFU
 70
     6
  9
$SURFV
 70
     6
  9
$UCSBASE
  2

  9
$UCSNAME
  2

  9
$UCSORG
 10
0.0
 20
0.0
 30
0.0
  9
$UCSXDIR
 10
1.0
 20
0.0
 30
0.0
  9
$UCSYDIR
 10
0.0
 20
1.0
 30
0.0
  9
$UCSORTHOREF
  2

  9
$UCSORTHOVIEW
 70
     0
  9
$UCSORGTOP
 10
0.0
 20
0.0
 30
0.0
  9
$UCSORGBOTTOM
 10
0.0
 20
0.0
 30
0.0
  9
$UCSORGLEFT
 10
0.0
 20
0.0
 30
0.0
  9
$UCSORGRIGHT
 10
0.0
 20
0.0
 30
0.0
  9
$UCSORGFRONT
 10
0.0
 20
0.0
 30
0.0
  9
$UCSORGBACK
 10
0.0
 20
0.0
 30
0.0
  9
$PUCSBASE
  2

  9
$PUCSNAME
  2

  9
$PUCSORG
 10
0.0
 20
0.0
 30
0.0
  9
$PUCSXDIR
 10
1.0
 20
0.0
 30
0.0
  9
$PUCSYDIR
 10
0.0
 20
1.0
 30
0.0
  9
$PUCSORTHOREF
  2

  9
$PUCSORTHOVIEW
 70
     0
  9
$PUCSORGTOP
 10
0.0
 20
0.0
 30
0.0
  9
$PUCSORGBOTTOM
 10
0.0
 20
0.0
 30
0.0
  9
$PUCSORGLEFT
 10
0.0
 20
0.0
 30
0.0
  9
$PUCSORGRIGHT
 10
0.0
 20
0.0
 30
0.0
  9
$PUCSORGFRONT
 10
0.0
 20
0.0
 30
0.0
  9
$PUCSORGBACK
 10
0.0
 20
0.0
 30
0.0
  9
$USERI1
 70
     0
  9
$USERI2
 70
     0
  9
$USERI3
 70
     0
  9
$USERI4
 70
     0
  9
$USERI5
 70
     0
  9
$USERR1
 40
15.5
  9
$USERR2
 40
0.0
  9
$USERR3
 40
0.0
  9
$USERR4
 40
0.0
  9
$USERR5
 40
0.0
  9
$WORLDVIEW
 70
     1
  9
$SHADEDGE
 70
     3
  9
$SHADEDIF
 70
    70
  9
$TILEMODE
 70
     1
  9
$MAXACTVP
 70
    64
  9
$PINSBASE
 10
0.0
 20
0.0
 30
0.0
  9
$PLIMCHECK
 70
     0
  9
$PEXTMIN
 10
1.00000000000000E+20
 20
1.00000000000000E+20
 30
1.00000000000000E+20
  9
$PEXTMAX
 10
-1.00000000000000E+20
 20
-1.00000000000000E+20
 30
-1.00000000000000E+20
  9
$PLIMMIN
 10
0.0
 20
0.0
  9
$PLIMMAX
 10
12.0
 20
9.0
  9
$UNITMODE
 70
     0
  9
$VISRETAIN
 70
     1
  9
$PLINEGEN
 70
     0
  9
$PSLTSCALE
 70
     1
  9
$TREEDEPTH
 70
  3020
  9
$CMLSTYLE
  2
Standard
  9
$CMLJUST
 70
     0
  9
$CMLSCALE
 40
1.0
  9
$PROXYGRAPHICS
 70
     1
  9
$MEASUREMENT
 70
     1
  9
$CELWEIGHT
370
    -1
  9
$ENDCAPS
280
     0
  9
$JOINSTYLE
280
     0
  9
$LWDISPLAY
290
     0
  9
$INSUNITS
 70
     1
  9
$HYPERLINKBASE
  1

  9
$STYLESHEET
  1

  9
$XEDIT
290
     1
  9
$CEPSNTYPE
380
     0
  9
$PSTYLEMODE
290
     1
  9
$FINGERPRINTGUID
  2
{C3852643-6FA0-4F0C-AC82-56ADD5C96490}
  9
$VERSIONGUID
  2
{FAEB1C32-E019-11D5-929B-00C0DF256EC4}
  9
$EXTNAMES
290
     1
  9
$PSVPSCALE
 40
0.0
  9
$OLESTARTUP
290
     0
  0
ENDSEC
  0
SECTION
  2
CLASSES
  0
CLASS
  1
ACDBDICTIONARYWDFLT
  2
AcDbDictionaryWithDefault
  3
ObjectDBX Classes
 90
        0
280
     0
281
     0
  0
CLASS
  1
VISUALSTYLE
  2
AcDbVisualStyle
  3
ObjectDBX Classes
 90
     4095
280
     0
281
     0
  0
CLASS
  1

  2
exOdDbPolyline
  3

 90
        0
280
     0
281
     1
  0
CLASS
  1

  2
exOdDbCircle
  3

 90
        0
280
     0
281
     1
  0
CLASS
  1
ACDBPLACEHOLDER
  2
AcDbPlaceHolder
  3
ObjectDBX Classes
 90
        0
280
     0
281
     0
  0
CLASS
  1
LAYOUT
  2
AcDbLayout
  3
ObjectDBX Classes
 90
        0
280
     0
281
     0
  0
ENDSEC
  0
SECTION
  2
TABLES
  0
TABLE
  2
VPORT
  5
8
330
0
100
AcDbSymbolTable
 70
     1
  0
VPORT
  5
29
330
8
100
AcDbSymbolTableRecord
100
AcDbViewportTableRecord
  2
*Active
 70
     0
 10
0.0
 20
0.0
 11
1.0
 21
1.0
 12
4.99999999853665
 22
-327.7006804095199
 13
0.0
 23
0.0
 14
0.5
 24
0.5
 15
0.5
 25
0.5
 16
0.0
 26
0.0
 36
1.0
 17
0.0
 27
0.0
 37
0.0
 40
1069.389961487172
 41
1.60267857142857
 42
50.0
 43
0.0
 44
0.0
 50
0.0
 51
0.0
 71
     0
 72
   100
 73
     1
 74
     3
 75
     0
 76
     0
 77
     0
 78
     0
281
     0
 65
     1
110
0.0
120
0.0
130
0.0
111
1.0
121
0.0
131
0.0
112
0.0
122
1.0
132
0.0
 79
     0
146
0.0
  0
ENDTAB
  0
TABLE
  2
LTYPE
  5
5
330
0
100
AcDbSymbolTable
 70
     9
  0
LTYPE
  5
14
330
5
100
AcDbSymbolTableRecord
100
AcDbLinetypeTableRecord
  2
ByBlock
 70
     0
  3

 72
    65
 73
     0
 40
0.0
  0
LTYPE
  5
15
330
5
100
AcDbSymbolTableRecord
100
AcDbLinetypeTableRecord
  2
ByLayer
 70
     0
  3

 72
    65
 73
     0
 40
0.0
  0
LTYPE
  5
16
330
5
100
AcDbSymbolTableRecord
100
AcDbLinetypeTableRecord
  2
Continuous
 70
     0
  3
Solid line
 72
    65
 73
     0
 40
0.0
  0
LTYPE
  5
3B
330
5
100
AcDbSymbolTableRecord
100
AcDbLinetypeTableRecord
  2
DASHED
 70
     0
  3
Dashed
 72
    65
 73
     2
 40
15.0
 49
7.0
 74
     0
 49
-8.0
 74
     0
  0
LTYPE
  5
3C
330
5
100
AcDbSymbolTableRecord
100
AcDbLinetypeTableRecord
  2
DOTTED
 70
     0
  3
Dotted
 72
    65
 73
     2
 40
1.0
 49
0.0
 74
     0
 49
-1.0
 74
     0
  0
LTYPE
  5
3D
330
5
100
AcDbSymbolTableRecord
100
AcDbLinetypeTableRecord
  2
DOT_CENTER
 70
     0
  3
Dot_Center
 72
    65
 73
     4
 40
14.0
 49
12.0
 74
     0
 49
-1.0
 74
     0
 49
0.0
 74
     0
 49
-1.0
 74
     0
  0
LTYPE
  5
3E
330
5
100
AcDbSymbolTableRecord
100
AcDbLinetypeTableRecord
  2
LONG_DASHED
 70
     0
  3
Long_Dashed
 72
    65
 73
     2
 40
15.0
 49
10.0
 74
     0
 49
-5.0
 74
     0
  0
LTYPE
  5
3F
330
5
100
AcDbSymbolTableRecord
100
AcDbLinetypeTableRecord
  2
DASH_CENTER
 70
     0
  3
Dash_Center
 72
    65
 73
     4
 40
14.0
 49
11.0
 74
     0
 49
-1.0
 74
     0
 49
1.0
 74
     0
 49
-1.0
 74
     0
  0
LTYPE
  5
40
330
5
100
AcDbSymbolTableRecord
100
AcDbLinetypeTableRecord
  2
PHANTOM
 70
     0
  3
Phantom
 72
    65
 73
     6
 40
13.0
 49
10.0
 74
     0
 49
-1.0
 74
     0
 49
0.0
 74
     0
 49
-1.0
 74
     0
 49
0.0
 74
     0
 49
-1.0
 74
     0
  0
LTYPE
  5
41
330
5
100
AcDbSymbolTableRecord
100
AcDbLinetypeTableRecord
  2
CENTER_DASH_DASH
 70
     0
  3
Center_Dash_Dash
 72
    65
 73
     6
 40
14.0
 49
9.0
 74
     0
 49
-1.0
 74
     0
 49
1.0
 74
     0
 49
-1.0
 74
     0
 49
1.0
 74
     0
 49
-1.0
 74
     0
  0
LTYPE
  5
42
330
5
100
AcDbSymbolTableRecord
100
AcDbLinetypeTableRecord
  2
CENTER
 70
     0
  3
CENTER
 72
    65
 73
     4
 40
16.0
 49
10.0
 74
     0
 49
-3.0
 74
     0
 49
0.0
 74
     0
 49
-3.0
 74
     0
  0
ENDTAB
  0
TABLE
  2
LAYER
  5
2
330
0
100
AcDbSymbolTable
 70
    12
  0
LAYER
  5
10
330
2
100
AcDbSymbolTableRecord
100
AcDbLayerTableRecord
  2
0
 70
     0
 62
     7
  6
Continuous
370
    -3
390
F
  0
LAYER
  5
43
330
2
100
AcDbSymbolTableRecord
100
AcDbLayerTableRecord
  2
1
 70
     0
 62
     7
  6
Continuous
370
    -3
390
F
  0
LAYER
  5
44
330
2
100
AcDbSymbolTableRecord
100
AcDbLayerTableRecord
  2
LC-001-002-----0
 70
     0
 62
     7
  6
Continuous
370
    -3
390
F
  0
LAYER
  5
45
330
2
100
AcDbSymbolTableRecord
100
AcDbLayerTableRecord
  2
LC-002-002-----0
 70
     0
 62
     7
  6
Continuous
370
    -3
390
F
  0
LAYER
  5
46
330
2
100
AcDbSymbolTableRecord
100
AcDbLayerTableRecord
  2
LC-002-002-RND-0
 70
     0
 62
     7
  6
Continuous
370
    -3
390
F
  0
LAYER
  5
47
330
2
100
AcDbSymbolTableRecord
100
AcDbLayerTableRecord
  2
LC-003-002-RND-0
 70
     0
 62
     7
  6
Continuous
370
    -3
390
F
  0
LAYER
  5
48
330
2
100
AcDbSymbolTableRecord
100
AcDbLayerTableRecord
  2
LC-004-005-----0
 70
     0
 62
     7
  6
Continuous
370
    -3
390
F
  0
LAYER
  5
49
330
2
100
AcDbSymbolTableRecord
100
AcDbLayerTableRecord
  2
LC-004-006-MLN-0
 70
     0
 62
     7
  6
Continuous
370
    -3
390
F
  0
LAYER
  5
4A
330
2
100
AcDbSymbolTableRecord
100
AcDbLayerTableRecord
  2
LC-005-003-----0
 70
     0
 62
     7
  6
Continuous
370
    -3
390
F
  0
LAYER
  5
4B
330
2
100
AcDbSymbolTableRecord
100
AcDbLayerTableRecord
  2
LC-006-002-----0
 70
     0
 62
     7
  6
Continuous
370
    -3
390
F
  0
LAYER
  5
4C
330
2
100
AcDbSymbolTableRecord
100
AcDbLayerTableRecord
  2
LC-006-221-----0
 70
     0
 62
     7
  6
Continuous
370
    -3
390
F
  0
LAYER
  5
4D
330
2
100
AcDbSymbolTableRecord
100
AcDbLayerTableRecord
  2
LC-007-006-MLN-0
 70
     0
 62
     7
  6
Continuous
370
    -3
390
F
  0
ENDTAB
  0
TABLE
  2
STYLE
  5
3
330
0
100
AcDbSymbolTable
 70
     2
  0
STYLE
  5
11
330
3
100
AcDbSymbolTableRecord
100
AcDbTextStyleTableRecord
  2
Standard
 70
     0
 40
0.0
 41
1.0
 50
0.0
 71
     0
 42
0.2
  3
txt
  4

  0
STYLE
  5
581
330
3
100
AcDbSymbolTableRecord
100
AcDbTextStyleTableRecord
  2
CONVERTER_11
 70
     0
 40
0.0
 41
0.9
 50
0.0
 71
     0
 42
0.2
  3
txt.shx
  4

  0
ENDTAB
  0
TABLE
  2
VIEW
  5
6
330
0
100
AcDbSymbolTable
 70
     0
  0
ENDTAB
  0
TABLE
  2
UCS
  5
7
330
0
100
AcDbSymbolTable
 70
     0
  0
ENDTAB
  0
TABLE
  2
APPID
  5
9
330
0
100
AcDbSymbolTable
 70
     1
  0
APPID
  5
12
330
9
100
AcDbSymbolTableRecord
100
AcDbRegAppTableRecord
  2
ACAD
 70
     0
  0
ENDTAB
  0
TABLE
  2
DIMSTYLE
  5
A
330
0
100
AcDbSymbolTable
 70
     7
100
AcDbDimStyleTable
  0
DIMSTYLE
105
27
330
A
100
AcDbSymbolTableRecord
100
AcDbDimStyleTableRecord
  2
Standard
 70
     0
340
11
  0
DIMSTYLE
105
585
102
{ACAD_REACTORS
330
586
102
}
330
A
100
AcDbSymbolTableRecord
100
AcDbDimStyleTableRecord
  2
ME10_DIM_10
 70
     0
  3
DN<>
 41
14.0
 42
0.0
 44
2.0
 73
     0
 74
     0
 77
     1
 78
     8
140
14.0
147
2.0
172
     1
173
     1
176
     4
177
     4
178
     1
271
     2
340
581
  0
DIMSTYLE
105
591
102
{ACAD_REACTORS
330
592
102
}
330
A
100
AcDbSymbolTableRecord
100
AcDbDimStyleTableRecord
  2
ME10_DIM_11
 70
     0
  3
Ø<>
 41
12.0
 42
0.0
 44
2.0
 73
     0
 74
     0
 77
     1
 78
     8
140
12.0
147
2.0
172
     1
173
     1
176
     4
177
     4
178
     1
271
     2
340
581
  0
DIMSTYLE
105
59C
102
{ACAD_REACTORS
330
59D
102
}
330
A
100
AcDbSymbolTableRecord
100
AcDbDimStyleTableRecord
  2
ME10_DIM_12
 70
     0
  3
Ø<>
 41
12.0
 42
0.0
 44
2.0
 73
     0
 74
     0
 77
     1
 78
     8
140
12.0
147
2.0
172
     1
173
     1
176
     4
177
     4
178
     1
271
     2
340
581
  0
DIMSTYLE
105
5A7
102
{ACAD_REACTORS
330
5A8
102
}
330
A
100
AcDbSymbolTableRecord
100
AcDbDimStyleTableRecord
  2
ME10_DIM_13
 70
     0
 41
14.0
 42
0.0
 44
2.0
 73
     0
 74
     0
 77
     1
 78
     8
140
14.0
147
2.0
172
     1
173
     1
176
     4
177
     4
178
     1
271
     2
340
581
  0
DIMSTYLE
105
5B2
102
{ACAD_REACTORS
330
5B3
102
}
330
A
100
AcDbSymbolTableRecord
100
AcDbDimStyleTableRecord
  2
ME10_DIM_14
 70
     0
 41
14.0
 42
0.0
 44
2.0
 73
     0
 74
     0
 77
     1
 78
     8
140
14.0
147
2.0
172
     1
173
     1
176
     4
177
     4
178
     1
271
     0
340
581
  0
DIMSTYLE
105
5BD
102
{ACAD_REACTORS
330
5BE
102
}
330
A
100
AcDbSymbolTableRecord
100
AcDbDimStyleTableRecord
  2
ME10_DIM_15
 70
     0
 41
14.0
 42
0.0
 44
2.0
 73
     0
 74
     0
 77
     1
 78
     8
140
14.0
147
2.0
172
     1
173
     1
176
     4
177
     4
178
     1
271
     2
340
581
  0
ENDTAB
  0
TABLE
  2
BLOCK_RECORD
  5
1
330
0
100
AcDbSymbolTable
 70
    14
  0
BLOCK_RECORD
  5
1F
330
1
100
AcDbSymbolTableRecord
100
AcDbBlockTableRecord
  2
*Model_Space
340
22
  0
BLOCK_RECORD
  5
1B
330
1
100
AcDbSymbolTableRecord
100
AcDbBlockTableRecord
  2
*Paper_Space
340
1E
  0
BLOCK_RECORD
  5
23
330
1
100
AcDbSymbolTableRecord
100
AcDbBlockTableRecord
  2
*Paper_Space0
340
26
  0
BLOCK_RECORD
  5
4E
330
1
100
AcDbSymbolTableRecord
100
AcDbBlockTableRecord
  2
Bauschutz_062_9E
340
0
102
{BLKREFS
331
65
102
}
  0
BLOCK_RECORD
  5
51
330
1
100
AcDbSymbolTableRecord
100
AcDbBlockTableRecord
  2
TOP
340
0
102
{BLKREFS
331
58
102
}
  0
BLOCK_RECORD
  5
54
330
1
100
AcDbSymbolTableRecord
100
AcDbBlockTableRecord
  2
HL_69_5_Renovierungs-Dachablauf__1
340
0
102
{BLKREFS
331
59
102
}
  0
BLOCK_RECORD
  5
57
330
1
100
AcDbSymbolTableRecord
100
AcDbBlockTableRecord
  2
HL_69_5_Renovierungs-Dachablauf__2
340
0
102
{BLKREFS
331
66
102
}
  0
BLOCK_RECORD
  5
5C
330
1
100
AcDbSymbolTableRecord
100
AcDbBlockTableRecord
  2
062_1E_Laubfangkorb
340
0
102
{BLKREFS
331
67
102
}
  0
BLOCK_RECORD
  5
5F
330
1
100
AcDbSymbolTableRecord
100
AcDbBlockTableRecord
  2
PVC_Manschette
340
0
102
{BLKREFS
331
68
102
}
  0
BLOCK_RECORD
  5
62
330
1
100
AcDbSymbolTableRecord
100
AcDbBlockTableRecord
  2
Draufsicht
340
0
102
{BLKREFS
331
69
102
}
  0
BLOCK_RECORD
  5
57B
330
1
100
AcDbSymbolTableRecord
100
AcDbBlockTableRecord
  2
*D8
340
0
  0
BLOCK_RECORD
  5
587
330
1
100
AcDbSymbolTableRecord
100
AcDbBlockTableRecord
  2
*D9
340
0
  0
BLOCK_RECORD
  5
593
330
1
100
AcDbSymbolTableRecord
100
AcDbBlockTableRecord
  2
*D10
340
0
  0
BLOCK_RECORD
  5
59E
330
1
100
AcDbSymbolTableRecord
100
AcDbBlockTableRecord
  2
*D11
340
0
  0
BLOCK_RECORD
  5
5A9
330
1
100
AcDbSymbolTableRecord
100
AcDbBlockTableRecord
  2
*D12
340
0
  0
BLOCK_RECORD
  5
5B4
330
1
100
AcDbSymbolTableRecord
100
AcDbBlockTableRecord
  2
*D13
340
0
  0
ENDTAB
  0
ENDSEC
  0
SECTION
  2
BLOCKS
  0
BLOCK
  5
20
330
1F
100
AcDbEntity
  8
0
100
AcDbBlockBegin
  2
*Model_Space
 70
     0
 71
     0
 10
0.0
 20
0.0
 30
0.0
  3
*Model_Space
  1

  0
ENDBLK
  5
21
330
1F
100
AcDbEntity
  8
0
100
AcDbBlockEnd
  0
BLOCK
  5
1C
330
1B
100
AcDbEntity
 67
     1
  8
0
100
AcDbBlockBegin
  2
*Paper_Space
 70
     0
 71
     0
 10
0.0
 20
0.0
 30
0.0
  3
*Paper_Space
  1

  0
ENDBLK
  5
1D
330
1B
100
AcDbEntity
 67
     1
  8
0
100
AcDbBlockEnd
  0
BLOCK
  5
24
330
23
100
AcDbEntity
  8
0
100
AcDbBlockBegin
  2
*Paper_Space0
 70
     0
 71
     0
 10
0.0
 20
0.0
 30
0.0
  3
*Paper_Space0
  1

  0
ENDBLK
  5
25
330
23
100
AcDbEntity
  8
0
100
AcDbBlockEnd
  0
BLOCK
  5
4F
330
4E
100
AcDbEntity
  8
0
100
AcDbBlockBegin
  2
Bauschutz_062_9E
 70
     0
 71
     0
 10
-646.5967991262041
 20
-316.6085973536137
 30
0.0
  3
Bauschutz_062_9E
  1

  0
LINE
  5
6A
330
4E
100
AcDbEntity
  8
1
  6
Continuous
 62
     7
100
AcDbLine
 10
67.99999687379386
 20
154.4494026463872
 30
0.0
 11
-68.00000312620614
 21
154.4494026463872
 31
0.0
  0
LINE
  5
6B
330
4E
100
AcDbEntity
  8
1
  6
Continuous
 62
     7
100
AcDbLine
 10
-78.75000312620614
 20
152.4494026463872
 30
0.0
 11
78.74999687379386
 21
152.4494026463872
 31
0.0
  0
LINE
  5
6C
330
4E
100
AcDbEntity
  8
LC-006-002-----0
  6
Continuous
 62
     7
100
AcDbLine
 10
111.4999968737939
 20
154.4494026463872
 30
0.0
 11
111.4999968737939
 21
152.4494026463872
 31
0.0
  0
LINE
  5
6D
330
4E
100
AcDbEntity
  8
LC-006-002-----0
  6
Continuous
 62
     7
100
AcDbLine
 10
111.4999968737939
 20
154.4494026463872
 30
0.0
 11
67.99999687379386
 21
154.4494026463872
 31
0.0
  0
LINE
  5
6E
330
4E
100
AcDbEntity
  8
LC-006-002-----0
  6
Continuous
 62
     7
100
AcDbLine
 10
111.4999968737939
 20
152.4494026463872
 30
0.0
 11
78.74999687379386
 21
152.4494026463872
 31
0.0
  0
LINE
  5
6F
330
4E
100
AcDbEntity
  8
LC-006-002-----0
  6
Continuous
 62
     7
100
AcDbLine
 10
78.74999687379386
 20
137.9494026463872
 30
0.0
 11
-0.00000312620614
 21
137.9494026463872
 31
0.0
  0
LINE
  5
70
330
4E
100
AcDbEntity
  8
LC-006-002-----0
  6
Continuous
 62
     7
100
AcDbLine
 10
78.74999687379386
 20
137.9494026463872
 30
0.0
 11
78.74999687379386
 21
152.4494026463872
 31
0.0
  0
LINE
  5
71
330
4E
100
AcDbEntity
  8
LC-006-002-----0
  6
Continuous
 62
     7
100
AcDbLine
 10
-111.5000031262061
 20
154.4494026463872
 30
0.0
 11
-111.5000031262061
 21
152.4494026463872
 31
0.0
  0
LINE
  5
72
330
4E
100
AcDbEntity
  8
LC-006-002-----0
  6
Continuous
 62
     7
100
AcDbLine
 10
-111.5000031262061
 20
154.4494026463872
 30
0.0
 11
-68.00000312620614
 21
154.4494026463872
 31
0.0
  0
LINE
  5
73
330
4E
100
AcDbEntity
  8
LC-006-002-----0
  6
Continuous
 62
     7
100
AcDbLine
 10
-111.5000031262061
 20
152.4494026463872
 30
0.0
 11
-78.75000312620614
 21
152.4494026463872
 31
0.0
  0
LINE
  5
74
330
4E
100
AcDbEntity
  8
LC-006-002-----0
  6
Continuous
 62
     7
100
AcDbLine
 10
-78.75000312620614
 20
137.9494026463872
 30
0.0
 11
-0.00000312620614
 21
137.9494026463872
 31
0.0
  0
LINE
  5
75
330
4E
100
AcDbEntity
  8
LC-006-002-----0
  6
Continuous
 62
     7
100
AcDbLine
 10
-78.75000312620614
 20
137.9494026463872
 30
0.0
 11
-78.75000312620614
 21
152.4494026463872
 31
0.0
  0
LINE
  5
76
330
4E
100
AcDbEntity
  8
LC-006-002-----0
  6
Continuous
 62
     7
100
AcDbLine
 10
67.99999687379386
 20
154.4494026463872
 30
0.0
 11
66.24999687379386
 21
156.4494026463872
 31
0.0
  0
LINE
  5
77
330
4E
100
AcDbEntity
  8
LC-006-002-----0
  6
Continuous
 62
     7
100
AcDbLine
 10
-68.00000312620614
 20
154.4494026463872
 30
0.0
 11
-66.25000312620614
 21
156.4494026463872
 31
0.0
  0
LINE
  5
78
330
4E
100
AcDbEntity
  8
1
  6
Continuous
 62
     7
100
AcDbLine
 10
-66.25000312620614
 20
156.4494026463872
 30
0.0
 11
-0.00000312620614
 21
156.4494026463872
 31
0.0
  0
LINE
  5
79
330
4E
100
AcDbEntity
  8
1
  6
Continuous
 62
     7
100
AcDbLine
 10
66.24999687379386
 20
156.4494026463872
 30
0.0
 11
-0.00000312620614
 21
156.4494026463872
 31
0.0
  0
LINE
  5
7A
330
4E
100
AcDbEntity
  8
1
  6
PHANTOM
 62
     2
100
AcDbLine
 10
-0.00000312620614
 20
135.0920682331162
 30
0.0
 11
-0.00000312620614
 21
158.3856657210126
 31
0.0
  0
ENDBLK
  5
50
330
4E
100
AcDbEntity
  8
0
100
AcDbBlockEnd
  0
BLOCK
  5
52
330
51
100
AcDbEntity
  8
0
100
AcDbBlockBegin
  2
TOP
 70
     0
 71
     0
 10
33.68841864415094
 20
-462.6237650553978
 30
0.0
  3
TOP
  1

  0
POINT
  5
7B
330
51
100
AcDbEntity
  8
LC-005-003-----0
 62
     7
100
AcDbPoint
 10
79.4935014162279
 20
-336.6579891534224
 30
0.0
  0
POINT
  5
7C
330
51
100
AcDbEntity
  8
LC-005-003-----0
 62
     7
100
AcDbPoint
 10
-79.50467358377216
 20
-336.6579891534224
 30
0.0
  0
POINT
  5
7D
330
51
100
AcDbEntity
  8
LC-005-003-----0
 62
     7
100
AcDbPoint
 10
62.4961134162279
 20
-345.0854671534224
 30
0.0
  0
POINT
  5
7E
330
51
100
AcDbEntity
  8
LC-005-003-----0
 62
     7
100
AcDbPoint
 10
-62.5038865837721
 20
-345.0827081534225
 30
0.0
  0
POINT
  5
7F
330
51
100
AcDbEntity
  8
LC-005-003-----0
 62
     7
100
AcDbPoint
 10
70.00264941622788
 20
-49.03684115342247
 30
0.0
  0
POINT
  5
80
330
51
100
AcDbEntity
  8
LC-005-003-----0
 62
     7
100
AcDbPoint
 10
-69.99735058377212
 20
-49.0337501534225
 30
0.0
  0
POINT
  5
81
330
51
100
AcDbEntity
  8
LC-005-003-----0
 62
     7
100
AcDbPoint
 10
177.0035534162279
 20
-8.08799615342247
 30
0.0
  0
POINT
  5
82
330
51
100
AcDbEntity
  8
LC-005-003-----0
 62
     7
100
AcDbPoint
 10
-176.9964465837721
 20
-8.08018015342248
 30
0.0
  0
POINT
  5
83
330
51
100
AcDbEntity
  8
LC-005-003-----0
 62
     7
100
AcDbPoint
 10
59.49600241622784
 20
-350.0854011534224
 30
0.0
  0
POINT
  5
84
330
51
100
AcDbEntity
  8
LC-005-003-----0
 62
     7
100
AcDbPoint
 10
175.0036204162279
 20
-5.08795115342247
 30
0.0
  0
POINT
  5
85
330
51
100
AcDbEntity
  8
LC-005-003-----0
 62
     7
100
AcDbPoint
 10
59.49600241622784
 20
-350.0854011534224
 30
0.0
  0
POINT
  5
86
330
51
100
AcDbEntity
  8
LC-005-003-----0
 62
     7
100
AcDbPoint
 10
77.75264941622788
 20
-49.03701215342245
 30
0.0
  0
POINT
  5
87
330
51
100
AcDbEntity
  8
LC-005-003-----0
 62
     7
100
AcDbPoint
 10
59.49600241622784
 20
-350.0854011534224
 30
0.0
  0
POINT
  5
88
330
51
100
AcDbEntity
  8
LC-005-003-----0
 62
     7
100
AcDbPoint
 10
78.82849541622784
 20
-114.0839401534225
 30
0.0
  0
LINE
  5
89
330
51
100
AcDbEntity
  8
1
  6
PHANTOM
 62
     2
100
AcDbLine
 10
0.00072101458051
 20
-364.2482913803942
 30
0.0
 11
0.00074701502376
 21
-383.1798971225002
 31
0.0
  0
LINE
  5
8A
330
51
100
AcDbEntity
  8
LC-002-002-----0
  6
Continuous
 62
     7
100
AcDbLine
 10
-79.99927898519786
 20
-364.2484012514473
 30
0.0
 11
-79.99925298519793
 21
-383.1796842514473
 31
0.0
  0
LINE
  5
8B
330
51
100
AcDbEntity
  8
LC-002-002-----0
  6
Continuous
 62
     7
100
AcDbLine
 10
-79.99927898519786
 20
-364.2484012514473
 30
0.0
 11
-2.29923798519786
 21
-364.2484012514473
 31
0.0
  0
LINE
  5
8C
330
51
100
AcDbEntity
  8
LC-002-002-----0
  6
Continuous
 62
     7
100
AcDbLine
 10
80.00072101480214
 20
-364.2485042514472
 30
0.0
 11
80.00074701480207
 21
-383.1797872514472
 31
0.0
  0
LINE
  5
8D
330
51
100
AcDbEntity
  8
LC-002-002-----0
  6
Continuous
 62
     7
100
AcDbLine
 10
2.79572001480216
 20
-364.2485042514472
 30
0.0
 11
80.00072101480214
 21
-364.2485042514472
 31
0.0
  0
LINE
  5
8E
330
51
100
AcDbEntity
  8
LC-002-002-----0
  6
Continuous
 62
     7
100
AcDbLine
 10
-79.99925298519793
 20
-383.1796842514473
 30
0.0
 11
-45.88985998519786
 21
-387.1017322514472
 31
0.0
  0
LINE
  5
8F
330
51
100
AcDbEntity
  8
LC-002-002-----0
  6
Continuous
 62
     7
100
AcDbLine
 10
-45.88985998519786
 20
-387.1017322514472
 30
0.0
 11
-25.68683498519783
 21
-378.1796842514473
 31
0.0
  0
LINE
  5
90
330
51
100
AcDbEntity
  8
LC-002-002-----0
  6
Continuous
 62
     7
100
AcDbLine
 10
-25.68683498519783
 20
-378.1796842514473
 30
0.0
 11
-6.88987498519788
 21
-386.0079492514473
 31
0.0
  0
LINE
  5
91
330
51
100
AcDbEntity
  8
LC-002-002-----0
  6
Continuous
 62
     7
100
AcDbLine
 10
8.00071601480215
 20
-378.3982352514473
 30
0.0
 11
18.98493801480208
 21
-384.9141662514472
 31
0.0
  0
LINE
  5
92
330
51
100
AcDbEntity
  8
LC-002-002-----0
  6
Continuous
 62
     7
100
AcDbLine
 10
18.98493801480208
 20
-384.9141662514472
 30
0.0
 11
43.56309601480211
 21
-379.4920182514472
 31
0.0
  0
LINE
  5
93
330
51
100
AcDbEntity
  8
LC-002-002-----0
  6
Continuous
 62
     7
100
AcDbLine
 10
43.56309601480211
 20
-379.4920182514472
 30
0.0
 11
74.2348850148021
 21
-388.1796842514473
 31
0.0
  0
LINE
  5
94
330
51
100
AcDbEntity
  8
LC-002-002-----0
  6
Continuous
 62
     7
100
AcDbLine
 10
74.2348850148021
 20
-388.1796842514473
 30
0.0
 11
80.00074701480207
 21
-383.1796842514473
 31
0.0
  0
LINE
  5
95
330
51
100
AcDbEntity
  8
LC-002-002-----0
  6
Continuous
 62
     7
100
AcDbLine
 10
-6.88987498519788
 20
-386.0079492514473
 30
0.0
 11
8.00071601480215
 21
-378.3982352514473
 31
0.0
  0
LWPOLYLINE
  5
96
330
51
100
AcDbEntity
  8
LC-004-005-----0
  6
Continuous
 62
     3
100
AcDbPolyline
 90
        2
 70
     0
 43
1.0
 10
0.87947401480216
 20
-357.5737092514473
 10
-1.14452098519786
 20
-355.5497142514473
  0
LWPOLYLINE
  5
97
330
51
100
AcDbEntity
  8
LC-004-005-----0
  6
Continuous
 62
     3
100
AcDbPolyline
 90
        2
 70
     0
 43
1.0
 10
0.81366401480216
 20
-358.0735852514472
 10
-1.05875398519788
 20
-356.2011672514473
  0
LWPOLYLINE
  5
98
330
51
100
AcDbEntity
  8
LC-004-005-----0
  6
Continuous
 62
     3
100
AcDbPolyline
 90
        2
 70
     0
 43
1.0
 10
0.74785501480216
 20
-358.5734602514472
 10
-0.97298598519785
 20
-356.8526192514473
  0
LWPOLYLINE
  5
99
330
51
100
AcDbEntity
  8
LC-004-005-----0
  6
Continuous
 62
     3
100
AcDbPolyline
 90
        2
 70
     0
 43
1.0
 10
0.68204501480216
 20
-359.0733362514472
 10
-0.88721898519788
 20
-357.5040722514473
  0
LWPOLYLINE
  5
9A
330
51
100
AcDbEntity
  8
LC-004-005-----0
  6
Continuous
 62
     3
100
AcDbPolyline
 90
        2
 70
     0
 43
1.0
 10
0.61623501480216
 20
-359.5732112514472
 10
-0.80145198519784
 20
-358.1555242514472
  0
LWPOLYLINE
  5
9B
330
51
100
AcDbEntity
  8
LC-004-005-----0
  6
Continuous
 62
     3
100
AcDbPolyline
 90
        2
 70
     0
 43
1.0
 10
0.55042501480216
 20
-360.0730872514473
 10
-0.71568498519787
 20
-358.8069772514472
  0
LWPOLYLINE
  5
9C
330
51
100
AcDbEntity
  8
LC-004-005-----0
  6
Continuous
 62
     3
100
AcDbPolyline
 90
        2
 70
     0
 43
1.0
 10
0.48461501480216
 20
-360.5729622514472
 10
-0.62991798519784
 20
-359.4584302514472
  0
LWPOLYLINE
  5
9D
330
51
100
AcDbEntity
  8
LC-004-005-----0
  6
Continuous
 62
     3
100
AcDbPolyline
 90
        2
 70
     0
 43
1.0
 10
0.41880501480216
 20
-361.0728382514473
 10
-0.54415098519786
 20
-360.1098822514472
  0
LWPOLYLINE
  5
9E
330
51
100
AcDbEntity
  8
LC-004-005-----0
  6
Continuous
 62
     3
100
AcDbPolyline
 90
        2
 70
     0
 43
1.0
 10
0.35299501480216
 20
-361.5727142514472
 10
-0.45838298519783
 20
-360.7613352514472
  0
LWPOLYLINE
  5
9F
330
51
100
AcDbEntity
  8
LC-004-005-----0
  6
Continuous
 62
     3
100
AcDbPolyline
 90
        2
 70
     0
 43
1.0
 10
0.28718601480216
 20
-362.0725892514473
 10
-0.37261598519785
 20
-361.4127872514472
  0
LWPOLYLINE
  5
A0
330
51
100
AcDbEntity
  8
LC-004-005-----0
  6
Continuous
 62
     3
100
AcDbPolyline
 90
        2
 70
     0
 43
1.0
 10
0.22137601480216
 20
-362.5724652514472
 10
-0.28684898519788
 20
-362.0642402514473
  0
LWPOLYLINE
  5
A1
330
51
100
AcDbEntity
  8
LC-004-005-----0
  6
Continuous
 62
     3
100
AcDbPolyline
 90
        2
 70
     0
 43
1.0
 10
0.15556601480216
 20
-363.0723402514473
 10
-0.20108198519785
 20
-362.7156932514473
  0
LWPOLYLINE
  5
A2
330
51
100
AcDbEntity
  8
LC-004-005-----0
  6
Continuous
 62
     3
100
AcDbPolyline
 90
        2
 70
     0
 43
1.0
 10
0.08975601480216
 20
-363.5722162514472
 10
-0.11531498519787
 20
-363.3671452514473
  0
LWPOLYLINE
  5
A3
330
51
100
AcDbEntity
  8
LC-004-005-----0
  6
Continuous
 62
     3
100
AcDbPolyline
 90
        2
 70
     0
 43
1.0
 10
0.02394601480216
 20
-364.0720912514473
 10
-0.02954698519784
 20
-364.0185982514473
  0
LINE
  5
A4
330
51
100
AcDbEntity
  8
LC-001-002-----0
  6
Continuous
 62
     7
100
AcDbLine
 10
80.75292441622787
 20
-36.58587015342243
 30
0.0
 11
-80.74707558377213
 21
-36.58587015342243
 31
0.0
  0
LINE
  5
A5
330
51
100
AcDbEntity
  8
LC-001-002-----0
  6
Continuous
 62
     7
100
AcDbLine
 10
63.4987704162279
 20
-116.5691401534224
 30
0.0
 11
-63.5012295837721
 21
-116.5691401534224
 31
0.0
  0
LINE
  5
A6
330
51
100
AcDbEntity
  8
LC-001-002-----0
  6
Continuous
 62
     7
100
AcDbLine
 10
63.49849741622791
 20
-128.8993051534225
 30
0.0
 11
-63.50150258377209
 21
-128.8993051534225
 31
0.0
  0
LINE
  5
A7
330
51
100
AcDbEntity
  8
LC-001-002-----0
  6
Continuous
 62
     7
100
AcDbLine
 10
63.49822541622791
 20
-141.2294711534225
 30
0.0
 11
-63.50177458377209
 21
-141.2294711534225
 31
0.0
  0
LINE
  5
A8
330
51
100
AcDbEntity
  8
LC-001-002-----0
  6
Continuous
 62
     7
100
AcDbLine
 10
63.49795341622792
 20
-153.5596371534224
 30
0.0
 11
-63.50204658377209
 21
-153.5596371534224
 31
0.0
  0
LINE
  5
A9
330
51
100
AcDbEntity
  8
LC-001-002-----0
  6
Continuous
 62
     7
100
AcDbLine
 10
63.49768141622792
 20
-165.8898021534224
 30
0.0
 11
-63.50231858377208
 21
-165.8898021534224
 31
0.0
  0
LINE
  5
AA
330
51
100
AcDbEntity
  8
LC-001-002-----0
  6
Continuous
 62
     7
100
AcDbLine
 10
63.49740841622793
 20
-178.2199681534224
 30
0.0
 11
-63.50259158377207
 21
-178.2199681534224
 31
0.0
  0
LINE
  5
AB
330
51
100
AcDbEntity
  8
LC-001-002-----0
  6
Continuous
 62
     7
100
AcDbLine
 10
63.49713641622793
 20
-190.5501341534225
 30
0.0
 11
-63.50286358377207
 21
-190.5501341534225
 31
0.0
  0
LINE
  5
AC
330
51
100
AcDbEntity
  8
LC-001-002-----0
  6
Continuous
 62
     7
100
AcDbLine
 10
63.49686441622782
 20
-202.8802991534224
 30
0.0
 11
-63.50313558377218
 21
-202.8802991534224
 31
0.0
  0
LINE
  5
AD
330
51
100
AcDbEntity
  8
LC-001-002-----0
  6
Continuous
 62
     7
100
AcDbLine
 10
63.49659241622783
 20
-215.2104651534224
 30
0.0
 11
-63.50340758377217
 21
-215.2104651534224
 31
0.0
  0
LINE
  5
AE
330
51
100
AcDbEntity
  8
LC-001-002-----0
  6
Continuous
 62
     7
100
AcDbLine
 10
63.49631941622783
 20
-227.5406311534225
 30
0.0
 11
-63.50368058377217
 21
-227.5406311534225
 31
0.0
  0
LINE
  5
AF
330
51
100
AcDbEntity
  8
LC-001-002-----0
  6
Continuous
 62
     7
100
AcDbLine
 10
63.49604741622784
 20
-239.8707961534225
 30
0.0
 11
-63.50395258377216
 21
-239.8707961534225
 31
0.0
  0
LINE
  5
B0
330
51
100
AcDbEntity
  8
LC-001-002-----0
  6
Continuous
 62
     7
100
AcDbLine
 10
63.49577541622784
 20
-252.2009621534224
 30
0.0
 11
-63.50422458377216
 21
-252.2009621534224
 31
0.0
  0
LINE
  5
B1
330
51
100
AcDbEntity
  8
LC-001-002-----0
  6
Continuous
 62
     7
100
AcDbLine
 10
63.49550341622785
 20
-264.5311281534225
 30
0.0
 11
-63.50449658377215
 21
-264.5311281534225
 31
0.0
  0
LINE
  5
B2
330
51
100
AcDbEntity
  8
LC-001-002-----0
  6
Continuous
 62
     7
100
AcDbLine
 10
63.49523041622786
 20
-276.8612931534224
 30
0.0
 11
-63.50476958377215
 21
-276.8612931534224
 31
0.0
  0
LINE
  5
B3
330
51
100
AcDbEntity
  8
LC-001-002-----0
  6
Continuous
 62
     7
100
AcDbLine
 10
63.49495841622786
 20
-289.1914591534226
 30
0.0
 11
-63.50504158377214
 21
-289.1914591534226
 31
0.0
  0
LINE
  5
B4
330
51
100
AcDbEntity
  8
LC-001-002-----0
  6
Continuous
 62
     7
100
AcDbLine
 10
63.49468641622786
 20
-301.5216251534225
 30
0.0
 11
-63.50531358377214
 21
-301.5216251534225
 31
0.0
  0
LINE
  5
B5
330
51
100
AcDbEntity
  8
LC-001-002-----0
  6
Continuous
 62
     7
100
AcDbLine
 10
63.49441441622787
 20
-313.8517901534224
 30
0.0
 11
-63.50558558377213
 21
-313.8517901534224
 31
0.0
  0
LINE
  5
B6
330
51
100
AcDbEntity
  8
LC-001-002-----0
  6
Continuous
 62
     7
100
AcDbLine
 10
-63.50558558377213
 20
-326.1819561534225
 30
0.0
 11
63.49441441622787
 21
-326.1819561534225
 31
0.0
  0
LINE
  5
B7
330
51
100
AcDbEntity
  8
LC-001-002-----0
  6
Continuous
 62
     7
100
AcDbLine
 10
-64.00558558377213
 20
-126.4141061534224
 30
0.0
 11
63.99441441622787
 21
-126.4141061534224
 31
0.0
  0
LINE
  5
B8
330
51
100
AcDbEntity
  8
LC-001-002-----0
  6
Continuous
 62
     7
100
AcDbLine
 10
-64.00558558377213
 20
-138.7442711534224
 30
0.0
 11
63.99441441622787
 21
-138.7442711534224
 31
0.0
  0
LINE
  5
B9
330
51
100
AcDbEntity
  8
LC-001-002-----0
  6
Continuous
 62
     7
100
AcDbLine
 10
-64.00558558377213
 20
-151.0744371534225
 30
0.0
 11
63.99441441622787
 21
-151.0744371534225
 31
0.0
  0
LINE
  5
BA
330
51
100
AcDbEntity
  8
LC-001-002-----0
  6
Continuous
 62
     7
100
AcDbLine
 10
-64.00558558377213
 20
-163.4046031534224
 30
0.0
 11
63.99441441622787
 21
-163.4046031534224
 31
0.0
  0
LINE
  5
BB
330
51
100
AcDbEntity
  8
LC-001-002-----0
  6
Continuous
 62
     7
100
AcDbLine
 10
-64.00558558377213
 20
-175.7347681534224
 30
0.0
 11
63.99441441622787
 21
-175.7347681534224
 31
0.0
  0
LINE
  5
BC
330
51
100
AcDbEntity
  8
LC-001-002-----0
  6
Continuous
 62
     7
100
AcDbLine
 10
-64.00558558377213
 20
-188.0649341534225
 30
0.0
 11
63.99441441622787
 21
-188.0649341534225
 31
0.0
  0
LINE
  5
BD
330
51
100
AcDbEntity
  8
LC-001-002-----0
  6
Continuous
 62
     7
100
AcDbLine
 10
-64.00558558377213
 20
-200.3951001534225
 30
0.0
 11
63.99441441622787
 21
-200.3951001534225
 31
0.0
  0
LINE
  5
BE
330
51
100
AcDbEntity
  8
LC-001-002-----0
  6
Continuous
 62
     7
100
AcDbLine
 10
-64.00558558377213
 20
-212.7252651534224
 30
0.0
 11
63.99441441622787
 21
-212.7252651534224
 31
0.0
  0
LINE
  5
BF
330
51
100
AcDbEntity
  8
LC-001-002-----0
  6
Continuous
 62
     7
100
AcDbLine
 10
-64.00558558377213
 20
-225.0554311534224
 30
0.0
 11
63.99441441622787
 21
-225.0554311534224
 31
0.0
  0
LINE
  5
C0
330
51
100
AcDbEntity
  8
LC-001-002-----0
  6
Continuous
 62
     7
100
AcDbLine
 10
-64.00558558377213
 20
-237.3855971534225
 30
0.0
 11
63.99441441622787
 21
-237.3855971534225
 31
0.0
  0
LINE
  5
C1
330
51
100
AcDbEntity
  8
LC-001-002-----0
  6
Continuous
 62
     7
100
AcDbLine
 10
-64.00558558377213
 20
-286.7062591534224
 30
0.0
 11
63.99441441622787
 21
-286.7062591534224
 31
0.0
  0
LINE
  5
C2
330
51
100
AcDbEntity
  8
LC-001-002-----0
  6
Continuous
 62
     7
100
AcDbLine
 10
-64.00558558377213
 20
-249.7157621534225
 30
0.0
 11
63.99441441622787
 21
-249.7157621534225
 31
0.0
  0
LINE
  5
C3
330
51
100
AcDbEntity
  8
LC-001-002-----0
  6
Continuous
 62
     7
100
AcDbLine
 10
-64.00558558377213
 20
-262.0459281534226
 30
0.0
 11
63.99441441622787
 21
-262.0459281534226
 31
0.0
  0
LINE
  5
C4
330
51
100
AcDbEntity
  8
LC-001-002-----0
  6
Continuous
 62
     7
100
AcDbLine
 10
-64.00558558377213
 20
-274.3760941534225
 30
0.0
 11
63.99441441622787
 21
-274.3760941534225
 31
0.0
  0
LINE
  5
C5
330
51
100
AcDbEntity
  8
LC-001-002-----0
  6
Continuous
 62
     7
100
AcDbLine
 10
-64.00558558377213
 20
-286.7062591534224
 30
0.0
 11
63.99441441622787
 21
-286.7062591534224
 31
0.0
  0
LINE
  5
C6
330
51
100
AcDbEntity
  8
LC-001-002-----0
  6
Continuous
 62
     7
100
AcDbLine
 10
-64.00558558377213
 20
-299.0364251534226
 30
0.0
 11
63.99441441622787
 21
-299.0364251534226
 31
0.0
  0
LINE
  5
C7
330
51
100
AcDbEntity
  8
LC-001-002-----0
  6
Continuous
 62
     7
100
AcDbLine
 10
-64.00558558377213
 20
-311.3665911534225
 30
0.0
 11
63.99441441622787
 21
-311.3665911534225
 31
0.0
  0
LINE
  5
C8
330
51
100
AcDbEntity
  8
LC-001-002-----0
  6
Continuous
 62
     7
100
AcDbLine
 10
-64.00558558377213
 20
-323.6967561534224
 30
0.0
 11
63.99441441622787
 21
-323.6967561534224
 31
0.0
  0
LINE
  5
C9
330
51
100
AcDbEntity
  8
LC-001-002-----0
  6
Continuous
 62
     7
100
AcDbLine
 10
63.99441441622787
 20
-336.0269221534225
 30
0.0
 11
-64.00558558377213
 21
-336.0269221534225
 31
0.0
  0
LINE
  5
CA
330
51
100
AcDbEntity
  8
LC-001-002-----0
  6
Continuous
 62
     7
100
AcDbLine
 10
-63.50558558377213
 20
-339.5066441534224
 30
0.0
 11
63.49441441622787
 21
-339.5066441534224
 31
0.0
  0
LINE
  5
CB
330
51
100
AcDbEntity
  8
LC-001-002-----0
  6
Continuous
 62
     7
100
AcDbLine
 10
62.49441441622787
 20
-340.0840881534224
 30
0.0
 11
-62.50377658377215
 21
-340.0840881534224
 31
0.0
  0
LINE
  5
CC
330
51
100
AcDbEntity
  8
LC-001-002-----0
  6
Continuous
 62
     7
100
AcDbLine
 10
-62.5038865837721
 20
-345.0827081534225
 30
0.0
 11
62.4961134162279
 21
-345.0827081534225
 31
0.0
  0
LINE
  5
CD
330
51
100
AcDbEntity
  8
LC-001-002-----0
  6
Continuous
 62
     7
100
AcDbLine
 10
-82.74703158377213
 20
-34.58226115342245
 30
0.0
 11
82.7566225788346
 21
-34.58226115342245
 31
0.0
  0
LINE
  5
CE
330
51
100
AcDbEntity
  8
LC-001-002-----0
  6
Continuous
 62
     7
100
AcDbLine
 10
-62.49878658377213
 20
-114.0839401534225
 30
0.0
 11
63.49441441622787
 21
-114.0839401534225
 31
0.0
  0
LINE
  5
CF
330
51
100
AcDbEntity
  8
LC-001-002-----0
  6
Continuous
 62
     7
100
AcDbLine
 10
-62.49751558377216
 20
-56.53391515342247
 30
0.0
 11
62.50248441622784
 21
-56.53391515342247
 31
0.0
  0
LINE
  5
D0
330
51
100
AcDbEntity
  8
LC-001-002-----0
  6
Continuous
 62
     7
100
AcDbLine
 10
124.452037416228
 20
-9.86481715342245
 30
0.0
 11
-124.4278255837721
 21
-9.86481715342245
 31
0.0
  0
LINE
  5
D1
330
51
100
AcDbEntity
  8
LC-001-002-----0
  6
Continuous
 62
     7
100
AcDbLine
 10
-124.7216695837722
 20
-10.67249015342248
 30
0.0
 11
124.7458844162279
 21
-10.67249015342248
 31
0.0
  0
LINE
  5
D2
330
51
100
AcDbEntity
  8
LC-001-002-----0
  6
Continuous
 62
     7
100
AcDbLine
 10
62.49622341622785
 20
-340.0840881534224
 30
0.0
 11
62.4961134162279
 21
-345.0854671534224
 31
0.0
  0
LINE
  5
D3
330
51
100
AcDbEntity
  8
LC-001-002-----0
  6
Continuous
 62
     7
100
AcDbLine
 10
-62.50377658377215
 20
-340.0840881534224
 30
0.0
 11
-62.5038865837721
 21
-345.0827081534225
 31
0.0
  0
LINE
  5
D4
330
51
100
AcDbEntity
  8
LC-004-006-MLN-0
  6
CENTER
 62
     2
100
AcDbLine
 10
0.00124341622791
 20
-5.08408810095187
 30
0.0
 11
-0.00421758377217
 21
-360.0840881534224
 31
0.0
  0
LINE
  5
D5
330
51
100
AcDbEntity
  8
LC-001-002-----0
  6
Continuous
 62
     7
100
AcDbLine
 10
100.0156625207911
 20
-33.83893448160055
 30
0.0
 11
85.24998055142794
 21
-33.83897488598931
 31
0.0
  0
LINE
  5
D6
330
51
100
AcDbEntity
  8
LC-001-002-----0
  6
Continuous
 62
     7
100
AcDbLine
 10
-94.0004655837721
 20
-33.83920815342248
 30
0.0
 11
-85.24001389187526
 21
-33.83920815342248
 31
0.0
  0
LINE
  5
D7
330
51
100
AcDbEntity
  8
LC-001-002-----0
  6
Continuous
 62
     7
100
AcDbLine
 10
-78.90927458377212
 20
-115.4121301534225
 30
0.0
 11
-64.40105758377217
 21
-116.5691401534224
 31
0.0
  0
LINE
  5
D8
330
51
100
AcDbEntity
  8
LC-001-002-----0
  6
Continuous
 62
     7
100
AcDbLine
 10
-63.50558558377213
 20
-339.5840881534224
 30
0.0
 11
-63.00558558377213
 21
-340.0840881534224
 31
0.0
  0
LINE
  5
D9
330
51
100
AcDbEntity
  8
LC-001-002-----0
  6
Continuous
 62
     7
100
AcDbLine
 10
-63.00558558377213
 20
-340.0840881534224
 30
0.0
 11
-62.50558558377213
 21
-340.0840881534224
 31
0.0
  0
LINE
  5
DA
330
51
100
AcDbEntity
  8
LC-001-002-----0
  6
Continuous
 62
     7
100
AcDbLine
 10
-63.50558558377213
 20
-335.5269221534225
 30
0.0
 11
-63.50558558377213
 21
-327.1764781534225
 31
0.0
  0
LINE
  5
DB
330
51
100
AcDbEntity
  8
LC-001-002-----0
  6
Continuous
 62
     7
100
AcDbLine
 10
78.89810241622786
 20
-337.3551111534225
 30
0.0
 11
64.38988541622791
 21
-338.5121221534225
 31
0.0
  0
LINE
  5
DC
330
51
100
AcDbEntity
  8
LC-001-002-----0
  6
Continuous
 62
     7
100
AcDbLine
 10
78.82849541622784
 20
-336.0269221534225
 30
0.0
 11
63.99441441622787
 21
-336.0269221534225
 31
0.0
  0
LINE
  5
DD
330
51
100
AcDbEntity
  8
LC-001-002-----0
  6
Continuous
 62
     7
100
AcDbLine
 10
78.89810241622786
 20
-325.0249461534226
 30
0.0
 11
64.38988541622791
 21
-326.1819561534225
 31
0.0
  0
LINE
  5
DE
330
51
100
AcDbEntity
  8
LC-001-002-----0
  6
Continuous
 62
     7
100
AcDbLine
 10
78.82849541622784
 20
-323.6967561534224
 30
0.0
 11
63.99441441622787
 21
-323.6967561534224
 31
0.0
  0
LINE
  5
DF
330
51
100
AcDbEntity
  8
LC-001-002-----0
  6
Continuous
 62
     7
100
AcDbLine
 10
78.89810241622786
 20
-312.6947801534224
 30
0.0
 11
64.38988541622791
 21
-313.8517901534224
 31
0.0
  0
LINE
  5
E0
330
51
100
AcDbEntity
  8
LC-001-002-----0
  6
Continuous
 62
     7
100
AcDbLine
 10
78.82849541622784
 20
-311.3665911534225
 30
0.0
 11
63.99441441622787
 21
-311.3665911534225
 31
0.0
  0
LINE
  5
E1
330
51
100
AcDbEntity
  8
LC-001-002-----0
  6
Continuous
 62
     7
100
AcDbLine
 10
78.89810241622786
 20
-300.3646141534225
 30
0.0
 11
64.38988541622791
 21
-301.5216251534225
 31
0.0
  0
LINE
  5
E2
330
51
100
AcDbEntity
  8
LC-001-002-----0
  6
Continuous
 62
     7
100
AcDbLine
 10
78.82849541622784
 20
-299.0364251534226
 30
0.0
 11
63.99441441622787
 21
-299.0364251534226
 31
0.0
  0
LINE
  5
E3
330
51
100
AcDbEntity
  8
LC-001-002-----0
  6
Continuous
 62
     7
100
AcDbLine
 10
78.89810241622786
 20
-288.0344491534224
 30
0.0
 11
64.38988541622791
 21
-289.1914591534226
 31
0.0
  0
LINE
  5
E4
330
51
100
AcDbEntity
  8
LC-001-002-----0
  6
Continuous
 62
     7
100
AcDbLine
 10
78.82849541622784
 20
-286.7062591534224
 30
0.0
 11
63.99441441622787
 21
-286.7062591534224
 31
0.0
  0
LINE
  5
E5
330
51
100
AcDbEntity
  8
LC-001-002-----0
  6
Continuous
 62
     7
100
AcDbLine
 10
78.89810241622786
 20
-275.7042831534225
 30
0.0
 11
64.38988541622791
 21
-276.8612931534224
 31
0.0
  0
LINE
  5
E6
330
51
100
AcDbEntity
  8
LC-001-002-----0
  6
Continuous
 62
     7
100
AcDbLine
 10
78.82849541622784
 20
-274.3760941534225
 30
0.0
 11
63.99441441622787
 21
-274.3760941534225
 31
0.0
  0
LINE
  5
E7
330
51
100
AcDbEntity
  8
LC-001-002-----0
  6
Continuous
 62
     7
100
AcDbLine
 10
78.89810241622786
 20
-263.3741171534225
 30
0.0
 11
64.38988541622791
 21
-264.5311281534225
 31
0.0
  0
LINE
  5
E8
330
51
100
AcDbEntity
  8
LC-001-002-----0
  6
Continuous
 62
     7
100
AcDbLine
 10
78.82849541622784
 20
-262.0459281534226
 30
0.0
 11
63.99441441622787
 21
-262.0459281534226
 31
0.0
  0
LINE
  5
E9
330
51
100
AcDbEntity
  8
LC-001-002-----0
  6
Continuous
 62
     7
100
AcDbLine
 10
78.89810241622786
 20
-251.0439521534225
 30
0.0
 11
64.38988541622791
 21
-252.2009621534224
 31
0.0
  0
LINE
  5
EA
330
51
100
AcDbEntity
  8
LC-001-002-----0
  6
Continuous
 62
     7
100
AcDbLine
 10
78.82849541622784
 20
-249.7157621534225
 30
0.0
 11
63.99441441622787
 21
-249.7157621534225
 31
0.0
  0
LINE
  5
EB
330
51
100
AcDbEntity
  8
LC-001-002-----0
  6
Continuous
 62
     7
100
AcDbLine
 10
78.89810241622786
 20
-238.7137861534225
 30
0.0
 11
64.38988541622791
 21
-239.8707961534225
 31
0.0
  0
LINE
  5
EC
330
51
100
AcDbEntity
  8
LC-001-002-----0
  6
Continuous
 62
     7
100
AcDbLine
 10
78.82849541622784
 20
-237.3855971534225
 30
0.0
 11
63.99441441622787
 21
-237.3855971534225
 31
0.0
  0
LINE
  5
ED
330
51
100
AcDbEntity
  8
LC-001-002-----0
  6
Continuous
 62
     7
100
AcDbLine
 10
78.89810241622786
 20
-226.3836211534224
 30
0.0
 11
64.38988541622791
 21
-227.5406311534225
 31
0.0
  0
LINE
  5
EE
330
51
100
AcDbEntity
  8
LC-001-002-----0
  6
Continuous
 62
     7
100
AcDbLine
 10
78.82849541622784
 20
-225.0554311534224
 30
0.0
 11
63.99441441622787
 21
-225.0554311534224
 31
0.0
  0
LINE
  5
EF
330
51
100
AcDbEntity
  8
LC-001-002-----0
  6
Continuous
 62
     7
100
AcDbLine
 10
78.89810241622786
 20
-214.0534551534225
 30
0.0
 11
64.38988541622791
 21
-215.2104651534224
 31
0.0
  0
LINE
  5
F0
330
51
100
AcDbEntity
  8
LC-001-002-----0
  6
Continuous
 62
     7
100
AcDbLine
 10
78.82849541622784
 20
-212.7252651534224
 30
0.0
 11
63.99441441622787
 21
-212.7252651534224
 31
0.0
  0
LINE
  5
F1
330
51
100
AcDbEntity
  8
LC-001-002-----0
  6
Continuous
 62
     7
100
AcDbLine
 10
-63.50558558377213
 20
-323.1967561534224
 30
0.0
 11
-63.50558558377213
 21
-314.8463121534226
 31
0.0
  0
LINE
  5
F2
330
51
100
AcDbEntity
  8
LC-001-002-----0
  6
Continuous
 62
     7
100
AcDbLine
 10
-63.50558558377213
 20
-310.8665911534225
 30
0.0
 11
-63.50558558377213
 21
-302.5161471534224
 31
0.0
  0
LINE
  5
F3
330
51
100
AcDbEntity
  8
LC-001-002-----0
  6
Continuous
 62
     7
100
AcDbLine
 10
-63.50558558377213
 20
-298.5364251534226
 30
0.0
 11
-63.50558558377213
 21
-290.1859811534225
 31
0.0
  0
LINE
  5
F4
330
51
100
AcDbEntity
  8
LC-001-002-----0
  6
Continuous
 62
     7
100
AcDbLine
 10
-63.50558558377213
 20
-286.2062591534224
 30
0.0
 11
-63.50558558377213
 21
-277.8558151534226
 31
0.0
  0
LINE
  5
F5
330
51
100
AcDbEntity
  8
LC-001-002-----0
  6
Continuous
 62
     7
100
AcDbLine
 10
-63.50558558377213
 20
-273.8760941534225
 30
0.0
 11
-63.50558558377213
 21
-265.5256501534224
 31
0.0
  0
LINE
  5
F6
330
51
100
AcDbEntity
  8
LC-001-002-----0
  6
Continuous
 62
     7
100
AcDbLine
 10
-63.50558558377213
 20
-261.5459281534226
 30
0.0
 11
-63.50558558377213
 21
-253.1954841534225
 31
0.0
  0
LINE
  5
F7
330
51
100
AcDbEntity
  8
LC-001-002-----0
  6
Continuous
 62
     7
100
AcDbLine
 10
-63.50558558377213
 20
-249.2157621534225
 30
0.0
 11
-63.50558558377213
 21
-240.8653181534224
 31
0.0
  0
LINE
  5
F8
330
51
100
AcDbEntity
  8
LC-001-002-----0
  6
Continuous
 62
     7
100
AcDbLine
 10
-63.50558558377213
 20
-236.8855971534225
 30
0.0
 11
-63.50558558377213
 21
-228.5351531534224
 31
0.0
  0
LINE
  5
F9
330
51
100
AcDbEntity
  8
LC-001-002-----0
  6
Continuous
 62
     7
100
AcDbLine
 10
-63.50558558377213
 20
-224.5554311534224
 30
0.0
 11
-63.50558558377213
 21
-216.2049871534225
 31
0.0
  0
LINE
  5
FA
330
51
100
AcDbEntity
  8
LC-001-002-----0
  6
Continuous
 62
     7
100
AcDbLine
 10
-63.50558558377213
 20
-199.8951001534225
 30
0.0
 11
-63.50558558377213
 21
-191.5446561534224
 31
0.0
  0
LINE
  5
FB
330
51
100
AcDbEntity
  8
LC-001-002-----0
  6
Continuous
 62
     7
100
AcDbLine
 10
-63.50558558377213
 20
-175.2347681534224
 30
0.0
 11
-63.50558558377213
 21
-166.8843241534225
 31
0.0
  0
LINE
  5
FC
330
51
100
AcDbEntity
  8
LC-001-002-----0
  6
Continuous
 62
     7
100
AcDbLine
 10
-63.50558558377213
 20
-150.5744371534225
 30
0.0
 11
-63.50558558377213
 21
-142.2239931534224
 31
0.0
  0
LINE
  5
FD
330
51
100
AcDbEntity
  8
LC-001-002-----0
  6
Continuous
 62
     7
100
AcDbLine
 10
-63.50558558377213
 20
-125.9141061534224
 30
0.0
 11
-63.50558558377213
 21
-117.5636621534225
 31
0.0
  0
LINE
  5
FE
330
51
100
AcDbEntity
  8
LC-001-002-----0
  6
Continuous
 62
     7
100
AcDbLine
 10
-78.90927458377212
 20
-337.3551111534225
 30
0.0
 11
-64.40105758377217
 21
-338.5121221534225
 31
0.0
  0
LINE
  5
FF
330
51
100
AcDbEntity
  8
LC-001-002-----0
  6
Continuous
 62
     7
100
AcDbLine
 10
-78.8396665837721
 20
-336.0269221534225
 30
0.0
 11
-64.00558558377213
 21
-336.0269221534225
 31
0.0
  0
LINE
  5
100
330
51
100
AcDbEntity
  8
LC-001-002-----0
  6
Continuous
 62
     7
100
AcDbLine
 10
78.89810241622786
 20
-201.7232891534225
 30
0.0
 11
64.38988541622791
 21
-202.8802991534224
 31
0.0
  0
LINE
  5
101
330
51
100
AcDbEntity
  8
LC-001-002-----0
  6
Continuous
 62
     7
100
AcDbLine
 10
-78.90927458377212
 20
-325.0249461534226
 30
0.0
 11
-64.40105758377217
 21
-326.1819561534225
 31
0.0
  0
LINE
  5
102
330
51
100
AcDbEntity
  8
LC-001-002-----0
  6
Continuous
 62
     7
100
AcDbLine
 10
-78.8396665837721
 20
-323.6967561534224
 30
0.0
 11
-64.00558558377213
 21
-323.6967561534224
 31
0.0
  0
LINE
  5
103
330
51
100
AcDbEntity
  8
LC-001-002-----0
  6
Continuous
 62
     7
100
AcDbLine
 10
78.82849541622784
 20
-200.3951001534225
 30
0.0
 11
63.99441441622787
 21
-200.3951001534225
 31
0.0
  0
LINE
  5
104
330
51
100
AcDbEntity
  8
LC-001-002-----0
  6
Continuous
 62
     7
100
AcDbLine
 10
-78.90927458377212
 20
-312.6947801534224
 30
0.0
 11
-64.40105758377217
 21
-313.8517901534224
 31
0.0
  0
LINE
  5
105
330
51
100
AcDbEntity
  8
LC-001-002-----0
  6
Continuous
 62
     7
100
AcDbLine
 10
-78.8396665837721
 20
-311.3665911534225
 30
0.0
 11
-64.00558558377213
 21
-311.3665911534225
 31
0.0
  0
LINE
  5
106
330
51
100
AcDbEntity
  8
LC-001-002-----0
  6
Continuous
 62
     7
100
AcDbLine
 10
-78.90927458377212
 20
-300.3646141534225
 30
0.0
 11
-64.40105758377217
 21
-301.5216251534225
 31
0.0
  0
LINE
  5
107
330
51
100
AcDbEntity
  8
LC-001-002-----0
  6
Continuous
 62
     7
100
AcDbLine
 10
-78.8396665837721
 20
-299.0364251534226
 30
0.0
 11
-64.00558558377213
 21
-299.0364251534226
 31
0.0
  0
LINE
  5
108
330
51
100
AcDbEntity
  8
LC-001-002-----0
  6
Continuous
 62
     7
100
AcDbLine
 10
-78.90927458377212
 20
-288.0344491534224
 30
0.0
 11
-64.40105758377217
 21
-289.1914591534226
 31
0.0
  0
LINE
  5
109
330
51
100
AcDbEntity
  8
LC-001-002-----0
  6
Continuous
 62
     7
100
AcDbLine
 10
-78.8396665837721
 20
-286.7062591534224
 30
0.0
 11
-64.00558558377213
 21
-286.7062591534224
 31
0.0
  0
LINE
  5
10A
330
51
100
AcDbEntity
  8
LC-001-002-----0
  6
Continuous
 62
     7
100
AcDbLine
 10
78.89810241622786
 20
-189.3931241534224
 30
0.0
 11
64.38988541622791
 21
-190.5501341534225
 31
0.0
  0
LINE
  5
10B
330
51
100
AcDbEntity
  8
LC-001-002-----0
  6
Continuous
 62
     7
100
AcDbLine
 10
-78.90927458377212
 20
-275.7042831534225
 30
0.0
 11
-64.40105758377217
 21
-276.8612931534224
 31
0.0
  0
LINE
  5
10C
330
51
100
AcDbEntity
  8
LC-001-002-----0
  6
Continuous
 62
     7
100
AcDbLine
 10
-78.8396665837721
 20
-274.3760941534225
 30
0.0
 11
-64.00558558377213
 21
-274.3760941534225
 31
0.0
  0
LINE
  5
10D
330
51
100
AcDbEntity
  8
LC-001-002-----0
  6
Continuous
 62
     7
100
AcDbLine
 10
-63.50558558377213
 20
-212.2252651534224
 30
0.0
 11
-63.50558558377213
 21
-203.8748211534225
 31
0.0
  0
LINE
  5
10E
330
51
100
AcDbEntity
  8
LC-001-002-----0
  6
Continuous
 62
     7
100
AcDbLine
 10
78.82849541622784
 20
-188.0649341534225
 30
0.0
 11
63.99441441622787
 21
-188.0649341534225
 31
0.0
  0
LINE
  5
10F
330
51
100
AcDbEntity
  8
LC-001-002-----0
  6
Continuous
 62
     7
100
AcDbLine
 10
-63.50558558377213
 20
-187.5649341534225
 30
0.0
 11
-63.50558558377213
 21
-179.2144901534225
 31
0.0
  0
LINE
  5
110
330
51
100
AcDbEntity
  8
LC-001-002-----0
  6
Continuous
 62
     7
100
AcDbLine
 10
-78.90927458377212
 20
-263.3741171534225
 30
0.0
 11
-64.40105758377217
 21
-264.5311281534225
 31
0.0
  0
LINE
  5
111
330
51
100
AcDbEntity
  8
LC-001-002-----0
  6
Continuous
 62
     7
100
AcDbLine
 10
78.89810241622786
 20
-177.0629581534224
 30
0.0
 11
64.38988541622791
 21
-178.2199681534224
 31
0.0
  0
LINE
  5
112
330
51
100
AcDbEntity
  8
LC-001-002-----0
  6
Continuous
 62
     7
100
AcDbLine
 10
78.82849541622784
 20
-175.7347681534224
 30
0.0
 11
63.99441441622787
 21
-175.7347681534224
 31
0.0
  0
LINE
  5
113
330
51
100
AcDbEntity
  8
LC-001-002-----0
  6
Continuous
 62
     7
100
AcDbLine
 10
78.89810241622786
 20
-164.7327921534225
 30
0.0
 11
64.38988541622791
 21
-165.8898021534224
 31
0.0
  0
LINE
  5
114
330
51
100
AcDbEntity
  8
LC-001-002-----0
  6
Continuous
 62
     7
100
AcDbLine
 10
78.82849541622784
 20
-163.4046031534224
 30
0.0
 11
63.99441441622787
 21
-163.4046031534224
 31
0.0
  0
LINE
  5
115
330
51
100
AcDbEntity
  8
LC-001-002-----0
  6
Continuous
 62
     7
100
AcDbLine
 10
78.89810241622786
 20
-152.4026271534224
 30
0.0
 11
64.38988541622791
 21
-153.5596371534224
 31
0.0
  0
LINE
  5
116
330
51
100
AcDbEntity
  8
LC-001-002-----0
  6
Continuous
 62
     7
100
AcDbLine
 10
78.82849541622784
 20
-151.0744371534225
 30
0.0
 11
63.99441441622787
 21
-151.0744371534225
 31
0.0
  0
LINE
  5
117
330
51
100
AcDbEntity
  8
LC-001-002-----0
  6
Continuous
 62
     7
100
AcDbLine
 10
78.89810241622786
 20
-140.0724611534224
 30
0.0
 11
64.38988541622791
 21
-141.2294711534225
 31
0.0
  0
LINE
  5
118
330
51
100
AcDbEntity
  8
LC-001-002-----0
  6
Continuous
 62
     7
100
AcDbLine
 10
78.82849541622784
 20
-138.7442711534224
 30
0.0
 11
63.99441441622787
 21
-138.7442711534224
 31
0.0
  0
LINE
  5
119
330
51
100
AcDbEntity
  8
LC-001-002-----0
  6
Continuous
 62
     7
100
AcDbLine
 10
78.89810241622786
 20
-127.7422951534225
 30
0.0
 11
64.38988541622791
 21
-128.8993051534225
 31
0.0
  0
LINE
  5
11A
330
51
100
AcDbEntity
  8
LC-001-002-----0
  6
Continuous
 62
     7
100
AcDbLine
 10
78.82849541622784
 20
-126.4141061534224
 30
0.0
 11
63.99441441622787
 21
-126.4141061534224
 31
0.0
  0
LINE
  5
11B
330
51
100
AcDbEntity
  8
LC-001-002-----0
  6
Continuous
 62
     7
100
AcDbLine
 10
-78.8396665837721
 20
-262.0459281534226
 30
0.0
 11
-64.00558558377213
 21
-262.0459281534226
 31
0.0
  0
LINE
  5
11C
330
51
100
AcDbEntity
  8
LC-001-002-----0
  6
Continuous
 62
     7
100
AcDbLine
 10
78.89810241622786
 20
-115.4121301534225
 30
0.0
 11
64.38988541622791
 21
-116.5691401534224
 31
0.0
  0
LINE
  5
11D
330
51
100
AcDbEntity
  8
LC-001-002-----0
  6
Continuous
 62
     7
100
AcDbLine
 10
-78.90927458377212
 20
-251.0439521534225
 30
0.0
 11
-64.40105758377217
 21
-252.2009621534224
 31
0.0
  0
LINE
  5
11E
330
51
100
AcDbEntity
  8
LC-001-002-----0
  6
Continuous
 62
     7
100
AcDbLine
 10
-78.8396665837721
 20
-249.7157621534225
 30
0.0
 11
-64.00558558377213
 21
-249.7157621534225
 31
0.0
  0
LINE
  5
11F
330
51
100
AcDbEntity
  8
LC-001-002-----0
  6
Continuous
 62
     7
100
AcDbLine
 10
63.49441441622787
 20
-339.5840881534224
 30
0.0
 11
62.99441441622787
 21
-340.0840881534224
 31
0.0
  0
LINE
  5
120
330
51
100
AcDbEntity
  8
LC-001-002-----0
  6
Continuous
 62
     7
100
AcDbLine
 10
62.99441441622787
 20
-340.0840881534224
 30
0.0
 11
62.49441441622787
 21
-340.0840881534224
 31
0.0
  0
LINE
  5
121
330
51
100
AcDbEntity
  8
LC-001-002-----0
  6
Continuous
 62
     7
100
AcDbLine
 10
63.49441441622787
 20
-335.5269221534225
 30
0.0
 11
63.49441441622787
 21
-327.1764781534225
 31
0.0
  0
LINE
  5
122
330
51
100
AcDbEntity
  8
LC-001-002-----0
  6
Continuous
 62
     7
100
AcDbLine
 10
63.49441441622787
 20
-323.1967561534224
 30
0.0
 11
63.49441441622787
 21
-314.8463121534226
 31
0.0
  0
LINE
  5
123
330
51
100
AcDbEntity
  8
LC-001-002-----0
  6
Continuous
 62
     7
100
AcDbLine
 10
63.49441441622787
 20
-310.8665911534225
 30
0.0
 11
63.49441441622787
 21
-302.5161471534224
 31
0.0
  0
LINE
  5
124
330
51
100
AcDbEntity
  8
LC-001-002-----0
  6
Continuous
 62
     7
100
AcDbLine
 10
63.49441441622787
 20
-298.5364251534226
 30
0.0
 11
63.49441441622787
 21
-290.1859811534225
 31
0.0
  0
LINE
  5
125
330
51
100
AcDbEntity
  8
LC-001-002-----0
  6
Continuous
 62
     7
100
AcDbLine
 10
63.49441441622787
 20
-286.2062591534224
 30
0.0
 11
63.49441441622787
 21
-277.8558151534226
 31
0.0
  0
LINE
  5
126
330
51
100
AcDbEntity
  8
LC-001-002-----0
  6
Continuous
 62
     7
100
AcDbLine
 10
63.49441441622787
 20
-273.8760941534225
 30
0.0
 11
63.49441441622787
 21
-265.5256501534224
 31
0.0
  0
LINE
  5
127
330
51
100
AcDbEntity
  8
LC-001-002-----0
  6
Continuous
 62
     7
100
AcDbLine
 10
-63.50558558377213
 20
-138.2442711534224
 30
0.0
 11
-63.50558558377213
 21
-129.8938271534225
 31
0.0
  0
LINE
  5
128
330
51
100
AcDbEntity
  8
LC-001-002-----0
  6
Continuous
 62
     7
100
AcDbLine
 10
-63.50558558377213
 20
-162.9046031534224
 30
0.0
 11
-63.50558558377213
 21
-154.5541591534224
 31
0.0
  0
LINE
  5
129
330
51
100
AcDbEntity
  8
LC-001-002-----0
  6
Continuous
 62
     7
100
AcDbLine
 10
63.49441441622787
 20
-261.5459281534226
 30
0.0
 11
63.49441441622787
 21
-253.1954841534225
 31
0.0
  0
LINE
  5
12A
330
51
100
AcDbEntity
  8
LC-001-002-----0
  6
Continuous
 62
     7
100
AcDbLine
 10
-78.90927458377212
 20
-238.7137861534225
 30
0.0
 11
-64.40105758377217
 21
-239.8707961534225
 31
0.0
  0
LINE
  5
12B
330
51
100
AcDbEntity
  8
LC-001-002-----0
  6
Continuous
 62
     7
100
AcDbLine
 10
-78.8396665837721
 20
-237.3855971534225
 30
0.0
 11
-64.00558558377213
 21
-237.3855971534225
 31
0.0
  0
LINE
  5
12C
330
51
100
AcDbEntity
  8
LC-001-002-----0
  6
Continuous
 62
     7
100
AcDbLine
 10
63.49441441622787
 20
-249.2157621534225
 30
0.0
 11
63.49441441622787
 21
-240.8653181534224
 31
0.0
  0
LINE
  5
12D
330
51
100
AcDbEntity
  8
LC-001-002-----0
  6
Continuous
 62
     7
100
AcDbLine
 10
-78.90927458377212
 20
-226.3836211534224
 30
0.0
 11
-64.40105758377217
 21
-227.5406311534225
 31
0.0
  0
LINE
  5
12E
330
51
100
AcDbEntity
  8
LC-001-002-----0
  6
Continuous
 62
     7
100
AcDbLine
 10
-78.8396665837721
 20
-225.0554311534224
 30
0.0
 11
-64.00558558377213
 21
-225.0554311534224
 31
0.0
  0
LINE
  5
12F
330
51
100
AcDbEntity
  8
LC-001-002-----0
  6
Continuous
 62
     7
100
AcDbLine
 10
63.49441441622787
 20
-236.8855971534225
 30
0.0
 11
63.49441441622787
 21
-228.5351531534224
 31
0.0
  0
LINE
  5
130
330
51
100
AcDbEntity
  8
LC-001-002-----0
  6
Continuous
 62
     7
100
AcDbLine
 10
-78.90927458377212
 20
-214.0534551534225
 30
0.0
 11
-64.40105758377217
 21
-215.2104651534224
 31
0.0
  0
LINE
  5
131
330
51
100
AcDbEntity
  8
LC-001-002-----0
  6
Continuous
 62
     7
100
AcDbLine
 10
63.49441441622787
 20
-224.5554311534224
 30
0.0
 11
63.49441441622787
 21
-216.2049871534225
 31
0.0
  0
LINE
  5
132
330
51
100
AcDbEntity
  8
LC-001-002-----0
  6
Continuous
 62
     7
100
AcDbLine
 10
-78.8396665837721
 20
-212.7252651534224
 30
0.0
 11
-64.00558558377213
 21
-212.7252651534224
 31
0.0
  0
LINE
  5
133
330
51
100
AcDbEntity
  8
LC-001-002-----0
  6
Continuous
 62
     7
100
AcDbLine
 10
-78.8396665837721
 20
-114.0839401534225
 30
0.0
 11
-62.50558558377213
 21
-114.0839401534225
 31
0.0
  0
LINE
  5
134
330
51
100
AcDbEntity
  8
LC-001-002-----0
  6
Continuous
 62
     7
100
AcDbLine
 10
63.49441441622787
 20
-199.8951001534225
 30
0.0
 11
63.49441441622787
 21
-191.5446561534224
 31
0.0
  0
LINE
  5
135
330
51
100
AcDbEntity
  8
LC-001-002-----0
  6
Continuous
 62
     7
100
AcDbLine
 10
-78.90927458377212
 20
-201.7232891534225
 30
0.0
 11
-64.40105758377217
 21
-202.8802991534224
 31
0.0
  0
LINE
  5
136
330
51
100
AcDbEntity
  8
LC-001-002-----0
  6
Continuous
 62
     7
100
AcDbLine
 10
-78.8396665837721
 20
-200.3951001534225
 30
0.0
 11
-64.00558558377213
 21
-200.3951001534225
 31
0.0
  0
LINE
  5
137
330
51
100
AcDbEntity
  8
LC-001-002-----0
  6
Continuous
 62
     7
100
AcDbLine
 10
63.49441441622787
 20
-175.2347681534224
 30
0.0
 11
63.49441441622787
 21
-166.8843241534225
 31
0.0
  0
LINE
  5
138
330
51
100
AcDbEntity
  8
LC-001-002-----0
  6
Continuous
 62
     7
100
AcDbLine
 10
-78.90927458377212
 20
-189.3931241534224
 30
0.0
 11
-64.40105758377217
 21
-190.5501341534225
 31
0.0
  0
LINE
  5
139
330
51
100
AcDbEntity
  8
LC-001-002-----0
  6
Continuous
 62
     7
100
AcDbLine
 10
-78.8396665837721
 20
-188.0649341534225
 30
0.0
 11
-64.00558558377213
 21
-188.0649341534225
 31
0.0
  0
LINE
  5
13A
330
51
100
AcDbEntity
  8
LC-001-002-----0
  6
Continuous
 62
     7
100
AcDbLine
 10
63.49441441622787
 20
-150.5744371534225
 30
0.0
 11
63.49441441622787
 21
-142.2239931534224
 31
0.0
  0
LINE
  5
13B
330
51
100
AcDbEntity
  8
LC-001-002-----0
  6
Continuous
 62
     7
100
AcDbLine
 10
-78.90927458377212
 20
-177.0629581534224
 30
0.0
 11
-64.40105758377217
 21
-178.2199681534224
 31
0.0
  0
LINE
  5
13C
330
51
100
AcDbEntity
  8
LC-001-002-----0
  6
Continuous
 62
     7
100
AcDbLine
 10
-78.8396665837721
 20
-175.7347681534224
 30
0.0
 11
-64.00558558377213
 21
-175.7347681534224
 31
0.0
  0
LINE
  5
13D
330
51
100
AcDbEntity
  8
LC-001-002-----0
  6
Continuous
 62
     7
100
AcDbLine
 10
63.49441441622787
 20
-125.9141061534224
 30
0.0
 11
63.49441441622787
 21
-117.5636621534225
 31
0.0
  0
LINE
  5
13E
330
51
100
AcDbEntity
  8
LC-001-002-----0
  6
Continuous
 62
     7
100
AcDbLine
 10
63.49441441622787
 20
-212.2252651534224
 30
0.0
 11
63.49441441622787
 21
-203.8748211534225
 31
0.0
  0
LINE
  5
13F
330
51
100
AcDbEntity
  8
LC-001-002-----0
  6
Continuous
 62
     7
100
AcDbLine
 10
63.49441441622787
 20
-187.5649341534225
 30
0.0
 11
63.49441441622787
 21
-179.2144901534225
 31
0.0
  0
LINE
  5
140
330
51
100
AcDbEntity
  8
LC-001-002-----0
  6
Continuous
 62
     7
100
AcDbLine
 10
-78.90927458377212
 20
-164.7327921534225
 30
0.0
 11
-64.40105758377217
 21
-165.8898021534224
 31
0.0
  0
LINE
  5
141
330
51
100
AcDbEntity
  8
LC-001-002-----0
  6
Continuous
 62
     7
100
AcDbLine
 10
-78.8396665837721
 20
-163.4046031534224
 30
0.0
 11
-64.00558558377213
 21
-163.4046031534224
 31
0.0
  0
LINE
  5
142
330
51
100
AcDbEntity
  8
LC-001-002-----0
  6
Continuous
 62
     7
100
AcDbLine
 10
63.49441441622787
 20
-138.2442711534224
 30
0.0
 11
63.49441441622787
 21
-129.8938271534225
 31
0.0
  0
LINE
  5
143
330
51
100
AcDbEntity
  8
LC-001-002-----0
  6
Continuous
 62
     7
100
AcDbLine
 10
-78.90927458377212
 20
-152.4026271534224
 30
0.0
 11
-64.40105758377217
 21
-153.5596371534224
 31
0.0
  0
LINE
  5
144
330
51
100
AcDbEntity
  8
LC-001-002-----0
  6
Continuous
 62
     7
100
AcDbLine
 10
-78.8396665837721
 20
-151.0744371534225
 30
0.0
 11
-64.00558558377213
 21
-151.0744371534225
 31
0.0
  0
LINE
  5
145
330
51
100
AcDbEntity
  8
LC-001-002-----0
  6
Continuous
 62
     7
100
AcDbLine
 10
-78.90927458377212
 20
-140.0724611534224
 30
0.0
 11
-64.40105758377217
 21
-141.2294711534225
 31
0.0
  0
LINE
  5
146
330
51
100
AcDbEntity
  8
LC-001-002-----0
  6
Continuous
 62
     7
100
AcDbLine
 10
-78.8396665837721
 20
-138.7442711534224
 30
0.0
 11
-64.00558558377213
 21
-138.7442711534224
 31
0.0
  0
LINE
  5
147
330
51
100
AcDbEntity
  8
LC-001-002-----0
  6
Continuous
 62
     7
100
AcDbLine
 10
63.49441441622787
 20
-162.9046031534224
 30
0.0
 11
63.49441441622787
 21
-154.5541591534224
 31
0.0
  0
LINE
  5
148
330
51
100
AcDbEntity
  8
LC-001-002-----0
  6
Continuous
 62
     7
100
AcDbLine
 10
-78.90927458377212
 20
-127.7422951534225
 30
0.0
 11
-64.40105758377217
 21
-128.8993051534225
 31
0.0
  0
LINE
  5
149
330
51
100
AcDbEntity
  8
LC-001-002-----0
  6
Continuous
 62
     7
100
AcDbLine
 10
-78.8396665837721
 20
-126.4141061534224
 30
0.0
 11
-64.00558558377213
 21
-126.4141061534224
 31
0.0
  0
LINE
  5
14A
330
51
100
AcDbEntity
  8
LC-001-002-----0
  6
Continuous
 62
     7
100
AcDbLine
 10
78.82849541622784
 20
-114.0839401534225
 30
0.0
 11
62.49441441622787
 21
-114.0839401534225
 31
0.0
  0
LINE
  5
14B
330
51
100
AcDbEntity
  8
LC-001-002-----0
  6
Continuous
 62
     7
100
AcDbLine
 10
63.49441441622787
 20
-339.5066441534224
 30
0.0
 11
63.49441441622787
 21
-339.5840881534224
 31
0.0
  0
LINE
  5
14C
330
51
100
AcDbEntity
  8
LC-001-002-----0
  6
Continuous
 62
     7
100
AcDbLine
 10
-63.50558558377213
 20
-339.5066441534224
 30
0.0
 11
-63.50558558377213
 21
-339.5840881534224
 31
0.0
  0
LINE
  5
14D
330
51
100
AcDbEntity
  8
LC-001-002-----0
  6
Continuous
 62
     7
100
AcDbLine
 10
-176.9964235837722
 20
-7.08018015342248
 30
0.0
 11
-176.9964465837721
 21
-8.08018015342248
 31
0.0
  0
LINE
  5
14E
330
51
100
AcDbEntity
  8
LC-001-002-----0
  6
Continuous
 62
     7
100
AcDbLine
 10
-128.2670835837721
 20
-8.08125615342249
 30
0.0
 11
-123.3670585837722
 21
-9.86481715342245
 31
0.0
  0
LINE
  5
14F
330
51
100
AcDbEntity
  8
LC-001-002-----0
  6
Continuous
 62
     7
100
AcDbLine
 10
0.00355341622787
 20
-8.08408815342245
 30
0.0
 11
-176.9964465837721
 21
-8.08018015342248
 31
0.0
  0
LINE
  5
150
330
51
100
AcDbEntity
  8
LC-001-002-----0
  6
Continuous
 62
     7
100
AcDbLine
 10
0.00362041622793
 20
-5.08408815342245
 30
0.0
 11
-174.9963795837722
 21
-5.08022415342248
 31
0.0
  0
LINE
  5
151
330
51
100
AcDbEntity
  8
LC-001-002-----0
  6
Continuous
 62
     7
100
AcDbLine
 10
128.274191416228
 20
-8.08692015342246
 30
0.0
 11
123.389056416228
 21
-9.86481715342245
 31
0.0
  0
LINE
  5
152
330
51
100
AcDbEntity
  8
LC-001-002-----0
  6
Continuous
 62
     7
100
AcDbLine
 10
0.00355341622787
 20
-8.08408815342245
 30
0.0
 11
177.0035534162279
 21
-8.08799615342247
 31
0.0
  0
LINE
  5
153
330
51
100
AcDbEntity
  8
LC-001-002-----0
  6
Continuous
 62
     7
100
AcDbLine
 10
177.0035754162279
 20
-7.08799615342247
 30
0.0
 11
177.0035534162279
 21
-8.08799615342247
 31
0.0
  0
LINE
  5
154
330
51
100
AcDbEntity
  8
LC-001-002-----0
  6
Continuous
 62
     7
100
AcDbLine
 10
0.00362041622793
 20
-5.08408815342245
 30
0.0
 11
175.0036204162279
 21
-5.08795115342247
 31
0.0
  0
LINE
  5
155
330
51
100
AcDbEntity
  8
LC-001-002-----0
  6
Continuous
 62
     7
100
AcDbLine
 10
62.4961134162279
 20
-345.0854671534224
 30
0.0
 11
61.15625641622785
 21
-350.0854381534224
 31
0.0
  0
LINE
  5
156
330
51
100
AcDbEntity
  8
LC-001-002-----0
  6
Continuous
 62
     7
100
AcDbLine
 10
70.00264941622788
 20
-49.03684115342247
 30
0.0
 11
62.50248441622784
 21
-56.53667515342244
 31
0.0
  0
LINE
  5
157
330
51
100
AcDbEntity
  8
LC-001-002-----0
  6
Continuous
 62
     7
100
AcDbLine
 10
59.49600241622784
 20
-350.0854011534224
 30
0.0
 11
-0.00399758377216
 21
-350.0840881534224
 31
0.0
  0
LINE
  5
158
330
51
100
AcDbEntity
  8
LC-001-002-----0
  6
Continuous
 62
     7
100
AcDbLine
 10
0.00264941622788
 20
-49.03529515342245
 30
0.0
 11
77.75264941622788
 21
-49.03701215342245
 31
0.0
  0
LINE
  5
159
330
51
100
AcDbEntity
  8
LC-001-002-----0
  6
Continuous
 62
     7
100
AcDbLine
 10
-62.5038865837721
 20
-345.0827081534225
 30
0.0
 11
-61.16425158377217
 21
-350.0827371534224
 31
0.0
  0
LINE
  5
15A
330
51
100
AcDbEntity
  8
LC-001-002-----0
  6
Continuous
 62
     7
100
AcDbLine
 10
80.75292441622787
 20
-36.58587015342243
 30
0.0
 11
80.7527164946855
 21
-46.03351315342246
 31
0.0
  0
LINE
  5
15B
330
51
100
AcDbEntity
  8
LC-001-002-----0
  6
Continuous
 62
     7
100
AcDbLine
 10
-69.99735058377212
 20
-49.0337501534225
 30
0.0
 11
-62.49751558377216
 21
-56.53391515342247
 31
0.0
  0
LINE
  5
15C
330
51
100
AcDbEntity
  8
LC-001-002-----0
  6
Continuous
 62
     7
100
AcDbLine
 10
-59.50399758377216
 20
-350.0827741534225
 30
0.0
 11
-0.00399758377216
 21
-350.0840881534224
 31
0.0
  0
LINE
  5
15D
330
51
100
AcDbEntity
  8
LC-001-002-----0
  6
Continuous
 62
     7
100
AcDbLine
 10
0.00264941622788
 20
-49.03529515342245
 30
0.0
 11
-77.74735058377212
 21
-49.03357915342247
 31
0.0
  0
LINE
  5
15E
330
51
100
AcDbEntity
  8
LC-001-002-----0
  6
Continuous
 62
     7
100
AcDbLine
 10
84.50296941622787
 20
-34.58595315342245
 30
0.0
 11
82.75296841622787
 21
-34.58591515342243
 31
0.0
  0
LINE
  5
15F
330
51
100
AcDbEntity
  8
LC-001-002-----0
  6
Continuous
 62
     7
100
AcDbLine
 10
-80.74707558377213
 20
-36.58230515342245
 30
0.0
 11
-80.74728358377217
 21
-46.03351315342246
 31
0.0
  0
LINE
  5
160
330
51
100
AcDbEntity
  8
LC-001-002-----0
  6
Continuous
 62
     7
100
AcDbLine
 10
-84.49703258377212
 20
-34.58222215342244
 30
0.0
 11
-82.74703158377213
 21
-34.58226115342245
 31
0.0
  0
LINE
  5
161
330
51
100
AcDbEntity
  8
LC-001-002-----0
  6
Continuous
 62
     7
100
AcDbLine
 10
-82.74703158377213
 20
-34.58226115342245
 30
0.0
 11
-80.74707558377213
 21
-36.58230515342245
 31
0.0
  0
LINE
  5
162
330
51
100
AcDbEntity
  8
LC-001-002-----0
  6
Continuous
 62
     7
100
AcDbLine
 10
-85.24001389187526
 20
-33.83920815342248
 30
0.0
 11
-84.49703258377212
 21
-34.58222215342244
 31
0.0
  0
LINE
  5
163
330
51
100
AcDbEntity
  8
LC-001-002-----0
  6
Continuous
 62
     7
100
AcDbLine
 10
82.75296841622787
 20
-34.58591515342243
 30
0.0
 11
80.75292441622787
 21
-36.58587015342243
 31
0.0
  0
LINE
  5
164
330
51
100
AcDbEntity
  8
LC-001-002-----0
  6
Continuous
 62
     7
100
AcDbLine
 10
85.24998055142794
 20
-33.83897488598931
 30
0.0
 11
84.50296941622787
 21
-34.58595315342245
 31
0.0
  0
LINE
  5
165
330
51
100
AcDbEntity
  8
LC-001-002-----0
  6
Continuous
 62
     7
100
AcDbLine
 10
-61.16425158377217
 20
-350.0827371534224
 30
0.0
 11
-59.50399758377216
 21
-350.0827741534225
 31
0.0
  0
LINE
  5
166
330
51
100
AcDbEntity
  8
LC-001-002-----0
  6
Continuous
 62
     7
100
AcDbLine
 10
61.15625641622785
 20
-350.0854381534224
 30
0.0
 11
59.49600241622784
 21
-350.0854011534224
 31
0.0
  0
LINE
  5
167
330
51
100
AcDbEntity
  8
LC-001-002-----0
  6
Continuous
 62
     7
100
AcDbLine
 10
62.50248441622784
 20
-56.53667515342244
 30
0.0
 11
62.50121341622787
 21
-114.0839401534225
 31
0.0
  0
LINE
  5
168
330
51
100
AcDbEntity
  8
LC-001-002-----0
  6
Continuous
 62
     7
100
AcDbLine
 10
-62.49751558377216
 20
-56.53391515342247
 30
0.0
 11
-62.49878658377213
 21
-114.0839401534225
 31
0.0
  0
LINE
  5
169
330
51
100
AcDbEntity
  8
LC-001-002-----0
  6
Continuous
 62
     7
100
AcDbLine
 10
-124.7216695837722
 20
-10.67249015342248
 30
0.0
 11
-124.4278255837721
 21
-9.86515915342244
 31
0.0
  0
LINE
  5
16A
330
51
100
AcDbEntity
  8
LC-001-002-----0
  6
Continuous
 62
     7
100
AcDbLine
 10
0.00333841622785
 20
-17.83920815342248
 30
0.0
 11
-105.0312725837721
 21
-17.83920815342248
 31
0.0
  0
LINE
  5
16B
330
51
100
AcDbEntity
  8
LC-001-002-----0
  6
Continuous
 62
     7
100
AcDbLine
 10
-124.7216695837722
 20
-10.67249015342248
 30
0.0
 11
-105.0312725837721
 21
-17.83920815342248
 31
0.0
  0
LINE
  5
16C
330
51
100
AcDbEntity
  8
LC-001-002-----0
  6
Continuous
 62
     7
100
AcDbLine
 10
-99.99138558377217
 20
-33.83920815342248
 30
0.0
 11
-94.0004655837721
 21
-33.83920815342248
 31
0.0
  0
LINE
  5
16D
330
51
100
AcDbEntity
  8
LC-001-002-----0
  6
Continuous
 62
     7
100
AcDbLine
 10
-101.4913855837722
 20
-32.33920815342248
 30
0.0
 11
-101.4913855837722
 21
-32.33893041017758
 31
0.0
  0
LINE
  5
16E
330
51
100
AcDbEntity
  8
LC-001-002-----0
  6
Continuous
 62
     7
100
AcDbLine
 10
101.5156584162287
 20
-32.33893041017758
 30
0.0
 11
101.5156204162279
 21
-18.33893015342245
 31
0.0
  0
LINE
  5
16F
330
51
100
AcDbEntity
  8
LC-001-002-----0
  6
Continuous
 62
     7
100
AcDbLine
 10
0.00333841622785
 20
-17.83920815342248
 30
0.0
 11
105.0555064162279
 21
-17.83892015342247
 31
0.0
  0
LINE
  5
170
330
51
100
AcDbEntity
  8
LC-001-002-----0
  6
Continuous
 62
     7
100
AcDbLine
 10
124.7458844162279
 20
-10.67214715342249
 30
0.0
 11
105.0555064162279
 21
-17.83892015342247
 31
0.0
  0
LINE
  5
171
330
51
100
AcDbEntity
  8
LC-001-002-----0
  6
Continuous
 62
     7
100
AcDbLine
 10
124.7458844162279
 20
-10.67214715342249
 30
0.0
 11
124.452037416228
 21
-9.86481715342245
 31
0.0
  0
LINE
  5
172
330
51
100
AcDbEntity
  8
LC-001-002-----0
  6
Continuous
 62
     7
100
AcDbLine
 10
-85.24001389187526
 20
-33.83920815342248
 30
0.0
 11
0.00298541622783
 21
-33.83920815342248
 31
0.0
  0
LINE
  5
173
330
51
100
AcDbEntity
  8
LC-001-002-----0
  6
Continuous
 62
     7
100
AcDbLine
 10
85.24998055142794
 20
-33.83897488598931
 30
0.0
 11
0.00298541622783
 21
-33.83920815342248
 31
0.0
  0
LINE
  5
174
330
51
100
AcDbEntity
  8
1
  6
Continuous
 62
     7
100
AcDbLine
 10
101.5156584162287
 20
-32.33893041017758
 30
0.0
 11
-101.4913855837722
 21
-32.33893041017758
 31
0.0
  0
LINE
  5
175
330
51
100
AcDbEntity
  8
LC-001-002-----0
  6
Continuous
 62
     7
100
AcDbLine
 10
-101.4913855837722
 20
-32.33893041017758
 30
0.0
 11
-101.4913855837722
 21
-18.33920815342248
 31
0.0
  0
LINE
  5
176
330
51
100
AcDbEntity
  8
1
  6
Continuous
 62
     7
100
AcDbLine
 10
-80.74728358377217
 20
-46.03351315342246
 30
0.0
 11
80.7527164946855
 21
-46.03351315342246
 31
0.0
  0
LINE
  5
177
330
51
100
AcDbEntity
  8
LC-001-002-----0
  6
Continuous
 62
     7
100
AcDbLine
 10
80.7527164946855
 20
-46.03351315342246
 30
0.0
 11
80.75271641622783
 21
-46.03707815342244
 31
0.0
  0
ARC
  5
178
330
51
100
AcDbEntity
  8
LC-002-002-RND-0
  6
Continuous
 62
     7
100
AcDbCircle
 10
63.99441441622787
 20
-335.5269221534225
 30
0.0
 40
0.5
100
AcDbArc
 50
180.0
 51
-90.0
  0
ARC
  5
179
330
51
100
AcDbEntity
  8
LC-002-002-RND-0
  6
Continuous
 62
     7
100
AcDbCircle
 10
63.99441441622787
 20
-323.1967561534224
 30
0.0
 40
0.5
100
AcDbArc
 50
180.0
 51
-90.0
  0
ARC
  5
17A
330
51
100
AcDbEntity
  8
LC-002-002-RND-0
  6
Continuous
 62
     7
100
AcDbCircle
 10
63.99441441622787
 20
-310.8665911534225
 30
0.0
 40
0.5
100
AcDbArc
 50
180.0
 51
-90.0
  0
ARC
  5
17B
330
51
100
AcDbEntity
  8
LC-002-002-RND-0
  6
Continuous
 62
     7
100
AcDbCircle
 10
63.99441441622787
 20
-298.5364251534226
 30
0.0
 40
0.5
100
AcDbArc
 50
180.0
 51
-90.0
  0
ARC
  5
17C
330
51
100
AcDbEntity
  8
LC-002-002-RND-0
  6
Continuous
 62
     7
100
AcDbCircle
 10
63.99441441622787
 20
-286.2062591534224
 30
0.0
 40
0.5
100
AcDbArc
 50
180.0
 51
-90.0
  0
ARC
  5
17D
330
51
100
AcDbEntity
  8
LC-002-002-RND-0
  6
Continuous
 62
     7
100
AcDbCircle
 10
63.99441441622787
 20
-273.8760941534225
 30
0.0
 40
0.5
100
AcDbArc
 50
180.0
 51
-90.0
  0
ARC
  5
17E
330
51
100
AcDbEntity
  8
LC-002-002-RND-0
  6
Continuous
 62
     7
100
AcDbCircle
 10
63.99441441622787
 20
-261.5459281534226
 30
0.0
 40
0.5
100
AcDbArc
 50
180.0
 51
-90.0
  0
ARC
  5
17F
330
51
100
AcDbEntity
  8
LC-002-002-RND-0
  6
Continuous
 62
     7
100
AcDbCircle
 10
63.99441441622787
 20
-249.2157621534225
 30
0.0
 40
0.5
100
AcDbArc
 50
180.0
 51
-90.0
  0
ARC
  5
180
330
51
100
AcDbEntity
  8
LC-002-002-RND-0
  6
Continuous
 62
     7
100
AcDbCircle
 10
63.99441441622787
 20
-236.8855971534225
 30
0.0
 40
0.5
100
AcDbArc
 50
180.0
 51
-90.0
  0
ARC
  5
181
330
51
100
AcDbEntity
  8
LC-002-002-RND-0
  6
Continuous
 62
     7
100
AcDbCircle
 10
63.99441441622787
 20
-224.5554311534224
 30
0.0
 40
0.5
100
AcDbArc
 50
180.0
 51
-90.0
  0
ARC
  5
182
330
51
100
AcDbEntity
  8
LC-002-002-RND-0
  6
Continuous
 62
     7
100
AcDbCircle
 10
63.99441441622787
 20
-212.2252651534224
 30
0.0
 40
0.5
100
AcDbArc
 50
180.0
 51
-90.0
  0
ARC
  5
183
330
51
100
AcDbEntity
  8
LC-002-002-RND-0
  6
Continuous
 62
     7
100
AcDbCircle
 10
63.99441441622787
 20
-199.8951001534225
 30
0.0
 40
0.5
100
AcDbArc
 50
180.0
 51
-90.0
  0
ARC
  5
184
330
51
100
AcDbEntity
  8
LC-002-002-RND-0
  6
Continuous
 62
     7
100
AcDbCircle
 10
63.99441441622787
 20
-162.9046031534224
 30
0.0
 40
0.5
100
AcDbArc
 50
180.0
 51
-90.0
  0
ARC
  5
185
330
51
100
AcDbEntity
  8
LC-002-002-RND-0
  6
Continuous
 62
     7
100
AcDbCircle
 10
63.99441441622787
 20
-150.5744371534225
 30
0.0
 40
0.5
100
AcDbArc
 50
180.0
 51
-90.0
  0
ARC
  5
186
330
51
100
AcDbEntity
  8
LC-002-002-RND-0
  6
Continuous
 62
     7
100
AcDbCircle
 10
64.49441441622787
 20
-339.5066441534224
 30
0.0
 40
0.9999999999995929
100
AcDbArc
 50
96.00000000002386
 51
180.0
  0
ARC
  5
187
330
51
100
AcDbEntity
  8
LC-001-002-----0
  6
Continuous
 62
     7
100
AcDbCircle
 10
78.82849541622784
 20
-336.6928411534224
 30
0.0
 40
0.6659190000003954
100
AcDbArc
 50
-83.9999999999732
 51
90.0
  0
ARC
  5
188
330
51
100
AcDbEntity
  8
LC-002-002-RND-0
  6
Continuous
 62
     7
100
AcDbCircle
 10
64.49441441622787
 20
-327.1764781534225
 30
0.0
 40
0.9999999999997625
100
AcDbArc
 50
96.00000000002284
 51
180.0
  0
ARC
  5
189
330
51
100
AcDbEntity
  8
LC-001-002-----0
  6
Continuous
 62
     7
100
AcDbCircle
 10
78.82849541622784
 20
-324.3626751534225
 30
0.0
 40
0.6659190000002824
100
AcDbArc
 50
-83.99999999997218
 51
90.0
  0
ARC
  5
18A
330
51
100
AcDbEntity
  8
LC-002-002-RND-0
  6
Continuous
 62
     7
100
AcDbCircle
 10
64.49441441622787
 20
-314.8463121534226
 30
0.0
 40
0.9999999999998755
100
AcDbArc
 50
96.00000000002215
 51
180.0
  0
ARC
  5
18B
330
51
100
AcDbEntity
  8
LC-001-002-----0
  6
Continuous
 62
     7
100
AcDbCircle
 10
78.82849541622784
 20
-312.0325091534226
 30
0.0
 40
0.6659190000000562
100
AcDbArc
 50
-83.99999999997013
 51
90.0
  0
ARC
  5
18C
330
51
100
AcDbEntity
  8
LC-002-002-RND-0
  6
Continuous
 62
     7
100
AcDbCircle
 10
64.49441441622787
 20
-302.5161471534224
 30
0.0
 40
0.9999999999997625
100
AcDbArc
 50
96.00000000002284
 51
180.0
  0
ARC
  5
18D
330
51
100
AcDbEntity
  8
LC-001-002-----0
  6
Continuous
 62
     7
100
AcDbCircle
 10
78.82849541622784
 20
-299.7023441534224
 30
0.0
 40
0.6659190000003954
100
AcDbArc
 50
-83.9999999999732
 51
90.0
  0
ARC
  5
18E
330
51
100
AcDbEntity
  8
LC-002-002-RND-0
  6
Continuous
 62
     7
100
AcDbCircle
 10
64.49441441622787
 20
-290.1859811534225
 30
0.0
 40
0.9999999999997625
100
AcDbArc
 50
96.00000000002284
 51
180.0
  0
ARC
  5
18F
330
51
100
AcDbEntity
  8
LC-001-002-----0
  6
Continuous
 62
     7
100
AcDbCircle
 10
78.82849541622784
 20
-287.3721781534225
 30
0.0
 40
0.6659190000003954
100
AcDbArc
 50
-83.9999999999732
 51
90.0
  0
ARC
  5
190
330
51
100
AcDbEntity
  8
LC-002-002-RND-0
  6
Continuous
 62
     7
100
AcDbCircle
 10
64.49441441622787
 20
-277.8558151534226
 30
0.0
 40
0.9999999999998755
100
AcDbArc
 50
96.00000000002215
 51
180.0
  0
ARC
  5
191
330
51
100
AcDbEntity
  8
LC-001-002-----0
  6
Continuous
 62
     7
100
AcDbCircle
 10
78.82849541622784
 20
-275.0420121534226
 30
0.0
 40
0.6659190000001127
100
AcDbArc
 50
-83.99999999997064
 51
90.0
  0
ARC
  5
192
330
51
100
AcDbEntity
  8
LC-002-002-RND-0
  6
Continuous
 62
     7
100
AcDbCircle
 10
64.49441441622787
 20
-265.5256501534224
 30
0.0
 40
0.9999999999997625
100
AcDbArc
 50
96.00000000002284
 51
180.0
  0
ARC
  5
193
330
51
100
AcDbEntity
  8
LC-001-002-----0
  6
Continuous
 62
     7
100
AcDbCircle
 10
78.82849541622784
 20
-262.7118471534225
 30
0.0
 40
0.6659190000002824
100
AcDbArc
 50
-83.99999999997218
 51
90.0
  0
ARC
  5
194
330
51
100
AcDbEntity
  8
LC-002-002-RND-0
  6
Continuous
 62
     7
100
AcDbCircle
 10
64.49441441622787
 20
-253.1954841534225
 30
0.0
 40
0.9999999999997908
100
AcDbArc
 50
96.00000000002267
 51
180.0
  0
ARC
  5
195
330
51
100
AcDbEntity
  8
LC-001-002-----0
  6
Continuous
 62
     7
100
AcDbCircle
 10
78.82849541622784
 20
-250.3816811534225
 30
0.0
 40
0.6659190000001975
100
AcDbArc
 50
-83.99999999997142
 51
90.0
  0
ARC
  5
196
330
51
100
AcDbEntity
  8
LC-002-002-RND-0
  6
Continuous
 62
     7
100
AcDbCircle
 10
-64.00558558377213
 20
-335.5269221534225
 30
0.0
 40
0.5
100
AcDbArc
 50
-90.0
 51
0.0
  0
ARC
  5
197
330
51
100
AcDbEntity
  8
LC-002-002-RND-0
  6
Continuous
 62
     7
100
AcDbCircle
 10
-64.00558558377213
 20
-323.1967561534224
 30
0.0
 40
0.5
100
AcDbArc
 50
-90.0
 51
0.0
  0
ARC
  5
198
330
51
100
AcDbEntity
  8
LC-002-002-RND-0
  6
Continuous
 62
     7
100
AcDbCircle
 10
-64.00558558377213
 20
-310.8665911534225
 30
0.0
 40
0.5
100
AcDbArc
 50
-90.0
 51
0.0
  0
ARC
  5
199
330
51
100
AcDbEntity
  8
LC-002-002-RND-0
  6
Continuous
 62
     7
100
AcDbCircle
 10
-64.00558558377213
 20
-298.5364251534226
 30
0.0
 40
0.5
100
AcDbArc
 50
-90.0
 51
0.0
  0
ARC
  5
19A
330
51
100
AcDbEntity
  8
LC-002-002-RND-0
  6
Continuous
 62
     7
100
AcDbCircle
 10
64.49441441622787
 20
-240.8653181534224
 30
0.0
 40
0.9999999999997625
100
AcDbArc
 50
96.00000000002284
 51
180.0
  0
ARC
  5
19B
330
51
100
AcDbEntity
  8
LC-002-002-RND-0
  6
Continuous
 62
     7
100
AcDbCircle
 10
-64.00558558377213
 20
-286.2062591534224
 30
0.0
 40
0.5
100
AcDbArc
 50
-90.0
 51
0.0
  0
ARC
  5
19C
330
51
100
AcDbEntity
  8
LC-002-002-RND-0
  6
Continuous
 62
     7
100
AcDbCircle
 10
-64.00558558377213
 20
-273.8760941534225
 30
0.0
 40
0.5
100
AcDbArc
 50
-90.0
 51
0.0
  0
ARC
  5
19D
330
51
100
AcDbEntity
  8
LC-002-002-RND-0
  6
Continuous
 62
     7
100
AcDbCircle
 10
-64.00558558377213
 20
-261.5459281534226
 30
0.0
 40
0.5
100
AcDbArc
 50
-90.0
 51
0.0
  0
ARC
  5
19E
330
51
100
AcDbEntity
  8
LC-001-002-----0
  6
Continuous
 62
     7
100
AcDbCircle
 10
78.82849541622784
 20
-238.0515151534224
 30
0.0
 40
0.6659190000003954
100
AcDbArc
 50
-83.9999999999732
 51
90.0
  0
ARC
  5
19F
330
51
100
AcDbEntity
  8
LC-002-002-RND-0
  6
Continuous
 62
     7
100
AcDbCircle
 10
-64.00558558377213
 20
-249.2157621534225
 30
0.0
 40
0.5
100
AcDbArc
 50
-90.0
 51
0.0
  0
ARC
  5
1A0
330
51
100
AcDbEntity
  8
LC-002-002-RND-0
  6
Continuous
 62
     7
100
AcDbCircle
 10
64.49441441622787
 20
-228.5351531534224
 30
0.0
 40
0.9999999999996777
100
AcDbArc
 50
96.00000000002335
 51
180.0
  0
ARC
  5
1A1
330
51
100
AcDbEntity
  8
LC-002-002-RND-0
  6
Continuous
 62
     7
100
AcDbCircle
 10
-64.00558558377213
 20
-236.8855971534225
 30
0.0
 40
0.5
100
AcDbArc
 50
-90.0
 51
0.0
  0
ARC
  5
1A2
330
51
100
AcDbEntity
  8
LC-002-002-RND-0
  6
Continuous
 62
     7
100
AcDbCircle
 10
-64.00558558377213
 20
-224.5554311534224
 30
0.0
 40
0.5
100
AcDbArc
 50
-90.0
 51
0.0
  0
ARC
  5
1A3
330
51
100
AcDbEntity
  8
LC-002-002-RND-0
  6
Continuous
 62
     7
100
AcDbCircle
 10
-64.00558558377213
 20
-212.2252651534224
 30
0.0
 40
0.5
100
AcDbArc
 50
-90.0
 51
0.0
  0
ARC
  5
1A4
330
51
100
AcDbEntity
  8
LC-002-002-RND-0
  6
Continuous
 62
     7
100
AcDbCircle
 10
-64.00558558377213
 20
-199.8951001534225
 30
0.0
 40
0.5
100
AcDbArc
 50
-90.0
 51
0.0
  0
ARC
  5
1A5
330
51
100
AcDbEntity
  8
LC-002-002-RND-0
  6
Continuous
 62
     7
100
AcDbCircle
 10
-64.00558558377213
 20
-187.5649341534225
 30
0.0
 40
0.5
100
AcDbArc
 50
-90.0
 51
0.0
  0
ARC
  5
1A6
330
51
100
AcDbEntity
  8
LC-002-002-RND-0
  6
Continuous
 62
     7
100
AcDbCircle
 10
64.49441441622787
 20
-216.2049871534225
 30
0.0
 40
0.9999999999997625
100
AcDbArc
 50
96.00000000002284
 51
180.0
  0
ARC
  5
1A7
330
51
100
AcDbEntity
  8
LC-002-002-RND-0
  6
Continuous
 62
     7
100
AcDbCircle
 10
-64.00558558377213
 20
-175.2347681534224
 30
0.0
 40
0.5
100
AcDbArc
 50
-90.0
 51
0.0
  0
ARC
  5
1A8
330
51
100
AcDbEntity
  8
LC-002-002-RND-0
  6
Continuous
 62
     7
100
AcDbCircle
 10
-64.00558558377213
 20
-162.9046031534224
 30
0.0
 40
0.5
100
AcDbArc
 50
-90.0
 51
0.0
  0
ARC
  5
1A9
330
51
100
AcDbEntity
  8
LC-002-002-RND-0
  6
Continuous
 62
     7
100
AcDbCircle
 10
-64.00558558377213
 20
-150.5744371534225
 30
0.0
 40
0.5
100
AcDbArc
 50
-90.0
 51
0.0
  0
ARC
  5
1AA
330
51
100
AcDbEntity
  8
LC-002-002-RND-0
  6
Continuous
 62
     7
100
AcDbCircle
 10
-64.00558558377213
 20
-138.2442711534224
 30
0.0
 40
0.5
100
AcDbArc
 50
-90.0
 51
0.0
  0
ARC
  5
1AB
330
51
100
AcDbEntity
  8
LC-001-002-----0
  6
Continuous
 62
     7
100
AcDbCircle
 10
78.82849541622784
 20
-213.3911841534224
 30
0.0
 40
0.6659190000003106
100
AcDbArc
 50
-83.99999999997243
 51
90.0
  0
ARC
  5
1AC
330
51
100
AcDbEntity
  8
LC-002-002-RND-0
  6
Continuous
 62
     7
100
AcDbCircle
 10
-64.50558558377213
 20
-339.5066441534224
 30
0.0
 40
1.0
100
AcDbArc
 50
0.0
 51
83.99999999997615
  0
ARC
  5
1AD
330
51
100
AcDbEntity
  8
LC-001-002-----0
  6
Continuous
 62
     7
100
AcDbCircle
 10
-78.8396665837721
 20
-336.6928411534224
 30
0.0
 40
0.6659189999999171
100
AcDbArc
 50
90.0
 51
-96.00000000001708
  0
ARC
  5
1AE
330
51
100
AcDbEntity
  8
LC-002-002-RND-0
  6
Continuous
 62
     7
100
AcDbCircle
 10
-64.50558558377213
 20
-327.1764781534225
 30
0.0
 40
1.0
100
AcDbArc
 50
0.0
 51
83.99999999997716
  0
ARC
  5
1AF
330
51
100
AcDbEntity
  8
LC-001-002-----0
  6
Continuous
 62
     7
100
AcDbCircle
 10
-78.8396665837721
 20
-324.3626751534225
 30
0.0
 40
0.6659190000000876
100
AcDbArc
 50
90.0
 51
-96.0000000000181
  0
ARC
  5
1B0
330
51
100
AcDbEntity
  8
LC-002-002-RND-0
  6
Continuous
 62
     7
100
AcDbCircle
 10
-64.50558558377213
 20
-314.8463121534226
 30
0.0
 40
1.0
100
AcDbArc
 50
0.0
 51
83.99999999997786
  0
ARC
  5
1B1
330
51
100
AcDbEntity
  8
LC-001-002-----0
  6
Continuous
 62
     7
100
AcDbCircle
 10
-78.8396665837721
 20
-312.0325091534226
 30
0.0
 40
0.6659190000000876
100
AcDbArc
 50
90.0
 51
-96.00000000002015
  0
ARC
  5
1B2
330
51
100
AcDbEntity
  8
LC-002-002-RND-0
  6
Continuous
 62
     7
100
AcDbCircle
 10
64.49441441622787
 20
-203.8748211534225
 30
0.0
 40
0.9999999999998473
100
AcDbArc
 50
96.00000000002233
 51
180.0
  0
ARC
  5
1B3
330
51
100
AcDbEntity
  8
LC-002-002-RND-0
  6
Continuous
 62
     7
100
AcDbCircle
 10
-64.50558558377213
 20
-302.5161471534224
 30
0.0
 40
1.0
100
AcDbArc
 50
0.0
 51
83.99999999997716
  0
ARC
  5
1B4
330
51
100
AcDbEntity
  8
LC-001-002-----0
  6
Continuous
 62
     7
100
AcDbCircle
 10
-78.8396665837721
 20
-299.7023441534224
 30
0.0
 40
0.6659189999998034
100
AcDbArc
 50
90.0
 51
-96.00000000001708
  0
ARC
  5
1B5
330
51
100
AcDbEntity
  8
LC-001-002-----0
  6
Continuous
 62
     7
100
AcDbCircle
 10
78.82849541622784
 20
-201.0610181534225
 30
0.0
 40
0.6659190000001692
100
AcDbArc
 50
-83.99999999997115
 51
90.0
  0
ARC
  5
1B6
330
51
100
AcDbEntity
  8
LC-002-002-RND-0
  6
Continuous
 62
     7
100
AcDbCircle
 10
-64.50558558377213
 20
-290.1859811534225
 30
0.0
 40
1.0
100
AcDbArc
 50
0.0
 51
83.99999999997716
  0
ARC
  5
1B7
330
51
100
AcDbEntity
  8
LC-001-002-----0
  6
Continuous
 62
     7
100
AcDbCircle
 10
-78.8396665837721
 20
-287.3721781534225
 30
0.0
 40
0.6659190000000876
100
AcDbArc
 50
90.0
 51
-96.00000000001708
  0
ARC
  5
1B8
330
51
100
AcDbEntity
  8
LC-002-002-RND-0
  6
Continuous
 62
     7
100
AcDbCircle
 10
-64.50558558377213
 20
-277.8558151534226
 30
0.0
 40
1.0
100
AcDbArc
 50
0.0
 51
83.99999999997786
  0
ARC
  5
1B9
330
51
100
AcDbEntity
  8
LC-001-002-----0
  6
Continuous
 62
     7
100
AcDbCircle
 10
-78.8396665837721
 20
-275.0420121534226
 30
0.0
 40
0.6659190000000876
100
AcDbArc
 50
90.0
 51
-96.00000000001964
  0
ARC
  5
1BA
330
51
100
AcDbEntity
  8
LC-002-002-RND-0
  6
Continuous
 62
     7
100
AcDbCircle
 10
64.49441441622787
 20
-191.5446561534224
 30
0.0
 40
0.9999999999997625
100
AcDbArc
 50
96.00000000002284
 51
180.0
  0
ARC
  5
1BB
330
51
100
AcDbEntity
  8
LC-001-002-----0
  6
Continuous
 62
     7
100
AcDbCircle
 10
78.82849541622784
 20
-188.7308531534224
 30
0.0
 40
0.6659190000003954
100
AcDbArc
 50
-83.9999999999732
 51
90.0
  0
ARC
  5
1BC
330
51
100
AcDbEntity
  8
LC-002-002-RND-0
  6
Continuous
 62
     7
100
AcDbCircle
 10
64.49441441622787
 20
-179.2144901534225
 30
0.0
 40
0.9999999999997625
100
AcDbArc
 50
96.00000000002284
 51
180.0
  0
ARC
  5
1BD
330
51
100
AcDbEntity
  8
LC-001-002-----0
  6
Continuous
 62
     7
100
AcDbCircle
 10
78.82849541622784
 20
-176.4006871534224
 30
0.0
 40
0.6659190000003672
100
AcDbArc
 50
-83.99999999997294
 51
90.0
  0
ARC
  5
1BE
330
51
100
AcDbEntity
  8
LC-002-002-RND-0
  6
Continuous
 62
     7
100
AcDbCircle
 10
64.49441441622787
 20
-166.8843241534225
 30
0.0
 40
0.9999999999997908
100
AcDbArc
 50
96.00000000002267
 51
180.0
  0
ARC
  5
1BF
330
51
100
AcDbEntity
  8
LC-001-002-----0
  6
Continuous
 62
     7
100
AcDbCircle
 10
78.82849541622784
 20
-164.0705211534225
 30
0.0
 40
0.6659190000001975
100
AcDbArc
 50
-83.99999999997142
 51
90.0
  0
ARC
  5
1C0
330
51
100
AcDbEntity
  8
LC-002-002-RND-0
  6
Continuous
 62
     7
100
AcDbCircle
 10
64.49441441622787
 20
-154.5541591534224
 30
0.0
 40
0.9999999999997625
100
AcDbArc
 50
96.00000000002284
 51
180.0
  0
ARC
  5
1C1
330
51
100
AcDbEntity
  8
LC-001-002-----0
  6
Continuous
 62
     7
100
AcDbCircle
 10
78.82849541622784
 20
-151.7403561534225
 30
0.0
 40
0.6659190000002824
100
AcDbArc
 50
-83.99999999997218
 51
90.0
  0
ARC
  5
1C2
330
51
100
AcDbEntity
  8
LC-002-002-RND-0
  6
Continuous
 62
     7
100
AcDbCircle
 10
64.49441441622787
 20
-142.2239931534224
 30
0.0
 40
0.9999999999996777
100
AcDbArc
 50
96.00000000002335
 51
180.0
  0
ARC
  5
1C3
330
51
100
AcDbEntity
  8
LC-002-002-RND-0
  6
Continuous
 62
     7
100
AcDbCircle
 10
64.49441441622787
 20
-129.8938271534225
 30
0.0
 40
0.9999999999997625
100
AcDbArc
 50
96.00000000002284
 51
180.0
  0
ARC
  5
1C4
330
51
100
AcDbEntity
  8
LC-001-002-----0
  6
Continuous
 62
     7
100
AcDbCircle
 10
78.82849541622784
 20
-127.0800241534224
 30
0.0
 40
0.6659190000003954
100
AcDbArc
 50
-83.9999999999732
 51
90.0
  0
ARC
  5
1C5
330
51
100
AcDbEntity
  8
LC-001-002-----0
  6
Continuous
 62
     7
100
AcDbCircle
 10
78.82849541622784
 20
-139.4101901534224
 30
0.0
 40
0.6659190000003954
100
AcDbArc
 50
-83.9999999999732
 51
90.0
  0
ARC
  5
1C6
330
51
100
AcDbEntity
  8
LC-002-002-RND-0
  6
Continuous
 62
     7
100
AcDbCircle
 10
-64.50558558377213
 20
-265.5256501534224
 30
0.0
 40
1.0
100
AcDbArc
 50
0.0
 51
83.99999999997716
  0
ARC
  5
1C7
330
51
100
AcDbEntity
  8
LC-002-002-RND-0
  6
Continuous
 62
     7
100
AcDbCircle
 10
63.99441441622787
 20
-125.9141061534224
 30
0.0
 40
0.5
100
AcDbArc
 50
180.0
 51
-90.0
  0
ARC
  5
1C8
330
51
100
AcDbEntity
  8
LC-001-002-----0
  6
Continuous
 62
     7
100
AcDbCircle
 10
78.82849541622784
 20
-114.7498591534225
 30
0.0
 40
0.6659190000001834
100
AcDbArc
 50
-83.9999999999713
 51
90.0
  0
ARC
  5
1C9
330
51
100
AcDbEntity
  8
LC-001-002-----0
  6
Continuous
 62
     7
100
AcDbCircle
 10
-78.8396665837721
 20
-262.7118471534225
 30
0.0
 40
0.6659189999999171
100
AcDbArc
 50
90.0
 51
-96.0000000000181
  0
ARC
  5
1CA
330
51
100
AcDbEntity
  8
LC-002-002-RND-0
  6
Continuous
 62
     7
100
AcDbCircle
 10
63.99441441622787
 20
-187.5649341534225
 30
0.0
 40
0.5
100
AcDbArc
 50
180.0
 51
-90.0
  0
ARC
  5
1CB
330
51
100
AcDbEntity
  8
LC-002-002-RND-0
  6
Continuous
 62
     7
100
AcDbCircle
 10
63.99441441622787
 20
-175.2347681534224
 30
0.0
 40
0.5
100
AcDbArc
 50
180.0
 51
-90.0
  0
ARC
  5
1CC
330
51
100
AcDbEntity
  8
LC-002-002-RND-0
  6
Continuous
 62
     7
100
AcDbCircle
 10
63.99441441622787
 20
-138.2442711534224
 30
0.0
 40
0.5
100
AcDbArc
 50
180.0
 51
-90.0
  0
ARC
  5
1CD
330
51
100
AcDbEntity
  8
LC-002-002-RND-0
  6
Continuous
 62
     7
100
AcDbCircle
 10
-64.50558558377213
 20
-253.1954841534225
 30
0.0
 40
1.0
100
AcDbArc
 50
0.0
 51
83.99999999997733
  0
ARC
  5
1CE
330
51
100
AcDbEntity
  8
LC-001-002-----0
  6
Continuous
 62
     7
100
AcDbCircle
 10
-78.8396665837721
 20
-250.3816811534225
 30
0.0
 40
0.6659190000000024
100
AcDbArc
 50
90.0
 51
-96.00000000001886
  0
ARC
  5
1CF
330
51
100
AcDbEntity
  8
LC-002-002-RND-0
  6
Continuous
 62
     7
100
AcDbCircle
 10
-64.50558558377213
 20
-339.5066441534224
 30
0.0
 40
1.0
100
AcDbArc
 50
0.0
 51
83.99999999997615
  0
ARC
  5
1D0
330
51
100
AcDbEntity
  8
LC-002-002-RND-0
  6
Continuous
 62
     7
100
AcDbCircle
 10
-64.50558558377213
 20
-240.8653181534224
 30
0.0
 40
1.0
100
AcDbArc
 50
0.0
 51
83.99999999997716
  0
ARC
  5
1D1
330
51
100
AcDbEntity
  8
LC-001-002-----0
  6
Continuous
 62
     7
100
AcDbCircle
 10
-78.8396665837721
 20
-238.0515151534224
 30
0.0
 40
0.6659189999998887
100
AcDbArc
 50
90.0
 51
-96.00000000001708
  0
ARC
  5
1D2
330
51
100
AcDbEntity
  8
LC-002-002-RND-0
  6
Continuous
 62
     7
100
AcDbCircle
 10
-64.50558558377213
 20
-228.5351531534224
 30
0.0
 40
1.0
100
AcDbArc
 50
0.0
 51
83.99999999997665
  0
ARC
  5
1D3
330
51
100
AcDbEntity
  8
LC-001-002-----0
  6
Continuous
 62
     7
100
AcDbCircle
 10
-78.8396665837721
 20
-225.7213501534224
 30
0.0
 40
0.6659190000000024
100
AcDbArc
 50
90.0
 51
-96.00000000001708
  0
ARC
  5
1D4
330
51
100
AcDbEntity
  8
LC-002-002-RND-0
  6
Continuous
 62
     7
100
AcDbCircle
 10
-64.50558558377213
 20
-216.2049871534225
 30
0.0
 40
1.0
100
AcDbArc
 50
0.0
 51
83.99999999997716
  0
ARC
  5
1D5
330
51
100
AcDbEntity
  8
LC-001-002-----0
  6
Continuous
 62
     7
100
AcDbCircle
 10
-78.8396665837721
 20
-213.3911841534224
 30
0.0
 40
0.665918999999974
100
AcDbArc
 50
90.0
 51
-96.00000000001785
  0
ARC
  5
1D6
330
51
100
AcDbEntity
  8
LC-002-002-RND-0
  6
Continuous
 62
     7
100
AcDbCircle
 10
-64.50558558377213
 20
-203.8748211534225
 30
0.0
 40
1.0
100
AcDbArc
 50
0.0
 51
83.99999999997767
  0
ARC
  5
1D7
330
51
100
AcDbEntity
  8
LC-001-002-----0
  6
Continuous
 62
     7
100
AcDbCircle
 10
-78.8396665837721
 20
-201.0610181534225
 30
0.0
 40
0.6659190000000024
100
AcDbArc
 50
90.0
 51
-96.00000000001911
  0
ARC
  5
1D8
330
51
100
AcDbEntity
  8
LC-002-002-RND-0
  6
Continuous
 62
     7
100
AcDbCircle
 10
-64.50558558377213
 20
-191.5446561534224
 30
0.0
 40
1.0
100
AcDbArc
 50
0.0
 51
83.99999999997716
  0
ARC
  5
1D9
330
51
100
AcDbEntity
  8
LC-001-002-----0
  6
Continuous
 62
     7
100
AcDbCircle
 10
-78.8396665837721
 20
-188.7308531534224
 30
0.0
 40
0.6659189999998887
100
AcDbArc
 50
90.0
 51
-96.00000000001708
  0
ARC
  5
1DA
330
51
100
AcDbEntity
  8
LC-002-002-RND-0
  6
Continuous
 62
     7
100
AcDbCircle
 10
-64.50558558377213
 20
-179.2144901534225
 30
0.0
 40
1.0
100
AcDbArc
 50
0.0
 51
83.99999999997716
  0
ARC
  5
1DB
330
51
100
AcDbEntity
  8
LC-001-002-----0
  6
Continuous
 62
     7
100
AcDbCircle
 10
-78.8396665837721
 20
-176.4006871534224
 30
0.0
 40
0.6659190000000024
100
AcDbArc
 50
90.0
 51
-96.00000000001734
  0
ARC
  5
1DC
330
51
100
AcDbEntity
  8
LC-002-002-RND-0
  6
Continuous
 62
     7
100
AcDbCircle
 10
-64.50558558377213
 20
-166.8843241534225
 30
0.0
 40
1.0
100
AcDbArc
 50
0.0
 51
83.99999999997733
  0
ARC
  5
1DD
330
51
100
AcDbEntity
  8
LC-001-002-----0
  6
Continuous
 62
     7
100
AcDbCircle
 10
-78.8396665837721
 20
-164.0705211534225
 30
0.0
 40
0.6659190000000024
100
AcDbArc
 50
90.0
 51
-96.00000000001886
  0
ARC
  5
1DE
330
51
100
AcDbEntity
  8
LC-002-002-RND-0
  6
Continuous
 62
     7
100
AcDbCircle
 10
-64.50558558377213
 20
-154.5541591534224
 30
0.0
 40
1.0
100
AcDbArc
 50
0.0
 51
83.99999999997716
  0
ARC
  5
1DF
330
51
100
AcDbEntity
  8
LC-001-002-----0
  6
Continuous
 62
     7
100
AcDbCircle
 10
-78.8396665837721
 20
-151.7403561534225
 30
0.0
 40
0.6659190000000024
100
AcDbArc
 50
90.0
 51
-96.0000000000181
  0
ARC
  5
1E0
330
51
100
AcDbEntity
  8
LC-002-002-RND-0
  6
Continuous
 62
     7
100
AcDbCircle
 10
64.49441441622787
 20
-339.5066441534224
 30
0.0
 40
0.9999999999995929
100
AcDbArc
 50
96.00000000002386
 51
180.0
  0
ARC
  5
1E1
330
51
100
AcDbEntity
  8
LC-002-002-RND-0
  6
Continuous
 62
     7
100
AcDbCircle
 10
-64.50558558377213
 20
-142.2239931534224
 30
0.0
 40
1.0
100
AcDbArc
 50
0.0
 51
83.99999999997665
  0
ARC
  5
1E2
330
51
100
AcDbEntity
  8
LC-002-002-RND-0
  6
Continuous
 62
     7
100
AcDbCircle
 10
-64.50558558377213
 20
-129.8938271534225
 30
0.0
 40
1.0
100
AcDbArc
 50
0.0
 51
83.99999999997716
  0
ARC
  5
1E3
330
51
100
AcDbEntity
  8
LC-001-002-----0
  6
Continuous
 62
     7
100
AcDbCircle
 10
-78.8396665837721
 20
-127.0800241534224
 30
0.0
 40
0.6659190000000024
100
AcDbArc
 50
90.0
 51
-96.00000000001708
  0
ARC
  5
1E4
330
51
100
AcDbEntity
  8
LC-002-002-RND-0
  6
Continuous
 62
     7
100
AcDbCircle
 10
-64.00558558377213
 20
-125.9141061534224
 30
0.0
 40
0.5
100
AcDbArc
 50
-90.0
 51
0.0
  0
ARC
  5
1E5
330
51
100
AcDbEntity
  8
LC-002-002-RND-0
  6
Continuous
 62
     7
100
AcDbCircle
 10
64.49441441622787
 20
-117.5636621534225
 30
0.0
 40
0.9999999999997625
100
AcDbArc
 50
96.00000000002284
 51
180.0
  0
ARC
  5
1E6
330
51
100
AcDbEntity
  8
LC-002-002-RND-0
  6
Continuous
 62
     7
100
AcDbCircle
 10
-64.50558558377213
 20
-117.5636621534225
 30
0.0
 40
1.0
100
AcDbArc
 50
0.0
 51
83.99999999997716
  0
ARC
  5
1E7
330
51
100
AcDbEntity
  8
LC-001-002-----0
  6
Continuous
 62
     7
100
AcDbCircle
 10
-78.8396665837721
 20
-114.7498591534225
 30
0.0
 40
0.6659190000000024
100
AcDbArc
 50
90.0
 51
-96.00000000001899
  0
ARC
  5
1E8
330
51
100
AcDbEntity
  8
LC-002-002-RND-0
  6
Continuous
 62
     7
100
AcDbCircle
 10
175.0035754162279
 20
-7.08795115342247
 30
0.0
 40
2.00000000000045
100
AcDbArc
 50
-0.00126499999714
 51
89.99873500000204
  0
ARC
  5
1E9
330
51
100
AcDbEntity
  8
LC-002-002-RND-0
  6
Continuous
 62
     7
100
AcDbCircle
 10
-174.9964235837722
 20
-7.08022415342248
 30
0.0
 40
2.000000000000479
100
AcDbArc
 50
89.99873499999879
 51
179.9987350000012
  0
ARC
  5
1EA
330
51
100
AcDbEntity
  8
LC-002-002-RND-0
  6
Continuous
 62
     7
100
AcDbCircle
 10
-77.74728358377217
 20
-46.03357915342247
 30
0.0
 40
3.000000000000178
100
AcDbArc
 50
179.9987350000016
 51
-90.00126499999713
  0
ARC
  5
1EB
330
51
100
AcDbEntity
  8
LC-002-002-RND-0
  6
Continuous
 62
     7
100
AcDbCircle
 10
77.75271641622783
 20
-46.03701215342245
 30
0.0
 40
3.000000000000235
100
AcDbArc
 50
-90.00126499999713
 51
-0.00126499999795
  0
ARC
  5
1EC
330
51
100
AcDbEntity
  8
LC-002-002-RND-0
  6
Continuous
 62
     7
100
AcDbCircle
 10
-101.9913855837722
 20
-18.33920815342248
 30
0.0
 40
0.5
100
AcDbArc
 50
0.0
 51
90.0
  0
ARC
  5
1ED
330
51
100
AcDbEntity
  8
LC-002-002-RND-0
  6
Continuous
 62
     7
100
AcDbCircle
 10
-99.99138558377217
 20
-32.33920815342248
 30
0.0
 40
1.500000000000028
100
AcDbArc
 50
180.0
 51
-90.0
  0
ARC
  5
1EE
330
51
100
AcDbEntity
  8
LC-002-002-RND-0
  6
Continuous
 62
     7
100
AcDbCircle
 10
102.0156204162279
 20
-18.33892815342245
 30
0.0
 40
0.4999999999998876
100
AcDbArc
 50
90.00015699994675
 51
-179.9998430000532
  0
CIRCLE
  5
1EF
330
51
100
AcDbEntity
  8
LC-006-221-----0
  6
Continuous
 62
     7
100
AcDbCircle
 10
-79.05617558377207
 20
-127.0698041534224
 30
0.0
 40
0.5
  0
ARC
  5
1F0
330
51
100
AcDbEntity
  8
1
  6
Continuous
 62
     7
100
AcDbCircle
 10
100.0156584162342
 20
-32.33893448160617
 30
0.0
 40
1.500000000000002
100
AcDbArc
 50
-89.99984321747549
 51
0.00015551711632
  0
ENDBLK
  5
53
330
51
100
AcDbEntity
  8
0
100
AcDbBlockEnd
  0
BLOCK
  5
55
330
54
100
AcDbEntity
  8
0
100
AcDbBlockBegin
  2
HL_69_5_Renovierungs-Dachablauf__1
 70
     0
 71
     0
 10
0.00340451068791
 20
-3.08408815342245
 30
0.0
  3
HL_69_5_Renovierungs-Dachablauf__1
  1

  0
LWPOLYLINE
  5
1F1
330
54
100
AcDbEntity
  8
LC-004-005-----0
  6
Continuous
 62
     3
100
AcDbPolyline
 90
        2
 70
     0
 43
1.0
 10
1.34014301480215
 20
-354.0745802514472
 10
-1.74489098519786
 20
-350.9895462514472
  0
LWPOLYLINE
  5
1F2
330
54
100
AcDbEntity
  8
LC-004-005-----0
  6
Continuous
 62
     3
100
AcDbPolyline
 90
        2
 70
     0
 43
1.0
 10
1.27433301480215
 20
-354.5744562514473
 10
-1.65912398519788
 20
-351.6409982514472
  0
LWPOLYLINE
  5
1F3
330
54
100
AcDbEntity
  8
LC-004-005-----0
  6
Continuous
 62
     3
100
AcDbPolyline
 90
        2
 70
     0
 43
1.0
 10
1.20852401480215
 20
-355.0743312514472
 10
-1.57335698519785
 20
-352.2924512514472
  0
LWPOLYLINE
  5
1F4
330
54
100
AcDbEntity
  8
LC-004-005-----0
  6
Continuous
 62
     3
100
AcDbPolyline
 90
        2
 70
     0
 43
1.0
 10
1.14271401480215
 20
-355.5742072514473
 10
-1.48758998519787
 20
-352.9439042514472
  0
LWPOLYLINE
  5
1F5
330
54
100
AcDbEntity
  8
LC-004-005-----0
  6
Continuous
 62
     3
100
AcDbPolyline
 90
        2
 70
     0
 43
1.0
 10
1.07690401480215
 20
-356.0740822514472
 10
-1.40182198519784
 20
-353.5953562514472
  0
LWPOLYLINE
  5
1F6
330
54
100
AcDbEntity
  8
LC-004-005-----0
  6
Continuous
 62
     3
100
AcDbPolyline
 90
        2
 70
     0
 43
1.0
 10
1.01109401480215
 20
-356.5739582514473
 10
-1.31605498519787
 20
-354.2468092514473
  0
LWPOLYLINE
  5
1F7
330
54
100
AcDbEntity
  8
LC-004-005-----0
  6
Continuous
 62
     3
100
AcDbPolyline
 90
        2
 70
     0
 43
1.0
 10
0.94528401480216
 20
-357.0738332514472
 10
-1.23028798519783
 20
-354.8982612514473
  0
ENDBLK
  5
56
330
54
100
AcDbEntity
  8
0
100
AcDbBlockEnd
  0
BLOCK
  5
5A
330
57
100
AcDbEntity
  8
0
100
AcDbBlockBegin
  2
HL_69_5_Renovierungs-Dachablauf__2
 70
     0
 71
     0
 10
0.00340451068791
 20
-3.08408815342245
 30
0.0
  3
HL_69_5_Renovierungs-Dachablauf__2
  1

  0
INSERT
  5
58
330
57
100
AcDbEntity
  8
0
100
AcDbBlockReference
  2
TOP
 10
33.68841864415094
 20
-462.6237650553978
 30
0.0
  0
INSERT
  5
59
330
57
100
AcDbEntity
  8
1
100
AcDbBlockReference
  2
HL_69_5_Renovierungs-Dachablauf__1
 10
0.00340451068791
 20
-3.08408815342245
 30
0.0
  0
ENDBLK
  5
5B
330
57
100
AcDbEntity
  8
0
100
AcDbBlockEnd
  0
BLOCK
  5
5D
330
5C
100
AcDbEntity
  8
0
100
AcDbBlockBegin
  2
062_1E_Laubfangkorb
 70
     0
 71
     0
 10
-867.5838060576368
 20
654.5262580000001
 30
0.0
  3
062_1E_Laubfangkorb
  1

  0
LINE
  5
1F8
330
5C
100
AcDbEntity
  8
LC-007-006-MLN-0
  6
CENTER
 62
     2
100
AcDbLine
 10
0.0
 20
80.13547700000004
 30
0.0
 11
0.0
 21
-35.53364099999999
 31
0.0
  0
LINE
  5
1F9
330
5C
100
AcDbEntity
  8
LC-002-002-----0
  6
Continuous
 62
     7
100
AcDbLine
 10
-35.13292500000011
 20
3.20025700000002
 30
0.0
 11
-47.46101399999998
 21
3.20022999999992
 31
0.0
  0
LINE
  5
1FA
330
5C
100
AcDbEntity
  8
LC-002-002-----0
  6
Continuous
 62
     7
100
AcDbLine
 10
-1.15021200000001
 20
32.6376820000001
 30
0.0
 11
-1.15021200000001
 21
0.0
 31
0.0
  0
LINE
  5
1FB
330
5C
100
AcDbEntity
  8
LC-002-002-----0
  6
Continuous
 62
     7
100
AcDbLine
 10
1.14978799999994
 20
32.6376820000001
 30
0.0
 11
1.14978799999994
 21
0.0
 31
0.0
  0
LINE
  5
1FC
330
5C
100
AcDbEntity
  8
LC-002-002-----0
  6
Continuous
 62
     7
100
AcDbLine
 10
-59.73344523298283
 20
0.0
 30
0.0
 11
-47.68306200000006
 21
32.6376820000001
 31
0.0
  0
LINE
  5
1FD
330
5C
100
AcDbEntity
  8
LC-002-002-----0
  6
Continuous
 62
     7
100
AcDbLine
 10
-33.82325723545068
 20
0.0
 30
0.0
 11
-26.86596800000007
 21
32.6376820000001
 31
0.0
  0
LINE
  5
1FE
330
5C
100
AcDbEntity
  8
LC-002-002-----0
  6
Continuous
 62
     7
100
AcDbLine
 10
-35.81511617771025
 20
0.0
 30
0.0
 11
-28.85782600000005
 21
32.6376820000001
 31
0.0
  0
LINE
  5
1FF
330
5C
100
AcDbEntity
  8
LC-002-002-----0
  6
Continuous
 62
     7
100
AcDbLine
 10
-19.13465394594118
 20
0.0
 30
0.0
 11
-15.53329699999995
 21
32.6376820000001
 31
0.0
  0
LINE
  5
200
330
5C
100
AcDbEntity
  8
LC-002-002-----0
  6
Continuous
 62
     7
100
AcDbLine
 10
-16.9130249459414
 20
0.0
 30
0.0
 11
-13.31166800000005
 21
32.6376820000001
 31
0.0
  0
LINE
  5
201
330
5C
100
AcDbEntity
  8
LC-002-002-----0
  6
Continuous
 62
     7
100
AcDbLine
 10
-60.88344517524251
 20
0.0
 30
0.0
 11
-48.83306100000004
 21
32.6376820000001
 31
0.0
  0
LINE
  5
202
330
5C
100
AcDbEntity
  8
LC-002-002-----0
  6
Continuous
 62
     7
100
AcDbLine
 10
-48.42745305231415
 20
0.0
 30
0.0
 11
-38.57118400000002
 21
32.6376820000001
 31
0.0
  0
LINE
  5
203
330
5C
100
AcDbEntity
  8
LC-002-002-----0
  6
Continuous
 62
     7
100
AcDbLine
 10
-50.05485137446442
 20
0.0
 30
0.0
 11
-40.21575499999995
 21
32.6376820000001
 31
0.0
  0
LINE
  5
204
330
5C
100
AcDbEntity
  8
LC-002-002-----0
  6
Continuous
 62
     7
100
AcDbLine
 10
-66.96766403170284
 20
0.0
 30
0.0
 11
-53.52720599999998
 21
32.6376820000001
 31
0.0
  0
LINE
  5
205
330
5C
100
AcDbEntity
  8
LC-002-002-----0
  6
Continuous
 62
     7
100
AcDbLine
 10
-67.56294803170283
 20
0.0
 30
0.0
 11
-54.12248999999997
 21
32.6376820000001
 31
0.0
  0
LINE
  5
206
330
5C
100
AcDbEntity
  8
LC-002-002-----0
  6
Continuous
 62
     7
100
AcDbLine
 10
16.91207958314749
 20
0.0
 30
0.0
 11
13.31062799999995
 21
32.63771900000012
 31
0.0
  0
LINE
  5
207
330
5C
100
AcDbEntity
  8
LC-002-002-----0
  6
Continuous
 62
     7
100
AcDbLine
 10
19.13371018748626
 20
0.0
 30
0.0
 11
15.53225699999996
 21
32.6377250000001
 31
0.0
  0
LINE
  5
208
330
5C
100
AcDbEntity
  8
LC-002-002-----0
  6
Continuous
 62
     7
100
AcDbLine
 10
35.81418660777854
 20
0.0
 30
0.0
 11
28.85678699999994
 21
32.63776100000024
 31
0.0
  0
LINE
  5
209
330
5C
100
AcDbEntity
  8
LC-002-002-----0
  6
Continuous
 62
     7
100
AcDbLine
 10
33.82232748418915
 20
0.0
 30
0.0
 11
26.86492799999996
 21
32.63775600000014
 31
0.0
  0
LINE
  5
20A
330
5C
100
AcDbEntity
  8
LC-002-002-----0
  6
Continuous
 62
     7
100
AcDbLine
 10
48.42654348810197
 20
0.0
 30
0.0
 11
38.57014400000003
 21
32.637788
 31
0.0
  0
LINE
  5
20B
330
5C
100
AcDbEntity
  8
LC-002-002-----0
  6
Continuous
 62
     7
100
AcDbLine
 10
50.05394234600124
 20
0.0
 30
0.0
 11
40.21471599999995
 21
32.63779199999999
 31
0.0
  0
LINE
  5
20C
330
5C
100
AcDbEntity
  8
LC-002-002-----0
  6
Continuous
 62
     7
100
AcDbLine
 10
59.73255623424734
 20
0.0
 30
0.0
 11
47.68202199999996
 21
32.63781300000011
 31
0.0
  0
LINE
  5
20D
330
5C
100
AcDbEntity
  8
LC-002-002-----0
  6
Continuous
 62
     7
100
AcDbLine
 10
60.88255734190716
 20
0.0
 30
0.0
 11
48.83202200000005
 21
32.63781600000021
 31
0.0
  0
LINE
  5
20E
330
5C
100
AcDbEntity
  8
LC-002-002-----0
  6
Continuous
 62
     7
100
AcDbLine
 10
66.96679015814289
 20
0.0
 30
0.0
 11
53.5261660000001
 21
32.63782900000012
 31
0.0
  0
LINE
  5
20F
330
5C
100
AcDbEntity
  8
LC-002-002-----0
  6
Continuous
 62
     7
100
AcDbLine
 10
67.56207362768919
 20
0.0
 30
0.0
 11
54.1214500000001
 21
32.63782999999989
 31
0.0
  0
LINE
  5
210
330
5C
100
AcDbEntity
  8
LC-002-002-----0
  6
Continuous
 62
     7
100
AcDbLine
 10
-68.60749699999997
 20
3.20018499999992
 30
0.0
 11
-66.24508400000002
 21
3.20019000000002
 31
0.0
  0
LINE
  5
211
330
5C
100
AcDbEntity
  8
LC-002-002-----0
  6
Continuous
 62
     7
100
AcDbLine
 10
-49.09009700000001
 20
3.20022700000004
 30
0.0
 11
-58.55187499999988
 21
3.20020600000004
 31
0.0
  0
LINE
  5
212
330
5C
100
AcDbEntity
  8
LC-002-002-----0
  6
Continuous
 62
     7
100
AcDbLine
 10
-47.697946
 20
7.81818900000013
 30
0.0
 11
-56.84683800000005
 21
7.81818900000013
 31
0.0
  0
LINE
  5
213
330
5C
100
AcDbEntity
  8
LC-002-002-----0
  6
Continuous
 62
     7
100
AcDbLine
 10
-34.14853300000004
 20
7.81818900000013
 30
0.0
 11
-46.06643499999996
 21
7.81818900000013
 31
0.0
  0
LINE
  5
214
330
5C
100
AcDbEntity
  8
LC-002-002-----0
  6
Continuous
 62
     7
100
AcDbLine
 10
-18.27196800000002
 20
7.81818900000013
 30
0.0
 11
-32.15667499999995
 21
7.81818900000013
 31
0.0
  0
LINE
  5
215
330
5C
100
AcDbEntity
  8
LC-002-002-----0
  6
Continuous
 62
     7
100
AcDbLine
 10
-1.15021200000001
 20
7.81818900000013
 30
0.0
 11
-16.05033800000001
 21
7.81818900000013
 31
0.0
  0
LINE
  5
216
330
5C
100
AcDbEntity
  8
LC-002-002-----0
  6
Continuous
 62
     7
100
AcDbLine
 10
16.04937199999995
 20
7.81818900000013
 30
0.0
 11
1.14978799999994
 21
7.81818900000013
 31
0.0
  0
LINE
  5
217
330
5C
100
AcDbEntity
  8
LC-002-002-----0
  6
Continuous
 62
     7
100
AcDbLine
 10
32.15572199999997
 20
7.81818900000013
 30
0.0
 11
18.27100199999995
 21
7.81818900000013
 31
0.0
  0
LINE
  5
218
330
5C
100
AcDbEntity
  8
LC-002-002-----0
  6
Continuous
 62
     7
100
AcDbLine
 10
46.06550100000004
 20
7.81818900000013
 30
0.0
 11
34.14758200000006
 21
7.81818900000013
 31
0.0
  0
LINE
  5
219
330
5C
100
AcDbEntity
  8
LC-002-002-----0
  6
Continuous
 62
     7
100
AcDbLine
 10
56.84592399999997
 20
7.81818900000013
 30
0.0
 11
47.69701399999985
 21
7.81818900000013
 31
0.0
  0
LINE
  5
21A
330
5C
100
AcDbEntity
  8
LC-002-002-----0
  6
Continuous
 62
     7
100
AcDbLine
 10
16.55893100000003
 20
3.20036899999991
 30
0.0
 11
1.14978799999994
 21
3.20033600000011
 31
0.0
  0
LINE
  5
21B
330
5C
100
AcDbEntity
  8
LC-002-002-----0
  6
Continuous
 62
     7
100
AcDbLine
 10
33.14009600000009
 20
3.2004050000001
 30
0.0
 11
18.78056100000003
 21
3.20037400000001
 31
0.0
  0
LINE
  5
21C
330
5C
100
AcDbEntity
  8
LC-002-002-----0
  6
Continuous
 62
     7
100
AcDbLine
 10
47.46003299999984
 20
3.20043600000014
 30
0.0
 11
35.13195500000006
 21
3.20040900000004
 31
0.0
  0
LINE
  5
21D
330
5C
100
AcDbEntity
  8
LC-002-002-----0
  6
Continuous
 62
     7
100
AcDbLine
 10
58.550882
 20
3.20046000000002
 30
0.0
 11
49.08911499999999
 21
3.20043900000002
 31
0.0
  0
LINE
  5
21E
330
5C
100
AcDbEntity
  8
LC-002-002-----0
  6
Continuous
 62
     7
100
AcDbLine
 10
-59.70187600000008
 20
3.20020400000004
 30
0.0
 11
-65.64980000000003
 21
3.20019100000013
 31
0.0
  0
LINE
  5
21F
330
5C
100
AcDbEntity
  8
LC-002-002-----0
  6
Continuous
 62
     7
100
AcDbLine
 10
-1.15021200000001
 20
3.20033100000001
 30
0.0
 11
-16.5598930000001
 21
3.20029700000009
 31
0.0
  0
LINE
  5
220
330
5C
100
AcDbEntity
  8
LC-002-002-----0
  6
Continuous
 62
     7
100
AcDbLine
 10
-47.46101399999998
 20
3.20022999999992
 30
0.0
 11
-35.13292500000011
 21
3.20025700000002
 31
0.0
  0
LINE
  5
221
330
5C
100
AcDbEntity
  8
LC-002-002-----0
  6
Continuous
 62
     7
100
AcDbLine
 10
-18.78152300000011
 20
3.20029199999999
 30
0.0
 11
-33.14106600000002
 21
3.20026100000001
 31
0.0
  0
LINE
  5
222
330
5C
100
AcDbEntity
  8
LC-002-002-----0
  6
Continuous
 62
     7
100
AcDbLine
 10
-16.5598930000001
 20
3.20029700000009
 30
0.0
 11
-1.15021200000001
 21
3.20033100000001
 31
0.0
  0
LINE
  5
223
330
5C
100
AcDbEntity
  8
LC-002-002-----0
  6
Continuous
 62
     7
100
AcDbLine
 10
-33.14106600000002
 20
3.20026100000001
 30
0.0
 11
-18.78152300000011
 21
3.20029199999999
 31
0.0
  0
LINE
  5
224
330
5C
100
AcDbEntity
  8
LC-002-002-----0
  6
Continuous
 62
     7
100
AcDbLine
 10
-58.55187499999988
 20
3.20020600000004
 30
0.0
 11
-49.09009700000001
 21
3.20022700000004
 31
0.0
  0
LINE
  5
225
330
5C
100
AcDbEntity
  8
LC-002-002-----0
  6
Continuous
 62
     7
100
AcDbLine
 10
-65.64980000000003
 20
3.20019100000013
 30
0.0
 11
-59.70187600000008
 21
3.20020400000004
 31
0.0
  0
LINE
  5
226
330
5C
100
AcDbEntity
  8
LC-002-002-----0
  6
Continuous
 62
     7
100
AcDbLine
 10
-69.77226852490196
 20
0.0
 30
0.0
 11
-43.20243900000003
 21
73.00000600000004
 31
0.0
  0
LINE
  5
227
330
5C
100
AcDbEntity
  8
LC-002-002-----0
  6
Continuous
 62
     7
100
AcDbLine
 10
-85.52210003109053
 20
0.0
 30
0.0
 11
-62.54454899999996
 21
63.13030100000003
 31
0.0
  0
LINE
  5
228
330
5C
100
AcDbEntity
  8
LC-002-002-----0
  6
Continuous
 62
     7
100
AcDbLine
 10
85.52123477848295
 20
0.0
 30
0.0
 11
62.54342599999995
 21
63.13047200000011
 31
0.0
  0
LINE
  5
229
330
5C
100
AcDbEntity
  8
LC-002-002-----0
  6
Continuous
 62
     7
100
AcDbLine
 10
69.7713885504786
 20
0.0
 30
0.0
 11
43.20128900000009
 21
73.00012400000003
 31
0.0
  0
LINE
  5
22A
330
5C
100
AcDbEntity
  8
LC-002-002-----0
  6
Continuous
 62
     7
100
AcDbLine
 10
-3.30588899999998
 20
58.20005999999989
 30
0.0
 11
-3.30588899999998
 21
73.00006000000013
 31
0.0
  0
LINE
  5
22B
330
5C
100
AcDbEntity
  8
LC-002-002-----0
  6
Continuous
 62
     7
100
AcDbLine
 10
3.30477900000005
 20
58.20006900000004
 30
0.0
 11
3.30473800000004
 21
73.00006900000022
 31
0.0
  0
LINE
  5
22C
330
5C
100
AcDbEntity
  8
LC-002-002-----0
  6
Continuous
 62
     7
100
AcDbLine
 10
-48.44918099999995
 20
72.99999800000012
 30
0.0
 11
48.44803000000002
 21
73.00013100000001
 31
0.0
  0
LINE
  5
22D
330
5C
100
AcDbEntity
  8
LC-002-002-----0
  6
Continuous
 62
     7
100
AcDbLine
 10
42.48630400000002
 20
68.91498999999999
 30
0.0
 11
40.99942499999997
 21
73.00012100000004
 31
0.0
  0
LINE
  5
22E
330
5C
100
AcDbEntity
  8
LC-002-002-----0
  6
Continuous
 62
     7
100
AcDbLine
 10
44.83916999999997
 20
68.50012300000003
 30
0.0
 11
42.48630400000002
 21
68.91498999999999
 31
0.0
  0
LINE
  5
22F
330
5C
100
AcDbEntity
  8
LC-002-002-----0
  6
Continuous
 62
     7
100
AcDbLine
 10
-42.48744299999999
 20
68.91487300000023
 30
0.0
 11
-41.00057500000003
 21
73.00000900000009
 31
0.0
  0
LINE
  5
230
330
5C
100
AcDbEntity
  8
LC-002-002-----0
  6
Continuous
 62
     7
100
AcDbLine
 10
-44.84030800000005
 20
68.5
 30
0.0
 11
-42.48744299999999
 21
68.91487300000023
 31
0.0
  0
LINE
  5
231
330
5C
100
AcDbEntity
  8
LC-002-002-----0
  6
Continuous
 62
     7
100
AcDbLine
 10
56.19512699999996
 20
37.30015400000013
 30
0.0
 11
56.19513899999993
 21
32.93705299999994
 31
0.0
  0
LINE
  5
232
330
5C
100
AcDbEntity
  8
LC-002-002-----0
  6
Continuous
 62
     7
100
AcDbLine
 10
57.99156900000003
 20
32.62029900000022
 30
0.0
 11
56.19513899999993
 21
32.93705299999994
 31
0.0
  0
LINE
  5
233
330
5C
100
AcDbEntity
  8
LC-002-002-----0
  6
Continuous
 62
     7
100
AcDbLine
 10
1.14978799999994
 20
58.20006600000022
 30
0.0
 11
1.14978799999994
 21
37.30000000000001
 31
0.0
  0
LINE
  5
234
330
5C
100
AcDbEntity
  8
LC-002-002-----0
  6
Continuous
 62
     7
100
AcDbLine
 10
-1.15021200000001
 20
58.200063
 30
0.0
 11
-1.15021200000001
 21
37.30000000000001
 31
0.0
  0
LINE
  5
235
330
5C
100
AcDbEntity
  8
LC-002-002-----0
  6
Continuous
 62
     7
100
AcDbLine
 10
-56.19617900000003
 20
37.30000000000001
 30
0.0
 11
-56.19617900000003
 21
32.9368990000001
 31
0.0
  0
LINE
  5
236
330
5C
100
AcDbEntity
  8
LC-002-002-----0
  6
Continuous
 62
     7
100
AcDbLine
 10
-57.89312399999994
 20
32.6376820000001
 30
0.0
 11
-56.19617900000003
 21
32.9368990000001
 31
0.0
  0
LINE
  5
237
330
5C
100
AcDbEntity
  8
LC-002-002-----0
  6
Continuous
 62
     7
100
AcDbLine
 10
-48.58920200000011
 20
58.19999800000011
 30
0.0
 11
48.58809199999996
 21
58.20013200000022
 31
0.0
  0
LINE
  5
238
330
5C
100
AcDbEntity
  8
LC-002-002-----0
  6
Continuous
 62
     7
100
AcDbLine
 10
-56.19617900000003
 20
37.30000000000001
 30
0.0
 11
56.19512699999996
 21
37.30000000000001
 31
0.0
  0
LINE
  5
239
330
5C
100
AcDbEntity
  8
LC-002-002-----0
  6
Continuous
 62
     7
100
AcDbLine
 10
-57.89312399999994
 20
32.6376820000001
 30
0.0
 11
57.89208400000007
 21
32.6376820000001
 31
0.0
  0
LINE
  5
23A
330
5C
100
AcDbEntity
  8
LC-002-002-----0
  6
Continuous
 62
     7
100
AcDbLine
 10
-51.60722600000008
 20
37.30000000000001
 30
0.0
 11
-43.00043700000003
 21
58.20000600000009
 31
0.0
  0
LINE
  5
23B
330
5C
100
AcDbEntity
  8
LC-002-002-----0
  6
Continuous
 62
     7
100
AcDbLine
 10
-52.20251000000008
 20
37.30000000000001
 30
0.0
 11
-43.59572100000003
 21
58.20000500000003
 31
0.0
  0
LINE
  5
23C
330
5C
100
AcDbEntity
  8
LC-002-002-----0
  6
Continuous
 62
     7
100
AcDbLine
 10
-47.11165500000004
 20
37.30000000000001
 30
0.0
 11
-39.39501700000005
 21
58.20001100000019
 31
0.0
  0
LINE
  5
23D
330
5C
100
AcDbEntity
  8
LC-002-002-----0
  6
Continuous
 62
     7
100
AcDbLine
 10
-45.96165500000006
 20
37.30000000000001
 30
0.0
 11
-38.24501699999996
 21
58.20001200000013
 31
0.0
  0
LINE
  5
23E
330
5C
100
AcDbEntity
  8
LC-002-002-----0
  6
Continuous
 62
     7
100
AcDbLine
 10
-38.81023300000004
 20
37.30000000000001
 30
0.0
 11
-32.50962300000003
 21
58.20002
 31
0.0
  0
LINE
  5
23F
330
5C
100
AcDbEntity
  8
LC-002-002-----0
  6
Continuous
 62
     7
100
AcDbLine
 10
-37.16320799999994
 20
37.30000000000001
 30
0.0
 11
-30.85159999999996
 21
58.2000230000001
 31
0.0
  0
LINE
  5
240
330
5C
100
AcDbEntity
  8
LC-002-002-----0
  6
Continuous
 62
     7
100
AcDbLine
 10
-27.8639720000001
 20
37.30000000000001
 30
0.0
 11
-23.40876600000001
 21
58.20003300000013
 31
0.0
  0
LINE
  5
241
330
5C
100
AcDbEntity
  8
LC-002-002-----0
  6
Continuous
 62
     7
100
AcDbLine
 10
-25.87211400000001
 20
37.30000000000001
 30
0.0
 11
-21.41690800000004
 21
58.20003500000013
 31
0.0
  0
LINE
  5
242
330
5C
100
AcDbEntity
  8
LC-002-002-----0
  6
Continuous
 62
     7
100
AcDbLine
 10
-15.01883999999996
 20
37.30000000000001
 30
0.0
 11
-12.71265500000004
 21
58.2000470000001
 31
0.0
  0
LINE
  5
243
330
5C
100
AcDbEntity
  8
LC-002-002-----0
  6
Continuous
 62
     7
100
AcDbLine
 10
-12.79721100000006
 20
37.30000000000001
 30
0.0
 11
-10.49102600000003
 21
58.20005000000003
 31
0.0
  0
LINE
  5
244
330
5C
100
AcDbEntity
  8
LC-002-002-----0
  6
Continuous
 62
     7
100
AcDbLine
 10
12.79615899999999
 20
37.30003500000004
 30
0.0
 11
10.48991599999999
 21
58.20007900000002
 31
0.0
  0
LINE
  5
245
330
5C
100
AcDbEntity
  8
LC-002-002-----0
  6
Continuous
 62
     7
100
AcDbLine
 10
15.017788
 20
37.30004100000002
 30
0.0
 11
12.71154499999989
 21
58.20008200000012
 31
0.0
  0
LINE
  5
246
330
5C
100
AcDbEntity
  8
LC-002-002-----0
  6
Continuous
 62
     7
100
AcDbLine
 10
25.87106199999994
 20
37.30007099999989
 30
0.0
 11
21.415798
 21
58.20009400000009
 31
0.0
  0
LINE
  5
247
330
5C
100
AcDbEntity
  8
LC-002-002-----0
  6
Continuous
 62
     7
100
AcDbLine
 10
27.86292000000003
 20
37.30007599999999
 30
0.0
 11
23.40765699999997
 21
58.20009700000003
 31
0.0
  0
LINE
  5
248
330
5C
100
AcDbEntity
  8
LC-002-002-----0
  6
Continuous
 62
     7
100
AcDbLine
 10
37.16215599999987
 20
37.30010200000004
 30
0.0
 11
30.85049000000004
 21
58.20010699999989
 31
0.0
  0
LINE
  5
249
330
5C
100
AcDbEntity
  8
LC-002-002-----0
  6
Continuous
 62
     7
100
AcDbLine
 10
38.80918100000008
 20
37.30010600000003
 30
0.0
 11
32.50851400000011
 21
58.20010900000023
 31
0.0
  0
LINE
  5
24A
330
5C
100
AcDbEntity
  8
LC-002-002-----0
  6
Continuous
 62
     7
100
AcDbLine
 10
45.96060299999999
 20
37.30012599999992
 30
0.0
 11
38.24390799999992
 21
58.20011700000009
 31
0.0
  0
LINE
  5
24B
330
5C
100
AcDbEntity
  8
LC-002-002-----0
  6
Continuous
 62
     7
100
AcDbLine
 10
47.11060300000008
 20
37.30012900000003
 30
0.0
 11
39.39390800000001
 21
58.20011900000014
 31
0.0
  0
LINE
  5
24C
330
5C
100
AcDbEntity
  8
LC-002-002-----0
  6
Continuous
 62
     7
100
AcDbLine
 10
51.60617400000001
 20
37.30014100000022
 30
0.0
 11
42.99932699999999
 21
58.20012400000019
 31
0.0
  0
LINE
  5
24D
330
5C
100
AcDbEntity
  8
LC-002-002-----0
  6
Continuous
 62
     7
100
AcDbLine
 10
51.60617400000001
 20
37.30014100000022
 30
0.0
 11
42.99932699999999
 21
58.20012400000019
 31
0.0
  0
LINE
  5
24E
330
5C
100
AcDbEntity
  8
LC-002-002-----0
  6
Continuous
 62
     7
100
AcDbLine
 10
52.201458
 20
37.30014300000022
 30
0.0
 11
43.59461099999999
 21
58.20012500000013
 31
0.0
  0
ARC
  5
24F
330
5C
100
AcDbEntity
  8
LC-003-002-RND-0
  6
Continuous
 62
     7
100
AcDbCircle
 10
48.44805099999985
 20
58.00013100000012
 30
0.0
 40
14.99999999999964
100
AcDbArc
 50
20.00015699999871
 51
90.00007900000101
  0
ARC
  5
250
330
5C
100
AcDbEntity
  8
LC-003-002-RND-0
  6
Continuous
 62
     7
100
AcDbCircle
 10
-48.44916000000001
 20
57.99999800000012
 30
0.0
 40
15.00000000000016
100
AcDbArc
 50
90.00007900000142
 51
160.0000000000011
  0
ENDBLK
  5
5E
330
5C
100
AcDbEntity
  8
0
100
AcDbBlockEnd
  0
BLOCK
  5
60
330
5F
100
AcDbEntity
  8
0
100
AcDbBlockBegin
  2
PVC_Manschette
 70
     0
 71
     0
 10
-177.00061890554
 20
-26.0
 30
0.0
  3
PVC_Manschette
  1

  0
LINE
  5
251
330
5F
100
AcDbEntity
  8
1
  6
Continuous
 62
     7
100
AcDbLine
 10
175.000403
 20
0.0
 30
0.0
 11
0.0
 21
0.0
 31
0.0
  0
LINE
  5
252
330
5F
100
AcDbEntity
  8
1
  6
Continuous
 62
     7
100
AcDbLine
 10
177.000403
 20
-2.0
 30
0.0
 11
177.000403
 21
-2.5
 31
0.0
  0
LINE
  5
253
330
5F
100
AcDbEntity
  8
1
  6
Continuous
 62
     7
100
AcDbLine
 10
130.000403
 20
-2.5
 30
0.0
 11
177.000403
 21
-2.5
 31
0.0
  0
LINE
  5
254
330
5F
100
AcDbEntity
  8
1
  6
Continuous
 62
     7
100
AcDbLine
 10
126.575091
 20
-4.0
 30
0.0
 11
130.000403
 21
-2.5
 31
0.0
  0
LINE
  5
255
330
5F
100
AcDbEntity
  8
1
  6
Continuous
 62
     7
100
AcDbLine
 10
0.0
 20
-4.0
 30
0.0
 11
126.575091
 21
-4.0
 31
0.0
  0
LINE
  5
256
330
5F
100
AcDbEntity
  8
1
  6
Continuous
 62
     7
100
AcDbLine
 10
0.0
 20
-2.5
 30
0.0
 11
130.000403
 21
-2.5
 31
0.0
  0
LINE
  5
257
330
5F
100
AcDbEntity
  8
1
  6
Continuous
 62
     7
100
AcDbLine
 10
-130.000403
 20
-2.5
 30
0.0
 11
0.0
 21
-2.5
 31
0.0
  0
LINE
  5
258
330
5F
100
AcDbEntity
  8
1
  6
Continuous
 62
     7
100
AcDbLine
 10
-126.575091
 20
-4.0
 30
0.0
 11
0.0
 21
-4.0
 31
0.0
  0
LINE
  5
259
330
5F
100
AcDbEntity
  8
1
  6
Continuous
 62
     7
100
AcDbLine
 10
-130.000403
 20
-2.5
 30
0.0
 11
-126.575091
 21
-4.0
 31
0.0
  0
LINE
  5
25A
330
5F
100
AcDbEntity
  8
1
  6
Continuous
 62
     7
100
AcDbLine
 10
-177.000403
 20
-2.5
 30
0.0
 11
-130.000403
 21
-2.5
 31
0.0
  0
LINE
  5
25B
330
5F
100
AcDbEntity
  8
1
  6
Continuous
 62
     7
100
AcDbLine
 10
-177.000403
 20
-2.5
 30
0.0
 11
-177.000403
 21
-2.0
 31
0.0
  0
LINE
  5
25C
330
5F
100
AcDbEntity
  8
1
  6
Continuous
 62
     7
100
AcDbLine
 10
0.0
 20
0.0
 30
0.0
 11
-175.000403
 21
0.0
 31
0.0
  0
ARC
  5
25D
330
5F
100
AcDbEntity
  8
1
  6
Continuous
 62
     7
100
AcDbCircle
 10
175.000403
 20
-2.0
 30
0.0
 40
2.0
100
AcDbArc
 50
0.0
 51
90.0
  0
ARC
  5
25E
330
5F
100
AcDbEntity
  8
1
  6
Continuous
 62
     7
100
AcDbCircle
 10
-175.000403
 20
-2.0
 30
0.0
 40
2.0
100
AcDbArc
 50
90.0
 51
180.0
  0
ENDBLK
  5
61
330
5F
100
AcDbEntity
  8
0
100
AcDbBlockEnd
  0
BLOCK
  5
63
330
62
100
AcDbEntity
  8
0
100
AcDbBlockBegin
  2
Draufsicht
 70
     0
 71
     0
 10
-186.1489577629123
 20
-888.7870265400525
 30
0.0
  3
Draufsicht
  1

  0
LINE
  5
25F
330
62
100
AcDbEntity
  8
0
  6
Continuous
 62
     7
100
AcDbLine
 10
-51.57223386649418
 20
-705.0982452133503
 30
0.0
 11
-53.38905962688438
 21
-703.687874993735
 31
0.0
  0
LINE
  5
260
330
62
100
AcDbEntity
  8
0
  6
Continuous
 62
     7
100
AcDbLine
 10
53.39054075193274
 20
-569.8861780863772
 30
0.0
 11
46.21947457762729
 21
-579.1238786374233
 31
0.0
  0
LINE
  5
261
330
62
100
AcDbEntity
  8
0
  6
Continuous
 62
     7
100
AcDbLine
 10
-53.38905962688438
 20
-703.687874993735
 30
0.0
 11
-46.21799345258257
 21
-694.4501744426889
 31
0.0
  0
LINE
  5
262
330
62
100
AcDbEntity
  8
0
  6
Continuous
 62
     7
100
AcDbLine
 10
-51.57223386649418
 20
-705.0982452133503
 30
0.0
 11
-44.40116769219237
 21
-695.8605446623042
 31
0.0
  0
LINE
  5
263
330
62
100
AcDbEntity
  8
0
  6
Continuous
 62
     7
100
AcDbLine
 10
68.31195923581839
 20
-688.3600009690745
 30
0.0
 11
66.9015890162031
 21
-690.1768267294647
 31
0.0
  0
LINE
  5
264
330
62
100
AcDbEntity
  8
0
  6
Continuous
 62
     7
100
AcDbLine
 10
-66.90010789115473
 20
-583.3972263506439
 30
0.0
 11
-57.66240734010859
 21
-590.5682925249494
 31
0.0
  0
LINE
  5
265
330
62
100
AcDbEntity
  8
0
  6
Continuous
 62
     7
100
AcDbLine
 10
66.9015890162031
 20
-690.1768267294647
 30
0.0
 11
57.66388846515695
 21
-683.0057605551592
 31
0.0
  0
LINE
  5
266
330
62
100
AcDbEntity
  8
0
  6
Continuous
 62
     7
100
AcDbLine
 10
68.31195923581839
 20
-688.3600009690745
 30
0.0
 11
59.07425868477224
 21
-681.188934794769
 31
0.0
  0
LINE
  5
267
330
62
100
AcDbEntity
  8
0
  6
Continuous
 62
     7
100
AcDbLine
 10
-59.07277755972752
 20
-592.3851182853396
 30
0.0
 11
-50.10944372020237
 21
-599.3431983562878
 31
0.0
  0
LINE
  5
268
330
62
100
AcDbEntity
  8
0
  6
Continuous
 62
     7
100
AcDbLine
 10
-68.31047811077366
 20
-585.2140521110341
 30
0.0
 11
-59.07277755972752
 21
-592.3851182853396
 31
0.0
  0
LINE
  5
269
330
62
100
AcDbEntity
  8
0
  6
Continuous
 62
     7
100
AcDbLine
 10
-68.31047811077366
 20
-585.2140521110341
 30
0.0
 11
-66.90010789115473
 21
-583.3972263506439
 31
0.0
  0
LINE
  5
26A
330
62
100
AcDbEntity
  8
0
  6
Continuous
 62
     7
100
AcDbLine
 10
51.57371499154254
 20
-568.4758078667583
 30
0.0
 11
53.39054075193274
 21
-569.8861780863772
 31
0.0
  0
LINE
  5
26B
330
62
100
AcDbEntity
  8
0
  6
Continuous
 62
     7
100
AcDbLine
 10
51.57371499154254
 20
-568.4758078667583
 30
0.0
 11
44.40264881724072
 21
-577.7135084178044
 31
0.0
  0
LINE
  5
26C
330
62
100
AcDbEntity
  8
0
  6
Continuous
 62
     7
100
AcDbLine
 10
79.33237889915694
 20
-668.9224500927776
 30
0.0
 11
78.44029498781896
 21
-671.04239969009
 31
0.0
  0
LINE
  5
26D
330
62
100
AcDbEntity
  8
0
  6
Continuous
 62
     7
100
AcDbLine
 10
78.44029498781896
 20
-671.04239969009
 30
0.0
 11
67.66135295044154
 21
-666.5065745058673
 31
0.0
  0
LINE
  5
26E
330
62
100
AcDbEntity
  8
0
  6
Continuous
 62
     7
100
AcDbLine
 10
45.56931787134311
 20
-694.9653280110506
 30
0.0
 11
38.71228586580622
 21
-685.9244572638527
 31
0.0
  0
LINE
  5
26F
330
62
100
AcDbEntity
  8
0
  6
Continuous
 62
     7
100
AcDbLine
 10
50.80370078134586
 20
-705.6728271167485
 30
0.0
 11
43.7367757431661
 21
-696.355216261396
 31
0.0
  0
LINE
  5
270
330
62
100
AcDbEntity
  8
0
  6
Continuous
 62
     7
100
AcDbLine
 10
52.63624290952651
 20
-704.2829388664031
 30
0.0
 11
45.56931787134311
 21
-694.9653280110506
 31
0.0
  0
LINE
  5
271
330
62
100
AcDbEntity
  8
0
  6
Continuous
 62
     7
100
AcDbLine
 10
52.63624290952651
 20
-704.2829388664031
 30
0.0
 11
50.80370078134586
 21
-705.6728271167485
 31
0.0
  0
LINE
  5
272
330
62
100
AcDbEntity
  8
0
  6
Continuous
 62
     7
100
AcDbLine
 10
79.33237889915694
 20
-668.9224500927776
 30
0.0
 11
68.55343686177588
 21
-664.386624908555
 31
0.0
  0
LINE
  5
273
330
62
100
AcDbEntity
  8
0
  6
Continuous
 62
     7
100
AcDbLine
 10
-34.25463258750967
 20
-715.2265809653509
 30
0.0
 11
-29.71880740328704
 21
-704.4476389279698
 31
0.0
  0
LINE
  5
274
330
62
100
AcDbEntity
  8
0
  6
Continuous
 62
     7
100
AcDbLine
 10
-32.13468299020094
 20
-716.1186648766889
 30
0.0
 11
-34.25463258750967
 21
-715.2265809653509
 31
0.0
  0
LINE
  5
275
330
62
100
AcDbEntity
  8
0
  6
Continuous
 62
     7
100
AcDbLine
 10
-32.13468299020094
 20
-716.1186648766889
 30
0.0
 11
-27.59885780597831
 21
-705.3397228393078
 31
0.0
  0
LINE
  5
276
330
62
100
AcDbEntity
  8
0
  6
Continuous
 62
     7
100
AcDbLine
 10
-67.49517176382284
 20
-689.4225288870548
 30
0.0
 11
-58.17756090847031
 21
-682.355603848875
 31
0.0
  0
LINE
  5
277
330
62
100
AcDbEntity
  8
0
  6
Continuous
 62
     7
100
AcDbLine
 10
-68.88506001416823
 20
-687.5899867588778
 30
0.0
 11
-59.5674491588157
 21
-680.523061720698
 31
0.0
  0
LINE
  5
278
330
62
100
AcDbEntity
  8
0
  6
Continuous
 62
     7
100
AcDbLine
 10
-67.49517176382284
 20
-689.4225288870548
 30
0.0
 11
-68.88506001416823
 21
-687.5899867588778
 31
0.0
  0
LINE
  5
279
330
62
100
AcDbEntity
  8
0
  6
Continuous
 62
     7
100
AcDbLine
 10
73.04785851593482
 20
-647.9820503765768
 30
0.0
 11
61.80634367283204
 21
-646.4378431933328
 31
0.0
  0
LINE
  5
27A
330
62
100
AcDbEntity
  8
0
  6
Continuous
 62
     7
100
AcDbLine
 10
-29.71880740328704
 20
-704.4476389279698
 30
0.0
 11
-25.31769966665303
 21
-693.9888396430142
 31
0.0
  0
LINE
  5
27B
330
62
100
AcDbEntity
  8
0
  6
Continuous
 62
     7
100
AcDbLine
 10
-73.16743511479723
 20
-647.1614213683097
 30
0.0
 11
-61.90929537262634
 21
-645.743492830552
 31
0.0
  0
LINE
  5
27C
330
62
100
AcDbEntity
  8
0
  6
Continuous
 62
     7
100
AcDbLine
 10
-84.77018533719962
 20
-648.6227525503382
 30
0.0
 11
-85.05759280633134
 21
-646.3407803886585
 31
0.0
  0
LINE
  5
27D
330
62
100
AcDbEntity
  8
0
  6
Continuous
 62
     7
100
AcDbLine
 10
-84.77018533719962
 20
-648.6227525503382
 30
0.0
 11
-73.16743511479723
 21
-647.1614213683097
 31
0.0
  0
LINE
  5
27E
330
62
100
AcDbEntity
  8
0
  6
Continuous
 62
     7
100
AcDbLine
 10
-73.45484258392895
 20
-644.8794492066299
 30
0.0
 11
-62.19670284175806
 21
-643.4615206688686
 31
0.0
  0
LINE
  5
27F
330
62
100
AcDbEntity
  8
0
  6
Continuous
 62
     7
100
AcDbLine
 10
-85.05759280633134
 20
-646.3407803886585
 30
0.0
 11
-73.45484258392895
 21
-644.8794492066299
 31
0.0
  0
LINE
  5
280
330
62
100
AcDbEntity
  8
0
  6
Continuous
 62
     7
100
AcDbLine
 10
7.05597984367926
 20
-640.744752994171
 30
0.0
 11
7.02531962151482
 21
-640.7842492063537
 31
0.0
  0
LINE
  5
281
330
62
100
AcDbEntity
  8
0
  6
Continuous
 62
     7
100
AcDbLine
 10
27.41729037818953
 20
-655.2849398333201
 30
0.0
 11
8.45910853064054
 21
-640.5680331938347
 31
0.0
  0
LINE
  5
282
330
62
100
AcDbEntity
  8
0
  6
Continuous
 62
     7
100
AcDbLine
 10
1.48865814831736
 20
-639.3979068763329
 30
0.0
 11
5.61494940189589
 21
-642.6010749667439
 31
0.0
  0
LINE
  5
283
330
62
100
AcDbEntity
  8
0
  6
Continuous
 62
     7
100
AcDbLine
 10
2.89902836793265
 20
-637.5810811159427
 30
0.0
 11
7.02531962151482
 21
-640.7842492063537
 31
0.0
  0
LINE
  5
284
330
62
100
AcDbEntity
  8
0
  6
Continuous
 62
     7
100
AcDbLine
 10
2.61162089880093
 20
-635.2991089542629
 30
0.0
 11
26.04064388140471
 21
-605.1180601037595
 31
0.0
  0
LINE
  5
285
330
62
100
AcDbEntity
  8
0
  6
Continuous
 62
     7
100
AcDbLine
 10
36.62145820432345
 20
-610.455459899611
 30
0.0
 11
39.29745311773734
 21
-608.4258564155025
 31
0.0
  0
LINE
  5
286
330
62
100
AcDbEntity
  8
0
  6
Continuous
 62
     7
100
AcDbLine
 10
42.18874844391251
 20
-620.8308254464209
 30
0.0
 11
45.29886107748683
 21
-619.5629774721783
 31
0.0
  0
LINE
  5
287
330
62
100
AcDbEntity
  8
0
  6
Continuous
 62
     7
100
AcDbLine
 10
44.51472766968293
 20
-644.0625549857687
 30
0.0
 11
47.8420882061095
 21
-644.5196227487286
 31
0.0
  0
LINE
  5
288
330
62
100
AcDbEntity
  8
0
  6
Continuous
 62
     7
100
AcDbLine
 10
44.59358819623088
 20
-630.0116075672086
 30
0.0
 11
47.92586951369815
 21
-629.5919168470646
 31
0.0
  0
LINE
  5
289
330
62
100
AcDbEntity
  8
0
  6
Continuous
 62
     7
100
AcDbLine
 10
44.8809956653626
 20
-632.2935797288919
 30
0.0
 11
48.21327698282988
 21
-631.8738890087443
 31
0.0
  0
LINE
  5
28A
330
62
100
AcDbEntity
  8
0
  6
Continuous
 62
     7
100
AcDbLine
 10
44.82773122841393
 20
-641.783952613212
 30
0.0
 11
48.15509176484414
 21
-642.241020376172
 31
0.0
  0
LINE
  5
28B
330
62
100
AcDbEntity
  8
0
  6
Continuous
 62
     7
100
AcDbLine
 10
41.32051629097116
 20
-618.7009961272961
 30
0.0
 11
44.43062892454912
 21
-617.4331481530535
 31
0.0
  0
LINE
  5
28C
330
62
100
AcDbEntity
  8
0
  6
Continuous
 62
     7
100
AcDbLine
 10
35.23156995397806
 20
-608.622917771434
 30
0.0
 11
37.90756486739195
 21
-606.5933142873218
 31
0.0
  0
LINE
  5
28D
330
62
100
AcDbEntity
  8
0
  6
Continuous
 62
     7
100
AcDbLine
 10
28.55852657604776
 20
-601.8745471043803
 30
0.0
 11
30.61803913823535
 21
-599.2215022337623
 31
0.0
  0
LINE
  5
28E
330
62
100
AcDbEntity
  8
0
  6
Continuous
 62
     7
100
AcDbLine
 10
2.61162089880093
 20
-635.2991089542629
 30
0.0
 11
40.51966623189076
 21
-630.5247056763219
 31
0.0
  0
LINE
  5
28F
330
62
100
AcDbEntity
  8
0
  6
Continuous
 62
     7
100
AcDbLine
 10
2.89902836793265
 20
-637.5810811159427
 30
0.0
 11
40.80707370102248
 21
-632.8066778380053
 31
0.0
  0
LINE
  5
290
330
62
100
AcDbEntity
  8
0
  6
Continuous
 62
     7
100
AcDbLine
 10
0.79479513841073
 20
-633.888738734644
 30
0.0
 11
24.22381812101451
 21
-603.7076898841406
 31
0.0
  0
LINE
  5
291
330
62
100
AcDbEntity
  8
0
  6
Continuous
 62
     7
100
AcDbLine
 10
-1.487177023269
 20
-634.1761462037757
 30
0.0
 11
-5.61346827289305
 21
-630.9729781082679
 31
0.0
  0
LINE
  5
292
330
62
100
AcDbEntity
  8
0
  6
Continuous
 62
     7
100
AcDbLine
 10
-2.89754724288793
 20
-635.9929719641659
 30
0.0
 11
-7.02383849646646
 21
-632.7898038737549
 31
0.0
  0
LINE
  5
293
330
62
100
AcDbEntity
  8
0
  6
Continuous
 62
     7
100
AcDbLine
 10
-5.58280805468673
 20
-630.933481901182
 30
0.0
 11
-5.61346827289305
 21
-630.9729781082679
 31
0.0
  0
LINE
  5
294
330
62
100
AcDbEntity
  8
0
  6
Continuous
 62
     7
100
AcDbLine
 10
-7.02383849646646
 20
-632.7898038737549
 30
0.0
 11
-7.05449871863454
 21
-632.8293000859376
 31
0.0
  0
LINE
  5
295
330
62
100
AcDbEntity
  8
0
  6
Continuous
 62
     7
100
AcDbLine
 10
4.9976666356801
 20
-591.9600358741627
 30
0.0
 11
5.45473439864002
 21
-588.6326753377325
 31
0.0
  0
LINE
  5
296
330
62
100
AcDbEntity
  8
0
  6
Continuous
 62
     7
100
AcDbLine
 10
-8.45762740559218
 20
-633.0060198862739
 30
0.0
 11
-27.41580925314117
 21
-618.2891132467885
 31
0.0
  0
LINE
  5
297
330
62
100
AcDbEntity
  8
0
  6
Continuous
 62
     7
100
AcDbLine
 10
-4.49270624864
 20
-591.9067714372177
 30
0.0
 11
-4.91239696878763
 21
-588.5744901197504
 31
0.0
  0
LINE
  5
298
330
62
100
AcDbEntity
  8
0
  6
Continuous
 62
     7
100
AcDbLine
 10
-27.59252905347746
 20
-616.8859845598308
 30
0.0
 11
-27.5618688352675
 21
-616.8464883527449
 31
0.0
  0
LINE
  5
299
330
62
100
AcDbEntity
  8
0
  6
Continuous
 62
     7
100
AcDbLine
 10
-24.71770970256836
 20
-614.8134465747389
 30
0.0
 11
-5.75952785502302
 21
-629.5303532142243
 31
0.0
  0
LINE
  5
29A
330
62
100
AcDbEntity
  8
0
  6
Continuous
 62
     7
100
AcDbLine
 10
-1.487177023269
 20
-634.1761462037757
 30
0.0
 11
-6.26158031396842
 21
-596.2681008726613
 31
0.0
  0
LINE
  5
29B
330
62
100
AcDbEntity
  8
0
  6
Continuous
 62
     7
100
AcDbLine
 10
0.79479513841073
 20
-633.888738734644
 30
0.0
 11
-3.97960812668095
 21
-595.9806934003027
 31
0.0
  0
LINE
  5
29C
330
62
100
AcDbEntity
  8
0
  6
Continuous
 62
     7
100
AcDbLine
 10
-44.87951454031424
 20
-641.2804733512203
 30
0.0
 11
-48.21179585778152
 21
-641.7001640713643
 31
0.0
  0
LINE
  5
29D
330
62
100
AcDbEntity
  8
0
  6
Continuous
 62
     7
100
AcDbLine
 10
-44.59210707118252
 20
-643.5624455129
 30
0.0
 11
-47.9243883886498
 21
-643.9821362330476
 31
0.0
  0
LINE
  5
29E
330
62
100
AcDbEntity
  8
0
  6
Continuous
 62
     7
100
AcDbLine
 10
-40.80559257597412
 20
-640.7673752421069
 30
0.0
 11
-2.89754724288793
 21
-635.9929719641659
 31
0.0
  0
LINE
  5
29F
330
62
100
AcDbEntity
  8
0
  6
Continuous
 62
     7
100
AcDbLine
 10
-2.61013977375621
 20
-638.2749441258493
 30
0.0
 11
-40.5181851068424
 21
-643.0493474037867
 31
0.0
  0
LINE
  5
2A0
330
62
100
AcDbEntity
  8
0
  6
Continuous
 62
     7
100
AcDbLine
 10
-26.15149861169409
 20
-615.0296625872579
 30
0.0
 11
-31.66822586557607
 21
-610.7471232112002
 31
0.0
  0
LINE
  5
2A1
330
62
100
AcDbEntity
  8
0
  6
Continuous
 62
     7
100
AcDbLine
 10
-26.15149861169409
 20
-615.0296625872579
 30
0.0
 11
-26.12083838952965
 21
-614.9901663750752
 31
0.0
  0
LINE
  5
2A2
330
62
100
AcDbEntity
  8
0
  6
Continuous
 62
     7
100
AcDbLine
 10
-27.5618688352675
 20
-616.8464883527449
 30
0.0
 11
-33.07859610101657
 21
-612.5639489919777
 31
0.0
  0
LINE
  5
2A3
330
62
100
AcDbEntity
  8
0
  6
Continuous
 62
     7
100
AcDbLine
 10
-6.77467841032337
 20
-592.1941789063494
 30
0.0
 11
-7.19436913046736
 21
-588.8618975888785
 31
0.0
  0
LINE
  5
2A4
330
62
100
AcDbEntity
  8
0
  6
Continuous
 62
     7
100
AcDbLine
 10
-15.95546053111099
 20
-594.5990186586678
 30
0.0
 11
-17.22330850535361
 21
-591.4889060250898
 31
0.0
  0
LINE
  5
2A5
330
62
100
AcDbEntity
  8
0
  6
Continuous
 62
     7
100
AcDbLine
 10
-18.08528985023583
 20
-595.4672508116055
 30
0.0
 11
-19.35313782447845
 21
-592.3571381780275
 31
0.0
  0
LINE
  5
2A6
330
62
100
AcDbEntity
  8
0
  6
Continuous
 62
     7
100
AcDbLine
 10
-41.11342389044291
 20
-618.2383380776591
 30
0.0
 11
-44.20910952400079
 21
-616.935660244304
 31
0.0
  0
LINE
  5
2A7
330
62
100
AcDbEntity
  8
0
  6
Continuous
 62
     7
100
AcDbLine
 10
-42.00550780177725
 20
-620.3582876749679
 30
0.0
 11
-45.10119343533513
 21
-619.0556098416127
 31
0.0
  0
LINE
  5
2A8
330
62
100
AcDbEntity
  8
0
  6
Continuous
 62
     7
100
AcDbLine
 10
-26.33082607791727
 20
-600.1663088982532
 30
0.0
 11
-28.36042956202943
 21
-597.4903139848429
 31
0.0
  0
LINE
  5
2A9
330
62
100
AcDbEntity
  8
0
  6
Continuous
 62
     7
100
AcDbLine
 10
-28.16336820609792
 20
-601.5561971485986
 30
0.0
 11
-30.19297169021008
 21
-598.8802022351883
 31
0.0
  0
LINE
  5
2AA
330
62
100
AcDbEntity
  8
0
  6
Continuous
 62
     7
100
AcDbLine
 10
-34.9117388731516
 20
-608.2292405265325
 30
0.0
 11
-37.56478374376963
 21
-606.1697279643449
 31
0.0
  0
LINE
  5
2AB
330
62
100
AcDbEntity
  8
0
  6
Continuous
 62
     7
100
AcDbLine
 10
-36.32210909277053
 20
-610.0460662869227
 30
0.0
 11
-38.97515396338856
 21
-607.9865537247351
 31
0.0
  0
LINE
  5
2AC
330
62
100
AcDbEntity
  8
0
  6
Continuous
 62
     7
100
AcDbLine
 10
-44.82625010336921
 20
-631.7901004668965
 30
0.0
 11
-48.15361063979942
 21
-631.3330327039403
 31
0.0
  0
LINE
  5
2AD
330
62
100
AcDbEntity
  8
0
  6
Continuous
 62
     7
100
AcDbLine
 10
-44.51324654463458
 20
-629.5114980943399
 30
0.0
 11
-47.84060708106478
 21
-629.0544303313836
 31
0.0
  0
LINE
  5
2AE
330
62
100
AcDbEntity
  8
0
  6
Continuous
 62
     7
100
AcDbLine
 10
-55.89078184957686
 20
-642.6673090551885
 30
0.0
 11
-48.21179585778152
 21
-641.7001640713643
 31
0.0
  0
LINE
  5
2AF
330
62
100
AcDbEntity
  8
0
  6
Continuous
 62
     7
100
AcDbLine
 10
7.27626900823673
 20
-592.2730394328973
 30
0.0
 11
7.73333677119666
 21
-588.9456788964671
 31
0.0
  0
LINE
  5
2B0
330
62
100
AcDbEntity
  8
0
  6
Continuous
 62
     7
100
AcDbLine
 10
-0.79331401336601
 20
-639.6853143454646
 30
0.0
 11
-24.22233699596979
 21
-669.866363195968
 31
0.0
  0
LINE
  5
2B1
330
62
100
AcDbEntity
  8
0
  6
Continuous
 62
     7
100
AcDbLine
 10
-43.23600459810184
 20
-632.0085468744
 30
0.0
 11
-44.82625010336921
 21
-631.7901004668965
 31
0.0
  0
LINE
  5
2B2
330
62
100
AcDbEntity
  8
0
  6
Continuous
 62
     7
100
AcDbLine
 10
-43.28691724604284
 20
-641.0798905547344
 30
0.0
 11
-44.87951454031424
 21
-641.2804733512203
 31
0.0
  0
LINE
  5
2B3
330
62
100
AcDbEntity
  8
0
  6
Continuous
 62
     7
100
AcDbLine
 10
-57.5201062373613
 20
-645.1906877779365
 30
0.0
 11
-55.60337438044514
 21
-644.9492812168683
 31
0.0
  0
LINE
  5
2B4
330
62
100
AcDbEntity
  8
0
  6
Continuous
 62
     7
100
AcDbLine
 10
-55.60337438044514
 20
-644.9492812168683
 30
0.0
 11
-47.9243883886498
 21
-643.9821362330476
 31
0.0
  0
LINE
  5
2B5
330
62
100
AcDbEntity
  8
0
  6
Continuous
 62
     7
100
AcDbLine
 10
-42.18726731886415
 20
-652.7432276336913
 30
0.0
 11
-45.29737995244211
 21
-654.0110756079303
 31
0.0
  0
LINE
  5
2B6
330
62
100
AcDbEntity
  8
0
  6
Continuous
 62
     7
100
AcDbLine
 10
-41.31903516592644
 20
-654.8730569528125
 30
0.0
 11
-44.4291477995044
 21
-656.1409049270551
 31
0.0
  0
LINE
  5
2B7
330
62
100
AcDbEntity
  8
0
  6
Continuous
 62
     7
100
AcDbLine
 10
-2.61013977375621
 20
-638.2749441258493
 30
0.0
 11
-26.03916275635999
 21
-668.4559929763527
 31
0.0
  0
LINE
  5
2B8
330
62
100
AcDbEntity
  8
0
  6
Continuous
 62
     7
100
AcDbLine
 10
-26.7402196906092
 20
-673.1098761953472
 30
0.0
 11
-28.79973225279679
 21
-675.7629210659652
 31
0.0
  0
LINE
  5
2B9
330
62
100
AcDbEntity
  8
0
  6
Continuous
 62
     7
100
AcDbLine
 10
-28.5570454509994
 20
-671.6995059757282
 30
0.0
 11
-30.616558013187
 21
-674.3525508463499
 31
0.0
  0
LINE
  5
2BA
330
62
100
AcDbEntity
  8
0
  6
Continuous
 62
     7
100
AcDbLine
 10
-57.80751370648938
 20
-642.9087156162532
 30
0.0
 11
-55.89078184957686
 21
-642.6673090551885
 31
0.0
  0
LINE
  5
2BB
330
62
100
AcDbEntity
  8
0
  6
Continuous
 62
     7
100
AcDbLine
 10
-62.19670284175806
 20
-643.4615206688686
 30
0.0
 11
-57.80751370648938
 21
-642.9087156162532
 31
0.0
  0
LINE
  5
2BC
330
62
100
AcDbEntity
  8
0
  6
Continuous
 62
     7
100
AcDbLine
 10
-61.90929537262634
 20
-645.743492830552
 30
0.0
 11
-57.5201062373613
 21
-645.1906877779365
 31
0.0
  0
LINE
  5
2BD
330
62
100
AcDbEntity
  8
0
  6
Continuous
 62
     7
100
AcDbLine
 10
27.56334995635773
 20
-656.7275647324641
 30
0.0
 11
27.59401017852581
 21
-656.6880685202814
 31
0.0
  0
LINE
  5
2BE
330
62
100
AcDbEntity
  8
0
  6
Continuous
 62
     7
100
AcDbLine
 10
27.56334995635773
 20
-656.7275647324641
 30
0.0
 11
33.08007685487103
 21
-661.0101038163193
 31
0.0
  0
LINE
  5
2BF
330
62
100
AcDbEntity
  8
0
  6
Continuous
 62
     7
100
AcDbLine
 10
26.15297973674245
 20
-658.5443904928543
 30
0.0
 11
31.66970663525574
 21
-662.8269295767059
 31
0.0
  0
LINE
  5
2C0
330
62
100
AcDbEntity
  8
0
  6
Continuous
 62
     7
100
AcDbLine
 10
26.12231951457437
 20
-658.5838867050334
 30
0.0
 11
26.15297973674245
 21
-658.5443904928543
 31
0.0
  0
LINE
  5
2C1
330
62
100
AcDbEntity
  8
0
  6
Continuous
 62
     7
100
AcDbLine
 10
41.11490501549127
 20
-655.3357150024531
 30
0.0
 11
44.21059064904551
 21
-656.6383928358082
 31
0.0
  0
LINE
  5
2C2
330
62
100
AcDbEntity
  8
0
  6
Continuous
 62
     7
100
AcDbLine
 10
42.00698892682561
 20
-653.2157654051407
 30
0.0
 11
45.10267456037985
 21
-654.5184432384958
 31
0.0
  0
LINE
  5
2C3
330
62
100
AcDbEntity
  8
0
  6
Continuous
 62
     7
100
AcDbLine
 10
36.32359021781524
 20
-663.5279867931895
 30
0.0
 11
38.97663508843328
 21
-665.5874993553734
 31
0.0
  0
LINE
  5
2C4
330
62
100
AcDbEntity
  8
0
  6
Continuous
 62
     7
100
AcDbLine
 10
34.91321999819996
 20
-665.3448125535797
 30
0.0
 11
37.56626486881799
 21
-667.4043251157636
 31
0.0
  0
LINE
  5
2C5
330
62
100
AcDbEntity
  8
0
  6
Continuous
 62
     7
100
AcDbLine
 10
28.16484933114628
 20
-672.01785593151
 30
0.0
 11
30.19445281525844
 21
-674.6938508449202
 31
0.0
  0
LINE
  5
2C6
330
62
100
AcDbEntity
  8
0
  6
Continuous
 62
     7
100
AcDbLine
 10
26.33230720296563
 20
-673.4077441818554
 30
0.0
 11
28.36191068707779
 21
-676.0837390952656
 31
0.0
  0
LINE
  5
2C7
330
62
100
AcDbEntity
  8
0
  6
Continuous
 62
     7
100
AcDbLine
 10
5.61494940189589
 20
-642.6010749667439
 30
0.0
 11
5.58428917973145
 21
-642.6405711789266
 31
0.0
  0
LINE
  5
2C8
330
62
100
AcDbEntity
  8
0
  6
Continuous
 62
     7
100
AcDbLine
 10
15.95694165615935
 20
-678.9750344214444
 30
0.0
 11
17.22478963039833
 21
-682.0851470550188
 31
0.0
  0
LINE
  5
2C9
330
62
100
AcDbEntity
  8
0
  6
Continuous
 62
     7
100
AcDbLine
 10
4.49418737368836
 20
-681.6672816428945
 30
0.0
 11
4.91387809383234
 21
-684.9995629603618
 31
0.0
  0
LINE
  5
2CA
330
62
100
AcDbEntity
  8
0
  6
Continuous
 62
     7
100
AcDbLine
 10
-4.99618551063538
 20
-681.6140172059459
 30
0.0
 11
-5.45325327359166
 21
-684.9413777423761
 31
0.0
  0
LINE
  5
2CB
330
62
100
AcDbEntity
  8
0
  6
Continuous
 62
     7
100
AcDbLine
 10
6.77615953536809
 20
-681.3798741737628
 30
0.0
 11
7.19585025551572
 21
-684.7121554912301
 31
0.0
  0
LINE
  5
2CC
330
62
100
AcDbEntity
  8
0
  6
Continuous
 62
     7
100
AcDbLine
 10
18.08677097528419
 20
-678.1068022685031
 30
0.0
 11
19.35461894952316
 21
-681.216914902081
 31
0.0
  0
LINE
  5
2CD
330
62
100
AcDbEntity
  8
0
  6
Continuous
 62
     7
100
AcDbLine
 10
5.76100898006774
 20
-644.0436998658879
 30
0.0
 11
24.71919082761672
 21
-658.7606065053697
 31
0.0
  0
LINE
  5
2CE
330
62
100
AcDbEntity
  8
0
  6
Continuous
 62
     7
100
AcDbLine
 10
-7.27478788319201
 20
-681.3010136472112
 30
0.0
 11
-7.7318556461483
 21
-684.6283741836414
 31
0.0
  0
LINE
  5
2CF
330
62
100
AcDbEntity
  8
0
  6
Continuous
 62
     7
100
AcDbLine
 10
-18.54794789987279
 20
-677.9011909930232
 30
0.0
 11
-19.85062573322791
 21
-680.9968766265774
 31
0.0
  0
LINE
  5
2D0
330
62
100
AcDbEntity
  8
0
  6
Continuous
 62
     7
100
AcDbLine
 10
-16.42799830256406
 20
-678.7932749043575
 30
0.0
 11
-17.73067613591918
 21
-681.8889605379118
 31
0.0
  0
LINE
  5
2D1
330
62
100
AcDbEntity
  8
0
  6
Continuous
 62
     7
100
AcDbLine
 10
-0.79331401336601
 20
-639.6853143454646
 30
0.0
 11
3.98108926457501
 21
-677.5933596785544
 31
0.0
  0
LINE
  5
2D2
330
62
100
AcDbEntity
  8
0
  6
Continuous
 62
     7
100
AcDbLine
 10
1.48865814831736
 20
-639.3979068763329
 30
0.0
 11
6.26306142625474
 21
-677.3059522094227
 31
0.0
  0
LINE
  5
2D3
330
62
100
AcDbEntity
  8
0
  6
Continuous
 62
     7
100
AcDbLine
 10
-36.61997707927873
 20
-663.1185931804976
 30
0.0
 11
-39.29597199268898
 21
-665.1481966646097
 31
0.0
  0
LINE
  5
2D4
330
62
100
AcDbEntity
  8
0
  6
Continuous
 62
     7
100
AcDbLine
 10
-35.23008882893334
 20
-664.9511353086746
 30
0.0
 11
-37.90608374234359
 21
-666.9807387927867
 31
0.0
  0
LINE
  5
2D5
330
62
100
AcDbEntity
  8
0
  6
Continuous
 62
     7
100
AcDbLine
 10
62.11934723156667
 20
-644.1592408207762
 30
0.0
 11
57.73663961349887
 21
-643.5572037572347
 31
0.0
  0
LINE
  5
2D6
330
62
100
AcDbEntity
  8
0
  6
Continuous
 62
     7
100
AcDbLine
 10
55.50973463648409
 20
-645.5729002528351
 30
0.0
 11
47.8420882061095
 21
-644.5196227487286
 31
0.0
  0
LINE
  5
2D7
330
62
100
AcDbEntity
  8
0
  6
Continuous
 62
     7
100
AcDbLine
 10
55.82273819521873
 20
-643.2942978802821
 30
0.0
 11
48.15509176484414
 21
-642.241020376172
 31
0.0
  0
LINE
  5
2D8
330
62
100
AcDbEntity
  8
0
  6
Continuous
 62
     7
100
AcDbLine
 10
61.80634367283204
 20
-646.4378431933328
 30
0.0
 11
57.42363605476424
 21
-645.8358061297913
 31
0.0
  0
LINE
  5
2D9
330
62
100
AcDbEntity
  8
0
  6
Continuous
 62
     7
100
AcDbLine
 10
57.42363605476424
 20
-645.8358061297913
 30
0.0
 11
55.50973463648409
 21
-645.5729002528351
 31
0.0
  0
LINE
  5
2DA
330
62
100
AcDbEntity
  8
0
  6
Continuous
 62
     7
100
AcDbLine
 10
57.73663961349887
 20
-643.5572037572347
 30
0.0
 11
55.82273819521873
 21
-643.2942978802821
 31
0.0
  0
LINE
  5
2DB
330
62
100
AcDbEntity
  8
0
  6
Continuous
 62
     7
100
AcDbLine
 10
18.54942902492115
 20
-595.672862087089
 30
0.0
 11
19.85210685827627
 21
-592.5771764535311
 31
0.0
  0
LINE
  5
2DC
330
62
100
AcDbEntity
  8
0
  6
Continuous
 62
     7
100
AcDbLine
 10
16.42947942760878
 20
-594.780778175751
 30
0.0
 11
17.7321572609639
 21
-591.6850925421968
 31
0.0
  0
LINE
  5
2DD
330
62
100
AcDbEntity
  8
0
  6
Continuous
 62
     7
100
AcDbLine
 10
26.74170081565756
 20
-600.4641768847614
 30
0.0
 11
28.80121337784515
 21
-597.8111320141434
 31
0.0
  0
LINE
  5
2DE
330
62
100
AcDbEntity
  8
0
  6
Continuous
 62
     7
100
AcDbLine
 10
84.9464785115801
 20
-647.2949232076644
 30
0.0
 11
84.63347495284546
 21
-649.573525580221
 31
0.0
  0
LINE
  5
2DF
330
62
100
AcDbEntity
  8
0
  6
Continuous
 62
     7
100
AcDbLine
 10
84.63347495284546
 20
-649.573525580221
 30
0.0
 11
73.04785851593482
 21
-647.9820503765768
 31
0.0
  0
LINE
  5
2E0
330
62
100
AcDbEntity
  8
0
  6
Continuous
 62
     7
100
AcDbLine
 10
-73.04637739089009
 20
-625.5920027035354
 30
0.0
 11
-61.80486254778732
 21
-627.1362098867794
 31
0.0
  0
LINE
  5
2E1
330
62
100
AcDbEntity
  8
0
  6
Continuous
 62
     7
100
AcDbLine
 10
-57.20107254043757
 20
-611.4685863108789
 30
0.0
 11
-53.12352072097344
 21
-613.1844376596055
 31
0.0
  0
LINE
  5
2E2
330
62
100
AcDbEntity
  8
0
  6
Continuous
 62
     7
100
AcDbLine
 10
-58.09315645177191
 20
-613.5885359081876
 30
0.0
 11
-54.01560463230778
 21
-615.3043872569178
 31
0.0
  0
LINE
  5
2E3
330
62
100
AcDbEntity
  8
0
  6
Continuous
 62
     7
100
AcDbLine
 10
-46.61492611736464
 20
-602.055931556366
 30
0.0
 11
-45.08889180727199
 21
-603.2405654337526
 31
0.0
  0
LINE
  5
2E4
330
62
100
AcDbEntity
  8
0
  6
Continuous
 62
     7
100
AcDbLine
 10
-50.10944372020237
 20
-599.3431983562878
 30
0.0
 11
-46.61492611736464
 21
-602.055931556366
 31
0.0
  0
LINE
  5
2E5
330
62
100
AcDbEntity
  8
0
  6
Continuous
 62
     7
100
AcDbLine
 10
-53.12352072097344
 20
-613.1844376596055
 30
0.0
 11
-51.3428789601108
 21
-613.9337393735404
 31
0.0
  0
LINE
  5
2E6
330
62
100
AcDbEntity
  8
0
  6
Continuous
 62
     7
100
AcDbLine
 10
-54.01560463230778
 20
-615.3043872569178
 30
0.0
 11
-52.23496287144514
 21
-616.0536889708492
 31
0.0
  0
LINE
  5
2E7
330
62
100
AcDbEntity
  8
0
  6
Continuous
 62
     7
100
AcDbLine
 10
-45.08889180727199
 20
-603.2405654337526
 30
0.0
 11
-38.97515396338856
 21
-607.9865537247351
 31
0.0
  0
LINE
  5
2E8
330
62
100
AcDbEntity
  8
0
  6
Continuous
 62
     7
100
AcDbLine
 10
-73.35938094962472
 20
-627.870605076092
 30
0.0
 11
-62.11786610652195
 21
-629.414812259336
 31
0.0
  0
LINE
  5
2E9
330
62
100
AcDbEntity
  8
0
  6
Continuous
 62
     7
100
AcDbLine
 10
-68.5519557367275
 20
-609.1874281715536
 30
0.0
 11
-58.09315645177191
 21
-613.5885359081876
 31
0.0
  0
LINE
  5
2EA
330
62
100
AcDbEntity
  8
0
  6
Continuous
 62
     7
100
AcDbLine
 10
-52.23496287144514
 20
-616.0536889708492
 30
0.0
 11
-45.10119343533513
 21
-619.0556098416127
 31
0.0
  0
LINE
  5
2EB
330
62
100
AcDbEntity
  8
0
  6
Continuous
 62
     7
100
AcDbLine
 10
-51.3428789601108
 20
-613.9337393735404
 30
0.0
 11
-44.20910952400079
 21
-616.935660244304
 31
0.0
  0
LINE
  5
2EC
330
62
100
AcDbEntity
  8
0
  6
Continuous
 62
     7
100
AcDbLine
 10
-62.11786610652195
 20
-629.414812259336
 30
0.0
 11
-57.73515848845415
 21
-630.0168493228739
 31
0.0
  0
LINE
  5
2ED
330
62
100
AcDbEntity
  8
0
  6
Continuous
 62
     7
100
AcDbLine
 10
-61.80486254778732
 20
-627.1362098867794
 30
0.0
 11
-57.42215492971952
 21
-627.7382469503173
 31
0.0
  0
LINE
  5
2EE
330
62
100
AcDbEntity
  8
0
  6
Continuous
 62
     7
100
AcDbLine
 10
-40.70085110929865
 20
-652.1372850193184
 30
0.0
 11
-42.18726731886415
 21
-652.7432276336913
 31
0.0
  0
LINE
  5
2EF
330
62
100
AcDbEntity
  8
0
  6
Continuous
 62
     7
100
AcDbLine
 10
-57.73515848845415
 20
-630.0168493228739
 30
0.0
 11
-55.82125707017401
 21
-630.2797551998301
 31
0.0
  0
LINE
  5
2F0
330
62
100
AcDbEntity
  8
0
  6
Continuous
 62
     7
100
AcDbLine
 10
-42.99950977691112
 20
-643.3618627164142
 30
0.0
 11
-44.59210707118252
 21
-643.5624455129
 31
0.0
  0
LINE
  5
2F1
330
62
100
AcDbEntity
  8
0
  6
Continuous
 62
     7
100
AcDbLine
 10
43.7367757431661
 20
-696.355216261396
 30
0.0
 11
36.87974373762921
 21
-687.3143455141981
 31
0.0
  0
LINE
  5
2F2
330
62
100
AcDbEntity
  8
0
  6
Continuous
 62
     7
100
AcDbLine
 10
-11.19428327399653
 20
-709.8341444934667
 30
0.0
 11
-9.65007609075253
 21
-698.592629650364
 31
0.0
  0
LINE
  5
2F3
330
62
100
AcDbEntity
  8
0
  6
Continuous
 62
     7
100
AcDbLine
 10
-8.91568090143989
 20
-710.1471480522014
 30
0.0
 11
-7.37147371819589
 21
-698.9056332090986
 31
0.0
  0
LINE
  5
2F4
330
62
100
AcDbEntity
  8
0
  6
Continuous
 62
     7
100
AcDbLine
 10
-7.37147371819589
 20
-698.9056332090986
 30
0.0
 11
-6.76943665465803
 21
-694.5229255910308
 31
0.0
  0
LINE
  5
2F5
330
62
100
AcDbEntity
  8
0
  6
Continuous
 62
     7
100
AcDbLine
 10
-9.65007609075253
 20
-698.592629650364
 30
0.0
 11
-9.04803902721466
 21
-694.2099220322962
 31
0.0
  0
LINE
  5
2F6
330
62
100
AcDbEntity
  8
0
  6
Continuous
 62
     7
100
AcDbLine
 10
-6.76943665465803
 20
-694.5229255910308
 30
0.0
 11
-6.50653077770182
 21
-692.6090241727507
 31
0.0
  0
LINE
  5
2F7
330
62
100
AcDbEntity
  8
0
  6
Continuous
 62
     7
100
AcDbLine
 10
-9.04803902721466
 20
-694.2099220322962
 30
0.0
 11
-8.78513315025845
 21
-692.296020614016
 31
0.0
  0
LINE
  5
2F8
330
62
100
AcDbEntity
  8
0
  6
Continuous
 62
     7
100
AcDbLine
 10
-15.80540945274476
 20
-677.3137537912771
 30
0.0
 11
-16.42799830256406
 21
-678.7932749043575
 31
0.0
  0
LINE
  5
2F9
330
62
100
AcDbEntity
  8
0
  6
Continuous
 62
     7
100
AcDbLine
 10
-7.05634147568851
 20
-679.7107681419475
 30
0.0
 11
-7.27478788319201
 21
-681.3010136472112
 31
0.0
  0
LINE
  5
2FA
330
62
100
AcDbEntity
  8
0
  6
Continuous
 62
     7
100
AcDbLine
 10
-8.78513315025845
 20
-692.296020614016
 30
0.0
 11
-7.7318556461483
 21
-684.6283741836414
 31
0.0
  0
LINE
  5
2FB
330
62
100
AcDbEntity
  8
0
  6
Continuous
 62
     7
100
AcDbLine
 10
-6.50653077770182
 20
-692.6090241727507
 30
0.0
 11
-5.45325327359166
 21
-684.9413777423761
 31
0.0
  0
LINE
  5
2FC
330
62
100
AcDbEntity
  8
0
  6
Continuous
 62
     7
100
AcDbLine
 10
38.71228586580622
 20
-685.9244572638527
 30
0.0
 11
36.03894807926775
 21
-682.399710497004
 31
0.0
  0
LINE
  5
2FD
330
62
100
AcDbEntity
  8
0
  6
Continuous
 62
     7
100
AcDbLine
 10
36.87974373762921
 20
-687.3143455141981
 30
0.0
 11
34.20640595109074
 21
-683.789598747353
 31
0.0
  0
LINE
  5
2FE
330
62
100
AcDbEntity
  8
0
  6
Continuous
 62
     7
100
AcDbLine
 10
36.03894807926775
 20
-682.399710497004
 30
0.0
 11
34.87151793628657
 21
-680.860475297206
 31
0.0
  0
LINE
  5
2FF
330
62
100
AcDbEntity
  8
0
  6
Continuous
 62
     7
100
AcDbLine
 10
33.03897580810956
 20
-682.2503635475514
 30
0.0
 11
28.36191068707779
 21
-676.0837390952656
 31
0.0
  0
LINE
  5
300
330
62
100
AcDbEntity
  8
0
  6
Continuous
 62
     7
100
AcDbLine
 10
34.20640595109074
 20
-683.789598747353
 30
0.0
 11
33.03897580810956
 21
-682.2503635475514
 31
0.0
  0
LINE
  5
301
330
62
100
AcDbEntity
  8
0
  6
Continuous
 62
     7
100
AcDbLine
 10
34.87151793628657
 20
-680.860475297206
 30
0.0
 11
30.19445281525844
 21
-674.6938508449202
 31
0.0
  0
LINE
  5
302
330
62
100
AcDbEntity
  8
0
  6
Continuous
 62
     7
100
AcDbLine
 10
33.37350408256173
 20
-715.6061418809586
 30
0.0
 11
31.24367476343689
 21
-716.4743740338963
 31
0.0
  0
LINE
  5
303
330
62
100
AcDbEntity
  8
0
  6
Continuous
 62
     7
100
AcDbLine
 10
-57.42215492971952
 20
-627.7382469503173
 30
0.0
 11
-55.50825351143937
 21
-628.0011528272735
 31
0.0
  0
LINE
  5
304
330
62
100
AcDbEntity
  8
0
  6
Continuous
 62
     7
100
AcDbLine
 10
33.37350408256173
 20
-715.6061418809586
 30
0.0
 11
28.95895381995654
 21
-704.7769661262682
 31
0.0
  0
LINE
  5
305
330
62
100
AcDbEntity
  8
0
  6
Continuous
 62
     7
100
AcDbLine
 10
-35.05413929070489
 20
-611.0303691778172
 30
0.0
 11
-36.32210909277053
 21
-610.0460662869227
 31
0.0
  0
LINE
  5
306
330
62
100
AcDbEntity
  8
0
  6
Continuous
 62
     7
100
AcDbLine
 10
-40.52598668869684
 20
-620.9808765247872
 30
0.0
 11
-42.00550780177725
 21
-620.3582876749679
 31
0.0
  0
LINE
  5
307
330
62
100
AcDbEntity
  8
0
  6
Continuous
 62
     7
100
AcDbLine
 10
-39.6339027773625
 20
-618.8609269274748
 30
0.0
 11
-41.11342389044291
 21
-618.2383380776591
 31
0.0
  0
LINE
  5
308
330
62
100
AcDbEntity
  8
0
  6
Continuous
 62
     7
100
AcDbLine
 10
17.48082836091128
 20
-676.6203860589376
 30
0.0
 11
18.08677097528419
 21
-678.1068022685031
 31
0.0
  0
LINE
  5
309
330
62
100
AcDbEntity
  8
0
  6
Continuous
 62
     7
100
AcDbLine
 10
33.64525019613432
 20
-664.3605096626816
 30
0.0
 11
34.91321999819996
 21
-665.3448125535797
 31
0.0
  0
LINE
  5
30A
330
62
100
AcDbEntity
  8
0
  6
Continuous
 62
     7
100
AcDbLine
 10
25.36229875850989
 20
-672.1288058652608
 30
0.0
 11
26.33230720296563
 21
-673.4077441818554
 31
0.0
  0
LINE
  5
30B
330
62
100
AcDbEntity
  8
0
  6
Continuous
 62
     7
100
AcDbLine
 10
27.19484060857069
 20
-670.7389172482217
 30
0.0
 11
28.16484933114628
 21
-672.01785593151
 31
0.0
  0
LINE
  5
30C
330
62
100
AcDbEntity
  8
0
  6
Continuous
 62
     7
100
AcDbLine
 10
43.68000271270142
 20
-672.1503134067461
 30
0.0
 11
37.56626486881799
 21
-667.4043251157636
 31
0.0
  0
LINE
  5
30D
330
62
100
AcDbEntity
  8
0
  6
Continuous
 62
     7
100
AcDbLine
 10
45.20603702279771
 20
-673.3349472841328
 30
0.0
 11
43.68000271270142
 21
-672.1503134067461
 31
0.0
  0
LINE
  5
30E
330
62
100
AcDbEntity
  8
0
  6
Continuous
 62
     7
100
AcDbLine
 10
48.7005546256318
 20
-676.0476804842147
 30
0.0
 11
45.20603702279771
 21
-673.3349472841328
 31
0.0
  0
LINE
  5
30F
330
62
100
AcDbEntity
  8
0
  6
Continuous
 62
     7
100
AcDbLine
 10
57.66388846515695
 20
-683.0057605551592
 30
0.0
 11
48.7005546256318
 21
-676.0476804842147
 31
0.0
  0
LINE
  5
310
330
62
100
AcDbEntity
  8
0
  6
Continuous
 62
     7
100
AcDbLine
 10
59.07425868477224
 20
-681.188934794769
 30
0.0
 11
50.11092484525073
 21
-674.2308547238245
 31
0.0
  0
LINE
  5
311
330
62
100
AcDbEntity
  8
0
  6
Continuous
 62
     7
100
AcDbLine
 10
-42.9230010393672
 20
-629.7299445018434
 30
0.0
 11
-44.51324654463458
 21
-629.5114980943399
 31
0.0
  0
LINE
  5
312
330
62
100
AcDbEntity
  8
0
  6
Continuous
 62
     7
100
AcDbLine
 10
31.24367476343689
 20
-716.4743740338963
 30
0.0
 11
26.8291245008317
 21
-705.6451982792096
 31
0.0
  0
LINE
  5
313
330
62
100
AcDbEntity
  8
0
  6
Continuous
 62
     7
100
AcDbLine
 10
-44.07270819462935
 20
-671.6578039138185
 30
0.0
 11
-37.90608374234359
 21
-666.9807387927867
 31
0.0
  0
LINE
  5
314
330
62
100
AcDbEntity
  8
0
  6
Continuous
 62
     7
100
AcDbLine
 10
-33.54572054377929
 20
-681.8766589098523
 30
0.0
 11
-28.79973225279679
 21
-675.7629210659652
 31
0.0
  0
LINE
  5
315
330
62
100
AcDbEntity
  8
0
  6
Continuous
 62
     7
100
AcDbLine
 10
-35.36254630416949
 20
-680.4662886902333
 30
0.0
 11
-30.616558013187
 21
-674.3525508463499
 31
0.0
  0
LINE
  5
316
330
62
100
AcDbEntity
  8
0
  6
Continuous
 62
     7
100
AcDbLine
 10
-54.25333548748456
 20
-657.6620012882195
 30
0.0
 11
-52.46439530043933
 21
-656.932733747326
 31
0.0
  0
LINE
  5
317
330
62
100
AcDbEntity
  8
0
  6
Continuous
 62
     7
100
AcDbLine
 10
-57.48165800092244
 20
-661.4618050253302
 30
0.0
 11
-53.38510333454685
 21
-659.7918306073407
 31
0.0
  0
LINE
  5
318
330
62
100
AcDbEntity
  8
0
  6
Continuous
 62
     7
100
AcDbLine
 10
-53.38510333454685
 20
-659.7918306073407
 30
0.0
 11
-51.59616314749798
 21
-659.0625630664508
 31
0.0
  0
LINE
  5
319
330
62
100
AcDbEntity
  8
0
  6
Continuous
 62
     7
100
AcDbLine
 10
-47.00183164477273
 20
-670.992691928619
 30
0.0
 11
-45.46259644497474
 21
-669.8252617856415
 31
0.0
  0
LINE
  5
31A
330
62
100
AcDbEntity
  8
0
  6
Continuous
 62
     7
100
AcDbLine
 10
-27.57274256010494
 20
-670.4315361736662
 30
0.0
 11
-28.5570454509994
 21
-671.6995059757282
 31
0.0
  0
LINE
  5
31B
330
62
100
AcDbEntity
  8
0
  6
Continuous
 62
     7
100
AcDbLine
 10
-25.75591679971473
 20
-671.8419063932815
 30
0.0
 11
-26.7402196906092
 21
-673.1098761953472
 31
0.0
  0
LINE
  5
31C
330
62
100
AcDbEntity
  8
0
  6
Continuous
 62
     7
100
AcDbLine
 10
-51.59616314749798
 20
-659.0625630664508
 30
0.0
 11
-44.4291477995044
 21
-656.1409049270551
 31
0.0
  0
LINE
  5
31D
330
62
100
AcDbEntity
  8
0
  6
Continuous
 62
     7
100
AcDbLine
 10
8.95720685302006
 20
-698.697062475203
 30
0.0
 11
8.40440180040462
 21
-694.3078733399379
 31
0.0
  0
LINE
  5
31E
330
62
100
AcDbEntity
  8
0
  6
Continuous
 62
     7
100
AcDbLine
 10
6.12242963872489
 20
-694.5952808090697
 30
0.0
 11
5.8810230776566
 21
-692.6785489521535
 31
0.0
  0
LINE
  5
31F
330
62
100
AcDbEntity
  8
0
  6
Continuous
 62
     7
100
AcDbLine
 10
5.8810230776566
 20
-692.6785489521535
 30
0.0
 11
4.91387809383234
 21
-684.9995629603618
 31
0.0
  0
LINE
  5
320
330
62
100
AcDbEntity
  8
0
  6
Continuous
 62
     7
100
AcDbLine
 10
-17.92535905005349
 20
-676.4216698799391
 30
0.0
 11
-18.54794789987279
 21
-677.9011909930232
 31
0.0
  0
LINE
  5
321
330
62
100
AcDbEntity
  8
0
  6
Continuous
 62
     7
100
AcDbLine
 10
-33.95115051233876
 20
-663.9811268642225
 30
0.0
 11
-35.23008882893334
 21
-664.9511353086746
 31
0.0
  0
LINE
  5
322
330
62
100
AcDbEntity
  8
0
  6
Continuous
 62
     7
100
AcDbLine
 10
-52.46439530043933
 20
-656.932733747326
 30
0.0
 11
-45.29737995244211
 21
-654.0110756079303
 31
0.0
  0
LINE
  5
323
330
62
100
AcDbEntity
  8
0
  6
Continuous
 62
     7
100
AcDbLine
 10
-35.34103876268416
 20
-662.1485847360418
 30
0.0
 11
-36.61997707927873
 21
-663.1185931804976
 31
0.0
  0
LINE
  5
324
330
62
100
AcDbEntity
  8
0
  6
Continuous
 62
     7
100
AcDbLine
 10
-39.83261895636094
 20
-654.2671143384432
 30
0.0
 11
-41.31903516592644
 21
-654.8730569528125
 31
0.0
  0
LINE
  5
325
330
62
100
AcDbEntity
  8
0
  6
Continuous
 62
     7
100
AcDbLine
 10
-45.46259644497474
 20
-669.8252617856415
 30
0.0
 11
-39.29597199268898
 21
-665.1481966646097
 31
0.0
  0
LINE
  5
326
330
62
100
AcDbEntity
  8
0
  6
Continuous
 62
     7
100
AcDbLine
 10
-20.73259700667911
 20
-689.0227299740218
 30
0.0
 11
-17.73067613591918
 21
-681.8889605379118
 31
0.0
  0
LINE
  5
327
330
62
100
AcDbEntity
  8
0
  6
Continuous
 62
     7
100
AcDbLine
 10
-22.85254660399148
 20
-688.1306460626874
 30
0.0
 11
-19.85062573322791
 21
-680.9968766265774
 31
0.0
  0
LINE
  5
328
330
62
100
AcDbEntity
  8
0
  6
Continuous
 62
     7
100
AcDbLine
 10
-58.34989015386379
 20
-659.3319757062054
 30
0.0
 11
-54.25333548748456
 21
-657.6620012882195
 31
0.0
  0
LINE
  5
329
330
62
100
AcDbEntity
  8
0
  6
Continuous
 62
     7
100
AcDbLine
 10
-45.61194339442734
 20
-672.8252340567997
 30
0.0
 11
-44.07270819462935
 21
-671.6578039138185
 31
0.0
  0
LINE
  5
32A
330
62
100
AcDbEntity
  8
0
  6
Continuous
 62
     7
100
AcDbLine
 10
-23.1977500693443
 20
-694.8809235543522
 30
0.0
 11
-21.48189872061409
 21
-690.8033717348881
 31
0.0
  0
LINE
  5
32B
330
62
100
AcDbEntity
  8
0
  6
Continuous
 62
     7
100
AcDbLine
 10
-21.48189872061409
 20
-690.8033717348881
 30
0.0
 11
-20.73259700667911
 21
-689.0227299740218
 31
0.0
  0
LINE
  5
32C
330
62
100
AcDbEntity
  8
0
  6
Continuous
 62
     7
100
AcDbLine
 10
-23.60184831792646
 20
-689.9112878235501
 30
0.0
 11
-22.85254660399148
 21
-688.1306460626874
 31
0.0
  0
LINE
  5
32D
330
62
100
AcDbEntity
  8
0
  6
Continuous
 62
     7
100
AcDbLine
 10
-25.31769966665303
 20
-693.9888396430142
 30
0.0
 11
-23.60184831792646
 21
-689.9112878235501
 31
0.0
  0
LINE
  5
32E
330
62
100
AcDbEntity
  8
0
  6
Continuous
 62
     7
100
AcDbLine
 10
-36.54718018155615
 20
-681.992323000326
 30
0.0
 11
-35.36254630416949
 21
-680.4662886902333
 31
0.0
  0
LINE
  5
32F
330
62
100
AcDbEntity
  8
0
  6
Continuous
 62
     7
100
AcDbLine
 10
-34.73035442116595
 20
-683.4026932199449
 30
0.0
 11
-33.54572054377929
 21
-681.8766589098523
 31
0.0
  0
LINE
  5
330
330
62
100
AcDbEntity
  8
0
  6
Continuous
 62
     7
100
AcDbLine
 10
-50.52657841162142
 20
-673.6660297151611
 30
0.0
 11
-47.00183164477273
 21
-670.992691928619
 31
0.0
  0
LINE
  5
331
330
62
100
AcDbEntity
  8
0
  6
Continuous
 62
     7
100
AcDbLine
 10
-49.13669016127603
 20
-675.4985718433381
 30
0.0
 11
-45.61194339442734
 21
-672.8252340567997
 31
0.0
  0
LINE
  5
332
330
62
100
AcDbEntity
  8
0
  6
Continuous
 62
     7
100
AcDbLine
 10
-68.85743117662929
 20
-663.6154104783636
 30
0.0
 11
-58.34989015386379
 21
-659.3319757062054
 31
0.0
  0
LINE
  5
333
330
62
100
AcDbEntity
  8
0
  6
Continuous
 62
     7
100
AcDbLine
 10
9.55449441112653
 20
-721.8453599089116
 30
0.0
 11
8.09316322909802
 21
-710.2426096865092
 31
0.0
  0
LINE
  5
334
330
62
100
AcDbEntity
  8
0
  6
Continuous
 62
     7
100
AcDbLine
 10
11.8364665728099
 20
-721.5579524397799
 30
0.0
 11
9.55449441112653
 21
-721.8453599089116
 31
0.0
  0
LINE
  5
335
330
62
100
AcDbEntity
  8
0
  6
Continuous
 62
     7
100
AcDbLine
 10
11.8364665728099
 20
-721.5579524397799
 30
0.0
 11
10.37513539078139
 21
-709.9552022173775
 31
0.0
  0
LINE
  5
336
330
62
100
AcDbEntity
  8
0
  6
Continuous
 62
     7
100
AcDbLine
 10
8.09316322909802
 20
-710.2426096865092
 30
0.0
 11
6.67523469134033
 21
-698.9844699443347
 31
0.0
  0
LINE
  5
337
330
62
100
AcDbEntity
  8
0
  6
Continuous
 62
     7
100
AcDbLine
 10
10.37513539078139
 20
-709.9552022173775
 30
0.0
 11
8.95720685302006
 21
-698.697062475203
 31
0.0
  0
LINE
  5
338
330
62
100
AcDbEntity
  8
0
  6
Continuous
 62
     7
100
AcDbLine
 10
6.67523469134033
 20
-698.9844699443347
 30
0.0
 11
6.12242963872489
 21
-694.5952808090697
 31
0.0
  0
LINE
  5
339
330
62
100
AcDbEntity
  8
0
  6
Continuous
 62
     7
100
AcDbLine
 10
-4.77773910313187
 20
-680.0237717006821
 30
0.0
 11
-4.99618551063538
 21
-681.6140172059459
 31
0.0
  0
LINE
  5
33A
330
62
100
AcDbEntity
  8
0
  6
Continuous
 62
     7
100
AcDbLine
 10
-67.98919902369158
 20
-665.7452397974848
 30
0.0
 11
-57.48165800092244
 21
-661.4618050253302
 31
0.0
  0
LINE
  5
33B
330
62
100
AcDbEntity
  8
0
  6
Continuous
 62
     7
100
AcDbLine
 10
26.8291245008317
 20
-705.6451982792096
 30
0.0
 11
22.54568972867349
 21
-695.1376572564404
 31
0.0
  0
LINE
  5
33C
330
62
100
AcDbEntity
  8
0
  6
Continuous
 62
     7
100
AcDbLine
 10
23.00554462981238
 20
-690.1728704371235
 30
0.0
 11
22.2762770889189
 21
-688.3839302500783
 31
0.0
  0
LINE
  5
33D
330
62
100
AcDbEntity
  8
0
  6
Continuous
 62
     7
100
AcDbLine
 10
22.2762770889189
 20
-688.3839302500783
 30
0.0
 11
19.35461894952316
 21
-681.216914902081
 31
0.0
  0
LINE
  5
33E
330
62
100
AcDbEntity
  8
0
  6
Continuous
 62
     7
100
AcDbLine
 10
24.67551904779833
 20
-694.2694251035027
 30
0.0
 11
23.00554462981238
 21
-690.1728704371235
 31
0.0
  0
LINE
  5
33F
330
62
100
AcDbEntity
  8
0
  6
Continuous
 62
     7
100
AcDbLine
 10
22.54568972867349
 20
-695.1376572564404
 30
0.0
 11
20.87571531068755
 21
-691.0411025900648
 31
0.0
  0
LINE
  5
340
330
62
100
AcDbEntity
  8
0
  6
Continuous
 62
     7
100
AcDbLine
 10
20.87571531068755
 20
-691.0411025900648
 30
0.0
 11
20.14644776979406
 21
-689.252162403016
 31
0.0
  0
LINE
  5
341
330
62
100
AcDbEntity
  8
0
  6
Continuous
 62
     7
100
AcDbLine
 10
20.14644776979406
 20
-689.252162403016
 30
0.0
 11
17.22478963039833
 21
-682.0851470550188
 31
0.0
  0
LINE
  5
342
330
62
100
AcDbEntity
  8
0
  6
Continuous
 62
     7
100
AcDbLine
 10
4.29360457720252
 20
-680.0746843486195
 30
0.0
 11
4.49418737368836
 21
-681.6672816428945
 31
0.0
  0
LINE
  5
343
330
62
100
AcDbEntity
  8
0
  6
Continuous
 62
     7
100
AcDbLine
 10
8.16299523933997
 20
-692.3911414830218
 30
0.0
 11
7.19585025551572
 21
-684.7121554912301
 31
0.0
  0
LINE
  5
344
330
62
100
AcDbEntity
  8
0
  6
Continuous
 62
     7
100
AcDbLine
 10
6.57557673888225
 20
-679.7872768794878
 30
0.0
 11
6.77615953536809
 21
-681.3798741737628
 31
0.0
  0
LINE
  5
345
330
62
100
AcDbEntity
  8
0
  6
Continuous
 62
     7
100
AcDbLine
 10
-55.50825351143937
 20
-628.0011528272735
 30
0.0
 11
-47.84060708106478
 21
-629.0544303313836
 31
0.0
  0
LINE
  5
346
330
62
100
AcDbEntity
  8
0
  6
Continuous
 62
     7
100
AcDbLine
 10
-55.82125707017401
 20
-630.2797551998301
 30
0.0
 11
-48.15361063979942
 21
-631.3330327039403
 31
0.0
  0
LINE
  5
347
330
62
100
AcDbEntity
  8
0
  6
Continuous
 62
     7
100
AcDbLine
 10
15.35099904178644
 20
-677.4886182118789
 30
0.0
 11
15.95694165615935
 21
-678.9750344214444
 31
0.0
  0
LINE
  5
348
330
62
100
AcDbEntity
  8
0
  6
Continuous
 62
     7
100
AcDbLine
 10
28.95895381995654
 20
-704.7769661262682
 30
0.0
 11
24.67551904779833
 21
-694.2694251035027
 31
0.0
  0
LINE
  5
349
330
62
100
AcDbEntity
  8
0
  6
Continuous
 62
     7
100
AcDbLine
 10
8.40440180040462
 20
-694.3078733399379
 30
0.0
 11
8.16299523933997
 21
-692.3911414830218
 31
0.0
  0
LINE
  5
34A
330
62
100
AcDbEntity
  8
0
  6
Continuous
 62
     7
100
AcDbLine
 10
-10.50715610508411
 20
-721.732764489112
 30
0.0
 11
-8.91568090143989
 21
-710.1471480522014
 31
0.0
  0
LINE
  5
34B
330
62
100
AcDbEntity
  8
0
  6
Continuous
 62
     7
100
AcDbLine
 10
-10.50715610508411
 20
-721.732764489112
 30
0.0
 11
-12.78575847764075
 21
-721.4197609303774
 31
0.0
  0
LINE
  5
34C
330
62
100
AcDbEntity
  8
0
  6
Continuous
 62
     7
100
AcDbLine
 10
-12.78575847764075
 20
-721.4197609303774
 30
0.0
 11
-11.19428327399653
 21
-709.8341444934667
 31
0.0
  0
LINE
  5
34D
330
62
100
AcDbEntity
  8
0
  6
Continuous
 62
     7
100
AcDbLine
 10
-39.25991338163437
 20
-685.4868406031637
 30
0.0
 11
-36.54718018155615
 21
-681.992323000326
 31
0.0
  0
LINE
  5
34E
330
62
100
AcDbEntity
  8
0
  6
Continuous
 62
     7
100
AcDbLine
 10
-37.44308762124417
 20
-686.8972108227827
 30
0.0
 11
-34.73035442116595
 21
-683.4026932199449
 31
0.0
  0
LINE
  5
34F
330
62
100
AcDbEntity
  8
0
  6
Continuous
 62
     7
100
AcDbLine
 10
-59.5674491588157
 20
-680.523061720698
 30
0.0
 11
-50.52657841162142
 21
-673.6660297151611
 31
0.0
  0
LINE
  5
350
330
62
100
AcDbEntity
  8
0
  6
Continuous
 62
     7
100
AcDbLine
 10
-58.17756090847031
 20
-682.355603848875
 30
0.0
 11
-49.13669016127603
 21
-675.4985718433381
 31
0.0
  0
LINE
  5
351
330
62
100
AcDbEntity
  8
0
  6
Continuous
 62
     7
100
AcDbLine
 10
-27.59885780597831
 20
-705.3397228393078
 30
0.0
 11
-23.1977500693443
 21
-694.8809235543522
 31
0.0
  0
LINE
  5
352
330
62
100
AcDbEntity
  8
0
  6
Continuous
 62
     7
100
AcDbLine
 10
-78.81837477838195
 20
-670.1597900600937
 30
0.0
 11
-79.68660693131966
 21
-668.0299607409688
 31
0.0
  0
LINE
  5
353
330
62
100
AcDbEntity
  8
0
  6
Continuous
 62
     7
100
AcDbLine
 10
-79.68660693131966
 20
-668.0299607409688
 30
0.0
 11
-68.85743117662929
 21
-663.6154104783636
 31
0.0
  0
LINE
  5
354
330
62
100
AcDbEntity
  8
0
  6
Continuous
 62
     7
100
AcDbLine
 10
-78.81837477838195
 20
-670.1597900600937
 30
0.0
 11
-67.98919902369158
 21
-665.7452397974848
 31
0.0
  0
LINE
  5
355
330
62
100
AcDbEntity
  8
0
  6
Continuous
 62
     7
100
AcDbLine
 10
-44.40116769219237
 20
-695.8605446623042
 30
0.0
 11
-37.44308762124417
 21
-686.8972108227827
 31
0.0
  0
LINE
  5
356
330
62
100
AcDbEntity
  8
0
  6
Continuous
 62
     7
100
AcDbLine
 10
-46.21799345258257
 20
-694.4501744426889
 30
0.0
 11
-39.25991338163437
 21
-685.4868406031637
 31
0.0
  0
LINE
  5
357
330
62
100
AcDbEntity
  8
0
  6
Continuous
 62
     7
100
AcDbLine
 10
-54.7379817662673
 20
-688.0576056065256
 30
0.0
 11
-54.36538082121621
 21
-687.5776245448869
 31
0.0
  0
LINE
  5
358
330
62
100
AcDbEntity
  8
0
  6
Continuous
 62
     7
100
AcDbLine
 10
-54.05482087566413
 20
-687.177564120062
 30
0.0
 11
-54.36538082121621
 21
-687.5776245448869
 31
0.0
  0
LINE
  5
359
330
62
100
AcDbEntity
  8
0
  6
Continuous
 62
     7
100
AcDbLine
 10
-35.7231172033549
 20
-702.0493126348847
 30
0.0
 11
-36.09571805591765
 21
-702.5292935773796
 31
0.0
  0
LINE
  5
35A
330
62
100
AcDbEntity
  8
0
  6
Continuous
 62
     7
100
AcDbLine
 10
-35.7231172033549
 20
-702.0493126348847
 30
0.0
 11
-35.41255733607029
 21
-701.6492523108791
 31
0.0
  0
LINE
  5
35B
330
62
100
AcDbEntity
  8
0
  6
Continuous
 62
     7
100
AcDbLine
 10
51.27131962899733
 20
-691.5257488688476
 30
0.0
 11
50.79133856735501
 21
-691.1531479237929
 31
0.0
  0
LINE
  5
35C
330
62
100
AcDbEntity
  8
0
  6
Continuous
 62
     7
100
AcDbLine
 10
50.39127814253009
 20
-690.8425879782444
 30
0.0
 11
50.79133856735501
 21
-691.1531479237929
 31
0.0
  0
LINE
  5
35D
330
62
100
AcDbEntity
  8
0
  6
Continuous
 62
     7
100
AcDbLine
 10
65.26302665735278
 20
-672.5108843059315
 30
0.0
 11
65.7430075998513
 21
-672.8834851584979
 31
0.0
  0
LINE
  5
35E
330
62
100
AcDbEntity
  8
0
  6
Continuous
 62
     7
100
AcDbLine
 10
35.72459832840325
 20
-571.5247404452239
 30
0.0
 11
36.09719918096601
 21
-571.044759502729
 31
0.0
  0
LINE
  5
35F
330
62
100
AcDbEntity
  8
0
  6
Continuous
 62
     7
100
AcDbLine
 10
35.72459832840325
 20
-571.5247404452239
 30
0.0
 11
35.41403846111864
 21
-571.9248007692295
 31
0.0
  0
LINE
  5
360
330
62
100
AcDbEntity
  8
0
  6
Continuous
 62
     7
100
AcDbLine
 10
23.19923119438902
 20
-578.69312952576
 30
0.0
 11
21.48337984566245
 21
-582.7706813452241
 31
0.0
  0
LINE
  5
361
330
62
100
AcDbEntity
  8
0
  6
Continuous
 62
     7
100
AcDbLine
 10
25.31918079170139
 20
-579.5852134370944
 30
0.0
 11
23.60332944297118
 21
-583.6627652565585
 31
0.0
  0
LINE
  5
362
330
62
100
AcDbEntity
  8
0
  6
Continuous
 62
     7
100
AcDbLine
 10
23.60332944297118
 20
-583.6627652565585
 30
0.0
 11
22.8540277290362
 21
-585.4434070174211
 31
0.0
  0
LINE
  5
363
330
62
100
AcDbEntity
  8
0
  6
Continuous
 62
     7
100
AcDbLine
 10
29.7202885283354
 20
-569.1264141521388
 30
0.0
 11
25.31918079170139
 21
-579.5852134370944
 31
0.0
  0
LINE
  5
364
330
62
100
AcDbEntity
  8
0
  6
Continuous
 62
     7
100
AcDbLine
 10
27.60033893102303
 20
-568.2343302408044
 30
0.0
 11
23.19923119438902
 21
-578.69312952576
 31
0.0
  0
LINE
  5
365
330
62
100
AcDbEntity
  8
0
  6
Continuous
 62
     7
100
AcDbLine
 10
34.25611371255803
 20
-558.3474721147577
 30
0.0
 11
29.7202885283354
 21
-569.1264141521388
 31
0.0
  0
LINE
  5
366
330
62
100
AcDbEntity
  8
0
  6
Continuous
 62
     7
100
AcDbLine
 10
32.13616411524566
 20
-557.4553882034234
 30
0.0
 11
34.25611371255803
 21
-558.3474721147577
 31
0.0
  0
LINE
  5
367
330
62
100
AcDbEntity
  8
0
  6
Continuous
 62
     7
100
AcDbLine
 10
32.13616411524566
 20
-557.4553882034234
 30
0.0
 11
27.60033893102303
 21
-568.2343302408044
 31
0.0
  0
LINE
  5
368
330
62
100
AcDbEntity
  8
0
  6
Continuous
 62
     7
100
AcDbLine
 10
6.77091777970275
 20
-579.0511274890778
 30
0.0
 11
6.50801190275018
 21
-580.9650289073579
 31
0.0
  0
LINE
  5
369
330
62
100
AcDbEntity
  8
0
  6
Continuous
 62
     7
100
AcDbLine
 10
10.50863723013247
 20
-551.8412885909966
 30
0.0
 11
12.78723960268911
 21
-552.1542921497312
 31
0.0
  0
LINE
  5
36A
330
62
100
AcDbEntity
  8
0
  6
Continuous
 62
     7
100
AcDbLine
 10
10.50863723013247
 20
-551.8412885909966
 30
0.0
 11
8.91716202648825
 21
-563.4269050279072
 31
0.0
  0
LINE
  5
36B
330
62
100
AcDbEntity
  8
0
  6
Continuous
 62
     7
100
AcDbLine
 10
12.78723960268911
 20
-552.1542921497312
 30
0.0
 11
11.19576439904488
 21
-563.7399085866418
 31
0.0
  0
LINE
  5
36C
330
62
100
AcDbEntity
  8
0
  6
Continuous
 62
     7
100
AcDbLine
 10
11.19576439904488
 20
-563.7399085866418
 30
0.0
 11
9.65155721580089
 21
-574.9814234297446
 31
0.0
  0
LINE
  5
36D
330
62
100
AcDbEntity
  8
0
  6
Continuous
 62
     7
100
AcDbLine
 10
8.91716202648825
 20
-563.4269050279072
 30
0.0
 11
7.37295484324425
 21
-574.66841987101
 31
0.0
  0
LINE
  5
36E
330
62
100
AcDbEntity
  8
0
  6
Continuous
 62
     7
100
AcDbLine
 10
9.65155721580089
 20
-574.9814234297446
 30
0.0
 11
9.04952015225938
 21
-579.3641310478124
 31
0.0
  0
LINE
  5
36F
330
62
100
AcDbEntity
  8
0
  6
Continuous
 62
     7
100
AcDbLine
 10
7.37295484324425
 20
-574.66841987101
 30
0.0
 11
6.77091777970275
 21
-579.0511274890778
 31
0.0
  0
LINE
  5
370
330
62
100
AcDbEntity
  8
0
  6
Continuous
 62
     7
100
AcDbLine
 10
9.04952015225938
 20
-579.3641310478124
 30
0.0
 11
8.78661427530681
 21
-581.2780324660926
 31
0.0
  0
LINE
  5
371
330
62
100
AcDbEntity
  8
0
  6
Continuous
 62
     7
100
AcDbLine
 10
44.40264881724072
 20
-577.7135084178044
 30
0.0
 11
37.44456874629253
 21
-586.6768422573296
 31
0.0
  0
LINE
  5
372
330
62
100
AcDbEntity
  8
0
  6
Continuous
 62
     7
100
AcDbLine
 10
58.17904203351866
 20
-591.2184492312335
 30
0.0
 11
49.13817128632075
 21
-598.0754812367704
 31
0.0
  0
LINE
  5
373
330
62
100
AcDbEntity
  8
0
  6
Continuous
 62
     7
100
AcDbLine
 10
67.49665288887121
 20
-584.1515241930538
 30
0.0
 11
68.8865411392166
 21
-585.9840663212344
 31
0.0
  0
LINE
  5
374
330
62
100
AcDbEntity
  8
0
  6
Continuous
 62
     7
100
AcDbLine
 10
68.8865411392166
 20
-585.9840663212344
 30
0.0
 11
59.56893028386406
 21
-593.0509913594105
 31
0.0
  0
LINE
  5
375
330
62
100
AcDbEntity
  8
0
  6
Continuous
 62
     7
100
AcDbLine
 10
67.49665288887121
 20
-584.1515241930538
 30
0.0
 11
58.17904203351866
 21
-591.2184492312335
 31
0.0
  0
LINE
  5
376
330
62
100
AcDbEntity
  8
0
  6
Continuous
 62
     7
100
AcDbLine
 10
15.80689057779312
 20
-596.2602992888351
 30
0.0
 11
16.42947942760878
 21
-594.780778175751
 31
0.0
  0
LINE
  5
377
330
62
100
AcDbEntity
  8
0
  6
Continuous
 62
     7
100
AcDbLine
 10
8.78661427530681
 20
-581.2780324660926
 30
0.0
 11
7.73333677119666
 21
-588.9456788964671
 31
0.0
  0
LINE
  5
378
330
62
100
AcDbEntity
  8
0
  6
Continuous
 62
     7
100
AcDbLine
 10
6.50801190275018
 20
-580.9650289073579
 30
0.0
 11
5.45473439864002
 21
-588.6326753377325
 31
0.0
  0
LINE
  5
379
330
62
100
AcDbEntity
  8
0
  6
Continuous
 62
     7
100
AcDbLine
 10
-5.87954195261188
 20
-580.8955041279551
 30
0.0
 11
-4.91239696878763
 21
-588.5744901197504
 31
0.0
  0
LINE
  5
37A
330
62
100
AcDbEntity
  8
0
  6
Continuous
 62
     7
100
AcDbLine
 10
-8.16151411429161
 20
-581.1829115970868
 30
0.0
 11
-7.19436913046736
 21
-588.8618975888785
 31
0.0
  0
LINE
  5
37B
330
62
100
AcDbEntity
  8
0
  6
Continuous
 62
     7
100
AcDbLine
 10
55.89226297462158
 20
-630.90674402492
 30
0.0
 11
48.21327698282988
 21
-631.8738890087443
 31
0.0
  0
LINE
  5
37C
330
62
100
AcDbEntity
  8
0
  6
Continuous
 62
     7
100
AcDbLine
 10
55.60485550548986
 20
-628.6247718632403
 30
0.0
 11
47.92586951369815
 21
-629.5919168470646
 31
0.0
  0
LINE
  5
37D
330
62
100
AcDbEntity
  8
0
  6
Continuous
 62
     7
100
AcDbLine
 10
78.81985590342669
 20
-603.4142630200149
 30
0.0
 11
67.99068014873995
 21
-607.8288132826237
 31
0.0
  0
LINE
  5
37E
330
62
100
AcDbEntity
  8
0
  6
Continuous
 62
     7
100
AcDbLine
 10
78.81985590342669
 20
-603.4142630200149
 30
0.0
 11
79.68808805636803
 21
-605.5440923391398
 31
0.0
  0
LINE
  5
37F
330
62
100
AcDbEntity
  8
0
  6
Continuous
 62
     7
100
AcDbLine
 10
67.99068014873995
 20
-607.8288132826237
 30
0.0
 11
57.4831391259708
 21
-612.1122480547783
 31
0.0
  0
LINE
  5
380
330
62
100
AcDbEntity
  8
0
  6
Continuous
 62
     7
100
AcDbLine
 10
58.35137127890851
 20
-614.2420773739032
 30
0.0
 11
54.25481661253291
 21
-615.9120517918927
 31
0.0
  0
LINE
  5
381
330
62
100
AcDbEntity
  8
0
  6
Continuous
 62
     7
100
AcDbLine
 10
68.85891230167766
 20
-609.9586426017486
 30
0.0
 11
58.35137127890851
 21
-614.2420773739032
 31
0.0
  0
LINE
  5
382
330
62
100
AcDbEntity
  8
0
  6
Continuous
 62
     7
100
AcDbLine
 10
79.68808805636803
 20
-605.5440923391398
 30
0.0
 11
68.85891230167766
 21
-609.9586426017486
 31
0.0
  0
LINE
  5
383
330
62
100
AcDbEntity
  8
0
  6
Continuous
 62
     7
100
AcDbLine
 10
54.25481661253291
 20
-615.9120517918927
 30
0.0
 11
52.46587642548405
 21
-616.6413193327862
 31
0.0
  0
LINE
  5
384
330
62
100
AcDbEntity
  8
0
  6
Continuous
 62
     7
100
AcDbLine
 10
53.38658445959521
 20
-613.7822224727679
 30
0.0
 11
51.59764427254634
 21
-614.5114900136614
 31
0.0
  0
LINE
  5
385
330
62
100
AcDbEntity
  8
0
  6
Continuous
 62
     7
100
AcDbLine
 10
45.4640775700231
 20
-603.7487912944707
 30
0.0
 11
39.29745311773734
 21
-608.4258564155025
 31
0.0
  0
LINE
  5
386
330
62
100
AcDbEntity
  8
0
  6
Continuous
 62
     7
100
AcDbLine
 10
44.07418931967771
 20
-601.9162491662901
 30
0.0
 11
37.90756486739195
 21
-606.5933142873218
 31
0.0
  0
LINE
  5
387
330
62
100
AcDbEntity
  8
0
  6
Continuous
 62
     7
100
AcDbLine
 10
45.61342451947569
 20
-600.7488190233089
 30
0.0
 11
44.07418931967771
 21
-601.9162491662901
 31
0.0
  0
LINE
  5
388
330
62
100
AcDbEntity
  8
0
  6
Continuous
 62
     7
100
AcDbLine
 10
47.00331276982109
 20
-602.5813611514895
 30
0.0
 11
45.4640775700231
 21
-603.7487912944707
 31
0.0
  0
LINE
  5
389
330
62
100
AcDbEntity
  8
0
  6
Continuous
 62
     7
100
AcDbLine
 10
36.54866130660451
 20
-591.5817300797826
 30
0.0
 11
35.36402742921421
 21
-593.1077643898752
 31
0.0
  0
LINE
  5
38A
330
62
100
AcDbEntity
  8
0
  6
Continuous
 62
     7
100
AcDbLine
 10
50.52805953666978
 20
-599.9080233649511
 30
0.0
 11
47.00331276982109
 21
-602.5813611514895
 31
0.0
  0
LINE
  5
38B
330
62
100
AcDbEntity
  8
0
  6
Continuous
 62
     7
100
AcDbLine
 10
39.26139450668273
 20
-588.0872124769448
 30
0.0
 11
36.54866130660451
 21
-591.5817300797826
 31
0.0
  0
LINE
  5
38C
330
62
100
AcDbEntity
  8
0
  6
Continuous
 62
     7
100
AcDbLine
 10
49.13817128632075
 20
-598.0754812367704
 30
0.0
 11
45.61342451947569
 21
-600.7488190233089
 31
0.0
  0
LINE
  5
38D
330
62
100
AcDbEntity
  8
0
  6
Continuous
 62
     7
100
AcDbLine
 10
57.4831391259708
 20
-612.1122480547783
 30
0.0
 11
53.38658445959521
 21
-613.7822224727679
 31
0.0
  0
LINE
  5
38E
330
62
100
AcDbEntity
  8
0
  6
Continuous
 62
     7
100
AcDbLine
 10
61.9107764976747
 20
-627.8305602495602
 30
0.0
 11
57.52158736240602
 21
-628.3833653021757
 31
0.0
  0
LINE
  5
38F
330
62
100
AcDbEntity
  8
0
  6
Continuous
 62
     7
100
AcDbLine
 10
52.46587642548405
 20
-616.6413193327862
 30
0.0
 11
45.29886107748683
 21
-619.5629774721783
 31
0.0
  0
LINE
  5
390
330
62
100
AcDbEntity
  8
0
  6
Continuous
 62
     7
100
AcDbLine
 10
27.57422368514965
 20
-603.1425169064423
 30
0.0
 11
28.55852657604776
 21
-601.8745471043803
 31
0.0
  0
LINE
  5
391
330
62
100
AcDbEntity
  8
0
  6
Continuous
 62
     7
100
AcDbLine
 10
35.34251988772888
 20
-611.4254683440668
 30
0.0
 11
36.62145820432345
 21
-610.455459899611
 31
0.0
  0
LINE
  5
392
330
62
100
AcDbEntity
  8
0
  6
Continuous
 62
     7
100
AcDbLine
 10
39.83410008140566
 20
-619.3069387416654
 30
0.0
 11
41.32051629097116
 21
-618.7009961272961
 31
0.0
  0
LINE
  5
393
330
62
100
AcDbEntity
  8
0
  6
Continuous
 62
     7
100
AcDbLine
 10
33.95263163738348
 20
-609.5929262158897
 30
0.0
 11
35.23156995397806
 21
-608.622917771434
 31
0.0
  0
LINE
  5
394
330
62
100
AcDbEntity
  8
0
  6
Continuous
 62
     7
100
AcDbLine
 10
59.56893028386406
 20
-593.0509913594105
 30
0.0
 11
50.52805953666978
 21
-599.9080233649511
 31
0.0
  0
LINE
  5
395
330
62
100
AcDbEntity
  8
0
  6
Continuous
 62
     7
100
AcDbLine
 10
57.80899483153774
 20
-630.6653374638554
 30
0.0
 11
55.89226297462158
 21
-630.90674402492
 31
0.0
  0
LINE
  5
396
330
62
100
AcDbEntity
  8
0
  6
Continuous
 62
     7
100
AcDbLine
 10
51.59764427254634
 20
-614.5114900136614
 30
0.0
 11
44.43062892454912
 21
-617.4331481530535
 31
0.0
  0
LINE
  5
397
330
62
100
AcDbEntity
  8
0
  6
Continuous
 62
     7
100
AcDbLine
 10
57.52158736240602
 20
-628.3833653021757
 30
0.0
 11
55.60485550548986
 21
-628.6247718632403
 31
0.0
  0
LINE
  5
398
330
62
100
AcDbEntity
  8
0
  6
Continuous
 62
     7
100
AcDbLine
 10
62.19818396680278
 20
-630.11253241124
 30
0.0
 11
57.80899483153774
 21
-630.6653374638554
 31
0.0
  0
LINE
  5
399
330
62
100
AcDbEntity
  8
0
  6
Continuous
 62
     7
100
AcDbLine
 10
35.36402742921421
 20
-593.1077643898752
 30
0.0
 11
30.61803913823535
 21
-599.2215022337623
 31
0.0
  0
LINE
  5
39A
330
62
100
AcDbEntity
  8
0
  6
Continuous
 62
     7
100
AcDbLine
 10
73.36086207466946
 20
-645.7034480040202
 30
0.0
 11
62.11934723156667
 21
-644.1592408207762
 31
0.0
  0
LINE
  5
39B
330
62
100
AcDbEntity
  8
0
  6
Continuous
 62
     7
100
AcDbLine
 10
84.77166646224799
 20
-624.9513005297704
 30
0.0
 11
85.05907393137971
 21
-627.2332726914501
 31
0.0
  0
LINE
  5
39C
330
62
100
AcDbEntity
  8
0
  6
Continuous
 62
     7
100
AcDbLine
 10
85.05907393137971
 20
-627.2332726914501
 30
0.0
 11
73.45632370897732
 21
-628.6946038734786
 31
0.0
  0
LINE
  5
39D
330
62
100
AcDbEntity
  8
0
  6
Continuous
 62
     7
100
AcDbLine
 10
84.77166646224799
 20
-624.9513005297704
 30
0.0
 11
73.1689162398456
 21
-626.4126317117989
 31
0.0
  0
LINE
  5
39E
330
62
100
AcDbEntity
  8
0
  6
Continuous
 62
     7
100
AcDbLine
 10
73.45632370897732
 20
-628.6946038734786
 30
0.0
 11
62.19818396680278
 21
-630.11253241124
 31
0.0
  0
LINE
  5
39F
330
62
100
AcDbEntity
  8
0
  6
Continuous
 62
     7
100
AcDbLine
 10
73.1689162398456
 20
-626.4126317117989
 30
0.0
 11
61.9107764976747
 21
-627.8305602495602
 31
0.0
  0
LINE
  5
3A0
330
62
100
AcDbEntity
  8
0
  6
Continuous
 62
     7
100
AcDbLine
 10
84.9464785115801
 20
-647.2949232076644
 30
0.0
 11
73.36086207466946
 21
-645.7034480040202
 31
0.0
  0
LINE
  5
3A1
330
62
100
AcDbEntity
  8
0
  6
Continuous
 62
     7
100
AcDbLine
 10
-33.37202295751701
 20
-557.96791119915
 30
0.0
 11
-31.24219363839217
 21
-557.0996790462123
 31
0.0
  0
LINE
  5
3A2
330
62
100
AcDbEntity
  8
0
  6
Continuous
 62
     7
100
AcDbLine
 10
-33.37202295751701
 20
-557.96791119915
 30
0.0
 11
-28.95747269490818
 21
-568.7970869538403
 31
0.0
  0
LINE
  5
3A3
330
62
100
AcDbEntity
  8
0
  6
Continuous
 62
     7
100
AcDbLine
 10
-31.24219363839217
 20
-557.0996790462123
 30
0.0
 11
-26.82764337578335
 21
-567.9288548009026
 31
0.0
  0
LINE
  5
3A4
330
62
100
AcDbEntity
  8
0
  6
Continuous
 62
     7
100
AcDbLine
 10
-48.69907350058708
 20
-597.5263725958976
 30
0.0
 11
-45.20455589774935
 21
-600.2391057959758
 31
0.0
  0
LINE
  5
3A5
330
62
100
AcDbEntity
  8
0
  6
Continuous
 62
     7
100
AcDbLine
 10
-45.20455589774935
 20
-600.2391057959758
 30
0.0
 11
-43.6785215876567
 21
-601.4237396733624
 31
0.0
  0
LINE
  5
3A6
330
62
100
AcDbEntity
  8
0
  6
Continuous
 62
     7
100
AcDbLine
 10
-20.87423418563919
 20
-582.5329504900437
 30
0.0
 11
-20.1449666447457
 21
-584.3218906770926
 31
0.0
  0
LINE
  5
3A7
330
62
100
AcDbEntity
  8
0
  6
Continuous
 62
     7
100
AcDbLine
 10
-23.00406350476403
 20
-583.4011826429851
 30
0.0
 11
-22.27479596387054
 21
-585.1901228300339
 31
0.0
  0
LINE
  5
3A8
330
62
100
AcDbEntity
  8
0
  6
Continuous
 62
     7
100
AcDbLine
 10
-22.27479596387054
 20
-585.1901228300339
 30
0.0
 11
-19.35313782447845
 21
-592.3571381780275
 31
0.0
  0
LINE
  5
3A9
330
62
100
AcDbEntity
  8
0
  6
Continuous
 62
     7
100
AcDbLine
 10
-22.54420860362877
 20
-578.4363958236681
 30
0.0
 11
-20.87423418563919
 21
-582.5329504900437
 31
0.0
  0
LINE
  5
3AA
330
62
100
AcDbEntity
  8
0
  6
Continuous
 62
     7
100
AcDbLine
 10
-24.67403792275361
 20
-579.3046279766095
 30
0.0
 11
-23.00406350476403
 21
-583.4011826429851
 31
0.0
  0
LINE
  5
3AB
330
62
100
AcDbEntity
  8
0
  6
Continuous
 62
     7
100
AcDbLine
 10
-20.1449666447457
 20
-584.3218906770926
 30
0.0
 11
-17.22330850535361
 21
-591.4889060250898
 31
0.0
  0
LINE
  5
3AC
330
62
100
AcDbEntity
  8
0
  6
Continuous
 62
     7
100
AcDbLine
 10
-28.95747269490818
 20
-568.7970869538403
 30
0.0
 11
-24.67403792275361
 21
-579.3046279766095
 31
0.0
  0
LINE
  5
3AD
330
62
100
AcDbEntity
  8
0
  6
Continuous
 62
     7
100
AcDbLine
 10
-26.82764337578335
 20
-567.9288548009026
 30
0.0
 11
-22.54420860362877
 21
-578.4363958236681
 31
0.0
  0
LINE
  5
3AE
330
62
100
AcDbEntity
  8
0
  6
Continuous
 62
     7
100
AcDbLine
 10
-43.6785215876567
 20
-601.4237396733624
 30
0.0
 11
-37.56478374376963
 21
-606.1697279643449
 31
0.0
  0
LINE
  5
3AF
330
62
100
AcDbEntity
  8
0
  6
Continuous
 62
     7
100
AcDbLine
 10
-11.83498544776155
 20
-552.0161006403287
 30
0.0
 11
-9.55301328608181
 21
-551.7286931711969
 31
0.0
  0
LINE
  5
3B0
330
62
100
AcDbEntity
  8
0
  6
Continuous
 62
     7
100
AcDbLine
 10
-11.83498544776155
 20
-552.0161006403287
 30
0.0
 11
-10.37365426573303
 21
-563.618850862731
 31
0.0
  0
LINE
  5
3B1
330
62
100
AcDbEntity
  8
0
  6
Continuous
 62
     7
100
AcDbLine
 10
-9.55301328608181
 20
-551.7286931711969
 30
0.0
 11
-8.0916821040533
 21
-563.331443393603
 31
0.0
  0
LINE
  5
3B2
330
62
100
AcDbEntity
  8
0
  6
Continuous
 62
     7
100
AcDbLine
 10
-8.40292067535626
 20
-579.2661797401706
 30
0.0
 11
-8.16151411429161
 21
-581.1829115970868
 31
0.0
  0
LINE
  5
3B3
330
62
100
AcDbEntity
  8
0
  6
Continuous
 62
     7
100
AcDbLine
 10
-6.67375356629197
 20
-574.5895831357739
 30
0.0
 11
-6.12094851367653
 21
-578.9787722710389
 31
0.0
  0
LINE
  5
3B4
330
62
100
AcDbEntity
  8
0
  6
Continuous
 62
     7
100
AcDbLine
 10
-6.12094851367653
 20
-578.9787722710389
 30
0.0
 11
-5.87954195261188
 21
-580.8955041279551
 31
0.0
  0
LINE
  5
3B5
330
62
100
AcDbEntity
  8
0
  6
Continuous
 62
     7
100
AcDbLine
 10
-8.9557257279717
 20
-574.8769906049056
 30
0.0
 11
-8.40292067535626
 21
-579.2661797401706
 31
0.0
  0
LINE
  5
3B6
330
62
100
AcDbEntity
  8
0
  6
Continuous
 62
     7
100
AcDbLine
 10
-10.37365426573303
 20
-563.618850862731
 30
0.0
 11
-8.9557257279717
 21
-574.8769906049056
 31
0.0
  0
LINE
  5
3B7
330
62
100
AcDbEntity
  8
0
  6
Continuous
 62
     7
100
AcDbLine
 10
-8.0916821040533
 20
-563.331443393603
 30
0.0
 11
-6.67375356629197
 21
-574.5895831357739
 31
0.0
  0
LINE
  5
3B8
330
62
100
AcDbEntity
  8
0
  6
Continuous
 62
     7
100
AcDbLine
 10
-33.03749468306121
 20
-591.3236895325572
 30
0.0
 11
-28.36042956202943
 21
-597.4903139848429
 31
0.0
  0
LINE
  5
3B9
330
62
100
AcDbEntity
  8
0
  6
Continuous
 62
     7
100
AcDbLine
 10
-51.26983850394897
 20
-582.048304211261
 30
0.0
 11
-50.78985744231029
 21
-582.4209051563157
 31
0.0
  0
LINE
  5
3BA
330
62
100
AcDbEntity
  8
0
  6
Continuous
 62
     7
100
AcDbLine
 10
-50.38979701748537
 20
-582.7314651018642
 30
0.0
 11
-50.78985744231029
 21
-582.4209051563157
 31
0.0
  0
LINE
  5
3BB
330
62
100
AcDbEntity
  8
0
  6
Continuous
 62
     7
100
AcDbLine
 10
-57.66240734010859
 20
-590.5682925249494
 30
0.0
 11
-48.69907350058708
 21
-597.5263725958976
 31
0.0
  0
LINE
  5
3BC
330
62
100
AcDbEntity
  8
0
  6
Continuous
 62
     7
100
AcDbLine
 10
-25.36081763346517
 20
-601.4452472148478
 30
0.0
 11
-26.33082607791727
 21
-600.1663088982532
 31
0.0
  0
LINE
  5
3BD
330
62
100
AcDbEntity
  8
0
  6
Continuous
 62
     7
100
AcDbLine
 10
-34.87003681124185
 20
-592.7135777829026
 30
0.0
 11
-30.19297169021008
 21
-598.8802022351883
 31
0.0
  0
LINE
  5
3BE
330
62
100
AcDbEntity
  8
0
  6
Continuous
 62
     7
100
AcDbLine
 10
-45.56783674629839
 20
-578.608725069058
 30
0.0
 11
-38.7108047407615
 21
-587.6495958162559
 31
0.0
  0
LINE
  5
3BF
330
62
100
AcDbEntity
  8
0
  6
Continuous
 62
     7
100
AcDbLine
 10
-43.73529461811774
 20
-577.2188368187126
 30
0.0
 11
-36.87826261258085
 21
-586.2597075659105
 31
0.0
  0
LINE
  5
3C0
330
62
100
AcDbEntity
  8
0
  6
Continuous
 62
     7
100
AcDbLine
 10
-50.8022196562975
 20
-567.90122596336
 30
0.0
 11
-43.73529461811774
 21
-577.2188368187126
 31
0.0
  0
LINE
  5
3C1
330
62
100
AcDbEntity
  8
0
  6
Continuous
 62
     7
100
AcDbLine
 10
-15.34951791674173
 20
-596.0854348682333
 30
0.0
 11
-15.95546053111099
 21
-594.5990186586678
 31
0.0
  0
LINE
  5
3C2
330
62
100
AcDbEntity
  8
0
  6
Continuous
 62
     7
100
AcDbLine
 10
-52.63476178447815
 20
-569.2911142137091
 30
0.0
 11
-50.8022196562975
 21
-567.90122596336
 31
0.0
  0
LINE
  5
3C3
330
62
100
AcDbEntity
  8
0
  6
Continuous
 62
     7
100
AcDbLine
 10
-52.63476178447815
 20
-569.2911142137091
 30
0.0
 11
-45.56783674629839
 21
-578.608725069058
 31
0.0
  0
LINE
  5
3C4
330
62
100
AcDbEntity
  8
0
  6
Continuous
 62
     7
100
AcDbLine
 10
-33.64376907108596
 20
-609.213543417427
 30
0.0
 11
-34.9117388731516
 21
-608.2292405265325
 31
0.0
  0
LINE
  5
3C5
330
62
100
AcDbEntity
  8
0
  6
Continuous
 62
     7
100
AcDbLine
 10
-27.19335976164218
 20
-602.8351354651932
 30
0.0
 11
-28.16336820609792
 21
-601.5561971485986
 31
0.0
  0
LINE
  5
3C6
330
62
100
AcDbEntity
  8
0
  6
Continuous
 62
     7
100
AcDbLine
 10
-34.20492482604238
 20
-589.7844543327592
 30
0.0
 11
-33.03749468306121
 21
-591.3236895325572
 31
0.0
  0
LINE
  5
3C7
330
62
100
AcDbEntity
  8
0
  6
Continuous
 62
     7
100
AcDbLine
 10
-36.87826261258085
 20
-586.2597075659105
 30
0.0
 11
-34.20492482604238
 21
-589.7844543327592
 31
0.0
  0
LINE
  5
3C8
330
62
100
AcDbEntity
  8
0
  6
Continuous
 62
     7
100
AcDbLine
 10
-36.03746695422303
 20
-591.1743425831046
 30
0.0
 11
-34.87003681124185
 21
-592.7135777829026
 31
0.0
  0
LINE
  5
3C9
330
62
100
AcDbEntity
  8
0
  6
Continuous
 62
     7
100
AcDbLine
 10
-38.7108047407615
 20
-587.6495958162559
 30
0.0
 11
-36.03746695422303
 21
-591.1743425831046
 31
0.0
  0
LINE
  5
3CA
330
62
100
AcDbEntity
  8
0
  6
Continuous
 62
     7
100
AcDbLine
 10
-17.47934723586292
 20
-596.953667021171
 30
0.0
 11
-18.08528985023583
 21
-595.4672508116055
 31
0.0
  0
LINE
  5
3CB
330
62
100
AcDbEntity
  8
0
  6
Continuous
 62
     7
100
AcDbLine
 10
40.5274678137452
 20
-652.5931765553214
 30
0.0
 11
42.00698892682561
 21
-653.2157654051407
 31
0.0
  0
LINE
  5
3CC
330
62
100
AcDbEntity
  8
0
  6
Continuous
 62
     7
100
AcDbLine
 10
43.23748572315019
 20
-641.5655062057122
 30
0.0
 11
44.82773122841393
 21
-641.783952613212
 31
0.0
  0
LINE
  5
3CD
330
62
100
AcDbEntity
  8
0
  6
Continuous
 62
     7
100
AcDbLine
 10
42.92448216441556
 20
-643.8441085782688
 30
0.0
 11
44.51472766968293
 21
-644.0625549857687
 31
0.0
  0
LINE
  5
3CE
330
62
100
AcDbEntity
  8
0
  6
Continuous
 62
     7
100
AcDbLine
 10
35.05562041575325
 20
-662.5436839022914
 30
0.0
 11
36.32359021781524
 21
-663.5279867931895
 31
0.0
  0
LINE
  5
3CF
330
62
100
AcDbEntity
  8
0
  6
Continuous
 62
     7
100
AcDbLine
 10
39.63538390240722
 20
-654.7131261526338
 30
0.0
 11
41.11490501549127
 21
-655.3357150024531
 31
0.0
  0
LINE
  5
3D0
330
62
100
AcDbEntity
  8
0
  6
Continuous
 62
     7
100
AcDbLine
 10
65.26302665735278
 20
-672.5108843059315
 30
0.0
 11
64.86296633334717
 21
-672.2003244386469
 31
0.0
  0
LINE
  5
3D1
330
62
100
AcDbEntity
  8
0
  6
Continuous
 62
     7
100
AcDbLine
 10
67.66135295044154
 20
-666.5065745058673
 30
0.0
 11
57.20255366548229
 21
-662.1054667692333
 31
0.0
  0
LINE
  5
3D2
330
62
100
AcDbEntity
  8
0
  6
Continuous
 62
     7
100
AcDbLine
 10
50.11092484525073
 20
-674.2308547238245
 30
0.0
 11
46.616407242413
 21
-671.5181215237426
 31
0.0
  0
LINE
  5
3D3
330
62
100
AcDbEntity
  8
0
  6
Continuous
 62
     7
100
AcDbLine
 10
46.616407242413
 20
-671.5181215237426
 30
0.0
 11
45.09037293232034
 21
-670.3334876463559
 31
0.0
  0
LINE
  5
3D4
330
62
100
AcDbEntity
  8
0
  6
Continuous
 62
     7
100
AcDbLine
 10
45.09037293232034
 20
-670.3334876463559
 30
0.0
 11
38.97663508843328
 21
-665.5874993553734
 31
0.0
  0
LINE
  5
3D5
330
62
100
AcDbEntity
  8
0
  6
Continuous
 62
     7
100
AcDbLine
 10
52.23644399648986
 20
-657.5203641092594
 30
0.0
 11
45.10267456037985
 21
-654.5184432384958
 31
0.0
  0
LINE
  5
3D6
330
62
100
AcDbEntity
  8
0
  6
Continuous
 62
     7
100
AcDbLine
 10
58.09463757682027
 20
-659.985517171921
 30
0.0
 11
54.01708575735614
 21
-658.2696658231944
 31
0.0
  0
LINE
  5
3D7
330
62
100
AcDbEntity
  8
0
  6
Continuous
 62
     7
100
AcDbLine
 10
51.34436008515552
 20
-659.6403137065681
 30
0.0
 11
44.21059064904551
 21
-656.6383928358082
 31
0.0
  0
LINE
  5
3D8
330
62
100
AcDbEntity
  8
0
  6
Continuous
 62
     7
100
AcDbLine
 10
68.55343686177588
 20
-664.386624908555
 30
0.0
 11
58.09463757682027
 21
-659.985517171921
 31
0.0
  0
LINE
  5
3D9
330
62
100
AcDbEntity
  8
0
  6
Continuous
 62
     7
100
AcDbLine
 10
54.01708575735614
 20
-658.2696658231944
 30
0.0
 11
52.23644399648986
 21
-657.5203641092594
 31
0.0
  0
LINE
  5
3DA
330
62
100
AcDbEntity
  8
0
  6
Continuous
 62
     7
100
AcDbLine
 10
57.20255366548229
 20
-662.1054667692333
 30
0.0
 11
53.12500184601816
 21
-660.3896154205031
 31
0.0
  0
LINE
  5
3DB
330
62
100
AcDbEntity
  8
0
  6
Continuous
 62
     7
100
AcDbLine
 10
53.12500184601816
 20
-660.3896154205031
 30
0.0
 11
51.34436008515552
 21
-659.6403137065681
 31
0.0
  0
LINE
  5
3DC
330
62
100
AcDbEntity
  8
0
  6
Continuous
 62
     7
100
AcDbLine
 10
4.77922022818023
 20
-593.5502813794301
 30
0.0
 11
4.9976666356801
 21
-591.9600358741627
 31
0.0
  0
LINE
  5
3DD
330
62
100
AcDbEntity
  8
0
  6
Continuous
 62
     7
100
AcDbLine
 10
-4.29212345215416
 20
-593.4993687314891
 30
0.0
 11
-4.49270624864
 21
-591.9067714372177
 31
0.0
  0
LINE
  5
3DE
330
62
100
AcDbEntity
  8
0
  6
Continuous
 62
     7
100
AcDbLine
 10
-6.57409561383754
 20
-593.7867762006208
 30
0.0
 11
-6.77467841032337
 21
-592.1941789063494
 31
0.0
  0
LINE
  5
3DF
330
62
100
AcDbEntity
  8
0
  6
Continuous
 62
     7
100
AcDbLine
 10
22.8540277290362
 20
-585.4434070174211
 30
0.0
 11
19.85210685827627
 21
-592.5771764535311
 31
0.0
  0
LINE
  5
3E0
330
62
100
AcDbEntity
  8
0
  6
Continuous
 62
     7
100
AcDbLine
 10
20.73407813172747
 20
-584.5513231060868
 30
0.0
 11
17.7321572609639
 21
-591.6850925421968
 31
0.0
  0
LINE
  5
3E1
330
62
100
AcDbEntity
  8
0
  6
Continuous
 62
     7
100
AcDbLine
 10
21.48337984566245
 20
-582.7706813452241
 30
0.0
 11
20.73407813172747
 21
-584.5513231060868
 31
0.0
  0
LINE
  5
3E2
330
62
100
AcDbEntity
  8
0
  6
Continuous
 62
     7
100
AcDbLine
 10
33.54720166882401
 20
-591.6973941702599
 30
0.0
 11
28.80121337784515
 21
-597.8111320141434
 31
0.0
  0
LINE
  5
3E3
330
62
100
AcDbEntity
  8
0
  6
Continuous
 62
     7
100
AcDbLine
 10
25.75739792476309
 20
-601.732146686827
 30
0.0
 11
26.74170081565756
 21
-600.4641768847614
 31
0.0
  0
LINE
  5
3E4
330
62
100
AcDbEntity
  8
0
  6
Continuous
 62
     7
100
AcDbLine
 10
17.92684017510185
 20
-597.1523832001694
 30
0.0
 11
18.54942902492115
 21
-595.672862087089
 31
0.0
  0
LINE
  5
3E5
330
62
100
AcDbEntity
  8
0
  6
Continuous
 62
     7
100
AcDbLine
 10
7.05782260073686
 20
-593.8632849381647
 30
0.0
 11
7.27626900823673
 21
-592.2730394328973
 31
0.0
  0
LINE
  5
3E6
330
62
100
AcDbEntity
  8
0
  6
Continuous
 62
     7
100
AcDbLine
 10
43.00099090195584
 20
-630.2121903636944
 30
0.0
 11
44.59358819623088
 21
-630.0116075672086
 31
0.0
  0
LINE
  5
3E7
330
62
100
AcDbEntity
  8
0
  6
Continuous
 62
     7
100
AcDbLine
 10
40.702332234347
 20
-621.4367680607902
 30
0.0
 11
42.18874844391251
 21
-620.8308254464209
 31
0.0
  0
LINE
  5
3E8
330
62
100
AcDbEntity
  8
0
  6
Continuous
 62
     7
100
AcDbLine
 10
43.28839837108756
 20
-632.4941625253741
 30
0.0
 11
44.8809956653626
 21
-632.2935797288919
 31
0.0
  0
LINE
  5
3E9
330
62
100
AcDbEntity
  8
0
  6
Continuous
 62
     7
100
AcDbLine
 10
34.73183554621431
 20
-590.1713598601636
 30
0.0
 11
33.54720166882401
 21
-591.6973941702599
 31
0.0
  0
LINE
  5
3EA
330
62
100
AcDbEntity
  8
0
  6
Continuous
 62
     7
100
AcDbLine
 10
54.73946289131566
 20
-585.516447473583
 30
0.0
 11
54.36686194626457
 21
-585.9964285352216
 31
0.0
  0
LINE
  5
3EB
330
62
100
AcDbEntity
  8
0
  6
Continuous
 62
     7
100
AcDbLine
 10
54.05630200071249
 20
-586.3964889600466
 30
0.0
 11
54.36686194626457
 21
-585.9964285352216
 31
0.0
  0
LINE
  5
3EC
330
62
100
AcDbEntity
  8
0
  6
Continuous
 62
     7
100
AcDbLine
 10
46.21947457762729
 20
-579.1238786374233
 30
0.0
 11
39.26139450668273
 21
-588.0872124769448
 31
0.0
  0
LINE
  5
3ED
330
62
100
AcDbEntity
  8
0
  6
Continuous
 62
     7
100
AcDbLine
 10
37.44456874629253
 20
-586.6768422573296
 30
0.0
 11
34.73183554621431
 21
-590.1713598601636
 31
0.0
  0
LINE
  5
3EE
330
62
100
AcDbEntity
  8
0
  6
Continuous
 62
     7
100
AcDbLine
 10
-79.33089777410856
 20
-604.651602987331
 30
0.0
 11
-78.43881386277423
 21
-602.5316533900223
 31
0.0
  0
LINE
  5
3EF
330
62
100
AcDbEntity
  8
0
  6
Continuous
 62
     7
100
AcDbLine
 10
-67.65987182539317
 20
-607.0674785742449
 30
0.0
 11
-57.20107254043757
 21
-611.4685863108789
 31
0.0
  0
LINE
  5
3F0
330
62
100
AcDbEntity
  8
0
  6
Continuous
 62
     7
100
AcDbLine
 10
-79.33089777410856
 20
-604.651602987331
 30
0.0
 11
-68.5519557367275
 21
-609.1874281715536
 31
0.0
  0
LINE
  5
3F1
330
62
100
AcDbEntity
  8
0
  6
Continuous
 62
     7
100
AcDbLine
 10
-65.26154553230441
 20
-601.063168774177
 30
0.0
 11
-65.74152647480292
 21
-600.6905679216143
 31
0.0
  0
LINE
  5
3F2
330
62
100
AcDbEntity
  8
0
  6
Continuous
 62
     7
100
AcDbLine
 10
-65.26154553230441
 20
-601.063168774177
 30
0.0
 11
-64.86148520830244
 21
-601.3737286414616
 31
0.0
  0
LINE
  5
3F3
330
62
100
AcDbEntity
  8
0
  6
Continuous
 62
     7
100
AcDbLine
 10
-84.94499738653536
 20
-626.2791298724478
 30
0.0
 11
-84.63199382780073
 21
-624.0005274998912
 31
0.0
  0
LINE
  5
3F4
330
62
100
AcDbEntity
  8
0
  6
Continuous
 62
     7
100
AcDbLine
 10
-84.94499738653536
 20
-626.2791298724478
 30
0.0
 11
-73.35938094962472
 21
-627.870605076092
 31
0.0
  0
LINE
  5
3F5
330
62
100
AcDbEntity
  8
0
  6
Continuous
 62
     7
100
AcDbLine
 10
-84.63199382780073
 20
-624.0005274998912
 30
0.0
 11
-73.04637739089009
 21
-625.5920027035354
 31
0.0
  0
LINE
  5
3F6
330
62
100
AcDbEntity
  8
0
  6
Continuous
 62
     7
100
AcDbLine
 10
-78.43881386277423
 20
-602.5316533900223
 30
0.0
 11
-67.65987182539317
 21
-607.0674785742449
 31
0.0
  0
LINE
  5
3F7
330
62
100
AcDbEntity
  8
1
  6
PHANTOM
 62
     2
100
AcDbLine
 10
93.3557853980405
 20
-601.9469756464568
 30
0.0
 11
81.25578539803831
 21
-601.9469756464568
 31
0.0
  0
LINE
  5
3F8
330
62
100
AcDbEntity
  8
1
  6
PHANTOM
 62
     2
100
AcDbLine
 10
87.30578539803759
 20
-595.8969756464576
 30
0.0
 11
87.30578539803759
 21
-607.9969756464561
 31
0.0
  0
LINE
  5
3F9
330
62
100
AcDbEntity
  8
1
  6
Continuous
 62
     7
100
AcDbLine
 10
82.83364944303906
 20
-601.4469756464568
 30
0.0
 11
86.80578539803759
 21
-601.4469756464568
 31
0.0
  0
LINE
  5
3FA
330
62
100
AcDbEntity
  8
1
  6
Continuous
 62
     7
100
AcDbLine
 10
86.80578539803759
 20
-601.4469756464568
 30
0.0
 11
86.80578539803759
 21
-597.4748396914583
 31
0.0
  0
LINE
  5
3FB
330
62
100
AcDbEntity
  8
1
  6
Continuous
 62
     7
100
AcDbLine
 10
87.80578539803759
 20
-597.4748396914583
 30
0.0
 11
87.80578539803759
 21
-601.4469756464568
 31
0.0
  0
LINE
  5
3FC
330
62
100
AcDbEntity
  8
1
  6
Continuous
 62
     7
100
AcDbLine
 10
87.80578539803759
 20
-601.4469756464568
 30
0.0
 11
91.77792135303974
 21
-601.4469756464568
 31
0.0
  0
LINE
  5
3FD
330
62
100
AcDbEntity
  8
1
  6
Continuous
 62
     7
100
AcDbLine
 10
91.77792135303974
 20
-602.4469756464568
 30
0.0
 11
87.80578539803759
 21
-602.4469756464568
 31
0.0
  0
LINE
  5
3FE
330
62
100
AcDbEntity
  8
1
  6
Continuous
 62
     7
100
AcDbLine
 10
87.80578539803759
 20
-602.4469756464568
 30
0.0
 11
87.80578539803759
 21
-606.4191116014554
 31
0.0
  0
LINE
  5
3FF
330
62
100
AcDbEntity
  8
1
  6
Continuous
 62
     7
100
AcDbLine
 10
86.80578539803759
 20
-606.4191116014554
 30
0.0
 11
86.80578539803759
 21
-602.4469756464568
 31
0.0
  0
LINE
  5
400
330
62
100
AcDbEntity
  8
1
  6
Continuous
 62
     7
100
AcDbLine
 10
86.80578539803759
 20
-602.4469756464568
 30
0.0
 11
82.83364944303906
 21
-602.4469756464568
 31
0.0
  0
LINE
  5
401
330
62
100
AcDbEntity
  8
1
  6
Continuous
 62
     7
100
AcDbLine
 10
13.66390653917772
 20
-544.4416270890506
 30
0.0
 11
11.67783856167664
 21
-547.8815977333652
 31
0.0
  0
LINE
  5
402
330
62
100
AcDbEntity
  8
1
  6
Continuous
 62
     7
100
AcDbLine
 10
17.10387718349232
 20
-546.427695066548
 30
0.0
 11
13.66390653917772
 21
-544.4416270890506
 31
0.0
  0
LINE
  5
403
330
62
100
AcDbEntity
  8
1
  6
Continuous
 62
     7
100
AcDbLine
 10
14.16390653917772
 20
-543.5756016852647
 30
0.0
 11
17.60387718349232
 21
-545.5616696627658
 31
0.0
  0
LINE
  5
404
330
62
100
AcDbEntity
  8
1
  6
Continuous
 62
     7
100
AcDbLine
 10
16.1499745166788
 20
-540.1356310409501
 30
0.0
 11
14.16390653917772
 21
-543.5756016852647
 31
0.0
  0
LINE
  5
405
330
62
100
AcDbEntity
  8
1
  6
Continuous
 62
     7
100
AcDbLine
 10
13.29788113539183
 20
-543.0756016852647
 30
0.0
 11
15.28394911289291
 21
-539.6356310409501
 31
0.0
  0
LINE
  5
406
330
62
100
AcDbEntity
  8
1
  6
Continuous
 62
     7
100
AcDbLine
 10
9.85791049107723
 20
-541.0895337077673
 30
0.0
 11
13.29788113539183
 21
-543.0756016852647
 31
0.0
  0
LINE
  5
407
330
62
100
AcDbEntity
  8
1
  6
Continuous
 62
     7
100
AcDbLine
 10
12.79788113539183
 20
-543.9416270890506
 30
0.0
 11
9.35791049107723
 21
-541.9555591115495
 31
0.0
  0
LINE
  5
408
330
62
100
AcDbEntity
  8
1
  6
Continuous
 62
     7
100
AcDbLine
 10
10.81181315789439
 20
-547.3815977333652
 30
0.0
 11
12.79788113539183
 21
-543.9416270890506
 31
0.0
  0
LINE
  5
409
330
62
100
AcDbEntity
  8
1
  6
PHANTOM
 62
     2
100
AcDbLine
 10
16.50589383728441
 20
-538.5191606942608
 30
0.0
 11
10.45589383728514
 21
-548.9980680800545
 31
0.0
  0
LINE
  5
40A
330
62
100
AcDbEntity
  8
1
  6
PHANTOM
 62
     2
100
AcDbLine
 10
8.24144014438792
 20
-540.733614387158
 30
0.0
 11
18.72034753018163
 21
-546.7836143871573
 31
0.0
  0
LINE
  5
40B
330
62
100
AcDbEntity
  8
1
  6
Continuous
 62
     7
100
AcDbLine
 10
-73.1411382963393
 20
-578.7816779826426
 30
0.0
 11
-71.15507031883823
 21
-582.2216486269608
 31
0.0
  0
LINE
  5
40C
330
62
100
AcDbEntity
  8
1
  6
Continuous
 62
     7
100
AcDbLine
 10
-69.70116765202471
 20
-576.7956100051451
 30
0.0
 11
-73.1411382963393
 21
-578.7816779826426
 31
0.0
  0
LINE
  5
40D
330
62
100
AcDbEntity
  8
1
  6
Continuous
 62
     7
100
AcDbLine
 10
-73.6411382963393
 20
-577.9156525788603
 30
0.0
 11
-70.20116765202471
 21
-575.9295846013592
 31
0.0
  0
LINE
  5
40E
330
62
100
AcDbEntity
  8
1
  6
Continuous
 62
     7
100
AcDbLine
 10
-75.62720627384039
 20
-574.4756819345457
 30
0.0
 11
-73.6411382963393
 21
-577.9156525788603
 31
0.0
  0
LINE
  5
40F
330
62
100
AcDbEntity
  8
1
  6
Continuous
 62
     7
100
AcDbLine
 10
-74.5071637001252
 20
-578.4156525788603
 30
0.0
 11
-76.49323167762265
 21
-574.9756819345457
 31
0.0
  0
LINE
  5
410
330
62
100
AcDbEntity
  8
1
  6
Continuous
 62
     7
100
AcDbLine
 10
-77.9471343444398
 20
-580.4017205563578
 30
0.0
 11
-74.5071637001252
 21
-578.4156525788603
 31
0.0
  0
LINE
  5
411
330
62
100
AcDbEntity
  8
1
  6
Continuous
 62
     7
100
AcDbLine
 10
-74.0071637001252
 20
-579.2816779826426
 30
0.0
 11
-77.4471343444398
 21
-581.2677459601437
 31
0.0
  0
LINE
  5
412
330
62
100
AcDbEntity
  8
1
  6
Continuous
 62
     7
100
AcDbLine
 10
-72.02109572262412
 20
-582.7216486269608
 30
0.0
 11
-74.0071637001252
 21
-579.2816779826426
 31
0.0
  0
LINE
  5
413
330
62
100
AcDbEntity
  8
1
  6
PHANTOM
 62
     2
100
AcDbLine
 10
-76.84915099823189
 20
-573.3592115878564
 30
0.0
 11
-70.79915099823262
 21
-583.8381189736465
 31
0.0
  0
LINE
  5
414
330
62
100
AcDbEntity
  8
1
  6
PHANTOM
 62
     2
100
AcDbLine
 10
-79.06360469112911
 20
-581.6236652807529
 30
0.0
 11
-68.5846973053354
 21
-575.5736652807536
 31
0.0
  0
LINE
  5
415
330
62
100
AcDbEntity
  8
1
  6
Continuous
 62
     7
100
AcDbLine
 10
-86.80430427299649
 20
-671.1270774336444
 30
0.0
 11
-82.83216831799433
 21
-671.1270774336444
 31
0.0
  0
LINE
  5
416
330
62
100
AcDbEntity
  8
1
  6
Continuous
 62
     7
100
AcDbLine
 10
-86.80430427299649
 20
-667.1549414786459
 30
0.0
 11
-86.80430427299649
 21
-671.1270774336444
 31
0.0
  0
LINE
  5
417
330
62
100
AcDbEntity
  8
1
  6
Continuous
 62
     7
100
AcDbLine
 10
-87.80430427299649
 20
-671.1270774336444
 30
0.0
 11
-87.80430427299649
 21
-667.1549414786459
 31
0.0
  0
LINE
  5
418
330
62
100
AcDbEntity
  8
1
  6
Continuous
 62
     7
100
AcDbLine
 10
-91.77644022799501
 20
-671.1270774336444
 30
0.0
 11
-87.80430427299649
 21
-671.1270774336444
 31
0.0
  0
LINE
  5
419
330
62
100
AcDbEntity
  8
1
  6
Continuous
 62
     7
100
AcDbLine
 10
-87.80430427299649
 20
-672.1270774336444
 30
0.0
 11
-91.77644022799501
 21
-672.1270774336444
 31
0.0
  0
LINE
  5
41A
330
62
100
AcDbEntity
  8
1
  6
Continuous
 62
     7
100
AcDbLine
 10
-87.80430427299649
 20
-676.0992133886466
 30
0.0
 11
-87.80430427299649
 21
-672.1270774336444
 31
0.0
  0
LINE
  5
41B
330
62
100
AcDbEntity
  8
1
  6
Continuous
 62
     7
100
AcDbLine
 10
-86.80430427299649
 20
-672.1270774336444
 30
0.0
 11
-86.80430427299649
 21
-676.0992133886466
 31
0.0
  0
LINE
  5
41C
330
62
100
AcDbEntity
  8
1
  6
Continuous
 62
     7
100
AcDbLine
 10
-82.83216831799433
 20
-672.1270774336444
 30
0.0
 11
-86.80430427299649
 21
-672.1270774336444
 31
0.0
  0
LINE
  5
41D
330
62
100
AcDbEntity
  8
1
  6
PHANTOM
 62
     2
100
AcDbLine
 10
-93.35430427299576
 20
-671.6270774336444
 30
0.0
 11
-81.25430427299722
 21
-671.6270774336444
 31
0.0
  0
LINE
  5
41E
330
62
100
AcDbEntity
  8
1
  6
PHANTOM
 62
     2
100
AcDbLine
 10
-87.30430427299649
 20
-677.6770774336474
 30
0.0
 11
-87.30430427299649
 21
-665.5770774336452
 31
0.0
  0
LINE
  5
41F
330
62
100
AcDbEntity
  8
1
  6
Continuous
 62
     7
100
AcDbLine
 10
-13.66242541413664
 20
-729.1324259910543
 30
0.0
 11
-11.67635743663556
 21
-725.6924553467397
 31
0.0
  0
LINE
  5
420
330
62
100
AcDbEntity
  8
1
  6
Continuous
 62
     7
100
AcDbLine
 10
-17.10239605845124
 20
-727.1463580135533
 30
0.0
 11
-13.66242541413664
 21
-729.1324259910543
 31
0.0
  0
LINE
  5
421
330
62
100
AcDbEntity
  8
1
  6
Continuous
 62
     7
100
AcDbLine
 10
-14.16242541413664
 20
-729.9984513948402
 30
0.0
 11
-17.60239605845124
 21
-728.0123834173392
 31
0.0
  0
LINE
  5
422
330
62
100
AcDbEntity
  8
1
  6
Continuous
 62
     7
100
AcDbLine
 10
-16.14849339163408
 20
-733.4384220391548
 30
0.0
 11
-14.16242541413664
 21
-729.9984513948402
 31
0.0
  0
LINE
  5
423
330
62
100
AcDbEntity
  8
1
  6
Continuous
 62
     7
100
AcDbLine
 10
-13.29640001035074
 20
-730.4984513948402
 30
0.0
 11
-15.28246798785182
 21
-733.9384220391548
 31
0.0
  0
LINE
  5
424
330
62
100
AcDbEntity
  8
1
  6
Continuous
 62
     7
100
AcDbLine
 10
-9.85642936603615
 20
-732.4845193723377
 30
0.0
 11
-13.29640001035074
 21
-730.4984513948402
 31
0.0
  0
LINE
  5
425
330
62
100
AcDbEntity
  8
1
  6
Continuous
 62
     7
100
AcDbLine
 10
-12.79640001035074
 20
-729.6324259910543
 30
0.0
 11
-9.35642936603615
 21
-731.6184939685554
 31
0.0
  0
LINE
  5
426
330
62
100
AcDbEntity
  8
1
  6
Continuous
 62
     7
100
AcDbLine
 10
-10.81033203284967
 20
-726.1924553467397
 30
0.0
 11
-12.79640001035074
 21
-729.6324259910543
 31
0.0
  0
LINE
  5
427
330
62
100
AcDbEntity
  8
1
  6
PHANTOM
 62
     2
100
AcDbLine
 10
-16.50441271224333
 20
-735.0548923858441
 30
0.0
 11
-10.45441271224406
 21
-724.5759850000504
 31
0.0
  0
LINE
  5
428
330
62
100
AcDbEntity
  8
1
  6
PHANTOM
 62
     2
100
AcDbLine
 10
-8.23995901934683
 20
-732.8404386929469
 30
0.0
 11
-18.71886640514055
 21
-726.7904386929476
 31
0.0
  0
LINE
  5
429
330
62
100
AcDbEntity
  8
1
  6
Continuous
 62
     7
100
AcDbLine
 10
73.14261942138404
 20
-694.7923750974624
 30
0.0
 11
71.15655144388296
 21
-691.3524044531478
 31
0.0
  0
LINE
  5
42A
330
62
100
AcDbEntity
  8
1
  6
Continuous
 62
     7
100
AcDbLine
 10
69.7026487770658
 20
-696.7784430749634
 30
0.0
 11
73.14261942138404
 21
-694.7923750974624
 31
0.0
  0
LINE
  5
42B
330
62
100
AcDbEntity
  8
1
  6
Continuous
 62
     7
100
AcDbLine
 10
73.64261942138404
 20
-695.6584005012483
 30
0.0
 11
70.2026487770658
 21
-697.6444684787457
 31
0.0
  0
LINE
  5
42C
330
62
100
AcDbEntity
  8
1
  6
Continuous
 62
     7
100
AcDbLine
 10
75.62868739888148
 20
-699.0983711455629
 30
0.0
 11
73.64261942138404
 21
-695.6584005012483
 31
0.0
  0
LINE
  5
42D
330
62
100
AcDbEntity
  8
1
  6
Continuous
 62
     7
100
AcDbLine
 10
74.5086448251663
 20
-695.1584005012483
 30
0.0
 11
76.49471280266738
 21
-698.5983711455629
 31
0.0
  0
LINE
  5
42E
330
62
100
AcDbEntity
  8
1
  6
Continuous
 62
     7
100
AcDbLine
 10
77.9486154694809
 20
-693.1723325237472
 30
0.0
 11
74.5086448251663
 21
-695.1584005012483
 31
0.0
  0
LINE
  5
42F
330
62
100
AcDbEntity
  8
1
  6
Continuous
 62
     7
100
AcDbLine
 10
74.0086448251663
 20
-694.2923750974624
 30
0.0
 11
77.4486154694809
 21
-692.3063071199649
 31
0.0
  0
LINE
  5
430
330
62
100
AcDbEntity
  8
1
  6
Continuous
 62
     7
100
AcDbLine
 10
72.02257684766886
 20
-690.8524044531478
 30
0.0
 11
74.0086448251663
 21
-694.2923750974624
 31
0.0
  0
LINE
  5
431
330
62
100
AcDbEntity
  8
1
  6
PHANTOM
 62
     2
100
AcDbLine
 10
76.85063212327299
 20
-700.2148414922522
 30
0.0
 11
70.80063212327372
 21
-689.7359341064584
 31
0.0
  0
LINE
  5
432
330
62
100
AcDbEntity
  8
1
  6
PHANTOM
 62
     2
100
AcDbLine
 10
79.06508581617021
 20
-691.9503877993557
 30
0.0
 11
68.58617843038013
 21
-698.0003877993549
 31
0.0
  0
ARC
  5
433
330
62
100
AcDbEntity
  8
0
  6
Continuous
 62
     7
100
AcDbCircle
 10
0.00074056252054
 20
-636.7870265400525
 30
0.0
 40
64.50000000000036
100
AcDbArc
 50
-171.799960701226
 51
-158.8431742796572
  0
ARC
  5
434
330
62
100
AcDbEntity
  8
0
  6
Continuous
 62
     7
100
AcDbCircle
 10
0.00074056252054
 20
-636.7870265400525
 30
0.0
 40
70.50000000000072
100
AcDbArc
 50
-171.8869140318105
 51
-158.7562209490696
  0
ARC
  5
435
330
62
100
AcDbEntity
  8
0
  6
Continuous
 62
     7
100
AcDbCircle
 10
0.00074056252054
 20
-636.7870265400525
 30
0.0
 40
52.00000000000159
100
AcDbArc
 50
-6.55434597773702
 51
5.9112109968625
  0
ARC
  5
436
330
62
100
AcDbEntity
  8
0
  6
Continuous
 62
     7
100
AcDbCircle
 10
0.00074056252054
 20
-636.7870265400525
 30
0.0
 40
51.99999999999989
100
AcDbArc
 50
-171.5543459777394
 51
-159.0887890031425
  0
ARC
  5
437
330
62
100
AcDbEntity
  8
0
  6
Continuous
 62
     7
100
AcDbCircle
 10
0.00074056252054
 20
-636.7870265400525
 30
0.0
 40
70.49999999999844
100
AcDbArc
 50
173.1130859681945
 51
-173.7562209490698
  0
ARC
  5
438
330
62
100
AcDbEntity
  8
0
  6
Continuous
 62
     7
100
AcDbCircle
 10
0.00074056252054
 20
-636.7870265400525
 30
0.0
 40
64.5000000000006
100
AcDbArc
 50
143.2000392987777
 51
156.1568257203459
  0
ARC
  5
439
330
62
100
AcDbEntity
  8
0
  6
Continuous
 62
     7
100
AcDbCircle
 10
0.00074056252054
 20
-636.7870265400525
 30
0.0
 40
64.50000000000045
100
AcDbArc
 50
158.2000392987738
 51
171.15682572035
  0
ARC
  5
43A
330
62
100
AcDbEntity
  8
0
  6
Continuous
 62
     7
100
AcDbCircle
 10
0.00074056252054
 20
-636.7870265400525
 30
0.0
 40
64.5000000000018
100
AcDbArc
 50
173.2000392987767
 51
-173.8431742796544
  0
ARC
  5
43B
330
62
100
AcDbEntity
  8
0
  6
Continuous
 62
     7
100
AcDbCircle
 10
0.00074056252054
 20
-636.7870265400525
 30
0.0
 40
52.00000000000159
100
AcDbArc
 50
83.44565402226299
 51
95.91121099686251
  0
ARC
  5
43C
330
62
100
AcDbEntity
  8
0
  6
Continuous
 62
     7
100
AcDbCircle
 10
0.00074056252054
 20
-636.7870265400525
 30
0.0
 40
64.5000000000018
100
AcDbArc
 50
83.20003929877666
 51
96.15682572034882
  0
ARC
  5
43D
330
62
100
AcDbEntity
  8
0
  6
Continuous
 62
     7
100
AcDbCircle
 10
0.00074056252054
 20
-636.7870265400525
 30
0.0
 40
64.50000000000243
100
AcDbArc
 50
38.20003929877638
 51
51.15682572034903
  0
ARC
  5
43E
330
62
100
AcDbEntity
  8
0
  6
Continuous
 62
     7
100
AcDbCircle
 10
0.00074056252054
 20
-636.7870265400525
 30
0.0
 40
64.50000000000075
100
AcDbArc
 50
23.20003929877513
 51
36.15682572035037
  0
ARC
  5
43F
330
62
100
AcDbEntity
  8
0
  6
Continuous
 62
     7
100
AcDbCircle
 10
0.00074056252054
 20
-636.7870265400525
 30
0.0
 40
64.50000000000138
100
AcDbArc
 50
-6.79996070122013
 51
6.1568257203456
  0
ARC
  5
440
330
62
100
AcDbEntity
  8
0
  6
Continuous
 62
     7
100
AcDbCircle
 10
0.00074056252054
 20
-636.7870265400525
 30
0.0
 40
70.49999999999747
100
AcDbArc
 50
-66.88691403180843
 51
-53.75622094906686
  0
ARC
  5
441
330
62
100
AcDbEntity
  8
0
  6
Continuous
 62
     7
100
AcDbCircle
 10
0.00074056252054
 20
-636.7870265400525
 30
0.0
 40
70.49999999999844
100
AcDbArc
 50
-96.88691403180552
 51
-83.75622094906649
  0
ARC
  5
442
330
62
100
AcDbEntity
  8
0
  6
Continuous
 62
     7
100
AcDbCircle
 10
0.00074056252054
 20
-636.7870265400525
 30
0.0
 40
51.99999999999798
100
AcDbArc
 50
-96.55434597773748
 51
-84.0887890031371
  0
ARC
  5
443
330
62
100
AcDbEntity
  8
0
  6
Continuous
 62
     7
100
AcDbCircle
 10
0.00074056252054
 20
-636.7870265400525
 30
0.0
 40
64.4999999999974
100
AcDbArc
 50
-66.79996070122361
 51
-53.84317427965225
  0
ARC
  5
444
330
62
100
AcDbEntity
  8
0
  6
Continuous
 62
     7
100
AcDbCircle
 10
0.00074056252054
 20
-636.7870265400525
 30
0.0
 40
51.99999999999727
100
AcDbArc
 50
-66.55434597773782
 51
-54.08878900313815
  0
ARC
  5
445
330
62
100
AcDbEntity
  8
0
  6
Continuous
 62
     7
100
AcDbCircle
 10
0.00074056252054
 20
-636.7870265400525
 30
0.0
 40
51.99999999999955
100
AcDbArc
 50
-51.55434597773728
 51
-39.08878900313684
  0
ARC
  5
446
330
62
100
AcDbEntity
  8
0
  6
Continuous
 62
     7
100
AcDbCircle
 10
0.00074056252054
 20
-636.7870265400525
 30
0.0
 40
64.49999999999777
100
AcDbArc
 50
-96.79996070122051
 51
-83.84317427965084
  0
ARC
  5
447
330
62
100
AcDbEntity
  8
0
  6
Continuous
 62
     7
100
AcDbCircle
 10
0.00074056252054
 20
-636.7870265400525
 30
0.0
 40
52.00000000000298
100
AcDbArc
 50
143.4456540222608
 51
155.9112109968601
  0
ARC
  5
448
330
62
100
AcDbEntity
  8
0
  6
Continuous
 62
     7
100
AcDbCircle
 10
0.00074056252054
 20
-636.7870265400525
 30
0.0
 40
51.99999999999945
100
AcDbArc
 50
158.4456540222577
 51
170.9112109968631
  0
ARC
  5
449
330
62
100
AcDbEntity
  8
0
  6
Continuous
 62
     7
100
AcDbCircle
 10
0.00074056252054
 20
-636.7870265400525
 30
0.0
 40
70.49999999999756
100
AcDbArc
 50
-51.88691403180798
 51
-38.75622094906658
  0
ARC
  5
44A
330
62
100
AcDbEntity
  8
0
  6
Continuous
 62
     7
100
AcDbCircle
 10
0.00074056252054
 20
-636.7870265400525
 30
0.0
 40
64.49999999999956
100
AcDbArc
 50
-51.79996070122162
 51
-38.84317427965299
  0
ARC
  5
44B
330
62
100
AcDbEntity
  8
0
  6
Continuous
 62
     7
100
AcDbCircle
 10
0.00074056252054
 20
-636.7870265400525
 30
0.0
 40
70.49999999999712
100
AcDbArc
 50
-81.88691403181012
 51
-68.75622094906964
  0
ARC
  5
44C
330
62
100
AcDbEntity
  8
0
  6
Continuous
 62
     7
100
AcDbCircle
 10
0.00074056252054
 20
-636.7870265400525
 30
0.0
 40
51.9999999999981
100
AcDbArc
 50
-111.5543459777386
 51
-99.0887890031375
  0
ARC
  5
44D
330
62
100
AcDbEntity
  8
0
  6
Continuous
 62
     7
100
AcDbCircle
 10
0.00074056252054
 20
-636.7870265400525
 30
0.0
 40
51.99999999999916
100
AcDbArc
 50
-156.5543459777431
 51
-144.0887890031381
  0
ARC
  5
44E
330
62
100
AcDbEntity
  8
0
  6
Continuous
 62
     7
100
AcDbCircle
 10
0.00074056252054
 20
-636.7870265400525
 30
0.0
 40
64.49999999999676
100
AcDbArc
 50
-81.79996070122552
 51
-68.84317427965422
  0
ARC
  5
44F
330
62
100
AcDbEntity
  8
0
  6
Continuous
 62
     7
100
AcDbCircle
 10
0.00074056252054
 20
-636.7870265400525
 30
0.0
 40
51.99999999999955
100
AcDbArc
 50
-141.5543459777373
 51
-129.0887890031394
  0
ARC
  5
450
330
62
100
AcDbEntity
  8
0
  6
Continuous
 62
     7
100
AcDbCircle
 10
0.00074056252054
 20
-636.7870265400525
 30
0.0
 40
51.9999999999979
100
AcDbArc
 50
-126.5543459777383
 51
-114.0887890031399
  0
ARC
  5
451
330
62
100
AcDbEntity
  8
0
  6
Continuous
 62
     7
100
AcDbCircle
 10
0.00074056252054
 20
-636.7870265400525
 30
0.0
 40
64.50000000000075
100
AcDbArc
 50
-156.7999607012249
 51
-143.8431742796522
  0
ARC
  5
452
330
62
100
AcDbEntity
  8
0
  6
Continuous
 62
     7
100
AcDbCircle
 10
0.00074056252054
 20
-636.7870265400525
 30
0.0
 40
64.49999999999909
100
AcDbArc
 50
-111.7999607012232
 51
-98.84317427965365
  0
ARC
  5
453
330
62
100
AcDbEntity
  8
0
  6
Continuous
 62
     7
100
AcDbCircle
 10
0.00074056252054
 20
-636.7870265400525
 30
0.0
 40
52.00000000000159
100
AcDbArc
 50
173.445654022263
 51
-174.0887890031375
  0
ARC
  5
454
330
62
100
AcDbEntity
  8
0
  6
Continuous
 62
     7
100
AcDbCircle
 10
0.00074056252054
 20
-636.7870265400525
 30
0.0
 40
51.99999999999989
100
AcDbArc
 50
-81.55434597773933
 51
-69.08878900313873
  0
ARC
  5
455
330
62
100
AcDbEntity
  8
0
  6
Continuous
 62
     7
100
AcDbCircle
 10
0.00074056252054
 20
-636.7870265400525
 30
0.0
 40
70.49999999999844
100
AcDbArc
 50
-111.8869140318076
 51
-98.756220949069
  0
ARC
  5
456
330
62
100
AcDbEntity
  8
0
  6
Continuous
 62
     7
100
AcDbCircle
 10
0.00074056252054
 20
-636.7870265400525
 30
0.0
 40
64.49999999999767
100
AcDbArc
 50
-126.7999607012243
 51
-113.8431742796554
  0
ARC
  5
457
330
62
100
AcDbEntity
  8
0
  6
Continuous
 62
     7
100
AcDbCircle
 10
0.00074056252054
 20
-636.7870265400525
 30
0.0
 40
70.50000000000081
100
AcDbArc
 50
-156.8869140318096
 51
-143.7562209490669
  0
ARC
  5
458
330
62
100
AcDbEntity
  8
0
  6
Continuous
 62
     7
100
AcDbCircle
 10
0.00074056252054
 20
-636.7870265400525
 30
0.0
 40
64.49999999999731
100
AcDbArc
 50
-141.7999607012242
 51
-128.843174279653
  0
ARC
  5
459
330
62
100
AcDbEntity
  8
0
  6
Continuous
 62
     7
100
AcDbCircle
 10
0.00074056252054
 20
-636.7870265400525
 30
0.0
 40
70.49999999999756
100
AcDbArc
 50
-141.886914031808
 51
-128.7562209490689
  0
ARC
  5
45A
330
62
100
AcDbEntity
  8
0
  6
Continuous
 62
     7
100
AcDbCircle
 10
0.00074056252054
 20
-636.7870265400525
 30
0.0
 40
70.49999999999815
100
AcDbArc
 50
-126.8869140318094
 51
-113.7562209490691
  0
ARC
  5
45B
330
62
100
AcDbEntity
  8
0
  6
Continuous
 62
     7
100
AcDbCircle
 10
0.00074056252054
 20
-636.7870265400525
 30
0.0
 40
64.5000000000006
100
AcDbArc
 50
53.20003929877766
 51
66.15682572034592
  0
ARC
  5
45C
330
62
100
AcDbEntity
  8
0
  6
Continuous
 62
     7
100
AcDbCircle
 10
0.00074056252054
 20
-636.7870265400525
 30
0.0
 40
64.50000000000249
100
AcDbArc
 50
68.200039298778
 51
81.15682572034366
  0
ARC
  5
45D
330
62
100
AcDbEntity
  8
0
  6
Continuous
 62
     7
100
AcDbCircle
 10
0.00074056252054
 20
-636.7870265400525
 30
0.0
 40
70.50000000000182
100
AcDbArc
 50
68.11308596819346
 51
81.24377905093147
  0
ARC
  5
45E
330
62
100
AcDbEntity
  8
0
  6
Continuous
 62
     7
100
AcDbCircle
 10
0.00074056252054
 20
-636.7870265400525
 30
0.0
 40
70.50000000000247
100
AcDbArc
 50
83.11308596819191
 51
96.2437790509332
  0
ARC
  5
45F
330
62
100
AcDbEntity
  8
0
  6
Continuous
 62
     7
100
AcDbCircle
 10
0.00074056252054
 20
-636.7870265400525
 30
0.0
 40
70.50000000000107
100
AcDbArc
 50
53.11308596819235
 51
66.2437790509321
  0
ARC
  5
460
330
62
100
AcDbEntity
  8
0
  6
Continuous
 62
     7
100
AcDbCircle
 10
0.00074056252054
 20
-636.7870265400525
 30
0.0
 40
70.50000000000266
100
AcDbArc
 50
38.11308596819251
 51
51.24377905093297
  0
ARC
  5
461
330
62
100
AcDbEntity
  8
0
  6
Continuous
 62
     7
100
AcDbCircle
 10
0.00074056252054
 20
-636.7870265400525
 30
0.0
 40
52.00000000000082
100
AcDbArc
 50
53.44565402226406
 51
65.91121099686178
  0
ARC
  5
462
330
62
100
AcDbEntity
  8
0
  6
Continuous
 62
     7
100
AcDbCircle
 10
0.00074056252054
 20
-636.7870265400525
 30
0.0
 40
70.49999999999844
100
AcDbArc
 50
-6.88691403180551
 51
6.2437790509332
  0
ARC
  5
463
330
62
100
AcDbEntity
  8
0
  6
Continuous
 62
     7
100
AcDbCircle
 10
0.00074056252054
 20
-636.7870265400525
 30
0.0
 40
70.50000000000072
100
AcDbArc
 50
8.11308596818947
 51
21.24377905093311
  0
ARC
  5
464
330
62
100
AcDbEntity
  8
0
  6
Continuous
 62
     7
100
AcDbCircle
 10
0.00074056252054
 20
-636.7870265400525
 30
0.0
 40
64.50000000000036
100
AcDbArc
 50
8.20003929877404
 51
21.15682572034879
  0
ARC
  5
465
330
62
100
AcDbEntity
  8
0
  6
Continuous
 62
     7
100
AcDbCircle
 10
0.00074056252054
 20
-636.7870265400525
 30
0.0
 40
70.50000000000081
100
AcDbArc
 50
23.11308596819041
 51
36.24377905093552
  0
ARC
  5
466
330
62
100
AcDbEntity
  8
0
  6
Continuous
 62
     7
100
AcDbCircle
 10
0.00074056252054
 20
-636.7870265400525
 30
0.0
 40
51.99999999999989
100
AcDbArc
 50
8.44565402226067
 51
20.91121099686502
  0
ARC
  5
467
330
62
100
AcDbEntity
  8
0
  6
Continuous
 62
     7
100
AcDbCircle
 10
0.00074056252054
 20
-636.7870265400525
 30
0.0
 40
51.99999999999955
100
AcDbArc
 50
38.44565402226272
 51
50.91121099686315
  0
ARC
  5
468
330
62
100
AcDbEntity
  8
0
  6
Continuous
 62
     7
100
AcDbCircle
 10
0.00074056252054
 20
-636.7870265400525
 30
0.0
 40
52.00000000000061
100
AcDbArc
 50
23.44565402226058
 51
35.91121099686509
  0
ARC
  5
469
330
62
100
AcDbEntity
  8
0
  6
Continuous
 62
     7
100
AcDbCircle
 10
0.00074056252054
 20
-636.7870265400525
 30
0.0
 40
70.50000000000225
100
AcDbArc
 50
113.1130859681931
 51
126.2437790509314
  0
ARC
  5
46A
330
62
100
AcDbEntity
  8
0
  6
Continuous
 62
     7
100
AcDbCircle
 10
0.00074056252054
 20
-636.7870265400525
 30
0.0
 40
64.50000000000088
100
AcDbArc
 50
98.20003929877724
 51
111.1568257203458
  0
ARC
  5
46B
330
62
100
AcDbEntity
  8
0
  6
Continuous
 62
     7
100
AcDbCircle
 10
0.00074056252054
 20
-636.7870265400525
 30
0.0
 40
70.50000000000124
100
AcDbArc
 50
98.1130859681924
 51
111.2437790509304
  0
ARC
  5
46C
330
62
100
AcDbEntity
  8
0
  6
Continuous
 62
     7
100
AcDbCircle
 10
0.00074056252054
 20
-636.7870265400525
 30
0.0
 40
52.00000000000205
100
AcDbArc
 50
113.4456540222643
 51
125.9112109968595
  0
ARC
  5
46D
330
62
100
AcDbEntity
  8
0
  6
Continuous
 62
     7
100
AcDbCircle
 10
0.00074056252054
 20
-636.7870265400525
 30
0.0
 40
51.99999999999989
100
AcDbArc
 50
98.44565402226067
 51
110.9112109968599
  0
ARC
  5
46E
330
62
100
AcDbEntity
  8
0
  6
Continuous
 62
     7
100
AcDbCircle
 10
0.00074056252054
 20
-636.7870265400525
 30
0.0
 40
64.50000000000217
100
AcDbArc
 50
113.2000392987781
 51
126.1568257203459
  0
ARC
  5
46F
330
62
100
AcDbEntity
  8
0
  6
Continuous
 62
     7
100
AcDbCircle
 10
0.00074056252054
 20
-636.7870265400525
 30
0.0
 40
51.99999999999955
100
AcDbArc
 50
128.4456540222627
 51
140.91121099686
  0
ARC
  5
470
330
62
100
AcDbEntity
  8
0
  6
Continuous
 62
     7
100
AcDbCircle
 10
0.00074056252054
 20
-636.7870265400525
 30
0.0
 40
70.50000000000266
100
AcDbArc
 50
128.1130859681925
 51
141.2437790509311
  0
ARC
  5
471
330
62
100
AcDbEntity
  8
0
  6
Continuous
 62
     7
100
AcDbCircle
 10
0.00074056252054
 20
-636.7870265400525
 30
0.0
 40
64.49999999999956
100
AcDbArc
 50
128.2000392987784
 51
141.156825720347
  0
ARC
  5
472
330
62
100
AcDbEntity
  8
0
  6
Continuous
 62
     7
100
AcDbCircle
 10
0.00074056252054
 20
-636.7870265400525
 30
0.0
 40
52.00000000000014
100
AcDbArc
 50
-21.55434597773343
 51
-9.08878900313292
  0
ARC
  5
473
330
62
100
AcDbEntity
  8
0
  6
Continuous
 62
     7
100
AcDbCircle
 10
0.00074056252054
 20
-636.7870265400525
 30
0.0
 40
64.5000000000006
100
AcDbArc
 50
-36.79996070122234
 51
-23.84317427965112
  0
ARC
  5
474
330
62
100
AcDbEntity
  8
0
  6
Continuous
 62
     7
100
AcDbCircle
 10
0.00074056252054
 20
-636.7870265400525
 30
0.0
 40
51.99999999999789
100
AcDbArc
 50
-36.55434597773834
 51
-24.08878900313619
  0
ARC
  5
475
330
62
100
AcDbEntity
  8
0
  6
Continuous
 62
     7
100
AcDbCircle
 10
0.00074056252054
 20
-636.7870265400525
 30
0.0
 40
70.49999999999888
100
AcDbArc
 50
-36.88691403180528
 51
-23.7562209490664
  0
ARC
  5
476
330
62
100
AcDbEntity
  8
0
  6
Continuous
 62
     7
100
AcDbCircle
 10
0.00074056252054
 20
-636.7870265400525
 30
0.0
 40
64.49999999999774
100
AcDbArc
 50
-21.79996070122021
 51
-8.84317427964996
  0
ARC
  5
477
330
62
100
AcDbEntity
  8
0
  6
Continuous
 62
     7
100
AcDbCircle
 10
0.00074056252054
 20
-636.7870265400525
 30
0.0
 40
70.50000000000045
100
AcDbArc
 50
-21.8869140318038
 51
-8.75622094906608
  0
ARC
  5
478
330
62
100
AcDbEntity
  8
0
  6
Continuous
 62
     7
100
AcDbCircle
 10
0.00074056252054
 20
-636.7870265400525
 30
0.0
 40
52.00000000000149
100
AcDbArc
 50
68.44565402226284
 51
80.91121099685917
  0
ARC
  5
479
330
62
100
AcDbEntity
  8
0
  6
Continuous
 62
     7
100
AcDbCircle
 10
0.00074056252054
 20
-636.7870265400525
 30
0.0
 40
70.49999999999979
100
AcDbArc
 50
158.1130859681896
 51
171.2437790509339
  0
ARC
  5
47A
330
62
100
AcDbEntity
  8
0
  6
Continuous
 62
     7
100
AcDbCircle
 10
0.00074056252054
 20
-636.7870265400525
 30
0.0
 40
70.50000000000107
100
AcDbArc
 50
143.1130859681924
 51
156.2437790509309
  0
ARC
  5
47B
330
62
100
AcDbEntity
  8
0
  6
Continuous
 62
     7
100
AcDbCircle
 10
0.00074056252054
 20
-636.7870265400525
 30
0.0
 40
78.99999999999855
100
AcDbArc
 50
173.0125144556251
 51
-173.6556494364957
  0
ARC
  5
47C
330
62
100
AcDbEntity
  8
0
  6
Continuous
 62
     7
100
AcDbCircle
 10
0.00074056252054
 20
-636.7870265400525
 30
0.0
 40
74.99999999999862
100
AcDbArc
 50
173.057002224644
 51
-173.7001372055153
  0
ARC
  5
47D
330
62
100
AcDbEntity
  8
0
  6
Continuous
 62
     7
100
AcDbCircle
 10
0.00074056252054
 20
-636.7870265400525
 30
0.0
 40
78.99999999999933
100
AcDbArc
 50
158.0125144556231
 51
171.344350563506
  0
ARC
  5
47E
330
62
100
AcDbEntity
  8
0
  6
Continuous
 62
     7
100
AcDbCircle
 10
0.00074056252054
 20
-636.7870265400525
 30
0.0
 40
79.00000000000283
100
AcDbArc
 50
-51.98748554437945
 51
-38.65564943649926
  0
ARC
  5
47F
330
62
100
AcDbEntity
  8
0
  6
Continuous
 62
     7
100
AcDbCircle
 10
0.00074056252054
 20
-636.7870265400525
 30
0.0
 40
78.99999999999973
100
AcDbArc
 50
-36.98748554437857
 51
-23.65564943649937
  0
ARC
  5
480
330
62
100
AcDbEntity
  8
0
  6
Continuous
 62
     7
100
AcDbCircle
 10
0.00074056252054
 20
-636.7870265400525
 30
0.0
 40
78.99999999999933
100
AcDbArc
 50
-21.98748554437689
 51
-8.65564943649925
  0
ARC
  5
481
330
62
100
AcDbEntity
  8
0
  6
Continuous
 62
     7
100
AcDbCircle
 10
0.00074056252054
 20
-636.7870265400525
 30
0.0
 40
79.0000000000026
100
AcDbArc
 50
-96.98748554437724
 51
-83.65564943649859
  0
ARC
  5
482
330
62
100
AcDbEntity
  8
0
  6
Continuous
 62
     7
100
AcDbCircle
 10
0.00074056252054
 20
-636.7870265400525
 30
0.0
 40
75.00000000000213
100
AcDbArc
 50
-81.94299777536088
 51
-68.70013720551705
  0
ARC
  5
483
330
62
100
AcDbEntity
  8
0
  6
Continuous
 62
     7
100
AcDbCircle
 10
0.00074056252054
 20
-636.7870265400525
 30
0.0
 40
75.00000000000267
100
AcDbArc
 50
-96.9429977753584
 51
-83.70013720551556
  0
ARC
  5
484
330
62
100
AcDbEntity
  8
0
  6
Continuous
 62
     7
100
AcDbCircle
 10
0.00074056252054
 20
-636.7870265400525
 30
0.0
 40
75.00000000000165
100
AcDbArc
 50
-66.94299777536158
 51
-53.70013720551781
  0
ARC
  5
485
330
62
100
AcDbEntity
  8
0
  6
Continuous
 62
     7
100
AcDbCircle
 10
0.00074056252054
 20
-636.7870265400525
 30
0.0
 40
79.00000000000213
100
AcDbArc
 50
-81.98748554437812
 51
-68.65564943649835
  0
ARC
  5
486
330
62
100
AcDbEntity
  8
0
  6
Continuous
 62
     7
100
AcDbCircle
 10
0.00074056252054
 20
-636.7870265400525
 30
0.0
 40
79.00000000000149
100
AcDbArc
 50
-66.98748554437957
 51
-53.65564943650166
  0
ARC
  5
487
330
62
100
AcDbEntity
  8
0
  6
Continuous
 62
     7
100
AcDbCircle
 10
0.00074056252054
 20
-636.7870265400525
 30
0.0
 40
74.99999999999903
100
AcDbArc
 50
-171.9429977753578
 51
-158.7001372055171
  0
ARC
  5
488
330
62
100
AcDbEntity
  8
0
  6
Continuous
 62
     7
100
AcDbCircle
 10
0.00074056252054
 20
-636.7870265400525
 30
0.0
 40
79.0000000000027
100
AcDbArc
 50
-111.9874855443759
 51
-98.65564943649886
  0
ARC
  5
489
330
62
100
AcDbEntity
  8
0
  6
Continuous
 62
     7
100
AcDbCircle
 10
0.00074056252054
 20
-636.7870265400525
 30
0.0
 40
75.00000000000095
100
AcDbArc
 50
-111.9429977753588
 51
-98.70013720551702
  0
ARC
  5
48A
330
62
100
AcDbEntity
  8
0
  6
Continuous
 62
     7
100
AcDbCircle
 10
0.00074056252054
 20
-636.7870265400525
 30
0.0
 40
75.00000000000165
100
AcDbArc
 50
-156.9429977753616
 51
-143.7001372055139
  0
ARC
  5
48B
330
62
100
AcDbEntity
  8
0
  6
Continuous
 62
     7
100
AcDbCircle
 10
0.00074056252054
 20
-636.7870265400525
 30
0.0
 40
75.00000000000102
100
AcDbArc
 50
-141.9429977753574
 51
-128.700137205515
  0
ARC
  5
48C
330
62
100
AcDbEntity
  8
0
  6
Continuous
 62
     7
100
AcDbCircle
 10
0.00074056252054
 20
-636.7870265400525
 30
0.0
 40
75.00000000000067
100
AcDbArc
 50
-126.9429977753601
 51
-113.7001372055156
  0
ARC
  5
48D
330
62
100
AcDbEntity
  8
0
  6
Continuous
 62
     7
100
AcDbCircle
 10
0.00074056252054
 20
-636.7870265400525
 30
0.0
 40
78.99999999999957
100
AcDbArc
 50
-156.9874855443761
 51
-143.655649436498
  0
ARC
  5
48E
330
62
100
AcDbEntity
  8
0
  6
Continuous
 62
     7
100
AcDbCircle
 10
0.00074056252054
 20
-636.7870265400525
 30
0.0
 40
78.99999999999903
100
AcDbArc
 50
-171.9874855443751
 51
-158.6556494364984
  0
ARC
  5
48F
330
62
100
AcDbEntity
  8
0
  6
Continuous
 62
     7
100
AcDbCircle
 10
0.00074056252054
 20
-636.7870265400525
 30
0.0
 40
79.00000000000263
100
AcDbArc
 50
-126.987485544377
 51
-113.6556494364994
  0
ARC
  5
490
330
62
100
AcDbEntity
  8
0
  6
Continuous
 62
     7
100
AcDbCircle
 10
0.00074056252054
 20
-636.7870265400525
 30
0.0
 40
79.00000000000222
100
AcDbArc
 50
-141.9874855443757
 51
-128.6556494364993
  0
ARC
  5
491
330
62
100
AcDbEntity
  8
0
  6
Continuous
 62
     7
100
AcDbCircle
 10
0.00074056252054
 20
-636.7870265400525
 30
0.0
 40
75.00000000000271
100
AcDbArc
 50
-46.87378957661885
 51
-38.70013720551674
  0
ARC
  5
492
330
62
100
AcDbEntity
  8
0
  6
Continuous
 62
     7
100
AcDbCircle
 10
0.00074056252054
 20
-636.7870265400561
 30
0.0
 40
75.00000000000074
100
AcDbArc
 50
-28.76943394102243
 51
-23.70013720551415
  0
ARC
  5
493
330
62
100
AcDbEntity
  8
0
  6
Continuous
 62
     7
100
AcDbCircle
 10
0.00074056252054
 20
-636.7870265400525
 30
0.0
 40
75.00000000000286
100
AcDbArc
 50
-36.94299777536234
 51
-28.76943394102487
  0
ARC
  5
494
330
62
100
AcDbEntity
  8
0
  6
Continuous
 62
     7
100
AcDbCircle
 10
0.00074056252054
 20
-636.7870265400561
 30
0.0
 40
74.99999999999878
100
AcDbArc
 50
-51.94299777535955
 51
-46.87378957661696
  0
ARC
  5
495
330
62
100
AcDbEntity
  8
0
  6
Continuous
 62
     7
100
AcDbCircle
 10
0.00074056252054
 20
-636.7870265400525
 30
0.0
 40
74.9999999999995
100
AcDbArc
 50
83.05700222463851
 51
96.29986279448475
  0
ARC
  5
496
330
62
100
AcDbEntity
  8
0
  6
Continuous
 62
     7
100
AcDbCircle
 10
0.00074056252054
 20
-636.7870265400525
 30
0.0
 40
74.99999999999777
100
AcDbArc
 50
53.05700222463822
 51
66.2998627944833
  0
ARC
  5
497
330
62
100
AcDbEntity
  8
0
  6
Continuous
 62
     7
100
AcDbCircle
 10
0.00074056252054
 20
-636.7870265400525
 30
0.0
 40
78.99999999999973
100
AcDbArc
 50
53.01251445562143
 51
66.34435056349957
  0
ARC
  5
498
330
62
100
AcDbEntity
  8
0
  6
Continuous
 62
     7
100
AcDbCircle
 10
0.00074056252054
 20
-636.7870265400525
 30
0.0
 40
74.99999999999893
100
AcDbArc
 50
68.05700222463757
 51
81.29986279448255
  0
ARC
  5
499
330
62
100
AcDbEntity
  8
0
  6
Continuous
 62
     7
100
AcDbCircle
 10
0.00074056252054
 20
-636.7870265400525
 30
0.0
 40
78.99999999999933
100
AcDbArc
 50
68.01251445562312
 51
81.34435056349814
  0
ARC
  5
49A
330
62
100
AcDbEntity
  8
0
  6
Continuous
 62
     7
100
AcDbCircle
 10
0.00074056252054
 20
-636.7870265400525
 30
0.0
 40
78.99999999999899
100
AcDbArc
 50
-6.98748554437756
 51
6.34435056349908
  0
ARC
  5
49B
330
62
100
AcDbEntity
  8
0
  6
Continuous
 62
     7
100
AcDbCircle
 10
0.00074056252054
 20
-636.7870265400525
 30
0.0
 40
79.00000000000162
100
AcDbArc
 50
8.01251445561927
 51
21.3443505634992
  0
ARC
  5
49C
330
62
100
AcDbEntity
  8
0
  6
Continuous
 62
     7
100
AcDbCircle
 10
0.00074056252054
 20
-636.7870265400525
 30
0.0
 40
75.0000000000016
100
AcDbArc
 50
8.05700222463636
 51
21.29986279448294
  0
ARC
  5
49D
330
62
100
AcDbEntity
  8
0
  6
Continuous
 62
     7
100
AcDbCircle
 10
0.00074056252054
 20
-636.7870265400525
 30
0.0
 40
79.00000000000149
100
AcDbArc
 50
23.01251445562044
 51
36.3443505634999
  0
ARC
  5
49E
330
62
100
AcDbEntity
  8
0
  6
Continuous
 62
     7
100
AcDbCircle
 10
0.00074056252054
 20
-636.7870265400525
 30
0.0
 40
74.9999999999995
100
AcDbArc
 50
-6.94299777536149
 51
6.29986279448198
  0
ARC
  5
49F
330
62
100
AcDbEntity
  8
0
  6
Continuous
 62
     7
100
AcDbCircle
 10
0.00074056252054
 20
-636.7870265400525
 30
0.0
 40
78.99999999999899
100
AcDbArc
 50
83.01251445562244
 51
96.34435056350169
  0
ARC
  5
4A0
330
62
100
AcDbEntity
  8
0
  6
Continuous
 62
     7
100
AcDbCircle
 10
0.00074056252054
 20
-636.7870265400525
 30
0.0
 40
78.99999999999935
100
AcDbArc
 50
128.0125144556259
 51
141.3443505635028
  0
ARC
  5
4A1
330
62
100
AcDbEntity
  8
0
  6
Continuous
 62
     7
100
AcDbCircle
 10
0.00074056252054
 20
-636.7870265400525
 30
0.0
 40
78.99999999999622
100
AcDbArc
 50
113.0125144556249
 51
126.3443505634999
  0
ARC
  5
4A2
330
62
100
AcDbEntity
  8
0
  6
Continuous
 62
     7
100
AcDbCircle
 10
0.00074056252054
 20
-636.7870265400525
 30
0.0
 40
78.99999999999852
100
AcDbArc
 50
98.01251445562225
 51
111.3443505635026
  0
ARC
  5
4A3
330
62
100
AcDbEntity
  8
0
  6
Continuous
 62
     7
100
AcDbCircle
 10
0.00074056252054
 20
-636.7870265400525
 30
0.0
 40
74.99999999999972
100
AcDbArc
 50
113.0570022246421
 51
126.2998627944839
  0
ARC
  5
4A4
330
62
100
AcDbEntity
  8
0
  6
Continuous
 62
     7
100
AcDbCircle
 10
0.00074056252054
 20
-636.7870265400525
 30
0.0
 40
74.99999999999852
100
AcDbArc
 50
98.0570022246395
 51
111.299862794484
  0
ARC
  5
4A5
330
62
100
AcDbEntity
  8
0
  6
Continuous
 62
     7
100
AcDbCircle
 10
0.00074056252054
 20
-636.7870265400561
 30
0.0
 40
75.00000000000102
100
AcDbArc
 50
128.0570022246426
 51
133.1262104233812
  0
ARC
  5
4A6
330
62
100
AcDbEntity
  8
0
  6
Continuous
 62
     7
100
AcDbCircle
 10
0.00074056252054
 20
-636.7870265400525
 30
0.0
 40
75.00000000000007
100
AcDbArc
 50
133.1262104233831
 51
141.2998627944854
  0
ARC
  5
4A7
330
62
100
AcDbEntity
  8
0
  6
Continuous
 62
     7
100
AcDbCircle
 10
0.00074056252054
 20
-636.7870265400525
 30
0.0
 40
75.00000000000232
100
AcDbArc
 50
-21.94299777536139
 51
-8.70013720551744
  0
ARC
  5
4A8
330
62
100
AcDbEntity
  8
0
  6
Continuous
 62
     7
100
AcDbCircle
 10
0.00074056252054
 20
-636.7870265400525
 30
0.0
 40
75.00000000000021
100
AcDbArc
 50
23.05700222463587
 51
36.29986279448384
  0
ARC
  5
4A9
330
62
100
AcDbEntity
  8
0
  6
Continuous
 62
     7
100
AcDbCircle
 10
0.00074056252054
 20
-636.7870265400525
 30
0.0
 40
74.9999999999994
100
AcDbArc
 50
38.05700222463655
 51
51.29986279448326
  0
ARC
  5
4AA
330
62
100
AcDbEntity
  8
0
  6
Continuous
 62
     7
100
AcDbCircle
 10
0.00074056252054
 20
-636.7870265400525
 30
0.0
 40
78.99999999999997
100
AcDbArc
 50
38.01251445562218
 51
51.34435056349908
  0
ARC
  5
4AB
330
62
100
AcDbEntity
  8
0
  6
Continuous
 62
     7
100
AcDbCircle
 10
0.00074056252054
 20
-636.7870265400525
 30
0.0
 40
78.99999999999754
100
AcDbArc
 50
143.0125144556235
 51
156.344350563503
  0
ARC
  5
4AC
330
62
100
AcDbEntity
  8
0
  6
Continuous
 62
     7
100
AcDbCircle
 10
0.00074056252054
 20
-636.7870265400525
 30
0.0
 40
75.00000000000095
100
AcDbArc
 50
158.0570022246412
 51
171.2998627944881
  0
ARC
  5
4AD
330
62
100
AcDbEntity
  8
0
  6
Continuous
 62
     7
100
AcDbCircle
 10
0.00074056252054
 20
-636.7870265400525
 30
0.0
 40
74.99999999999848
100
AcDbArc
 50
143.0570022246421
 51
156.2998627944833
  0
ARC
  5
4AE
330
62
100
AcDbEntity
  8
0
  6
Continuous
 62
     7
100
AcDbCircle
 10
0.00074056252418
 20
-636.7870265400561
 30
0.0
 40
73.90000000000055
100
AcDbArc
 50
-111.9299192349174
 51
-98.7132157459608
  0
ARC
  5
4AF
330
62
100
AcDbEntity
  8
0
  6
Continuous
 62
     7
100
AcDbCircle
 10
0.00074056252418
 20
-636.7870265400561
 30
0.0
 40
73.89999999999993
100
AcDbArc
 50
-156.9299192349179
 51
-143.7132157459609
  0
ARC
  5
4B0
330
62
100
AcDbEntity
  8
0
  6
Continuous
 62
     7
100
AcDbCircle
 10
0.00074056252418
 20
-636.7870265400561
 30
0.0
 40
73.89999999999908
100
AcDbArc
 50
-171.9299192349185
 51
-158.7132157459601
  0
ARC
  5
4B1
330
62
100
AcDbEntity
  8
0
  6
Continuous
 62
     7
100
AcDbCircle
 10
0.00074056252418
 20
-636.7870265400561
 30
0.0
 40
73.89999999999836
100
AcDbArc
 50
-6.92991923491554
 51
6.2867842540403
  0
ARC
  5
4B2
330
62
100
AcDbEntity
  8
0
  6
Continuous
 62
     7
100
AcDbCircle
 10
0.00074056252418
 20
-636.7870265400561
 30
0.0
 40
73.89999999999836
100
AcDbArc
 50
-96.92991923491554
 51
-83.71321574596251
  0
ARC
  5
4B3
330
62
100
AcDbEntity
  8
0
  6
Continuous
 62
     7
100
AcDbCircle
 10
0.00074056252418
 20
-636.7870265400561
 30
0.0
 40
70.50000000000072
100
AcDbArc
 50
-171.8869140318105
 51
-158.7562209490696
  0
ARC
  5
4B4
330
62
100
AcDbEntity
  8
0
  6
Continuous
 62
     7
100
AcDbCircle
 10
0.00074056252418
 20
-636.7870265400561
 30
0.0
 40
58.13148319780665
100
AcDbArc
 50
128.3119739458322
 51
141.0448910732935
  0
ARC
  5
4B5
330
62
100
AcDbEntity
  8
0
  6
Continuous
 62
     7
100
AcDbCircle
 10
0.00074056252418
 20
-636.7870265400561
 30
0.0
 40
56.20000000000169
100
AcDbArc
 50
38.35093687884093
 51
51.00592814028617
  0
ARC
  5
4B6
330
62
100
AcDbEntity
  8
0
  6
Continuous
 62
     7
100
AcDbCircle
 10
0.00074056252418
 20
-636.7870265400561
 30
0.0
 40
56.20000000000091
100
AcDbArc
 50
-126.6490631211619
 51
-113.9940718597177
  0
ARC
  5
4B7
330
62
100
AcDbEntity
  8
0
  6
Continuous
 62
     7
100
AcDbCircle
 10
0.00074056252418
 20
-636.7870265400561
 30
0.0
 40
56.19999999999944
100
AcDbArc
 50
-141.649063121162
 51
-128.994071859719
  0
ARC
  5
4B8
330
62
100
AcDbEntity
  8
0
  6
Continuous
 62
     7
100
AcDbCircle
 10
0.00074056252418
 20
-636.7870265400561
 30
0.0
 40
58.13148319780665
100
AcDbArc
 50
38.31197394583219
 51
51.04489107329349
  0
ARC
  5
4B9
330
62
100
AcDbEntity
  8
0
  6
Continuous
 62
     7
100
AcDbCircle
 10
0.00074056252418
 20
-636.7870265400561
 30
0.0
 40
56.20000000000169
100
AcDbArc
 50
128.3509368788409
 51
141.0059281402833
  0
ARC
  5
4BA
330
62
100
AcDbEntity
  8
0
  6
Continuous
 62
     7
100
AcDbCircle
 10
0.00074056252418
 20
-636.7870265400561
 30
0.0
 40
58.13148319780561
100
AcDbArc
 50
113.311973945831
 51
126.0448910732939
  0
ARC
  5
4BB
330
62
100
AcDbEntity
  8
0
  6
Continuous
 62
     7
100
AcDbCircle
 10
0.00074056252418
 20
-636.7870265400561
 30
0.0
 40
56.20000000000039
100
AcDbArc
 50
113.3509368788404
 51
126.0059281402839
  0
ARC
  5
4BC
330
62
100
AcDbEntity
  8
0
  6
Continuous
 62
     7
100
AcDbCircle
 10
0.00074056252418
 20
-636.7870265400561
 30
0.0
 40
56.20000000000039
100
AcDbArc
 50
-156.6490631211597
 51
-143.9940718597161
  0
ARC
  5
4BD
330
62
100
AcDbEntity
  8
0
  6
Continuous
 62
     7
100
AcDbCircle
 10
0.00074056252418
 20
-636.7870265400561
 30
0.0
 40
58.13148319780429
100
AcDbArc
 50
-126.6880260541703
 51
-113.9551089267096
  0
ARC
  5
4BE
330
62
100
AcDbEntity
  8
0
  6
Continuous
 62
     7
100
AcDbCircle
 10
0.00074056252418
 20
-636.7870265400561
 30
0.0
 40
58.1314831978044
100
AcDbArc
 50
-141.6880260541706
 51
-128.9551089267088
  0
ARC
  5
4BF
330
62
100
AcDbEntity
  8
0
  6
Continuous
 62
     7
100
AcDbCircle
 10
0.00074056252418
 20
-636.7870265400561
 30
0.0
 40
58.13148319780497
100
AcDbArc
 50
-111.6880260541695
 51
-98.95510892670882
  0
ARC
  5
4C0
330
62
100
AcDbEntity
  8
0
  6
Continuous
 62
     7
100
AcDbCircle
 10
0.00074056252418
 20
-636.7870265400561
 30
0.0
 40
56.19999999999778
100
AcDbArc
 50
-111.6490631211603
 51
-98.99407185971705
  0
ARC
  5
4C1
330
62
100
AcDbEntity
  8
0
  6
Continuous
 62
     7
100
AcDbCircle
 10
0.00074056252418
 20
-636.7870265400561
 30
0.0
 40
58.13148319780417
100
AcDbArc
 50
-156.6880260541723
 51
-143.955108926709
  0
ARC
  5
4C2
330
62
100
AcDbEntity
  8
0
  6
Continuous
 62
     7
100
AcDbCircle
 10
0.00074056252418
 20
-636.7870265400561
 30
0.0
 40
56.20000000000091
100
AcDbArc
 50
143.3509368788381
 51
156.0059281402838
  0
ARC
  5
4C3
330
62
100
AcDbEntity
  8
0
  6
Continuous
 62
     7
100
AcDbCircle
 10
0.00074056252418
 20
-636.7870265400561
 30
0.0
 40
58.13148319780497
100
AcDbArc
 50
158.3119739458305
 51
171.0448910732918
  0
ARC
  5
4C4
330
62
100
AcDbEntity
  8
0
  6
Continuous
 62
     7
100
AcDbCircle
 10
0.00074056252418
 20
-636.7870265400561
 30
0.0
 40
56.2000000000025
100
AcDbArc
 50
158.3509368788376
 51
171.0059281402835
  0
ARC
  5
4C5
330
62
100
AcDbEntity
  8
0
  6
Continuous
 62
     7
100
AcDbCircle
 10
0.00074056252418
 20
-636.7870265400561
 30
0.0
 40
73.90000000000198
100
AcDbArc
 50
173.0700807650848
 51
-173.7132157459625
  0
ARC
  5
4C6
330
62
100
AcDbEntity
  8
0
  6
Continuous
 62
     7
100
AcDbCircle
 10
0.00074056252418
 20
-636.7870265400561
 30
0.0
 40
58.13148319780429
100
AcDbArc
 50
143.3119739458297
 51
156.0448910732919
  0
ARC
  5
4C7
330
62
100
AcDbEntity
  8
0
  6
Continuous
 62
     7
100
AcDbCircle
 10
7.84590408732623
 20
-641.3579574374853
 30
0.0
 40
1.000000000003699
100
AcDbArc
 50
52.17843250954724
 51
142.1784325094194
  0
ARC
  5
4C8
330
62
100
AcDbEntity
  8
0
  6
Continuous
 62
     7
100
AcDbCircle
 10
0.00074073296712
 20
-636.7870259179326
 30
0.0
 40
40.99999976996593
100
AcDbArc
 50
-36.21428077380514
 51
5.57114412664738
  0
ARC
  5
4C9
330
62
100
AcDbEntity
  8
0
  6
Continuous
 62
     7
100
AcDbCircle
 10
0.00074056252418
 20
-636.7870265400561
 30
0.0
 40
58.13148319780368
100
AcDbArc
 50
8.31197394583043
 51
21.04489107329405
  0
ARC
  5
4CA
330
62
100
AcDbEntity
  8
0
  6
Continuous
 62
     7
100
AcDbCircle
 10
0.00074056252418
 20
-636.7870265400561
 30
0.0
 40
56.19999999999769
100
AcDbArc
 50
8.35093687884107
 51
21.00592814028468
  0
ARC
  5
4CB
330
62
100
AcDbEntity
  8
0
  6
Continuous
 62
     7
100
AcDbCircle
 10
0.00074056252418
 20
-636.7870265400561
 30
0.0
 40
43.49999999999922
100
AcDbArc
 50
-21.30667498477012
 51
-9.33645999610345
  0
ARC
  5
4CC
330
62
100
AcDbEntity
  8
0
  6
Continuous
 62
     7
100
AcDbCircle
 10
0.00074056252418
 20
-636.7870265400561
 30
0.0
 40
43.50000000000006
100
AcDbArc
 50
-6.30667498477433
 51
5.66354000390137
  0
ARC
  5
4CD
330
62
100
AcDbEntity
  8
0
  6
Continuous
 62
     7
100
AcDbCircle
 10
0.00074056252418
 20
-636.7870265400561
 30
0.0
 40
43.49999999999756
100
AcDbArc
 50
8.69332501522855
 51
20.66354000390077
  0
ARC
  5
4CE
330
62
100
AcDbEntity
  8
0
  6
Continuous
 62
     7
100
AcDbCircle
 10
0.00074056252418
 20
-636.7870265400561
 30
0.0
 40
43.49999999999902
100
AcDbArc
 50
23.69332501523094
 51
35.66354000390092
  0
ARC
  5
4CF
330
62
100
AcDbEntity
  8
0
  6
Continuous
 62
     7
100
AcDbCircle
 10
0.00074056252418
 20
-636.7870265400561
 30
0.0
 40
43.49999999999926
100
AcDbArc
 50
38.69332501522732
 51
50.66354000390258
  0
ARC
  5
4D0
330
62
100
AcDbEntity
  8
0
  6
Continuous
 62
     7
100
AcDbCircle
 10
0.00074056252418
 20
-636.7870265400561
 30
0.0
 40
41.00000000000018
100
AcDbArc
 50
8.78572005031826
 51
50.57114496881043
  0
ARC
  5
4D1
330
62
100
AcDbEntity
  8
0
  6
Continuous
 62
     7
100
AcDbCircle
 10
0.00074056252418
 20
-636.7870265400561
 30
0.0
 40
43.50000000000006
100
AcDbArc
 50
83.69332501522567
 51
95.66354000389613
  0
ARC
  5
4D2
330
62
100
AcDbEntity
  8
0
  6
Continuous
 62
     7
100
AcDbCircle
 10
0.00074056252418
 20
-636.7870265400561
 30
0.0
 40
43.50000000000054
100
AcDbArc
 50
68.69332501522543
 51
80.66354000389656
  0
ARC
  5
4D3
330
62
100
AcDbEntity
  8
0
  6
Continuous
 62
     7
100
AcDbCircle
 10
-7.84442296228151
 20
-632.2160956426269
 30
0.0
 40
0.9999999999985943
100
AcDbArc
 50
-127.8215674904159
 51
-37.82156749041594
  0
ARC
  5
4D4
330
62
100
AcDbEntity
  8
0
  6
Continuous
 62
     7
100
AcDbCircle
 10
-6.37273229833369
 20
-630.3202774578713
 30
0.0
 40
0.9999999999985943
100
AcDbArc
 50
-37.82156749041594
 51
52.17843250958407
  0
ARC
  5
4D5
330
62
100
AcDbEntity
  8
0
  6
Continuous
 62
     7
100
AcDbCircle
 10
-26.80260480983049
 20
-617.4991890031415
 30
0.0
 40
0.9999999999985971
100
AcDbArc
 50
142.1784325095842
 51
-127.8215674904159
  0
ARC
  5
4D6
330
62
100
AcDbEntity
  8
0
  6
Continuous
 62
     7
100
AcDbCircle
 10
0.00074056252418
 20
-636.7870265400561
 30
0.0
 40
43.50000000000007
100
AcDbArc
 50
173.6933250152257
 51
-174.3364599961039
  0
ARC
  5
4D7
330
62
100
AcDbEntity
  8
0
  6
Continuous
 62
     7
100
AcDbCircle
 10
0.00074056252418
 20
-636.7870265400561
 30
0.0
 40
43.5000000000006
100
AcDbArc
 50
-171.3066749847769
 51
-159.3364599961037
  0
ARC
  5
4D8
330
62
100
AcDbEntity
  8
0
  6
Continuous
 62
     7
100
AcDbCircle
 10
0.00074056252418
 20
-636.7870265400561
 30
0.0
 40
43.50000000000115
100
AcDbArc
 50
98.69332501522783
 51
110.6635400039008
  0
ARC
  5
4D9
330
62
100
AcDbEntity
  8
0
  6
Continuous
 62
     7
100
AcDbCircle
 10
0.00074056252418
 20
-636.7870265400561
 30
0.0
 40
43.50000000000089
100
AcDbArc
 50
113.6933250152246
 51
125.6635400038981
  0
ARC
  5
4DA
330
62
100
AcDbEntity
  8
0
  6
Continuous
 62
     7
100
AcDbCircle
 10
-25.33091414588268
 20
-615.6033708183859
 30
0.0
 40
1.000000000000827
100
AcDbArc
 50
52.17843250941925
 51
142.1784325095842
  0
ARC
  5
4DB
330
62
100
AcDbEntity
  8
0
  6
Continuous
 62
     7
100
AcDbCircle
 10
0.00074056252418
 20
-636.7870265400561
 30
0.0
 40
41.00000000000024
100
AcDbArc
 50
98.78572006835925
 51
140.5711449507682
  0
ARC
  5
4DC
330
62
100
AcDbEntity
  8
0
  6
Continuous
 62
     7
100
AcDbCircle
 10
0.00074056252418
 20
-636.7870265400561
 30
0.0
 40
58.13148319780611
100
AcDbArc
 50
173.3119739458293
 51
-173.9551089267092
  0
ARC
  5
4DD
330
62
100
AcDbEntity
  8
0
  6
Continuous
 62
     7
100
AcDbCircle
 10
0.00074056252418
 20
-636.7870265400561
 30
0.0
 40
56.20000000000258
100
AcDbArc
 50
173.3509368788397
 51
-173.9940718597177
  0
ARC
  5
4DE
330
62
100
AcDbEntity
  8
0
  6
Continuous
 62
     7
100
AcDbCircle
 10
0.00074056252418
 20
-636.7870265400561
 30
0.0
 40
58.13148319780728
100
AcDbArc
 50
98.31197394582992
 51
111.0448910732928
  0
ARC
  5
4DF
330
62
100
AcDbEntity
  8
0
  6
Continuous
 62
     7
100
AcDbCircle
 10
0.00074056252418
 20
-636.7870265400561
 30
0.0
 40
56.20000000000129
100
AcDbArc
 50
98.35093687884054
 51
111.0059281402834
  0
ARC
  5
4E0
330
62
100
AcDbEntity
  8
0
  6
Continuous
 62
     7
100
AcDbCircle
 10
0.00074056252418
 20
-636.7870265400561
 30
0.0
 40
43.5000000000021
100
AcDbArc
 50
128.6933250152243
 51
140.6635400038958
  0
ARC
  5
4E1
330
62
100
AcDbEntity
  8
0
  6
Continuous
 62
     7
100
AcDbCircle
 10
0.00074056252418
 20
-636.7870265400561
 30
0.0
 40
43.50000000000116
100
AcDbArc
 50
143.6933250152261
 51
155.6635400038949
  0
ARC
  5
4E2
330
62
100
AcDbEntity
  8
0
  6
Continuous
 62
     7
100
AcDbCircle
 10
0.00074056252418
 20
-636.7870265400561
 30
0.0
 40
43.50000000000054
100
AcDbArc
 50
158.6933250152254
 51
170.6635400038966
  0
ARC
  5
4E3
330
62
100
AcDbEntity
  8
0
  6
Continuous
 62
     7
100
AcDbCircle
 10
0.00074056252418
 20
-636.7870265400561
 30
0.0
 40
41.00000000000114
100
AcDbArc
 50
143.7857200683534
 51
-174.4288550311914
  0
ARC
  5
4E4
330
62
100
AcDbEntity
  8
0
  6
Continuous
 62
     7
100
AcDbCircle
 10
0.00074056252418
 20
-636.7870265400561
 30
0.0
 40
41.00000000000043
100
AcDbArc
 50
53.78572005031852
 51
95.57114495077181
  0
ARC
  5
4E5
330
62
100
AcDbEntity
  8
0
  6
Continuous
 62
     7
100
AcDbCircle
 10
0.00074056252418
 20
-636.7870265400561
 30
0.0
 40
43.50000000000089
100
AcDbArc
 50
-156.3066749847754
 51
-144.3364599961058
  0
ARC
  5
4E6
330
62
100
AcDbEntity
  8
0
  6
Continuous
 62
     7
100
AcDbCircle
 10
0.00074056252418
 20
-636.7870265400561
 30
0.0
 40
40.99999999999962
100
AcDbArc
 50
-171.2142799496868
 51
-129.4288550311935
  0
ARC
  5
4E7
330
62
100
AcDbEntity
  8
0
  6
Continuous
 62
     7
100
AcDbCircle
 10
0.00074056252418
 20
-636.7870265400561
 30
0.0
 40
45.10463792494864
100
AcDbArc
 50
173.6394194571583
 51
-174.2825544380379
  0
ARC
  5
4E8
330
62
100
AcDbEntity
  8
0
  6
Continuous
 62
     7
100
AcDbCircle
 10
0.00074056252418
 20
-636.7870265400561
 30
0.0
 40
43.5000000000021
100
AcDbArc
 50
-141.3066749847757
 51
-129.3364599961042
  0
ARC
  5
4E9
330
62
100
AcDbEntity
  8
0
  6
Continuous
 62
     7
100
AcDbCircle
 10
0.00074056252418
 20
-636.7870265400561
 30
0.0
 40
43.49999999999823
100
AcDbArc
 50
-126.3066749847768
 51
-114.3364599961027
  0
ARC
  5
4EA
330
62
100
AcDbEntity
  8
0
  6
Continuous
 62
     7
100
AcDbCircle
 10
26.80408593487521
 20
-656.0748640769671
 30
0.0
 40
1.000000000003696
100
AcDbArc
 50
-37.82156749045289
 51
52.17843250941925
  0
ARC
  5
4EB
330
62
100
AcDbEntity
  8
0
  6
Continuous
 62
     7
100
AcDbCircle
 10
0.00074056252418
 20
-636.7870265400561
 30
0.0
 40
43.49999999999901
100
AcDbArc
 50
-36.30667498477005
 51
-24.33645999610269
  0
ARC
  5
4EC
330
62
100
AcDbEntity
  8
0
  6
Continuous
 62
     7
100
AcDbCircle
 10
0.00074213124247
 20
-636.7870249888438
 30
0.0
 40
43.49999976996588
100
AcDbArc
 50
-51.30667785873824
 51
-39.33646288609098
  0
ARC
  5
4ED
330
62
100
AcDbEntity
  8
0
  6
Continuous
 62
     7
100
AcDbCircle
 10
0.00074056252418
 20
-636.7870265400561
 30
0.0
 40
58.13148319780207
100
AcDbArc
 50
-6.68802605416762
 51
6.04489107329441
  0
ARC
  5
4EE
330
62
100
AcDbEntity
  8
0
  6
Continuous
 62
     7
100
AcDbCircle
 10
0.00074056252418
 20
-636.7870265400561
 30
0.0
 40
56.19999999999896
100
AcDbArc
 50
-6.64906312116075
 51
6.00592814028635
  0
ARC
  5
4EF
330
62
100
AcDbEntity
  8
0
  6
Continuous
 62
     7
100
AcDbCircle
 10
0.00074056252418
 20
-636.7870265400561
 30
0.0
 40
43.49999999999756
100
AcDbArc
 50
-66.30667498477345
 51
-54.33645999610296
  0
ARC
  5
4F0
330
62
100
AcDbEntity
  8
0
  6
Continuous
 62
     7
100
AcDbCircle
 10
25.3323952709274
 20
-657.9706822617227
 30
0.0
 40
0.9999999999985943
100
AcDbArc
 50
-127.8215674904159
 51
-37.82156749041569
  0
ARC
  5
4F1
330
62
100
AcDbEntity
  8
0
  6
Continuous
 62
     7
100
AcDbCircle
 10
0.00074000209354
 20
-636.7870268594379
 30
0.0
 40
40.99999976996521
100
AcDbArc
 50
-81.21427910752679
 51
-39.42885420707079
  0
ARC
  5
4F2
330
62
100
AcDbEntity
  8
0
  6
Continuous
 62
     7
100
AcDbCircle
 10
6.37421342337841
 20
-643.2537756222373
 30
0.0
 40
0.9999999999985943
100
AcDbArc
 50
142.1784325095841
 51
-127.8215674902881
  0
ARC
  5
4F3
330
62
100
AcDbEntity
  8
0
  6
Continuous
 62
     7
100
AcDbCircle
 10
0.00074056252418
 20
-636.7870265400561
 30
0.0
 40
58.13148319780368
100
AcDbArc
 50
-81.68802605416957
 51
-68.95510892670595
  0
ARC
  5
4F4
330
62
100
AcDbEntity
  8
0
  6
Continuous
 62
     7
100
AcDbCircle
 10
0.00074056252418
 20
-636.7870265400561
 30
0.0
 40
56.19999999999769
100
AcDbArc
 50
-81.64906312115893
 51
-68.99407185971532
  0
ARC
  5
4F5
330
62
100
AcDbEntity
  8
0
  6
Continuous
 62
     7
100
AcDbCircle
 10
0.00074056252418
 20
-636.7870265400561
 30
0.0
 40
43.50000000000006
100
AcDbArc
 50
-96.30667498477433
 51
-84.3364599961034
  0
ARC
  5
4F6
330
62
100
AcDbEntity
  8
0
  6
Continuous
 62
     7
100
AcDbCircle
 10
0.00074056252418
 20
-636.7870265400561
 30
0.0
 40
43.499999999997
100
AcDbArc
 50
-81.30667498477618
 51
-69.33645999610373
  0
ARC
  5
4F7
330
62
100
AcDbEntity
  8
0
  6
Continuous
 62
     7
100
AcDbCircle
 10
0.00074056252418
 20
-636.7870265400561
 30
0.0
 40
58.1314831978025
100
AcDbArc
 50
-96.68802605417117
 51
-83.95510892670559
  0
ARC
  5
4F8
330
62
100
AcDbEntity
  8
0
  6
Continuous
 62
     7
100
AcDbCircle
 10
0.00074056252418
 20
-636.7870265400561
 30
0.0
 40
56.19999999999895
100
AcDbArc
 50
-96.64906312116075
 51
-83.99407185971734
  0
ARC
  5
4F9
330
62
100
AcDbEntity
  8
0
  6
Continuous
 62
     7
100
AcDbCircle
 10
0.00074056252418
 20
-636.7870265400561
 30
0.0
 40
43.50000000000053
100
AcDbArc
 50
-111.3066749847746
 51
-99.33645999610346
  0
ARC
  5
4FA
330
62
100
AcDbEntity
  8
0
  6
Continuous
 62
     7
100
AcDbCircle
 10
0.00074056252418
 20
-636.7870265400561
 30
0.0
 40
40.99999999999964
100
AcDbArc
 50
-126.2142799496886
 51
-84.42885503119138
  0
ARC
  5
4FB
330
62
100
AcDbEntity
  8
0
  6
Continuous
 62
     7
100
AcDbCircle
 10
0.00074056252418
 20
-636.7870265400561
 30
0.0
 40
56.20000000000076
100
AcDbArc
 50
-171.6490631211632
 51
-158.9940718597167
  0
ARC
  5
4FC
330
62
100
AcDbEntity
  8
0
  6
Continuous
 62
     7
100
AcDbCircle
 10
0.00074056252418
 20
-636.7870265400561
 30
0.0
 40
58.13148319780728
100
AcDbArc
 50
-171.6880260541701
 51
-158.9551089267059
  0
ARC
  5
4FD
330
62
100
AcDbEntity
  8
0
  6
Continuous
 62
     7
100
AcDbCircle
 10
0.00074056252418
 20
-636.7870265400561
 30
0.0
 40
58.13148319780154
100
AcDbArc
 50
-51.6880260541684
 51
-38.95510892670372
  0
ARC
  5
4FE
330
62
100
AcDbEntity
  8
0
  6
Continuous
 62
     7
100
AcDbCircle
 10
0.00074056252418
 20
-636.7870265400561
 30
0.0
 40
58.13148319780211
100
AcDbArc
 50
-36.68802605416742
 51
-23.95510892670628
  0
ARC
  5
4FF
330
62
100
AcDbEntity
  8
0
  6
Continuous
 62
     7
100
AcDbCircle
 10
0.00074056252418
 20
-636.7870265400561
 30
0.0
 40
58.13148319780227
100
AcDbArc
 50
-66.68802605416757
 51
-53.95510892670612
  0
ARC
  5
500
330
62
100
AcDbEntity
  8
0
  6
Continuous
 62
     7
100
AcDbCircle
 10
0.00074056252418
 20
-636.7870265400561
 30
0.0
 40
56.20000000000039
100
AcDbArc
 50
-66.64906312115964
 51
-53.99407185971394
  0
ARC
  5
501
330
62
100
AcDbEntity
  8
0
  6
Continuous
 62
     7
100
AcDbCircle
 10
0.00074056252418
 20
-636.7870265400561
 30
0.0
 40
56.19999999999873
100
AcDbArc
 50
-36.64906312115892
 51
-23.99407185971435
  0
ARC
  5
502
330
62
100
AcDbEntity
  8
0
  6
Continuous
 62
     7
100
AcDbCircle
 10
0.00074056252418
 20
-636.7870265400561
 30
0.0
 40
56.19999999999659
100
AcDbArc
 50
-51.64906312115968
 51
-38.99407185971616
  0
ARC
  5
503
330
62
100
AcDbEntity
  8
0
  6
Continuous
 62
     7
100
AcDbCircle
 10
0.00074056252418
 20
-636.7870265400561
 30
0.0
 40
58.13148319780497
100
AcDbArc
 50
-21.68802605416948
 51
-8.95510892670527
  0
ARC
  5
504
330
62
100
AcDbEntity
  8
0
  6
Continuous
 62
     7
100
AcDbCircle
 10
0.00074056252418
 20
-636.7870265400561
 30
0.0
 40
56.19999999999778
100
AcDbArc
 50
-21.64906312116028
 51
-8.99407185971338
  0
ARC
  5
505
330
62
100
AcDbEntity
  8
0
  6
Continuous
 62
     7
100
AcDbCircle
 10
0.00074056252418
 20
-636.7870265400561
 30
0.0
 40
58.13148319780561
100
AcDbArc
 50
23.31197394583102
 51
36.04489107329388
  0
ARC
  5
506
330
62
100
AcDbEntity
  8
0
  6
Continuous
 62
     7
100
AcDbCircle
 10
0.00074056252418
 20
-636.7870265400561
 30
0.0
 40
56.20000000000039
100
AcDbArc
 50
23.35093687884036
 51
36.00592814028388
  0
ARC
  5
507
330
62
100
AcDbEntity
  8
0
  6
Continuous
 62
     7
100
AcDbCircle
 10
0.00074056252418
 20
-636.7870265400561
 30
0.0
 40
43.50000000000116
100
AcDbArc
 50
53.69332501522609
 51
65.66354000389929
  0
ARC
  5
508
330
62
100
AcDbEntity
  8
0
  6
Continuous
 62
     7
100
AcDbCircle
 10
0.00074056252418
 20
-636.7870265400561
 30
0.0
 40
58.13148319780497
100
AcDbArc
 50
68.31197394583052
 51
81.04489107329529
  0
ARC
  5
509
330
62
100
AcDbEntity
  8
0
  6
Continuous
 62
     7
100
AcDbCircle
 10
0.00074056252418
 20
-636.7870265400561
 30
0.0
 40
56.20000000000116
100
AcDbArc
 50
68.3509368788411
 51
81.00592814028353
  0
ARC
  5
50A
330
62
100
AcDbEntity
  8
0
  6
Continuous
 62
     7
100
AcDbCircle
 10
0.00074056252418
 20
-636.7870265400561
 30
0.0
 40
58.13148319780569
100
AcDbArc
 50
83.3119739458328
 51
96.04489107329404
  0
ARC
  5
50B
330
62
100
AcDbEntity
  8
0
  6
Continuous
 62
     7
100
AcDbCircle
 10
0.00074056252418
 20
-636.7870265400561
 30
0.0
 40
56.20000000000257
100
AcDbArc
 50
83.35093687883969
 51
96.00592814028596
  0
ARC
  5
50C
330
62
100
AcDbEntity
  8
0
  6
Continuous
 62
     7
100
AcDbCircle
 10
0.00074056252418
 20
-636.7870265400561
 30
0.0
 40
56.19999999999873
100
AcDbArc
 50
53.35093687884108
 51
66.00592814028717
  0
ARC
  5
50D
330
62
100
AcDbEntity
  8
0
  6
Continuous
 62
     7
100
AcDbCircle
 10
0.00074056252418
 20
-636.7870265400561
 30
0.0
 40
58.13148319780721
100
AcDbArc
 50
53.31197394583185
 51
66.04489107329519
  0
ARC
  5
50E
330
62
100
AcDbEntity
  8
0
  6
Continuous
 62
     7
100
AcDbCircle
 10
0.00074056252418
 20
-636.7870265400561
 30
0.0
 40
70.49999999999844
100
AcDbArc
 50
173.1130859681945
 51
-173.7562209490698
  0
ARC
  5
50F
330
62
100
AcDbEntity
  8
0
  6
Continuous
 62
     7
100
AcDbCircle
 10
0.00074056252418
 20
-636.7870265400561
 30
0.0
 40
45.10463792494686
100
AcDbArc
 50
-171.3605805428417
 51
-159.2825544380362
  0
ARC
  5
510
330
62
100
AcDbEntity
  8
0
  6
Continuous
 62
     7
100
AcDbCircle
 10
0.00074056252418
 20
-636.7870265400561
 30
0.0
 40
70.49999999999747
100
AcDbArc
 50
-66.88691403180843
 51
-53.75622094906687
  0
ARC
  5
511
330
62
100
AcDbEntity
  8
0
  6
Continuous
 62
     7
100
AcDbCircle
 10
0.00074056252418
 20
-636.7870265400561
 30
0.0
 40
73.89999999999802
100
AcDbArc
 50
-66.92991923491421
 51
-53.71321574596085
  0
ARC
  5
512
330
62
100
AcDbEntity
  8
0
  6
Continuous
 62
     7
100
AcDbCircle
 10
0.00074056252418
 20
-636.7870265400561
 30
0.0
 40
70.49999999999844
100
AcDbArc
 50
-96.88691403180552
 51
-83.75622094906649
  0
ARC
  5
513
330
62
100
AcDbEntity
  8
0
  6
Continuous
 62
     7
100
AcDbCircle
 10
0.00074056252418
 20
-636.7870265400561
 30
0.0
 40
45.10463792494777
100
AcDbArc
 50
-111.3605805428423
 51
-99.28255443804066
  0
ARC
  5
514
330
62
100
AcDbEntity
  8
0
  6
Continuous
 62
     7
100
AcDbCircle
 10
0.00074056252418
 20
-636.7870265400561
 30
0.0
 40
73.8999999999996
100
AcDbArc
 50
-81.92991923491572
 51
-68.71321574596007
  0
ARC
  5
515
330
62
100
AcDbEntity
  8
0
  6
Continuous
 62
     7
100
AcDbCircle
 10
0.00074056252418
 20
-636.7870265400561
 30
0.0
 40
45.10463792494777
100
AcDbArc
 50
158.6394194571577
 51
170.7174455619601
  0
ARC
  5
516
330
62
100
AcDbEntity
  8
0
  6
Continuous
 62
     7
100
AcDbCircle
 10
0.00074056252418
 20
-636.7870265400561
 30
0.0
 40
45.10463792494961
100
AcDbArc
 50
143.6394194571628
 51
155.7174455619624
  0
ARC
  5
517
330
62
100
AcDbEntity
  8
0
  6
Continuous
 62
     7
100
AcDbCircle
 10
0.00074056252418
 20
-636.7870265400561
 30
0.0
 40
45.10463792494555
100
AcDbArc
 50
-66.36058054283684
 51
-54.28255443803588
  0
ARC
  5
518
330
62
100
AcDbEntity
  8
0
  6
Continuous
 62
     7
100
AcDbCircle
 10
0.00074056252418
 20
-636.7870265400561
 30
0.0
 40
45.10463792494633
100
AcDbArc
 50
-51.36058054283649
 51
-39.28255443803648
  0
ARC
  5
519
330
62
100
AcDbEntity
  8
0
  6
Continuous
 62
     7
100
AcDbCircle
 10
0.00074056252418
 20
-636.7870265400561
 30
0.0
 40
70.49999999999756
100
AcDbArc
 50
-51.88691403180799
 51
-38.75622094906658
  0
ARC
  5
51A
330
62
100
AcDbEntity
  8
0
  6
Continuous
 62
     7
100
AcDbCircle
 10
0.00074056252418
 20
-636.7870265400561
 30
0.0
 40
73.89999999999814
100
AcDbArc
 50
-51.92991923491722
 51
-47.00968993933198
  0
ARC
  5
51B
330
62
100
AcDbEntity
  8
0
  6
Continuous
 62
     7
100
AcDbCircle
 10
0.00074056252418
 20
-636.7870265400561
 30
0.0
 40
73.89999999999671
100
AcDbArc
 50
-36.92991923491511
 51
-28.63353493039634
  0
ARC
  5
51C
330
62
100
AcDbEntity
  8
0
  6
Continuous
 62
     7
100
AcDbCircle
 10
0.00074056252418
 20
-636.7870265400561
 30
0.0
 40
45.1046379249469
100
AcDbArc
 50
-141.360580542843
 51
-129.2825544380394
  0
ARC
  5
51D
330
62
100
AcDbEntity
  8
0
  6
Continuous
 62
     7
100
AcDbCircle
 10
0.00074056252418
 20
-636.7870265400561
 30
0.0
 40
45.10463792494667
100
AcDbArc
 50
-126.36058054284
 51
-114.2825544380376
  0
ARC
  5
51E
330
62
100
AcDbEntity
  8
0
  6
Continuous
 62
     7
100
AcDbCircle
 10
0.00074056252418
 20
-636.7870265400561
 30
0.0
 40
70.49999999999712
100
AcDbArc
 50
-81.88691403181012
 51
-68.75622094906964
  0
ARC
  5
51F
330
62
100
AcDbEntity
  8
0
  6
Continuous
 62
     7
100
AcDbCircle
 10
0.00074056252418
 20
-636.7870265400561
 30
0.0
 40
45.10463792494502
100
AcDbArc
 50
-96.36058054284229
 51
-84.2825544380379
  0
ARC
  5
520
330
62
100
AcDbEntity
  8
0
  6
Continuous
 62
     7
100
AcDbCircle
 10
0.00074056252418
 20
-636.7870265400561
 30
0.0
 40
45.10463792494742
100
AcDbArc
 50
-156.3605805428429
 51
-144.2825544380386
  0
ARC
  5
521
330
62
100
AcDbEntity
  8
0
  6
Continuous
 62
     7
100
AcDbCircle
 10
0.00074056252418
 20
-636.7870265400561
 30
0.0
 40
45.10463792494686
100
AcDbArc
 50
-81.36058054284167
 51
-69.28255443803616
  0
ARC
  5
522
330
62
100
AcDbEntity
  8
0
  6
Continuous
 62
     7
100
AcDbCircle
 10
0.00074056252418
 20
-636.7870265400561
 30
0.0
 40
73.89999999999816
100
AcDbArc
 50
-141.9299192349172
 51
-137.009689939332
  0
ARC
  5
523
330
62
100
AcDbEntity
  8
0
  6
Continuous
 62
     7
100
AcDbCircle
 10
0.00074056252418
 20
-636.7870265400561
 30
0.0
 40
70.49999999999844
100
AcDbArc
 50
-111.8869140318076
 51
-98.756220949069
  0
ARC
  5
524
330
62
100
AcDbEntity
  8
0
  6
Continuous
 62
     7
100
AcDbCircle
 10
0.00074056252418
 20
-636.7870265400561
 30
0.0
 40
70.50000000000081
100
AcDbArc
 50
-156.8869140318096
 51
-143.7562209490669
  0
ARC
  5
525
330
62
100
AcDbEntity
  8
0
  6
Continuous
 62
     7
100
AcDbCircle
 10
0.00074056252418
 20
-636.7870265400561
 30
0.0
 40
73.89999999999823
100
AcDbArc
 50
-137.009689939332
 51
-128.7132157459615
  0
ARC
  5
526
330
62
100
AcDbEntity
  8
0
  6
Continuous
 62
     7
100
AcDbCircle
 10
0.00074056252418
 20
-636.7870265400561
 30
0.0
 40
70.49999999999756
100
AcDbArc
 50
-141.886914031808
 51
-128.7562209490689
  0
ARC
  5
527
330
62
100
AcDbEntity
  8
0
  6
Continuous
 62
     7
100
AcDbCircle
 10
0.00074056252418
 20
-636.7870265400561
 30
0.0
 40
70.49999999999815
100
AcDbArc
 50
-126.8869140318094
 51
-113.7562209490691
  0
ARC
  5
528
330
62
100
AcDbEntity
  8
0
  6
Continuous
 62
     7
100
AcDbCircle
 10
0.00074056252418
 20
-636.7870265400561
 30
0.0
 40
73.89999999999871
100
AcDbArc
 50
-118.6335349303988
 51
-113.713215745962
  0
ARC
  5
529
330
62
100
AcDbEntity
  8
0
  6
Continuous
 62
     7
100
AcDbCircle
 10
0.00074056252418
 20
-636.7870265400561
 30
0.0
 40
73.89999999999888
100
AcDbArc
 50
-126.9299192349174
 51
-118.6335349303988
  0
ARC
  5
52A
330
62
100
AcDbEntity
  8
0
  6
Continuous
 62
     7
100
AcDbCircle
 10
0.00074056252418
 20
-636.7870265400561
 30
0.0
 40
73.89999999999823
100
AcDbArc
 50
-47.00968993933198
 51
-38.71321574595935
  0
ARC
  5
52B
330
62
100
AcDbEntity
  8
0
  6
Continuous
 62
     7
100
AcDbCircle
 10
0.00074056252418
 20
-636.7870265400561
 30
0.0
 40
73.90000000000198
100
AcDbArc
 50
83.07008076508481
 51
96.2867842540403
  0
ARC
  5
52C
330
62
100
AcDbEntity
  8
0
  6
Continuous
 62
     7
100
AcDbCircle
 10
0.00074056252418
 20
-636.7870265400561
 30
0.0
 40
73.9000000000019
100
AcDbArc
 50
61.36646506960254
 51
66.2867842540391
  0
ARC
  5
52D
330
62
100
AcDbEntity
  8
0
  6
Continuous
 62
     7
100
AcDbCircle
 10
0.00074056252418
 20
-636.7870265400561
 30
0.0
 40
70.50000000000182
100
AcDbArc
 50
68.11308596819346
 51
81.24377905093145
  0
ARC
  5
52E
330
62
100
AcDbEntity
  8
0
  6
Continuous
 62
     7
100
AcDbCircle
 10
0.00074056252418
 20
-636.7870265400561
 30
0.0
 40
73.8999999999992
100
AcDbArc
 50
68.0700807650852
 51
81.28678425403963
  0
ARC
  5
52F
330
62
100
AcDbEntity
  8
0
  6
Continuous
 62
     7
100
AcDbCircle
 10
0.00074056252418
 20
-636.7870265400561
 30
0.0
 40
70.50000000000247
100
AcDbArc
 50
83.11308596819191
 51
96.2437790509332
  0
ARC
  5
530
330
62
100
AcDbEntity
  8
0
  6
Continuous
 62
     7
100
AcDbCircle
 10
0.00074056252418
 20
-636.7870265400561
 30
0.0
 40
70.50000000000107
100
AcDbArc
 50
53.11308596819235
 51
66.24377905093209
  0
ARC
  5
531
330
62
100
AcDbEntity
  8
0
  6
Continuous
 62
     7
100
AcDbCircle
 10
0.00074056252418
 20
-636.7870265400561
 30
0.0
 40
73.9000000000018
100
AcDbArc
 50
53.07008076508433
 51
61.36646506960254
  0
ARC
  5
532
330
62
100
AcDbEntity
  8
0
  6
Continuous
 62
     7
100
AcDbCircle
 10
0.00074056252418
 20
-636.7870265400561
 30
0.0
 40
70.50000000000266
100
AcDbArc
 50
38.11308596819251
 51
51.24377905093297
  0
ARC
  5
533
330
62
100
AcDbEntity
  8
0
  6
Continuous
 62
     7
100
AcDbCircle
 10
0.00074056252418
 20
-636.7870265400561
 30
0.0
 40
70.49999999999844
100
AcDbArc
 50
-6.88691403180551
 51
6.2437790509332
  0
ARC
  5
534
330
62
100
AcDbEntity
  8
0
  6
Continuous
 62
     7
100
AcDbCircle
 10
0.00074056252418
 20
-636.7870265400561
 30
0.0
 40
70.50000000000072
100
AcDbArc
 50
8.11308596818947
 51
21.24377905093311
  0
ARC
  5
535
330
62
100
AcDbEntity
  8
0
  6
Continuous
 62
     7
100
AcDbCircle
 10
0.00074056252418
 20
-636.7870265400561
 30
0.0
 40
73.8999999999996
100
AcDbArc
 50
8.07008076508429
 51
21.28678425403994
  0
ARC
  5
536
330
62
100
AcDbEntity
  8
0
  6
Continuous
 62
     7
100
AcDbCircle
 10
0.00074056252418
 20
-636.7870265400561
 30
0.0
 40
45.10463792494555
100
AcDbArc
 50
23.63941945716316
 51
35.71744556196788
  0
ARC
  5
537
330
62
100
AcDbEntity
  8
0
  6
Continuous
 62
     7
100
AcDbCircle
 10
0.00074056252418
 20
-636.7870265400561
 30
0.0
 40
45.10463792494633
100
AcDbArc
 50
38.63941945716351
 51
50.71744556196351
  0
ARC
  5
538
330
62
100
AcDbEntity
  8
0
  6
Continuous
 62
     7
100
AcDbCircle
 10
0.00074056252418
 20
-636.7870265400561
 30
0.0
 40
73.90000000000039
100
AcDbArc
 50
38.070080765085
 51
42.99031006067008
  0
ARC
  5
539
330
62
100
AcDbEntity
  8
0
  6
Continuous
 62
     7
100
AcDbCircle
 10
0.00074056252418
 20
-636.7870265400561
 30
0.0
 40
70.50000000000081
100
AcDbArc
 50
23.11308596819041
 51
36.24377905093552
  0
ARC
  5
53A
330
62
100
AcDbEntity
  8
0
  6
Continuous
 62
     7
100
AcDbCircle
 10
0.00074056252418
 20
-636.7870265400561
 30
0.0
 40
73.90000000000136
100
AcDbArc
 50
23.07008076508469
 51
36.28678425404141
  0
ARC
  5
53B
330
62
100
AcDbEntity
  8
0
  6
Continuous
 62
     7
100
AcDbCircle
 10
0.00074056252418
 20
-636.7870265400561
 30
0.0
 40
70.50000000000225
100
AcDbArc
 50
113.1130859681931
 51
126.2437790509314
  0
ARC
  5
53C
330
62
100
AcDbEntity
  8
0
  6
Continuous
 62
     7
100
AcDbCircle
 10
0.00074056252418
 20
-636.7870265400561
 30
0.0
 40
73.90000000000136
100
AcDbArc
 50
113.0700807650847
 51
126.2867842540375
  0
ARC
  5
53D
330
62
100
AcDbEntity
  8
0
  6
Continuous
 62
     7
100
AcDbCircle
 10
0.00074056252418
 20
-636.7870265400561
 30
0.0
 40
73.90000000000326
100
AcDbArc
 50
128.0700807650833
 51
132.9903100606682
  0
ARC
  5
53E
330
62
100
AcDbEntity
  8
0
  6
Continuous
 62
     7
100
AcDbCircle
 10
0.00074056252418
 20
-636.7870265400561
 30
0.0
 40
70.50000000000124
100
AcDbArc
 50
98.1130859681924
 51
111.2437790509304
  0
ARC
  5
53F
330
62
100
AcDbEntity
  8
0
  6
Continuous
 62
     7
100
AcDbCircle
 10
0.00074056252418
 20
-636.7870265400561
 30
0.0
 40
73.90000000000319
100
AcDbArc
 50
98.0700807650839
 51
111.2867842540399
  0
ARC
  5
540
330
62
100
AcDbEntity
  8
0
  6
Continuous
 62
     7
100
AcDbCircle
 10
0.00074056252418
 20
-636.7870265400561
 30
0.0
 40
70.50000000000266
100
AcDbArc
 50
128.1130859681925
 51
141.2437790509311
  0
ARC
  5
541
330
62
100
AcDbEntity
  8
0
  6
Continuous
 62
     7
100
AcDbCircle
 10
0.00074056252418
 20
-636.7870265400561
 30
0.0
 40
73.90000000000337
100
AcDbArc
 50
132.9903100606682
 51
141.2867842540385
  0
ARC
  5
542
330
62
100
AcDbEntity
  8
0
  6
Continuous
 62
     7
100
AcDbCircle
 10
0.00074056252418
 20
-636.7870265400561
 30
0.0
 40
45.10463792494917
100
AcDbArc
 50
128.6394194571606
 51
140.7174455619635
  0
ARC
  5
543
330
62
100
AcDbEntity
  8
0
  6
Continuous
 62
     7
100
AcDbCircle
 10
0.00074056252418
 20
-636.7870265400561
 30
0.0
 40
45.10463792494888
100
AcDbArc
 50
113.6394194571613
 51
125.7174455619614
  0
ARC
  5
544
330
62
100
AcDbEntity
  8
0
  6
Continuous
 62
     7
100
AcDbCircle
 10
0.00074056252418
 20
-636.7870265400561
 30
0.0
 40
45.10463792494645
100
AcDbArc
 50
-21.36058054283797
 51
-9.28255443803536
  0
ARC
  5
545
330
62
100
AcDbEntity
  8
0
  6
Continuous
 62
     7
100
AcDbCircle
 10
0.00074056252418
 20
-636.7870265400561
 30
0.0
 40
45.10463792494462
100
AcDbArc
 50
-6.36058054283768
 51
5.7174455619621
  0
ARC
  5
546
330
62
100
AcDbEntity
  8
0
  6
Continuous
 62
     7
100
AcDbCircle
 10
0.00074056252418
 20
-636.7870265400561
 30
0.0
 40
45.10463792494667
100
AcDbArc
 50
-36.36058054283996
 51
-24.28255443803765
  0
ARC
  5
547
330
62
100
AcDbEntity
  8
0
  6
Continuous
 62
     7
100
AcDbCircle
 10
0.00074056252418
 20
-636.7870265400561
 30
0.0
 40
73.89999999999696
100
AcDbArc
 50
-28.63353493039634
 51
-23.7132157459609
  0
ARC
  5
548
330
62
100
AcDbEntity
  8
0
  6
Continuous
 62
     7
100
AcDbCircle
 10
0.00074056252418
 20
-636.7870265400561
 30
0.0
 40
70.49999999999888
100
AcDbArc
 50
-36.88691403180528
 51
-23.7562209490664
  0
ARC
  5
549
330
62
100
AcDbEntity
  8
0
  6
Continuous
 62
     7
100
AcDbCircle
 10
0.00074056252418
 20
-636.7870265400561
 30
0.0
 40
73.8999999999992
100
AcDbArc
 50
-21.92991923491481
 51
-8.7132157459608
  0
ARC
  5
54A
330
62
100
AcDbEntity
  8
0
  6
Continuous
 62
     7
100
AcDbCircle
 10
0.00074056252418
 20
-636.7870265400561
 30
0.0
 40
70.50000000000045
100
AcDbArc
 50
-21.8869140318038
 51
-8.75622094906608
  0
ARC
  5
54B
330
62
100
AcDbEntity
  8
0
  6
Continuous
 62
     7
100
AcDbCircle
 10
0.00074056252418
 20
-636.7870265400561
 30
0.0
 40
45.10463792494824
100
AcDbArc
 50
83.63941945716283
 51
95.71744556196211
  0
ARC
  5
54C
330
62
100
AcDbEntity
  8
0
  6
Continuous
 62
     7
100
AcDbCircle
 10
0.00074056252418
 20
-636.7870265400561
 30
0.0
 40
45.1046379249474
100
AcDbArc
 50
98.6394194571629
 51
110.7174455619638
  0
ARC
  5
54D
330
62
100
AcDbEntity
  8
0
  6
Continuous
 62
     7
100
AcDbCircle
 10
0.00074056252418
 20
-636.7870265400561
 30
0.0
 40
45.1046379249496
100
AcDbArc
 50
53.63941945716279
 51
65.71744556196235
  0
ARC
  5
54E
330
62
100
AcDbEntity
  8
0
  6
Continuous
 62
     7
100
AcDbCircle
 10
0.00074056252418
 20
-636.7870265400561
 30
0.0
 40
45.10463792494984
100
AcDbArc
 50
68.63941945716371
 51
80.71744556196464
  0
ARC
  5
54F
330
62
100
AcDbEntity
  8
0
  6
Continuous
 62
     7
100
AcDbCircle
 10
0.00074056252418
 20
-636.7870265400561
 30
0.0
 40
45.10463792494741
100
AcDbArc
 50
8.6394194571629
 51
20.71744556196385
  0
ARC
  5
550
330
62
100
AcDbEntity
  8
0
  6
Continuous
 62
     7
100
AcDbCircle
 10
0.00074056252418
 20
-636.7870265400561
 30
0.0
 40
73.90000000000072
100
AcDbArc
 50
42.99031006067008
 51
51.28678425404065
  0
ARC
  5
551
330
62
100
AcDbEntity
  8
0
  6
Continuous
 62
     7
100
AcDbCircle
 10
0.00074056252418
 20
-636.7870265400561
 30
0.0
 40
70.49999999999979
100
AcDbArc
 50
158.1130859681896
 51
171.2437790509339
  0
ARC
  5
552
330
62
100
AcDbEntity
  8
0
  6
Continuous
 62
     7
100
AcDbCircle
 10
0.00074056252418
 20
-636.7870265400561
 30
0.0
 40
73.90000000000055
100
AcDbArc
 50
158.0700807650826
 51
171.2867842540396
  0
ARC
  5
553
330
62
100
AcDbEntity
  8
0
  6
Continuous
 62
     7
100
AcDbCircle
 10
0.00074056252418
 20
-636.7870265400561
 30
0.0
 40
73.9000000000019
100
AcDbArc
 50
151.3664650696025
 51
156.2867842540391
  0
ARC
  5
554
330
62
100
AcDbEntity
  8
0
  6
Continuous
 62
     7
100
AcDbCircle
 10
0.00074056252418
 20
-636.7870265400561
 30
0.0
 40
73.9000000000018
100
AcDbArc
 50
143.0700807650843
 51
151.3664650696025
  0
ARC
  5
555
330
62
100
AcDbEntity
  8
0
  6
Continuous
 62
     7
100
AcDbCircle
 10
0.00074056252418
 20
-636.7870265400561
 30
0.0
 40
70.50000000000107
100
AcDbArc
 50
143.1130859681924
 51
156.2437790509309
  0
ARC
  5
556
330
62
100
AcDbEntity
  8
1
  6
Continuous
 62
     7
100
AcDbCircle
 10
87.30578539803759
 20
-601.9469756464568
 30
0.0
 40
4.500000000002563
100
AcDbArc
 50
-6.37937020843915
 51
6.37937020843915
  0
ARC
  5
557
330
62
100
AcDbEntity
  8
1
  6
Continuous
 62
     7
100
AcDbCircle
 10
87.30578539803759
 20
-601.9469756464568
 30
0.0
 40
4.499999999998948
100
AcDbArc
 50
-96.3793702084443
 51
-83.62062979155571
  0
ARC
  5
558
330
62
100
AcDbEntity
  8
1
  6
Continuous
 62
     7
100
AcDbCircle
 10
87.30578539803759
 20
-601.9469756464568
 30
0.0
 40
4.499999999998948
100
AcDbArc
 50
173.6206297915557
 51
-173.6206297915557
  0
ARC
  5
559
330
62
100
AcDbEntity
  8
1
  6
Continuous
 62
     7
100
AcDbCircle
 10
87.30578539803759
 20
-601.9469756464568
 30
0.0
 40
4.499999999998948
100
AcDbArc
 50
83.62062979155571
 51
96.3793702084443
  0
ARC
  5
55A
330
62
100
AcDbEntity
  8
1
  6
Continuous
 62
     7
100
AcDbCircle
 10
13.48089383728659
 20
-543.7586143871595
 30
0.0
 40
4.500000000001686
100
AcDbArc
 50
143.6206297915699
 51
156.379370208425
  0
ARC
  5
55B
330
62
100
AcDbEntity
  8
1
  6
Continuous
 62
     7
100
AcDbCircle
 10
13.48089383728659
 20
-543.7586143871595
 30
0.0
 40
4.499999999998754
100
AcDbArc
 50
-126.3793702084575
 51
-113.6206297915936
  0
ARC
  5
55C
330
62
100
AcDbEntity
  8
1
  6
Continuous
 62
     7
100
AcDbCircle
 10
13.48089383728659
 20
-543.7586143871595
 30
0.0
 40
4.499999999996602
100
AcDbArc
 50
-36.37937020842031
 51
-23.62062979155112
  0
ARC
  5
55D
330
62
100
AcDbEntity
  8
1
  6
Continuous
 62
     7
100
AcDbCircle
 10
13.48089383728659
 20
-543.7586143871595
 30
0.0
 40
4.500000000001688
100
AcDbArc
 50
53.62062979156987
 51
66.37937020846732
  0
ARC
  5
55E
330
62
100
AcDbEntity
  8
1
  6
Continuous
 62
     7
100
AcDbCircle
 10
-73.82415099823044
 20
-578.5986652807514
 30
0.0
 40
4.500000000001283
100
AcDbArc
 50
-156.3793702084674
 51
-143.6206297915699
  0
ARC
  5
55F
330
62
100
AcDbEntity
  8
1
  6
Continuous
 62
     7
100
AcDbCircle
 10
-73.82415099823044
 20
-578.5986652807514
 30
0.0
 40
4.500000000001283
100
AcDbArc
 50
-66.37937020846744
 51
-53.62062979156987
  0
ARC
  5
560
330
62
100
AcDbEntity
  8
1
  6
Continuous
 62
     7
100
AcDbCircle
 10
-73.82415099823044
 20
-578.5986652807514
 30
0.0
 40
4.499999999997949
100
AcDbArc
 50
23.62062979155112
 51
36.37937020845761
  0
ARC
  5
561
330
62
100
AcDbEntity
  8
1
  6
Continuous
 62
     7
100
AcDbCircle
 10
-73.82415099823044
 20
-578.5986652807514
 30
0.0
 40
4.499999999999407
100
AcDbArc
 50
113.6206297915936
 51
126.3793702084576
  0
ARC
  5
562
330
62
100
AcDbEntity
  8
1
  6
Continuous
 62
     7
100
AcDbCircle
 10
-87.30430427299649
 20
-671.6270774336444
 30
0.0
 40
4.500000000002563
100
AcDbArc
 50
-96.37937020843916
 51
-83.62062979156084
  0
ARC
  5
563
330
62
100
AcDbEntity
  8
1
  6
Continuous
 62
     7
100
AcDbCircle
 10
-87.30430427299649
 20
-671.6270774336444
 30
0.0
 40
4.500000000002563
100
AcDbArc
 50
-6.37937020843915
 51
6.37937020843915
  0
ARC
  5
564
330
62
100
AcDbEntity
  8
1
  6
Continuous
 62
     7
100
AcDbCircle
 10
-87.30430427299649
 20
-671.6270774336444
 30
0.0
 40
4.499999999998948
100
AcDbArc
 50
83.62062979155571
 51
96.3793702084443
  0
ARC
  5
565
330
62
100
AcDbEntity
  8
1
  6
Continuous
 62
     7
100
AcDbCircle
 10
-87.30430427299649
 20
-671.6270774336444
 30
0.0
 40
4.499999999998948
100
AcDbArc
 50
173.6206297915557
 51
-173.6206297915557
  0
ARC
  5
566
330
62
100
AcDbEntity
  8
1
  6
Continuous
 62
     7
100
AcDbCircle
 10
-13.47941271224187
 20
-729.8154386929455
 30
0.0
 40
4.499999999998757
100
AcDbArc
 50
-36.37937020845764
 51
-23.62062979159358
  0
ARC
  5
567
330
62
100
AcDbEntity
  8
1
  6
Continuous
 62
     7
100
AcDbCircle
 10
-13.47941271224187
 20
-729.8154386929455
 30
0.0
 40
4.499999999998754
100
AcDbArc
 50
53.62062979154248
 51
66.37937020844888
  0
ARC
  5
568
330
62
100
AcDbEntity
  8
1
  6
Continuous
 62
     7
100
AcDbCircle
 10
-13.47941271224187
 20
-729.8154386929455
 30
0.0
 40
4.500000000001691
100
AcDbArc
 50
143.6206297915699
 51
156.3793702084675
  0
ARC
  5
569
330
62
100
AcDbEntity
  8
1
  6
Continuous
 62
     7
100
AcDbCircle
 10
-13.47941271224187
 20
-729.8154386929455
 30
0.0
 40
4.500000000001688
100
AcDbArc
 50
-126.3793702084301
 51
-113.620629791575
  0
ARC
  5
56A
330
62
100
AcDbEntity
  8
1
  6
Continuous
 62
     7
100
AcDbCircle
 10
73.82563212327517
 20
-694.9753877993571
 30
0.0
 40
4.499999999999407
100
AcDbArc
 50
23.62062979159357
 51
36.37937020845761
  0
ARC
  5
56B
330
62
100
AcDbEntity
  8
1
  6
Continuous
 62
     7
100
AcDbCircle
 10
73.82563212327517
 20
-694.9753877993571
 30
0.0
 40
4.500000000001283
100
AcDbArc
 50
113.6206297915326
 51
126.3793702084301
  0
ARC
  5
56C
330
62
100
AcDbEntity
  8
1
  6
Continuous
 62
     7
100
AcDbCircle
 10
73.82563212327517
 20
-694.9753877993571
 30
0.0
 40
4.500000000001283
100
AcDbArc
 50
-156.3793702084674
 51
-143.6206297916072
  0
ARC
  5
56D
330
62
100
AcDbEntity
  8
1
  6
Continuous
 62
     7
100
AcDbCircle
 10
73.82563212327517
 20
-694.9753877993571
 30
0.0
 40
4.499999999997949
100
AcDbArc
 50
-66.37937020844888
 51
-53.6206297915424
  0
CIRCLE
  5
56E
330
62
100
AcDbEntity
  8
0
  6
Continuous
 62
     7
100
AcDbCircle
 10
87.30578539803759
 20
-601.9469756464496
 30
0.0
 40
6.899999999996075
  0
CIRCLE
  5
56F
330
62
100
AcDbEntity
  8
1
  6
Continuous
 62
     7
100
AcDbCircle
 10
87.30578539803759
 20
-601.9469756464568
 30
0.0
 40
5.5
  0
CIRCLE
  5
570
330
62
100
AcDbEntity
  8
1
  6
Continuous
 62
     7
100
AcDbCircle
 10
13.48089383728659
 20
-543.7586143871595
 30
0.0
 40
5.500000000002224
  0
CIRCLE
  5
571
330
62
100
AcDbEntity
  8
0
  6
Continuous
 62
     7
100
AcDbCircle
 10
13.48089383727932
 20
-543.7586143871522
 30
0.0
 40
6.899999999995895
  0
CIRCLE
  5
572
330
62
100
AcDbEntity
  8
1
  6
Continuous
 62
     7
100
AcDbCircle
 10
-73.82415099823044
 20
-578.5986652807514
 30
0.0
 40
5.499999999999073
  0
CIRCLE
  5
573
330
62
100
AcDbEntity
  8
0
  6
Continuous
 62
     7
100
AcDbCircle
 10
-73.82415099823771
 20
-578.5986652807551
 30
0.0
 40
6.899999999995087
  0
CIRCLE
  5
574
330
62
100
AcDbEntity
  8
1
  6
Continuous
 62
     7
100
AcDbCircle
 10
-87.30430427299649
 20
-671.6270774336444
 30
0.0
 40
5.5
  0
CIRCLE
  5
575
330
62
100
AcDbEntity
  8
0
  6
Continuous
 62
     7
100
AcDbCircle
 10
-87.30430427299649
 20
-671.6270774336517
 30
0.0
 40
6.899999999996075
  0
CIRCLE
  5
576
330
62
100
AcDbEntity
  8
1
  6
Continuous
 62
     7
100
AcDbCircle
 10
-13.47941271224187
 20
-729.8154386929455
 30
0.0
 40
5.500000000002224
  0
CIRCLE
  5
577
330
62
100
AcDbEntity
  8
0
  6
Continuous
 62
     7
100
AcDbCircle
 10
-13.47941271223824
 20
-729.8154386929491
 30
0.0
 40
6.899999999995373
  0
CIRCLE
  5
578
330
62
100
AcDbEntity
  8
1
  6
Continuous
 62
     7
100
AcDbCircle
 10
73.82563212327517
 20
-694.9753877993571
 30
0.0
 40
5.499999999999073
  0
CIRCLE
  5
579
330
62
100
AcDbEntity
  8
0
  6
Continuous
 62
     7
100
AcDbCircle
 10
73.82563212328245
 20
-694.9753877993498
 30
0.0
 40
6.899999999997339
  0
CIRCLE
  5
57A
330
62
100
AcDbEntity
  8
1
  6
Continuous
 62
     7
100
AcDbCircle
 10
0.00074056252054
 20
-636.7870265400525
 30
0.0
 40
177.0000000000001
  0
ENDBLK
  5
64
330
62
100
AcDbEntity
  8
0
100
AcDbBlockEnd
  0
BLOCK
  5
583
330
57B
100
AcDbEntity
  8
0
100
AcDbBlockBegin
  2
*D8
 70
     1
 71
     0
 10
0.0
 20
0.0
 30
0.0
  3
*D8
  1

  0
LINE
  5
57C
330
57B
100
AcDbEntity
  8
1
  6
Continuous
 62
     4
100
AcDbLine
 10
-79.99920598553831
 20
-417.4013710477904
 30
0.0
 11
80.00079401416
 21
-417.4011513056842
 31
0.0
  0
LINE
  5
57D
330
57B
100
AcDbEntity
  8
1
  6
Continuous
 62
     4
100
AcDbLine
 10
80.00074701480219
 20
-383.1796842514473
 30
0.0
 11
80.00079676093628
 21
-419.4011513056823
 31
0.0
  0
LINE
  5
57E
330
57B
100
AcDbEntity
  8
1
  6
Continuous
 62
     4
100
AcDbLine
 10
-79.99925298519787
 20
-383.1796842514473
 30
0.0
 11
-79.99920323876194
 21
-419.4013710477885
 31
0.0
  0
SOLID
  5
57F
330
57B
100
AcDbEntity
  8
1
 62
     4
100
AcDbTrace
 10
-65.99920851689126
 20
-415.5582168541344
 30
0.0
 11
-65.99920345421178
 21
-419.244486786578
 31
0.0
 12
-79.99920598553831
 22
-417.4013710477904
 32
0.0
 13
-79.99920598553831
 23
-417.4013710477904
 33
0.0
  0
SOLID
  5
580
330
57B
100
AcDbEntity
  8
1
 62
     4
100
AcDbTrace
 10
66.00079654551294
 20
-419.2443054993402
 30
0.0
 11
66.00079148283346
 21
-415.5580355668966
 31
0.0
 12
80.00079401416
 22
-417.4011513056842
 32
0.0
 13
80.00079401416
 23
-417.4011513056842
 33
0.0
  0
MTEXT
  5
582
330
57B
100
AcDbEntity
  8
1
 62
     1
100
AcDbMText
 10
-22.06563728086313
 20
-415.4013156061293
 30
0.0
 40
14.0
 41
0.0
 71
     7
 72
     1
  1
\C1;DN\C1;160
  7
CONVERTER_11
 11
0.9999999999970619
 21
2.424068405545306E-6
 31
0.0
 73
     1
 44
0.60024009603842
  0
ENDBLK
  5
584
330
57B
100
AcDbEntity
  8
0
100
AcDbBlockEnd
  0
BLOCK
  5
58F
330
587
100
AcDbEntity
  8
0
100
AcDbBlockBegin
  2
*D9
 70
     1
 71
     0
 10
0.0
 20
0.0
 30
0.0
  3
*D9
  1

  0
LINE
  5
588
330
587
100
AcDbEntity
  8
1
  6
Continuous
 62
     4
100
AcDbLine
 10
70.00226956747119
 20
-73.72944482251918
 30
0.0
 11
-69.9977304469484
 21
-73.72729118871645
 31
0.0
  0
LINE
  5
589
330
587
100
AcDbEntity
  8
1
  6
Continuous
 62
     4
100
AcDbLine
 10
-69.9977304469484
 20
-73.72729118871645
 30
0.0
 11
-121.153778200135
 21
-73.72650425019042
 31
0.0
  0
LINE
  5
58A
330
587
100
AcDbEntity
  8
1
  6
Continuous
 62
     4
100
AcDbLine
 10
-69.99735058377215
 20
-49.0337501534225
 30
0.0
 11
-69.9977612131456
 21
-75.72729118847981
 31
0.0
  0
LINE
  5
58B
330
587
100
AcDbEntity
  8
1
  6
Continuous
 62
     4
100
AcDbLine
 10
70.00264941622791
 20
-49.03684115342247
 30
0.0
 11
70.0022388012741
 21
-75.72944482228255
 31
0.0
  0
SOLID
  5
58C
330
587
100
AcDbEntity
  8
1
 62
     4
100
AcDbTrace
 10
58.00224526621083
 20
-75.30909019619799
 30
0.0
 11
58.00229387157122
 21
-72.14943025447434
 31
0.0
 12
70.00226956747119
 22
-73.72944482251918
 32
0.0
 13
70.00226956747119
 23
-73.72944482251918
 33
0.0
  0
SOLID
  5
58D
330
587
100
AcDbEntity
  8
1
 62
     4
100
AcDbTrace
 10
-57.99770614568804
 20
-72.14764581503765
 30
0.0
 11
-57.99775475104843
 21
-75.3073057567613
 31
0.0
 12
-69.9977304469484
 22
-73.72729118871645
 32
0.0
 13
-69.9977304469484
 23
-73.72729118871645
 33
0.0
  0
MTEXT
  5
58E
330
587
100
AcDbEntity
  8
1
 62
     1
100
AcDbMText
 10
-126.4337474333131
 20
-71.7264230276665
 30
0.0
 40
12.0
 41
0.0
 71
     7
 72
     1
  1
\C1;\U+00d8\C1;140
  7
CONVERTER_11
 11
0.9999999998816803
 21
-1.538309858755681E-5
 31
0.0
 73
     1
 44
0.60024009603842
  0
ENDBLK
  5
590
330
587
100
AcDbEntity
  8
0
100
AcDbBlockEnd
  0
BLOCK
  5
59A
330
593
100
AcDbEntity
  8
0
100
AcDbBlockBegin
  2
*D10
 70
     1
 71
     0
 10
0.0
 20
0.0
 30
0.0
  3
*D10
  1

  0
LINE
  5
594
330
593
100
AcDbEntity
  8
1
  6
Continuous
 62
     4
100
AcDbLine
 10
177.005207856097
 20
99.46119880644643
 30
0.0
 11
-176.9947845634653
 21
99.4666444232305
 31
0.0
  0
LINE
  5
595
330
593
100
AcDbEntity
  8
1
  6
Continuous
 62
     4
100
AcDbLine
 10
-176.9964235837722
 20
-7.08018015342249
 30
0.0
 11
-176.9947537972681
 21
101.4666444229938
 31
0.0
  0
LINE
  5
596
330
593
100
AcDbEntity
  8
1
  6
Continuous
 62
     4
100
AcDbLine
 10
177.0035534162279
 20
-8.08799615342249
 30
0.0
 11
177.0052386222943
 21
101.4611988062098
 31
0.0
  0
SOLID
  5
597
330
593
100
AcDbEntity
  8
1
 62
     4
100
AcDbTrace
 10
165.0051835548367
 20
97.88155343276763
 30
0.0
 11
165.0052321601971
 21
101.0412133744913
 31
0.0
 12
177.005207856097
 22
99.46119880644643
 32
0.0
 13
177.005207856097
 23
99.46119880644643
 33
0.0
  0
SOLID
  5
598
330
593
100
AcDbEntity
  8
1
 62
     4
100
AcDbTrace
 10
-164.9947602622049
 20
101.0462897969093
 30
0.0
 11
-164.9948088675653
 21
97.88662985518566
 31
0.0
 12
-176.9947845634653
 22
99.4666444232305
 32
0.0
 13
-176.9947845634653
 23
99.4666444232305
 33
0.0
  0
MTEXT
  5
599
330
593
100
AcDbEntity
  8
1
 62
     1
100
AcDbMText
 10
-27.04992744369906
 20
101.4643378069471
 30
0.0
 40
12.0
 41
0.0
 71
     7
 72
     1
  1
\C1;\U+00d8\C1;354
  7
CONVERTER_11
 11
0.9999999998816803
 21
-1.538309858768057E-5
 31
0.0
 73
     1
 44
0.60024009603842
  0
ENDBLK
  5
59B
330
593
100
AcDbEntity
  8
0
100
AcDbBlockEnd
  0
BLOCK
  5
5A5
330
59E
100
AcDbEntity
  8
0
100
AcDbBlockBegin
  2
*D11
 70
     1
 71
     0
 10
0.0
 20
0.0
 30
0.0
  3
*D11
  1

  0
LINE
  5
59F
330
59E
100
AcDbEntity
  8
1
  6
Continuous
 62
     4
100
AcDbLine
 10
110.9530440174411
 20
-350.086537974883
 30
0.0
 11
110.9582564006863
 21
-114.0846497775239
 31
0.0
  0
LINE
  5
5A0
330
59E
100
AcDbEntity
  8
1
  6
Continuous
 62
     4
100
AcDbLine
 10
78.82849541622795
 20
-114.0839401534225
 30
0.0
 11
112.9582564001985
 21
-114.0846939499098
 31
0.0
  0
LINE
  5
5A1
330
59E
100
AcDbEntity
  8
1
  6
Continuous
 62
     4
100
AcDbLine
 10
61.15625641622797
 20
-350.0854381534226
 30
0.0
 11
112.9530440169533
 21
-350.0865821472689
 31
0.0
  0
SOLID
  5
5A2
330
59E
100
AcDbEntity
  8
1
 62
     4
100
AcDbTrace
 10
109.1102182583687
 20
-336.0864972704631
 30
0.0
 11
112.7964881899167
 21
-336.0865786861322
 31
0.0
 12
110.9530440174411
 22
-350.086537974883
 32
0.0
 13
110.9530440174411
 23
-350.086537974883
 33
0.0
  0
SOLID
  5
5A3
330
59E
100
AcDbEntity
  8
1
 62
     4
100
AcDbTrace
 10
112.8010821597587
 20
-128.0846904819439
 30
0.0
 11
109.1148122282107
 21
-128.0846090662748
 31
0.0
 12
110.9582564006863
 22
-114.0846497775239
 32
0.0
 13
110.9582564006863
 23
-114.0846497775239
 33
0.0
  0
MTEXT
  5
5A4
330
59E
100
AcDbEntity
  8
1
 62
     1
100
AcDbMText
 10
108.9553584431127
 20
-245.2959042058555
 30
0.0
 40
14.0
 41
0.0
 71
     7
 72
     1
  1
236
  7
CONVERTER_11
 11
2.208619296965898E-5
 21
0.9999999997561
 31
0.0
 73
     1
 44
0.60024009603842
  0
ENDBLK
  5
5A6
330
59E
100
AcDbEntity
  8
0
100
AcDbBlockEnd
  0
BLOCK
  5
5B0
330
5A9
100
AcDbEntity
  8
0
100
AcDbBlockBegin
  2
*D12
 70
     1
 71
     0
 10
0.0
 20
0.0
 30
0.0
  3
*D12
  1

  0
LINE
  5
5AA
330
5A9
100
AcDbEntity
  8
1
  6
Continuous
 62
     4
100
AcDbLine
 10
184.9926708874868
 20
-350.0881732283698
 30
0.0
 11
185.0004029975611
 21
-0.00022086192979
 31
0.0
  0
LINE
  5
5AB
330
5A9
100
AcDbEntity
  8
1
  6
Continuous
 62
     4
100
AcDbLine
 10
175.0004030000001
 20
0.0
 30
0.0
 11
187.0004029970733
 21
-0.0002650343157
 31
0.0
  0
LINE
  5
5AC
330
5A9
100
AcDbEntity
  8
1
  6
Continuous
 62
     4
100
AcDbLine
 10
61.1562564162279
 20
-350.0854381534225
 30
0.0
 11
186.992670886999
 21
-350.0882174007557
 31
0.0
  0
SOLID
  5
5AD
330
5A9
100
AcDbEntity
  8
1
 62
     4
100
AcDbTrace
 10
183.1498451284142
 20
-336.0881325239499
 30
0.0
 11
186.8361150599622
 21
-336.0882139396189
 31
0.0
 12
184.9926708874868
 22
-350.0881732283698
 32
0.0
 13
184.9926708874868
 23
-350.0881732283698
 33
0.0
  0
SOLID
  5
5AE
330
5A9
100
AcDbEntity
  8
1
 62
     4
100
AcDbTrace
 10
186.8432287566337
 20
-14.0002615663497
 30
0.0
 11
183.1569588250857
 21
-14.00018015068068
 31
0.0
 12
185.0004029975611
 22
-0.00022086192979
 32
0.0
 13
185.0004029975611
 23
-0.00022086192979
 33
0.0
  0
MTEXT
  5
5AF
330
5A9
100
AcDbEntity
  8
1
 62
     1
100
AcDbMText
 10
182.9960270632164
 20
-198.1300597949158
 30
0.0
 40
14.0
 41
0.0
 71
     7
 72
     1
  1
350
  7
CONVERTER_11
 11
2.208619296965898E-5
 21
0.9999999997561
 31
0.0
 73
     1
 44
0.60024009603842
  0
ENDBLK
  5
5B1
330
5A9
100
AcDbEntity
  8
0
100
AcDbBlockEnd
  0
BLOCK
  5
5BB
330
5B4
100
AcDbEntity
  8
0
100
AcDbBlockBegin
  2
*D13
 70
     1
 71
     0
 10
0.0
 20
0.0
 30
0.0
  3
*D13
  1

  0
LINE
  5
5B5
330
5B4
100
AcDbEntity
  8
1
  6
Continuous
 62
     4
100
AcDbLine
 10
144.0796592119391
 20
-350.0872696156988
 30
0.0
 11
144.0863082336631
 21
-49.03847721141182
 31
0.0
  0
LINE
  5
5B6
330
5B4
100
AcDbEntity
  8
1
  6
Continuous
 62
     4
100
AcDbLine
 10
77.752649416228
 20
-49.03701215342252
 30
0.0
 11
146.0863082331753
 21
-49.0385213837977
 31
0.0
  0
LINE
  5
5B7
330
5B4
100
AcDbEntity
  8
1
  6
Continuous
 62
     4
100
AcDbLine
 10
61.15625641622796
 20
-350.0854381534225
 30
0.0
 11
146.0796592114514
 21
-350.0873137880847
 31
0.0
  0
SOLID
  5
5B8
330
5B4
100
AcDbEntity
  8
1
 62
     4
100
AcDbTrace
 10
142.2368334528665
 20
-336.0872289112789
 30
0.0
 11
145.9231033844145
 21
-336.0873103269479
 31
0.0
 12
144.0796592119391
 22
-350.0872696156988
 32
0.0
 13
144.0796592119391
 23
-350.0872696156988
 33
0.0
  0
SOLID
  5
5B9
330
5B4
100
AcDbEntity
  8
1
 62
     4
100
AcDbTrace
 10
145.9291339927357
 20
-63.03851791583173
 30
0.0
 11
142.2428640611877
 21
-63.03843650016271
 31
0.0
 12
144.0863082336631
 22
-49.03847721141182
 32
0.0
 13
144.0863082336631
 23
-49.03847721141182
 33
0.0
  0
MTEXT
  5
5BA
330
5B4
100
AcDbEntity
  8
1
 62
     1
100
AcDbMText
 10
142.0826471673469
 20
-214.8011250550286
 30
0.0
 40
14.0
 41
0.0
 71
     7
 72
     1
  1
301
  7
CONVERTER_11
 11
2.208619296988103E-5
 21
0.9999999997561
 31
0.0
 73
     1
 44
0.60024009603842
  0
ENDBLK
  5
5BC
330
5B4
100
AcDbEntity
  8
0
100
AcDbBlockEnd
  0
ENDSEC
  0
SECTION
  2
ENTITIES
  0
INSERT
  5
65
330
1F
100
AcDbEntity
  8
0
100
AcDbBlockReference
  2
Bauschutz_062_9E
 10
-646.5967991262041
 20
-316.6085973536137
 30
0.0
  0
INSERT
  5
66
330
1F
100
AcDbEntity
  8
0
100
AcDbBlockReference
  2
HL_69_5_Renovierungs-Dachablauf__2
 10
0.00340451068791
 20
-3.08408815342245
 30
0.0
  0
INSERT
  5
67
330
1F
100
AcDbEntity
  8
1
100
AcDbBlockReference
  2
062_1E_Laubfangkorb
 10
-867.5838060576368
 20
654.5262580000001
 30
0.0
  0
INSERT
  5
68
330
1F
100
AcDbEntity
  8
1
100
AcDbBlockReference
  2
PVC_Manschette
 10
-177.00061890554
 20
-26.0
 30
0.0
  0
INSERT
  5
69
330
1F
100
AcDbEntity
  8
0
100
AcDbBlockReference
  2
Draufsicht
 10
-186.1489577629123
 20
-888.7870265400525
 30
0.0
  0
DIMENSION
  5
586
330
1F
100
AcDbEntity
  8
1
100
AcDbDimension
  2
*D8
 10
-79.99920598553831
 20
-417.4013710477904
 30
0.0
 11
0.19435310535292
 21
-408.401260910897
 31
0.0
 70
    32
  1
<>
 71
     5
 42
-1.0
 53
0.00013888888889
  3
ME10_DIM_10
100
AcDbAlignedDimension
 13
80.00074701480207
 23
-383.1796842514473
 33
0.0
 14
-79.99925298519793
 24
-383.1796842514473
 34
0.0
 50
0.00007868934543
100
AcDbRotatedDimension
  0
DIMENSION
  5
592
330
1F
100
AcDbEntity
  8
1
100
AcDbDimension
  2
*D9
 10
70.00226956747119
 20
-73.72944482251918
 30
0.0
 11
-101.353655137689
 21
-65.726808836489
 31
0.0
 70
    32
  1
<>
 71
     5
 42
-1.0
 53
-0.00088138662494
  3
ME10_DIM_11
100
AcDbAlignedDimension
 13
-69.99735058377212
 23
-49.0337501534225
 33
0.0
 14
70.00264941622788
 24
-49.03684115342247
 34
0.0
 50
-0.00088138662494
100
AcDbRotatedDimension
  0
DIMENSION
  5
59D
330
1F
100
AcDbEntity
  8
1
100
AcDbDimension
  2
*D10
 10
177.005207856097
 20
99.46119880644643
 30
0.0
 11
-0.16983514828797
 21
107.4639243085471
 31
0.0
 70
    32
  1
<>
 71
     5
 42
-1.0
 53
-0.00088138662494
  3
ME10_DIM_12
100
AcDbAlignedDimension
 13
-176.9964235837722
 23
-7.08018015342248
 33
0.0
 14
177.0035534162279
 24
-8.08799615342247
 34
0.0
 50
-0.00088138662494
100
AcDbRotatedDimension
  0
DIMENSION
  5
5A8
330
1F
100
AcDbEntity
  8
1
100
AcDbDimension
  2
*D11
 10
110.9530440174411
 20
-350.086537974883
 30
0.0
 11
101.9557294928619
 21
-228.4957496066022
 31
0.0
 70
    32
  1
<>
 71
     5
 42
-1.0
 53
89.99873455435726
  3
ME10_DIM_13
100
AcDbAlignedDimension
 13
78.82849541622784
 23
-114.0839401534225
 33
0.0
 14
61.15625641622785
 24
-350.0854381534224
 34
0.0
 50
89.99873455435726
100
AcDbRotatedDimension
  0
DIMENSION
  5
5B3
330
1F
100
AcDbEntity
  8
1
100
AcDbDimension
  2
*D12
 10
184.9926708874868
 20
-350.0881732283698
 30
0.0
 11
175.9963981129656
 21
-181.3299051956625
 31
0.0
 70
    32
  1
<>
 71
     5
 42
-1.0
 53
89.99873455435726
  3
ME10_DIM_14
100
AcDbAlignedDimension
 13
175.000403
 23
0.0
 33
0.0
 14
61.15625641622785
 24
-350.0854381534224
 34
0.0
 50
89.99873455435726
100
AcDbRotatedDimension
  0
DIMENSION
  5
5BE
330
1F
100
AcDbEntity
  8
1
100
AcDbDimension
  2
*D13
 10
144.0796592119391
 20
-350.0872696156988
 30
0.0
 11
135.0829718360909
 21
-200.1009704552631
 31
0.0
 70
    32
  1
301
 71
     5
 42
-1.0
 53
89.99873455435726
  3
ME10_DIM_15
100
AcDbAlignedDimension
 13
77.75264941622788
 23
-49.03701215342245
 33
0.0
 14
61.15625641622785
 24
-350.0854381534224
 34
0.0
 50
89.99873455435726
100
AcDbRotatedDimension
  0
ENDSEC
  0
SECTION
  2
OBJECTS
  0
DICTIONARY
  5
C
330
0
100
AcDbDictionary
281
     1
  3
ACAD_GROUP
350
D
  3
ACAD_LAYOUT
350
1A
  3
ACAD_MLINESTYLE
350
17
  3
ACAD_PLOTSETTINGS
350
19
  3
ACAD_PLOTSTYLENAME
350
E
  3
ACAD_TABLESTYLE
350
5BF
  3
ACAD_VISUALSTYLE
350
2A
  0
DICTIONARY
  5
D
102
{ACAD_REACTORS
330
C
102
}
330
C
100
AcDbDictionary
281
     1
  0
DICTIONARY
  5
1A
102
{ACAD_REACTORS
330
C
102
}
330
C
100
AcDbDictionary
281
     1
  3
Layout1
350
1E
  3
Layout2
350
26
  3
Model
350
22
  0
DICTIONARY
  5
17
102
{ACAD_REACTORS
330
C
102
}
330
C
100
AcDbDictionary
281
     1
  3
Standard
350
18
  0
DICTIONARY
  5
19
102
{ACAD_REACTORS
330
C
102
}
330
C
100
AcDbDictionary
281
     1
  0
ACDBDICTIONARYWDFLT
  5
E
102
{ACAD_REACTORS
330
C
102
}
330
C
100
AcDbDictionary
281
     1
  3
Normal
350
F
100
AcDbDictionaryWithDefault
340
F
  0
DICTIONARY
  5
5BF
102
{ACAD_REACTORS
330
C
102
}
330
C
100
AcDbDictionary
281
     1
  0
DICTIONARY
  5
2A
102
{ACAD_REACTORS
330
C
102
}
330
C
100
AcDbDictionary
281
     1
  3
2dWireframe
350
2F
  3
3D Hidden
350
31
  3
3dWireframe
350
30
  3
Basic
350
32
  3
Brighten
350
36
  3
ColorChange
350
3A
  3
Conceptual
350
34
  3
Dim
350
35
  3
Facepattern
350
39
  3
Flat
350
2B
  3
FlatWithEdges
350
2C
  3
Gouraud
350
2D
  3
GouraudWithEdges
350
2E
  3
Linepattern
350
38
  3
Realistic
350
33
  3
Thicken
350
37
  0
LAYOUT
  5
1E
102
{ACAD_REACTORS
330
1A
102
}
330
1A
100
AcDbPlotSettings
  1

  2
none_device
  4

  6

 40
0.0
 41
0.0
 42
0.0
 43
0.0
 44
0.0
 45
0.0
 46
0.0
 47
0.0
 48
0.0
 49
0.0
140
0.0
141
0.0
142
1.0
143
1.0
 70
   688
 72
     0
 73
     0
 74
     5
  7

 75
    16
147
1.0
148
0.0
149
0.0
100
AcDbLayout
  1
Layout1
 70
     1
 71
     1
 10
0.0
 20
0.0
 11
12.0
 21
9.0
 12
0.0
 22
0.0
 32
0.0
 14
1.00000000000000E+20
 24
1.00000000000000E+20
 34
1.00000000000000E+20
 15
-1.00000000000000E+20
 25
-1.00000000000000E+20
 35
-1.00000000000000E+20
146
0.0
 13
0.0
 23
0.0
 33
0.0
 16
1.0
 26
0.0
 36
0.0
 17
0.0
 27
1.0
 37
0.0
 76
     0
330
1B
  0
LAYOUT
  5
26
102
{ACAD_REACTORS
330
1A
102
}
330
1A
100
AcDbPlotSettings
  1

  2
none_device
  4

  6

 40
0.0
 41
0.0
 42
0.0
 43
0.0
 44
0.0
 45
0.0
 46
0.0
 47
0.0
 48
0.0
 49
0.0
140
0.0
141
0.0
142
1.0
143
1.0
 70
   688
 72
     0
 73
     0
 74
     5
  7

 75
    16
147
1.0
148
0.0
149
0.0
100
AcDbLayout
  1
Layout2
 70
     1
 71
     2
 10
0.0
 20
0.0
 11
0.0
 21
0.0
 12
0.0
 22
0.0
 32
0.0
 14
0.0
 24
0.0
 34
0.0
 15
0.0
 25
0.0
 35
0.0
146
0.0
 13
0.0
 23
0.0
 33
0.0
 16
1.0
 26
0.0
 36
0.0
 17
0.0
 27
1.0
 37
0.0
 76
     0
330
23
  0
LAYOUT
  5
22
102
{ACAD_REACTORS
330
1A
102
}
330
1A
100
AcDbPlotSettings
  1

  2
none_device
  4

  6

 40
0.0
 41
0.0
 42
0.0
 43
0.0
 44
0.0
 45
0.0
 46
0.0
 47
0.0
 48
0.0
 49
0.0
140
0.0
141
0.0
142
1.0
143
1.0
 70
  1712
 72
     0
 73
     0
 74
     0
  7

 75
     0
147
1.0
148
0.0
149
0.0
100
AcDbLayout
  1
Model
 70
     1
 71
     0
 10
0.0
 20
0.0
 11
12.0
 21
9.0
 12
0.0
 22
0.0
 32
0.0
 14
-177.000403
 24
-813.7870265400525
 34
0.0
 15
187.0004029970733
 25
158.3856657210126
 35
0.0
146
0.0
 13
0.0
 23
0.0
 33
0.0
 16
1.0
 26
0.0
 36
0.0
 17
0.0
 27
1.0
 37
0.0
 76
     0
330
1F
331
29
  0
MLINESTYLE
  5
18
102
{ACAD_REACTORS
330
17
102
}
330
17
100
AcDbMlineStyle
  2
Standard
 70
     0
  3

 62
   256
 51
90.0
 52
90.0
 71
     2
 49
0.5
 62
   256
  6
BYLAYER
 49
-0.5
 62
   256
  6
BYLAYER
  0
ACDBPLACEHOLDER
  5
F
102
{ACAD_REACTORS
330
E
102
}
330
E
  0
VISUALSTYLE
  5
2F
102
{ACAD_REACTORS
330
2A
102
}
330
2A
100
AcDbVisualStyle
  2
2dWireframe
 70
     4
 71
     0
 72
     2
 73
     0
 90
        0
 40
-0.6
 41
-30.0
 62
     5
 63
     7
 74
     1
 91
        4
 64
     7
 65
   257
 75
     1
175
     1
 42
1.0
 92
        0
 66
   257
 43
1.0
 76
     1
 77
     6
 78
     2
 67
     7
 79
     5
170
     0
171
     0
290
     0
174
     0
 93
        1
 44
0.0
173
     0
291
     0
 45
0.0
1001
ACAD
1000
AcDbSavedByObjectVersion
1070
     0
  0
VISUALSTYLE
  5
31
102
{ACAD_REACTORS
330
2A
102
}
330
2A
100
AcDbVisualStyle
  2
3D Hidden
 70
     6
 71
     1
 72
     2
 73
     2
 90
        0
 40
-0.6
 41
-30.0
 62
     5
 63
     7
 74
     2
 91
        2
 64
     7
 65
   257
 75
     2
175
     1
 42
40.0
 92
        0
 66
   257
 43
1.0
 76
     1
 77
     6
 78
     2
 67
     7
 79
     3
170
     0
171
     0
290
     0
174
     0
 93
        1
 44
0.0
173
     0
291
     0
 45
0.0
1001
ACAD
1000
AcDbSavedByObjectVersion
1070
     0
  0
VISUALSTYLE
  5
30
102
{ACAD_REACTORS
330
2A
102
}
330
2A
100
AcDbVisualStyle
  2
3dWireframe
 70
     5
 71
     0
 72
     2
 73
     0
 90
        0
 40
-0.6
 41
-30.0
 62
     5
 63
     7
 74
     1
 91
        4
 64
     7
 65
   257
 75
     1
175
     1
 42
1.0
 92
        0
 66
   257
 43
1.0
 76
     1
 77
     6
 78
     2
 67
     7
 79
     5
170
     0
171
     0
290
     0
174
     0
 93
        1
 44
0.0
173
     0
291
     0
 45
0.0
1001
ACAD
1000
AcDbSavedByObjectVersion
1070
     0
  0
VISUALSTYLE
  5
32
102
{ACAD_REACTORS
330
2A
102
}
330
2A
100
AcDbVisualStyle
  2
Basic
 70
     7
 71
     1
 72
     0
 73
     1
 90
        0
 40
-0.6
 41
-30.0
 62
     5
 63
     7
 74
     0
 91
        4
 64
     7
 65
   257
 75
     1
175
     1
 42
1.0
 92
        8
 66
     7
 43
1.0
 76
     1
 77
     6
 78
     2
 67
     7
 79
     5
170
     0
171
     0
290
     0
174
     0
 93
        1
 44
0.0
173
     0
291
     1
 45
0.0
1001
ACAD
1000
AcDbSavedByObjectVersion
1070
     0
  0
VISUALSTYLE
  5
36
102
{ACAD_REACTORS
330
2A
102
}
330
2A
100
AcDbVisualStyle
  2
Brighten
 70
    12
 71
     2
 72
     2
 73
     0
 90
        0
 40
-0.6
 41
-30.0
 62
     5
 63
     7
 74
     1
 91
        4
 64
     7
 65
   257
 75
     1
175
     1
 42
1.0
 92
        8
 66
     7
 43
1.0
 76
     1
 77
     6
 78
     2
 67
     7
 79
     5
170
     0
171
     0
290
     0
174
     0
 93
        1
 44
50.0
173
     0
291
     1
 45
0.0
1001
ACAD
1000
AcDbSavedByObjectVersion
1070
     0
  0
VISUALSTYLE
  5
3A
102
{ACAD_REACTORS
330
2A
102
}
330
2A
100
AcDbVisualStyle
  2
ColorChange
 70
    16
 71
     2
 72
     2
 73
     3
 90
        0
 40
-0.6
 41
-30.0
 62
     5
 63
     8
 74
     1
 91
        4
 64
     7
 65
   257
 75
     1
175
     1
 42
1.0
 92
        8
 66
     8
 43
1.0
 76
     1
 77
     6
 78
     2
 67
     7
 79
     5
170
     0
171
     0
290
     0
174
     0
 93
        1
 44
0.0
173
     0
291
     1
 45
0.0
1001
ACAD
1000
AcDbSavedByObjectVersion
1070
     0
  0
VISUALSTYLE
  5
34
102
{ACAD_REACTORS
330
2A
102
}
330
2A
100
AcDbVisualStyle
  2
Conceptual
 70
     9
 71
     3
 72
     2
 73
     0
 90
        0
 40
-0.6
 41
-30.0
 62
     5
 63
     7
 74
     2
 91
        2
 64
     7
 65
   257
 75
     1
175
     1
 42
40.0
 92
        8
 66
     7
 43
1.0
 76
     1
 77
     6
 78
     2
 67
     7
 79
     3
170
     0
171
     0
290
     0
174
     0
 93
        1
 44
0.0
173
     0
291
     0
 45
0.0
1001
ACAD
1000
AcDbSavedByObjectVersion
1070
     0
  0
VISUALSTYLE
  5
35
102
{ACAD_REACTORS
330
2A
102
}
330
2A
100
AcDbVisualStyle
  2
Dim
 70
    11
 71
     2
 72
     2
 73
     0
 90
        0
 40
-0.6
 41
-30.0
 62
     5
 63
     7
 74
     1
 91
        4
 64
     7
 65
   257
 75
     1
175
     1
 42
1.0
 92
        8
 66
     7
 43
1.0
 76
     1
 77
     6
 78
     2
 67
     7
 79
     5
170
     0
171
     0
290
     0
174
     0
 93
        1
 44
-50.0
173
     0
291
     1
 45
0.0
1001
ACAD
1000
AcDbSavedByObjectVersion
1070
     0
  0
VISUALSTYLE
  5
39
102
{ACAD_REACTORS
330
2A
102
}
330
2A
100
AcDbVisualStyle
  2
Facepattern
 70
    15
 71
     2
 72
     2
 73
     0
 90
        0
 40
-0.6
 41
-30.0
 62
     5
 63
     7
 74
     1
 91
        4
 64
     7
 65
   257
 75
     1
175
     1
 42
1.0
 92
        8
 66
     7
 43
1.0
 76
     1
 77
     6
 78
     2
 67
     7
 79
     5
170
     0
171
     0
290
     0
174
     0
 93
        1
 44
0.0
173
     0
291
     1
 45
0.0
1001
ACAD
1000
AcDbSavedByObjectVersion
1070
     0
  0
VISUALSTYLE
  5
2B
102
{ACAD_REACTORS
330
2A
102
}
330
2A
100
AcDbVisualStyle
  2
Flat
 70
     0
 71
     2
 72
     1
 73
     1
 90
        2
 40
-0.6
 41
30.0
 62
     5
 63
     7
 74
     0
 91
        4
 64
     7
 65
   257
 75
     1
175
     1
 42
1.0
 92
        8
 66
     7
 43
1.0
 76
     1
 77
     6
 78
     2
 67
     7
 79
     5
170
     0
171
     0
290
     0
174
     0
 93
       13
 44
0.0
173
     0
291
     1
 45
0.0
1001
ACAD
1000
AcDbSavedByObjectVersion
1070
     0
  0
VISUALSTYLE
  5
2C
102
{ACAD_REACTORS
330
2A
102
}
330
2A
100
AcDbVisualStyle
  2
FlatWithEdges
 70
     1
 71
     2
 72
     1
 73
     1
 90
        2
 40
-0.6
 41
30.0
 62
     5
 63
     7
 74
     1
 91
        4
 64
     7
 65
   257
 75
     1
175
     1
 42
1.0
 92
        0
 66
   257
 43
1.0
 76
     1
 77
     6
 78
     2
 67
     7
 79
     5
170
     0
171
     0
290
     0
174
     0
 93
       13
 44
0.0
173
     0
291
     1
 45
0.0
1001
ACAD
1000
AcDbSavedByObjectVersion
1070
     0
  0
VISUALSTYLE
  5
2D
102
{ACAD_REACTORS
330
2A
102
}
330
2A
100
AcDbVisualStyle
  2
Gouraud
 70
     2
 71
     2
 72
     2
 73
     1
 90
        2
 40
-0.6
 41
30.0
 62
     5
 63
     7
 74
     0
 91
        4
 64
     7
 65
   257
 75
     1
175
     1
 42
1.0
 92
        0
 66
     7
 43
1.0
 76
     1
 77
     6
 78
     2
 67
     7
 79
     5
170
     0
171
     0
290
     0
174
     0
 93
       13
 44
0.0
173
     0
291
     1
 45
0.0
1001
ACAD
1000
AcDbSavedByObjectVersion
1070
     0
  0
VISUALSTYLE
  5
2E
102
{ACAD_REACTORS
330
2A
102
}
330
2A
100
AcDbVisualStyle
  2
GouraudWithEdges
 70
     3
 71
     2
 72
     2
 73
     1
 90
        2
 40
-0.6
 41
30.0
 62
     5
 63
     7
 74
     1
 91
        4
 64
     7
 65
   257
 75
     1
175
     1
 42
1.0
 92
        0
 66
   257
 43
1.0
 76
     1
 77
     6
 78
     2
 67
     7
 79
     5
170
     0
171
     0
290
     0
174
     0
 93
       13
 44
0.0
173
     0
291
     1
 45
0.0
1001
ACAD
1000
AcDbSavedByObjectVersion
1070
     0
  0
VISUALSTYLE
  5
38
102
{ACAD_REACTORS
330
2A
102
}
330
2A
100
AcDbVisualStyle
  2
Linepattern
 70
    14
 71
     2
 72
     2
 73
     0
 90
        0
 40
-0.6
 41
-30.0
 62
     5
 63
     7
 74
     1
 91
        4
 64
     7
 65
   257
 75
     7
175
     7
 42
1.0
 92
        8
 66
     7
 43
1.0
 76
     1
 77
     6
 78
     2
 67
     7
 79
     5
170
     0
171
     0
290
     0
174
     0
 93
        1
 44
0.0
173
     0
291
     1
 45
0.0
1001
ACAD
1000
AcDbSavedByObjectVersion
1070
     0
  0
VISUALSTYLE
  5
33
102
{ACAD_REACTORS
330
2A
102
}
330
2A
100
AcDbVisualStyle
  2
Realistic
 70
     8
 71
     2
 72
     2
 73
     0
 90
        0
 40
-0.6
 41
-30.0
 62
     5
 63
     7
 74
     1
 91
        0
 64
     7
 65
   257
 75
     1
175
     1
 42
1.0
 92
        8
 66
     8
 43
1.0
 76
     1
 77
     6
 78
     2
 67
     7
 79
     5
170
     0
171
     0
290
     0
174
     0
 93
       13
 44
0.0
173
     0
291
     0
 45
0.0
1001
ACAD
1000
AcDbSavedByObjectVersion
1070
     0
  0
VISUALSTYLE
  5
37
102
{ACAD_REACTORS
330
2A
102
}
330
2A
100
AcDbVisualStyle
  2
Thicken
 70
    13
 71
     2
 72
     2
 73
     0
 90
        0
 40
-0.6
 41
-30.0
 62
     5
 63
     7
 74
     1
 91
        4
 64
     7
 65
   257
 75
     1
175
     1
 42
1.0
 92
       12
 66
     7
 43
1.0
 76
     1
 77
     6
 78
     2
 67
     7
 79
     5
170
     0
171
     0
290
     0
174
     0
 93
        1
 44
0.0
173
     0
291
     1
 45
0.0
1001
ACAD
1000
AcDbSavedByObjectVersion
1070
     0
  0
ENDSEC
  0
EOF
