  0
SECTION
  2
HEADER
  9
$ACADVER
  1
AC1015
  9
$ACADMAINTVER
 70
     6
  9
$DWGCODEPAGE
  3
ANSI_1252
  9
$INSBASE
 10
0.0
 20
0.0
 30
0.0
  9
$EXTMIN
 10
-177.0007347365104
 20
-821.6189009572881
 30
0.0
  9
$EXTMAX
 10
187.0000712634896
 20
159.0652007515746
 30
0.0
  9
$LIMMIN
 10
0.0
 20
0.0
  9
$LIMMAX
 10
12.0
 20
9.0
  9
$ORTHOMODE
 70
     0
  9
$REGENMODE
 70
     1
  9
$FILLMODE
 70
     1
  9
$QTEXTMODE
 70
     0
  9
$MIRRTEXT
 70
     1
  9
$LTSCALE
 40
1.0
  9
$ATTMODE
 70
     1
  9
$TEXTSIZE
 40
0.2
  9
$TRACEWID
 40
0.05
  9
$TEXTSTYLE
  7
Standard
  9
$CLAYER
  8
0
  9
$CELTYPE
  6
ByLayer
  9
$CECOLOR
 62
   256
  9
$CELTSCALE
 40
1.0
  9
$DISPSILH
 70
     0
  9
$DIMSCALE
 40
1.0
  9
$DIMASZ
 40
0.18
  9
$DIMEXO
 40
0.0625
  9
$DIMDLI
 40
0.38
  9
$DIMRND
 40
0.0
  9
$DIMDLE
 40
0.0
  9
$DIMEXE
 40
0.18
  9
$DIMTP
 40
0.0
  9
$DIMTM
 40
0.0
  9
$DIMTXT
 40
0.18
  9
$DIMCEN
 40
0.09
  9
$DIMTSZ
 40
0.0
  9
$DIMTOL
 70
     0
  9
$DIMLIM
 70
     0
  9
$DIMTIH
 70
     1
  9
$DIMTOH
 70
     1
  9
$DIMSE1
 70
     0
  9
$DIMSE2
 70
     0
  9
$DIMTAD
 70
     0
  9
$DIMZIN
 70
     0
  9
$DIMBLK
  1

  9
$DIMASO
 70
     1
  9
$DIMSHO
 70
     1
  9
$DIMPOST
  1

  9
$DIMAPOST
  1

  9
$DIMALT
 70
     0
  9
$DIMALTD
 70
     2
  9
$DIMALTF
 40
25.4
  9
$DIMLFAC
 40
1.0
  9
$DIMTOFL
 70
     0
  9
$DIMTVP
 40
0.0
  9
$DIMTIX
 70
     0
  9
$DIMSOXD
 70
     0
  9
$DIMSAH
 70
     0
  9
$DIMBLK1
  1

  9
$DIMBLK2
  1

  9
$DIMSTYLE
  2
Standard
  9
$DIMCLRD
 70
     0
  9
$DIMCLRE
 70
     0
  9
$DIMCLRT
 70
     0
  9
$DIMTFAC
 40
1.0
  9
$DIMGAP
 40
0.09
  9
$DIMJUST
 70
     0
  9
$DIMSD1
 70
     0
  9
$DIMSD2
 70
     0
  9
$DIMTOLJ
 70
     1
  9
$DIMTZIN
 70
     0
  9
$DIMALTZ
 70
     0
  9
$DIMALTTZ
 70
     0
  9
$DIMUPT
 70
     0
  9
$DIMDEC
 70
     4
  9
$DIMTDEC
 70
     4
  9
$DIMALTU
 70
     2
  9
$DIMALTTD
 70
     2
  9
$DIMTXSTY
  7
Standard
  9
$DIMAUNIT
 70
     0
  9
$DIMADEC
 70
     0
  9
$DIMALTRND
 40
0.0
  9
$DIMAZIN
 70
     0
  9
$DIMDSEP
 70
    46
  9
$DIMATFIT
 70
     3
  9
$DIMFRAC
 70
     0
  9
$DIMLDRBLK
  1

  9
$DIMLUNIT
 70
     2
  9
$DIMLWD
 70
    -2
  9
$DIMLWE
 70
    -2
  9
$DIMTMOVE
 70
     0
  9
$LUNITS
 70
     2
  9
$LUPREC
 70
     4
  9
$SKETCHINC
 40
0.1
  9
$FILLETRAD
 40
0.5
  9
$AUNITS
 70
     0
  9
$AUPREC
 70
     0
  9
$MENU
  1
.
  9
$ELEVATION
 40
0.0
  9
$PELEVATION
 40
0.0
  9
$THICKNESS
 40
0.0
  9
$LIMCHECK
 70
     0
  9
$CHAMFERA
 40
0.5
  9
$CHAMFERB
 40
0.5
  9
$CHAMFERC
 40
1.0
  9
$CHAMFERD
 40
0.0
  9
$SKPOLY
 70
     0
  9
$TDCREATE
 40
2454725.590150752
  9
$TDUCREATE
 40
2454725.506817419
  9
$TDUPDATE
 40
2454725.590150764
  9
$TDUUPDATE
 40
2454725.506817431
  9
$TDINDWG
 40
0.0000000116
  9
$TDUSRTIMER
 40
0.0000000116
  9
$USRTIMER
 70
     1
  9
$ANGBASE
 50
0.0
  9
$ANGDIR
 70
     0
  9
$PDMODE
 70
     0
  9
$PDSIZE
 40
0.0
  9
$PLINEWID
 40
0.0
  9
$SPLFRAME
 70
     0
  9
$SPLINETYPE
 70
     6
  9
$SPLINESEGS
 70
     8
  9
$HANDSEED
  5
5A8
  9
$SURFTAB1
 70
     6
  9
$SURFTAB2
 70
     6
  9
$SURFTYPE
 70
     6
  9
$SURFU
 70
     6
  9
$SURFV
 70
     6
  9
$UCSBASE
  2

  9
$UCSNAME
  2

  9
$UCSORG
 10
0.0
 20
0.0
 30
0.0
  9
$UCSXDIR
 10
1.0
 20
0.0
 30
0.0
  9
$UCSYDIR
 10
0.0
 20
1.0
 30
0.0
  9
$UCSORTHOREF
  2

  9
$UCSORTHOVIEW
 70
     0
  9
$UCSORGTOP
 10
0.0
 20
0.0
 30
0.0
  9
$UCSORGBOTTOM
 10
0.0
 20
0.0
 30
0.0
  9
$UCSORGLEFT
 10
0.0
 20
0.0
 30
0.0
  9
$UCSORGRIGHT
 10
0.0
 20
0.0
 30
0.0
  9
$UCSORGFRONT
 10
0.0
 20
0.0
 30
0.0
  9
$UCSORGBACK
 10
0.0
 20
0.0
 30
0.0
  9
$PUCSBASE
  2

  9
$PUCSNAME
  2

  9
$PUCSORG
 10
0.0
 20
0.0
 30
0.0
  9
$PUCSXDIR
 10
1.0
 20
0.0
 30
0.0
  9
$PUCSYDIR
 10
0.0
 20
1.0
 30
0.0
  9
$PUCSORTHOREF
  2

  9
$PUCSORTHOVIEW
 70
     0
  9
$PUCSORGTOP
 10
0.0
 20
0.0
 30
0.0
  9
$PUCSORGBOTTOM
 10
0.0
 20
0.0
 30
0.0
  9
$PUCSORGLEFT
 10
0.0
 20
0.0
 30
0.0
  9
$PUCSORGRIGHT
 10
0.0
 20
0.0
 30
0.0
  9
$PUCSORGFRONT
 10
0.0
 20
0.0
 30
0.0
  9
$PUCSORGBACK
 10
0.0
 20
0.0
 30
0.0
  9
$USERI1
 70
     0
  9
$USERI2
 70
     0
  9
$USERI3
 70
     0
  9
$USERI4
 70
     0
  9
$USERI5
 70
     0
  9
$USERR1
 40
15.5
  9
$USERR2
 40
0.0
  9
$USERR3
 40
0.0
  9
$USERR4
 40
0.0
  9
$USERR5
 40
0.0
  9
$WORLDVIEW
 70
     1
  9
$SHADEDGE
 70
     3
  9
$SHADEDIF
 70
    70
  9
$TILEMODE
 70
     1
  9
$MAXACTVP
 70
    64
  9
$PINSBASE
 10
0.0
 20
0.0
 30
0.0
  9
$PLIMCHECK
 70
     0
  9
$PEXTMIN
 10
1.00000000000000E+20
 20
1.00000000000000E+20
 30
1.00000000000000E+20
  9
$PEXTMAX
 10
-1.00000000000000E+20
 20
-1.00000000000000E+20
 30
-1.00000000000000E+20
  9
$PLIMMIN
 10
0.0
 20
0.0
  9
$PLIMMAX
 10
12.0
 20
9.0
  9
$UNITMODE
 70
     0
  9
$VISRETAIN
 70
     1
  9
$PLINEGEN
 70
     0
  9
$PSLTSCALE
 70
     1
  9
$TREEDEPTH
 70
  3020
  9
$CMLSTYLE
  2
Standard
  9
$CMLJUST
 70
     0
  9
$CMLSCALE
 40
1.0
  9
$PROXYGRAPHICS
 70
     1
  9
$MEASUREMENT
 70
     1
  9
$CELWEIGHT
370
    -1
  9
$ENDCAPS
280
     0
  9
$JOINSTYLE
280
     0
  9
$LWDISPLAY
290
     0
  9
$INSUNITS
 70
     1
  9
$HYPERLINKBASE
  1

  9
$STYLESHEET
  1

  9
$XEDIT
290
     1
  9
$CEPSNTYPE
380
     0
  9
$PSTYLEMODE
290
     1
  9
$FINGERPRINTGUID
  2
{29489DD4-AC99-4BEF-A1B3-5A5EAB186D05}
  9
$VERSIONGUID
  2
{FAEB1C32-E019-11D5-929B-00C0DF256EC4}
  9
$EXTNAMES
290
     1
  9
$PSVPSCALE
 40
0.0
  9
$OLESTARTUP
290
     0
  0
ENDSEC
  0
SECTION
  2
CLASSES
  0
CLASS
  1
ACDBDICTIONARYWDFLT
  2
AcDbDictionaryWithDefault
  3
ObjectDBX Classes
 90
        0
280
     0
281
     0
  0
CLASS
  1
VISUALSTYLE
  2
AcDbVisualStyle
  3
ObjectDBX Classes
 90
     4095
280
     0
281
     0
  0
CLASS
  1

  2
exOdDbPolyline
  3

 90
        0
280
     0
281
     1
  0
CLASS
  1

  2
exOdDbCircle
  3

 90
        0
280
     0
281
     1
  0
CLASS
  1
ACDBPLACEHOLDER
  2
AcDbPlaceHolder
  3
ObjectDBX Classes
 90
        0
280
     0
281
     0
  0
CLASS
  1
LAYOUT
  2
AcDbLayout
  3
ObjectDBX Classes
 90
        0
280
     0
281
     0
  0
ENDSEC
  0
SECTION
  2
TABLES
  0
TABLE
  2
VPORT
  5
8
330
0
100
AcDbSymbolTable
 70
     1
  0
VPORT
  5
29
330
8
100
AcDbSymbolTableRecord
100
AcDbViewportTableRecord
  2
*Active
 70
     0
 10
0.0
 20
0.0
 11
1.0
 21
1.0
 12
4.9996682634896
 22
-331.2768501028568
 13
0.0
 23
0.0
 14
0.5
 24
0.5
 15
0.5
 25
0.5
 16
0.0
 26
0.0
 36
1.0
 17
0.0
 27
0.0
 37
0.0
 40
1078.752511879749
 41
1.60267857142857
 42
50.0
 43
0.0
 44
0.0
 50
0.0
 51
0.0
 71
     0
 72
   100
 73
     1
 74
     3
 75
     0
 76
     0
 77
     0
 78
     0
281
     0
 65
     1
110
0.0
120
0.0
130
0.0
111
1.0
121
0.0
131
0.0
112
0.0
122
1.0
132
0.0
 79
     0
146
0.0
  0
ENDTAB
  0
TABLE
  2
LTYPE
  5
5
330
0
100
AcDbSymbolTable
 70
     9
  0
LTYPE
  5
14
330
5
100
AcDbSymbolTableRecord
100
AcDbLinetypeTableRecord
  2
ByBlock
 70
     0
  3

 72
    65
 73
     0
 40
0.0
  0
LTYPE
  5
15
330
5
100
AcDbSymbolTableRecord
100
AcDbLinetypeTableRecord
  2
ByLayer
 70
     0
  3

 72
    65
 73
     0
 40
0.0
  0
LTYPE
  5
16
330
5
100
AcDbSymbolTableRecord
100
AcDbLinetypeTableRecord
  2
Continuous
 70
     0
  3
Solid line
 72
    65
 73
     0
 40
0.0
  0
LTYPE
  5
3B
330
5
100
AcDbSymbolTableRecord
100
AcDbLinetypeTableRecord
  2
DASHED
 70
     0
  3
Dashed
 72
    65
 73
     2
 40
15.0
 49
7.0
 74
     0
 49
-8.0
 74
     0
  0
LTYPE
  5
3C
330
5
100
AcDbSymbolTableRecord
100
AcDbLinetypeTableRecord
  2
DOTTED
 70
     0
  3
Dotted
 72
    65
 73
     2
 40
1.0
 49
0.0
 74
     0
 49
-1.0
 74
     0
  0
LTYPE
  5
3D
330
5
100
AcDbSymbolTableRecord
100
AcDbLinetypeTableRecord
  2
DOT_CENTER
 70
     0
  3
Dot_Center
 72
    65
 73
     4
 40
14.0
 49
12.0
 74
     0
 49
-1.0
 74
     0
 49
0.0
 74
     0
 49
-1.0
 74
     0
  0
LTYPE
  5
3E
330
5
100
AcDbSymbolTableRecord
100
AcDbLinetypeTableRecord
  2
LONG_DASHED
 70
     0
  3
Long_Dashed
 72
    65
 73
     2
 40
15.0
 49
10.0
 74
     0
 49
-5.0
 74
     0
  0
LTYPE
  5
3F
330
5
100
AcDbSymbolTableRecord
100
AcDbLinetypeTableRecord
  2
DASH_CENTER
 70
     0
  3
Dash_Center
 72
    65
 73
     4
 40
14.0
 49
11.0
 74
     0
 49
-1.0
 74
     0
 49
1.0
 74
     0
 49
-1.0
 74
     0
  0
LTYPE
  5
40
330
5
100
AcDbSymbolTableRecord
100
AcDbLinetypeTableRecord
  2
PHANTOM
 70
     0
  3
Phantom
 72
    65
 73
     6
 40
13.0
 49
10.0
 74
     0
 49
-1.0
 74
     0
 49
0.0
 74
     0
 49
-1.0
 74
     0
 49
0.0
 74
     0
 49
-1.0
 74
     0
  0
LTYPE
  5
41
330
5
100
AcDbSymbolTableRecord
100
AcDbLinetypeTableRecord
  2
CENTER_DASH_DASH
 70
     0
  3
Center_Dash_Dash
 72
    65
 73
     6
 40
14.0
 49
9.0
 74
     0
 49
-1.0
 74
     0
 49
1.0
 74
     0
 49
-1.0
 74
     0
 49
1.0
 74
     0
 49
-1.0
 74
     0
  0
LTYPE
  5
42
330
5
100
AcDbSymbolTableRecord
100
AcDbLinetypeTableRecord
  2
CENTER
 70
     0
  3
CENTER
 72
    65
 73
     4
 40
16.0
 49
10.0
 74
     0
 49
-3.0
 74
     0
 49
0.0
 74
     0
 49
-3.0
 74
     0
  0
ENDTAB
  0
TABLE
  2
LAYER
  5
2
330
0
100
AcDbSymbolTable
 70
    11
  0
LAYER
  5
10
330
2
100
AcDbSymbolTableRecord
100
AcDbLayerTableRecord
  2
0
 70
     0
 62
     7
  6
Continuous
370
    -3
390
F
  0
LAYER
  5
43
330
2
100
AcDbSymbolTableRecord
100
AcDbLayerTableRecord
  2
1
 70
     0
 62
     7
  6
Continuous
370
    -3
390
F
  0
LAYER
  5
44
330
2
100
AcDbSymbolTableRecord
100
AcDbLayerTableRecord
  2
LC-001-002-----0
 70
     0
 62
     7
  6
Continuous
370
    -3
390
F
  0
LAYER
  5
45
330
2
100
AcDbSymbolTableRecord
100
AcDbLayerTableRecord
  2
LC-002-002-----0
 70
     0
 62
     7
  6
Continuous
370
    -3
390
F
  0
LAYER
  5
46
330
2
100
AcDbSymbolTableRecord
100
AcDbLayerTableRecord
  2
LC-002-002-RND-0
 70
     0
 62
     7
  6
Continuous
370
    -3
390
F
  0
LAYER
  5
47
330
2
100
AcDbSymbolTableRecord
100
AcDbLayerTableRecord
  2
LC-003-002-RND-0
 70
     0
 62
     7
  6
Continuous
370
    -3
390
F
  0
LAYER
  5
48
330
2
100
AcDbSymbolTableRecord
100
AcDbLayerTableRecord
  2
LC-004-005-----0
 70
     0
 62
     7
  6
Continuous
370
    -3
390
F
  0
LAYER
  5
49
330
2
100
AcDbSymbolTableRecord
100
AcDbLayerTableRecord
  2
LC-005-003-----0
 70
     0
 62
     7
  6
Continuous
370
    -3
390
F
  0
LAYER
  5
4A
330
2
100
AcDbSymbolTableRecord
100
AcDbLayerTableRecord
  2
LC-006-002-----0
 70
     0
 62
     7
  6
Continuous
370
    -3
390
F
  0
LAYER
  5
4B
330
2
100
AcDbSymbolTableRecord
100
AcDbLayerTableRecord
  2
LC-006-003-----0
 70
     0
 62
     7
  6
Continuous
370
    -3
390
F
  0
LAYER
  5
4C
330
2
100
AcDbSymbolTableRecord
100
AcDbLayerTableRecord
  2
LC-007-006-MLN-0
 70
     0
 62
     7
  6
Continuous
370
    -3
390
F
  0
ENDTAB
  0
TABLE
  2
STYLE
  5
3
330
0
100
AcDbSymbolTable
 70
     2
  0
STYLE
  5
11
330
3
100
AcDbSymbolTableRecord
100
AcDbTextStyleTableRecord
  2
Standard
 70
     0
 40
0.0
 41
1.0
 50
0.0
 71
     0
 42
0.2
  3
txt
  4

  0
STYLE
  5
56A
330
3
100
AcDbSymbolTableRecord
100
AcDbTextStyleTableRecord
  2
CONVERTER_11
 70
     0
 40
0.0
 41
0.9
 50
0.0
 71
     0
 42
0.2
  3
txt.shx
  4

  0
ENDTAB
  0
TABLE
  2
VIEW
  5
6
330
0
100
AcDbSymbolTable
 70
     0
  0
ENDTAB
  0
TABLE
  2
UCS
  5
7
330
0
100
AcDbSymbolTable
 70
     0
  0
ENDTAB
  0
TABLE
  2
APPID
  5
9
330
0
100
AcDbSymbolTable
 70
     1
  0
APPID
  5
12
330
9
100
AcDbSymbolTableRecord
100
AcDbRegAppTableRecord
  2
ACAD
 70
     0
  0
ENDTAB
  0
TABLE
  2
DIMSTYLE
  5
A
330
0
100
AcDbSymbolTable
 70
     7
100
AcDbDimStyleTable
  0
DIMSTYLE
105
27
330
A
100
AcDbSymbolTableRecord
100
AcDbDimStyleTableRecord
  2
Standard
 70
     0
340
11
  0
DIMSTYLE
105
56E
102
{ACAD_REACTORS
330
56F
102
}
330
A
100
AcDbSymbolTableRecord
100
AcDbDimStyleTableRecord
  2
ME10_DIM_10
 70
     0
  3
Ø<>
 41
14.0
 42
0.0
 44
2.0
 73
     0
 74
     0
 77
     1
 78
     8
140
14.0
147
2.0
172
     1
173
     1
176
     4
177
     4
178
     1
271
     2
340
56A
  0
DIMSTYLE
105
579
102
{ACAD_REACTORS
330
57A
102
}
330
A
100
AcDbSymbolTableRecord
100
AcDbDimStyleTableRecord
  2
ME10_DIM_11
 70
     0
  3
DN<>
 41
14.0
 42
0.0
 44
2.0
 73
     0
 74
     0
 77
     1
 78
     8
140
14.0
147
2.0
172
     1
173
     1
176
     4
177
     4
178
     1
271
     2
340
56A
  0
DIMSTYLE
105
584
102
{ACAD_REACTORS
330
585
102
}
330
A
100
AcDbSymbolTableRecord
100
AcDbDimStyleTableRecord
  2
ME10_DIM_12
 70
     0
 41
12.0
 42
0.0
 44
2.0
 73
     0
 74
     0
 77
     1
 78
     8
140
12.0
147
2.0
172
     1
173
     1
176
     4
177
     4
178
     1
271
     0
340
56A
  0
DIMSTYLE
105
58F
102
{ACAD_REACTORS
330
590
102
}
330
A
100
AcDbSymbolTableRecord
100
AcDbDimStyleTableRecord
  2
ME10_DIM_13
 70
     0
  3
Ø<>
 41
12.0
 42
0.0
 44
2.0
 73
     0
 74
     0
 77
     1
 78
     8
140
12.0
147
2.0
172
     1
173
     1
176
     4
177
     4
178
     1
271
     2
340
56A
  0
DIMSTYLE
105
59A
102
{ACAD_REACTORS
330
59B
102
}
330
A
100
AcDbSymbolTableRecord
100
AcDbDimStyleTableRecord
  2
ME10_DIM_14
 70
     0
 41
14.0
 42
0.0
 44
2.0
 73
     0
 74
     0
 77
     1
 78
     8
140
14.0
147
2.0
172
     1
173
     1
176
     4
177
     4
178
     1
271
     2
340
56A
  0
DIMSTYLE
105
5A5
102
{ACAD_REACTORS
330
5A6
102
}
330
A
100
AcDbSymbolTableRecord
100
AcDbDimStyleTableRecord
  2
ME10_DIM_15
 70
     0
 41
14.0
 42
0.0
 44
2.0
 73
     0
 74
     0
 77
     1
 78
     8
140
14.0
147
2.0
172
     1
173
     1
176
     4
177
     4
178
     1
271
     2
340
56A
  0
ENDTAB
  0
TABLE
  2
BLOCK_RECORD
  5
1
330
0
100
AcDbSymbolTable
 70
    12
  0
BLOCK_RECORD
  5
1F
330
1
100
AcDbSymbolTableRecord
100
AcDbBlockTableRecord
  2
*Model_Space
340
22
  0
BLOCK_RECORD
  5
1B
330
1
100
AcDbSymbolTableRecord
100
AcDbBlockTableRecord
  2
*Paper_Space
340
1E
  0
BLOCK_RECORD
  5
23
330
1
100
AcDbSymbolTableRecord
100
AcDbBlockTableRecord
  2
*Paper_Space0
340
26
  0
BLOCK_RECORD
  5
4D
330
1
100
AcDbSymbolTableRecord
100
AcDbBlockTableRecord
  2
Bauschutz_062_9E
340
0
102
{BLKREFS
331
5C
102
}
  0
BLOCK_RECORD
  5
50
330
1
100
AcDbSymbolTableRecord
100
AcDbBlockTableRecord
  2
PVC_Manschette
340
0
102
{BLKREFS
331
5D
102
}
  0
BLOCK_RECORD
  5
53
330
1
100
AcDbSymbolTableRecord
100
AcDbBlockTableRecord
  2
HL_69H_1
340
0
102
{BLKREFS
331
5E
102
}
  0
BLOCK_RECORD
  5
56
330
1
100
AcDbSymbolTableRecord
100
AcDbBlockTableRecord
  2
062_1E_Laubfangkorb
340
0
102
{BLKREFS
331
5F
102
}
  0
BLOCK_RECORD
  5
59
330
1
100
AcDbSymbolTableRecord
100
AcDbBlockTableRecord
  2
Draufsicht
340
0
102
{BLKREFS
331
60
102
}
  0
BLOCK_RECORD
  5
563
330
1
100
AcDbSymbolTableRecord
100
AcDbBlockTableRecord
  2
*D6
340
0
  0
BLOCK_RECORD
  5
570
330
1
100
AcDbSymbolTableRecord
100
AcDbBlockTableRecord
  2
*D7
340
0
  0
BLOCK_RECORD
  5
57B
330
1
100
AcDbSymbolTableRecord
100
AcDbBlockTableRecord
  2
*D8
340
0
  0
BLOCK_RECORD
  5
586
330
1
100
AcDbSymbolTableRecord
100
AcDbBlockTableRecord
  2
*D9
340
0
  0
BLOCK_RECORD
  5
591
330
1
100
AcDbSymbolTableRecord
100
AcDbBlockTableRecord
  2
*D10
340
0
  0
BLOCK_RECORD
  5
59C
330
1
100
AcDbSymbolTableRecord
100
AcDbBlockTableRecord
  2
*D11
340
0
  0
ENDTAB
  0
ENDSEC
  0
SECTION
  2
BLOCKS
  0
BLOCK
  5
20
330
1F
100
AcDbEntity
  8
0
100
AcDbBlockBegin
  2
*Model_Space
 70
     0
 71
     0
 10
0.0
 20
0.0
 30
0.0
  3
*Model_Space
  1

  0
ENDBLK
  5
21
330
1F
100
AcDbEntity
  8
0
100
AcDbBlockEnd
  0
BLOCK
  5
1C
330
1B
100
AcDbEntity
 67
     1
  8
0
100
AcDbBlockBegin
  2
*Paper_Space
 70
     0
 71
     0
 10
0.0
 20
0.0
 30
0.0
  3
*Paper_Space
  1

  0
ENDBLK
  5
1D
330
1B
100
AcDbEntity
 67
     1
  8
0
100
AcDbBlockEnd
  0
BLOCK
  5
24
330
23
100
AcDbEntity
  8
0
100
AcDbBlockBegin
  2
*Paper_Space0
 70
     0
 71
     0
 10
0.0
 20
0.0
 30
0.0
  3
*Paper_Space0
  1

  0
ENDBLK
  5
25
330
23
100
AcDbEntity
  8
0
100
AcDbBlockEnd
  0
BLOCK
  5
4E
330
4D
100
AcDbEntity
  8
0
100
AcDbBlockBegin
  2
Bauschutz_062_9E
 70
     0
 71
     0
 10
-646.5970363333327
 20
-315.9290623230518
 30
0.0
  3
Bauschutz_062_9E
  1

  0
LINE
  5
61
330
4D
100
AcDbEntity
  8
1
  6
PHANTOM
 62
     2
100
AcDbLine
 10
-0.00024033333466
 20
135.7716032636781
 30
0.0
 11
-0.00024033333466
 21
159.0652007515746
 31
0.0
  0
LINE
  5
62
330
4D
100
AcDbEntity
  8
1
  6
Continuous
 62
     7
100
AcDbLine
 10
66.24975966666534
 20
157.1289376769491
 30
0.0
 11
-0.00024033333466
 21
157.1289376769491
 31
0.0
  0
LINE
  5
63
330
4D
100
AcDbEntity
  8
1
  6
Continuous
 62
     7
100
AcDbLine
 10
-66.25024033333466
 20
157.1289376769491
 30
0.0
 11
-0.00024033333466
 21
157.1289376769491
 31
0.0
  0
LINE
  5
64
330
4D
100
AcDbEntity
  8
LC-006-002-----0
  6
Continuous
 62
     7
100
AcDbLine
 10
-68.00024033333466
 20
155.1289376769491
 30
0.0
 11
-66.25024033333466
 21
157.1289376769491
 31
0.0
  0
LINE
  5
65
330
4D
100
AcDbEntity
  8
LC-006-002-----0
  6
Continuous
 62
     7
100
AcDbLine
 10
67.99975966666534
 20
155.1289376769491
 30
0.0
 11
66.24975966666534
 21
157.1289376769491
 31
0.0
  0
LINE
  5
66
330
4D
100
AcDbEntity
  8
LC-006-002-----0
  6
Continuous
 62
     7
100
AcDbLine
 10
-78.75024033333466
 20
138.6289376769491
 30
0.0
 11
-78.75024033333466
 21
153.1289376769491
 31
0.0
  0
LINE
  5
67
330
4D
100
AcDbEntity
  8
LC-006-002-----0
  6
Continuous
 62
     7
100
AcDbLine
 10
-78.75024033333466
 20
138.6289376769491
 30
0.0
 11
-0.00024033333466
 21
138.6289376769491
 31
0.0
  0
LINE
  5
68
330
4D
100
AcDbEntity
  8
LC-006-002-----0
  6
Continuous
 62
     7
100
AcDbLine
 10
-111.5002403333347
 20
153.1289376769491
 30
0.0
 11
-78.75024033333466
 21
153.1289376769491
 31
0.0
  0
LINE
  5
69
330
4D
100
AcDbEntity
  8
LC-006-002-----0
  6
Continuous
 62
     7
100
AcDbLine
 10
-111.5002403333347
 20
155.1289376769491
 30
0.0
 11
-68.00024033333466
 21
155.1289376769491
 31
0.0
  0
LINE
  5
6A
330
4D
100
AcDbEntity
  8
LC-006-002-----0
  6
Continuous
 62
     7
100
AcDbLine
 10
-111.5002403333347
 20
155.1289376769491
 30
0.0
 11
-111.5002403333347
 21
153.1289376769491
 31
0.0
  0
LINE
  5
6B
330
4D
100
AcDbEntity
  8
LC-006-002-----0
  6
Continuous
 62
     7
100
AcDbLine
 10
78.74975966666534
 20
138.6289376769491
 30
0.0
 11
78.74975966666534
 21
153.1289376769491
 31
0.0
  0
LINE
  5
6C
330
4D
100
AcDbEntity
  8
LC-006-002-----0
  6
Continuous
 62
     7
100
AcDbLine
 10
78.74975966666534
 20
138.6289376769491
 30
0.0
 11
-0.00024033333466
 21
138.6289376769491
 31
0.0
  0
LINE
  5
6D
330
4D
100
AcDbEntity
  8
LC-006-002-----0
  6
Continuous
 62
     7
100
AcDbLine
 10
111.4997596666653
 20
153.1289376769491
 30
0.0
 11
78.74975966666534
 21
153.1289376769491
 31
0.0
  0
LINE
  5
6E
330
4D
100
AcDbEntity
  8
LC-006-002-----0
  6
Continuous
 62
     7
100
AcDbLine
 10
111.4997596666653
 20
155.1289376769491
 30
0.0
 11
67.99975966666534
 21
155.1289376769491
 31
0.0
  0
LINE
  5
6F
330
4D
100
AcDbEntity
  8
LC-006-002-----0
  6
Continuous
 62
     7
100
AcDbLine
 10
111.4997596666653
 20
155.1289376769491
 30
0.0
 11
111.4997596666653
 21
153.1289376769491
 31
0.0
  0
LINE
  5
70
330
4D
100
AcDbEntity
  8
1
  6
Continuous
 62
     7
100
AcDbLine
 10
-78.75024033333466
 20
153.1289376769491
 30
0.0
 11
78.74975966666534
 21
153.1289376769491
 31
0.0
  0
LINE
  5
71
330
4D
100
AcDbEntity
  8
1
  6
Continuous
 62
     7
100
AcDbLine
 10
67.99975966666534
 20
155.1289376769491
 30
0.0
 11
-68.00024033333466
 21
155.1289376769491
 31
0.0
  0
ENDBLK
  5
4F
330
4D
100
AcDbEntity
  8
0
100
AcDbBlockEnd
  0
BLOCK
  5
51
330
50
100
AcDbEntity
  8
0
100
AcDbBlockBegin
  2
PVC_Manschette
 70
     0
 71
     0
 10
-177.0007347365104
 20
-26.0
 30
0.0
  3
PVC_Manschette
  1

  0
LINE
  5
72
330
50
100
AcDbEntity
  8
1
  6
Continuous
 62
     7
100
AcDbLine
 10
-0.00033173651036
 20
2.0
 30
0.0
 11
-175.0007347365104
 21
2.0
 31
0.0
  0
LINE
  5
73
330
50
100
AcDbEntity
  8
1
  6
Continuous
 62
     7
100
AcDbLine
 10
-177.0007347365104
 20
-0.5
 30
0.0
 11
-177.0007347365104
 21
0.0
 31
0.0
  0
LINE
  5
74
330
50
100
AcDbEntity
  8
1
  6
Continuous
 62
     7
100
AcDbLine
 10
-177.0007347365104
 20
-0.5
 30
0.0
 11
-130.0007347365104
 21
-0.5
 31
0.0
  0
LINE
  5
75
330
50
100
AcDbEntity
  8
1
  6
Continuous
 62
     7
100
AcDbLine
 10
-130.0007347365104
 20
-0.5
 30
0.0
 11
-126.5754227365104
 21
-2.0
 31
0.0
  0
LINE
  5
76
330
50
100
AcDbEntity
  8
1
  6
Continuous
 62
     7
100
AcDbLine
 10
-126.5754227365104
 20
-2.0
 30
0.0
 11
-0.00033173651036
 21
-2.0
 31
0.0
  0
LINE
  5
77
330
50
100
AcDbEntity
  8
1
  6
Continuous
 62
     7
100
AcDbLine
 10
-130.0007347365104
 20
-0.5
 30
0.0
 11
-0.00033173651036
 21
-0.5
 31
0.0
  0
LINE
  5
78
330
50
100
AcDbEntity
  8
1
  6
Continuous
 62
     7
100
AcDbLine
 10
-0.00033173651036
 20
-0.5
 30
0.0
 11
130.0000712634896
 21
-0.5
 31
0.0
  0
LINE
  5
79
330
50
100
AcDbEntity
  8
1
  6
Continuous
 62
     7
100
AcDbLine
 10
-0.00033173651036
 20
-2.0
 30
0.0
 11
126.5747592634897
 21
-2.0
 31
0.0
  0
LINE
  5
7A
330
50
100
AcDbEntity
  8
1
  6
Continuous
 62
     7
100
AcDbLine
 10
126.5747592634897
 20
-2.0
 30
0.0
 11
130.0000712634896
 21
-0.5
 31
0.0
  0
LINE
  5
7B
330
50
100
AcDbEntity
  8
1
  6
Continuous
 62
     7
100
AcDbLine
 10
130.0000712634896
 20
-0.5
 30
0.0
 11
177.0000712634896
 21
-0.5
 31
0.0
  0
LINE
  5
7C
330
50
100
AcDbEntity
  8
1
  6
Continuous
 62
     7
100
AcDbLine
 10
177.0000712634896
 20
0.0
 30
0.0
 11
177.0000712634896
 21
-0.5
 31
0.0
  0
LINE
  5
7D
330
50
100
AcDbEntity
  8
1
  6
Continuous
 62
     7
100
AcDbLine
 10
175.0000712634896
 20
2.0
 30
0.0
 11
-0.00033173651036
 21
2.0
 31
0.0
  0
ARC
  5
7E
330
50
100
AcDbEntity
  8
1
  6
Continuous
 62
     7
100
AcDbCircle
 10
-175.0007347365104
 20
0.0
 30
0.0
 40
2.0
100
AcDbArc
 50
90.0
 51
180.0
  0
ARC
  5
7F
330
50
100
AcDbEntity
  8
1
  6
Continuous
 62
     7
100
AcDbCircle
 10
175.0000712634896
 20
0.0
 30
0.0
 40
2.0
100
AcDbArc
 50
0.0
 51
90.0
  0
ENDBLK
  5
52
330
50
100
AcDbEntity
  8
0
100
AcDbBlockEnd
  0
BLOCK
  5
54
330
53
100
AcDbEntity
  8
0
100
AcDbBlockBegin
  2
HL_69H_1
 70
     0
 71
     0
 10
-1381.992216652097
 20
119.7781705000002
 30
0.0
  3
HL_69H_1
  1

  0
POINT
  5
80
330
53
100
AcDbEntity
  8
LC-006-003-----0
 62
     7
100
AcDbPoint
 10
-176.999597
 20
-6.0860813936509
 30
0.0
  0
POINT
  5
81
330
53
100
AcDbEntity
  8
LC-006-003-----0
 62
     3
100
AcDbPoint
 10
-176.999597
 20
-6.0860813936509
 30
0.0
  0
POINT
  5
82
330
53
100
AcDbEntity
  8
LC-006-003-----0
 62
     3
100
AcDbPoint
 10
176.9989335269793
 20
-6.0860813936509
 30
0.0
  0
POINT
  5
83
330
53
100
AcDbEntity
  8
LC-006-003-----0
 62
     7
100
AcDbPoint
 10
176.9989335269793
 20
-6.0860813936509
 30
0.0
  0
POINT
  5
84
330
53
100
AcDbEntity
  8
LC-005-003-----0
 62
     7
100
AcDbPoint
 10
34.98335266666504
 20
-334.467361393651
 30
0.0
  0
POINT
  5
85
330
53
100
AcDbEntity
  8
LC-005-003-----0
 62
     7
100
AcDbPoint
 10
-34.98383433333487
 20
-334.467361393651
 30
0.0
  0
POINT
  5
86
330
53
100
AcDbEntity
  8
LC-005-003-----0
 62
     7
100
AcDbPoint
 10
27.99975966666511
 20
-343.5860813936509
 30
0.0
  0
POINT
  5
87
330
53
100
AcDbEntity
  8
LC-005-003-----0
 62
     7
100
AcDbPoint
 10
-28.00024033333494
 20
-343.5860813936509
 30
0.0
  0
POINT
  5
88
330
53
100
AcDbEntity
  8
LC-005-003-----0
 62
     7
100
AcDbPoint
 10
24.99975966666511
 20
-348.0860813936509
 30
0.0
  0
POINT
  5
89
330
53
100
AcDbEntity
  8
LC-005-003-----0
 62
     7
100
AcDbPoint
 10
31.25011166666513
 20
-112.0859333936509
 30
0.0
  0
POINT
  5
8A
330
53
100
AcDbEntity
  8
LC-005-003-----0
 62
     7
100
AcDbPoint
 10
24.99975966666511
 20
-348.0860813936509
 30
0.0
  0
POINT
  5
8B
330
53
100
AcDbEntity
  8
LC-005-003-----0
 62
     7
100
AcDbPoint
 10
24.99975966666511
 20
-348.0860813936509
 30
0.0
  0
POINT
  5
8C
330
53
100
AcDbEntity
  8
LC-005-003-----0
 62
     7
100
AcDbPoint
 10
80.74975966666511
 20
-47.0372883936509
 30
0.0
  0
POINT
  5
8D
330
53
100
AcDbEntity
  8
LC-005-003-----0
 62
     7
100
AcDbPoint
 10
62.49975966666511
 20
-47.0372883936509
 30
0.0
  0
POINT
  5
8E
330
53
100
AcDbEntity
  8
LC-005-003-----0
 62
     7
100
AcDbPoint
 10
-62.50024033333494
 20
-47.0372883936509
 30
0.0
  0
LINE
  5
8F
330
53
100
AcDbEntity
  8
LC-001-002-----0
  6
Continuous
 62
     7
100
AcDbLine
 10
-100.0047770000001
 20
-15.8429863936508
 30
0.0
 11
-101.0051020000002
 21
-14.8426723936508
 31
0.0
  0
LINE
  5
90
330
53
100
AcDbEntity
  8
LC-001-002-----0
  6
Continuous
 62
     7
100
AcDbLine
 10
-101.0051020000002
 20
-14.8426723936508
 30
0.0
 11
-104.2141370000002
 21
-14.84166639365078
 31
0.0
  0
LINE
  5
91
330
53
100
AcDbEntity
  8
LC-001-002-----0
  6
Continuous
 62
     7
100
AcDbLine
 10
-128.2702340000002
 20
-6.08608139365078
 30
0.0
 11
-104.2141370000002
 21
-14.84166639365078
 31
0.0
  0
LINE
  5
92
330
53
100
AcDbEntity
  8
LC-001-002-----0
  6
Continuous
 62
     7
100
AcDbLine
 10
-176.999597
 20
-6.0860813936509
 30
0.0
 11
-128.2702340000002
 21
-6.08608139365078
 31
0.0
  0
LINE
  5
93
330
53
100
AcDbEntity
  8
LC-001-002-----0
  6
Continuous
 62
     7
100
AcDbLine
 10
-174.999597
 20
-3.08608139365078
 30
0.0
 11
-0.00033173651036
 21
-3.08608139365079
 31
0.0
  0
LINE
  5
94
330
53
100
AcDbEntity
  8
LC-001-002-----0
  6
Continuous
 62
     7
100
AcDbLine
 10
-176.999597
 20
-6.0860813936509
 30
0.0
 11
-176.999597
 21
-5.08608139365078
 31
0.0
  0
LINE
  5
95
330
53
100
AcDbEntity
  8
LC-001-002-----0
  6
Continuous
 62
     7
100
AcDbLine
 10
-100.0046920144092
 20
-30.08648955835492
 30
0.0
 11
-85.4995980000001
 21
-30.08578539365079
 31
0.0
  0
LINE
  5
96
330
53
100
AcDbEntity
  8
LC-001-002-----0
  6
Continuous
 62
     7
100
AcDbLine
 10
-100.0046920144092
 20
-30.08648955835492
 30
0.0
 11
-100.0047770000001
 21
-15.8429863936508
 31
0.0
  0
LINE
  5
97
330
53
100
AcDbEntity
  8
LC-001-002-----0
  6
Continuous
 62
     7
100
AcDbLine
 10
-81.749597
 20
-31.58608139365078
 30
0.0
 11
-80.749597
 21
-32.58608139365079
 31
0.0
  0
LINE
  5
98
330
53
100
AcDbEntity
  8
LC-001-002-----0
  6
Continuous
 62
     7
100
AcDbLine
 10
-85.4995980000001
 20
-31.58608139365078
 30
0.0
 11
-85.4995980000001
 21
-30.08578539365079
 31
0.0
  0
LINE
  5
99
330
53
100
AcDbEntity
  8
LC-001-002-----0
  6
Continuous
 62
     7
100
AcDbLine
 10
-80.749597
 20
-32.58608139365079
 30
0.0
 11
-80.749597
 21
-47.03728839364914
 31
0.0
  0
LINE
  5
9A
330
53
100
AcDbEntity
  8
LC-001-002-----0
  6
Continuous
 62
     7
100
AcDbLine
 10
-85.4995980000001
 20
-31.58608139365078
 30
0.0
 11
-81.749597
 21
-31.58608139365078
 31
0.0
  0
LINE
  5
9B
330
53
100
AcDbEntity
  8
1
  6
Continuous
 62
     7
100
AcDbLine
 10
-101.0051020000002
 20
-14.8426723936508
 30
0.0
 11
-0.00033173651036
 21
-14.8426723936508
 31
0.0
  0
LINE
  5
9C
330
53
100
AcDbEntity
  8
1
  6
Continuous
 62
     7
100
AcDbLine
 10
-100.0047770000001
 20
-15.8429863936508
 30
0.0
 11
-0.00033173651036
 21
-15.8429863936508
 31
0.0
  0
LINE
  5
9D
330
53
100
AcDbEntity
  8
1
  6
Continuous
 62
     7
100
AcDbLine
 10
-85.4995980000001
 20
-30.08578539365079
 30
0.0
 11
-0.00033173651036
 21
-30.08578539365079
 31
0.0
  0
LINE
  5
9E
330
53
100
AcDbEntity
  8
1
  6
Continuous
 62
     7
100
AcDbLine
 10
-81.749597
 20
-31.58608139365078
 30
0.0
 11
-0.00033173651036
 21
-31.58608139365078
 31
0.0
  0
LINE
  5
9F
330
53
100
AcDbEntity
  8
1
  6
Continuous
 62
     7
100
AcDbLine
 10
-80.749597
 20
-32.58608139365079
 30
0.0
 11
-0.00033173651036
 21
-32.58608139365079
 31
0.0
  0
LINE
  5
A0
330
53
100
AcDbEntity
  8
1
  6
Continuous
 62
     7
100
AcDbLine
 10
-128.2702340000002
 20
-6.08608139365078
 30
0.0
 11
-0.00071773651041
 21
-6.08608139365078
 31
0.0
  0
LINE
  5
A1
330
53
100
AcDbEntity
  8
1
  6
Continuous
 62
     7
100
AcDbLine
 10
0.00005426348969
 20
-6.08608139365078
 30
0.0
 11
128.2695705269795
 21
-6.08608139365078
 31
0.0
  0
LINE
  5
A2
330
53
100
AcDbEntity
  8
1
  6
Continuous
 62
     7
100
AcDbLine
 10
-0.00033173651036
 20
-32.58608139365079
 30
0.0
 11
80.74893352697927
 21
-32.58608139365079
 31
0.0
  0
LINE
  5
A3
330
53
100
AcDbEntity
  8
1
  6
Continuous
 62
     7
100
AcDbLine
 10
-0.00033173651036
 20
-31.58608139365078
 30
0.0
 11
81.74893352697927
 21
-31.58608139365078
 31
0.0
  0
LINE
  5
A4
330
53
100
AcDbEntity
  8
1
  6
Continuous
 62
     7
100
AcDbLine
 10
-0.00033173651036
 20
-30.08578539365079
 30
0.0
 11
85.49893452697938
 21
-30.08578539365079
 31
0.0
  0
LINE
  5
A5
330
53
100
AcDbEntity
  8
1
  6
Continuous
 62
     7
100
AcDbLine
 10
-0.00033173651036
 20
-15.8429863936508
 30
0.0
 11
100.0041135269794
 21
-15.8429863936508
 31
0.0
  0
LINE
  5
A6
330
53
100
AcDbEntity
  8
1
  6
Continuous
 62
     7
100
AcDbLine
 10
-0.00033173651036
 20
-14.8426723936508
 30
0.0
 11
101.0044385269795
 21
-14.8426723936508
 31
0.0
  0
LINE
  5
A7
330
53
100
AcDbEntity
  8
LC-001-002-----0
  6
Continuous
 62
     7
100
AcDbLine
 10
81.74893352697927
 20
-31.58608139365078
 30
0.0
 11
85.49893452697938
 21
-31.58608139365078
 31
0.0
  0
LINE
  5
A8
330
53
100
AcDbEntity
  8
LC-001-002-----0
  6
Continuous
 62
     7
100
AcDbLine
 10
80.74893352697927
 20
-47.03728839364914
 30
0.0
 11
80.74893352697927
 21
-32.58608139365079
 31
0.0
  0
LINE
  5
A9
330
53
100
AcDbEntity
  8
LC-001-002-----0
  6
Continuous
 62
     7
100
AcDbLine
 10
85.49893452697938
 20
-30.08578539365079
 30
0.0
 11
85.49893452697938
 21
-31.58608139365078
 31
0.0
  0
LINE
  5
AA
330
53
100
AcDbEntity
  8
LC-001-002-----0
  6
Continuous
 62
     7
100
AcDbLine
 10
80.74893352697927
 20
-32.58608139365079
 30
0.0
 11
81.74893352697927
 21
-31.58608139365078
 31
0.0
  0
LINE
  5
AB
330
53
100
AcDbEntity
  8
LC-001-002-----0
  6
Continuous
 62
     7
100
AcDbLine
 10
100.0041135269794
 20
-15.8429863936508
 30
0.0
 11
100.0040285413885
 21
-30.08648955835492
 31
0.0
  0
LINE
  5
AC
330
53
100
AcDbEntity
  8
LC-001-002-----0
  6
Continuous
 62
     7
100
AcDbLine
 10
85.49893452697938
 20
-30.08578539365079
 30
0.0
 11
100.0040285413885
 21
-30.08648955835492
 31
0.0
  0
LINE
  5
AD
330
53
100
AcDbEntity
  8
LC-001-002-----0
  6
Continuous
 62
     7
100
AcDbLine
 10
176.9989335269793
 20
-5.08608139365078
 30
0.0
 11
176.9989335269793
 21
-6.0860813936509
 31
0.0
  0
LINE
  5
AE
330
53
100
AcDbEntity
  8
LC-001-002-----0
  6
Continuous
 62
     7
100
AcDbLine
 10
-0.00033173651036
 20
-3.08608139365079
 30
0.0
 11
174.9989335269793
 21
-3.08608139365078
 31
0.0
  0
LINE
  5
AF
330
53
100
AcDbEntity
  8
LC-001-002-----0
  6
Continuous
 62
     7
100
AcDbLine
 10
128.2695705269795
 20
-6.08608139365078
 30
0.0
 11
176.9989335269793
 21
-6.0860813936509
 31
0.0
  0
LINE
  5
B0
330
53
100
AcDbEntity
  8
LC-001-002-----0
  6
Continuous
 62
     7
100
AcDbLine
 10
104.2134735269794
 20
-14.84166639365078
 30
0.0
 11
128.2695705269795
 21
-6.08608139365078
 31
0.0
  0
LINE
  5
B1
330
53
100
AcDbEntity
  8
LC-001-002-----0
  6
Continuous
 62
     7
100
AcDbLine
 10
104.2134735269794
 20
-14.84166639365078
 30
0.0
 11
101.0044385269795
 21
-14.8426723936508
 31
0.0
  0
LINE
  5
B2
330
53
100
AcDbEntity
  8
LC-001-002-----0
  6
Continuous
 62
     7
100
AcDbLine
 10
101.0044385269795
 20
-14.8426723936508
 30
0.0
 11
100.0041135269794
 21
-15.8429863936508
 31
0.0
  0
LWPOLYLINE
  5
B3
330
53
100
AcDbEntity
  8
LC-004-005-----0
  6
Continuous
 62
     3
100
AcDbPolyline
 90
        2
 70
     0
 43
1.0
 10
0.01727956326687
 20
-375.457874487683
 10
-0.02226043673312
 20
-375.418334487683
  0
LWPOLYLINE
  5
B4
330
53
100
AcDbEntity
  8
LC-004-005-----0
  6
Continuous
 62
     3
100
AcDbPolyline
 90
        2
 70
     0
 43
1.0
 10
0.08308856326704
 20
-374.957998487683
 10
-0.10802743673293
 20
-374.766881487683
  0
LWPOLYLINE
  5
B5
330
53
100
AcDbEntity
  8
LC-004-005-----0
  6
Continuous
 62
     3
100
AcDbPolyline
 90
        2
 70
     0
 43
1.0
 10
0.14889856326687
 20
-374.4581234876831
 10
-0.19379443673296
 20
-374.115429487683
  0
LWPOLYLINE
  5
B6
330
53
100
AcDbEntity
  8
LC-004-005-----0
  6
Continuous
 62
     3
100
AcDbPolyline
 90
        2
 70
     0
 43
1.0
 10
0.21470856326692
 20
-373.958247487683
 10
-0.2795624367331
 20
-373.4639764876829
  0
LWPOLYLINE
  5
B7
330
53
100
AcDbEntity
  8
LC-004-005-----0
  6
Continuous
 62
     3
100
AcDbPolyline
 90
        2
 70
     0
 43
1.0
 10
0.28051856326698
 20
-373.458371487683
 10
-0.36532943673313
 20
-372.812524487683
  0
LWPOLYLINE
  5
B8
330
53
100
AcDbEntity
  8
LC-004-005-----0
  6
Continuous
 62
     3
100
AcDbPolyline
 90
        2
 70
     0
 43
1.0
 10
0.34632856326681
 20
-372.958496487683
 10
-0.45109643673294
 20
-372.1610714876832
  0
LWPOLYLINE
  5
B9
330
53
100
AcDbEntity
  8
LC-004-005-----0
  6
Continuous
 62
     3
100
AcDbPolyline
 90
        2
 70
     0
 43
1.0
 10
0.41213856326686
 20
-372.4586204876831
 10
-0.53686343673297
 20
-371.509618487683
  0
LWPOLYLINE
  5
BA
330
53
100
AcDbEntity
  8
LC-004-005-----0
  6
Continuous
 62
     3
100
AcDbPolyline
 90
        2
 70
     0
 43
1.0
 10
0.47794856326692
 20
-371.9587454876831
 10
-0.622630436733
 20
-370.8581664876829
  0
LWPOLYLINE
  5
BB
330
53
100
AcDbEntity
  8
LC-004-005-----0
  6
Continuous
 62
     3
100
AcDbPolyline
 90
        2
 70
     0
 43
1.0
 10
0.54375756326687
 20
-371.4588694876831
 10
-0.70839843673292
 20
-370.206713487683
  0
LWPOLYLINE
  5
BC
330
53
100
AcDbEntity
  8
LC-004-005-----0
  6
Continuous
 62
     3
100
AcDbPolyline
 90
        2
 70
     0
 43
1.0
 10
0.60956756326692
 20
-370.958994487683
 10
-0.79416543673295
 20
-369.5552614876829
  0
LWPOLYLINE
  5
BD
330
53
100
AcDbEntity
  8
LC-004-005-----0
  6
Continuous
 62
     3
100
AcDbPolyline
 90
        2
 70
     0
 43
1.0
 10
0.67537756326698
 20
-370.4591184876829
 10
-0.87993243673299
 20
-368.903808487683
  0
LWPOLYLINE
  5
BE
330
53
100
AcDbEntity
  8
LC-004-005-----0
  6
Continuous
 62
     3
100
AcDbPolyline
 90
        2
 70
     0
 43
1.0
 10
0.74118756326681
 20
-369.959243487683
 10
-0.96569943673302
 20
-368.252355487683
  0
LWPOLYLINE
  5
BF
330
53
100
AcDbEntity
  8
LC-004-005-----0
  6
Continuous
 62
     3
100
AcDbPolyline
 90
        2
 70
     0
 43
1.0
 10
0.80699756326686
 20
-369.459367487683
 10
-1.05146643673305
 20
-367.600903487683
  0
LWPOLYLINE
  5
C0
330
53
100
AcDbEntity
  8
LC-004-005-----0
  6
Continuous
 62
     3
100
AcDbPolyline
 90
        2
 70
     0
 43
1.0
 10
0.87280756326692
 20
-368.959491487683
 10
-1.13723343673308
 20
-366.949450487683
  0
LWPOLYLINE
  5
C1
330
53
100
AcDbEntity
  8
LC-004-005-----0
  6
Continuous
 62
     3
100
AcDbPolyline
 90
        2
 70
     0
 43
1.0
 10
0.93861756326697
 20
-368.459616487683
 10
-1.223001436733
 20
-366.297998487683
  0
LWPOLYLINE
  5
C2
330
53
100
AcDbEntity
  8
LC-004-005-----0
  6
Continuous
 62
     3
100
AcDbPolyline
 90
        2
 70
     0
 43
1.0
 10
1.00442756326703
 20
-367.959740487683
 10
-1.30876843673303
 20
-365.646545487683
  0
LWPOLYLINE
  5
C3
330
53
100
AcDbEntity
  8
LC-004-005-----0
  6
Continuous
 62
     3
100
AcDbPolyline
 90
        2
 70
     0
 43
1.0
 10
1.07023656326697
 20
-367.459865487683
 10
-1.39453543673306
 20
-364.9950924876831
  0
LWPOLYLINE
  5
C4
330
53
100
AcDbEntity
  8
LC-004-005-----0
  6
Continuous
 62
     3
100
AcDbPolyline
 90
        2
 70
     0
 43
1.0
 10
1.13604656326703
 20
-366.959989487683
 10
-1.4803024367331
 20
-364.3436404876831
  0
LWPOLYLINE
  5
C5
330
53
100
AcDbEntity
  8
LC-004-005-----0
  6
Continuous
 62
     3
100
AcDbPolyline
 90
        2
 70
     0
 43
1.0
 10
1.20185656326686
 20
-366.4601144876829
 10
-1.56606943673313
 20
-363.692187487683
  0
LWPOLYLINE
  5
C6
330
53
100
AcDbEntity
  8
LC-004-005-----0
  6
Continuous
 62
     3
100
AcDbPolyline
 90
        2
 70
     0
 43
1.0
 10
1.26766656326691
 20
-365.9602384876831
 10
-1.65183743673305
 20
-363.040735487683
  0
LWPOLYLINE
  5
C7
330
53
100
AcDbEntity
  8
LC-004-005-----0
  6
Continuous
 62
     3
100
AcDbPolyline
 90
        2
 70
     0
 43
1.0
 10
1.33347656326697
 20
-365.460363487683
 10
-1.73760443673308
 20
-362.389282487683
  0
LWPOLYLINE
  5
C8
330
53
100
AcDbEntity
  8
LC-004-005-----0
  6
Continuous
 62
     3
100
AcDbPolyline
 90
        2
 70
     0
 43
1.0
 10
1.39928656326703
 20
-364.960487487683
 10
-1.82337143673311
 20
-361.737829487683
  0
LWPOLYLINE
  5
C9
330
53
100
AcDbEntity
  8
LC-004-005-----0
  6
Continuous
 62
     3
100
AcDbPolyline
 90
        2
 70
     0
 43
1.0
 10
1.46509656326708
 20
-364.4606114876829
 10
-1.57319943673309
 20
-361.4223164876831
  0
LWPOLYLINE
  5
CA
330
53
100
AcDbEntity
  8
LC-004-005-----0
  6
Continuous
 62
     3
100
AcDbPolyline
 90
        2
 70
     0
 43
1.0
 10
1.53090556326703
 20
-363.9607364876832
 10
-1.00751443673306
 20
-361.4223164876831
  0
LWPOLYLINE
  5
CB
330
53
100
AcDbEntity
  8
LC-004-005-----0
  6
Continuous
 62
     3
100
AcDbPolyline
 90
        2
 70
     0
 43
1.0
 10
1.59671556326686
 20
-363.4608604876831
 10
-0.44182843673315
 20
-361.4223164876831
  0
LWPOLYLINE
  5
CC
330
53
100
AcDbEntity
  8
LC-004-005-----0
  6
Continuous
 62
     3
100
AcDbPolyline
 90
        2
 70
     0
 43
1.0
 10
1.66252556326691
 20
-362.9609854876831
 10
0.12385656326688
 20
-361.4223164876831
  0
LWPOLYLINE
  5
CD
330
53
100
AcDbEntity
  8
LC-004-005-----0
  6
Continuous
 62
     3
100
AcDbPolyline
 90
        2
 70
     0
 43
1.0
 10
1.72833556326697
 20
-362.461109487683
 10
0.68954156326691
 20
-361.4223164876831
  0
LWPOLYLINE
  5
CE
330
53
100
AcDbEntity
  8
LC-004-005-----0
  6
Continuous
 62
     3
100
AcDbPolyline
 90
        2
 70
     0
 43
1.0
 10
1.79414556326702
 20
-361.961234487683
 10
1.25522756326683
 20
-361.4223164876831
  0
LWPOLYLINE
  5
CF
330
53
100
AcDbEntity
  8
LC-004-005-----0
  6
Continuous
 62
     3
100
AcDbPolyline
 90
        2
 70
     0
 43
1.0
 10
1.85995556326708
 20
-361.461358487683
 10
1.82091256326686
 20
-361.4223164876831
  0
LINE
  5
D0
330
53
100
AcDbEntity
  8
LC-002-002-----0
  6
Continuous
 62
     7
100
AcDbLine
 10
2.79511056326697
 20
-375.588269487683
 30
0.0
 11
37.41036756326685
 21
-375.588269487683
 31
0.0
  0
LWPOLYLINE
  5
D1
330
53
100
AcDbEntity
  8
LC-002-002-----0
  6
Continuous
 62
     7
100
AcDbPolyline
 90
        2
 70
     0
 43
1.0
 10
-1.86491043673294
 20
-361.4223164876831
 10
1.86509656326694
 20
-361.4223164876831
  0
LWPOLYLINE
  5
D2
330
53
100
AcDbEntity
  8
LC-002-002-----0
  6
Continuous
 62
     7
100
AcDbPolyline
 90
        2
 70
     0
 43
1.0
 10
0.0001125632669
 20
-375.588269487683
 10
-1.86491043673294
 20
-361.4223164876831
  0
LWPOLYLINE
  5
D3
330
53
100
AcDbEntity
  8
LC-002-002-----0
  6
Continuous
 62
     7
100
AcDbPolyline
 90
        2
 70
     0
 43
1.0
 10
0.0001125632669
 20
-375.588269487683
 10
1.86509656326694
 20
-361.422310487683
  0
LINE
  5
D4
330
53
100
AcDbEntity
  8
LC-002-002-----0
  6
Continuous
 62
     7
100
AcDbLine
 10
25.50010756326697
 20
-389.7381034876831
 30
0.0
 11
37.500138563267
 21
-394.5195524876829
 31
0.0
  0
LINE
  5
D5
330
53
100
AcDbEntity
  8
LC-002-002-----0
  6
Continuous
 62
     7
100
AcDbLine
 10
10.60951656326694
 20
-397.347817487683
 30
0.0
 11
25.50010756326697
 21
-389.7381034876831
 31
0.0
  0
LINE
  5
D6
330
53
100
AcDbEntity
  8
LC-002-002-----0
  6
Continuous
 62
     7
100
AcDbLine
 10
-8.18744343673296
 20
-389.5195524876829
 30
0.0
 11
10.60951656326694
 21
-397.347817487683
 31
0.0
  0
LINE
  5
D7
330
53
100
AcDbEntity
  8
LC-002-002-----0
  6
Continuous
 62
     7
100
AcDbLine
 10
-20.89046843673299
 20
-398.4416004876831
 30
0.0
 11
-8.18744343673296
 21
-389.5195524876829
 31
0.0
  0
LINE
  5
D8
330
53
100
AcDbEntity
  8
LC-002-002-----0
  6
Continuous
 62
     7
100
AcDbLine
 10
-37.49986143673294
 20
-394.5195524876829
 30
0.0
 11
-20.89046843673299
 21
-398.4416004876831
 31
0.0
  0
LINE
  5
D9
330
53
100
AcDbEntity
  8
LC-002-002-----0
  6
Continuous
 62
     7
100
AcDbLine
 10
37.50011256326684
 20
-375.5881664876829
 30
0.0
 11
37.500138563267
 21
-394.5194494876831
 31
0.0
  0
LINE
  5
DA
330
53
100
AcDbEntity
  8
LC-002-002-----0
  6
Continuous
 62
     7
100
AcDbLine
 10
-37.4998874367331
 20
-375.588269487683
 30
0.0
 11
-2.37178743673297
 21
-375.588269487683
 31
0.0
  0
LINE
  5
DB
330
53
100
AcDbEntity
  8
LC-002-002-----0
  6
Continuous
 62
     7
100
AcDbLine
 10
-37.4998874367331
 20
-375.588269487683
 30
0.0
 11
-37.49986143673294
 21
-394.5195524876829
 31
0.0
  0
LINE
  5
DC
330
53
100
AcDbEntity
  8
LC-001-002-----0
  6
Continuous
 62
     7
100
AcDbLine
 10
47.52358366666499
 20
-47.0372883936509
 30
0.0
 11
62.49975966666511
 21
-47.0372883936509
 31
0.0
  0
LINE
  5
DD
330
53
100
AcDbEntity
  8
LC-001-002-----0
  6
Continuous
 62
     7
100
AcDbLine
 10
-28.00027433333497
 20
-98.08608139365094
 30
0.0
 11
27.99979366666503
 21
-98.08608139365094
 31
0.0
  0
LINE
  5
DE
330
53
100
AcDbEntity
  8
LC-001-002-----0
  6
Continuous
 62
     7
100
AcDbLine
 10
27.99979366666503
 20
-98.08608139365094
 30
0.0
 11
27.99979366666503
 21
-112.0859333936509
 31
0.0
  0
LINE
  5
DF
330
53
100
AcDbEntity
  8
LC-001-002-----0
  6
Continuous
 62
     7
100
AcDbLine
 10
-28.00027433333497
 20
-98.08608139365094
 30
0.0
 11
-28.00027433333497
 21
-112.0859333936509
 31
0.0
  0
LINE
  5
E0
330
53
100
AcDbEntity
  8
LC-001-002-----0
  6
Continuous
 62
     7
100
AcDbLine
 10
-28.98826133333495
 20
-114.2822783936509
 30
0.0
 11
28.99975966666511
 21
-114.2822783936509
 31
0.0
  0
LINE
  5
E1
330
53
100
AcDbEntity
  8
LC-001-002-----0
  6
Continuous
 62
     7
100
AcDbLine
 10
-28.98826133333495
 20
-126.612444393651
 30
0.0
 11
28.99975966666511
 21
-126.612444393651
 31
0.0
  0
LINE
  5
E2
330
53
100
AcDbEntity
  8
LC-001-002-----0
  6
Continuous
 62
     7
100
AcDbLine
 10
-28.98826133333495
 20
-138.9426103936509
 30
0.0
 11
28.99975966666511
 21
-138.9426103936509
 31
0.0
  0
LINE
  5
E3
330
53
100
AcDbEntity
  8
LC-001-002-----0
  6
Continuous
 62
     7
100
AcDbLine
 10
-28.98826133333495
 20
-151.2727753936509
 30
0.0
 11
28.99975966666511
 21
-151.2727753936509
 31
0.0
  0
LINE
  5
E4
330
53
100
AcDbEntity
  8
LC-001-002-----0
  6
Continuous
 62
     7
100
AcDbLine
 10
-28.98826133333495
 20
-163.6029413936509
 30
0.0
 11
28.99975966666511
 21
-163.6029413936509
 31
0.0
  0
LINE
  5
E5
330
53
100
AcDbEntity
  8
LC-001-002-----0
  6
Continuous
 62
     7
100
AcDbLine
 10
-28.98826133333495
 20
-175.9331073936509
 30
0.0
 11
28.99975966666511
 21
-175.9331073936509
 31
0.0
  0
LINE
  5
E6
330
53
100
AcDbEntity
  8
LC-001-002-----0
  6
Continuous
 62
     7
100
AcDbLine
 10
-28.98826133333495
 20
-188.2632723936509
 30
0.0
 11
28.99975966666511
 21
-188.2632723936509
 31
0.0
  0
LINE
  5
E7
330
53
100
AcDbEntity
  8
LC-001-002-----0
  6
Continuous
 62
     7
100
AcDbLine
 10
-28.98826133333495
 20
-200.5934383936509
 30
0.0
 11
28.99975966666511
 21
-200.5934383936509
 31
0.0
  0
LINE
  5
E8
330
53
100
AcDbEntity
  8
LC-001-002-----0
  6
Continuous
 62
     7
100
AcDbLine
 10
-28.98826133333495
 20
-212.9236043936509
 30
0.0
 11
28.99975966666511
 21
-212.9236043936509
 31
0.0
  0
LINE
  5
E9
330
53
100
AcDbEntity
  8
LC-001-002-----0
  6
Continuous
 62
     7
100
AcDbLine
 10
-28.98826133333495
 20
-225.2537693936509
 30
0.0
 11
28.99975966666511
 21
-225.2537693936509
 31
0.0
  0
LINE
  5
EA
330
53
100
AcDbEntity
  8
LC-001-002-----0
  6
Continuous
 62
     7
100
AcDbLine
 10
-28.98826133333495
 20
-237.5839353936509
 30
0.0
 11
28.99975966666511
 21
-237.5839353936509
 31
0.0
  0
LINE
  5
EB
330
53
100
AcDbEntity
  8
LC-001-002-----0
  6
Continuous
 62
     7
100
AcDbLine
 10
-28.98826133333495
 20
-249.9141013936509
 30
0.0
 11
28.99975966666511
 21
-249.9141013936509
 31
0.0
  0
LINE
  5
EC
330
53
100
AcDbEntity
  8
LC-001-002-----0
  6
Continuous
 62
     7
100
AcDbLine
 10
-28.98826133333495
 20
-262.2442663936509
 30
0.0
 11
28.99975966666511
 21
-262.2442663936509
 31
0.0
  0
LINE
  5
ED
330
53
100
AcDbEntity
  8
LC-001-002-----0
  6
Continuous
 62
     7
100
AcDbLine
 10
-28.98826133333495
 20
-274.5744323936509
 30
0.0
 11
28.99975966666511
 21
-274.5744323936509
 31
0.0
  0
LINE
  5
EE
330
53
100
AcDbEntity
  8
LC-001-002-----0
  6
Continuous
 62
     7
100
AcDbLine
 10
-28.98826133333495
 20
-286.9045983936509
 30
0.0
 11
28.99975966666511
 21
-286.9045983936509
 31
0.0
  0
LINE
  5
EF
330
53
100
AcDbEntity
  8
LC-001-002-----0
  6
Continuous
 62
     7
100
AcDbLine
 10
-28.98826133333495
 20
-299.2347633936509
 30
0.0
 11
28.99975966666511
 21
-299.2347633936509
 31
0.0
  0
LINE
  5
F0
330
53
100
AcDbEntity
  8
LC-001-002-----0
  6
Continuous
 62
     7
100
AcDbLine
 10
-28.98826133333495
 20
-311.5649293936509
 30
0.0
 11
28.99975966666511
 21
-311.5649293936509
 31
0.0
  0
LINE
  5
F1
330
53
100
AcDbEntity
  8
LC-001-002-----0
  6
Continuous
 62
     7
100
AcDbLine
 10
-28.98826133333495
 20
-323.8950953936509
 30
0.0
 11
28.99975966666511
 21
-323.8950953936509
 31
0.0
  0
LINE
  5
F2
330
53
100
AcDbEntity
  8
LC-001-002-----0
  6
Continuous
 62
     7
100
AcDbLine
 10
-28.98755633333491
 20
-336.2252603936509
 30
0.0
 11
28.98707466666497
 21
-336.2252603936509
 31
0.0
  0
LINE
  5
F3
330
53
100
AcDbEntity
  8
LC-001-002-----0
  6
Continuous
 62
     7
100
AcDbLine
 10
-29.00024033333494
 20
-337.5860813936509
 30
0.0
 11
28.99975966666511
 21
-337.5860813936509
 31
0.0
  0
LINE
  5
F4
330
53
100
AcDbEntity
  8
LC-001-002-----0
  6
Continuous
 62
     7
100
AcDbLine
 10
28.99975966666511
 20
-337.198180393651
 30
0.0
 11
-28.98755633333491
 21
-337.198180393651
 31
0.0
  0
LINE
  5
F5
330
53
100
AcDbEntity
  8
LC-001-002-----0
  6
Continuous
 62
     7
100
AcDbLine
 10
-28.00024033333494
 20
-338.0860813936509
 30
0.0
 11
27.99975966666511
 21
-338.0860813936509
 31
0.0
  0
LINE
  5
F6
330
53
100
AcDbEntity
  8
LC-001-002-----0
  6
Continuous
 62
     7
100
AcDbLine
 10
-28.00024033333494
 20
-343.5860813936509
 30
0.0
 11
27.99975966666511
 21
-343.5860813936509
 31
0.0
  0
LINE
  5
F7
330
53
100
AcDbEntity
  8
LC-001-002-----0
  6
Continuous
 62
     7
100
AcDbLine
 10
-34.50024033333494
 20
-161.406596393651
 30
0.0
 11
-29.50024033333494
 21
-161.406596393651
 31
0.0
  0
LINE
  5
F8
330
53
100
AcDbEntity
  8
LC-001-002-----0
  6
Continuous
 62
     7
100
AcDbLine
 10
34.49975966666511
 20
-161.406596393651
 30
0.0
 11
-29.50024033333494
 21
-161.406596393651
 31
0.0
  0
LINE
  5
F9
330
53
100
AcDbEntity
  8
LC-001-002-----0
  6
Continuous
 62
     7
100
AcDbLine
 10
29.49975966666511
 20
-173.7367613936509
 30
0.0
 11
34.49975966666511
 21
-173.7367613936509
 31
0.0
  0
LINE
  5
FA
330
53
100
AcDbEntity
  8
LC-001-002-----0
  6
Continuous
 62
     7
100
AcDbLine
 10
-29.50024033333494
 20
-186.0669273936509
 30
0.0
 11
34.49975966666511
 21
-186.0669273936509
 31
0.0
  0
LINE
  5
FB
330
53
100
AcDbEntity
  8
LC-001-002-----0
  6
Continuous
 62
     7
100
AcDbLine
 10
29.49975966666511
 20
-198.3970933936509
 30
0.0
 11
34.49975966666511
 21
-198.3970933936509
 31
0.0
  0
LINE
  5
FC
330
53
100
AcDbEntity
  8
LC-001-002-----0
  6
Continuous
 62
     7
100
AcDbLine
 10
-29.50024033333494
 20
-210.7272583936509
 30
0.0
 11
34.49975966666511
 21
-210.7272583936509
 31
0.0
  0
LINE
  5
FD
330
53
100
AcDbEntity
  8
LC-001-002-----0
  6
Continuous
 62
     7
100
AcDbLine
 10
29.49975966666511
 20
-223.0574243936509
 30
0.0
 11
34.49975966666511
 21
-223.0574243936509
 31
0.0
  0
LINE
  5
FE
330
53
100
AcDbEntity
  8
LC-001-002-----0
  6
Continuous
 62
     7
100
AcDbLine
 10
28.99975966666511
 20
-337.5860813936509
 30
0.0
 11
28.49975966666511
 21
-338.0860813936509
 31
0.0
  0
LINE
  5
FF
330
53
100
AcDbEntity
  8
LC-001-002-----0
  6
Continuous
 62
     7
100
AcDbLine
 10
28.49975966666511
 20
-338.0860813936509
 30
0.0
 11
27.99975966666511
 21
-338.0860813936509
 31
0.0
  0
LINE
  5
100
330
53
100
AcDbEntity
  8
LC-001-002-----0
  6
Continuous
 62
     7
100
AcDbLine
 10
28.99975966666511
 20
-247.2177553936509
 30
0.0
 11
28.99975966666511
 21
-238.5568553936509
 31
0.0
  0
LINE
  5
101
330
53
100
AcDbEntity
  8
LC-001-002-----0
  6
Continuous
 62
     7
100
AcDbLine
 10
28.99975966666511
 20
-271.8780873936509
 30
0.0
 11
28.99975966666511
 21
-263.2171863936509
 31
0.0
  0
LINE
  5
102
330
53
100
AcDbEntity
  8
LC-001-002-----0
  6
Continuous
 62
     7
100
AcDbLine
 10
28.99975966666511
 20
-321.1987493936509
 30
0.0
 11
28.99975966666511
 21
-312.5378493936509
 31
0.0
  0
LINE
  5
103
330
53
100
AcDbEntity
  8
LC-001-002-----0
  6
Continuous
 62
     7
100
AcDbLine
 10
28.99975966666511
 20
-308.8685843936509
 30
0.0
 11
28.99975966666511
 21
-300.2076833936509
 31
0.0
  0
LINE
  5
104
330
53
100
AcDbEntity
  8
LC-001-002-----0
  6
Continuous
 62
     7
100
AcDbLine
 10
28.99975966666511
 20
-296.538418393651
 30
0.0
 11
28.99975966666511
 21
-287.8775183936509
 31
0.0
  0
LINE
  5
105
330
53
100
AcDbEntity
  8
LC-001-002-----0
  6
Continuous
 62
     7
100
AcDbLine
 10
28.99975966666511
 20
-284.2082523936509
 30
0.0
 11
28.99975966666511
 21
-275.5473523936509
 31
0.0
  0
LINE
  5
106
330
53
100
AcDbEntity
  8
LC-001-002-----0
  6
Continuous
 62
     7
100
AcDbLine
 10
28.99975966666511
 20
-259.5479213936509
 30
0.0
 11
28.99975966666511
 21
-250.8870213936509
 31
0.0
  0
LINE
  5
107
330
53
100
AcDbEntity
  8
LC-001-002-----0
  6
Continuous
 62
     7
100
AcDbLine
 10
-29.50024033333494
 20
-235.3875903936509
 30
0.0
 11
34.49975966666511
 21
-235.3875903936509
 31
0.0
  0
LINE
  5
108
330
53
100
AcDbEntity
  8
LC-001-002-----0
  6
Continuous
 62
     7
100
AcDbLine
 10
34.60856966666506
 20
-335.0126743936509
 30
0.0
 11
29.74515266666504
 21
-336.2252603936509
 31
0.0
  0
LINE
  5
109
330
53
100
AcDbEntity
  8
LC-001-002-----0
  6
Continuous
 62
     7
100
AcDbLine
 10
29.49975966666511
 20
-247.7177553936509
 30
0.0
 11
34.49975966666511
 21
-247.7177553936509
 31
0.0
  0
LINE
  5
10A
330
53
100
AcDbEntity
  8
LC-001-002-----0
  6
Continuous
 62
     7
100
AcDbLine
 10
34.60927466666499
 20
-322.682509393651
 30
0.0
 11
29.74585766666496
 21
-323.8950953936509
 31
0.0
  0
LINE
  5
10B
330
53
100
AcDbEntity
  8
LC-001-002-----0
  6
Continuous
 62
     7
100
AcDbLine
 10
28.99975966666511
 20
-234.8875903936509
 30
0.0
 11
28.99975966666511
 21
-226.2266893936509
 31
0.0
  0
LINE
  5
10C
330
53
100
AcDbEntity
  8
LC-001-002-----0
  6
Continuous
 62
     7
100
AcDbLine
 10
28.99975966666511
 20
-222.5574243936509
 30
0.0
 11
28.99975966666511
 21
-213.8965243936509
 31
0.0
  0
LINE
  5
10D
330
53
100
AcDbEntity
  8
LC-001-002-----0
  6
Continuous
 62
     7
100
AcDbLine
 10
-32.00024033333494
 20
-260.0479213936509
 30
0.0
 11
34.49975966666511
 21
-260.0479213936509
 31
0.0
  0
LINE
  5
10E
330
53
100
AcDbEntity
  8
LC-001-002-----0
  6
Continuous
 62
     7
100
AcDbLine
 10
29.49975966666511
 20
-272.3780873936509
 30
0.0
 11
34.49975966666511
 21
-272.3780873936509
 31
0.0
  0
LINE
  5
10F
330
53
100
AcDbEntity
  8
LC-001-002-----0
  6
Continuous
 62
     7
100
AcDbLine
 10
34.60997966666514
 20
-310.3523433936509
 30
0.0
 11
29.74656266666511
 21
-311.5649293936509
 31
0.0
  0
LINE
  5
110
330
53
100
AcDbEntity
  8
LC-001-002-----0
  6
Continuous
 62
     7
100
AcDbLine
 10
29.49975966666511
 20
-284.7082523936509
 30
0.0
 11
34.49975966666511
 21
-284.7082523936509
 31
0.0
  0
LINE
  5
111
330
53
100
AcDbEntity
  8
LC-001-002-----0
  6
Continuous
 62
     7
100
AcDbLine
 10
34.61068366666495
 20
-298.0221773936509
 30
0.0
 11
29.74726666666493
 21
-299.2347633936509
 31
0.0
  0
LINE
  5
112
330
53
100
AcDbEntity
  8
LC-001-002-----0
  6
Continuous
 62
     7
100
AcDbLine
 10
-29.50024033333494
 20
-297.038418393651
 30
0.0
 11
34.49975966666511
 21
-297.038418393651
 31
0.0
  0
LINE
  5
113
330
53
100
AcDbEntity
  8
LC-001-002-----0
  6
Continuous
 62
     7
100
AcDbLine
 10
34.61138866666511
 20
-285.692012393651
 30
0.0
 11
29.74797166666508
 21
-286.9045983936509
 31
0.0
  0
LINE
  5
114
330
53
100
AcDbEntity
  8
LC-001-002-----0
  6
Continuous
 62
     7
100
AcDbLine
 10
-32.00024033333494
 20
-309.3685843936509
 30
0.0
 11
34.49975966666511
 21
-309.3685843936509
 31
0.0
  0
LINE
  5
115
330
53
100
AcDbEntity
  8
LC-001-002-----0
  6
Continuous
 62
     7
100
AcDbLine
 10
-29.50024033333494
 20
-321.6987493936509
 30
0.0
 11
34.49975966666511
 21
-321.6987493936509
 31
0.0
  0
LINE
  5
116
330
53
100
AcDbEntity
  8
LC-001-002-----0
  6
Continuous
 62
     7
100
AcDbLine
 10
34.61209366666503
 20
-273.3618463936509
 30
0.0
 11
29.74867666666501
 21
-274.5744323936509
 31
0.0
  0
LINE
  5
117
330
53
100
AcDbEntity
  8
LC-001-002-----0
  6
Continuous
 62
     7
100
AcDbLine
 10
28.99975966666511
 20
-210.2272583936509
 30
0.0
 11
28.99975966666511
 21
-201.5663583936509
 31
0.0
  0
LINE
  5
118
330
53
100
AcDbEntity
  8
LC-001-002-----0
  6
Continuous
 62
     7
100
AcDbLine
 10
28.99975966666511
 20
-197.8970933936509
 30
0.0
 11
28.99975966666511
 21
-189.2361923936509
 31
0.0
  0
LINE
  5
119
330
53
100
AcDbEntity
  8
LC-001-002-----0
  6
Continuous
 62
     7
100
AcDbLine
 10
28.99975966666511
 20
-185.5669273936509
 30
0.0
 11
28.99975966666511
 21
-176.9060273936509
 31
0.0
  0
LINE
  5
11A
330
53
100
AcDbEntity
  8
LC-001-002-----0
  6
Continuous
 62
     7
100
AcDbLine
 10
29.49975966666511
 20
-334.028915393651
 30
0.0
 11
34.49975966666511
 21
-334.028915393651
 31
0.0
  0
LINE
  5
11B
330
53
100
AcDbEntity
  8
LC-001-002-----0
  6
Continuous
 62
     7
100
AcDbLine
 10
28.99975966666511
 20
-173.2367613936509
 30
0.0
 11
28.99975966666511
 21
-164.5758613936509
 31
0.0
  0
LINE
  5
11C
330
53
100
AcDbEntity
  8
LC-001-002-----0
  6
Continuous
 62
     7
100
AcDbLine
 10
28.99975966666511
 20
-333.528915393651
 30
0.0
 11
28.99975966666511
 21
-324.8680153936509
 31
0.0
  0
LINE
  5
11D
330
53
100
AcDbEntity
  8
LC-001-002-----0
  6
Continuous
 62
     7
100
AcDbLine
 10
28.99975966666511
 20
-337.198180393651
 30
0.0
 11
28.99975966666511
 21
-337.5860813936509
 31
0.0
  0
LINE
  5
11E
330
53
100
AcDbEntity
  8
LC-001-002-----0
  6
Continuous
 62
     7
100
AcDbLine
 10
29.49975966666511
 20
-173.7367613936509
 30
0.0
 11
-34.50024033333494
 21
-173.7367613936509
 31
0.0
  0
LINE
  5
11F
330
53
100
AcDbEntity
  8
LC-001-002-----0
  6
Continuous
 62
     7
100
AcDbLine
 10
34.61279766666507
 20
-261.0316803936509
 30
0.0
 11
29.74938066666505
 21
-262.2442663936509
 31
0.0
  0
LINE
  5
120
330
53
100
AcDbEntity
  8
LC-001-002-----0
  6
Continuous
 62
     7
100
AcDbLine
 10
-29.50024033333494
 20
-186.0669273936509
 30
0.0
 11
-34.50024033333494
 21
-186.0669273936509
 31
0.0
  0
LINE
  5
121
330
53
100
AcDbEntity
  8
LC-001-002-----0
  6
Continuous
 62
     7
100
AcDbLine
 10
34.613502666665
 20
-248.7015153936509
 30
0.0
 11
29.75008566666497
 21
-249.9141013936509
 31
0.0
  0
LINE
  5
122
330
53
100
AcDbEntity
  8
LC-001-002-----0
  6
Continuous
 62
     7
100
AcDbLine
 10
31.99975966666511
 20
-198.3970933936509
 30
0.0
 11
-34.50024033333494
 21
-198.3970933936509
 31
0.0
  0
LINE
  5
123
330
53
100
AcDbEntity
  8
LC-001-002-----0
  6
Continuous
 62
     7
100
AcDbLine
 10
-29.50024033333494
 20
-210.7272583936509
 30
0.0
 11
-34.50024033333494
 21
-210.7272583936509
 31
0.0
  0
LINE
  5
124
330
53
100
AcDbEntity
  8
LC-001-002-----0
  6
Continuous
 62
     7
100
AcDbLine
 10
34.61420766666515
 20
-236.3713493936509
 30
0.0
 11
29.75079066666513
 21
-237.5839353936509
 31
0.0
  0
LINE
  5
125
330
53
100
AcDbEntity
  8
LC-001-002-----0
  6
Continuous
 62
     7
100
AcDbLine
 10
31.99975966666511
 20
-223.0574243936509
 30
0.0
 11
-34.50024033333494
 21
-223.0574243936509
 31
0.0
  0
LINE
  5
126
330
53
100
AcDbEntity
  8
LC-001-002-----0
  6
Continuous
 62
     7
100
AcDbLine
 10
-29.00024033333494
 20
-337.5860813936509
 30
0.0
 11
-28.50024033333494
 21
-338.0860813936509
 31
0.0
  0
LINE
  5
127
330
53
100
AcDbEntity
  8
LC-001-002-----0
  6
Continuous
 62
     7
100
AcDbLine
 10
-28.50024033333494
 20
-338.0860813936509
 30
0.0
 11
-28.00024033333494
 21
-338.0860813936509
 31
0.0
  0
LINE
  5
128
330
53
100
AcDbEntity
  8
LC-001-002-----0
  6
Continuous
 62
     7
100
AcDbLine
 10
34.61491266666508
 20
-224.0411833936509
 30
0.0
 11
29.75149466666494
 21
-225.2537693936509
 31
0.0
  0
LINE
  5
129
330
53
100
AcDbEntity
  8
LC-001-002-----0
  6
Continuous
 62
     7
100
AcDbLine
 10
34.61561666666512
 20
-211.7110183936509
 30
0.0
 11
29.75219966666509
 21
-212.9236043936509
 31
0.0
  0
LINE
  5
12A
330
53
100
AcDbEntity
  8
LC-001-002-----0
  6
Continuous
 62
     7
100
AcDbLine
 10
-29.00024033333494
 20
-247.2177553936509
 30
0.0
 11
-29.00024033333494
 21
-238.5568553936509
 31
0.0
  0
LINE
  5
12B
330
53
100
AcDbEntity
  8
LC-001-002-----0
  6
Continuous
 62
     7
100
AcDbLine
 10
34.61632166666504
 20
-199.3808523936509
 30
0.0
 11
29.75290466666502
 21
-200.5934383936509
 31
0.0
  0
LINE
  5
12C
330
53
100
AcDbEntity
  8
LC-001-002-----0
  6
Continuous
 62
     7
100
AcDbLine
 10
-29.00024033333494
 20
-271.8780873936509
 30
0.0
 11
-29.00024033333494
 21
-263.2171863936509
 31
0.0
  0
LINE
  5
12D
330
53
100
AcDbEntity
  8
LC-001-002-----0
  6
Continuous
 62
     7
100
AcDbLine
 10
28.99975966666511
 20
-123.9160993936509
 30
0.0
 11
28.99975966666511
 21
-115.252574393651
 31
0.0
  0
LINE
  5
12E
330
53
100
AcDbEntity
  8
LC-001-002-----0
  6
Continuous
 62
     7
100
AcDbLine
 10
28.99975966666511
 20
-136.2462643936509
 30
0.0
 11
28.99975966666511
 21
-127.5853643936509
 31
0.0
  0
LINE
  5
12F
330
53
100
AcDbEntity
  8
LC-001-002-----0
  6
Continuous
 62
     7
100
AcDbLine
 10
28.99975966666511
 20
-148.5764303936509
 30
0.0
 11
28.99975966666511
 21
-139.9155303936509
 31
0.0
  0
LINE
  5
130
330
53
100
AcDbEntity
  8
LC-001-002-----0
  6
Continuous
 62
     7
100
AcDbLine
 10
28.99975966666511
 20
-160.906596393651
 30
0.0
 11
28.99975966666511
 21
-152.2456953936509
 31
0.0
  0
LINE
  5
131
330
53
100
AcDbEntity
  8
LC-001-002-----0
  6
Continuous
 62
     7
100
AcDbLine
 10
-29.00024033333494
 20
-321.1987493936509
 30
0.0
 11
-29.00024033333494
 21
-312.5378493936509
 31
0.0
  0
LINE
  5
132
330
53
100
AcDbEntity
  8
LC-001-002-----0
  6
Continuous
 62
     7
100
AcDbLine
 10
-29.00024033333494
 20
-308.8685843936509
 30
0.0
 11
-29.00024033333494
 21
-300.2076833936509
 31
0.0
  0
LINE
  5
133
330
53
100
AcDbEntity
  8
LC-001-002-----0
  6
Continuous
 62
     7
100
AcDbLine
 10
-29.00024033333494
 20
-296.538418393651
 30
0.0
 11
-29.00024033333494
 21
-287.8775183936509
 31
0.0
  0
LINE
  5
134
330
53
100
AcDbEntity
  8
LC-001-002-----0
  6
Continuous
 62
     7
100
AcDbLine
 10
-29.00024033333494
 20
-284.2082523936509
 30
0.0
 11
-29.00024033333494
 21
-275.5473523936509
 31
0.0
  0
LINE
  5
135
330
53
100
AcDbEntity
  8
LC-001-002-----0
  6
Continuous
 62
     7
100
AcDbLine
 10
-29.00024033333494
 20
-259.5479213936509
 30
0.0
 11
-29.00024033333494
 21
-250.8870213936509
 31
0.0
  0
LINE
  5
136
330
53
100
AcDbEntity
  8
LC-001-002-----0
  6
Continuous
 62
     7
100
AcDbLine
 10
-29.50024033333494
 20
-235.3875903936509
 30
0.0
 11
-34.50024033333494
 21
-235.3875903936509
 31
0.0
  0
LINE
  5
137
330
53
100
AcDbEntity
  8
LC-001-002-----0
  6
Continuous
 62
     7
100
AcDbLine
 10
-34.60905133333489
 20
-335.0126743936509
 30
0.0
 11
-29.74563433333486
 21
-336.2252603936509
 31
0.0
  0
LINE
  5
138
330
53
100
AcDbEntity
  8
LC-001-002-----0
  6
Continuous
 62
     7
100
AcDbLine
 10
29.49975966666511
 20
-247.7177553936509
 30
0.0
 11
-34.50024033333494
 21
-247.7177553936509
 31
0.0
  0
LINE
  5
139
330
53
100
AcDbEntity
  8
LC-001-002-----0
  6
Continuous
 62
     7
100
AcDbLine
 10
-34.60975633333493
 20
-322.682509393651
 30
0.0
 11
-29.74633933333502
 21
-323.8950953936509
 31
0.0
  0
LINE
  5
13A
330
53
100
AcDbEntity
  8
LC-001-002-----0
  6
Continuous
 62
     7
100
AcDbLine
 10
-29.00024033333494
 20
-234.8875903936509
 30
0.0
 11
-29.00024033333494
 21
-226.2266893936509
 31
0.0
  0
LINE
  5
13B
330
53
100
AcDbEntity
  8
LC-001-002-----0
  6
Continuous
 62
     7
100
AcDbLine
 10
-29.00024033333494
 20
-222.5574243936509
 30
0.0
 11
-29.00024033333494
 21
-213.8965243936509
 31
0.0
  0
LINE
  5
13C
330
53
100
AcDbEntity
  8
LC-001-002-----0
  6
Continuous
 62
     7
100
AcDbLine
 10
-29.50024033333494
 20
-260.0479213936509
 30
0.0
 11
-34.50024033333494
 21
-260.0479213936509
 31
0.0
  0
LINE
  5
13D
330
53
100
AcDbEntity
  8
LC-001-002-----0
  6
Continuous
 62
     7
100
AcDbLine
 10
29.49975966666511
 20
-272.3780873936509
 30
0.0
 11
-34.50024033333494
 21
-272.3780873936509
 31
0.0
  0
LINE
  5
13E
330
53
100
AcDbEntity
  8
LC-001-002-----0
  6
Continuous
 62
     7
100
AcDbLine
 10
-34.61046033333486
 20
-310.3523433936509
 30
0.0
 11
-29.74704333333494
 21
-311.5649293936509
 31
0.0
  0
LINE
  5
13F
330
53
100
AcDbEntity
  8
LC-001-002-----0
  6
Continuous
 62
     7
100
AcDbLine
 10
29.49975966666511
 20
-284.7082523936509
 30
0.0
 11
-34.50024033333494
 21
-284.7082523936509
 31
0.0
  0
LINE
  5
140
330
53
100
AcDbEntity
  8
LC-001-002-----0
  6
Continuous
 62
     7
100
AcDbLine
 10
-34.61116533333501
 20
-298.0221773936509
 30
0.0
 11
-29.74774833333498
 21
-299.2347633936509
 31
0.0
  0
LINE
  5
141
330
53
100
AcDbEntity
  8
LC-001-002-----0
  6
Continuous
 62
     7
100
AcDbLine
 10
-29.50024033333494
 20
-297.038418393651
 30
0.0
 11
-34.50024033333494
 21
-297.038418393651
 31
0.0
  0
LINE
  5
142
330
53
100
AcDbEntity
  8
LC-001-002-----0
  6
Continuous
 62
     7
100
AcDbLine
 10
-34.61187033333493
 20
-285.692012393651
 30
0.0
 11
-29.74845333333491
 21
-286.9045983936509
 31
0.0
  0
LINE
  5
143
330
53
100
AcDbEntity
  8
LC-001-002-----0
  6
Continuous
 62
     7
100
AcDbLine
 10
-29.50024033333494
 20
-309.3685843936509
 30
0.0
 11
-34.50024033333494
 21
-309.3685843936509
 31
0.0
  0
LINE
  5
144
330
53
100
AcDbEntity
  8
LC-001-002-----0
  6
Continuous
 62
     7
100
AcDbLine
 10
-29.50024033333494
 20
-321.6987493936509
 30
0.0
 11
-34.50024033333494
 21
-321.6987493936509
 31
0.0
  0
LINE
  5
145
330
53
100
AcDbEntity
  8
LC-001-002-----0
  6
Continuous
 62
     7
100
AcDbLine
 10
-34.61257533333486
 20
-273.3618463936509
 30
0.0
 11
-29.74915733333495
 21
-274.5744323936509
 31
0.0
  0
LINE
  5
146
330
53
100
AcDbEntity
  8
LC-001-002-----0
  6
Continuous
 62
     7
100
AcDbLine
 10
-29.00024033333494
 20
-210.2272583936509
 30
0.0
 11
-29.00024033333494
 21
-201.5663583936509
 31
0.0
  0
LINE
  5
147
330
53
100
AcDbEntity
  8
LC-001-002-----0
  6
Continuous
 62
     7
100
AcDbLine
 10
-29.00024033333494
 20
-197.8970933936509
 30
0.0
 11
-29.00024033333494
 21
-189.2361923936509
 31
0.0
  0
LINE
  5
148
330
53
100
AcDbEntity
  8
LC-001-002-----0
  6
Continuous
 62
     7
100
AcDbLine
 10
-29.00024033333494
 20
-185.5669273936509
 30
0.0
 11
-29.00024033333494
 21
-176.9060273936509
 31
0.0
  0
LINE
  5
149
330
53
100
AcDbEntity
  8
LC-001-002-----0
  6
Continuous
 62
     7
100
AcDbLine
 10
29.49975966666511
 20
-334.028915393651
 30
0.0
 11
-34.50024033333494
 21
-334.028915393651
 31
0.0
  0
LINE
  5
14A
330
53
100
AcDbEntity
  8
LC-001-002-----0
  6
Continuous
 62
     7
100
AcDbLine
 10
-29.00024033333494
 20
-173.2367613936509
 30
0.0
 11
-29.00024033333494
 21
-164.5758613936509
 31
0.0
  0
LINE
  5
14B
330
53
100
AcDbEntity
  8
LC-001-002-----0
  6
Continuous
 62
     7
100
AcDbLine
 10
-29.00024033333494
 20
-333.528915393651
 30
0.0
 11
-29.00024033333494
 21
-324.8680153936509
 31
0.0
  0
LINE
  5
14C
330
53
100
AcDbEntity
  8
LC-001-002-----0
  6
Continuous
 62
     7
100
AcDbLine
 10
-29.00024033333494
 20
-337.198180393651
 30
0.0
 11
-29.00024033333494
 21
-337.5860813936509
 31
0.0
  0
LINE
  5
14D
330
53
100
AcDbEntity
  8
LC-001-002-----0
  6
Continuous
 62
     7
100
AcDbLine
 10
-34.6132793333349
 20
-261.0316803936509
 30
0.0
 11
-29.74986233333488
 21
-262.2442663936509
 31
0.0
  0
LINE
  5
14E
330
53
100
AcDbEntity
  8
LC-001-002-----0
  6
Continuous
 62
     7
100
AcDbLine
 10
-34.61398433333494
 20
-248.7015153936509
 30
0.0
 11
-29.75056733333491
 21
-249.9141013936509
 31
0.0
  0
LINE
  5
14F
330
53
100
AcDbEntity
  8
LC-001-002-----0
  6
Continuous
 62
     7
100
AcDbLine
 10
-34.61468933333498
 20
-236.3713493936509
 30
0.0
 11
-29.75127233333495
 21
-237.5839353936509
 31
0.0
  0
LINE
  5
150
330
53
100
AcDbEntity
  8
LC-001-002-----0
  6
Continuous
 62
     7
100
AcDbLine
 10
-34.61539333333491
 20
-224.0411833936509
 30
0.0
 11
-29.75197633333499
 21
-225.2537693936509
 31
0.0
  0
LINE
  5
151
330
53
100
AcDbEntity
  8
LC-001-002-----0
  6
Continuous
 62
     7
100
AcDbLine
 10
34.61702666666497
 20
-187.0506863936509
 30
0.0
 11
29.75360966666494
 21
-188.2632723936509
 31
0.0
  0
LINE
  5
152
330
53
100
AcDbEntity
  8
LC-001-002-----0
  6
Continuous
 62
     7
100
AcDbLine
 10
34.61773066666501
 20
-174.7205213936509
 30
0.0
 11
29.75431366666498
 21
-175.9331073936509
 31
0.0
  0
LINE
  5
153
330
53
100
AcDbEntity
  8
LC-001-002-----0
  6
Continuous
 62
     7
100
AcDbLine
 10
34.61843566666494
 20
-162.3903553936509
 30
0.0
 11
29.75501866666514
 21
-163.6029413936509
 31
0.0
  0
LINE
  5
154
330
53
100
AcDbEntity
  8
LC-001-002-----0
  6
Continuous
 62
     7
100
AcDbLine
 10
-34.61609833333495
 20
-211.7110183936509
 30
0.0
 11
-29.75268133333492
 21
-212.9236043936509
 31
0.0
  0
LINE
  5
155
330
53
100
AcDbEntity
  8
LC-001-002-----0
  6
Continuous
 62
     7
100
AcDbLine
 10
34.61914066666509
 20
-150.060189393651
 30
0.0
 11
29.75572366666506
 21
-151.2727753936509
 31
0.0
  0
LINE
  5
156
330
53
100
AcDbEntity
  8
LC-001-002-----0
  6
Continuous
 62
     7
100
AcDbLine
 10
34.50046366666493
 20
-112.0859333936509
 30
0.0
 11
27.99975966666511
 21
-112.0859333936509
 31
0.0
  0
LINE
  5
157
330
53
100
AcDbEntity
  8
LC-001-002-----0
  6
Continuous
 62
     7
100
AcDbLine
 10
34.49975966666511
 20
-124.4160993936509
 30
0.0
 11
29.49975966666511
 21
-124.4160993936509
 31
0.0
  0
LINE
  5
158
330
53
100
AcDbEntity
  8
LC-001-002-----0
  6
Continuous
 62
     7
100
AcDbLine
 10
34.49975966666511
 20
-136.7462643936509
 30
0.0
 11
-29.50024033333494
 21
-136.7462643936509
 31
0.0
  0
LINE
  5
159
330
53
100
AcDbEntity
  8
LC-001-002-----0
  6
Continuous
 62
     7
100
AcDbLine
 10
34.49975966666511
 20
-149.0764303936509
 30
0.0
 11
29.49975966666511
 21
-149.0764303936509
 31
0.0
  0
LINE
  5
15A
330
53
100
AcDbEntity
  8
LC-001-002-----0
  6
Continuous
 62
     7
100
AcDbLine
 10
-34.61680333333487
 20
-199.3808523936509
 30
0.0
 11
-29.75338633333496
 21
-200.5934383936509
 31
0.0
  0
LINE
  5
15B
330
53
100
AcDbEntity
  8
LC-001-002-----0
  6
Continuous
 62
     7
100
AcDbLine
 10
-29.00024033333494
 20
-123.9160993936509
 30
0.0
 11
-29.00024033333494
 21
-115.252574393651
 31
0.0
  0
LINE
  5
15C
330
53
100
AcDbEntity
  8
LC-001-002-----0
  6
Continuous
 62
     7
100
AcDbLine
 10
-29.00024033333494
 20
-136.2462643936509
 30
0.0
 11
-29.00024033333494
 21
-127.5853643936509
 31
0.0
  0
LINE
  5
15D
330
53
100
AcDbEntity
  8
LC-001-002-----0
  6
Continuous
 62
     7
100
AcDbLine
 10
-29.00024033333494
 20
-148.5764303936509
 30
0.0
 11
-29.00024033333494
 21
-139.9155303936509
 31
0.0
  0
LINE
  5
15E
330
53
100
AcDbEntity
  8
LC-001-002-----0
  6
Continuous
 62
     7
100
AcDbLine
 10
-29.00024033333494
 20
-160.906596393651
 30
0.0
 11
-29.00024033333494
 21
-152.2456953936509
 31
0.0
  0
LINE
  5
15F
330
53
100
AcDbEntity
  8
LC-001-002-----0
  6
Continuous
 62
     7
100
AcDbLine
 10
-34.61750733333491
 20
-187.0506863936509
 30
0.0
 11
-29.75409033333489
 21
-188.2632723936509
 31
0.0
  0
LINE
  5
160
330
53
100
AcDbEntity
  8
LC-001-002-----0
  6
Continuous
 62
     7
100
AcDbLine
 10
-34.61821233333495
 20
-174.7205213936509
 30
0.0
 11
-29.75479533333493
 21
-175.9331073936509
 31
0.0
  0
LINE
  5
161
330
53
100
AcDbEntity
  8
LC-001-002-----0
  6
Continuous
 62
     7
100
AcDbLine
 10
-34.61891733333499
 20
-162.3903553936509
 30
0.0
 11
-29.75550033333497
 21
-163.6029413936509
 31
0.0
  0
LINE
  5
162
330
53
100
AcDbEntity
  8
LC-001-002-----0
  6
Continuous
 62
     7
100
AcDbLine
 10
34.61984466666513
 20
-137.7300243936509
 30
0.0
 11
29.7564276666651
 21
-138.9426103936509
 31
0.0
  0
LINE
  5
163
330
53
100
AcDbEntity
  8
LC-001-002-----0
  6
Continuous
 62
     7
100
AcDbLine
 10
-34.61962133333492
 20
-150.060189393651
 30
0.0
 11
-29.75620433333501
 21
-151.2727753936509
 31
0.0
  0
LINE
  5
164
330
53
100
AcDbEntity
  8
LC-001-002-----0
  6
Continuous
 62
     7
100
AcDbLine
 10
-34.50094533333498
 20
-112.0859333936509
 30
0.0
 11
27.99975966666511
 21
-112.0859333936509
 31
0.0
  0
LINE
  5
165
330
53
100
AcDbEntity
  8
LC-001-002-----0
  6
Continuous
 62
     7
100
AcDbLine
 10
-34.50024033333494
 20
-124.4160993936509
 30
0.0
 11
29.49975966666511
 21
-124.4160993936509
 31
0.0
  0
LINE
  5
166
330
53
100
AcDbEntity
  8
LC-001-002-----0
  6
Continuous
 62
     7
100
AcDbLine
 10
-34.50024033333494
 20
-136.7462643936509
 30
0.0
 11
-29.50024033333494
 21
-136.7462643936509
 31
0.0
  0
LINE
  5
167
330
53
100
AcDbEntity
  8
LC-001-002-----0
  6
Continuous
 62
     7
100
AcDbLine
 10
-34.50024033333494
 20
-149.0764303936509
 30
0.0
 11
29.49975966666511
 21
-149.0764303936509
 31
0.0
  0
LINE
  5
168
330
53
100
AcDbEntity
  8
LC-001-002-----0
  6
Continuous
 62
     7
100
AcDbLine
 10
-34.62032633333496
 20
-137.7300243936509
 30
0.0
 11
-29.75690933333493
 21
-138.9426103936509
 31
0.0
  0
LINE
  5
169
330
53
100
AcDbEntity
  8
LC-001-002-----0
  6
Continuous
 62
     7
100
AcDbLine
 10
34.62054966666506
 20
-125.3998583936509
 30
0.0
 11
29.75713266666503
 21
-126.612444393651
 31
0.0
  0
LINE
  5
16A
330
53
100
AcDbEntity
  8
LC-001-002-----0
  6
Continuous
 62
     7
100
AcDbLine
 10
34.62125466666498
 20
-113.0696923936509
 30
0.0
 11
29.75783766666496
 21
-114.2822783936509
 31
0.0
  0
LINE
  5
16B
330
53
100
AcDbEntity
  8
LC-001-002-----0
  6
Continuous
 62
     7
100
AcDbLine
 10
-34.62103133333488
 20
-125.3998583936509
 30
0.0
 11
-29.75761433333486
 21
-126.612444393651
 31
0.0
  0
LINE
  5
16C
330
53
100
AcDbEntity
  8
LC-001-002-----0
  6
Continuous
 62
     7
100
AcDbLine
 10
-34.62173633333492
 20
-113.0696923936509
 30
0.0
 11
-29.75831933333501
 21
-114.2822783936509
 31
0.0
  0
LINE
  5
16D
330
53
100
AcDbEntity
  8
LC-001-002-----0
  6
Continuous
 62
     7
100
AcDbLine
 10
-80.75024033333494
 20
-47.0372883936509
 30
0.0
 11
47.52358366666499
 21
-47.0372883936509
 31
0.0
  0
LINE
  5
16E
330
53
100
AcDbEntity
  8
LC-001-002-----0
  6
Continuous
 62
     7
100
AcDbLine
 10
62.49975966666511
 20
-47.0372883936509
 30
0.0
 11
27.99979366666503
 21
-98.08608139365094
 31
0.0
  0
LINE
  5
16F
330
53
100
AcDbEntity
  8
LC-001-002-----0
  6
Continuous
 62
     7
100
AcDbLine
 10
-62.50024033333494
 20
-47.0372883936509
 30
0.0
 11
-28.00027433333497
 21
-98.08608139365094
 31
0.0
  0
LINE
  5
170
330
53
100
AcDbEntity
  8
LC-001-002-----0
  6
Continuous
 62
     7
100
AcDbLine
 10
62.49975966666511
 20
-47.0372883936509
 30
0.0
 11
80.74975966666511
 21
-47.0372883936509
 31
0.0
  0
LINE
  5
171
330
53
100
AcDbEntity
  8
LC-001-002-----0
  6
Continuous
 62
     7
100
AcDbLine
 10
24.99975966666511
 20
-348.0860813936509
 30
0.0
 11
26.79398766666509
 21
-348.0860813936509
 31
0.0
  0
LINE
  5
172
330
53
100
AcDbEntity
  8
LC-001-002-----0
  6
Continuous
 62
     7
100
AcDbLine
 10
-25.00024033333494
 20
-348.0860813936509
 30
0.0
 11
-26.79446933333492
 21
-348.0860813936509
 31
0.0
  0
LINE
  5
173
330
53
100
AcDbEntity
  8
LC-001-002-----0
  6
Continuous
 62
     7
100
AcDbLine
 10
-26.79446933333492
 20
-348.0860813936509
 30
0.0
 11
-28.00024033333494
 21
-343.5860813936509
 31
0.0
  0
LINE
  5
174
330
53
100
AcDbEntity
  8
LC-001-002-----0
  6
Continuous
 62
     7
100
AcDbLine
 10
26.79398766666509
 20
-348.0860813936509
 30
0.0
 11
27.99975966666511
 21
-343.5860813936509
 31
0.0
  0
LINE
  5
175
330
53
100
AcDbEntity
  8
LC-001-002-----0
  6
Continuous
 62
     7
100
AcDbLine
 10
27.99975966666511
 20
-338.0860813936509
 30
0.0
 11
27.99975966666511
 21
-343.5860813936509
 31
0.0
  0
LINE
  5
176
330
53
100
AcDbEntity
  8
LC-001-002-----0
  6
Continuous
 62
     7
100
AcDbLine
 10
-28.00024033333494
 20
-338.0860813936509
 30
0.0
 11
-28.00024033333494
 21
-343.5860813936509
 31
0.0
  0
LINE
  5
177
330
53
100
AcDbEntity
  8
LC-001-002-----0
  6
Continuous
 62
     7
100
AcDbLine
 10
-25.00024033333494
 20
-348.0860813936509
 30
0.0
 11
24.99975966666511
 21
-348.0860813936509
 31
0.0
  0
LINE
  5
178
330
53
100
AcDbEntity
  8
1
  6
PHANTOM
 62
     2
100
AcDbLine
 10
0.00007841394591
 20
-350.7232005293776
 30
0.0
 11
0.00014599675302
 21
-399.9320174124733
 31
0.0
  0
LINE
  5
179
330
53
100
AcDbEntity
  8
1
  6
PHANTOM
 62
     2
100
AcDbLine
 10
-0.00024033333497
 20
-6.08608139365083
 30
0.0
 11
-0.00024033333497
 21
-348.0860813936508
 31
0.0
  0
ARC
  5
17A
330
53
100
AcDbEntity
  8
LC-002-002-RND-0
  6
Continuous
 62
     7
100
AcDbCircle
 10
-174.999597
 20
-5.08608139365078
 30
0.0
 40
2.0
100
AcDbArc
 50
90.0
 51
180.0
  0
ARC
  5
17B
330
53
100
AcDbEntity
  8
LC-002-002-RND-0
  6
Continuous
 62
     7
100
AcDbCircle
 10
174.9989335269793
 20
-5.08608139365078
 30
0.0
 40
2.0
100
AcDbArc
 50
0.0
 51
90.0
  0
ARC
  5
17C
330
53
100
AcDbEntity
  8
LC-002-002-RND-0
  6
Continuous
 62
     7
100
AcDbCircle
 10
29.49975966666511
 20
-173.2367613936509
 30
0.0
 40
0.5
100
AcDbArc
 50
180.0
 51
-90.0
  0
ARC
  5
17D
330
53
100
AcDbEntity
  8
LC-002-002-RND-0
  6
Continuous
 62
     7
100
AcDbCircle
 10
29.49975966666511
 20
-185.5669273936509
 30
0.0
 40
0.5
100
AcDbArc
 50
180.0
 51
-90.0
  0
ARC
  5
17E
330
53
100
AcDbEntity
  8
LC-002-002-RND-0
  6
Continuous
 62
     7
100
AcDbCircle
 10
29.49975966666511
 20
-197.8970933936509
 30
0.0
 40
0.5
100
AcDbArc
 50
180.0
 51
-90.0
  0
ARC
  5
17F
330
53
100
AcDbEntity
  8
LC-002-002-RND-0
  6
Continuous
 62
     7
100
AcDbCircle
 10
29.49975966666511
 20
-210.2272583936509
 30
0.0
 40
0.5
100
AcDbArc
 50
180.0
 51
-90.0
  0
ARC
  5
180
330
53
100
AcDbEntity
  8
LC-002-002-RND-0
  6
Continuous
 62
     7
100
AcDbCircle
 10
29.49975966666511
 20
-222.5574243936509
 30
0.0
 40
0.5
100
AcDbArc
 50
180.0
 51
-90.0
  0
ARC
  5
181
330
53
100
AcDbEntity
  8
LC-002-002-RND-0
  6
Continuous
 62
     7
100
AcDbCircle
 10
29.49975966666511
 20
-234.8875903936509
 30
0.0
 40
0.5
100
AcDbArc
 50
180.0
 51
-90.0
  0
ARC
  5
182
330
53
100
AcDbEntity
  8
LC-002-002-RND-0
  6
Continuous
 62
     7
100
AcDbCircle
 10
29.49975966666511
 20
-247.2177553936509
 30
0.0
 40
0.5
100
AcDbArc
 50
180.0
 51
-90.0
  0
ARC
  5
183
330
53
100
AcDbEntity
  8
LC-002-002-RND-0
  6
Continuous
 62
     7
100
AcDbCircle
 10
29.49975966666511
 20
-259.5479213936509
 30
0.0
 40
0.5
100
AcDbArc
 50
180.0
 51
-90.0
  0
ARC
  5
184
330
53
100
AcDbEntity
  8
LC-002-002-RND-0
  6
Continuous
 62
     7
100
AcDbCircle
 10
29.49975966666511
 20
-271.8780873936509
 30
0.0
 40
0.5
100
AcDbArc
 50
180.0
 51
-90.0
  0
ARC
  5
185
330
53
100
AcDbEntity
  8
LC-002-002-RND-0
  6
Continuous
 62
     7
100
AcDbCircle
 10
29.49975966666511
 20
-284.2082523936509
 30
0.0
 40
0.5
100
AcDbArc
 50
180.0
 51
-90.0
  0
ARC
  5
186
330
53
100
AcDbEntity
  8
LC-002-002-RND-0
  6
Continuous
 62
     7
100
AcDbCircle
 10
29.49975966666511
 20
-296.538418393651
 30
0.0
 40
0.5
100
AcDbArc
 50
180.0
 51
-90.0
  0
ARC
  5
187
330
53
100
AcDbEntity
  8
LC-002-002-RND-0
  6
Continuous
 62
     7
100
AcDbCircle
 10
29.49975966666511
 20
-308.8685843936509
 30
0.0
 40
0.5
100
AcDbArc
 50
180.0
 51
-90.0
  0
ARC
  5
188
330
53
100
AcDbEntity
  8
LC-002-002-RND-0
  6
Continuous
 62
     7
100
AcDbCircle
 10
29.49975966666511
 20
-333.528915393651
 30
0.0
 40
0.5
100
AcDbArc
 50
180.0
 51
-90.0
  0
ARC
  5
189
330
53
100
AcDbEntity
  8
LC-002-002-RND-0
  6
Continuous
 62
     7
100
AcDbCircle
 10
29.49975966666511
 20
-321.1987493936509
 30
0.0
 40
0.5
100
AcDbArc
 50
180.0
 51
-90.0
  0
ARC
  5
18A
330
53
100
AcDbEntity
  8
LC-001-002-----0
  6
Continuous
 62
     7
100
AcDbCircle
 10
34.48777966666512
 20
-334.5282103936509
 30
0.0
 40
0.4992949999999201
100
AcDbArc
 50
-76.00000000004925
 51
90.0
  0
ARC
  5
18B
330
53
100
AcDbEntity
  8
LC-001-002-----0
  6
Continuous
 62
     7
100
AcDbCircle
 10
29.98707466666497
 20
-337.1955563936509
 30
0.0
 40
1.000000000000065
100
AcDbArc
 50
104.0000000000158
 51
180.0
  0
ARC
  5
18C
330
53
100
AcDbEntity
  8
LC-001-002-----0
  6
Continuous
 62
     7
100
AcDbCircle
 10
34.48848366666493
 20
-322.198045393651
 30
0.0
 40
0.4992949999999183
100
AcDbArc
 50
-76.00000000005004
 51
90.0
  0
ARC
  5
18D
330
53
100
AcDbEntity
  8
LC-001-002-----0
  6
Continuous
 62
     7
100
AcDbCircle
 10
29.98777966666512
 20
-324.8653903936509
 30
0.0
 40
1.000000000000117
100
AcDbArc
 50
104.0000000000279
 51
180.0
  0
ARC
  5
18E
330
53
100
AcDbEntity
  8
LC-001-002-----0
  6
Continuous
 62
     7
100
AcDbCircle
 10
34.48918866666509
 20
-309.8678793936509
 30
0.0
 40
0.4992949999999183
100
AcDbArc
 50
-76.00000000005004
 51
90.0
  0
ARC
  5
18F
330
53
100
AcDbEntity
  8
LC-001-002-----0
  6
Continuous
 62
     7
100
AcDbCircle
 10
29.98848366666493
 20
-312.5352253936509
 30
0.0
 40
1.000000000000062
100
AcDbArc
 50
104.0000000000152
 51
180.0
  0
ARC
  5
190
330
53
100
AcDbEntity
  8
LC-001-002-----0
  6
Continuous
 62
     7
100
AcDbCircle
 10
34.48989366666501
 20
-297.5377133936509
 30
0.0
 40
0.4992949999999201
100
AcDbArc
 50
-76.00000000004925
 51
90.0
  0
ARC
  5
191
330
53
100
AcDbEntity
  8
LC-001-002-----0
  6
Continuous
 62
     7
100
AcDbCircle
 10
29.98918866666509
 20
-300.2050593936509
 30
0.0
 40
1.000000000000065
100
AcDbArc
 50
104.0000000000158
 51
180.0
  0
ARC
  5
192
330
53
100
AcDbEntity
  8
LC-001-002-----0
  6
Continuous
 62
     7
100
AcDbCircle
 10
34.49059866666494
 20
-285.2075483936509
 30
0.0
 40
0.4992949999999201
100
AcDbArc
 50
-76.00000000004925
 51
90.0
  0
ARC
  5
193
330
53
100
AcDbEntity
  8
LC-001-002-----0
  6
Continuous
 62
     7
100
AcDbCircle
 10
29.98989366666501
 20
-287.8748933936509
 30
0.0
 40
0.9999999999999517
100
AcDbArc
 50
104.0000000000168
 51
180.0
  0
ARC
  5
194
330
53
100
AcDbEntity
  8
LC-002-002-RND-0
  6
Continuous
 62
     7
100
AcDbCircle
 10
-29.50024033333494
 20
-173.2367613936509
 30
0.0
 40
0.5
100
AcDbArc
 50
-90.0
 51
0.0
  0
ARC
  5
195
330
53
100
AcDbEntity
  8
LC-002-002-RND-0
  6
Continuous
 62
     7
100
AcDbCircle
 10
-29.50024033333494
 20
-185.5669273936509
 30
0.0
 40
0.5
100
AcDbArc
 50
-90.0
 51
0.0
  0
ARC
  5
196
330
53
100
AcDbEntity
  8
LC-002-002-RND-0
  6
Continuous
 62
     7
100
AcDbCircle
 10
-29.50024033333494
 20
-197.8970933936509
 30
0.0
 40
0.5
100
AcDbArc
 50
-90.0
 51
0.0
  0
ARC
  5
197
330
53
100
AcDbEntity
  8
LC-002-002-RND-0
  6
Continuous
 62
     7
100
AcDbCircle
 10
-29.50024033333494
 20
-210.2272583936509
 30
0.0
 40
0.5
100
AcDbArc
 50
-90.0
 51
0.0
  0
ARC
  5
198
330
53
100
AcDbEntity
  8
LC-002-002-RND-0
  6
Continuous
 62
     7
100
AcDbCircle
 10
-29.50024033333494
 20
-222.5574243936509
 30
0.0
 40
0.5
100
AcDbArc
 50
-90.0
 51
0.0
  0
ARC
  5
199
330
53
100
AcDbEntity
  8
LC-002-002-RND-0
  6
Continuous
 62
     7
100
AcDbCircle
 10
-29.50024033333494
 20
-234.8875903936509
 30
0.0
 40
0.5
100
AcDbArc
 50
-90.0
 51
0.0
  0
ARC
  5
19A
330
53
100
AcDbEntity
  8
LC-002-002-RND-0
  6
Continuous
 62
     7
100
AcDbCircle
 10
-29.50024033333494
 20
-247.2177553936509
 30
0.0
 40
0.5
100
AcDbArc
 50
-90.0
 51
0.0
  0
ARC
  5
19B
330
53
100
AcDbEntity
  8
LC-002-002-RND-0
  6
Continuous
 62
     7
100
AcDbCircle
 10
-29.50024033333494
 20
-259.5479213936509
 30
0.0
 40
0.5
100
AcDbArc
 50
-90.0
 51
0.0
  0
ARC
  5
19C
330
53
100
AcDbEntity
  8
LC-002-002-RND-0
  6
Continuous
 62
     7
100
AcDbCircle
 10
-29.50024033333494
 20
-271.8780873936509
 30
0.0
 40
0.5
100
AcDbArc
 50
-90.0
 51
0.0
  0
ARC
  5
19D
330
53
100
AcDbEntity
  8
LC-002-002-RND-0
  6
Continuous
 62
     7
100
AcDbCircle
 10
-29.50024033333494
 20
-284.2082523936509
 30
0.0
 40
0.5
100
AcDbArc
 50
-90.0
 51
0.0
  0
ARC
  5
19E
330
53
100
AcDbEntity
  8
LC-001-002-----0
  6
Continuous
 62
     7
100
AcDbCircle
 10
34.49130266666498
 20
-272.8773823936509
 30
0.0
 40
0.4992949999999201
100
AcDbArc
 50
-76.00000000004925
 51
90.0
  0
ARC
  5
19F
330
53
100
AcDbEntity
  8
LC-002-002-RND-0
  6
Continuous
 62
     7
100
AcDbCircle
 10
-29.50024033333494
 20
-296.538418393651
 30
0.0
 40
0.5
100
AcDbArc
 50
-90.0
 51
0.0
  0
ARC
  5
1A0
330
53
100
AcDbEntity
  8
LC-002-002-RND-0
  6
Continuous
 62
     7
100
AcDbCircle
 10
-29.50024033333494
 20
-308.8685843936509
 30
0.0
 40
0.5
100
AcDbArc
 50
-90.0
 51
0.0
  0
ARC
  5
1A1
330
53
100
AcDbEntity
  8
LC-002-002-RND-0
  6
Continuous
 62
     7
100
AcDbCircle
 10
-29.50024033333494
 20
-333.528915393651
 30
0.0
 40
0.5
100
AcDbArc
 50
-90.0
 51
0.0
  0
ARC
  5
1A2
330
53
100
AcDbEntity
  8
LC-002-002-RND-0
  6
Continuous
 62
     7
100
AcDbCircle
 10
-29.50024033333494
 20
-321.1987493936509
 30
0.0
 40
0.5
100
AcDbArc
 50
-90.0
 51
0.0
  0
ARC
  5
1A3
330
53
100
AcDbEntity
  8
LC-001-002-----0
  6
Continuous
 62
     7
100
AcDbCircle
 10
29.99059866666494
 20
-275.5447283936509
 30
0.0
 40
1.00000000000012
100
AcDbArc
 50
104.000000000015
 51
180.0
  0
ARC
  5
1A4
330
53
100
AcDbEntity
  8
LC-001-002-----0
  6
Continuous
 62
     7
100
AcDbCircle
 10
34.49200766666513
 20
-260.5472163936509
 30
0.0
 40
0.4992949999999201
100
AcDbArc
 50
-76.00000000004925
 51
90.0
  0
ARC
  5
1A5
330
53
100
AcDbEntity
  8
LC-001-002-----0
  6
Continuous
 62
     7
100
AcDbCircle
 10
29.99130266666498
 20
-263.2145623936509
 30
0.0
 40
1.000000000000064
100
AcDbArc
 50
104.0000000000156
 51
180.0
  0
ARC
  5
1A6
330
53
100
AcDbEntity
  8
LC-001-002-----0
  6
Continuous
 62
     7
100
AcDbCircle
 10
34.49271266666506
 20
-248.2170513936509
 30
0.0
 40
0.4992949999999201
100
AcDbArc
 50
-76.00000000004925
 51
90.0
  0
ARC
  5
1A7
330
53
100
AcDbEntity
  8
LC-001-002-----0
  6
Continuous
 62
     7
100
AcDbCircle
 10
29.99200766666513
 20
-250.8843963936509
 30
0.0
 40
1.000000000000118
100
AcDbArc
 50
104.0000000000281
 51
180.0
  0
ARC
  5
1A8
330
53
100
AcDbEntity
  8
LC-001-002-----0
  6
Continuous
 62
     7
100
AcDbCircle
 10
34.4934166666651
 20
-235.8868853936509
 30
0.0
 40
0.4992949999999201
100
AcDbArc
 50
-76.00000000004925
 51
90.0
  0
ARC
  5
1A9
330
53
100
AcDbEntity
  8
LC-001-002-----0
  6
Continuous
 62
     7
100
AcDbCircle
 10
29.99271266666506
 20
-238.5542313936509
 30
0.0
 40
1.000000000000065
100
AcDbArc
 50
104.0000000000158
 51
180.0
  0
ARC
  5
1AA
330
53
100
AcDbEntity
  8
LC-001-002-----0
  6
Continuous
 62
     7
100
AcDbCircle
 10
34.49412166666502
 20
-223.5567193936509
 30
0.0
 40
0.4992949999999183
100
AcDbArc
 50
-76.00000000005004
 51
90.0
  0
ARC
  5
1AB
330
53
100
AcDbEntity
  8
LC-001-002-----0
  6
Continuous
 62
     7
100
AcDbCircle
 10
29.9934166666651
 20
-226.2240653936509
 30
0.0
 40
1.000000000000118
100
AcDbArc
 50
104.0000000000281
 51
180.0
  0
ARC
  5
1AC
330
53
100
AcDbEntity
  8
LC-001-002-----0
  6
Continuous
 62
     7
100
AcDbCircle
 10
34.49482666666495
 20
-211.2265543936509
 30
0.0
 40
0.4992949999999201
100
AcDbArc
 50
-76.00000000004925
 51
90.0
  0
ARC
  5
1AD
330
53
100
AcDbEntity
  8
LC-001-002-----0
  6
Continuous
 62
     7
100
AcDbCircle
 10
29.99412166666502
 20
-213.8938993936509
 30
0.0
 40
1.000000000000089
100
AcDbArc
 50
104.0000000000148
 51
180.0
  0
ARC
  5
1AE
330
53
100
AcDbEntity
  8
LC-001-002-----0
  6
Continuous
 62
     7
100
AcDbCircle
 10
34.49553066666499
 20
-198.8963883936509
 30
0.0
 40
0.4992949999999201
100
AcDbArc
 50
-76.00000000004925
 51
90.0
  0
ARC
  5
1AF
330
53
100
AcDbEntity
  8
LC-002-002-RND-0
  6
Continuous
 62
     7
100
AcDbCircle
 10
29.49975966666511
 20
-123.9160993936509
 30
0.0
 40
0.5
100
AcDbArc
 50
180.0
 51
-90.0
  0
ARC
  5
1B0
330
53
100
AcDbEntity
  8
LC-002-002-RND-0
  6
Continuous
 62
     7
100
AcDbCircle
 10
29.49975966666511
 20
-136.2462643936509
 30
0.0
 40
0.5
100
AcDbArc
 50
180.0
 51
-90.0
  0
ARC
  5
1B1
330
53
100
AcDbEntity
  8
LC-002-002-RND-0
  6
Continuous
 62
     7
100
AcDbCircle
 10
29.49975966666511
 20
-148.5764303936509
 30
0.0
 40
0.5
100
AcDbArc
 50
180.0
 51
-90.0
  0
ARC
  5
1B2
330
53
100
AcDbEntity
  8
LC-002-002-RND-0
  6
Continuous
 62
     7
100
AcDbCircle
 10
29.49975966666511
 20
-160.906596393651
 30
0.0
 40
0.5
100
AcDbArc
 50
180.0
 51
-90.0
  0
ARC
  5
1B3
330
53
100
AcDbEntity
  8
LC-001-002-----0
  6
Continuous
 62
     7
100
AcDbCircle
 10
-34.48826133333495
 20
-334.5282103936509
 30
0.0
 40
0.4992949999999041
100
AcDbArc
 50
90.0
 51
-103.9999999999507
  0
ARC
  5
1B4
330
53
100
AcDbEntity
  8
LC-001-002-----0
  6
Continuous
 62
     7
100
AcDbCircle
 10
-29.98755633333491
 20
-337.1955563936509
 30
0.0
 40
1.0
100
AcDbArc
 50
0.0
 51
75.99999999997807
  0
ARC
  5
1B5
330
53
100
AcDbEntity
  8
LC-001-002-----0
  6
Continuous
 62
     7
100
AcDbCircle
 10
-34.48896533333499
 20
-322.198045393651
 30
0.0
 40
0.4992950000000747
100
AcDbArc
 50
90.0
 51
-103.9999999999507
  0
ARC
  5
1B6
330
53
100
AcDbEntity
  8
LC-001-002-----0
  6
Continuous
 62
     7
100
AcDbCircle
 10
-29.98826133333495
 20
-324.8653903936509
 30
0.0
 40
1.0
100
AcDbArc
 50
0.0
 51
75.9999999999842
  0
ARC
  5
1B7
330
53
100
AcDbEntity
  8
LC-001-002-----0
  6
Continuous
 62
     7
100
AcDbCircle
 10
-34.48967033333491
 20
-309.8678793936509
 30
0.0
 40
0.4992950000000178
100
AcDbArc
 50
90.0
 51
-103.9999999999507
  0
ARC
  5
1B8
330
53
100
AcDbEntity
  8
LC-001-002-----0
  6
Continuous
 62
     7
100
AcDbCircle
 10
-29.98896533333499
 20
-312.5352253936509
 30
0.0
 40
1.0
100
AcDbArc
 50
0.0
 51
75.99999999997826
  0
ARC
  5
1B9
330
53
100
AcDbEntity
  8
LC-001-002-----0
  6
Continuous
 62
     7
100
AcDbCircle
 10
-34.49037533333495
 20
-297.5377133936509
 30
0.0
 40
0.4992949999999041
100
AcDbArc
 50
90.0
 51
-103.9999999999507
  0
ARC
  5
1BA
330
53
100
AcDbEntity
  8
LC-001-002-----0
  6
Continuous
 62
     7
100
AcDbCircle
 10
-29.98967033333491
 20
-300.2050593936509
 30
0.0
 40
1.0
100
AcDbArc
 50
0.0
 51
75.99999999998478
  0
ARC
  5
1BB
330
53
100
AcDbEntity
  8
LC-001-002-----0
  6
Continuous
 62
     7
100
AcDbCircle
 10
-34.49107933333488
 20
-285.2075483936509
 30
0.0
 40
0.499294999999961
100
AcDbArc
 50
90.0
 51
-103.9999999999507
  0
ARC
  5
1BC
330
53
100
AcDbEntity
  8
LC-001-002-----0
  6
Continuous
 62
     7
100
AcDbCircle
 10
-29.99037533333495
 20
-287.8748933936509
 30
0.0
 40
1.0
100
AcDbArc
 50
0.0
 51
75.99999999997708
  0
ARC
  5
1BD
330
53
100
AcDbEntity
  8
LC-001-002-----0
  6
Continuous
 62
     7
100
AcDbCircle
 10
-34.49178433333492
 20
-272.8773823936509
 30
0.0
 40
0.4992950000000178
100
AcDbArc
 50
90.0
 51
-103.9999999999507
  0
ARC
  5
1BE
330
53
100
AcDbEntity
  8
LC-001-002-----0
  6
Continuous
 62
     7
100
AcDbCircle
 10
-29.99107933333488
 20
-275.5447283936509
 30
0.0
 40
1.0
100
AcDbArc
 50
0.0
 51
75.99999999998556
  0
ARC
  5
1BF
330
53
100
AcDbEntity
  8
LC-001-002-----0
  6
Continuous
 62
     7
100
AcDbCircle
 10
-34.49248933333496
 20
-260.5472163936509
 30
0.0
 40
0.4992950000000178
100
AcDbArc
 50
90.0
 51
-103.9999999999507
  0
ARC
  5
1C0
330
53
100
AcDbEntity
  8
LC-001-002-----0
  6
Continuous
 62
     7
100
AcDbCircle
 10
-29.99178433333492
 20
-263.2145623936509
 30
0.0
 40
1.0
100
AcDbArc
 50
0.0
 51
75.99999999997807
  0
ARC
  5
1C1
330
53
100
AcDbEntity
  8
LC-001-002-----0
  6
Continuous
 62
     7
100
AcDbCircle
 10
-34.493193333335
 20
-248.2170513936509
 30
0.0
 40
0.4992950000000178
100
AcDbArc
 50
90.0
 51
-103.9999999999507
  0
ARC
  5
1C2
330
53
100
AcDbEntity
  8
LC-001-002-----0
  6
Continuous
 62
     7
100
AcDbCircle
 10
-29.99248933333496
 20
-250.8843963936509
 30
0.0
 40
1.0
100
AcDbArc
 50
0.0
 51
75.99999999998498
  0
ARC
  5
1C3
330
53
100
AcDbEntity
  8
LC-001-002-----0
  6
Continuous
 62
     7
100
AcDbCircle
 10
-34.49389833333493
 20
-235.8868853936509
 30
0.0
 40
0.4992950000000178
100
AcDbArc
 50
90.0
 51
-103.9999999999507
  0
ARC
  5
1C4
330
53
100
AcDbEntity
  8
LC-001-002-----0
  6
Continuous
 62
     7
100
AcDbCircle
 10
-29.993193333335
 20
-238.5542313936509
 30
0.0
 40
1.0
100
AcDbArc
 50
0.0
 51
75.99999999997807
  0
ARC
  5
1C5
330
53
100
AcDbEntity
  8
LC-001-002-----0
  6
Continuous
 62
     7
100
AcDbCircle
 10
-34.49460333333485
 20
-223.5567193936509
 30
0.0
 40
0.4992949999999894
100
AcDbArc
 50
90.0
 51
-103.9999999999507
  0
ARC
  5
1C6
330
53
100
AcDbEntity
  8
LC-001-002-----0
  6
Continuous
 62
     7
100
AcDbCircle
 10
-29.99389833333493
 20
-226.2240653936509
 30
0.0
 40
1.0
100
AcDbArc
 50
0.0
 51
75.99999999998438
  0
ARC
  5
1C7
330
53
100
AcDbEntity
  8
LC-001-002-----0
  6
Continuous
 62
     7
100
AcDbCircle
 10
29.99482666666495
 20
-201.5637343936509
 30
0.0
 40
1.000000000000062
100
AcDbArc
 50
104.0000000000152
 51
180.0
  0
ARC
  5
1C8
330
53
100
AcDbEntity
  8
LC-001-002-----0
  6
Continuous
 62
     7
100
AcDbCircle
 10
34.49623566666514
 20
-186.5662223936509
 30
0.0
 40
0.4992949999999201
100
AcDbArc
 50
-76.00000000004925
 51
90.0
  0
ARC
  5
1C9
330
53
100
AcDbEntity
  8
LC-001-002-----0
  6
Continuous
 62
     7
100
AcDbCircle
 10
29.99553066666499
 20
-189.2335683936509
 30
0.0
 40
1.000000000000062
100
AcDbArc
 50
104.0000000000152
 51
180.0
  0
ARC
  5
1CA
330
53
100
AcDbEntity
  8
LC-001-002-----0
  6
Continuous
 62
     7
100
AcDbCircle
 10
34.49694066666507
 20
-174.2360573936509
 30
0.0
 40
0.4992949999999201
100
AcDbArc
 50
-76.00000000004925
 51
90.0
  0
ARC
  5
1CB
330
53
100
AcDbEntity
  8
LC-001-002-----0
  6
Continuous
 62
     7
100
AcDbCircle
 10
-34.495308333335
 20
-211.2265543936509
 30
0.0
 40
0.4992949999999894
100
AcDbArc
 50
90.0
 51
-103.9999999999507
  0
ARC
  5
1CC
330
53
100
AcDbEntity
  8
LC-001-002-----0
  6
Continuous
 62
     7
100
AcDbCircle
 10
29.99623566666514
 20
-176.9034023936509
 30
0.0
 40
1.000000000000145
100
AcDbArc
 50
104.0000000000275
 51
180.0
  0
ARC
  5
1CD
330
53
100
AcDbEntity
  8
LC-001-002-----0
  6
Continuous
 62
     7
100
AcDbCircle
 10
34.49764566666499
 20
-161.9058913936509
 30
0.0
 40
0.4992949999999201
100
AcDbArc
 50
-76.00000000004925
 51
90.0
  0
ARC
  5
1CE
330
53
100
AcDbEntity
  8
LC-001-002-----0
  6
Continuous
 62
     7
100
AcDbCircle
 10
29.99694066666507
 20
-164.5732373936509
 30
0.0
 40
1.000000000000091
100
AcDbArc
 50
104.0000000000152
 51
180.0
  0
ARC
  5
1CF
330
53
100
AcDbEntity
  8
LC-001-002-----0
  6
Continuous
 62
     7
100
AcDbCircle
 10
34.49834966666504
 20
-149.575725393651
 30
0.0
 40
0.4992949999999201
100
AcDbArc
 50
-76.00000000004925
 51
90.0
  0
ARC
  5
1D0
330
53
100
AcDbEntity
  8
LC-001-002-----0
  6
Continuous
 62
     7
100
AcDbCircle
 10
29.99764566666499
 20
-152.2430713936509
 30
0.0
 40
1.000000000000062
100
AcDbArc
 50
104.0000000000152
 51
180.0
  0
ARC
  5
1D1
330
53
100
AcDbEntity
  8
LC-001-002-----0
  6
Continuous
 62
     7
100
AcDbCircle
 10
-29.99460333333485
 20
-213.8938993936509
 30
0.0
 40
1.0
100
AcDbArc
 50
0.0
 51
75.99999999998518
  0
ARC
  5
1D2
330
53
100
AcDbEntity
  8
LC-001-002-----0
  6
Continuous
 62
     7
100
AcDbCircle
 10
-34.49601233333493
 20
-198.8963883936509
 30
0.0
 40
0.4992950000000178
100
AcDbArc
 50
90.0
 51
-103.9999999999507
  0
ARC
  5
1D3
330
53
100
AcDbEntity
  8
LC-002-002-RND-0
  6
Continuous
 62
     7
100
AcDbCircle
 10
-29.50024033333494
 20
-123.9160993936509
 30
0.0
 40
0.5
100
AcDbArc
 50
-90.0
 51
0.0
  0
ARC
  5
1D4
330
53
100
AcDbEntity
  8
LC-002-002-RND-0
  6
Continuous
 62
     7
100
AcDbCircle
 10
-29.50024033333494
 20
-136.2462643936509
 30
0.0
 40
0.5
100
AcDbArc
 50
-90.0
 51
0.0
  0
ARC
  5
1D5
330
53
100
AcDbEntity
  8
LC-002-002-RND-0
  6
Continuous
 62
     7
100
AcDbCircle
 10
-29.50024033333494
 20
-148.5764303936509
 30
0.0
 40
0.5
100
AcDbArc
 50
-90.0
 51
0.0
  0
ARC
  5
1D6
330
53
100
AcDbEntity
  8
LC-002-002-RND-0
  6
Continuous
 62
     7
100
AcDbCircle
 10
-29.50024033333494
 20
-160.906596393651
 30
0.0
 40
0.5
100
AcDbArc
 50
-90.0
 51
0.0
  0
ARC
  5
1D7
330
53
100
AcDbEntity
  8
LC-001-002-----0
  6
Continuous
 62
     7
100
AcDbCircle
 10
-29.995308333335
 20
-201.5637343936509
 30
0.0
 40
1.0
100
AcDbArc
 50
0.0
 51
75.99999999997866
  0
ARC
  5
1D8
330
53
100
AcDbEntity
  8
LC-001-002-----0
  6
Continuous
 62
     7
100
AcDbCircle
 10
-34.49671733333497
 20
-186.5662223936509
 30
0.0
 40
0.4992949999999894
100
AcDbArc
 50
90.0
 51
-103.9999999999507
  0
ARC
  5
1D9
330
53
100
AcDbEntity
  8
LC-001-002-----0
  6
Continuous
 62
     7
100
AcDbCircle
 10
-29.99601233333493
 20
-189.2335683936509
 30
0.0
 40
1.0
100
AcDbArc
 50
0.0
 51
75.99999999997807
  0
ARC
  5
1DA
330
53
100
AcDbEntity
  8
LC-001-002-----0
  6
Continuous
 62
     7
100
AcDbCircle
 10
-34.4974223333349
 20
-174.2360573936509
 30
0.0
 40
0.4992949999999894
100
AcDbArc
 50
90.0
 51
-103.9999999999507
  0
ARC
  5
1DB
330
53
100
AcDbEntity
  8
LC-001-002-----0
  6
Continuous
 62
     7
100
AcDbCircle
 10
-29.99671733333497
 20
-176.9034023936509
 30
0.0
 40
1.0
100
AcDbArc
 50
0.0
 51
75.99999999997847
  0
ARC
  5
1DC
330
53
100
AcDbEntity
  8
LC-001-002-----0
  6
Continuous
 62
     7
100
AcDbCircle
 10
-34.49812633333494
 20
-161.9058913936509
 30
0.0
 40
0.4992949999999041
100
AcDbArc
 50
90.0
 51
-103.9999999999507
  0
ARC
  5
1DD
330
53
100
AcDbEntity
  8
LC-001-002-----0
  6
Continuous
 62
     7
100
AcDbCircle
 10
-29.9974223333349
 20
-164.5732373936509
 30
0.0
 40
1.0
100
AcDbArc
 50
0.0
 51
75.99999999998458
  0
ARC
  5
1DE
330
53
100
AcDbEntity
  8
LC-001-002-----0
  6
Continuous
 62
     7
100
AcDbCircle
 10
-34.49883133333486
 20
-149.575725393651
 30
0.0
 40
0.4992950000001031
100
AcDbArc
 50
90.0
 51
-103.9999999999507
  0
ARC
  5
1DF
330
53
100
AcDbEntity
  8
LC-001-002-----0
  6
Continuous
 62
     7
100
AcDbCircle
 10
-29.99812633333494
 20
-152.2430713936509
 30
0.0
 40
1.0
100
AcDbArc
 50
0.0
 51
75.9999999999842
  0
ARC
  5
1E0
330
53
100
AcDbEntity
  8
LC-001-002-----0
  6
Continuous
 62
     7
100
AcDbCircle
 10
34.49905466666496
 20
-137.2455603936509
 30
0.0
 40
0.4992949999999201
100
AcDbArc
 50
-76.00000000004925
 51
90.0
  0
ARC
  5
1E1
330
53
100
AcDbEntity
  8
LC-001-002-----0
  6
Continuous
 62
     7
100
AcDbCircle
 10
29.99834966666504
 20
-139.9129063936509
 30
0.0
 40
1.000000000000064
100
AcDbArc
 50
104.0000000000156
 51
180.0
  0
ARC
  5
1E2
330
53
100
AcDbEntity
  8
LC-001-002-----0
  6
Continuous
 62
     7
100
AcDbCircle
 10
-34.49953633333502
 20
-137.2455603936509
 30
0.0
 40
0.4992949999999894
100
AcDbArc
 50
90.0
 51
-103.9999999999507
  0
ARC
  5
1E3
330
53
100
AcDbEntity
  8
LC-001-002-----0
  6
Continuous
 62
     7
100
AcDbCircle
 10
34.49975966666511
 20
-124.9153943936509
 30
0.0
 40
0.4992949999999183
100
AcDbArc
 50
-76.00000000005004
 51
90.0
  0
ARC
  5
1E4
330
53
100
AcDbEntity
  8
LC-001-002-----0
  6
Continuous
 62
     7
100
AcDbCircle
 10
29.99905466666496
 20
-127.5827403936509
 30
0.0
 40
1.000000000000062
100
AcDbArc
 50
104.0000000000152
 51
180.0
  0
ARC
  5
1E5
330
53
100
AcDbEntity
  8
LC-001-002-----0
  6
Continuous
 62
     7
100
AcDbCircle
 10
34.50046366666493
 20
-112.5852283936509
 30
0.0
 40
0.4992949999999201
100
AcDbArc
 50
-76.00000000004925
 51
90.0
  0
ARC
  5
1E6
330
53
100
AcDbEntity
  8
LC-001-002-----0
  6
Continuous
 62
     7
100
AcDbCircle
 10
-29.99883133333486
 20
-139.9129063936509
 30
0.0
 40
1.0
100
AcDbArc
 50
0.0
 51
75.99999999998478
  0
ARC
  5
1E7
330
53
100
AcDbEntity
  8
LC-001-002-----0
  6
Continuous
 62
     7
100
AcDbCircle
 10
-34.50024033333494
 20
-124.9153943936509
 30
0.0
 40
0.4992950000000036
100
AcDbArc
 50
90.0
 51
-103.99999999995
  0
ARC
  5
1E8
330
53
100
AcDbEntity
  8
LC-001-002-----0
  6
Continuous
 62
     7
100
AcDbCircle
 10
-29.99953633333502
 20
-127.5827403936509
 30
0.0
 40
1.0
100
AcDbArc
 50
0.0
 51
75.99999999997826
  0
ARC
  5
1E9
330
53
100
AcDbEntity
  8
LC-001-002-----0
  6
Continuous
 62
     7
100
AcDbCircle
 10
29.99975966666511
 20
-115.252574393651
 30
0.0
 40
1.000000000000228
100
AcDbArc
 50
104.0000000000265
 51
180.0
  0
ARC
  5
1EA
330
53
100
AcDbEntity
  8
LC-001-002-----0
  6
Continuous
 62
     7
100
AcDbCircle
 10
-34.50094533333498
 20
-112.5852283936509
 30
0.0
 40
0.4992949999999894
100
AcDbArc
 50
90.0
 51
-103.9999999999507
  0
ARC
  5
1EB
330
53
100
AcDbEntity
  8
LC-001-002-----0
  6
Continuous
 62
     7
100
AcDbCircle
 10
-30.00024033333494
 20
-115.252574393651
 30
0.0
 40
1.0
100
AcDbArc
 50
0.0
 51
75.99999999998023
  0
ARC
  5
1EC
330
53
100
AcDbEntity
  8
1
  6
Continuous
 62
     7
100
AcDbCircle
 10
-99.50469499785584
 20
-29.58646528489643
 30
0.0
 40
0.500000000000061
100
AcDbArc
 50
-179.9996581377749
 51
-89.99721851747032
  0
ARC
  5
1ED
330
53
100
AcDbEntity
  8
1
  6
Continuous
 62
     7
100
AcDbCircle
 10
99.50403152483511
 20
-29.58646528489643
 30
0.0
 40
0.5000000000000078
100
AcDbArc
 50
-90.00278148252968
 51
-0.00034186222507
  0
ENDBLK
  5
55
330
53
100
AcDbEntity
  8
0
100
AcDbBlockEnd
  0
BLOCK
  5
57
330
56
100
AcDbEntity
  8
0
100
AcDbBlockBegin
  2
062_1E_Laubfangkorb
 70
     0
 71
     0
 10
-867.5839218886072
 20
654.5262580000001
 30
0.0
  3
062_1E_Laubfangkorb
  1

  0
LINE
  5
1EE
330
56
100
AcDbEntity
  8
LC-002-002-----0
  6
Continuous
 62
     7
100
AcDbLine
 10
52.20112626348964
 20
39.30014300000022
 30
0.0
 11
43.59427926348963
 21
60.20012500000013
 31
0.0
  0
LINE
  5
1EF
330
56
100
AcDbEntity
  8
LC-002-002-----0
  6
Continuous
 62
     7
100
AcDbLine
 10
51.60584226348965
 20
39.30014100000022
 30
0.0
 11
42.99899526348963
 21
60.20012400000024
 31
0.0
  0
LINE
  5
1F0
330
56
100
AcDbEntity
  8
LC-002-002-----0
  6
Continuous
 62
     7
100
AcDbLine
 10
51.60584226348965
 20
39.30014100000022
 30
0.0
 11
42.99899526348963
 21
60.20012400000024
 31
0.0
  0
LINE
  5
1F1
330
56
100
AcDbEntity
  8
LC-002-002-----0
  6
Continuous
 62
     7
100
AcDbLine
 10
47.11027126348972
 20
39.30012900000003
 30
0.0
 11
39.39357626348965
 21
60.20011900000014
 31
0.0
  0
LINE
  5
1F2
330
56
100
AcDbEntity
  8
LC-002-002-----0
  6
Continuous
 62
     7
100
AcDbLine
 10
45.96027126348963
 20
39.30012599999992
 30
0.0
 11
38.24357626348956
 21
60.20011700000015
 31
0.0
  0
LINE
  5
1F3
330
56
100
AcDbEntity
  8
LC-002-002-----0
  6
Continuous
 62
     7
100
AcDbLine
 10
38.80884926348972
 20
39.30010599999997
 30
0.0
 11
32.50818226348974
 21
60.20010900000017
 31
0.0
  0
LINE
  5
1F4
330
56
100
AcDbEntity
  8
LC-002-002-----0
  6
Continuous
 62
     7
100
AcDbLine
 10
37.16182426348951
 20
39.30010199999998
 30
0.0
 11
30.85015826348968
 21
60.20010699999995
 31
0.0
  0
LINE
  5
1F5
330
56
100
AcDbEntity
  8
LC-002-002-----0
  6
Continuous
 62
     7
100
AcDbLine
 10
27.86258826348967
 20
39.30007600000005
 30
0.0
 11
23.40732526348961
 21
60.20009699999997
 31
0.0
  0
LINE
  5
1F6
330
56
100
AcDbEntity
  8
LC-002-002-----0
  6
Continuous
 62
     7
100
AcDbLine
 10
25.87073026348958
 20
39.30007099999995
 30
0.0
 11
21.41546626348963
 21
60.20009400000009
 31
0.0
  0
LINE
  5
1F7
330
56
100
AcDbEntity
  8
LC-002-002-----0
  6
Continuous
 62
     7
100
AcDbLine
 10
15.01745626348964
 20
39.30004100000002
 30
0.0
 11
12.71121326348964
 21
60.20008200000012
 31
0.0
  0
LINE
  5
1F8
330
56
100
AcDbEntity
  8
LC-002-002-----0
  6
Continuous
 62
     7
100
AcDbLine
 10
12.79582726348963
 20
39.30003500000004
 30
0.0
 11
10.48958426348963
 21
60.20007900000002
 31
0.0
  0
LINE
  5
1F9
330
56
100
AcDbEntity
  8
LC-002-002-----0
  6
Continuous
 62
     7
100
AcDbLine
 10
-12.79754273651042
 20
39.30000000000001
 30
0.0
 11
-10.4913577365104
 21
60.20004999999998
 31
0.0
  0
LINE
  5
1FA
330
56
100
AcDbEntity
  8
LC-002-002-----0
  6
Continuous
 62
     7
100
AcDbLine
 10
-15.01917173651032
 20
39.30000000000001
 30
0.0
 11
-12.7129867365104
 21
60.2000470000001
 31
0.0
  0
LINE
  5
1FB
330
56
100
AcDbEntity
  8
LC-002-002-----0
  6
Continuous
 62
     7
100
AcDbLine
 10
-25.87244573651037
 20
39.30000000000001
 30
0.0
 11
-21.4172397365104
 21
60.20003500000013
 31
0.0
  0
LINE
  5
1FC
330
56
100
AcDbEntity
  8
LC-002-002-----0
  6
Continuous
 62
     7
100
AcDbLine
 10
-27.86430373651047
 20
39.30000000000001
 30
0.0
 11
-23.40909773651038
 21
60.20003300000013
 31
0.0
  0
LINE
  5
1FD
330
56
100
AcDbEntity
  8
LC-002-002-----0
  6
Continuous
 62
     7
100
AcDbLine
 10
-37.1635397365103
 20
39.30000000000001
 30
0.0
 11
-30.85193173651032
 21
60.20002300000016
 31
0.0
  0
LINE
  5
1FE
330
56
100
AcDbEntity
  8
LC-002-002-----0
  6
Continuous
 62
     7
100
AcDbLine
 10
-38.8105647365104
 20
39.30000000000001
 30
0.0
 11
-32.50995473651039
 21
60.20002000000005
 31
0.0
  0
LINE
  5
1FF
330
56
100
AcDbEntity
  8
LC-002-002-----0
  6
Continuous
 62
     7
100
AcDbLine
 10
-45.96198673651043
 20
39.30000000000001
 30
0.0
 11
-38.24534873651032
 21
60.20001200000007
 31
0.0
  0
LINE
  5
200
330
56
100
AcDbEntity
  8
LC-002-002-----0
  6
Continuous
 62
     7
100
AcDbLine
 10
-47.1119867365104
 20
39.30000000000001
 30
0.0
 11
-39.39534873651041
 21
60.20001100000019
 31
0.0
  0
LINE
  5
201
330
56
100
AcDbEntity
  8
LC-002-002-----0
  6
Continuous
 62
     7
100
AcDbLine
 10
-52.20284173651044
 20
39.30000000000001
 30
0.0
 11
-43.59605273651039
 21
60.20000499999998
 31
0.0
  0
LINE
  5
202
330
56
100
AcDbEntity
  8
LC-002-002-----0
  6
Continuous
 62
     7
100
AcDbLine
 10
-51.60755773651044
 20
39.30000000000001
 30
0.0
 11
-43.0007687365104
 21
60.20000600000009
 31
0.0
  0
LINE
  5
203
330
56
100
AcDbEntity
  8
LC-002-002-----0
  6
Continuous
 62
     7
100
AcDbLine
 10
-57.89345573651031
 20
34.6376820000001
 30
0.0
 11
57.89175226348971
 21
34.6376820000001
 31
0.0
  0
LINE
  5
204
330
56
100
AcDbEntity
  8
LC-002-002-----0
  6
Continuous
 62
     7
100
AcDbLine
 10
-56.19651073651039
 20
39.30000000000001
 30
0.0
 11
56.1947952634896
 21
39.30000000000001
 31
0.0
  0
LINE
  5
205
330
56
100
AcDbEntity
  8
LC-002-002-----0
  6
Continuous
 62
     7
100
AcDbLine
 10
-48.58953373651036
 20
60.19999800000011
 30
0.0
 11
48.5877602634896
 21
60.20013200000022
 31
0.0
  0
LINE
  5
206
330
56
100
AcDbEntity
  8
LC-002-002-----0
  6
Continuous
 62
     7
100
AcDbLine
 10
-57.89345573651031
 20
34.6376820000001
 30
0.0
 11
-56.19651073651039
 21
34.9368990000001
 31
0.0
  0
LINE
  5
207
330
56
100
AcDbEntity
  8
LC-002-002-----0
  6
Continuous
 62
     7
100
AcDbLine
 10
-56.19651073651039
 20
39.30000000000001
 30
0.0
 11
-56.19651073651039
 21
34.9368990000001
 31
0.0
  0
LINE
  5
208
330
56
100
AcDbEntity
  8
LC-002-002-----0
  6
Continuous
 62
     7
100
AcDbLine
 10
-1.15054373651037
 20
60.20006300000006
 30
0.0
 11
-1.15054373651037
 21
39.30000000000001
 31
0.0
  0
LINE
  5
209
330
56
100
AcDbEntity
  8
LC-002-002-----0
  6
Continuous
 62
     7
100
AcDbLine
 10
1.14945626348958
 20
60.20006600000016
 30
0.0
 11
1.14945626348958
 21
39.30000000000001
 31
0.0
  0
LINE
  5
20A
330
56
100
AcDbEntity
  8
LC-002-002-----0
  6
Continuous
 62
     7
100
AcDbLine
 10
57.99123726348967
 20
34.62029900000022
 30
0.0
 11
56.19480726348957
 21
34.93705299999994
 31
0.0
  0
LINE
  5
20B
330
56
100
AcDbEntity
  8
LC-002-002-----0
  6
Continuous
 62
     7
100
AcDbLine
 10
56.1947952634896
 20
39.30015400000008
 30
0.0
 11
56.19480726348957
 21
34.93705299999994
 31
0.0
  0
LINE
  5
20C
330
56
100
AcDbEntity
  8
LC-002-002-----0
  6
Continuous
 62
     7
100
AcDbLine
 10
-44.84063973651041
 20
70.50000000000006
 30
0.0
 11
-42.48777473651035
 21
70.91487300000023
 31
0.0
  0
LINE
  5
20D
330
56
100
AcDbEntity
  8
LC-002-002-----0
  6
Continuous
 62
     7
100
AcDbLine
 10
-42.48777473651035
 20
70.91487300000023
 30
0.0
 11
-41.00090673651039
 21
75.00000900000015
 31
0.0
  0
LINE
  5
20E
330
56
100
AcDbEntity
  8
LC-002-002-----0
  6
Continuous
 62
     7
100
AcDbLine
 10
44.83883826348961
 20
70.50012299999997
 30
0.0
 11
42.48597226348966
 21
70.91499000000005
 31
0.0
  0
LINE
  5
20F
330
56
100
AcDbEntity
  8
LC-002-002-----0
  6
Continuous
 62
     7
100
AcDbLine
 10
42.48597226348966
 20
70.91499000000005
 30
0.0
 11
40.99909326348961
 21
75.00012099999998
 31
0.0
  0
LINE
  5
210
330
56
100
AcDbEntity
  8
LC-002-002-----0
  6
Continuous
 62
     7
100
AcDbLine
 10
-48.44951273651031
 20
74.99999800000006
 30
0.0
 11
48.44769826348966
 21
75.00013100000001
 31
0.0
  0
LINE
  5
211
330
56
100
AcDbEntity
  8
LC-002-002-----0
  6
Continuous
 62
     7
100
AcDbLine
 10
3.30444726348969
 20
60.20006900000004
 30
0.0
 11
3.30440626348968
 21
75.00006900000022
 31
0.0
  0
LINE
  5
212
330
56
100
AcDbEntity
  8
LC-002-002-----0
  6
Continuous
 62
     7
100
AcDbLine
 10
-3.30622073651034
 20
60.20005999999995
 30
0.0
 11
-3.30622073651034
 21
75.00006000000013
 31
0.0
  0
LINE
  5
213
330
56
100
AcDbEntity
  8
LC-002-002-----0
  6
Continuous
 62
     7
100
AcDbLine
 10
69.77105681396817
 20
2.0
 30
0.0
 11
43.20095726348973
 21
75.00012399999997
 31
0.0
  0
LINE
  5
214
330
56
100
AcDbEntity
  8
LC-002-002-----0
  6
Continuous
 62
     7
100
AcDbLine
 10
85.52090304197266
 20
2.0
 30
0.0
 11
62.54309426348959
 21
65.13047200000011
 31
0.0
  0
LINE
  5
215
330
56
100
AcDbEntity
  8
LC-002-002-----0
  6
Continuous
 62
     7
100
AcDbLine
 10
-85.52243176760086
 20
2.0
 30
0.0
 11
-62.54488073651032
 21
65.13030099999997
 31
0.0
  0
LINE
  5
216
330
56
100
AcDbEntity
  8
LC-002-002-----0
  6
Continuous
 62
     7
100
AcDbLine
 10
-69.77260026141231
 20
2.0
 30
0.0
 11
-43.20277073651039
 21
75.00000600000004
 31
0.0
  0
LINE
  5
217
330
56
100
AcDbEntity
  8
LC-002-002-----0
  6
Continuous
 62
     7
100
AcDbLine
 10
-65.65013173651039
 20
5.20019100000007
 30
0.0
 11
-59.70220773651045
 21
5.20020399999999
 31
0.0
  0
LINE
  5
218
330
56
100
AcDbEntity
  8
LC-002-002-----0
  6
Continuous
 62
     7
100
AcDbLine
 10
-58.55220673651036
 20
5.20020599999998
 30
0.0
 11
-49.09042873651038
 21
5.20022699999998
 31
0.0
  0
LINE
  5
219
330
56
100
AcDbEntity
  8
LC-002-002-----0
  6
Continuous
 62
     7
100
AcDbLine
 10
-33.14139773651039
 20
5.20026100000001
 30
0.0
 11
-18.78185473651047
 21
5.20029199999999
 31
0.0
  0
LINE
  5
21A
330
56
100
AcDbEntity
  8
LC-002-002-----0
  6
Continuous
 62
     7
100
AcDbLine
 10
-16.56022473651046
 20
5.20029700000009
 30
0.0
 11
-1.15054373651037
 21
5.20033100000001
 31
0.0
  0
LINE
  5
21B
330
56
100
AcDbEntity
  8
LC-002-002-----0
  6
Continuous
 62
     7
100
AcDbLine
 10
-18.78185473651047
 20
5.20029199999999
 30
0.0
 11
-33.14139773651039
 21
5.20026100000001
 31
0.0
  0
LINE
  5
21C
330
56
100
AcDbEntity
  8
LC-002-002-----0
  6
Continuous
 62
     7
100
AcDbLine
 10
-47.46134573651034
 20
5.20022999999992
 30
0.0
 11
-35.13325673651036
 21
5.20025700000002
 31
0.0
  0
LINE
  5
21D
330
56
100
AcDbEntity
  8
LC-002-002-----0
  6
Continuous
 62
     7
100
AcDbLine
 10
-1.15054373651037
 20
5.20033100000001
 30
0.0
 11
-16.56022473651046
 21
5.20029700000009
 31
0.0
  0
LINE
  5
21E
330
56
100
AcDbEntity
  8
LC-002-002-----0
  6
Continuous
 62
     7
100
AcDbLine
 10
-59.70220773651045
 20
5.20020399999999
 30
0.0
 11
-65.65013173651039
 21
5.20019100000007
 31
0.0
  0
LINE
  5
21F
330
56
100
AcDbEntity
  8
LC-002-002-----0
  6
Continuous
 62
     7
100
AcDbLine
 10
58.55055026348964
 20
5.20046000000002
 30
0.0
 11
49.08878326348963
 21
5.20043900000002
 31
0.0
  0
LINE
  5
220
330
56
100
AcDbEntity
  8
LC-002-002-----0
  6
Continuous
 62
     7
100
AcDbLine
 10
47.45970126348948
 20
5.20043600000008
 30
0.0
 11
35.1316232634897
 21
5.20040899999998
 31
0.0
  0
LINE
  5
221
330
56
100
AcDbEntity
  8
LC-002-002-----0
  6
Continuous
 62
     7
100
AcDbLine
 10
33.13976426348972
 20
5.2004050000001
 30
0.0
 11
18.78022926348967
 21
5.20037400000001
 31
0.0
  0
LINE
  5
222
330
56
100
AcDbEntity
  8
LC-002-002-----0
  6
Continuous
 62
     7
100
AcDbLine
 10
16.55859926348967
 20
5.20036899999991
 30
0.0
 11
1.14945626348958
 21
5.20033600000011
 31
0.0
  0
LINE
  5
223
330
56
100
AcDbEntity
  8
LC-002-002-----0
  6
Continuous
 62
     7
100
AcDbLine
 10
56.84559226348961
 20
9.81818900000007
 30
0.0
 11
47.69668226348949
 21
9.81818900000007
 31
0.0
  0
LINE
  5
224
330
56
100
AcDbEntity
  8
LC-002-002-----0
  6
Continuous
 62
     7
100
AcDbLine
 10
46.06516926348968
 20
9.81818900000007
 30
0.0
 11
34.1472502634897
 21
9.81818900000007
 31
0.0
  0
LINE
  5
225
330
56
100
AcDbEntity
  8
LC-002-002-----0
  6
Continuous
 62
     7
100
AcDbLine
 10
32.15539026348961
 20
9.81818900000007
 30
0.0
 11
18.27067026348959
 21
9.81818900000007
 31
0.0
  0
LINE
  5
226
330
56
100
AcDbEntity
  8
LC-002-002-----0
  6
Continuous
 62
     7
100
AcDbLine
 10
16.04904026348959
 20
9.81818900000007
 30
0.0
 11
1.14945626348958
 21
9.81818900000007
 31
0.0
  0
LINE
  5
227
330
56
100
AcDbEntity
  8
LC-002-002-----0
  6
Continuous
 62
     7
100
AcDbLine
 10
-1.15054373651037
 20
9.81818900000007
 30
0.0
 11
-16.05066973651037
 21
9.81818900000007
 31
0.0
  0
LINE
  5
228
330
56
100
AcDbEntity
  8
LC-002-002-----0
  6
Continuous
 62
     7
100
AcDbLine
 10
-18.27229973651038
 20
9.81818900000007
 30
0.0
 11
-32.15700673651031
 21
9.81818900000007
 31
0.0
  0
LINE
  5
229
330
56
100
AcDbEntity
  8
LC-002-002-----0
  6
Continuous
 62
     7
100
AcDbLine
 10
-34.1488647365104
 20
9.81818900000007
 30
0.0
 11
-46.06676673651032
 21
9.81818900000007
 31
0.0
  0
LINE
  5
22A
330
56
100
AcDbEntity
  8
LC-002-002-----0
  6
Continuous
 62
     7
100
AcDbLine
 10
-47.69827773651036
 20
9.81818900000007
 30
0.0
 11
-56.84716973651041
 21
9.81818900000007
 31
0.0
  0
LINE
  5
22B
330
56
100
AcDbEntity
  8
LC-002-002-----0
  6
Continuous
 62
     7
100
AcDbLine
 10
-49.09042873651038
 20
5.20022699999998
 30
0.0
 11
-58.55220673651036
 21
5.20020599999998
 31
0.0
  0
LINE
  5
22C
330
56
100
AcDbEntity
  8
LC-002-002-----0
  6
Continuous
 62
     7
100
AcDbLine
 10
-68.60782873651033
 20
5.20018499999992
 30
0.0
 11
-66.24541573651038
 21
5.20019000000002
 31
0.0
  0
LINE
  5
22D
330
56
100
AcDbEntity
  8
LC-002-002-----0
  6
Continuous
 62
     7
100
AcDbLine
 10
67.56174189117888
 20
2.0
 30
0.0
 11
54.12111826348973
 21
34.63782999999995
 31
0.0
  0
LINE
  5
22E
330
56
100
AcDbEntity
  8
LC-002-002-----0
  6
Continuous
 62
     7
100
AcDbLine
 10
66.96645842163258
 20
2.0
 30
0.0
 11
53.52583426348974
 21
34.63782900000007
 31
0.0
  0
LINE
  5
22F
330
56
100
AcDbEntity
  8
LC-002-002-----0
  6
Continuous
 62
     7
100
AcDbLine
 10
60.8822256053968
 20
2.0
 30
0.0
 11
48.83169026348969
 21
34.63781600000021
 31
0.0
  0
LINE
  5
230
330
56
100
AcDbEntity
  8
LC-002-002-----0
  6
Continuous
 62
     7
100
AcDbLine
 10
59.73222449773686
 20
2.0
 30
0.0
 11
47.6816902634896
 21
34.63781300000011
 31
0.0
  0
LINE
  5
231
330
56
100
AcDbEntity
  8
LC-002-002-----0
  6
Continuous
 62
     7
100
AcDbLine
 10
50.05361060949085
 20
2.0
 30
0.0
 11
40.21438426348959
 21
34.63779200000005
 31
0.0
  0
LINE
  5
232
330
56
100
AcDbEntity
  8
LC-002-002-----0
  6
Continuous
 62
     7
100
AcDbLine
 10
48.42621175159159
 20
2.0
 30
0.0
 11
38.56981226348967
 21
34.63778800000006
 31
0.0
  0
LINE
  5
233
330
56
100
AcDbEntity
  8
LC-002-002-----0
  6
Continuous
 62
     7
100
AcDbLine
 10
33.82199574767884
 20
2.0
 30
0.0
 11
26.8645962634896
 21
34.63775600000014
 31
0.0
  0
LINE
  5
234
330
56
100
AcDbEntity
  8
LC-002-002-----0
  6
Continuous
 62
     7
100
AcDbLine
 10
35.8138548712681
 20
2.0
 30
0.0
 11
28.85645526348958
 21
34.63776100000024
 31
0.0
  0
LINE
  5
235
330
56
100
AcDbEntity
  8
LC-002-002-----0
  6
Continuous
 62
     7
100
AcDbLine
 10
19.13337845097585
 20
2.0
 30
0.0
 11
15.5319252634896
 21
34.6377250000001
 31
0.0
  0
LINE
  5
236
330
56
100
AcDbEntity
  8
LC-002-002-----0
  6
Continuous
 62
     7
100
AcDbLine
 10
16.91174784663711
 20
2.0
 30
0.0
 11
13.31029626348959
 21
34.63771900000012
 31
0.0
  0
LINE
  5
237
330
56
100
AcDbEntity
  8
LC-002-002-----0
  6
Continuous
 62
     7
100
AcDbLine
 10
-67.56327976821319
 20
2.0
 30
0.0
 11
-54.12282173651033
 21
34.6376820000001
 31
0.0
  0
LINE
  5
238
330
56
100
AcDbEntity
  8
LC-002-002-----0
  6
Continuous
 62
     7
100
AcDbLine
 10
-66.9679957682132
 20
2.0
 30
0.0
 11
-53.52753773651034
 21
34.6376820000001
 31
0.0
  0
LINE
  5
239
330
56
100
AcDbEntity
  8
LC-002-002-----0
  6
Continuous
 62
     7
100
AcDbLine
 10
-50.05518311097474
 20
2.0
 30
0.0
 11
-40.21608673651031
 21
34.6376820000001
 31
0.0
  0
LINE
  5
23A
330
56
100
AcDbEntity
  8
LC-002-002-----0
  6
Continuous
 62
     7
100
AcDbLine
 10
-48.42778478882454
 20
2.0
 30
0.0
 11
-38.57151573651038
 21
34.6376820000001
 31
0.0
  0
LINE
  5
23B
330
56
100
AcDbEntity
  8
LC-002-002-----0
  6
Continuous
 62
     7
100
AcDbLine
 10
-60.88377691175273
 20
2.0
 30
0.0
 11
-48.83339273651041
 21
34.6376820000001
 31
0.0
  0
LINE
  5
23C
330
56
100
AcDbEntity
  8
LC-002-002-----0
  6
Continuous
 62
     7
100
AcDbLine
 10
-16.91335668245179
 20
2.0
 30
0.0
 11
-13.31199973651042
 21
34.6376820000001
 31
0.0
  0
LINE
  5
23D
330
56
100
AcDbEntity
  8
LC-002-002-----0
  6
Continuous
 62
     7
100
AcDbLine
 10
-19.13498568245167
 20
2.0
 30
0.0
 11
-15.53362873651031
 21
34.6376820000001
 31
0.0
  0
LINE
  5
23E
330
56
100
AcDbEntity
  8
LC-002-002-----0
  6
Continuous
 62
     7
100
AcDbLine
 10
-35.81544791422067
 20
2.0
 30
0.0
 11
-28.85815773651041
 21
34.6376820000001
 31
0.0
  0
LINE
  5
23F
330
56
100
AcDbEntity
  8
LC-002-002-----0
  6
Continuous
 62
     7
100
AcDbLine
 10
-33.82358897196117
 20
2.0
 30
0.0
 11
-26.86629973651043
 21
34.6376820000001
 31
0.0
  0
LINE
  5
240
330
56
100
AcDbEntity
  8
LC-002-002-----0
  6
Continuous
 62
     7
100
AcDbLine
 10
-59.73377696949322
 20
2.0
 30
0.0
 11
-47.68339373651043
 21
34.6376820000001
 31
0.0
  0
LINE
  5
241
330
56
100
AcDbEntity
  8
LC-002-002-----0
  6
Continuous
 62
     7
100
AcDbLine
 10
1.14945626348958
 20
34.6376820000001
 30
0.0
 11
1.14945626348958
 21
2.0
 31
0.0
  0
LINE
  5
242
330
56
100
AcDbEntity
  8
LC-002-002-----0
  6
Continuous
 62
     7
100
AcDbLine
 10
-1.15054373651037
 20
34.6376820000001
 30
0.0
 11
-1.15054373651037
 21
2.0
 31
0.0
  0
LINE
  5
243
330
56
100
AcDbEntity
  8
LC-002-002-----0
  6
Continuous
 62
     7
100
AcDbLine
 10
-35.13325673651036
 20
5.20025700000002
 30
0.0
 11
-47.46134573651034
 21
5.20022999999992
 31
0.0
  0
LINE
  5
244
330
56
100
AcDbEntity
  8
LC-007-006-MLN-0
  6
CENTER
 62
     2
100
AcDbLine
 10
-0.00033173651036
 20
82.13547699999998
 30
0.0
 11
-0.00033173651036
 21
-33.53364099999999
 31
0.0
  0
ARC
  5
245
330
56
100
AcDbEntity
  8
LC-003-002-RND-0
  6
Continuous
 62
     7
100
AcDbCircle
 10
-48.44949173651037
 20
59.99999800000006
 30
0.0
 40
15.00000000000016
100
AcDbArc
 50
90.00007900000145
 51
160.0000000000008
  0
ARC
  5
246
330
56
100
AcDbEntity
  8
LC-003-002-RND-0
  6
Continuous
 62
     7
100
AcDbCircle
 10
48.44771926348949
 20
60.00013100000007
 30
0.0
 40
14.99999999999966
100
AcDbArc
 50
20.00015699999888
 51
90.00007900000101
  0
ENDBLK
  5
58
330
56
100
AcDbEntity
  8
0
100
AcDbBlockEnd
  0
BLOCK
  5
5A
330
59
100
AcDbEntity
  8
0
100
AcDbBlockBegin
  2
Draufsicht
 70
     0
 71
     0
 10
-186.1495523286798
 20
-896.6189009572881
 30
0.0
  3
Draufsicht
  1

  0
LINE
  5
247
330
59
100
AcDbEntity
  8
0
  6
Continuous
 62
     7
100
AcDbLine
 10
-51.5728284322617
 20
-712.930119630586
 30
0.0
 11
-53.3896541926519
 21
-711.5197494109707
 31
0.0
  0
LINE
  5
248
330
59
100
AcDbEntity
  8
0
  6
Continuous
 62
     7
100
AcDbLine
 10
53.38994618616522
 20
-577.7180525036129
 30
0.0
 11
46.21888001185977
 21
-586.955753054659
 31
0.0
  0
LINE
  5
249
330
59
100
AcDbEntity
  8
0
  6
Continuous
 62
     7
100
AcDbLine
 10
-53.3896541926519
 20
-711.5197494109707
 30
0.0
 11
-46.21858801835009
 21
-702.2820488599245
 31
0.0
  0
LINE
  5
24A
330
59
100
AcDbEntity
  8
0
  6
Continuous
 62
     7
100
AcDbLine
 10
-51.5728284322617
 20
-712.930119630586
 30
0.0
 11
-44.40176225795989
 21
-703.6924190795398
 31
0.0
  0
LINE
  5
24B
330
59
100
AcDbEntity
  8
0
  6
Continuous
 62
     7
100
AcDbLine
 10
68.31136467005086
 20
-696.1918753863101
 30
0.0
 11
66.90099445043558
 21
-698.0087011467003
 31
0.0
  0
LINE
  5
24C
330
59
100
AcDbEntity
  8
0
  6
Continuous
 62
     7
100
AcDbLine
 10
-66.90070245692226
 20
-591.2291007678796
 30
0.0
 11
-57.66300190587612
 21
-598.400166942185
 31
0.0
  0
LINE
  5
24D
330
59
100
AcDbEntity
  8
0
  6
Continuous
 62
     7
100
AcDbLine
 10
66.90099445043558
 20
-698.0087011467003
 30
0.0
 11
57.66329389938943
 21
-690.8376349723949
 31
0.0
  0
LINE
  5
24E
330
59
100
AcDbEntity
  8
0
  6
Continuous
 62
     7
100
AcDbLine
 10
68.31136467005086
 20
-696.1918753863101
 30
0.0
 11
59.07366411900472
 21
-689.0208092120047
 31
0.0
  0
LINE
  5
24F
330
59
100
AcDbEntity
  8
0
  6
Continuous
 62
     7
100
AcDbLine
 10
-59.07337212549504
 20
-600.2169927025752
 30
0.0
 11
-50.11003828596989
 21
-607.1750727735234
 31
0.0
  0
LINE
  5
250
330
59
100
AcDbEntity
  8
0
  6
Continuous
 62
     7
100
AcDbLine
 10
-68.31107267654119
 20
-593.0459265282698
 30
0.0
 11
-59.07337212549504
 21
-600.2169927025752
 31
0.0
  0
LINE
  5
251
330
59
100
AcDbEntity
  8
0
  6
Continuous
 62
     7
100
AcDbLine
 10
-68.31107267654119
 20
-593.0459265282698
 30
0.0
 11
-66.90070245692226
 21
-591.2291007678796
 31
0.0
  0
LINE
  5
252
330
59
100
AcDbEntity
  8
0
  6
Continuous
 62
     7
100
AcDbLine
 10
51.57312042577502
 20
-576.3076822839939
 30
0.0
 11
53.38994618616522
 21
-577.7180525036129
 31
0.0
  0
LINE
  5
253
330
59
100
AcDbEntity
  8
0
  6
Continuous
 62
     7
100
AcDbLine
 10
51.57312042577502
 20
-576.3076822839939
 30
0.0
 11
44.4020542514732
 21
-585.5453828350401
 31
0.0
  0
LINE
  5
254
330
59
100
AcDbEntity
  8
0
  6
Continuous
 62
     7
100
AcDbLine
 10
79.33178433338941
 20
-676.7543245100132
 30
0.0
 11
78.43970042205143
 21
-678.8742741073256
 31
0.0
  0
LINE
  5
255
330
59
100
AcDbEntity
  8
0
  6
Continuous
 62
     7
100
AcDbLine
 10
78.43970042205143
 20
-678.8742741073256
 30
0.0
 11
67.66075838467401
 21
-674.338448923103
 31
0.0
  0
LINE
  5
256
330
59
100
AcDbEntity
  8
0
  6
Continuous
 62
     7
100
AcDbLine
 10
45.56872330557559
 20
-702.7972024282863
 30
0.0
 11
38.71169130003869
 21
-693.7563316810883
 31
0.0
  0
LINE
  5
257
330
59
100
AcDbEntity
  8
0
  6
Continuous
 62
     7
100
AcDbLine
 10
50.80310621557834
 20
-713.5047015339842
 30
0.0
 11
43.73618117739858
 21
-704.1870906786316
 31
0.0
  0
LINE
  5
258
330
59
100
AcDbEntity
  8
0
  6
Continuous
 62
     7
100
AcDbLine
 10
52.63564834375899
 20
-712.1148132836388
 30
0.0
 11
45.56872330557559
 21
-702.7972024282863
 31
0.0
  0
LINE
  5
259
330
59
100
AcDbEntity
  8
0
  6
Continuous
 62
     7
100
AcDbLine
 10
52.63564834375899
 20
-712.1148132836388
 30
0.0
 11
50.80310621557834
 21
-713.5047015339842
 31
0.0
  0
LINE
  5
25A
330
59
100
AcDbEntity
  8
0
  6
Continuous
 62
     7
100
AcDbLine
 10
79.33178433338941
 20
-676.7543245100132
 30
0.0
 11
68.55284229600835
 21
-672.2184993257906
 31
0.0
  0
LINE
  5
25B
330
59
100
AcDbEntity
  8
0
  6
Continuous
 62
     7
100
AcDbLine
 10
-34.25522715327719
 20
-723.0584553825865
 30
0.0
 11
-29.71940196905456
 21
-712.2795133452055
 31
0.0
  0
LINE
  5
25C
330
59
100
AcDbEntity
  8
0
  6
Continuous
 62
     7
100
AcDbLine
 10
-32.13527755596846
 20
-723.9505392939245
 30
0.0
 11
-34.25522715327719
 21
-723.0584553825865
 31
0.0
  0
LINE
  5
25D
330
59
100
AcDbEntity
  8
0
  6
Continuous
 62
     7
100
AcDbLine
 10
-32.13527755596846
 20
-723.9505392939245
 30
0.0
 11
-27.59945237174583
 21
-713.1715972565435
 31
0.0
  0
LINE
  5
25E
330
59
100
AcDbEntity
  8
0
  6
Continuous
 62
     7
100
AcDbLine
 10
-67.49576632959037
 20
-697.2544033042905
 30
0.0
 11
-58.17815547423783
 21
-690.1874782661107
 31
0.0
  0
LINE
  5
25F
330
59
100
AcDbEntity
  8
0
  6
Continuous
 62
     7
100
AcDbLine
 10
-68.88565457993576
 20
-695.4218611761135
 30
0.0
 11
-59.56804372458322
 21
-688.3549361379337
 31
0.0
  0
LINE
  5
260
330
59
100
AcDbEntity
  8
0
  6
Continuous
 62
     7
100
AcDbLine
 10
-67.49576632959037
 20
-697.2544033042905
 30
0.0
 11
-68.88565457993576
 21
-695.4218611761135
 31
0.0
  0
LINE
  5
261
330
59
100
AcDbEntity
  8
0
  6
Continuous
 62
     7
100
AcDbLine
 10
73.04726395016729
 20
-655.8139247938125
 30
0.0
 11
61.80574910706451
 21
-654.2697176105685
 31
0.0
  0
LINE
  5
262
330
59
100
AcDbEntity
  8
0
  6
Continuous
 62
     7
100
AcDbLine
 10
-29.71940196905456
 20
-712.2795133452055
 30
0.0
 11
-25.31829423242056
 21
-701.8207140602499
 31
0.0
  0
LINE
  5
263
330
59
100
AcDbEntity
  8
0
  6
Continuous
 62
     7
100
AcDbLine
 10
-73.16802968056476
 20
-654.9932957855453
 30
0.0
 11
-61.90988993839386
 21
-653.5753672477877
 31
0.0
  0
LINE
  5
264
330
59
100
AcDbEntity
  8
0
  6
Continuous
 62
     7
100
AcDbLine
 10
-84.77077990296715
 20
-656.4546269675739
 30
0.0
 11
-85.05818737209887
 21
-654.1726548058941
 31
0.0
  0
LINE
  5
265
330
59
100
AcDbEntity
  8
0
  6
Continuous
 62
     7
100
AcDbLine
 10
-84.77077990296715
 20
-656.4546269675739
 30
0.0
 11
-73.16802968056476
 21
-654.9932957855453
 31
0.0
  0
LINE
  5
266
330
59
100
AcDbEntity
  8
0
  6
Continuous
 62
     7
100
AcDbLine
 10
-73.45543714969648
 20
-652.7113236238656
 30
0.0
 11
-62.19729740752558
 21
-651.2933950861043
 31
0.0
  0
LINE
  5
267
330
59
100
AcDbEntity
  8
0
  6
Continuous
 62
     7
100
AcDbLine
 10
-85.05818737209887
 20
-654.1726548058941
 30
0.0
 11
-73.45543714969648
 21
-652.7113236238656
 31
0.0
  0
LINE
  5
268
330
59
100
AcDbEntity
  8
0
  6
Continuous
 62
     7
100
AcDbLine
 10
7.05538527791174
 20
-648.5766274114067
 30
0.0
 11
7.0247250557473
 21
-648.6161236235894
 31
0.0
  0
LINE
  5
269
330
59
100
AcDbEntity
  8
0
  6
Continuous
 62
     7
100
AcDbLine
 10
27.41669581242201
 20
-663.1168142505558
 30
0.0
 11
8.45851396487302
 21
-648.3999076110704
 31
0.0
  0
LINE
  5
26A
330
59
100
AcDbEntity
  8
0
  6
Continuous
 62
     7
100
AcDbLine
 10
1.48806358254984
 20
-647.2297812935685
 30
0.0
 11
5.61435483612837
 21
-650.4329493839796
 31
0.0
  0
LINE
  5
26B
330
59
100
AcDbEntity
  8
0
  6
Continuous
 62
     7
100
AcDbLine
 10
2.89843380216513
 20
-645.4129555331783
 30
0.0
 11
7.0247250557473
 21
-648.6161236235894
 31
0.0
  0
LINE
  5
26C
330
59
100
AcDbEntity
  8
0
  6
Continuous
 62
     7
100
AcDbLine
 10
2.61102633303341
 20
-643.1309833714986
 30
0.0
 11
26.04004931563719
 21
-612.9499345209952
 31
0.0
  0
LINE
  5
26D
330
59
100
AcDbEntity
  8
0
  6
Continuous
 62
     7
100
AcDbLine
 10
36.62086363855593
 20
-618.2873343168467
 30
0.0
 11
39.29685855196982
 21
-616.2577308327382
 31
0.0
  0
LINE
  5
26E
330
59
100
AcDbEntity
  8
0
  6
Continuous
 62
     7
100
AcDbLine
 10
42.18815387814499
 20
-628.6626998636566
 30
0.0
 11
45.29826651171931
 21
-627.394851889414
 31
0.0
  0
LINE
  5
26F
330
59
100
AcDbEntity
  8
0
  6
Continuous
 62
     7
100
AcDbLine
 10
44.51413310391541
 20
-651.8944294030043
 30
0.0
 11
47.84149364034198
 21
-652.3514971659642
 31
0.0
  0
LINE
  5
270
330
59
100
AcDbEntity
  8
0
  6
Continuous
 62
     7
100
AcDbLine
 10
44.59299363046335
 20
-637.8434819844442
 30
0.0
 11
47.92527494793063
 21
-637.4237912643002
 31
0.0
  0
LINE
  5
271
330
59
100
AcDbEntity
  8
0
  6
Continuous
 62
     7
100
AcDbLine
 10
44.88040109959508
 20
-640.1254541461276
 30
0.0
 11
48.21268241706235
 21
-639.70576342598
 31
0.0
  0
LINE
  5
272
330
59
100
AcDbEntity
  8
0
  6
Continuous
 62
     7
100
AcDbLine
 10
44.82713666264641
 20
-649.6158270304477
 30
0.0
 11
48.15449719907662
 21
-650.0728947934076
 31
0.0
  0
LINE
  5
273
330
59
100
AcDbEntity
  8
0
  6
Continuous
 62
     7
100
AcDbLine
 10
41.31992172520364
 20
-626.5328705445318
 30
0.0
 11
44.4300343587816
 21
-625.2650225702891
 31
0.0
  0
LINE
  5
274
330
59
100
AcDbEntity
  8
0
  6
Continuous
 62
     7
100
AcDbLine
 10
35.23097538821054
 20
-616.4547921886697
 30
0.0
 11
37.90697030162443
 21
-614.4251887045575
 31
0.0
  0
LINE
  5
275
330
59
100
AcDbEntity
  8
0
  6
Continuous
 62
     7
100
AcDbLine
 10
28.55793201028024
 20
-609.706421521616
 30
0.0
 11
30.61744457246783
 21
-607.053376650998
 31
0.0
  0
LINE
  5
276
330
59
100
AcDbEntity
  8
0
  6
Continuous
 62
     7
100
AcDbLine
 10
2.61102633303341
 20
-643.1309833714986
 30
0.0
 11
40.51907166612324
 21
-638.3565800935576
 31
0.0
  0
LINE
  5
277
330
59
100
AcDbEntity
  8
0
  6
Continuous
 62
     7
100
AcDbLine
 10
2.89843380216513
 20
-645.4129555331783
 30
0.0
 11
40.80647913525496
 21
-640.6385522552409
 31
0.0
  0
LINE
  5
278
330
59
100
AcDbEntity
  8
0
  6
Continuous
 62
     7
100
AcDbLine
 10
0.79420057264321
 20
-641.7206131518797
 30
0.0
 11
24.22322355524699
 21
-611.5395643013762
 31
0.0
  0
LINE
  5
279
330
59
100
AcDbEntity
  8
0
  6
Continuous
 62
     7
100
AcDbLine
 10
-1.48777158903653
 20
-642.0080206210114
 30
0.0
 11
-5.61406283866057
 21
-638.8048525255035
 31
0.0
  0
LINE
  5
27A
330
59
100
AcDbEntity
  8
0
  6
Continuous
 62
     7
100
AcDbLine
 10
-2.89814180865545
 20
-643.8248463814016
 30
0.0
 11
-7.02443306223398
 21
-640.6216782909905
 31
0.0
  0
LINE
  5
27B
330
59
100
AcDbEntity
  8
0
  6
Continuous
 62
     7
100
AcDbLine
 10
-5.58340262045425
 20
-638.7653563184176
 30
0.0
 11
-5.61406283866057
 21
-638.8048525255035
 31
0.0
  0
LINE
  5
27C
330
59
100
AcDbEntity
  8
0
  6
Continuous
 62
     7
100
AcDbLine
 10
-7.02443306223398
 20
-640.6216782909905
 30
0.0
 11
-7.05509328440206
 21
-640.6611745031732
 31
0.0
  0
LINE
  5
27D
330
59
100
AcDbEntity
  8
0
  6
Continuous
 62
     7
100
AcDbLine
 10
4.99707206991258
 20
-599.7919102913984
 30
0.0
 11
5.4541398328725
 21
-596.4645497549682
 31
0.0
  0
LINE
  5
27E
330
59
100
AcDbEntity
  8
0
  6
Continuous
 62
     7
100
AcDbLine
 10
-8.45822197135971
 20
-640.8378943035095
 30
0.0
 11
-27.41640381890869
 21
-626.1209876640241
 31
0.0
  0
LINE
  5
27F
330
59
100
AcDbEntity
  8
0
  6
Continuous
 62
     7
100
AcDbLine
 10
-4.49330081440752
 20
-599.7386458544534
 30
0.0
 11
-4.91299153455515
 21
-596.4063645369861
 31
0.0
  0
LINE
  5
280
330
59
100
AcDbEntity
  8
0
  6
Continuous
 62
     7
100
AcDbLine
 10
-27.59312361924498
 20
-624.7178589770665
 30
0.0
 11
-27.56246340103502
 21
-624.6783627699806
 31
0.0
  0
LINE
  5
281
330
59
100
AcDbEntity
  8
0
  6
Continuous
 62
     7
100
AcDbLine
 10
-24.71830426833589
 20
-622.6453209919746
 30
0.0
 11
-5.76012242079054
 21
-637.36222763146
 31
0.0
  0
LINE
  5
282
330
59
100
AcDbEntity
  8
0
  6
Continuous
 62
     7
100
AcDbLine
 10
-1.48777158903653
 20
-642.0080206210114
 30
0.0
 11
-6.26217487973594
 21
-604.099975289897
 31
0.0
  0
LINE
  5
283
330
59
100
AcDbEntity
  8
0
  6
Continuous
 62
     7
100
AcDbLine
 10
0.79420057264321
 20
-641.7206131518797
 30
0.0
 11
-3.98020269244847
 21
-603.8125678175384
 31
0.0
  0
LINE
  5
284
330
59
100
AcDbEntity
  8
0
  6
Continuous
 62
     7
100
AcDbLine
 10
-44.88010910608176
 20
-649.112347768456
 30
0.0
 11
-48.21239042354904
 21
-649.5320384885999
 31
0.0
  0
LINE
  5
285
330
59
100
AcDbEntity
  8
0
  6
Continuous
 62
     7
100
AcDbLine
 10
-44.59270163695004
 20
-651.3943199301357
 30
0.0
 11
-47.92498295441732
 21
-651.8140106502833
 31
0.0
  0
LINE
  5
286
330
59
100
AcDbEntity
  8
0
  6
Continuous
 62
     7
100
AcDbLine
 10
-40.80618714174165
 20
-648.5992496593426
 30
0.0
 11
-2.89814180865545
 21
-643.8248463814016
 31
0.0
  0
LINE
  5
287
330
59
100
AcDbEntity
  8
0
  6
Continuous
 62
     7
100
AcDbLine
 10
-2.61073433952373
 20
-646.106818543085
 30
0.0
 11
-40.51877967260992
 21
-650.8812218210223
 31
0.0
  0
LINE
  5
288
330
59
100
AcDbEntity
  8
0
  6
Continuous
 62
     7
100
AcDbLine
 10
-26.15209317746161
 20
-622.8615370044936
 30
0.0
 11
-31.66882043134359
 21
-618.5789976284359
 31
0.0
  0
LINE
  5
289
330
59
100
AcDbEntity
  8
0
  6
Continuous
 62
     7
100
AcDbLine
 10
-26.15209317746161
 20
-622.8615370044936
 30
0.0
 11
-26.12143295529717
 21
-622.8220407923109
 31
0.0
  0
LINE
  5
28A
330
59
100
AcDbEntity
  8
0
  6
Continuous
 62
     7
100
AcDbLine
 10
-27.56246340103502
 20
-624.6783627699806
 30
0.0
 11
-33.07919066678409
 21
-620.3958234092133
 31
0.0
  0
LINE
  5
28B
330
59
100
AcDbEntity
  8
0
  6
Continuous
 62
     7
100
AcDbLine
 10
-6.77527297609089
 20
-600.0260533235851
 30
0.0
 11
-7.19496369623488
 21
-596.6937720061142
 31
0.0
  0
LINE
  5
28C
330
59
100
AcDbEntity
  8
0
  6
Continuous
 62
     7
100
AcDbLine
 10
-15.95605509687852
 20
-602.4308930759034
 30
0.0
 11
-17.22390307112113
 21
-599.3207804423255
 31
0.0
  0
LINE
  5
28D
330
59
100
AcDbEntity
  8
0
  6
Continuous
 62
     7
100
AcDbLine
 10
-18.08588441600335
 20
-603.2991252288411
 30
0.0
 11
-19.35373239024597
 21
-600.1890125952632
 31
0.0
  0
LINE
  5
28E
330
59
100
AcDbEntity
  8
0
  6
Continuous
 62
     7
100
AcDbLine
 10
-41.11401845621043
 20
-626.0702124948948
 30
0.0
 11
-44.20970408976831
 21
-624.7675346615397
 31
0.0
  0
LINE
  5
28F
330
59
100
AcDbEntity
  8
0
  6
Continuous
 62
     7
100
AcDbLine
 10
-42.00610236754477
 20
-628.1901620922035
 30
0.0
 11
-45.10178800110265
 21
-626.8874842588484
 31
0.0
  0
LINE
  5
290
330
59
100
AcDbEntity
  8
0
  6
Continuous
 62
     7
100
AcDbLine
 10
-26.33142064368479
 20
-607.9981833154889
 30
0.0
 11
-28.36102412779695
 21
-605.3221884020786
 31
0.0
  0
LINE
  5
291
330
59
100
AcDbEntity
  8
0
  6
Continuous
 62
     7
100
AcDbLine
 10
-28.16396277186544
 20
-609.3880715658343
 30
0.0
 11
-30.1935662559776
 21
-606.712076652424
 31
0.0
  0
LINE
  5
292
330
59
100
AcDbEntity
  8
0
  6
Continuous
 62
     7
100
AcDbLine
 10
-34.91233343891912
 20
-616.0611149437682
 30
0.0
 11
-37.56537830953715
 21
-614.0016023815806
 31
0.0
  0
LINE
  5
293
330
59
100
AcDbEntity
  8
0
  6
Continuous
 62
     7
100
AcDbLine
 10
-36.32270365853805
 20
-617.8779407041584
 30
0.0
 11
-38.97574852915608
 21
-615.8184281419708
 31
0.0
  0
LINE
  5
294
330
59
100
AcDbEntity
  8
0
  6
Continuous
 62
     7
100
AcDbLine
 10
-44.82684466913673
 20
-639.6219748841322
 30
0.0
 11
-48.15420520556694
 21
-639.1649071211759
 31
0.0
  0
LINE
  5
295
330
59
100
AcDbEntity
  8
0
  6
Continuous
 62
     7
100
AcDbLine
 10
-44.5138411104021
 20
-637.3433725115756
 30
0.0
 11
-47.8412016468323
 21
-636.8863047486193
 31
0.0
  0
LINE
  5
296
330
59
100
AcDbEntity
  8
0
  6
Continuous
 62
     7
100
AcDbLine
 10
-55.89137641534438
 20
-650.4991834724242
 30
0.0
 11
-48.21239042354904
 21
-649.5320384885999
 31
0.0
  0
LINE
  5
297
330
59
100
AcDbEntity
  8
0
  6
Continuous
 62
     7
100
AcDbLine
 10
7.27567444246921
 20
-600.104913850133
 30
0.0
 11
7.73274220542913
 21
-596.7775533137028
 31
0.0
  0
LINE
  5
298
330
59
100
AcDbEntity
  8
0
  6
Continuous
 62
     7
100
AcDbLine
 10
-0.79390857913353
 20
-647.5171887627002
 30
0.0
 11
-24.22293156173731
 21
-677.6982376132037
 31
0.0
  0
LINE
  5
299
330
59
100
AcDbEntity
  8
0
  6
Continuous
 62
     7
100
AcDbLine
 10
-43.23659916386936
 20
-639.8404212916357
 30
0.0
 11
-44.82684466913673
 21
-639.6219748841322
 31
0.0
  0
LINE
  5
29A
330
59
100
AcDbEntity
  8
0
  6
Continuous
 62
     7
100
AcDbLine
 10
-43.28751181181036
 20
-648.9117649719701
 30
0.0
 11
-44.88010910608176
 21
-649.112347768456
 31
0.0
  0
LINE
  5
29B
330
59
100
AcDbEntity
  8
0
  6
Continuous
 62
     7
100
AcDbLine
 10
-57.52070080312882
 20
-653.0225621951722
 30
0.0
 11
-55.60396894621266
 21
-652.7811556341039
 31
0.0
  0
LINE
  5
29C
330
59
100
AcDbEntity
  8
0
  6
Continuous
 62
     7
100
AcDbLine
 10
-55.60396894621266
 20
-652.7811556341039
 30
0.0
 11
-47.92498295441732
 21
-651.8140106502833
 31
0.0
  0
LINE
  5
29D
330
59
100
AcDbEntity
  8
0
  6
Continuous
 62
     7
100
AcDbLine
 10
-42.18786188463167
 20
-660.575102050927
 30
0.0
 11
-45.29797451820963
 21
-661.8429500251659
 31
0.0
  0
LINE
  5
29E
330
59
100
AcDbEntity
  8
0
  6
Continuous
 62
     7
100
AcDbLine
 10
-41.31962973169397
 20
-662.7049313700481
 30
0.0
 11
-44.42974236527192
 21
-663.9727793442908
 31
0.0
  0
LINE
  5
29F
330
59
100
AcDbEntity
  8
0
  6
Continuous
 62
     7
100
AcDbLine
 10
-2.61073433952373
 20
-646.106818543085
 30
0.0
 11
-26.03975732212751
 21
-676.2878673935884
 31
0.0
  0
LINE
  5
2A0
330
59
100
AcDbEntity
  8
0
  6
Continuous
 62
     7
100
AcDbLine
 10
-26.74081425637672
 20
-680.9417506125828
 30
0.0
 11
-28.80032681856432
 21
-683.5947954832009
 31
0.0
  0
LINE
  5
2A1
330
59
100
AcDbEntity
  8
0
  6
Continuous
 62
     7
100
AcDbLine
 10
-28.55764001676693
 20
-679.5313803929639
 30
0.0
 11
-30.61715257895452
 21
-682.1844252635856
 31
0.0
  0
LINE
  5
2A2
330
59
100
AcDbEntity
  8
0
  6
Continuous
 62
     7
100
AcDbLine
 10
-57.8081082722569
 20
-650.7405900334888
 30
0.0
 11
-55.89137641534438
 21
-650.4991834724242
 31
0.0
  0
LINE
  5
2A3
330
59
100
AcDbEntity
  8
0
  6
Continuous
 62
     7
100
AcDbLine
 10
-62.19729740752558
 20
-651.2933950861043
 30
0.0
 11
-57.8081082722569
 21
-650.7405900334888
 31
0.0
  0
LINE
  5
2A4
330
59
100
AcDbEntity
  8
0
  6
Continuous
 62
     7
100
AcDbLine
 10
-61.90988993839386
 20
-653.5753672477877
 30
0.0
 11
-57.52070080312882
 21
-653.0225621951722
 31
0.0
  0
LINE
  5
2A5
330
59
100
AcDbEntity
  8
0
  6
Continuous
 62
     7
100
AcDbLine
 10
27.56275539059021
 20
-664.5594391496998
 30
0.0
 11
27.59341561275829
 21
-664.519942937517
 31
0.0
  0
LINE
  5
2A6
330
59
100
AcDbEntity
  8
0
  6
Continuous
 62
     7
100
AcDbLine
 10
27.56275539059021
 20
-664.5594391496998
 30
0.0
 11
33.07948228910351
 21
-668.841978233555
 31
0.0
  0
LINE
  5
2A7
330
59
100
AcDbEntity
  8
0
  6
Continuous
 62
     7
100
AcDbLine
 10
26.15238517097492
 20
-666.37626491009
 30
0.0
 11
31.66911206948822
 21
-670.6588039939415
 31
0.0
  0
LINE
  5
2A8
330
59
100
AcDbEntity
  8
0
  6
Continuous
 62
     7
100
AcDbLine
 10
26.12172494880684
 20
-666.415761122269
 30
0.0
 11
26.15238517097492
 21
-666.37626491009
 31
0.0
  0
LINE
  5
2A9
330
59
100
AcDbEntity
  8
0
  6
Continuous
 62
     7
100
AcDbLine
 10
41.11431044972375
 20
-663.1675894196887
 30
0.0
 11
44.20999608327799
 21
-664.4702672530439
 31
0.0
  0
LINE
  5
2AA
330
59
100
AcDbEntity
  8
0
  6
Continuous
 62
     7
100
AcDbLine
 10
42.00639436105809
 20
-661.0476398223764
 30
0.0
 11
45.10207999461233
 21
-662.3503176557315
 31
0.0
  0
LINE
  5
2AB
330
59
100
AcDbEntity
  8
0
  6
Continuous
 62
     7
100
AcDbLine
 10
36.32299565204772
 20
-671.3598612104252
 30
0.0
 11
38.97604052266576
 21
-673.4193737726091
 31
0.0
  0
LINE
  5
2AC
330
59
100
AcDbEntity
  8
0
  6
Continuous
 62
     7
100
AcDbLine
 10
34.91262543243244
 20
-673.1766869708154
 30
0.0
 11
37.56567030305047
 21
-675.2361995329993
 31
0.0
  0
LINE
  5
2AD
330
59
100
AcDbEntity
  8
0
  6
Continuous
 62
     7
100
AcDbLine
 10
28.16425476537876
 20
-679.8497303487457
 30
0.0
 11
30.19385824949092
 21
-682.5257252621559
 31
0.0
  0
LINE
  5
2AE
330
59
100
AcDbEntity
  8
0
  6
Continuous
 62
     7
100
AcDbLine
 10
26.33171263719811
 20
-681.239618599091
 30
0.0
 11
28.36131612131027
 21
-683.9156135125013
 31
0.0
  0
LINE
  5
2AF
330
59
100
AcDbEntity
  8
0
  6
Continuous
 62
     7
100
AcDbLine
 10
5.61435483612837
 20
-650.4329493839796
 30
0.0
 11
5.58369461396393
 21
-650.4724455961623
 31
0.0
  0
LINE
  5
2B0
330
59
100
AcDbEntity
  8
0
  6
Continuous
 62
     7
100
AcDbLine
 10
15.95634709039183
 20
-686.8069088386801
 30
0.0
 11
17.22419506463081
 21
-689.9170214722544
 31
0.0
  0
LINE
  5
2B1
330
59
100
AcDbEntity
  8
0
  6
Continuous
 62
     7
100
AcDbLine
 10
4.49359280792083
 20
-689.4991560601302
 30
0.0
 11
4.91328352806482
 21
-692.8314373775975
 31
0.0
  0
LINE
  5
2B2
330
59
100
AcDbEntity
  8
0
  6
Continuous
 62
     7
100
AcDbLine
 10
-4.9967800764029
 20
-689.4458916231815
 30
0.0
 11
-5.45384783935919
 21
-692.7732521596117
 31
0.0
  0
LINE
  5
2B3
330
59
100
AcDbEntity
  8
0
  6
Continuous
 62
     7
100
AcDbLine
 10
6.77556496960057
 20
-689.2117485909985
 30
0.0
 11
7.19525568974819
 21
-692.5440299084657
 31
0.0
  0
LINE
  5
2B4
330
59
100
AcDbEntity
  8
0
  6
Continuous
 62
     7
100
AcDbLine
 10
18.08617640951667
 20
-685.9386766857388
 30
0.0
 11
19.35402438375564
 21
-689.0487893193167
 31
0.0
  0
LINE
  5
2B5
330
59
100
AcDbEntity
  8
0
  6
Continuous
 62
     7
100
AcDbLine
 10
5.76041441430022
 20
-651.8755742831236
 30
0.0
 11
24.7185962618492
 21
-666.5924809226053
 31
0.0
  0
LINE
  5
2B6
330
59
100
AcDbEntity
  8
0
  6
Continuous
 62
     7
100
AcDbLine
 10
-7.27538244895953
 20
-689.1328880644469
 30
0.0
 11
-7.73245021191582
 21
-692.4602486008771
 31
0.0
  0
LINE
  5
2B7
330
59
100
AcDbEntity
  8
0
  6
Continuous
 62
     7
100
AcDbLine
 10
-18.54854246564031
 20
-685.7330654102589
 30
0.0
 11
-19.85122029899543
 21
-688.8287510438131
 31
0.0
  0
LINE
  5
2B8
330
59
100
AcDbEntity
  8
0
  6
Continuous
 62
     7
100
AcDbLine
 10
-16.42859286833158
 20
-686.6251493215932
 30
0.0
 11
-17.7312707016867
 21
-689.7208349551474
 31
0.0
  0
LINE
  5
2B9
330
59
100
AcDbEntity
  8
0
  6
Continuous
 62
     7
100
AcDbLine
 10
-0.79390857913353
 20
-647.5171887627002
 30
0.0
 11
3.98049469880749
 21
-685.4252340957901
 31
0.0
  0
LINE
  5
2BA
330
59
100
AcDbEntity
  8
0
  6
Continuous
 62
     7
100
AcDbLine
 10
1.48806358254984
 20
-647.2297812935685
 30
0.0
 11
6.26246686048722
 21
-685.1378266266584
 31
0.0
  0
LINE
  5
2BB
330
59
100
AcDbEntity
  8
0
  6
Continuous
 62
     7
100
AcDbLine
 10
-36.62057164504626
 20
-670.9504675977332
 30
0.0
 11
-39.2965665584565
 21
-672.9800710818454
 31
0.0
  0
LINE
  5
2BC
330
59
100
AcDbEntity
  8
0
  6
Continuous
 62
     7
100
AcDbLine
 10
-35.23068339470086
 20
-672.7830097259102
 30
0.0
 11
-37.90667830811111
 21
-674.8126132100224
 31
0.0
  0
LINE
  5
2BD
330
59
100
AcDbEntity
  8
0
  6
Continuous
 62
     7
100
AcDbLine
 10
62.11875266579915
 20
-651.9911152380118
 30
0.0
 11
57.73604504773135
 21
-651.3890781744703
 31
0.0
  0
LINE
  5
2BE
330
59
100
AcDbEntity
  8
0
  6
Continuous
 62
     7
100
AcDbLine
 10
55.50914007071657
 20
-653.4047746700708
 30
0.0
 11
47.84149364034198
 21
-652.3514971659642
 31
0.0
  0
LINE
  5
2BF
330
59
100
AcDbEntity
  8
0
  6
Continuous
 62
     7
100
AcDbLine
 10
55.82214362945121
 20
-651.1261722975178
 30
0.0
 11
48.15449719907662
 21
-650.0728947934076
 31
0.0
  0
LINE
  5
2C0
330
59
100
AcDbEntity
  8
0
  6
Continuous
 62
     7
100
AcDbLine
 10
61.80574910706451
 20
-654.2697176105685
 30
0.0
 11
57.42304148899672
 21
-653.667680547027
 31
0.0
  0
LINE
  5
2C1
330
59
100
AcDbEntity
  8
0
  6
Continuous
 62
     7
100
AcDbLine
 10
57.42304148899672
 20
-653.667680547027
 30
0.0
 11
55.50914007071657
 21
-653.4047746700708
 31
0.0
  0
LINE
  5
2C2
330
59
100
AcDbEntity
  8
0
  6
Continuous
 62
     7
100
AcDbLine
 10
57.73604504773135
 20
-651.3890781744703
 30
0.0
 11
55.82214362945121
 21
-651.1261722975178
 31
0.0
  0
LINE
  5
2C3
330
59
100
AcDbEntity
  8
0
  6
Continuous
 62
     7
100
AcDbLine
 10
18.54883445915363
 20
-603.5047365043247
 30
0.0
 11
19.85151229250874
 21
-600.4090508707668
 31
0.0
  0
LINE
  5
2C4
330
59
100
AcDbEntity
  8
0
  6
Continuous
 62
     7
100
AcDbLine
 10
16.42888486184125
 20
-602.6126525929867
 30
0.0
 11
17.73156269519637
 21
-599.5169669594325
 31
0.0
  0
LINE
  5
2C5
330
59
100
AcDbEntity
  8
0
  6
Continuous
 62
     7
100
AcDbLine
 10
26.74110624989004
 20
-608.2960513019971
 30
0.0
 11
28.80061881207763
 21
-605.643006431379
 31
0.0
  0
LINE
  5
2C6
330
59
100
AcDbEntity
  8
0
  6
Continuous
 62
     7
100
AcDbLine
 10
84.94588394581257
 20
-655.1267976249001
 30
0.0
 11
84.63288038707793
 21
-657.4053999974567
 31
0.0
  0
LINE
  5
2C7
330
59
100
AcDbEntity
  8
0
  6
Continuous
 62
     7
100
AcDbLine
 10
84.63288038707793
 20
-657.4053999974567
 30
0.0
 11
73.04726395016729
 21
-655.8139247938125
 31
0.0
  0
LINE
  5
2C8
330
59
100
AcDbEntity
  8
0
  6
Continuous
 62
     7
100
AcDbLine
 10
-73.04697195665761
 20
-633.4238771207711
 30
0.0
 11
-61.80545711355484
 21
-634.9680843040151
 31
0.0
  0
LINE
  5
2C9
330
59
100
AcDbEntity
  8
0
  6
Continuous
 62
     7
100
AcDbLine
 10
-57.20166710620509
 20
-619.3004607281146
 30
0.0
 11
-53.12411528674096
 21
-621.0163120768411
 31
0.0
  0
LINE
  5
2CA
330
59
100
AcDbEntity
  8
0
  6
Continuous
 62
     7
100
AcDbLine
 10
-58.09375101753943
 20
-621.4204103254233
 30
0.0
 11
-54.0161991980753
 21
-623.1362616741535
 31
0.0
  0
LINE
  5
2CB
330
59
100
AcDbEntity
  8
0
  6
Continuous
 62
     7
100
AcDbLine
 10
-46.61552068313216
 20
-609.8878059736016
 30
0.0
 11
-45.08948637303951
 21
-611.0724398509883
 31
0.0
  0
LINE
  5
2CC
330
59
100
AcDbEntity
  8
0
  6
Continuous
 62
     7
100
AcDbLine
 10
-50.11003828596989
 20
-607.1750727735234
 30
0.0
 11
-46.61552068313216
 21
-609.8878059736016
 31
0.0
  0
LINE
  5
2CD
330
59
100
AcDbEntity
  8
0
  6
Continuous
 62
     7
100
AcDbLine
 10
-53.12411528674096
 20
-621.0163120768411
 30
0.0
 11
-51.34347352587832
 21
-621.7656137907761
 31
0.0
  0
LINE
  5
2CE
330
59
100
AcDbEntity
  8
0
  6
Continuous
 62
     7
100
AcDbLine
 10
-54.0161991980753
 20
-623.1362616741535
 30
0.0
 11
-52.23555743721266
 21
-623.8855633880848
 31
0.0
  0
LINE
  5
2CF
330
59
100
AcDbEntity
  8
0
  6
Continuous
 62
     7
100
AcDbLine
 10
-45.08948637303951
 20
-611.0724398509883
 30
0.0
 11
-38.97574852915608
 21
-615.8184281419708
 31
0.0
  0
LINE
  5
2D0
330
59
100
AcDbEntity
  8
0
  6
Continuous
 62
     7
100
AcDbLine
 10
-73.35997551539225
 20
-635.7024794933277
 30
0.0
 11
-62.11846067228947
 21
-637.2466866765717
 31
0.0
  0
LINE
  5
2D1
330
59
100
AcDbEntity
  8
0
  6
Continuous
 62
     7
100
AcDbLine
 10
-68.55255030249504
 20
-617.0193025887893
 30
0.0
 11
-58.09375101753943
 21
-621.4204103254233
 31
0.0
  0
LINE
  5
2D2
330
59
100
AcDbEntity
  8
0
  6
Continuous
 62
     7
100
AcDbLine
 10
-52.23555743721266
 20
-623.8855633880848
 30
0.0
 11
-45.10178800110265
 21
-626.8874842588484
 31
0.0
  0
LINE
  5
2D3
330
59
100
AcDbEntity
  8
0
  6
Continuous
 62
     7
100
AcDbLine
 10
-51.34347352587832
 20
-621.7656137907761
 30
0.0
 11
-44.20970408976831
 21
-624.7675346615397
 31
0.0
  0
LINE
  5
2D4
330
59
100
AcDbEntity
  8
0
  6
Continuous
 62
     7
100
AcDbLine
 10
-62.11846067228947
 20
-637.2466866765717
 30
0.0
 11
-57.73575305422168
 21
-637.8487237401096
 31
0.0
  0
LINE
  5
2D5
330
59
100
AcDbEntity
  8
0
  6
Continuous
 62
     7
100
AcDbLine
 10
-61.80545711355484
 20
-634.9680843040151
 30
0.0
 11
-57.42274949548704
 21
-635.5701213675529
 31
0.0
  0
LINE
  5
2D6
330
59
100
AcDbEntity
  8
0
  6
Continuous
 62
     7
100
AcDbLine
 10
-40.70144567506617
 20
-659.969159436554
 30
0.0
 11
-42.18786188463167
 21
-660.575102050927
 31
0.0
  0
LINE
  5
2D7
330
59
100
AcDbEntity
  8
0
  6
Continuous
 62
     7
100
AcDbLine
 10
-57.73575305422168
 20
-637.8487237401096
 30
0.0
 11
-55.82185163594153
 21
-638.1116296170658
 31
0.0
  0
LINE
  5
2D8
330
59
100
AcDbEntity
  8
0
  6
Continuous
 62
     7
100
AcDbLine
 10
-43.00010434267864
 20
-651.1937371336498
 30
0.0
 11
-44.59270163695004
 21
-651.3943199301357
 31
0.0
  0
LINE
  5
2D9
330
59
100
AcDbEntity
  8
0
  6
Continuous
 62
     7
100
AcDbLine
 10
43.73618117739858
 20
-704.1870906786316
 30
0.0
 11
36.87914917186168
 21
-695.1462199314337
 31
0.0
  0
LINE
  5
2DA
330
59
100
AcDbEntity
  8
0
  6
Continuous
 62
     7
100
AcDbLine
 10
-11.19487783976405
 20
-717.6660189107024
 30
0.0
 11
-9.65067065652005
 21
-706.4245040675996
 31
0.0
  0
LINE
  5
2DB
330
59
100
AcDbEntity
  8
0
  6
Continuous
 62
     7
100
AcDbLine
 10
-8.91627546720741
 20
-717.979022469437
 30
0.0
 11
-7.37206828396342
 21
-706.7375076263343
 31
0.0
  0
LINE
  5
2DC
330
59
100
AcDbEntity
  8
0
  6
Continuous
 62
     7
100
AcDbLine
 10
-7.37206828396342
 20
-706.7375076263343
 30
0.0
 11
-6.77003122042555
 21
-702.3548000082665
 31
0.0
  0
LINE
  5
2DD
330
59
100
AcDbEntity
  8
0
  6
Continuous
 62
     7
100
AcDbLine
 10
-9.65067065652005
 20
-706.4245040675996
 30
0.0
 11
-9.04863359298218
 21
-702.0417964495318
 31
0.0
  0
LINE
  5
2DE
330
59
100
AcDbEntity
  8
0
  6
Continuous
 62
     7
100
AcDbLine
 10
-6.77003122042555
 20
-702.3548000082665
 30
0.0
 11
-6.50712534346934
 21
-700.4408985899863
 31
0.0
  0
LINE
  5
2DF
330
59
100
AcDbEntity
  8
0
  6
Continuous
 62
     7
100
AcDbLine
 10
-9.04863359298218
 20
-702.0417964495318
 30
0.0
 11
-8.78572771602597
 21
-700.1278950312517
 31
0.0
  0
LINE
  5
2E0
330
59
100
AcDbEntity
  8
0
  6
Continuous
 62
     7
100
AcDbLine
 10
-15.80600401851228
 20
-685.1456282085128
 30
0.0
 11
-16.42859286833158
 21
-686.6251493215932
 31
0.0
  0
LINE
  5
2E1
330
59
100
AcDbEntity
  8
0
  6
Continuous
 62
     7
100
AcDbLine
 10
-7.05693604145603
 20
-687.5426425591832
 30
0.0
 11
-7.27538244895953
 21
-689.1328880644469
 31
0.0
  0
LINE
  5
2E2
330
59
100
AcDbEntity
  8
0
  6
Continuous
 62
     7
100
AcDbLine
 10
-8.78572771602597
 20
-700.1278950312517
 30
0.0
 11
-7.73245021191582
 21
-692.4602486008771
 31
0.0
  0
LINE
  5
2E3
330
59
100
AcDbEntity
  8
0
  6
Continuous
 62
     7
100
AcDbLine
 10
-6.50712534346934
 20
-700.4408985899863
 30
0.0
 11
-5.45384783935919
 21
-692.7732521596117
 31
0.0
  0
LINE
  5
2E4
330
59
100
AcDbEntity
  8
0
  6
Continuous
 62
     7
100
AcDbLine
 10
38.71169130003869
 20
-693.7563316810883
 30
0.0
 11
36.03835351350023
 21
-690.2315849142396
 31
0.0
  0
LINE
  5
2E5
330
59
100
AcDbEntity
  8
0
  6
Continuous
 62
     7
100
AcDbLine
 10
36.87914917186168
 20
-695.1462199314337
 30
0.0
 11
34.20581138532322
 21
-691.6214731645887
 31
0.0
  0
LINE
  5
2E6
330
59
100
AcDbEntity
  8
0
  6
Continuous
 62
     7
100
AcDbLine
 10
36.03835351350023
 20
-690.2315849142396
 30
0.0
 11
34.87092337051905
 21
-688.6923497144417
 31
0.0
  0
LINE
  5
2E7
330
59
100
AcDbEntity
  8
0
  6
Continuous
 62
     7
100
AcDbLine
 10
33.03838124234204
 20
-690.082237964787
 30
0.0
 11
28.36131612131027
 21
-683.9156135125013
 31
0.0
  0
LINE
  5
2E8
330
59
100
AcDbEntity
  8
0
  6
Continuous
 62
     7
100
AcDbLine
 10
34.20581138532322
 20
-691.6214731645887
 30
0.0
 11
33.03838124234204
 21
-690.082237964787
 31
0.0
  0
LINE
  5
2E9
330
59
100
AcDbEntity
  8
0
  6
Continuous
 62
     7
100
AcDbLine
 10
34.87092337051905
 20
-688.6923497144417
 30
0.0
 11
30.19385824949092
 21
-682.5257252621559
 31
0.0
  0
LINE
  5
2EA
330
59
100
AcDbEntity
  8
0
  6
Continuous
 62
     7
100
AcDbLine
 10
33.37290951679421
 20
-723.4380162981943
 30
0.0
 11
31.24308019766937
 21
-724.306248451132
 31
0.0
  0
LINE
  5
2EB
330
59
100
AcDbEntity
  8
0
  6
Continuous
 62
     7
100
AcDbLine
 10
-57.42274949548704
 20
-635.5701213675529
 30
0.0
 11
-55.50884807720689
 21
-635.8330272445091
 31
0.0
  0
LINE
  5
2EC
330
59
100
AcDbEntity
  8
0
  6
Continuous
 62
     7
100
AcDbLine
 10
33.37290951679421
 20
-723.4380162981943
 30
0.0
 11
28.95835925418902
 21
-712.6088405435039
 31
0.0
  0
LINE
  5
2ED
330
59
100
AcDbEntity
  8
0
  6
Continuous
 62
     7
100
AcDbLine
 10
-35.05473385647241
 20
-618.8622435950529
 30
0.0
 11
-36.32270365853805
 21
-617.8779407041584
 31
0.0
  0
LINE
  5
2EE
330
59
100
AcDbEntity
  8
0
  6
Continuous
 62
     7
100
AcDbLine
 10
-40.52658125446436
 20
-628.8127509420228
 30
0.0
 11
-42.00610236754477
 21
-628.1901620922035
 31
0.0
  0
LINE
  5
2EF
330
59
100
AcDbEntity
  8
0
  6
Continuous
 62
     7
100
AcDbLine
 10
-39.63449734313002
 20
-626.6928013447105
 30
0.0
 11
-41.11401845621043
 21
-626.0702124948948
 31
0.0
  0
LINE
  5
2F0
330
59
100
AcDbEntity
  8
0
  6
Continuous
 62
     7
100
AcDbLine
 10
17.48023379514376
 20
-684.4522604761733
 30
0.0
 11
18.08617640951667
 21
-685.9386766857388
 31
0.0
  0
LINE
  5
2F1
330
59
100
AcDbEntity
  8
0
  6
Continuous
 62
     7
100
AcDbLine
 10
33.6446556303668
 20
-672.1923840799172
 30
0.0
 11
34.91262543243244
 21
-673.1766869708154
 31
0.0
  0
LINE
  5
2F2
330
59
100
AcDbEntity
  8
0
  6
Continuous
 62
     7
100
AcDbLine
 10
25.36170419274237
 20
-679.9606802824965
 30
0.0
 11
26.33171263719811
 21
-681.239618599091
 31
0.0
  0
LINE
  5
2F3
330
59
100
AcDbEntity
  8
0
  6
Continuous
 62
     7
100
AcDbLine
 10
27.19424604280317
 20
-678.5707916654574
 30
0.0
 11
28.16425476537876
 21
-679.8497303487457
 31
0.0
  0
LINE
  5
2F4
330
59
100
AcDbEntity
  8
0
  6
Continuous
 62
     7
100
AcDbLine
 10
43.6794081469339
 20
-679.9821878239818
 30
0.0
 11
37.56567030305047
 21
-675.2361995329993
 31
0.0
  0
LINE
  5
2F5
330
59
100
AcDbEntity
  8
0
  6
Continuous
 62
     7
100
AcDbLine
 10
45.20544245703019
 20
-681.1668217013685
 30
0.0
 11
43.6794081469339
 21
-679.9821878239818
 31
0.0
  0
LINE
  5
2F6
330
59
100
AcDbEntity
  8
0
  6
Continuous
 62
     7
100
AcDbLine
 10
48.69996005986428
 20
-683.8795549014503
 30
0.0
 11
45.20544245703019
 21
-681.1668217013685
 31
0.0
  0
LINE
  5
2F7
330
59
100
AcDbEntity
  8
0
  6
Continuous
 62
     7
100
AcDbLine
 10
57.66329389938943
 20
-690.8376349723949
 30
0.0
 11
48.69996005986428
 21
-683.8795549014503
 31
0.0
  0
LINE
  5
2F8
330
59
100
AcDbEntity
  8
0
  6
Continuous
 62
     7
100
AcDbLine
 10
59.07366411900472
 20
-689.0208092120047
 30
0.0
 11
50.11033027948321
 21
-682.0627291410601
 31
0.0
  0
LINE
  5
2F9
330
59
100
AcDbEntity
  8
0
  6
Continuous
 62
     7
100
AcDbLine
 10
-42.92359560513472
 20
-637.5618189190791
 30
0.0
 11
-44.5138411104021
 21
-637.3433725115756
 31
0.0
  0
LINE
  5
2FA
330
59
100
AcDbEntity
  8
0
  6
Continuous
 62
     7
100
AcDbLine
 10
31.24308019766937
 20
-724.306248451132
 30
0.0
 11
26.82852993506418
 21
-713.4770726964452
 31
0.0
  0
LINE
  5
2FB
330
59
100
AcDbEntity
  8
0
  6
Continuous
 62
     7
100
AcDbLine
 10
-44.07330276039687
 20
-679.4896783310542
 30
0.0
 11
-37.90667830811111
 21
-674.8126132100224
 31
0.0
  0
LINE
  5
2FC
330
59
100
AcDbEntity
  8
0
  6
Continuous
 62
     7
100
AcDbLine
 10
-33.54631510954681
 20
-689.7085333270879
 30
0.0
 11
-28.80032681856432
 21
-683.5947954832009
 31
0.0
  0
LINE
  5
2FD
330
59
100
AcDbEntity
  8
0
  6
Continuous
 62
     7
100
AcDbLine
 10
-35.36314086993701
 20
-688.298163107469
 30
0.0
 11
-30.61715257895452
 21
-682.1844252635856
 31
0.0
  0
LINE
  5
2FE
330
59
100
AcDbEntity
  8
0
  6
Continuous
 62
     7
100
AcDbLine
 10
-54.25393005325208
 20
-665.4938757054551
 30
0.0
 11
-52.46498986620685
 21
-664.7646081645617
 31
0.0
  0
LINE
  5
2FF
330
59
100
AcDbEntity
  8
0
  6
Continuous
 62
     7
100
AcDbLine
 10
-57.48225256668997
 20
-669.2936794425659
 30
0.0
 11
-53.38569790031437
 21
-667.6237050245763
 31
0.0
  0
LINE
  5
300
330
59
100
AcDbEntity
  8
0
  6
Continuous
 62
     7
100
AcDbLine
 10
-53.38569790031437
 20
-667.6237050245763
 30
0.0
 11
-51.5967577132655
 21
-666.8944374836865
 31
0.0
  0
LINE
  5
301
330
59
100
AcDbEntity
  8
0
  6
Continuous
 62
     7
100
AcDbLine
 10
-47.00242621054025
 20
-678.8245663458547
 30
0.0
 11
-45.46319101074226
 21
-677.6571362028772
 31
0.0
  0
LINE
  5
302
330
59
100
AcDbEntity
  8
0
  6
Continuous
 62
     7
100
AcDbLine
 10
-27.57333712587246
 20
-678.2634105909019
 30
0.0
 11
-28.55764001676693
 21
-679.5313803929639
 31
0.0
  0
LINE
  5
303
330
59
100
AcDbEntity
  8
0
  6
Continuous
 62
     7
100
AcDbLine
 10
-25.75651136548225
 20
-679.6737808105172
 30
0.0
 11
-26.74081425637672
 21
-680.9417506125828
 31
0.0
  0
LINE
  5
304
330
59
100
AcDbEntity
  8
0
  6
Continuous
 62
     7
100
AcDbLine
 10
-51.5967577132655
 20
-666.8944374836865
 30
0.0
 11
-44.42974236527192
 21
-663.9727793442908
 31
0.0
  0
LINE
  5
305
330
59
100
AcDbEntity
  8
0
  6
Continuous
 62
     7
100
AcDbLine
 10
8.95661228725254
 20
-706.5289368924387
 30
0.0
 11
8.4038072346371
 21
-702.1397477571736
 31
0.0
  0
LINE
  5
306
330
59
100
AcDbEntity
  8
0
  6
Continuous
 62
     7
100
AcDbLine
 10
6.12183507295737
 20
-702.4271552263053
 30
0.0
 11
5.88042851188908
 21
-700.5104233693892
 31
0.0
  0
LINE
  5
307
330
59
100
AcDbEntity
  8
0
  6
Continuous
 62
     7
100
AcDbLine
 10
5.88042851188908
 20
-700.5104233693892
 30
0.0
 11
4.91328352806482
 21
-692.8314373775975
 31
0.0
  0
LINE
  5
308
330
59
100
AcDbEntity
  8
0
  6
Continuous
 62
     7
100
AcDbLine
 10
-17.92595361582102
 20
-684.2535442971748
 30
0.0
 11
-18.54854246564031
 21
-685.7330654102589
 31
0.0
  0
LINE
  5
309
330
59
100
AcDbEntity
  8
0
  6
Continuous
 62
     7
100
AcDbLine
 10
-33.95174507810629
 20
-671.8130012814581
 30
0.0
 11
-35.23068339470086
 21
-672.7830097259102
 31
0.0
  0
LINE
  5
30A
330
59
100
AcDbEntity
  8
0
  6
Continuous
 62
     7
100
AcDbLine
 10
-52.46498986620685
 20
-664.7646081645617
 30
0.0
 11
-45.29797451820963
 21
-661.8429500251659
 31
0.0
  0
LINE
  5
30B
330
59
100
AcDbEntity
  8
0
  6
Continuous
 62
     7
100
AcDbLine
 10
-35.34163332845168
 20
-669.9804591532775
 30
0.0
 11
-36.62057164504626
 21
-670.9504675977332
 31
0.0
  0
LINE
  5
30C
330
59
100
AcDbEntity
  8
0
  6
Continuous
 62
     7
100
AcDbLine
 10
-39.83321352212846
 20
-662.0989887556789
 30
0.0
 11
-41.31962973169397
 21
-662.7049313700481
 31
0.0
  0
LINE
  5
30D
330
59
100
AcDbEntity
  8
0
  6
Continuous
 62
     7
100
AcDbLine
 10
-45.46319101074226
 20
-677.6571362028772
 30
0.0
 11
-39.2965665584565
 21
-672.9800710818454
 31
0.0
  0
LINE
  5
30E
330
59
100
AcDbEntity
  8
0
  6
Continuous
 62
     7
100
AcDbLine
 10
-20.73319157244663
 20
-696.8546043912575
 30
0.0
 11
-17.7312707016867
 21
-689.7208349551474
 31
0.0
  0
LINE
  5
30F
330
59
100
AcDbEntity
  8
0
  6
Continuous
 62
     7
100
AcDbLine
 10
-22.853141169759
 20
-695.9625204799231
 30
0.0
 11
-19.85122029899543
 21
-688.8287510438131
 31
0.0
  0
LINE
  5
310
330
59
100
AcDbEntity
  8
0
  6
Continuous
 62
     7
100
AcDbLine
 10
-58.35048471963131
 20
-667.1638501234411
 30
0.0
 11
-54.25393005325208
 21
-665.4938757054551
 31
0.0
  0
LINE
  5
311
330
59
100
AcDbEntity
  8
0
  6
Continuous
 62
     7
100
AcDbLine
 10
-45.61253796019486
 20
-680.6571084740353
 30
0.0
 11
-44.07330276039687
 21
-679.4896783310542
 31
0.0
  0
LINE
  5
312
330
59
100
AcDbEntity
  8
0
  6
Continuous
 62
     7
100
AcDbLine
 10
-23.19834463511182
 20
-702.7127979715879
 30
0.0
 11
-21.48249328638161
 21
-698.6352461521237
 31
0.0
  0
LINE
  5
313
330
59
100
AcDbEntity
  8
0
  6
Continuous
 62
     7
100
AcDbLine
 10
-21.48249328638161
 20
-698.6352461521237
 30
0.0
 11
-20.73319157244663
 21
-696.8546043912575
 31
0.0
  0
LINE
  5
314
330
59
100
AcDbEntity
  8
0
  6
Continuous
 62
     7
100
AcDbLine
 10
-23.60244288369398
 20
-697.7431622407858
 30
0.0
 11
-22.853141169759
 21
-695.9625204799231
 31
0.0
  0
LINE
  5
315
330
59
100
AcDbEntity
  8
0
  6
Continuous
 62
     7
100
AcDbLine
 10
-25.31829423242056
 20
-701.8207140602499
 30
0.0
 11
-23.60244288369398
 21
-697.7431622407858
 31
0.0
  0
LINE
  5
316
330
59
100
AcDbEntity
  8
0
  6
Continuous
 62
     7
100
AcDbLine
 10
-36.54777474732367
 20
-689.8241974175617
 30
0.0
 11
-35.36314086993701
 21
-688.298163107469
 31
0.0
  0
LINE
  5
317
330
59
100
AcDbEntity
  8
0
  6
Continuous
 62
     7
100
AcDbLine
 10
-34.73094898693347
 20
-691.2345676371806
 30
0.0
 11
-33.54631510954681
 21
-689.7085333270879
 31
0.0
  0
LINE
  5
318
330
59
100
AcDbEntity
  8
0
  6
Continuous
 62
     7
100
AcDbLine
 10
-50.52717297738894
 20
-681.4979041323968
 30
0.0
 11
-47.00242621054025
 21
-678.8245663458547
 31
0.0
  0
LINE
  5
319
330
59
100
AcDbEntity
  8
0
  6
Continuous
 62
     7
100
AcDbLine
 10
-49.13728472704355
 20
-683.3304462605738
 30
0.0
 11
-45.61253796019486
 21
-680.6571084740353
 31
0.0
  0
LINE
  5
31A
330
59
100
AcDbEntity
  8
0
  6
Continuous
 62
     7
100
AcDbLine
 10
-68.85802574239682
 20
-671.4472848955993
 30
0.0
 11
-58.35048471963131
 21
-667.1638501234411
 31
0.0
  0
LINE
  5
31B
330
59
100
AcDbEntity
  8
0
  6
Continuous
 62
     7
100
AcDbLine
 10
9.55389984535901
 20
-729.6772343261473
 30
0.0
 11
8.0925686633305
 21
-718.0744841037449
 31
0.0
  0
LINE
  5
31C
330
59
100
AcDbEntity
  8
0
  6
Continuous
 62
     7
100
AcDbLine
 10
11.83587200704238
 20
-729.3898268570156
 30
0.0
 11
9.55389984535901
 21
-729.6772343261473
 31
0.0
  0
LINE
  5
31D
330
59
100
AcDbEntity
  8
0
  6
Continuous
 62
     7
100
AcDbLine
 10
11.83587200704238
 20
-729.3898268570156
 30
0.0
 11
10.37454082501387
 21
-717.7870766346132
 31
0.0
  0
LINE
  5
31E
330
59
100
AcDbEntity
  8
0
  6
Continuous
 62
     7
100
AcDbLine
 10
8.0925686633305
 20
-718.0744841037449
 30
0.0
 11
6.67464012557281
 21
-706.8163443615704
 31
0.0
  0
LINE
  5
31F
330
59
100
AcDbEntity
  8
0
  6
Continuous
 62
     7
100
AcDbLine
 10
10.37454082501387
 20
-717.7870766346132
 30
0.0
 11
8.95661228725254
 21
-706.5289368924387
 31
0.0
  0
LINE
  5
320
330
59
100
AcDbEntity
  8
0
  6
Continuous
 62
     7
100
AcDbLine
 10
6.67464012557281
 20
-706.8163443615704
 30
0.0
 11
6.12183507295737
 21
-702.4271552263053
 31
0.0
  0
LINE
  5
321
330
59
100
AcDbEntity
  8
0
  6
Continuous
 62
     7
100
AcDbLine
 10
-4.77833366889939
 20
-687.8556461179178
 30
0.0
 11
-4.9967800764029
 21
-689.4458916231815
 31
0.0
  0
LINE
  5
322
330
59
100
AcDbEntity
  8
0
  6
Continuous
 62
     7
100
AcDbLine
 10
-67.98979358945911
 20
-673.5771142147205
 30
0.0
 11
-57.48225256668997
 21
-669.2936794425659
 31
0.0
  0
LINE
  5
323
330
59
100
AcDbEntity
  8
0
  6
Continuous
 62
     7
100
AcDbLine
 10
26.82852993506418
 20
-713.4770726964452
 30
0.0
 11
22.54509516290597
 21
-702.9695316736761
 31
0.0
  0
LINE
  5
324
330
59
100
AcDbEntity
  8
0
  6
Continuous
 62
     7
100
AcDbLine
 10
23.00495006404486
 20
-698.0047448543592
 30
0.0
 11
22.27568252315137
 21
-696.2158046673139
 31
0.0
  0
LINE
  5
325
330
59
100
AcDbEntity
  8
0
  6
Continuous
 62
     7
100
AcDbLine
 10
22.27568252315137
 20
-696.2158046673139
 30
0.0
 11
19.35402438375564
 21
-689.0487893193167
 31
0.0
  0
LINE
  5
326
330
59
100
AcDbEntity
  8
0
  6
Continuous
 62
     7
100
AcDbLine
 10
24.6749244820308
 20
-702.1012995207384
 30
0.0
 11
23.00495006404486
 21
-698.0047448543592
 31
0.0
  0
LINE
  5
327
330
59
100
AcDbEntity
  8
0
  6
Continuous
 62
     7
100
AcDbLine
 10
22.54509516290597
 20
-702.9695316736761
 30
0.0
 11
20.87512074492003
 21
-698.8729770073005
 31
0.0
  0
LINE
  5
328
330
59
100
AcDbEntity
  8
0
  6
Continuous
 62
     7
100
AcDbLine
 10
20.87512074492003
 20
-698.8729770073005
 30
0.0
 11
20.14585320402654
 21
-697.0840368202516
 31
0.0
  0
LINE
  5
329
330
59
100
AcDbEntity
  8
0
  6
Continuous
 62
     7
100
AcDbLine
 10
20.14585320402654
 20
-697.0840368202516
 30
0.0
 11
17.22419506463081
 21
-689.9170214722544
 31
0.0
  0
LINE
  5
32A
330
59
100
AcDbEntity
  8
0
  6
Continuous
 62
     7
100
AcDbLine
 10
4.293010011435
 20
-687.9065587658552
 30
0.0
 11
4.49359280792083
 21
-689.4991560601302
 31
0.0
  0
LINE
  5
32B
330
59
100
AcDbEntity
  8
0
  6
Continuous
 62
     7
100
AcDbLine
 10
8.16240067357245
 20
-700.2230159002575
 30
0.0
 11
7.19525568974819
 21
-692.5440299084657
 31
0.0
  0
LINE
  5
32C
330
59
100
AcDbEntity
  8
0
  6
Continuous
 62
     7
100
AcDbLine
 10
6.57498217311473
 20
-687.6191512967234
 30
0.0
 11
6.77556496960057
 21
-689.2117485909985
 31
0.0
  0
LINE
  5
32D
330
59
100
AcDbEntity
  8
0
  6
Continuous
 62
     7
100
AcDbLine
 10
-55.50884807720689
 20
-635.8330272445091
 30
0.0
 11
-47.8412016468323
 21
-636.8863047486193
 31
0.0
  0
LINE
  5
32E
330
59
100
AcDbEntity
  8
0
  6
Continuous
 62
     7
100
AcDbLine
 10
-55.82185163594153
 20
-638.1116296170658
 30
0.0
 11
-48.15420520556694
 21
-639.1649071211759
 31
0.0
  0
LINE
  5
32F
330
59
100
AcDbEntity
  8
0
  6
Continuous
 62
     7
100
AcDbLine
 10
15.35040447601892
 20
-685.3204926291146
 30
0.0
 11
15.95634709039183
 21
-686.8069088386801
 31
0.0
  0
LINE
  5
330
330
59
100
AcDbEntity
  8
0
  6
Continuous
 62
     7
100
AcDbLine
 10
28.95835925418902
 20
-712.6088405435039
 30
0.0
 11
24.6749244820308
 21
-702.1012995207384
 31
0.0
  0
LINE
  5
331
330
59
100
AcDbEntity
  8
0
  6
Continuous
 62
     7
100
AcDbLine
 10
8.4038072346371
 20
-702.1397477571736
 30
0.0
 11
8.16240067357245
 21
-700.2230159002575
 31
0.0
  0
LINE
  5
332
330
59
100
AcDbEntity
  8
0
  6
Continuous
 62
     7
100
AcDbLine
 10
-10.50775067085164
 20
-729.5646389063477
 30
0.0
 11
-8.91627546720741
 21
-717.979022469437
 31
0.0
  0
LINE
  5
333
330
59
100
AcDbEntity
  8
0
  6
Continuous
 62
     7
100
AcDbLine
 10
-10.50775067085164
 20
-729.5646389063477
 30
0.0
 11
-12.78635304340827
 21
-729.251635347613
 31
0.0
  0
LINE
  5
334
330
59
100
AcDbEntity
  8
0
  6
Continuous
 62
     7
100
AcDbLine
 10
-12.78635304340827
 20
-729.251635347613
 30
0.0
 11
-11.19487783976405
 21
-717.6660189107024
 31
0.0
  0
LINE
  5
335
330
59
100
AcDbEntity
  8
0
  6
Continuous
 62
     7
100
AcDbLine
 10
-39.26050794740189
 20
-693.3187150203994
 30
0.0
 11
-36.54777474732367
 21
-689.8241974175617
 31
0.0
  0
LINE
  5
336
330
59
100
AcDbEntity
  8
0
  6
Continuous
 62
     7
100
AcDbLine
 10
-37.44368218701169
 20
-694.7290852400183
 30
0.0
 11
-34.73094898693347
 21
-691.2345676371806
 31
0.0
  0
LINE
  5
337
330
59
100
AcDbEntity
  8
0
  6
Continuous
 62
     7
100
AcDbLine
 10
-59.56804372458322
 20
-688.3549361379337
 30
0.0
 11
-50.52717297738894
 21
-681.4979041323968
 31
0.0
  0
LINE
  5
338
330
59
100
AcDbEntity
  8
0
  6
Continuous
 62
     7
100
AcDbLine
 10
-58.17815547423783
 20
-690.1874782661107
 30
0.0
 11
-49.13728472704355
 21
-683.3304462605738
 31
0.0
  0
LINE
  5
339
330
59
100
AcDbEntity
  8
0
  6
Continuous
 62
     7
100
AcDbLine
 10
-27.59945237174583
 20
-713.1715972565435
 30
0.0
 11
-23.19834463511182
 21
-702.7127979715879
 31
0.0
  0
LINE
  5
33A
330
59
100
AcDbEntity
  8
0
  6
Continuous
 62
     7
100
AcDbLine
 10
-78.81896934414948
 20
-677.9916644773293
 30
0.0
 11
-79.68720149708719
 21
-675.8618351582045
 31
0.0
  0
LINE
  5
33B
330
59
100
AcDbEntity
  8
0
  6
Continuous
 62
     7
100
AcDbLine
 10
-79.68720149708719
 20
-675.8618351582045
 30
0.0
 11
-68.85802574239682
 21
-671.4472848955993
 31
0.0
  0
LINE
  5
33C
330
59
100
AcDbEntity
  8
0
  6
Continuous
 62
     7
100
AcDbLine
 10
-78.81896934414948
 20
-677.9916644773293
 30
0.0
 11
-67.98979358945911
 21
-673.5771142147205
 31
0.0
  0
LINE
  5
33D
330
59
100
AcDbEntity
  8
0
  6
Continuous
 62
     7
100
AcDbLine
 10
-44.40176225795989
 20
-703.6924190795398
 30
0.0
 11
-37.44368218701169
 21
-694.7290852400183
 31
0.0
  0
LINE
  5
33E
330
59
100
AcDbEntity
  8
0
  6
Continuous
 62
     7
100
AcDbLine
 10
-46.21858801835009
 20
-702.2820488599245
 30
0.0
 11
-39.26050794740189
 21
-693.3187150203994
 31
0.0
  0
LINE
  5
33F
330
59
100
AcDbEntity
  8
0
  6
Continuous
 62
     7
100
AcDbLine
 10
-54.73857633203483
 20
-695.8894800237613
 30
0.0
 11
-54.36597538698374
 21
-695.4094989621226
 31
0.0
  0
LINE
  5
340
330
59
100
AcDbEntity
  8
0
  6
Continuous
 62
     7
100
AcDbLine
 10
-54.05541544143165
 20
-695.0094385372977
 30
0.0
 11
-54.36597538698374
 21
-695.4094989621226
 31
0.0
  0
LINE
  5
341
330
59
100
AcDbEntity
  8
0
  6
Continuous
 62
     7
100
AcDbLine
 10
-35.72371176912242
 20
-709.8811870521204
 30
0.0
 11
-36.09631262168517
 21
-710.3611679946152
 31
0.0
  0
LINE
  5
342
330
59
100
AcDbEntity
  8
0
  6
Continuous
 62
     7
100
AcDbLine
 10
-35.72371176912242
 20
-709.8811870521204
 30
0.0
 11
-35.41315190183781
 21
-709.4811267281148
 31
0.0
  0
LINE
  5
343
330
59
100
AcDbEntity
  8
0
  6
Continuous
 62
     7
100
AcDbLine
 10
51.2707250632298
 20
-699.3576232860833
 30
0.0
 11
50.79074400158748
 21
-698.9850223410285
 31
0.0
  0
LINE
  5
344
330
59
100
AcDbEntity
  8
0
  6
Continuous
 62
     7
100
AcDbLine
 10
50.39068357676257
 20
-698.6744623954801
 30
0.0
 11
50.79074400158748
 21
-698.9850223410285
 31
0.0
  0
LINE
  5
345
330
59
100
AcDbEntity
  8
0
  6
Continuous
 62
     7
100
AcDbLine
 10
65.26243209158525
 20
-680.3427587231672
 30
0.0
 11
65.74241303408377
 21
-680.7153595757336
 31
0.0
  0
LINE
  5
346
330
59
100
AcDbEntity
  8
0
  6
Continuous
 62
     7
100
AcDbLine
 10
35.72400376263573
 20
-579.3566148624595
 30
0.0
 11
36.09660461519849
 21
-578.8766339199647
 31
0.0
  0
LINE
  5
347
330
59
100
AcDbEntity
  8
0
  6
Continuous
 62
     7
100
AcDbLine
 10
35.72400376263573
 20
-579.3566148624595
 30
0.0
 11
35.41344389535112
 21
-579.7566751864651
 31
0.0
  0
LINE
  5
348
330
59
100
AcDbEntity
  8
0
  6
Continuous
 62
     7
100
AcDbLine
 10
23.1986366286215
 20
-586.5250039429957
 30
0.0
 11
21.48278527989493
 21
-590.6025557624598
 31
0.0
  0
LINE
  5
349
330
59
100
AcDbEntity
  8
0
  6
Continuous
 62
     7
100
AcDbLine
 10
25.31858622593387
 20
-587.41708785433
 30
0.0
 11
23.60273487720366
 21
-591.4946396737942
 31
0.0
  0
LINE
  5
34A
330
59
100
AcDbEntity
  8
0
  6
Continuous
 62
     7
100
AcDbLine
 10
23.60273487720366
 20
-591.4946396737942
 30
0.0
 11
22.85343316326868
 21
-593.2752814346568
 31
0.0
  0
LINE
  5
34B
330
59
100
AcDbEntity
  8
0
  6
Continuous
 62
     7
100
AcDbLine
 10
29.71969396256787
 20
-576.9582885693744
 30
0.0
 11
25.31858622593387
 21
-587.41708785433
 31
0.0
  0
LINE
  5
34C
330
59
100
AcDbEntity
  8
0
  6
Continuous
 62
     7
100
AcDbLine
 10
27.5997443652555
 20
-576.0662046580401
 30
0.0
 11
23.1986366286215
 21
-586.5250039429957
 31
0.0
  0
LINE
  5
34D
330
59
100
AcDbEntity
  8
0
  6
Continuous
 62
     7
100
AcDbLine
 10
34.25551914679051
 20
-566.1793465319934
 30
0.0
 11
29.71969396256787
 21
-576.9582885693744
 31
0.0
  0
LINE
  5
34E
330
59
100
AcDbEntity
  8
0
  6
Continuous
 62
     7
100
AcDbLine
 10
32.13556954947813
 20
-565.287262620659
 30
0.0
 11
34.25551914679051
 21
-566.1793465319934
 31
0.0
  0
LINE
  5
34F
330
59
100
AcDbEntity
  8
0
  6
Continuous
 62
     7
100
AcDbLine
 10
32.13556954947813
 20
-565.287262620659
 30
0.0
 11
27.5997443652555
 21
-576.0662046580401
 31
0.0
  0
LINE
  5
350
330
59
100
AcDbEntity
  8
0
  6
Continuous
 62
     7
100
AcDbLine
 10
6.77032321393523
 20
-586.8830019063134
 30
0.0
 11
6.50741733698266
 21
-588.7969033245936
 31
0.0
  0
LINE
  5
351
330
59
100
AcDbEntity
  8
0
  6
Continuous
 62
     7
100
AcDbLine
 10
10.50804266436495
 20
-559.6731630082322
 30
0.0
 11
12.78664503692158
 21
-559.9861665669669
 31
0.0
  0
LINE
  5
352
330
59
100
AcDbEntity
  8
0
  6
Continuous
 62
     7
100
AcDbLine
 10
10.50804266436495
 20
-559.6731630082322
 30
0.0
 11
8.91656746072073
 21
-571.2587794451429
 31
0.0
  0
LINE
  5
353
330
59
100
AcDbEntity
  8
0
  6
Continuous
 62
     7
100
AcDbLine
 10
12.78664503692158
 20
-559.9861665669669
 30
0.0
 11
11.19516983327736
 21
-571.5717830038775
 31
0.0
  0
LINE
  5
354
330
59
100
AcDbEntity
  8
0
  6
Continuous
 62
     7
100
AcDbLine
 10
11.19516983327736
 20
-571.5717830038775
 30
0.0
 11
9.65096265003336
 21
-582.8132978469803
 31
0.0
  0
LINE
  5
355
330
59
100
AcDbEntity
  8
0
  6
Continuous
 62
     7
100
AcDbLine
 10
8.91656746072073
 20
-571.2587794451429
 30
0.0
 11
7.37236027747673
 21
-582.5002942882456
 31
0.0
  0
LINE
  5
356
330
59
100
AcDbEntity
  8
0
  6
Continuous
 62
     7
100
AcDbLine
 10
9.65096265003336
 20
-582.8132978469803
 30
0.0
 11
9.04892558649186
 21
-587.1960054650481
 31
0.0
  0
LINE
  5
357
330
59
100
AcDbEntity
  8
0
  6
Continuous
 62
     7
100
AcDbLine
 10
7.37236027747673
 20
-582.5002942882456
 30
0.0
 11
6.77032321393523
 21
-586.8830019063134
 31
0.0
  0
LINE
  5
358
330
59
100
AcDbEntity
  8
0
  6
Continuous
 62
     7
100
AcDbLine
 10
9.04892558649186
 20
-587.1960054650481
 30
0.0
 11
8.78601970953929
 21
-589.1099068833282
 31
0.0
  0
LINE
  5
359
330
59
100
AcDbEntity
  8
0
  6
Continuous
 62
     7
100
AcDbLine
 10
44.4020542514732
 20
-585.5453828350401
 30
0.0
 11
37.443974180525
 21
-594.5087166745652
 31
0.0
  0
LINE
  5
35A
330
59
100
AcDbEntity
  8
0
  6
Continuous
 62
     7
100
AcDbLine
 10
58.17844746775114
 20
-599.0503236484692
 30
0.0
 11
49.13757672055323
 21
-605.9073556540061
 31
0.0
  0
LINE
  5
35B
330
59
100
AcDbEntity
  8
0
  6
Continuous
 62
     7
100
AcDbLine
 10
67.49605832310368
 20
-591.9833986102894
 30
0.0
 11
68.88594657344908
 21
-593.8159407384701
 31
0.0
  0
LINE
  5
35C
330
59
100
AcDbEntity
  8
0
  6
Continuous
 62
     7
100
AcDbLine
 10
68.88594657344908
 20
-593.8159407384701
 30
0.0
 11
59.56833571809653
 21
-600.8828657766462
 31
0.0
  0
LINE
  5
35D
330
59
100
AcDbEntity
  8
0
  6
Continuous
 62
     7
100
AcDbLine
 10
67.49605832310368
 20
-591.9833986102894
 30
0.0
 11
58.17844746775114
 21
-599.0503236484692
 31
0.0
  0
LINE
  5
35E
330
59
100
AcDbEntity
  8
0
  6
Continuous
 62
     7
100
AcDbLine
 10
15.8062960120256
 20
-604.0921737060708
 30
0.0
 11
16.42888486184125
 21
-602.6126525929867
 31
0.0
  0
LINE
  5
35F
330
59
100
AcDbEntity
  8
0
  6
Continuous
 62
     7
100
AcDbLine
 10
8.78601970953929
 20
-589.1099068833282
 30
0.0
 11
7.73274220542913
 21
-596.7775533137028
 31
0.0
  0
LINE
  5
360
330
59
100
AcDbEntity
  8
0
  6
Continuous
 62
     7
100
AcDbLine
 10
6.50741733698266
 20
-588.7969033245936
 30
0.0
 11
5.4541398328725
 21
-596.4645497549682
 31
0.0
  0
LINE
  5
361
330
59
100
AcDbEntity
  8
0
  6
Continuous
 62
     7
100
AcDbLine
 10
-5.8801365183794
 20
-588.7273785451907
 30
0.0
 11
-4.91299153455515
 21
-596.4063645369861
 31
0.0
  0
LINE
  5
362
330
59
100
AcDbEntity
  8
0
  6
Continuous
 62
     7
100
AcDbLine
 10
-8.16210868005913
 20
-589.0147860143225
 30
0.0
 11
-7.19496369623488
 21
-596.6937720061142
 31
0.0
  0
LINE
  5
363
330
59
100
AcDbEntity
  8
0
  6
Continuous
 62
     7
100
AcDbLine
 10
55.89166840885406
 20
-638.7386184421557
 30
0.0
 11
48.21268241706235
 21
-639.70576342598
 31
0.0
  0
LINE
  5
364
330
59
100
AcDbEntity
  8
0
  6
Continuous
 62
     7
100
AcDbLine
 10
55.60426093972234
 20
-636.456646280476
 30
0.0
 11
47.92527494793063
 21
-637.4237912643002
 31
0.0
  0
LINE
  5
365
330
59
100
AcDbEntity
  8
0
  6
Continuous
 62
     7
100
AcDbLine
 10
78.81926133765916
 20
-611.2461374372506
 30
0.0
 11
67.99008558297243
 21
-615.6606876998594
 31
0.0
  0
LINE
  5
366
330
59
100
AcDbEntity
  8
0
  6
Continuous
 62
     7
100
AcDbLine
 10
78.81926133765916
 20
-611.2461374372506
 30
0.0
 11
79.6874934906005
 21
-613.3759667563754
 31
0.0
  0
LINE
  5
367
330
59
100
AcDbEntity
  8
0
  6
Continuous
 62
     7
100
AcDbLine
 10
67.99008558297243
 20
-615.6606876998594
 30
0.0
 11
57.48254456020328
 21
-619.944122472014
 31
0.0
  0
LINE
  5
368
330
59
100
AcDbEntity
  8
0
  6
Continuous
 62
     7
100
AcDbLine
 10
58.35077671314099
 20
-622.0739517911388
 30
0.0
 11
54.25422204676539
 21
-623.7439262091284
 31
0.0
  0
LINE
  5
369
330
59
100
AcDbEntity
  8
0
  6
Continuous
 62
     7
100
AcDbLine
 10
68.85831773591013
 20
-617.7905170189842
 30
0.0
 11
58.35077671314099
 21
-622.0739517911388
 31
0.0
  0
LINE
  5
36A
330
59
100
AcDbEntity
  8
0
  6
Continuous
 62
     7
100
AcDbLine
 10
79.6874934906005
 20
-613.3759667563754
 30
0.0
 11
68.85831773591013
 21
-617.7905170189842
 31
0.0
  0
LINE
  5
36B
330
59
100
AcDbEntity
  8
0
  6
Continuous
 62
     7
100
AcDbLine
 10
54.25422204676539
 20
-623.7439262091284
 30
0.0
 11
52.46528185971653
 21
-624.4731937500219
 31
0.0
  0
LINE
  5
36C
330
59
100
AcDbEntity
  8
0
  6
Continuous
 62
     7
100
AcDbLine
 10
53.38598989382768
 20
-621.6140968900036
 30
0.0
 11
51.59704970677882
 21
-622.343364430897
 31
0.0
  0
LINE
  5
36D
330
59
100
AcDbEntity
  8
0
  6
Continuous
 62
     7
100
AcDbLine
 10
45.46348300425558
 20
-611.5806657117064
 30
0.0
 11
39.29685855196982
 21
-616.2577308327382
 31
0.0
  0
LINE
  5
36E
330
59
100
AcDbEntity
  8
0
  6
Continuous
 62
     7
100
AcDbLine
 10
44.07359475391019
 20
-609.7481235835257
 30
0.0
 11
37.90697030162443
 21
-614.4251887045575
 31
0.0
  0
LINE
  5
36F
330
59
100
AcDbEntity
  8
0
  6
Continuous
 62
     7
100
AcDbLine
 10
45.61282995370817
 20
-608.5806934405446
 30
0.0
 11
44.07359475391019
 21
-609.7481235835257
 31
0.0
  0
LINE
  5
370
330
59
100
AcDbEntity
  8
0
  6
Continuous
 62
     7
100
AcDbLine
 10
47.00271820405357
 20
-610.4132355687252
 30
0.0
 11
45.46348300425558
 21
-611.5806657117064
 31
0.0
  0
LINE
  5
371
330
59
100
AcDbEntity
  8
0
  6
Continuous
 62
     7
100
AcDbLine
 10
36.54806674083699
 20
-599.4136044970182
 30
0.0
 11
35.36343286344669
 21
-600.9396388071109
 31
0.0
  0
LINE
  5
372
330
59
100
AcDbEntity
  8
0
  6
Continuous
 62
     7
100
AcDbLine
 10
50.52746497090226
 20
-607.7398977821867
 30
0.0
 11
47.00271820405357
 21
-610.4132355687252
 31
0.0
  0
LINE
  5
373
330
59
100
AcDbEntity
  8
0
  6
Continuous
 62
     7
100
AcDbLine
 10
39.26079994091521
 20
-595.9190868941805
 30
0.0
 11
36.54806674083699
 21
-599.4136044970182
 31
0.0
  0
LINE
  5
374
330
59
100
AcDbEntity
  8
0
  6
Continuous
 62
     7
100
AcDbLine
 10
49.13757672055323
 20
-605.9073556540061
 30
0.0
 11
45.61282995370817
 21
-608.5806934405446
 31
0.0
  0
LINE
  5
375
330
59
100
AcDbEntity
  8
0
  6
Continuous
 62
     7
100
AcDbLine
 10
57.48254456020328
 20
-619.944122472014
 30
0.0
 11
53.38598989382768
 21
-621.6140968900036
 31
0.0
  0
LINE
  5
376
330
59
100
AcDbEntity
  8
0
  6
Continuous
 62
     7
100
AcDbLine
 10
61.91018193190718
 20
-635.6624346667959
 30
0.0
 11
57.5209927966385
 21
-636.2152397194113
 31
0.0
  0
LINE
  5
377
330
59
100
AcDbEntity
  8
0
  6
Continuous
 62
     7
100
AcDbLine
 10
52.46528185971653
 20
-624.4731937500219
 30
0.0
 11
45.29826651171931
 21
-627.394851889414
 31
0.0
  0
LINE
  5
378
330
59
100
AcDbEntity
  8
0
  6
Continuous
 62
     7
100
AcDbLine
 10
27.57362911938213
 20
-610.974391323678
 30
0.0
 11
28.55793201028024
 21
-609.706421521616
 31
0.0
  0
LINE
  5
379
330
59
100
AcDbEntity
  8
0
  6
Continuous
 62
     7
100
AcDbLine
 10
35.34192532196136
 20
-619.2573427613024
 30
0.0
 11
36.62086363855593
 21
-618.2873343168467
 31
0.0
  0
LINE
  5
37A
330
59
100
AcDbEntity
  8
0
  6
Continuous
 62
     7
100
AcDbLine
 10
39.83350551563814
 20
-627.138813158901
 30
0.0
 11
41.31992172520364
 21
-626.5328705445318
 31
0.0
  0
LINE
  5
37B
330
59
100
AcDbEntity
  8
0
  6
Continuous
 62
     7
100
AcDbLine
 10
33.95203707161596
 20
-617.4248006331254
 30
0.0
 11
35.23097538821054
 21
-616.4547921886697
 31
0.0
  0
LINE
  5
37C
330
59
100
AcDbEntity
  8
0
  6
Continuous
 62
     7
100
AcDbLine
 10
59.56833571809653
 20
-600.8828657766462
 30
0.0
 11
50.52746497090226
 21
-607.7398977821867
 31
0.0
  0
LINE
  5
37D
330
59
100
AcDbEntity
  8
0
  6
Continuous
 62
     7
100
AcDbLine
 10
57.80840026577022
 20
-638.4972118810911
 30
0.0
 11
55.89166840885406
 21
-638.7386184421557
 31
0.0
  0
LINE
  5
37E
330
59
100
AcDbEntity
  8
0
  6
Continuous
 62
     7
100
AcDbLine
 10
51.59704970677882
 20
-622.343364430897
 30
0.0
 11
44.4300343587816
 21
-625.2650225702891
 31
0.0
  0
LINE
  5
37F
330
59
100
AcDbEntity
  8
0
  6
Continuous
 62
     7
100
AcDbLine
 10
57.5209927966385
 20
-636.2152397194113
 30
0.0
 11
55.60426093972234
 21
-636.456646280476
 31
0.0
  0
LINE
  5
380
330
59
100
AcDbEntity
  8
0
  6
Continuous
 62
     7
100
AcDbLine
 10
62.19758940103526
 20
-637.9444068284756
 30
0.0
 11
57.80840026577022
 21
-638.4972118810911
 31
0.0
  0
LINE
  5
381
330
59
100
AcDbEntity
  8
0
  6
Continuous
 62
     7
100
AcDbLine
 10
35.36343286344669
 20
-600.9396388071109
 30
0.0
 11
30.61744457246783
 21
-607.053376650998
 31
0.0
  0
LINE
  5
382
330
59
100
AcDbEntity
  8
0
  6
Continuous
 62
     7
100
AcDbLine
 10
73.36026750890193
 20
-653.5353224212558
 30
0.0
 11
62.11875266579915
 21
-651.9911152380118
 31
0.0
  0
LINE
  5
383
330
59
100
AcDbEntity
  8
0
  6
Continuous
 62
     7
100
AcDbLine
 10
84.77107189648046
 20
-632.783174947006
 30
0.0
 11
85.05847936561219
 21
-635.0651471086858
 31
0.0
  0
LINE
  5
384
330
59
100
AcDbEntity
  8
0
  6
Continuous
 62
     7
100
AcDbLine
 10
85.05847936561219
 20
-635.0651471086858
 30
0.0
 11
73.4557291432098
 21
-636.5264782907143
 31
0.0
  0
LINE
  5
385
330
59
100
AcDbEntity
  8
0
  6
Continuous
 62
     7
100
AcDbLine
 10
84.77107189648046
 20
-632.783174947006
 30
0.0
 11
73.16832167407807
 21
-634.2445061290346
 31
0.0
  0
LINE
  5
386
330
59
100
AcDbEntity
  8
0
  6
Continuous
 62
     7
100
AcDbLine
 10
73.4557291432098
 20
-636.5264782907143
 30
0.0
 11
62.19758940103526
 21
-637.9444068284756
 31
0.0
  0
LINE
  5
387
330
59
100
AcDbEntity
  8
0
  6
Continuous
 62
     7
100
AcDbLine
 10
73.16832167407807
 20
-634.2445061290346
 30
0.0
 11
61.91018193190718
 21
-635.6624346667959
 31
0.0
  0
LINE
  5
388
330
59
100
AcDbEntity
  8
0
  6
Continuous
 62
     7
100
AcDbLine
 10
84.94588394581257
 20
-655.1267976249001
 30
0.0
 11
73.36026750890193
 21
-653.5353224212558
 31
0.0
  0
LINE
  5
389
330
59
100
AcDbEntity
  8
0
  6
Continuous
 62
     7
100
AcDbLine
 10
-33.37261752328453
 20
-565.7997856163856
 30
0.0
 11
-31.24278820415969
 21
-564.9315534634479
 31
0.0
  0
LINE
  5
38A
330
59
100
AcDbEntity
  8
0
  6
Continuous
 62
     7
100
AcDbLine
 10
-33.37261752328453
 20
-565.7997856163856
 30
0.0
 11
-28.95806726067571
 21
-576.628961371076
 31
0.0
  0
LINE
  5
38B
330
59
100
AcDbEntity
  8
0
  6
Continuous
 62
     7
100
AcDbLine
 10
-31.24278820415969
 20
-564.9315534634479
 30
0.0
 11
-26.82823794155087
 21
-575.7607292181383
 31
0.0
  0
LINE
  5
38C
330
59
100
AcDbEntity
  8
0
  6
Continuous
 62
     7
100
AcDbLine
 10
-48.6996680663546
 20
-605.3582470131332
 30
0.0
 11
-45.20515046351687
 21
-608.0709802132114
 31
0.0
  0
LINE
  5
38D
330
59
100
AcDbEntity
  8
0
  6
Continuous
 62
     7
100
AcDbLine
 10
-45.20515046351687
 20
-608.0709802132114
 30
0.0
 11
-43.67911615342422
 21
-609.2556140905981
 31
0.0
  0
LINE
  5
38E
330
59
100
AcDbEntity
  8
0
  6
Continuous
 62
     7
100
AcDbLine
 10
-20.87482875140671
 20
-590.3648249072794
 30
0.0
 11
-20.14556121051322
 21
-592.1537650943283
 31
0.0
  0
LINE
  5
38F
330
59
100
AcDbEntity
  8
0
  6
Continuous
 62
     7
100
AcDbLine
 10
-23.00465807053155
 20
-591.2330570602207
 30
0.0
 11
-22.27539052963806
 21
-593.0219972472696
 31
0.0
  0
LINE
  5
390
330
59
100
AcDbEntity
  8
0
  6
Continuous
 62
     7
100
AcDbLine
 10
-22.27539052963806
 20
-593.0219972472696
 30
0.0
 11
-19.35373239024597
 21
-600.1890125952632
 31
0.0
  0
LINE
  5
391
330
59
100
AcDbEntity
  8
0
  6
Continuous
 62
     7
100
AcDbLine
 10
-22.54480316939629
 20
-586.2682702409038
 30
0.0
 11
-20.87482875140671
 21
-590.3648249072794
 31
0.0
  0
LINE
  5
392
330
59
100
AcDbEntity
  8
0
  6
Continuous
 62
     7
100
AcDbLine
 10
-24.67463248852113
 20
-587.1365023938451
 30
0.0
 11
-23.00465807053155
 21
-591.2330570602207
 31
0.0
  0
LINE
  5
393
330
59
100
AcDbEntity
  8
0
  6
Continuous
 62
     7
100
AcDbLine
 10
-20.14556121051322
 20
-592.1537650943283
 30
0.0
 11
-17.22390307112113
 21
-599.3207804423255
 31
0.0
  0
LINE
  5
394
330
59
100
AcDbEntity
  8
0
  6
Continuous
 62
     7
100
AcDbLine
 10
-28.95806726067571
 20
-576.628961371076
 30
0.0
 11
-24.67463248852113
 21
-587.1365023938451
 31
0.0
  0
LINE
  5
395
330
59
100
AcDbEntity
  8
0
  6
Continuous
 62
     7
100
AcDbLine
 10
-26.82823794155087
 20
-575.7607292181383
 30
0.0
 11
-22.54480316939629
 21
-586.2682702409038
 31
0.0
  0
LINE
  5
396
330
59
100
AcDbEntity
  8
0
  6
Continuous
 62
     7
100
AcDbLine
 10
-43.67911615342422
 20
-609.2556140905981
 30
0.0
 11
-37.56537830953715
 21
-614.0016023815806
 31
0.0
  0
LINE
  5
397
330
59
100
AcDbEntity
  8
0
  6
Continuous
 62
     7
100
AcDbLine
 10
-11.83558001352907
 20
-559.8479750575643
 30
0.0
 11
-9.55360785184934
 21
-559.5605675884326
 31
0.0
  0
LINE
  5
398
330
59
100
AcDbEntity
  8
0
  6
Continuous
 62
     7
100
AcDbLine
 10
-11.83558001352907
 20
-559.8479750575643
 30
0.0
 11
-10.37424883150055
 21
-571.4507252799667
 31
0.0
  0
LINE
  5
399
330
59
100
AcDbEntity
  8
0
  6
Continuous
 62
     7
100
AcDbLine
 10
-9.55360785184934
 20
-559.5605675884326
 30
0.0
 11
-8.09227666982082
 21
-571.1633178108386
 31
0.0
  0
LINE
  5
39A
330
59
100
AcDbEntity
  8
0
  6
Continuous
 62
     7
100
AcDbLine
 10
-8.40351524112378
 20
-587.0980541574063
 30
0.0
 11
-8.16210868005913
 21
-589.0147860143225
 31
0.0
  0
LINE
  5
39B
330
59
100
AcDbEntity
  8
0
  6
Continuous
 62
     7
100
AcDbLine
 10
-6.67434813205949
 20
-582.4214575530095
 30
0.0
 11
-6.12154307944405
 21
-586.8106466882746
 31
0.0
  0
LINE
  5
39C
330
59
100
AcDbEntity
  8
0
  6
Continuous
 62
     7
100
AcDbLine
 10
-6.12154307944405
 20
-586.8106466882746
 30
0.0
 11
-5.8801365183794
 21
-588.7273785451907
 31
0.0
  0
LINE
  5
39D
330
59
100
AcDbEntity
  8
0
  6
Continuous
 62
     7
100
AcDbLine
 10
-8.95632029373922
 20
-582.7088650221413
 30
0.0
 11
-8.40351524112378
 21
-587.0980541574063
 31
0.0
  0
LINE
  5
39E
330
59
100
AcDbEntity
  8
0
  6
Continuous
 62
     7
100
AcDbLine
 10
-10.37424883150055
 20
-571.4507252799667
 30
0.0
 11
-8.95632029373922
 21
-582.7088650221413
 31
0.0
  0
LINE
  5
39F
330
59
100
AcDbEntity
  8
0
  6
Continuous
 62
     7
100
AcDbLine
 10
-8.09227666982082
 20
-571.1633178108386
 30
0.0
 11
-6.67434813205949
 21
-582.4214575530095
 31
0.0
  0
LINE
  5
3A0
330
59
100
AcDbEntity
  8
0
  6
Continuous
 62
     7
100
AcDbLine
 10
-33.03808924882873
 20
-599.1555639497928
 30
0.0
 11
-28.36102412779695
 21
-605.3221884020786
 31
0.0
  0
LINE
  5
3A1
330
59
100
AcDbEntity
  8
0
  6
Continuous
 62
     7
100
AcDbLine
 10
-51.27043306971649
 20
-589.8801786284967
 30
0.0
 11
-50.79045200807781
 21
-590.2527795735514
 31
0.0
  0
LINE
  5
3A2
330
59
100
AcDbEntity
  8
0
  6
Continuous
 62
     7
100
AcDbLine
 10
-50.39039158325289
 20
-590.5633395190998
 30
0.0
 11
-50.79045200807781
 21
-590.2527795735514
 31
0.0
  0
LINE
  5
3A3
330
59
100
AcDbEntity
  8
0
  6
Continuous
 62
     7
100
AcDbLine
 10
-57.66300190587612
 20
-598.400166942185
 30
0.0
 11
-48.6996680663546
 21
-605.3582470131332
 31
0.0
  0
LINE
  5
3A4
330
59
100
AcDbEntity
  8
0
  6
Continuous
 62
     7
100
AcDbLine
 10
-25.36141219923269
 20
-609.2771216320834
 30
0.0
 11
-26.33142064368479
 21
-607.9981833154889
 31
0.0
  0
LINE
  5
3A5
330
59
100
AcDbEntity
  8
0
  6
Continuous
 62
     7
100
AcDbLine
 10
-34.87063137700937
 20
-600.5454522001382
 30
0.0
 11
-30.1935662559776
 21
-606.712076652424
 31
0.0
  0
LINE
  5
3A6
330
59
100
AcDbEntity
  8
0
  6
Continuous
 62
     7
100
AcDbLine
 10
-45.56843131206591
 20
-586.4405994862936
 30
0.0
 11
-38.71139930652902
 21
-595.4814702334916
 31
0.0
  0
LINE
  5
3A7
330
59
100
AcDbEntity
  8
0
  6
Continuous
 62
     7
100
AcDbLine
 10
-43.73588918388526
 20
-585.0507112359483
 30
0.0
 11
-36.87885717834837
 21
-594.0915819831462
 31
0.0
  0
LINE
  5
3A8
330
59
100
AcDbEntity
  8
0
  6
Continuous
 62
     7
100
AcDbLine
 10
-50.80281422206502
 20
-575.7331003805957
 30
0.0
 11
-43.73588918388526
 21
-585.0507112359483
 31
0.0
  0
LINE
  5
3A9
330
59
100
AcDbEntity
  8
0
  6
Continuous
 62
     7
100
AcDbLine
 10
-15.35011248250925
 20
-603.917309285469
 30
0.0
 11
-15.95605509687852
 21
-602.4308930759034
 31
0.0
  0
LINE
  5
3AA
330
59
100
AcDbEntity
  8
0
  6
Continuous
 62
     7
100
AcDbLine
 10
-52.63535635024567
 20
-577.1229886309447
 30
0.0
 11
-50.80281422206502
 21
-575.7331003805957
 31
0.0
  0
LINE
  5
3AB
330
59
100
AcDbEntity
  8
0
  6
Continuous
 62
     7
100
AcDbLine
 10
-52.63535635024567
 20
-577.1229886309447
 30
0.0
 11
-45.56843131206591
 21
-586.4405994862936
 31
0.0
  0
LINE
  5
3AC
330
59
100
AcDbEntity
  8
0
  6
Continuous
 62
     7
100
AcDbLine
 10
-33.64436363685348
 20
-617.0454178346627
 30
0.0
 11
-34.91233343891912
 21
-616.0611149437682
 31
0.0
  0
LINE
  5
3AD
330
59
100
AcDbEntity
  8
0
  6
Continuous
 62
     7
100
AcDbLine
 10
-27.1939543274097
 20
-610.6670098824288
 30
0.0
 11
-28.16396277186544
 21
-609.3880715658343
 31
0.0
  0
LINE
  5
3AE
330
59
100
AcDbEntity
  8
0
  6
Continuous
 62
     7
100
AcDbLine
 10
-34.2055193918099
 20
-597.6163287499949
 30
0.0
 11
-33.03808924882873
 21
-599.1555639497928
 31
0.0
  0
LINE
  5
3AF
330
59
100
AcDbEntity
  8
0
  6
Continuous
 62
     7
100
AcDbLine
 10
-36.87885717834837
 20
-594.0915819831462
 30
0.0
 11
-34.2055193918099
 21
-597.6163287499949
 31
0.0
  0
LINE
  5
3B0
330
59
100
AcDbEntity
  8
0
  6
Continuous
 62
     7
100
AcDbLine
 10
-36.03806151999055
 20
-599.0062170003403
 30
0.0
 11
-34.87063137700937
 21
-600.5454522001382
 31
0.0
  0
LINE
  5
3B1
330
59
100
AcDbEntity
  8
0
  6
Continuous
 62
     7
100
AcDbLine
 10
-38.71139930652902
 20
-595.4814702334916
 30
0.0
 11
-36.03806151999055
 21
-599.0062170003403
 31
0.0
  0
LINE
  5
3B2
330
59
100
AcDbEntity
  8
0
  6
Continuous
 62
     7
100
AcDbLine
 10
-17.47994180163045
 20
-604.7855414384067
 30
0.0
 11
-18.08588441600335
 21
-603.2991252288411
 31
0.0
  0
LINE
  5
3B3
330
59
100
AcDbEntity
  8
0
  6
Continuous
 62
     7
100
AcDbLine
 10
40.52687324797768
 20
-660.4250509725571
 30
0.0
 11
42.00639436105809
 21
-661.0476398223764
 31
0.0
  0
LINE
  5
3B4
330
59
100
AcDbEntity
  8
0
  6
Continuous
 62
     7
100
AcDbLine
 10
43.23689115738267
 20
-649.3973806229478
 30
0.0
 11
44.82713666264641
 21
-649.6158270304477
 31
0.0
  0
LINE
  5
3B5
330
59
100
AcDbEntity
  8
0
  6
Continuous
 62
     7
100
AcDbLine
 10
42.92388759864804
 20
-651.6759829955045
 30
0.0
 11
44.51413310391541
 21
-651.8944294030043
 31
0.0
  0
LINE
  5
3B6
330
59
100
AcDbEntity
  8
0
  6
Continuous
 62
     7
100
AcDbLine
 10
35.05502584998573
 20
-670.375558319527
 30
0.0
 11
36.32299565204772
 21
-671.3598612104252
 31
0.0
  0
LINE
  5
3B7
330
59
100
AcDbEntity
  8
0
  6
Continuous
 62
     7
100
AcDbLine
 10
39.6347893366397
 20
-662.5450005698694
 30
0.0
 11
41.11431044972375
 21
-663.1675894196887
 31
0.0
  0
LINE
  5
3B8
330
59
100
AcDbEntity
  8
0
  6
Continuous
 62
     7
100
AcDbLine
 10
65.26243209158525
 20
-680.3427587231672
 30
0.0
 11
64.86237176757965
 21
-680.0321988558826
 31
0.0
  0
LINE
  5
3B9
330
59
100
AcDbEntity
  8
0
  6
Continuous
 62
     7
100
AcDbLine
 10
67.66075838467401
 20
-674.338448923103
 30
0.0
 11
57.20195909971477
 21
-669.937341186469
 31
0.0
  0
LINE
  5
3BA
330
59
100
AcDbEntity
  8
0
  6
Continuous
 62
     7
100
AcDbLine
 10
50.11033027948321
 20
-682.0627291410601
 30
0.0
 11
46.61581267664548
 21
-679.3499959409783
 31
0.0
  0
LINE
  5
3BB
330
59
100
AcDbEntity
  8
0
  6
Continuous
 62
     7
100
AcDbLine
 10
46.61581267664548
 20
-679.3499959409783
 30
0.0
 11
45.08977836655282
 21
-678.1653620635916
 31
0.0
  0
LINE
  5
3BC
330
59
100
AcDbEntity
  8
0
  6
Continuous
 62
     7
100
AcDbLine
 10
45.08977836655282
 20
-678.1653620635916
 30
0.0
 11
38.97604052266576
 21
-673.4193737726091
 31
0.0
  0
LINE
  5
3BD
330
59
100
AcDbEntity
  8
0
  6
Continuous
 62
     7
100
AcDbLine
 10
52.23584943072234
 20
-665.3522385264951
 30
0.0
 11
45.10207999461233
 21
-662.3503176557315
 31
0.0
  0
LINE
  5
3BE
330
59
100
AcDbEntity
  8
0
  6
Continuous
 62
     7
100
AcDbLine
 10
58.09404301105275
 20
-667.8173915891566
 30
0.0
 11
54.01649119158861
 21
-666.10154024043
 31
0.0
  0
LINE
  5
3BF
330
59
100
AcDbEntity
  8
0
  6
Continuous
 62
     7
100
AcDbLine
 10
51.343765519388
 20
-667.4721881238038
 30
0.0
 11
44.20999608327799
 21
-664.4702672530439
 31
0.0
  0
LINE
  5
3C0
330
59
100
AcDbEntity
  8
0
  6
Continuous
 62
     7
100
AcDbLine
 10
68.55284229600835
 20
-672.2184993257906
 30
0.0
 11
58.09404301105275
 21
-667.8173915891566
 31
0.0
  0
LINE
  5
3C1
330
59
100
AcDbEntity
  8
0
  6
Continuous
 62
     7
100
AcDbLine
 10
54.01649119158861
 20
-666.10154024043
 30
0.0
 11
52.23584943072234
 21
-665.3522385264951
 31
0.0
  0
LINE
  5
3C2
330
59
100
AcDbEntity
  8
0
  6
Continuous
 62
     7
100
AcDbLine
 10
57.20195909971477
 20
-669.937341186469
 30
0.0
 11
53.12440728025064
 21
-668.2214898377388
 31
0.0
  0
LINE
  5
3C3
330
59
100
AcDbEntity
  8
0
  6
Continuous
 62
     7
100
AcDbLine
 10
53.12440728025064
 20
-668.2214898377388
 30
0.0
 11
51.343765519388
 21
-667.4721881238038
 31
0.0
  0
LINE
  5
3C4
330
59
100
AcDbEntity
  8
0
  6
Continuous
 62
     7
100
AcDbLine
 10
4.77862566241271
 20
-601.3821557966658
 30
0.0
 11
4.99707206991258
 21
-599.7919102913984
 31
0.0
  0
LINE
  5
3C5
330
59
100
AcDbEntity
  8
0
  6
Continuous
 62
     7
100
AcDbLine
 10
-4.29271801792169
 20
-601.3312431487248
 30
0.0
 11
-4.49330081440752
 21
-599.7386458544534
 31
0.0
  0
LINE
  5
3C6
330
59
100
AcDbEntity
  8
0
  6
Continuous
 62
     7
100
AcDbLine
 10
-6.57469017960506
 20
-601.6186506178565
 30
0.0
 11
-6.77527297609089
 21
-600.0260533235851
 31
0.0
  0
LINE
  5
3C7
330
59
100
AcDbEntity
  8
0
  6
Continuous
 62
     7
100
AcDbLine
 10
22.85343316326868
 20
-593.2752814346568
 30
0.0
 11
19.85151229250874
 21
-600.4090508707668
 31
0.0
  0
LINE
  5
3C8
330
59
100
AcDbEntity
  8
0
  6
Continuous
 62
     7
100
AcDbLine
 10
20.73348356595994
 20
-592.3831975233225
 30
0.0
 11
17.73156269519637
 21
-599.5169669594325
 31
0.0
  0
LINE
  5
3C9
330
59
100
AcDbEntity
  8
0
  6
Continuous
 62
     7
100
AcDbLine
 10
21.48278527989493
 20
-590.6025557624598
 30
0.0
 11
20.73348356595994
 21
-592.3831975233225
 31
0.0
  0
LINE
  5
3CA
330
59
100
AcDbEntity
  8
0
  6
Continuous
 62
     7
100
AcDbLine
 10
33.54660710305649
 20
-599.5292685874956
 30
0.0
 11
28.80061881207763
 21
-605.643006431379
 31
0.0
  0
LINE
  5
3CB
330
59
100
AcDbEntity
  8
0
  6
Continuous
 62
     7
100
AcDbLine
 10
25.75680335899557
 20
-609.5640211040627
 30
0.0
 11
26.74110624989004
 21
-608.2960513019971
 31
0.0
  0
LINE
  5
3CC
330
59
100
AcDbEntity
  8
0
  6
Continuous
 62
     7
100
AcDbLine
 10
17.92624560933433
 20
-604.9842576174051
 30
0.0
 11
18.54883445915363
 21
-603.5047365043247
 31
0.0
  0
LINE
  5
3CD
330
59
100
AcDbEntity
  8
0
  6
Continuous
 62
     7
100
AcDbLine
 10
7.05722803496934
 20
-601.6951593554004
 30
0.0
 11
7.27567444246921
 21
-600.104913850133
 31
0.0
  0
LINE
  5
3CE
330
59
100
AcDbEntity
  8
0
  6
Continuous
 62
     7
100
AcDbLine
 10
43.00039633618832
 20
-638.0440647809301
 30
0.0
 11
44.59299363046335
 21
-637.8434819844442
 31
0.0
  0
LINE
  5
3CF
330
59
100
AcDbEntity
  8
0
  6
Continuous
 62
     7
100
AcDbLine
 10
40.70173766857948
 20
-629.2686424780259
 30
0.0
 11
42.18815387814499
 21
-628.6626998636566
 31
0.0
  0
LINE
  5
3D0
330
59
100
AcDbEntity
  8
0
  6
Continuous
 62
     7
100
AcDbLine
 10
43.28780380532004
 20
-640.3260369426098
 30
0.0
 11
44.88040109959508
 21
-640.1254541461276
 31
0.0
  0
LINE
  5
3D1
330
59
100
AcDbEntity
  8
0
  6
Continuous
 62
     7
100
AcDbLine
 10
34.73124098044679
 20
-598.0032342773993
 30
0.0
 11
33.54660710305649
 21
-599.5292685874956
 31
0.0
  0
LINE
  5
3D2
330
59
100
AcDbEntity
  8
0
  6
Continuous
 62
     7
100
AcDbLine
 10
54.73886832554814
 20
-593.3483218908186
 30
0.0
 11
54.36626738049705
 21
-593.8283029524573
 31
0.0
  0
LINE
  5
3D3
330
59
100
AcDbEntity
  8
0
  6
Continuous
 62
     7
100
AcDbLine
 10
54.05570743494496
 20
-594.2283633772822
 30
0.0
 11
54.36626738049705
 21
-593.8283029524573
 31
0.0
  0
LINE
  5
3D4
330
59
100
AcDbEntity
  8
0
  6
Continuous
 62
     7
100
AcDbLine
 10
46.21888001185977
 20
-586.955753054659
 30
0.0
 11
39.26079994091521
 21
-595.9190868941805
 31
0.0
  0
LINE
  5
3D5
330
59
100
AcDbEntity
  8
0
  6
Continuous
 62
     7
100
AcDbLine
 10
37.443974180525
 20
-594.5087166745652
 30
0.0
 11
34.73124098044679
 21
-598.0032342773993
 31
0.0
  0
LINE
  5
3D6
330
59
100
AcDbEntity
  8
0
  6
Continuous
 62
     7
100
AcDbLine
 10
-79.33149233987609
 20
-612.4834774045667
 30
0.0
 11
-78.43940842854175
 21
-610.3635278072579
 31
0.0
  0
LINE
  5
3D7
330
59
100
AcDbEntity
  8
0
  6
Continuous
 62
     7
100
AcDbLine
 10
-67.6604663911607
 20
-614.8993529914806
 30
0.0
 11
-57.20166710620509
 21
-619.3004607281146
 31
0.0
  0
LINE
  5
3D8
330
59
100
AcDbEntity
  8
0
  6
Continuous
 62
     7
100
AcDbLine
 10
-79.33149233987609
 20
-612.4834774045667
 30
0.0
 11
-68.55255030249504
 21
-617.0193025887893
 31
0.0
  0
LINE
  5
3D9
330
59
100
AcDbEntity
  8
0
  6
Continuous
 62
     7
100
AcDbLine
 10
-65.26214009807194
 20
-608.8950431914127
 30
0.0
 11
-65.74212104057045
 21
-608.5224423388499
 31
0.0
  0
LINE
  5
3DA
330
59
100
AcDbEntity
  8
0
  6
Continuous
 62
     7
100
AcDbLine
 10
-65.26214009807194
 20
-608.8950431914127
 30
0.0
 11
-64.86207977406997
 21
-609.2056030586973
 31
0.0
  0
LINE
  5
3DB
330
59
100
AcDbEntity
  8
0
  6
Continuous
 62
     7
100
AcDbLine
 10
-84.94559195230289
 20
-634.1110042896835
 30
0.0
 11
-84.63258839356826
 21
-631.8324019171268
 31
0.0
  0
LINE
  5
3DC
330
59
100
AcDbEntity
  8
0
  6
Continuous
 62
     7
100
AcDbLine
 10
-84.94559195230289
 20
-634.1110042896835
 30
0.0
 11
-73.35997551539225
 21
-635.7024794933277
 31
0.0
  0
LINE
  5
3DD
330
59
100
AcDbEntity
  8
0
  6
Continuous
 62
     7
100
AcDbLine
 10
-84.63258839356826
 20
-631.8324019171268
 30
0.0
 11
-73.04697195665761
 21
-633.4238771207711
 31
0.0
  0
LINE
  5
3DE
330
59
100
AcDbEntity
  8
0
  6
Continuous
 62
     7
100
AcDbLine
 10
-78.43940842854175
 20
-610.3635278072579
 30
0.0
 11
-67.6604663911607
 21
-614.8993529914806
 31
0.0
  0
LINE
  5
3DF
330
59
100
AcDbEntity
  8
1
  6
PHANTOM
 62
     2
100
AcDbLine
 10
93.35519083227297
 20
-609.7788500636925
 30
0.0
 11
81.25519083227078
 21
-609.7788500636925
 31
0.0
  0
LINE
  5
3E0
330
59
100
AcDbEntity
  8
1
  6
PHANTOM
 62
     2
100
AcDbLine
 10
87.30519083227006
 20
-603.7288500636932
 30
0.0
 11
87.30519083227006
 21
-615.8288500636918
 31
0.0
  0
LINE
  5
3E1
330
59
100
AcDbEntity
  8
1
  6
Continuous
 62
     7
100
AcDbLine
 10
82.83305487727154
 20
-609.2788500636925
 30
0.0
 11
86.80519083227006
 21
-609.2788500636925
 31
0.0
  0
LINE
  5
3E2
330
59
100
AcDbEntity
  8
1
  6
Continuous
 62
     7
100
AcDbLine
 10
86.80519083227006
 20
-609.2788500636925
 30
0.0
 11
86.80519083227006
 21
-605.306714108694
 31
0.0
  0
LINE
  5
3E3
330
59
100
AcDbEntity
  8
1
  6
Continuous
 62
     7
100
AcDbLine
 10
87.80519083227006
 20
-605.306714108694
 30
0.0
 11
87.80519083227006
 21
-609.2788500636925
 31
0.0
  0
LINE
  5
3E4
330
59
100
AcDbEntity
  8
1
  6
Continuous
 62
     7
100
AcDbLine
 10
87.80519083227006
 20
-609.2788500636925
 30
0.0
 11
91.77732678727222
 21
-609.2788500636925
 31
0.0
  0
LINE
  5
3E5
330
59
100
AcDbEntity
  8
1
  6
Continuous
 62
     7
100
AcDbLine
 10
91.77732678727222
 20
-610.2788500636925
 30
0.0
 11
87.80519083227006
 21
-610.2788500636925
 31
0.0
  0
LINE
  5
3E6
330
59
100
AcDbEntity
  8
1
  6
Continuous
 62
     7
100
AcDbLine
 10
87.80519083227006
 20
-610.2788500636925
 30
0.0
 11
87.80519083227006
 21
-614.250986018691
 31
0.0
  0
LINE
  5
3E7
330
59
100
AcDbEntity
  8
1
  6
Continuous
 62
     7
100
AcDbLine
 10
86.80519083227006
 20
-614.250986018691
 30
0.0
 11
86.80519083227006
 21
-610.2788500636925
 31
0.0
  0
LINE
  5
3E8
330
59
100
AcDbEntity
  8
1
  6
Continuous
 62
     7
100
AcDbLine
 10
86.80519083227006
 20
-610.2788500636925
 30
0.0
 11
82.83305487727154
 21
-610.2788500636925
 31
0.0
  0
LINE
  5
3E9
330
59
100
AcDbEntity
  8
1
  6
Continuous
 62
     7
100
AcDbLine
 10
13.6633119734102
 20
-552.2735015062863
 30
0.0
 11
11.67724399590912
 21
-555.7134721506009
 31
0.0
  0
LINE
  5
3EA
330
59
100
AcDbEntity
  8
1
  6
Continuous
 62
     7
100
AcDbLine
 10
17.1032826177248
 20
-554.2595694837837
 30
0.0
 11
13.6633119734102
 21
-552.2735015062863
 31
0.0
  0
LINE
  5
3EB
330
59
100
AcDbEntity
  8
1
  6
Continuous
 62
     7
100
AcDbLine
 10
14.1633119734102
 20
-551.4074761025004
 30
0.0
 11
17.6032826177248
 21
-553.3935440800014
 31
0.0
  0
LINE
  5
3EC
330
59
100
AcDbEntity
  8
1
  6
Continuous
 62
     7
100
AcDbLine
 10
16.14937995091128
 20
-547.9675054581858
 30
0.0
 11
14.1633119734102
 21
-551.4074761025004
 31
0.0
  0
LINE
  5
3ED
330
59
100
AcDbEntity
  8
1
  6
Continuous
 62
     7
100
AcDbLine
 10
13.29728656962431
 20
-550.9074761025004
 30
0.0
 11
15.28335454712538
 21
-547.4675054581858
 31
0.0
  0
LINE
  5
3EE
330
59
100
AcDbEntity
  8
1
  6
Continuous
 62
     7
100
AcDbLine
 10
9.85731592530971
 20
-548.9214081250029
 30
0.0
 11
13.29728656962431
 21
-550.9074761025004
 31
0.0
  0
LINE
  5
3EF
330
59
100
AcDbEntity
  8
1
  6
Continuous
 62
     7
100
AcDbLine
 10
12.79728656962431
 20
-551.7735015062863
 30
0.0
 11
9.35731592530971
 21
-549.7874335287852
 31
0.0
  0
LINE
  5
3F0
330
59
100
AcDbEntity
  8
1
  6
Continuous
 62
     7
100
AcDbLine
 10
10.81121859212686
 20
-555.2134721506009
 30
0.0
 11
12.79728656962431
 21
-551.7735015062863
 31
0.0
  0
LINE
  5
3F1
330
59
100
AcDbEntity
  8
1
  6
PHANTOM
 62
     2
100
AcDbLine
 10
16.50529927151689
 20
-546.3510351114965
 30
0.0
 11
10.45529927151762
 21
-556.8299424972902
 31
0.0
  0
LINE
  5
3F2
330
59
100
AcDbEntity
  8
1
  6
PHANTOM
 62
     2
100
AcDbLine
 10
8.24084557862039
 20
-548.5654888043937
 30
0.0
 11
18.71975296441411
 21
-554.615488804393
 31
0.0
  0
LINE
  5
3F3
330
59
100
AcDbEntity
  8
1
  6
Continuous
 62
     7
100
AcDbLine
 10
-73.14173286210684
 20
-586.6135523998782
 30
0.0
 11
-71.15566488460576
 21
-590.0535230441965
 31
0.0
  0
LINE
  5
3F4
330
59
100
AcDbEntity
  8
1
  6
Continuous
 62
     7
100
AcDbLine
 10
-69.70176221779224
 20
-584.6274844223808
 30
0.0
 11
-73.14173286210684
 21
-586.6135523998782
 31
0.0
  0
LINE
  5
3F5
330
59
100
AcDbEntity
  8
1
  6
Continuous
 62
     7
100
AcDbLine
 10
-73.64173286210684
 20
-585.747526996096
 30
0.0
 11
-70.20176221779224
 21
-583.7614590185949
 31
0.0
  0
LINE
  5
3F6
330
59
100
AcDbEntity
  8
1
  6
Continuous
 62
     7
100
AcDbLine
 10
-75.62780083960791
 20
-582.3075563517814
 30
0.0
 11
-73.64173286210684
 21
-585.747526996096
 31
0.0
  0
LINE
  5
3F7
330
59
100
AcDbEntity
  8
1
  6
Continuous
 62
     7
100
AcDbLine
 10
-74.50775826589273
 20
-586.247526996096
 30
0.0
 11
-76.49382624339017
 21
-582.8075563517814
 31
0.0
  0
LINE
  5
3F8
330
59
100
AcDbEntity
  8
1
  6
Continuous
 62
     7
100
AcDbLine
 10
-77.94772891020733
 20
-588.2335949735934
 30
0.0
 11
-74.50775826589273
 21
-586.247526996096
 31
0.0
  0
LINE
  5
3F9
330
59
100
AcDbEntity
  8
1
  6
Continuous
 62
     7
100
AcDbLine
 10
-74.00775826589273
 20
-587.1135523998782
 30
0.0
 11
-77.44772891020733
 21
-589.0996203773793
 31
0.0
  0
LINE
  5
3FA
330
59
100
AcDbEntity
  8
1
  6
Continuous
 62
     7
100
AcDbLine
 10
-72.02169028839165
 20
-590.5535230441965
 30
0.0
 11
-74.00775826589273
 21
-587.1135523998782
 31
0.0
  0
LINE
  5
3FB
330
59
100
AcDbEntity
  8
1
  6
PHANTOM
 62
     2
100
AcDbLine
 10
-76.84974556399942
 20
-581.1910860050921
 30
0.0
 11
-70.79974556400015
 21
-591.6699933908822
 31
0.0
  0
LINE
  5
3FC
330
59
100
AcDbEntity
  8
1
  6
PHANTOM
 62
     2
100
AcDbLine
 10
-79.06419925689664
 20
-589.4555396979886
 30
0.0
 11
-68.58529187110292
 21
-583.4055396979893
 31
0.0
  0
LINE
  5
3FD
330
59
100
AcDbEntity
  8
1
  6
Continuous
 62
     7
100
AcDbLine
 10
-86.80489883876402
 20
-678.9589518508801
 30
0.0
 11
-82.83276288376186
 21
-678.9589518508801
 31
0.0
  0
LINE
  5
3FE
330
59
100
AcDbEntity
  8
1
  6
Continuous
 62
     7
100
AcDbLine
 10
-86.80489883876402
 20
-674.9868158958816
 30
0.0
 11
-86.80489883876402
 21
-678.9589518508801
 31
0.0
  0
LINE
  5
3FF
330
59
100
AcDbEntity
  8
1
  6
Continuous
 62
     7
100
AcDbLine
 10
-87.80489883876402
 20
-678.9589518508801
 30
0.0
 11
-87.80489883876402
 21
-674.9868158958816
 31
0.0
  0
LINE
  5
400
330
59
100
AcDbEntity
  8
1
  6
Continuous
 62
     7
100
AcDbLine
 10
-91.77703479376254
 20
-678.9589518508801
 30
0.0
 11
-87.80489883876402
 21
-678.9589518508801
 31
0.0
  0
LINE
  5
401
330
59
100
AcDbEntity
  8
1
  6
Continuous
 62
     7
100
AcDbLine
 10
-87.80489883876402
 20
-679.9589518508801
 30
0.0
 11
-91.77703479376254
 21
-679.9589518508801
 31
0.0
  0
LINE
  5
402
330
59
100
AcDbEntity
  8
1
  6
Continuous
 62
     7
100
AcDbLine
 10
-87.80489883876402
 20
-683.9310878058823
 30
0.0
 11
-87.80489883876402
 21
-679.9589518508801
 31
0.0
  0
LINE
  5
403
330
59
100
AcDbEntity
  8
1
  6
Continuous
 62
     7
100
AcDbLine
 10
-86.80489883876402
 20
-679.9589518508801
 30
0.0
 11
-86.80489883876402
 21
-683.9310878058823
 31
0.0
  0
LINE
  5
404
330
59
100
AcDbEntity
  8
1
  6
Continuous
 62
     7
100
AcDbLine
 10
-82.83276288376186
 20
-679.9589518508801
 30
0.0
 11
-86.80489883876402
 21
-679.9589518508801
 31
0.0
  0
LINE
  5
405
330
59
100
AcDbEntity
  8
1
  6
PHANTOM
 62
     2
100
AcDbLine
 10
-93.35489883876329
 20
-679.4589518508801
 30
0.0
 11
-81.25489883876475
 21
-679.4589518508801
 31
0.0
  0
LINE
  5
406
330
59
100
AcDbEntity
  8
1
  6
PHANTOM
 62
     2
100
AcDbLine
 10
-87.30489883876402
 20
-685.508951850883
 30
0.0
 11
-87.30489883876402
 21
-673.4089518508808
 31
0.0
  0
LINE
  5
407
330
59
100
AcDbEntity
  8
1
  6
Continuous
 62
     7
100
AcDbLine
 10
-13.66301997990416
 20
-736.96430040829
 30
0.0
 11
-11.67695200240308
 21
-733.5243297639754
 31
0.0
  0
LINE
  5
408
330
59
100
AcDbEntity
  8
1
  6
Continuous
 62
     7
100
AcDbLine
 10
-17.10299062421876
 20
-734.9782324307889
 30
0.0
 11
-13.66301997990416
 21
-736.96430040829
 31
0.0
  0
LINE
  5
409
330
59
100
AcDbEntity
  8
1
  6
Continuous
 62
     7
100
AcDbLine
 10
-14.16301997990416
 20
-737.8303258120759
 30
0.0
 11
-17.60299062421876
 21
-735.8442578345748
 31
0.0
  0
LINE
  5
40A
330
59
100
AcDbEntity
  8
1
  6
Continuous
 62
     7
100
AcDbLine
 10
-16.14908795740161
 20
-741.2702964563905
 30
0.0
 11
-14.16301997990416
 21
-737.8303258120759
 31
0.0
  0
LINE
  5
40B
330
59
100
AcDbEntity
  8
1
  6
Continuous
 62
     7
100
AcDbLine
 10
-13.29699457611827
 20
-738.3303258120759
 30
0.0
 11
-15.28306255361935
 21
-741.7702964563905
 31
0.0
  0
LINE
  5
40C
330
59
100
AcDbEntity
  8
1
  6
Continuous
 62
     7
100
AcDbLine
 10
-9.85702393180367
 20
-740.3163937895733
 30
0.0
 11
-13.29699457611827
 21
-738.3303258120759
 31
0.0
  0
LINE
  5
40D
330
59
100
AcDbEntity
  8
1
  6
Continuous
 62
     7
100
AcDbLine
 10
-12.79699457611827
 20
-737.46430040829
 30
0.0
 11
-9.35702393180367
 21
-739.4503683857911
 31
0.0
  0
LINE
  5
40E
330
59
100
AcDbEntity
  8
1
  6
Continuous
 62
     7
100
AcDbLine
 10
-10.81092659861719
 20
-734.0243297639754
 30
0.0
 11
-12.79699457611827
 21
-737.46430040829
 31
0.0
  0
LINE
  5
40F
330
59
100
AcDbEntity
  8
1
  6
PHANTOM
 62
     2
100
AcDbLine
 10
-16.50500727801085
 20
-742.8867668030798
 30
0.0
 11
-10.45500727801158
 21
-732.4078594172861
 31
0.0
  0
LINE
  5
410
330
59
100
AcDbEntity
  8
1
  6
PHANTOM
 62
     2
100
AcDbLine
 10
-8.24055358511436
 20
-740.6723131101826
 30
0.0
 11
-18.71946097090807
 21
-734.6223131101833
 31
0.0
  0
LINE
  5
411
330
59
100
AcDbEntity
  8
1
  6
Continuous
 62
     7
100
AcDbLine
 10
73.14202485561651
 20
-702.624249514698
 30
0.0
 11
71.15595687811543
 21
-699.1842788703834
 31
0.0
  0
LINE
  5
412
330
59
100
AcDbEntity
  8
1
  6
Continuous
 62
     7
100
AcDbLine
 10
69.70205421129828
 20
-704.6103174921991
 30
0.0
 11
73.14202485561651
 21
-702.624249514698
 31
0.0
  0
LINE
  5
413
330
59
100
AcDbEntity
  8
1
  6
Continuous
 62
     7
100
AcDbLine
 10
73.64202485561651
 20
-703.4902749184839
 30
0.0
 11
70.20205421129828
 21
-705.4763428959814
 31
0.0
  0
LINE
  5
414
330
59
100
AcDbEntity
  8
1
  6
Continuous
 62
     7
100
AcDbLine
 10
75.62809283311395
 20
-706.9302455627985
 30
0.0
 11
73.64202485561651
 21
-703.4902749184839
 31
0.0
  0
LINE
  5
415
330
59
100
AcDbEntity
  8
1
  6
Continuous
 62
     7
100
AcDbLine
 10
74.50805025939877
 20
-702.9902749184839
 30
0.0
 11
76.49411823689985
 21
-706.4302455627985
 31
0.0
  0
LINE
  5
416
330
59
100
AcDbEntity
  8
1
  6
Continuous
 62
     7
100
AcDbLine
 10
77.94802090371337
 20
-701.0042069409828
 30
0.0
 11
74.50805025939877
 21
-702.9902749184839
 31
0.0
  0
LINE
  5
417
330
59
100
AcDbEntity
  8
1
  6
Continuous
 62
     7
100
AcDbLine
 10
74.00805025939877
 20
-702.124249514698
 30
0.0
 11
77.44802090371337
 21
-700.1381815372006
 31
0.0
  0
LINE
  5
418
330
59
100
AcDbEntity
  8
1
  6
Continuous
 62
     7
100
AcDbLine
 10
72.02198228190133
 20
-698.6842788703834
 30
0.0
 11
74.00805025939877
 21
-702.124249514698
 31
0.0
  0
LINE
  5
419
330
59
100
AcDbEntity
  8
1
  6
PHANTOM
 62
     2
100
AcDbLine
 10
76.85003755750546
 20
-708.0467159094878
 30
0.0
 11
70.80003755750619
 21
-697.5678085236941
 31
0.0
  0
LINE
  5
41A
330
59
100
AcDbEntity
  8
1
  6
PHANTOM
 62
     2
100
AcDbLine
 10
79.06449125040268
 20
-699.7822622165913
 30
0.0
 11
68.5855838646126
 21
-705.8322622165906
 31
0.0
  0
ARC
  5
41B
330
59
100
AcDbEntity
  8
0
  6
Continuous
 62
     7
100
AcDbCircle
 10
0.00014599675302
 20
-644.6189009572881
 30
0.0
 40
64.50000000000036
100
AcDbArc
 50
-171.799960701226
 51
-158.8431742796572
  0
ARC
  5
41C
330
59
100
AcDbEntity
  8
0
  6
Continuous
 62
     7
100
AcDbCircle
 10
0.00014599675302
 20
-644.6189009572881
 30
0.0
 40
70.50000000000072
100
AcDbArc
 50
-171.8869140318105
 51
-158.7562209490696
  0
ARC
  5
41D
330
59
100
AcDbEntity
  8
0
  6
Continuous
 62
     7
100
AcDbCircle
 10
0.00014599675302
 20
-644.6189009572881
 30
0.0
 40
52.00000000000159
100
AcDbArc
 50
-6.55434597773702
 51
5.9112109968625
  0
ARC
  5
41E
330
59
100
AcDbEntity
  8
0
  6
Continuous
 62
     7
100
AcDbCircle
 10
0.00014599675302
 20
-644.6189009572881
 30
0.0
 40
51.99999999999989
100
AcDbArc
 50
-171.5543459777394
 51
-159.0887890031425
  0
ARC
  5
41F
330
59
100
AcDbEntity
  8
0
  6
Continuous
 62
     7
100
AcDbCircle
 10
0.00014599675302
 20
-644.6189009572881
 30
0.0
 40
70.49999999999844
100
AcDbArc
 50
173.1130859681945
 51
-173.7562209490698
  0
ARC
  5
420
330
59
100
AcDbEntity
  8
0
  6
Continuous
 62
     7
100
AcDbCircle
 10
0.00014599675302
 20
-644.6189009572881
 30
0.0
 40
64.5000000000006
100
AcDbArc
 50
143.2000392987777
 51
156.1568257203459
  0
ARC
  5
421
330
59
100
AcDbEntity
  8
0
  6
Continuous
 62
     7
100
AcDbCircle
 10
0.00014599675302
 20
-644.6189009572881
 30
0.0
 40
64.50000000000045
100
AcDbArc
 50
158.2000392987738
 51
171.15682572035
  0
ARC
  5
422
330
59
100
AcDbEntity
  8
0
  6
Continuous
 62
     7
100
AcDbCircle
 10
0.00014599675302
 20
-644.6189009572881
 30
0.0
 40
64.5000000000018
100
AcDbArc
 50
173.2000392987767
 51
-173.8431742796544
  0
ARC
  5
423
330
59
100
AcDbEntity
  8
0
  6
Continuous
 62
     7
100
AcDbCircle
 10
0.00014599675302
 20
-644.6189009572881
 30
0.0
 40
52.00000000000159
100
AcDbArc
 50
83.44565402226299
 51
95.91121099686251
  0
ARC
  5
424
330
59
100
AcDbEntity
  8
0
  6
Continuous
 62
     7
100
AcDbCircle
 10
0.00014599675302
 20
-644.6189009572881
 30
0.0
 40
64.5000000000018
100
AcDbArc
 50
83.20003929877666
 51
96.15682572034882
  0
ARC
  5
425
330
59
100
AcDbEntity
  8
0
  6
Continuous
 62
     7
100
AcDbCircle
 10
0.00014599675302
 20
-644.6189009572881
 30
0.0
 40
64.50000000000242
100
AcDbArc
 50
38.20003929877638
 51
51.15682572034903
  0
ARC
  5
426
330
59
100
AcDbEntity
  8
0
  6
Continuous
 62
     7
100
AcDbCircle
 10
0.00014599675302
 20
-644.6189009572881
 30
0.0
 40
64.50000000000075
100
AcDbArc
 50
23.20003929877513
 51
36.15682572035037
  0
ARC
  5
427
330
59
100
AcDbEntity
  8
0
  6
Continuous
 62
     7
100
AcDbCircle
 10
0.00014599675302
 20
-644.6189009572881
 30
0.0
 40
64.50000000000138
100
AcDbArc
 50
-6.79996070122013
 51
6.1568257203456
  0
ARC
  5
428
330
59
100
AcDbEntity
  8
0
  6
Continuous
 62
     7
100
AcDbCircle
 10
0.00014599675302
 20
-644.6189009572881
 30
0.0
 40
70.49999999999747
100
AcDbArc
 50
-66.88691403180843
 51
-53.75622094906687
  0
ARC
  5
429
330
59
100
AcDbEntity
  8
0
  6
Continuous
 62
     7
100
AcDbCircle
 10
0.00014599675302
 20
-644.6189009572881
 30
0.0
 40
70.49999999999844
100
AcDbArc
 50
-96.88691403180552
 51
-83.75622094906649
  0
ARC
  5
42A
330
59
100
AcDbEntity
  8
0
  6
Continuous
 62
     7
100
AcDbCircle
 10
0.00014599675302
 20
-644.6189009572881
 30
0.0
 40
51.99999999999798
100
AcDbArc
 50
-96.55434597773748
 51
-84.0887890031371
  0
ARC
  5
42B
330
59
100
AcDbEntity
  8
0
  6
Continuous
 62
     7
100
AcDbCircle
 10
0.00014599675302
 20
-644.6189009572881
 30
0.0
 40
64.4999999999974
100
AcDbArc
 50
-66.79996070122361
 51
-53.84317427965225
  0
ARC
  5
42C
330
59
100
AcDbEntity
  8
0
  6
Continuous
 62
     7
100
AcDbCircle
 10
0.00014599675302
 20
-644.6189009572881
 30
0.0
 40
51.99999999999727
100
AcDbArc
 50
-66.55434597773782
 51
-54.08878900313816
  0
ARC
  5
42D
330
59
100
AcDbEntity
  8
0
  6
Continuous
 62
     7
100
AcDbCircle
 10
0.00014599675302
 20
-644.6189009572881
 30
0.0
 40
51.99999999999955
100
AcDbArc
 50
-51.55434597773728
 51
-39.08878900313685
  0
ARC
  5
42E
330
59
100
AcDbEntity
  8
0
  6
Continuous
 62
     7
100
AcDbCircle
 10
0.00014599675302
 20
-644.6189009572881
 30
0.0
 40
64.49999999999777
100
AcDbArc
 50
-96.79996070122051
 51
-83.84317427965084
  0
ARC
  5
42F
330
59
100
AcDbEntity
  8
0
  6
Continuous
 62
     7
100
AcDbCircle
 10
0.00014599675302
 20
-644.6189009572881
 30
0.0
 40
52.00000000000298
100
AcDbArc
 50
143.4456540222608
 51
155.9112109968601
  0
ARC
  5
430
330
59
100
AcDbEntity
  8
0
  6
Continuous
 62
     7
100
AcDbCircle
 10
0.00014599675302
 20
-644.6189009572881
 30
0.0
 40
51.99999999999945
100
AcDbArc
 50
158.4456540222577
 51
170.9112109968631
  0
ARC
  5
431
330
59
100
AcDbEntity
  8
0
  6
Continuous
 62
     7
100
AcDbCircle
 10
0.00014599675302
 20
-644.6189009572881
 30
0.0
 40
70.49999999999756
100
AcDbArc
 50
-51.88691403180798
 51
-38.75622094906658
  0
ARC
  5
432
330
59
100
AcDbEntity
  8
0
  6
Continuous
 62
     7
100
AcDbCircle
 10
0.00014599675302
 20
-644.6189009572881
 30
0.0
 40
64.49999999999956
100
AcDbArc
 50
-51.79996070122162
 51
-38.843174279653
  0
ARC
  5
433
330
59
100
AcDbEntity
  8
0
  6
Continuous
 62
     7
100
AcDbCircle
 10
0.00014599675302
 20
-644.6189009572881
 30
0.0
 40
70.49999999999712
100
AcDbArc
 50
-81.88691403181012
 51
-68.75622094906964
  0
ARC
  5
434
330
59
100
AcDbEntity
  8
0
  6
Continuous
 62
     7
100
AcDbCircle
 10
0.00014599675302
 20
-644.6189009572881
 30
0.0
 40
51.9999999999981
100
AcDbArc
 50
-111.5543459777386
 51
-99.0887890031375
  0
ARC
  5
435
330
59
100
AcDbEntity
  8
0
  6
Continuous
 62
     7
100
AcDbCircle
 10
0.00014599675302
 20
-644.6189009572881
 30
0.0
 40
51.99999999999916
100
AcDbArc
 50
-156.5543459777431
 51
-144.0887890031381
  0
ARC
  5
436
330
59
100
AcDbEntity
  8
0
  6
Continuous
 62
     7
100
AcDbCircle
 10
0.00014599675302
 20
-644.6189009572881
 30
0.0
 40
64.49999999999676
100
AcDbArc
 50
-81.79996070122552
 51
-68.84317427965422
  0
ARC
  5
437
330
59
100
AcDbEntity
  8
0
  6
Continuous
 62
     7
100
AcDbCircle
 10
0.00014599675302
 20
-644.6189009572881
 30
0.0
 40
51.99999999999955
100
AcDbArc
 50
-141.5543459777373
 51
-129.0887890031394
  0
ARC
  5
438
330
59
100
AcDbEntity
  8
0
  6
Continuous
 62
     7
100
AcDbCircle
 10
0.00014599675302
 20
-644.6189009572881
 30
0.0
 40
51.9999999999979
100
AcDbArc
 50
-126.5543459777383
 51
-114.0887890031399
  0
ARC
  5
439
330
59
100
AcDbEntity
  8
0
  6
Continuous
 62
     7
100
AcDbCircle
 10
0.00014599675302
 20
-644.6189009572881
 30
0.0
 40
64.50000000000075
100
AcDbArc
 50
-156.7999607012249
 51
-143.8431742796522
  0
ARC
  5
43A
330
59
100
AcDbEntity
  8
0
  6
Continuous
 62
     7
100
AcDbCircle
 10
0.00014599675302
 20
-644.6189009572881
 30
0.0
 40
64.4999999999991
100
AcDbArc
 50
-111.7999607012232
 51
-98.84317427965365
  0
ARC
  5
43B
330
59
100
AcDbEntity
  8
0
  6
Continuous
 62
     7
100
AcDbCircle
 10
0.00014599675302
 20
-644.6189009572881
 30
0.0
 40
52.00000000000159
100
AcDbArc
 50
173.445654022263
 51
-174.0887890031375
  0
ARC
  5
43C
330
59
100
AcDbEntity
  8
0
  6
Continuous
 62
     7
100
AcDbCircle
 10
0.00014599675302
 20
-644.6189009572881
 30
0.0
 40
51.99999999999989
100
AcDbArc
 50
-81.55434597773933
 51
-69.08878900313873
  0
ARC
  5
43D
330
59
100
AcDbEntity
  8
0
  6
Continuous
 62
     7
100
AcDbCircle
 10
0.00014599675302
 20
-644.6189009572881
 30
0.0
 40
70.49999999999844
100
AcDbArc
 50
-111.8869140318076
 51
-98.756220949069
  0
ARC
  5
43E
330
59
100
AcDbEntity
  8
0
  6
Continuous
 62
     7
100
AcDbCircle
 10
0.00014599675302
 20
-644.6189009572881
 30
0.0
 40
64.49999999999768
100
AcDbArc
 50
-126.7999607012243
 51
-113.8431742796554
  0
ARC
  5
43F
330
59
100
AcDbEntity
  8
0
  6
Continuous
 62
     7
100
AcDbCircle
 10
0.00014599675302
 20
-644.6189009572881
 30
0.0
 40
70.50000000000081
100
AcDbArc
 50
-156.8869140318096
 51
-143.7562209490669
  0
ARC
  5
440
330
59
100
AcDbEntity
  8
0
  6
Continuous
 62
     7
100
AcDbCircle
 10
0.00014599675302
 20
-644.6189009572881
 30
0.0
 40
64.49999999999731
100
AcDbArc
 50
-141.7999607012242
 51
-128.843174279653
  0
ARC
  5
441
330
59
100
AcDbEntity
  8
0
  6
Continuous
 62
     7
100
AcDbCircle
 10
0.00014599675302
 20
-644.6189009572881
 30
0.0
 40
70.49999999999754
100
AcDbArc
 50
-141.886914031808
 51
-128.7562209490689
  0
ARC
  5
442
330
59
100
AcDbEntity
  8
0
  6
Continuous
 62
     7
100
AcDbCircle
 10
0.00014599675302
 20
-644.6189009572881
 30
0.0
 40
70.49999999999815
100
AcDbArc
 50
-126.8869140318094
 51
-113.7562209490691
  0
ARC
  5
443
330
59
100
AcDbEntity
  8
0
  6
Continuous
 62
     7
100
AcDbCircle
 10
0.00014599675302
 20
-644.6189009572881
 30
0.0
 40
64.5000000000006
100
AcDbArc
 50
53.20003929877766
 51
66.15682572034592
  0
ARC
  5
444
330
59
100
AcDbEntity
  8
0
  6
Continuous
 62
     7
100
AcDbCircle
 10
0.00014599675302
 20
-644.6189009572881
 30
0.0
 40
64.50000000000247
100
AcDbArc
 50
68.200039298778
 51
81.15682572034366
  0
ARC
  5
445
330
59
100
AcDbEntity
  8
0
  6
Continuous
 62
     7
100
AcDbCircle
 10
0.00014599675302
 20
-644.6189009572881
 30
0.0
 40
70.50000000000182
100
AcDbArc
 50
68.11308596819346
 51
81.24377905093145
  0
ARC
  5
446
330
59
100
AcDbEntity
  8
0
  6
Continuous
 62
     7
100
AcDbCircle
 10
0.00014599675302
 20
-644.6189009572881
 30
0.0
 40
70.50000000000247
100
AcDbArc
 50
83.11308596819191
 51
96.2437790509332
  0
ARC
  5
447
330
59
100
AcDbEntity
  8
0
  6
Continuous
 62
     7
100
AcDbCircle
 10
0.00014599675302
 20
-644.6189009572881
 30
0.0
 40
70.50000000000107
100
AcDbArc
 50
53.11308596819235
 51
66.24377905093209
  0
ARC
  5
448
330
59
100
AcDbEntity
  8
0
  6
Continuous
 62
     7
100
AcDbCircle
 10
0.00014599675302
 20
-644.6189009572881
 30
0.0
 40
70.50000000000266
100
AcDbArc
 50
38.11308596819251
 51
51.24377905093297
  0
ARC
  5
449
330
59
100
AcDbEntity
  8
0
  6
Continuous
 62
     7
100
AcDbCircle
 10
0.00014599675302
 20
-644.6189009572881
 30
0.0
 40
52.00000000000082
100
AcDbArc
 50
53.44565402226406
 51
65.91121099686178
  0
ARC
  5
44A
330
59
100
AcDbEntity
  8
0
  6
Continuous
 62
     7
100
AcDbCircle
 10
0.00014599675302
 20
-644.6189009572881
 30
0.0
 40
70.49999999999844
100
AcDbArc
 50
-6.88691403180551
 51
6.2437790509332
  0
ARC
  5
44B
330
59
100
AcDbEntity
  8
0
  6
Continuous
 62
     7
100
AcDbCircle
 10
0.00014599675302
 20
-644.6189009572881
 30
0.0
 40
70.50000000000072
100
AcDbArc
 50
8.11308596818947
 51
21.24377905093311
  0
ARC
  5
44C
330
59
100
AcDbEntity
  8
0
  6
Continuous
 62
     7
100
AcDbCircle
 10
0.00014599675302
 20
-644.6189009572881
 30
0.0
 40
64.50000000000036
100
AcDbArc
 50
8.20003929877404
 51
21.15682572034879
  0
ARC
  5
44D
330
59
100
AcDbEntity
  8
0
  6
Continuous
 62
     7
100
AcDbCircle
 10
0.00014599675302
 20
-644.6189009572881
 30
0.0
 40
70.50000000000081
100
AcDbArc
 50
23.11308596819041
 51
36.24377905093552
  0
ARC
  5
44E
330
59
100
AcDbEntity
  8
0
  6
Continuous
 62
     7
100
AcDbCircle
 10
0.00014599675302
 20
-644.6189009572881
 30
0.0
 40
51.99999999999989
100
AcDbArc
 50
8.44565402226067
 51
20.91121099686502
  0
ARC
  5
44F
330
59
100
AcDbEntity
  8
0
  6
Continuous
 62
     7
100
AcDbCircle
 10
0.00014599675302
 20
-644.6189009572881
 30
0.0
 40
51.99999999999955
100
AcDbArc
 50
38.44565402226272
 51
50.91121099686316
  0
ARC
  5
450
330
59
100
AcDbEntity
  8
0
  6
Continuous
 62
     7
100
AcDbCircle
 10
0.00014599675302
 20
-644.6189009572881
 30
0.0
 40
52.00000000000061
100
AcDbArc
 50
23.44565402226058
 51
35.91121099686509
  0
ARC
  5
451
330
59
100
AcDbEntity
  8
0
  6
Continuous
 62
     7
100
AcDbCircle
 10
0.00014599675302
 20
-644.6189009572881
 30
0.0
 40
70.50000000000225
100
AcDbArc
 50
113.1130859681931
 51
126.2437790509314
  0
ARC
  5
452
330
59
100
AcDbEntity
  8
0
  6
Continuous
 62
     7
100
AcDbCircle
 10
0.00014599675302
 20
-644.6189009572881
 30
0.0
 40
64.50000000000088
100
AcDbArc
 50
98.20003929877724
 51
111.1568257203458
  0
ARC
  5
453
330
59
100
AcDbEntity
  8
0
  6
Continuous
 62
     7
100
AcDbCircle
 10
0.00014599675302
 20
-644.6189009572881
 30
0.0
 40
70.50000000000124
100
AcDbArc
 50
98.1130859681924
 51
111.2437790509304
  0
ARC
  5
454
330
59
100
AcDbEntity
  8
0
  6
Continuous
 62
     7
100
AcDbCircle
 10
0.00014599675302
 20
-644.6189009572881
 30
0.0
 40
52.00000000000205
100
AcDbArc
 50
113.4456540222643
 51
125.9112109968595
  0
ARC
  5
455
330
59
100
AcDbEntity
  8
0
  6
Continuous
 62
     7
100
AcDbCircle
 10
0.00014599675302
 20
-644.6189009572881
 30
0.0
 40
51.99999999999989
100
AcDbArc
 50
98.44565402226067
 51
110.9112109968599
  0
ARC
  5
456
330
59
100
AcDbEntity
  8
0
  6
Continuous
 62
     7
100
AcDbCircle
 10
0.00014599675302
 20
-644.6189009572881
 30
0.0
 40
64.50000000000217
100
AcDbArc
 50
113.2000392987781
 51
126.1568257203459
  0
ARC
  5
457
330
59
100
AcDbEntity
  8
0
  6
Continuous
 62
     7
100
AcDbCircle
 10
0.00014599675302
 20
-644.6189009572881
 30
0.0
 40
51.99999999999955
100
AcDbArc
 50
128.4456540222627
 51
140.91121099686
  0
ARC
  5
458
330
59
100
AcDbEntity
  8
0
  6
Continuous
 62
     7
100
AcDbCircle
 10
0.00014599675302
 20
-644.6189009572881
 30
0.0
 40
70.50000000000266
100
AcDbArc
 50
128.1130859681925
 51
141.2437790509311
  0
ARC
  5
459
330
59
100
AcDbEntity
  8
0
  6
Continuous
 62
     7
100
AcDbCircle
 10
0.00014599675302
 20
-644.6189009572881
 30
0.0
 40
64.49999999999956
100
AcDbArc
 50
128.2000392987784
 51
141.156825720347
  0
ARC
  5
45A
330
59
100
AcDbEntity
  8
0
  6
Continuous
 62
     7
100
AcDbCircle
 10
0.00014599675302
 20
-644.6189009572881
 30
0.0
 40
52.00000000000015
100
AcDbArc
 50
-21.55434597773343
 51
-9.08878900313292
  0
ARC
  5
45B
330
59
100
AcDbEntity
  8
0
  6
Continuous
 62
     7
100
AcDbCircle
 10
0.00014599675302
 20
-644.6189009572881
 30
0.0
 40
64.5000000000006
100
AcDbArc
 50
-36.79996070122234
 51
-23.84317427965112
  0
ARC
  5
45C
330
59
100
AcDbEntity
  8
0
  6
Continuous
 62
     7
100
AcDbCircle
 10
0.00014599675302
 20
-644.6189009572881
 30
0.0
 40
51.9999999999979
100
AcDbArc
 50
-36.55434597773833
 51
-24.08878900313619
  0
ARC
  5
45D
330
59
100
AcDbEntity
  8
0
  6
Continuous
 62
     7
100
AcDbCircle
 10
0.00014599675302
 20
-644.6189009572881
 30
0.0
 40
70.49999999999888
100
AcDbArc
 50
-36.88691403180528
 51
-23.7562209490664
  0
ARC
  5
45E
330
59
100
AcDbEntity
  8
0
  6
Continuous
 62
     7
100
AcDbCircle
 10
0.00014599675302
 20
-644.6189009572881
 30
0.0
 40
64.49999999999775
100
AcDbArc
 50
-21.79996070122021
 51
-8.84317427964996
  0
ARC
  5
45F
330
59
100
AcDbEntity
  8
0
  6
Continuous
 62
     7
100
AcDbCircle
 10
0.00014599675302
 20
-644.6189009572881
 30
0.0
 40
70.50000000000045
100
AcDbArc
 50
-21.8869140318038
 51
-8.75622094906608
  0
ARC
  5
460
330
59
100
AcDbEntity
  8
0
  6
Continuous
 62
     7
100
AcDbCircle
 10
0.00014599675302
 20
-644.6189009572881
 30
0.0
 40
52.00000000000149
100
AcDbArc
 50
68.44565402226284
 51
80.91121099685917
  0
ARC
  5
461
330
59
100
AcDbEntity
  8
0
  6
Continuous
 62
     7
100
AcDbCircle
 10
0.00014599675302
 20
-644.6189009572881
 30
0.0
 40
70.49999999999979
100
AcDbArc
 50
158.1130859681896
 51
171.2437790509339
  0
ARC
  5
462
330
59
100
AcDbEntity
  8
0
  6
Continuous
 62
     7
100
AcDbCircle
 10
0.00014599675302
 20
-644.6189009572881
 30
0.0
 40
70.50000000000107
100
AcDbArc
 50
143.1130859681924
 51
156.2437790509309
  0
ARC
  5
463
330
59
100
AcDbEntity
  8
0
  6
Continuous
 62
     7
100
AcDbCircle
 10
0.00014599675302
 20
-644.6189009572881
 30
0.0
 40
78.99999999999855
100
AcDbArc
 50
173.0125144556251
 51
-173.6556494364957
  0
ARC
  5
464
330
59
100
AcDbEntity
  8
0
  6
Continuous
 62
     7
100
AcDbCircle
 10
0.00014599675302
 20
-644.6189009572881
 30
0.0
 40
74.99999999999862
100
AcDbArc
 50
173.057002224644
 51
-173.7001372055153
  0
ARC
  5
465
330
59
100
AcDbEntity
  8
0
  6
Continuous
 62
     7
100
AcDbCircle
 10
0.00014599675302
 20
-644.6189009572881
 30
0.0
 40
78.99999999999933
100
AcDbArc
 50
158.0125144556231
 51
171.344350563506
  0
ARC
  5
466
330
59
100
AcDbEntity
  8
0
  6
Continuous
 62
     7
100
AcDbCircle
 10
0.00014599675302
 20
-644.6189009572881
 30
0.0
 40
79.00000000000283
100
AcDbArc
 50
-51.98748554437945
 51
-38.65564943649927
  0
ARC
  5
467
330
59
100
AcDbEntity
  8
0
  6
Continuous
 62
     7
100
AcDbCircle
 10
0.00014599675302
 20
-644.6189009572881
 30
0.0
 40
78.99999999999973
100
AcDbArc
 50
-36.98748554437857
 51
-23.65564943649937
  0
ARC
  5
468
330
59
100
AcDbEntity
  8
0
  6
Continuous
 62
     7
100
AcDbCircle
 10
0.00014599675302
 20
-644.6189009572881
 30
0.0
 40
78.99999999999933
100
AcDbArc
 50
-21.98748554437689
 51
-8.65564943649925
  0
ARC
  5
469
330
59
100
AcDbEntity
  8
0
  6
Continuous
 62
     7
100
AcDbCircle
 10
0.00014599675302
 20
-644.6189009572881
 30
0.0
 40
79.0000000000026
100
AcDbArc
 50
-96.98748554437724
 51
-83.65564943649859
  0
ARC
  5
46A
330
59
100
AcDbEntity
  8
0
  6
Continuous
 62
     7
100
AcDbCircle
 10
0.00014599675302
 20
-644.6189009572881
 30
0.0
 40
75.00000000000213
100
AcDbArc
 50
-81.94299777536088
 51
-68.70013720551705
  0
ARC
  5
46B
330
59
100
AcDbEntity
  8
0
  6
Continuous
 62
     7
100
AcDbCircle
 10
0.00014599675302
 20
-644.6189009572881
 30
0.0
 40
75.00000000000267
100
AcDbArc
 50
-96.9429977753584
 51
-83.70013720551556
  0
ARC
  5
46C
330
59
100
AcDbEntity
  8
0
  6
Continuous
 62
     7
100
AcDbCircle
 10
0.00014599675302
 20
-644.6189009572881
 30
0.0
 40
75.00000000000165
100
AcDbArc
 50
-66.94299777536158
 51
-53.70013720551781
  0
ARC
  5
46D
330
59
100
AcDbEntity
  8
0
  6
Continuous
 62
     7
100
AcDbCircle
 10
0.00014599675302
 20
-644.6189009572881
 30
0.0
 40
79.00000000000213
100
AcDbArc
 50
-81.98748554437812
 51
-68.65564943649835
  0
ARC
  5
46E
330
59
100
AcDbEntity
  8
0
  6
Continuous
 62
     7
100
AcDbCircle
 10
0.00014599675302
 20
-644.6189009572881
 30
0.0
 40
79.00000000000149
100
AcDbArc
 50
-66.98748554437957
 51
-53.65564943650166
  0
ARC
  5
46F
330
59
100
AcDbEntity
  8
0
  6
Continuous
 62
     7
100
AcDbCircle
 10
0.00014599675302
 20
-644.6189009572881
 30
0.0
 40
74.99999999999903
100
AcDbArc
 50
-171.9429977753578
 51
-158.7001372055171
  0
ARC
  5
470
330
59
100
AcDbEntity
  8
0
  6
Continuous
 62
     7
100
AcDbCircle
 10
0.00014599675302
 20
-644.6189009572881
 30
0.0
 40
79.0000000000027
100
AcDbArc
 50
-111.9874855443759
 51
-98.65564943649886
  0
ARC
  5
471
330
59
100
AcDbEntity
  8
0
  6
Continuous
 62
     7
100
AcDbCircle
 10
0.00014599675302
 20
-644.6189009572881
 30
0.0
 40
75.00000000000095
100
AcDbArc
 50
-111.9429977753588
 51
-98.70013720551702
  0
ARC
  5
472
330
59
100
AcDbEntity
  8
0
  6
Continuous
 62
     7
100
AcDbCircle
 10
0.00014599675302
 20
-644.6189009572881
 30
0.0
 40
75.00000000000165
100
AcDbArc
 50
-156.9429977753616
 51
-143.7001372055139
  0
ARC
  5
473
330
59
100
AcDbEntity
  8
0
  6
Continuous
 62
     7
100
AcDbCircle
 10
0.00014599675302
 20
-644.6189009572881
 30
0.0
 40
75.00000000000102
100
AcDbArc
 50
-141.9429977753574
 51
-128.700137205515
  0
ARC
  5
474
330
59
100
AcDbEntity
  8
0
  6
Continuous
 62
     7
100
AcDbCircle
 10
0.00014599675302
 20
-644.6189009572881
 30
0.0
 40
75.00000000000067
100
AcDbArc
 50
-126.9429977753601
 51
-113.7001372055156
  0
ARC
  5
475
330
59
100
AcDbEntity
  8
0
  6
Continuous
 62
     7
100
AcDbCircle
 10
0.00014599675302
 20
-644.6189009572881
 30
0.0
 40
78.99999999999957
100
AcDbArc
 50
-156.9874855443761
 51
-143.655649436498
  0
ARC
  5
476
330
59
100
AcDbEntity
  8
0
  6
Continuous
 62
     7
100
AcDbCircle
 10
0.00014599675302
 20
-644.6189009572881
 30
0.0
 40
78.99999999999903
100
AcDbArc
 50
-171.9874855443751
 51
-158.6556494364984
  0
ARC
  5
477
330
59
100
AcDbEntity
  8
0
  6
Continuous
 62
     7
100
AcDbCircle
 10
0.00014599675302
 20
-644.6189009572881
 30
0.0
 40
79.00000000000263
100
AcDbArc
 50
-126.987485544377
 51
-113.6556494364994
  0
ARC
  5
478
330
59
100
AcDbEntity
  8
0
  6
Continuous
 62
     7
100
AcDbCircle
 10
0.00014599675302
 20
-644.6189009572881
 30
0.0
 40
79.00000000000222
100
AcDbArc
 50
-141.9874855443757
 51
-128.6556494364993
  0
ARC
  5
479
330
59
100
AcDbEntity
  8
0
  6
Continuous
 62
     7
100
AcDbCircle
 10
0.00014599675302
 20
-644.6189009572881
 30
0.0
 40
75.00000000000273
100
AcDbArc
 50
-46.87378957661885
 51
-38.70013720551674
  0
ARC
  5
47A
330
59
100
AcDbEntity
  8
0
  6
Continuous
 62
     7
100
AcDbCircle
 10
0.00014599675302
 20
-644.6189009572918
 30
0.0
 40
75.00000000000074
100
AcDbArc
 50
-28.76943394102243
 51
-23.70013720551415
  0
ARC
  5
47B
330
59
100
AcDbEntity
  8
0
  6
Continuous
 62
     7
100
AcDbCircle
 10
0.00014599675302
 20
-644.6189009572881
 30
0.0
 40
75.00000000000286
100
AcDbArc
 50
-36.94299777536234
 51
-28.76943394102487
  0
ARC
  5
47C
330
59
100
AcDbEntity
  8
0
  6
Continuous
 62
     7
100
AcDbCircle
 10
0.00014599675302
 20
-644.6189009572918
 30
0.0
 40
74.99999999999878
100
AcDbArc
 50
-51.94299777535955
 51
-46.87378957661696
  0
ARC
  5
47D
330
59
100
AcDbEntity
  8
0
  6
Continuous
 62
     7
100
AcDbCircle
 10
0.00014599675302
 20
-644.6189009572881
 30
0.0
 40
74.9999999999995
100
AcDbArc
 50
83.05700222463851
 51
96.29986279448475
  0
ARC
  5
47E
330
59
100
AcDbEntity
  8
0
  6
Continuous
 62
     7
100
AcDbCircle
 10
0.00014599675302
 20
-644.6189009572881
 30
0.0
 40
74.99999999999777
100
AcDbArc
 50
53.05700222463822
 51
66.2998627944833
  0
ARC
  5
47F
330
59
100
AcDbEntity
  8
0
  6
Continuous
 62
     7
100
AcDbCircle
 10
0.00014599675302
 20
-644.6189009572881
 30
0.0
 40
78.99999999999973
100
AcDbArc
 50
53.01251445562143
 51
66.34435056349957
  0
ARC
  5
480
330
59
100
AcDbEntity
  8
0
  6
Continuous
 62
     7
100
AcDbCircle
 10
0.00014599675302
 20
-644.6189009572881
 30
0.0
 40
74.99999999999893
100
AcDbArc
 50
68.05700222463757
 51
81.29986279448255
  0
ARC
  5
481
330
59
100
AcDbEntity
  8
0
  6
Continuous
 62
     7
100
AcDbCircle
 10
0.00014599675302
 20
-644.6189009572881
 30
0.0
 40
78.99999999999933
100
AcDbArc
 50
68.01251445562312
 51
81.34435056349814
  0
ARC
  5
482
330
59
100
AcDbEntity
  8
0
  6
Continuous
 62
     7
100
AcDbCircle
 10
0.00014599675302
 20
-644.6189009572881
 30
0.0
 40
78.99999999999899
100
AcDbArc
 50
-6.98748554437756
 51
6.34435056349908
  0
ARC
  5
483
330
59
100
AcDbEntity
  8
0
  6
Continuous
 62
     7
100
AcDbCircle
 10
0.00014599675302
 20
-644.6189009572881
 30
0.0
 40
79.00000000000162
100
AcDbArc
 50
8.01251445561927
 51
21.3443505634992
  0
ARC
  5
484
330
59
100
AcDbEntity
  8
0
  6
Continuous
 62
     7
100
AcDbCircle
 10
0.00014599675302
 20
-644.6189009572881
 30
0.0
 40
75.0000000000016
100
AcDbArc
 50
8.05700222463636
 51
21.29986279448294
  0
ARC
  5
485
330
59
100
AcDbEntity
  8
0
  6
Continuous
 62
     7
100
AcDbCircle
 10
0.00014599675302
 20
-644.6189009572881
 30
0.0
 40
79.00000000000149
100
AcDbArc
 50
23.01251445562044
 51
36.3443505634999
  0
ARC
  5
486
330
59
100
AcDbEntity
  8
0
  6
Continuous
 62
     7
100
AcDbCircle
 10
0.00014599675302
 20
-644.6189009572881
 30
0.0
 40
74.9999999999995
100
AcDbArc
 50
-6.94299777536149
 51
6.29986279448198
  0
ARC
  5
487
330
59
100
AcDbEntity
  8
0
  6
Continuous
 62
     7
100
AcDbCircle
 10
0.00014599675302
 20
-644.6189009572881
 30
0.0
 40
78.99999999999899
100
AcDbArc
 50
83.01251445562244
 51
96.34435056350169
  0
ARC
  5
488
330
59
100
AcDbEntity
  8
0
  6
Continuous
 62
     7
100
AcDbCircle
 10
0.00014599675302
 20
-644.6189009572881
 30
0.0
 40
78.99999999999935
100
AcDbArc
 50
128.0125144556259
 51
141.3443505635028
  0
ARC
  5
489
330
59
100
AcDbEntity
  8
0
  6
Continuous
 62
     7
100
AcDbCircle
 10
0.00014599675302
 20
-644.6189009572881
 30
0.0
 40
78.99999999999622
100
AcDbArc
 50
113.0125144556249
 51
126.3443505634999
  0
ARC
  5
48A
330
59
100
AcDbEntity
  8
0
  6
Continuous
 62
     7
100
AcDbCircle
 10
0.00014599675302
 20
-644.6189009572881
 30
0.0
 40
78.99999999999852
100
AcDbArc
 50
98.01251445562225
 51
111.3443505635026
  0
ARC
  5
48B
330
59
100
AcDbEntity
  8
0
  6
Continuous
 62
     7
100
AcDbCircle
 10
0.00014599675302
 20
-644.6189009572881
 30
0.0
 40
74.99999999999972
100
AcDbArc
 50
113.0570022246421
 51
126.2998627944839
  0
ARC
  5
48C
330
59
100
AcDbEntity
  8
0
  6
Continuous
 62
     7
100
AcDbCircle
 10
0.00014599675302
 20
-644.6189009572881
 30
0.0
 40
74.99999999999852
100
AcDbArc
 50
98.0570022246395
 51
111.299862794484
  0
ARC
  5
48D
330
59
100
AcDbEntity
  8
0
  6
Continuous
 62
     7
100
AcDbCircle
 10
0.00014599675302
 20
-644.6189009572918
 30
0.0
 40
75.00000000000102
100
AcDbArc
 50
128.0570022246426
 51
133.1262104233812
  0
ARC
  5
48E
330
59
100
AcDbEntity
  8
0
  6
Continuous
 62
     7
100
AcDbCircle
 10
0.00014599675302
 20
-644.6189009572881
 30
0.0
 40
75.00000000000006
100
AcDbArc
 50
133.126210423383
 51
141.2998627944854
  0
ARC
  5
48F
330
59
100
AcDbEntity
  8
0
  6
Continuous
 62
     7
100
AcDbCircle
 10
0.00014599675302
 20
-644.6189009572881
 30
0.0
 40
75.00000000000232
100
AcDbArc
 50
-21.94299777536139
 51
-8.70013720551744
  0
ARC
  5
490
330
59
100
AcDbEntity
  8
0
  6
Continuous
 62
     7
100
AcDbCircle
 10
0.00014599675302
 20
-644.6189009572881
 30
0.0
 40
75.00000000000021
100
AcDbArc
 50
23.05700222463587
 51
36.29986279448384
  0
ARC
  5
491
330
59
100
AcDbEntity
  8
0
  6
Continuous
 62
     7
100
AcDbCircle
 10
0.00014599675302
 20
-644.6189009572881
 30
0.0
 40
74.9999999999994
100
AcDbArc
 50
38.05700222463655
 51
51.29986279448327
  0
ARC
  5
492
330
59
100
AcDbEntity
  8
0
  6
Continuous
 62
     7
100
AcDbCircle
 10
0.00014599675302
 20
-644.6189009572881
 30
0.0
 40
78.99999999999997
100
AcDbArc
 50
38.01251445562218
 51
51.34435056349909
  0
ARC
  5
493
330
59
100
AcDbEntity
  8
0
  6
Continuous
 62
     7
100
AcDbCircle
 10
0.00014599675302
 20
-644.6189009572881
 30
0.0
 40
78.99999999999754
100
AcDbArc
 50
143.0125144556235
 51
156.344350563503
  0
ARC
  5
494
330
59
100
AcDbEntity
  8
0
  6
Continuous
 62
     7
100
AcDbCircle
 10
0.00014599675302
 20
-644.6189009572881
 30
0.0
 40
75.00000000000095
100
AcDbArc
 50
158.0570022246412
 51
171.2998627944881
  0
ARC
  5
495
330
59
100
AcDbEntity
  8
0
  6
Continuous
 62
     7
100
AcDbCircle
 10
0.00014599675302
 20
-644.6189009572881
 30
0.0
 40
74.9999999999985
100
AcDbArc
 50
143.0570022246421
 51
156.2998627944833
  0
ARC
  5
496
330
59
100
AcDbEntity
  8
0
  6
Continuous
 62
     7
100
AcDbCircle
 10
0.00014599675666
 20
-644.6189009572918
 30
0.0
 40
73.90000000000055
100
AcDbArc
 50
-111.9299192349174
 51
-98.7132157459608
  0
ARC
  5
497
330
59
100
AcDbEntity
  8
0
  6
Continuous
 62
     7
100
AcDbCircle
 10
0.00014599675666
 20
-644.6189009572918
 30
0.0
 40
73.89999999999993
100
AcDbArc
 50
-156.9299192349179
 51
-143.7132157459609
  0
ARC
  5
498
330
59
100
AcDbEntity
  8
0
  6
Continuous
 62
     7
100
AcDbCircle
 10
0.00014599675666
 20
-644.6189009572918
 30
0.0
 40
73.89999999999908
100
AcDbArc
 50
-171.9299192349185
 51
-158.7132157459601
  0
ARC
  5
499
330
59
100
AcDbEntity
  8
0
  6
Continuous
 62
     7
100
AcDbCircle
 10
0.00014599675666
 20
-644.6189009572918
 30
0.0
 40
73.89999999999836
100
AcDbArc
 50
-6.92991923491554
 51
6.2867842540403
  0
ARC
  5
49A
330
59
100
AcDbEntity
  8
0
  6
Continuous
 62
     7
100
AcDbCircle
 10
0.00014599675666
 20
-644.6189009572918
 30
0.0
 40
73.89999999999836
100
AcDbArc
 50
-96.92991923491554
 51
-83.71321574596251
  0
ARC
  5
49B
330
59
100
AcDbEntity
  8
0
  6
Continuous
 62
     7
100
AcDbCircle
 10
0.00014599675666
 20
-644.6189009572918
 30
0.0
 40
70.50000000000072
100
AcDbArc
 50
-171.8869140318105
 51
-158.7562209490696
  0
ARC
  5
49C
330
59
100
AcDbEntity
  8
0
  6
Continuous
 62
     7
100
AcDbCircle
 10
0.00014599675666
 20
-644.6189009572918
 30
0.0
 40
58.13148319780665
100
AcDbArc
 50
128.3119739458322
 51
141.0448910732935
  0
ARC
  5
49D
330
59
100
AcDbEntity
  8
0
  6
Continuous
 62
     7
100
AcDbCircle
 10
0.00014599675666
 20
-644.6189009572918
 30
0.0
 40
56.2000000000017
100
AcDbArc
 50
38.35093687884093
 51
51.00592814028617
  0
ARC
  5
49E
330
59
100
AcDbEntity
  8
0
  6
Continuous
 62
     7
100
AcDbCircle
 10
0.00014599675666
 20
-644.6189009572918
 30
0.0
 40
56.20000000000091
100
AcDbArc
 50
-126.6490631211619
 51
-113.9940718597177
  0
ARC
  5
49F
330
59
100
AcDbEntity
  8
0
  6
Continuous
 62
     7
100
AcDbCircle
 10
0.00014599675666
 20
-644.6189009572918
 30
0.0
 40
56.19999999999944
100
AcDbArc
 50
-141.649063121162
 51
-128.994071859719
  0
ARC
  5
4A0
330
59
100
AcDbEntity
  8
0
  6
Continuous
 62
     7
100
AcDbCircle
 10
0.00014599675666
 20
-644.6189009572918
 30
0.0
 40
58.13148319780665
100
AcDbArc
 50
38.31197394583219
 51
51.04489107329349
  0
ARC
  5
4A1
330
59
100
AcDbEntity
  8
0
  6
Continuous
 62
     7
100
AcDbCircle
 10
0.00014599675666
 20
-644.6189009572918
 30
0.0
 40
56.20000000000169
100
AcDbArc
 50
128.3509368788409
 51
141.0059281402833
  0
ARC
  5
4A2
330
59
100
AcDbEntity
  8
0
  6
Continuous
 62
     7
100
AcDbCircle
 10
0.00014599675666
 20
-644.6189009572918
 30
0.0
 40
58.13148319780561
100
AcDbArc
 50
113.311973945831
 51
126.0448910732939
  0
ARC
  5
4A3
330
59
100
AcDbEntity
  8
0
  6
Continuous
 62
     7
100
AcDbCircle
 10
0.00014599675666
 20
-644.6189009572918
 30
0.0
 40
56.20000000000039
100
AcDbArc
 50
113.3509368788404
 51
126.0059281402839
  0
ARC
  5
4A4
330
59
100
AcDbEntity
  8
0
  6
Continuous
 62
     7
100
AcDbCircle
 10
0.00014599675666
 20
-644.6189009572918
 30
0.0
 40
56.20000000000039
100
AcDbArc
 50
-156.6490631211596
 51
-143.9940718597161
  0
ARC
  5
4A5
330
59
100
AcDbEntity
  8
0
  6
Continuous
 62
     7
100
AcDbCircle
 10
0.00014599675666
 20
-644.6189009572918
 30
0.0
 40
58.13148319780429
100
AcDbArc
 50
-126.6880260541703
 51
-113.9551089267096
  0
ARC
  5
4A6
330
59
100
AcDbEntity
  8
0
  6
Continuous
 62
     7
100
AcDbCircle
 10
0.00014599675666
 20
-644.6189009572918
 30
0.0
 40
58.1314831978044
100
AcDbArc
 50
-141.6880260541706
 51
-128.9551089267088
  0
ARC
  5
4A7
330
59
100
AcDbEntity
  8
0
  6
Continuous
 62
     7
100
AcDbCircle
 10
0.00014599675666
 20
-644.6189009572918
 30
0.0
 40
58.13148319780497
100
AcDbArc
 50
-111.6880260541695
 51
-98.95510892670882
  0
ARC
  5
4A8
330
59
100
AcDbEntity
  8
0
  6
Continuous
 62
     7
100
AcDbCircle
 10
0.00014599675666
 20
-644.6189009572918
 30
0.0
 40
56.19999999999778
100
AcDbArc
 50
-111.6490631211603
 51
-98.99407185971705
  0
ARC
  5
4A9
330
59
100
AcDbEntity
  8
0
  6
Continuous
 62
     7
100
AcDbCircle
 10
0.00014599675666
 20
-644.6189009572918
 30
0.0
 40
58.13148319780417
100
AcDbArc
 50
-156.6880260541723
 51
-143.955108926709
  0
ARC
  5
4AA
330
59
100
AcDbEntity
  8
0
  6
Continuous
 62
     7
100
AcDbCircle
 10
0.00014599675666
 20
-644.6189009572918
 30
0.0
 40
56.20000000000091
100
AcDbArc
 50
143.3509368788381
 51
156.0059281402838
  0
ARC
  5
4AB
330
59
100
AcDbEntity
  8
0
  6
Continuous
 62
     7
100
AcDbCircle
 10
0.00014599675666
 20
-644.6189009572918
 30
0.0
 40
58.13148319780497
100
AcDbArc
 50
158.3119739458305
 51
171.0448910732918
  0
ARC
  5
4AC
330
59
100
AcDbEntity
  8
0
  6
Continuous
 62
     7
100
AcDbCircle
 10
0.00014599675666
 20
-644.6189009572918
 30
0.0
 40
56.2000000000025
100
AcDbArc
 50
158.3509368788376
 51
171.0059281402835
  0
ARC
  5
4AD
330
59
100
AcDbEntity
  8
0
  6
Continuous
 62
     7
100
AcDbCircle
 10
0.00014599675666
 20
-644.6189009572918
 30
0.0
 40
73.90000000000198
100
AcDbArc
 50
173.0700807650848
 51
-173.7132157459625
  0
ARC
  5
4AE
330
59
100
AcDbEntity
  8
0
  6
Continuous
 62
     7
100
AcDbCircle
 10
0.00014599675666
 20
-644.6189009572918
 30
0.0
 40
58.13148319780429
100
AcDbArc
 50
143.3119739458297
 51
156.0448910732919
  0
ARC
  5
4AF
330
59
100
AcDbEntity
  8
0
  6
Continuous
 62
     7
100
AcDbCircle
 10
7.8453095215587
 20
-649.189831854721
 30
0.0
 40
1.000000000003699
100
AcDbArc
 50
52.17843250954724
 51
142.1784325094194
  0
ARC
  5
4B0
330
59
100
AcDbEntity
  8
0
  6
Continuous
 62
     7
100
AcDbCircle
 10
0.0001461671996
 20
-644.6189003351683
 30
0.0
 40
40.99999976996593
100
AcDbArc
 50
-36.21428077380514
 51
5.57114412664738
  0
ARC
  5
4B1
330
59
100
AcDbEntity
  8
0
  6
Continuous
 62
     7
100
AcDbCircle
 10
0.00014599675666
 20
-644.6189009572918
 30
0.0
 40
58.13148319780368
100
AcDbArc
 50
8.31197394583043
 51
21.04489107329405
  0
ARC
  5
4B2
330
59
100
AcDbEntity
  8
0
  6
Continuous
 62
     7
100
AcDbCircle
 10
0.00014599675666
 20
-644.6189009572918
 30
0.0
 40
56.19999999999769
100
AcDbArc
 50
8.35093687884107
 51
21.00592814028468
  0
ARC
  5
4B3
330
59
100
AcDbEntity
  8
0
  6
Continuous
 62
     7
100
AcDbCircle
 10
0.00014599675666
 20
-644.6189009572918
 30
0.0
 40
43.49999999999922
100
AcDbArc
 50
-21.30667498477012
 51
-9.33645999610345
  0
ARC
  5
4B4
330
59
100
AcDbEntity
  8
0
  6
Continuous
 62
     7
100
AcDbCircle
 10
0.00014599675666
 20
-644.6189009572918
 30
0.0
 40
43.50000000000006
100
AcDbArc
 50
-6.30667498477433
 51
5.66354000390137
  0
ARC
  5
4B5
330
59
100
AcDbEntity
  8
0
  6
Continuous
 62
     7
100
AcDbCircle
 10
0.00014599675666
 20
-644.6189009572918
 30
0.0
 40
43.49999999999756
100
AcDbArc
 50
8.69332501522855
 51
20.66354000390076
  0
ARC
  5
4B6
330
59
100
AcDbEntity
  8
0
  6
Continuous
 62
     7
100
AcDbCircle
 10
0.00014599675666
 20
-644.6189009572918
 30
0.0
 40
43.49999999999902
100
AcDbArc
 50
23.69332501523094
 51
35.66354000390092
  0
ARC
  5
4B7
330
59
100
AcDbEntity
  8
0
  6
Continuous
 62
     7
100
AcDbCircle
 10
0.00014599675666
 20
-644.6189009572918
 30
0.0
 40
43.49999999999926
100
AcDbArc
 50
38.69332501522732
 51
50.66354000390258
  0
ARC
  5
4B8
330
59
100
AcDbEntity
  8
0
  6
Continuous
 62
     7
100
AcDbCircle
 10
0.00014599675666
 20
-644.6189009572918
 30
0.0
 40
41.00000000000018
100
AcDbArc
 50
8.78572005031826
 51
50.57114496881042
  0
ARC
  5
4B9
330
59
100
AcDbEntity
  8
0
  6
Continuous
 62
     7
100
AcDbCircle
 10
0.00014599675666
 20
-644.6189009572918
 30
0.0
 40
43.50000000000006
100
AcDbArc
 50
83.69332501522567
 51
95.66354000389613
  0
ARC
  5
4BA
330
59
100
AcDbEntity
  8
0
  6
Continuous
 62
     7
100
AcDbCircle
 10
0.00014599675666
 20
-644.6189009572918
 30
0.0
 40
43.50000000000054
100
AcDbArc
 50
68.69332501522543
 51
80.66354000389656
  0
ARC
  5
4BB
330
59
100
AcDbEntity
  8
0
  6
Continuous
 62
     7
100
AcDbCircle
 10
-7.84501752804903
 20
-640.0479700598626
 30
0.0
 40
0.9999999999985943
100
AcDbArc
 50
-127.8215674904159
 51
-37.82156749041594
  0
ARC
  5
4BC
330
59
100
AcDbEntity
  8
0
  6
Continuous
 62
     7
100
AcDbCircle
 10
-6.37332686410122
 20
-638.1521518751069
 30
0.0
 40
0.9999999999985943
100
AcDbArc
 50
-37.82156749041594
 51
52.17843250958411
  0
ARC
  5
4BD
330
59
100
AcDbEntity
  8
0
  6
Continuous
 62
     7
100
AcDbCircle
 10
-26.80319937559801
 20
-625.3310634203772
 30
0.0
 40
0.9999999999985999
100
AcDbArc
 50
142.1784325095843
 51
-127.8215674904161
  0
ARC
  5
4BE
330
59
100
AcDbEntity
  8
0
  6
Continuous
 62
     7
100
AcDbCircle
 10
0.00014599675666
 20
-644.6189009572918
 30
0.0
 40
43.50000000000006
100
AcDbArc
 50
173.6933250152257
 51
-174.3364599961039
  0
ARC
  5
4BF
330
59
100
AcDbEntity
  8
0
  6
Continuous
 62
     7
100
AcDbCircle
 10
0.00014599675666
 20
-644.6189009572918
 30
0.0
 40
43.5000000000006
100
AcDbArc
 50
-171.3066749847769
 51
-159.3364599961037
  0
ARC
  5
4C0
330
59
100
AcDbEntity
  8
0
  6
Continuous
 62
     7
100
AcDbCircle
 10
0.00014599675666
 20
-644.6189009572918
 30
0.0
 40
43.50000000000115
100
AcDbArc
 50
98.69332501522783
 51
110.6635400039008
  0
ARC
  5
4C1
330
59
100
AcDbEntity
  8
0
  6
Continuous
 62
     7
100
AcDbCircle
 10
0.00014599675666
 20
-644.6189009572918
 30
0.0
 40
43.50000000000089
100
AcDbArc
 50
113.6933250152246
 51
125.6635400038981
  0
ARC
  5
4C2
330
59
100
AcDbEntity
  8
0
  6
Continuous
 62
     7
100
AcDbCircle
 10
-25.3315087116502
 20
-623.4352452356216
 30
0.0
 40
1.000000000000823
100
AcDbArc
 50
52.17843250941958
 51
142.1784325095842
  0
ARC
  5
4C3
330
59
100
AcDbEntity
  8
0
  6
Continuous
 62
     7
100
AcDbCircle
 10
0.00014599675666
 20
-644.6189009572918
 30
0.0
 40
41.00000000000024
100
AcDbArc
 50
98.78572006835925
 51
140.5711449507682
  0
ARC
  5
4C4
330
59
100
AcDbEntity
  8
0
  6
Continuous
 62
     7
100
AcDbCircle
 10
0.00014599675666
 20
-644.6189009572918
 30
0.0
 40
58.13148319780611
100
AcDbArc
 50
173.3119739458293
 51
-173.9551089267092
  0
ARC
  5
4C5
330
59
100
AcDbEntity
  8
0
  6
Continuous
 62
     7
100
AcDbCircle
 10
0.00014599675666
 20
-644.6189009572918
 30
0.0
 40
56.20000000000257
100
AcDbArc
 50
173.3509368788397
 51
-173.9940718597177
  0
ARC
  5
4C6
330
59
100
AcDbEntity
  8
0
  6
Continuous
 62
     7
100
AcDbCircle
 10
0.00014599675666
 20
-644.6189009572918
 30
0.0
 40
58.13148319780728
100
AcDbArc
 50
98.31197394582992
 51
111.0448910732928
  0
ARC
  5
4C7
330
59
100
AcDbEntity
  8
0
  6
Continuous
 62
     7
100
AcDbCircle
 10
0.00014599675666
 20
-644.6189009572918
 30
0.0
 40
56.20000000000129
100
AcDbArc
 50
98.35093687884054
 51
111.0059281402833
  0
ARC
  5
4C8
330
59
100
AcDbEntity
  8
0
  6
Continuous
 62
     7
100
AcDbCircle
 10
0.00014599675666
 20
-644.6189009572918
 30
0.0
 40
43.5000000000021
100
AcDbArc
 50
128.6933250152243
 51
140.6635400038958
  0
ARC
  5
4C9
330
59
100
AcDbEntity
  8
0
  6
Continuous
 62
     7
100
AcDbCircle
 10
0.00014599675666
 20
-644.6189009572918
 30
0.0
 40
43.50000000000116
100
AcDbArc
 50
143.6933250152261
 51
155.6635400038949
  0
ARC
  5
4CA
330
59
100
AcDbEntity
  8
0
  6
Continuous
 62
     7
100
AcDbCircle
 10
0.00014599675666
 20
-644.6189009572918
 30
0.0
 40
43.50000000000054
100
AcDbArc
 50
158.6933250152254
 51
170.6635400038966
  0
ARC
  5
4CB
330
59
100
AcDbEntity
  8
0
  6
Continuous
 62
     7
100
AcDbCircle
 10
0.00014599675666
 20
-644.6189009572918
 30
0.0
 40
41.00000000000114
100
AcDbArc
 50
143.7857200683534
 51
-174.4288550311914
  0
ARC
  5
4CC
330
59
100
AcDbEntity
  8
0
  6
Continuous
 62
     7
100
AcDbCircle
 10
0.00014599675666
 20
-644.6189009572918
 30
0.0
 40
41.00000000000043
100
AcDbArc
 50
53.78572005031852
 51
95.57114495077181
  0
ARC
  5
4CD
330
59
100
AcDbEntity
  8
0
  6
Continuous
 62
     7
100
AcDbCircle
 10
0.00014599675666
 20
-644.6189009572918
 30
0.0
 40
43.50000000000089
100
AcDbArc
 50
-156.3066749847754
 51
-144.3364599961058
  0
ARC
  5
4CE
330
59
100
AcDbEntity
  8
0
  6
Continuous
 62
     7
100
AcDbCircle
 10
0.00014599675666
 20
-644.6189009572918
 30
0.0
 40
40.99999999999962
100
AcDbArc
 50
-171.2142799496868
 51
-129.4288550311935
  0
ARC
  5
4CF
330
59
100
AcDbEntity
  8
0
  6
Continuous
 62
     7
100
AcDbCircle
 10
0.00014599675666
 20
-644.6189009572918
 30
0.0
 40
45.10463792494864
100
AcDbArc
 50
173.6394194571583
 51
-174.2825544380379
  0
ARC
  5
4D0
330
59
100
AcDbEntity
  8
0
  6
Continuous
 62
     7
100
AcDbCircle
 10
0.00014599675666
 20
-644.6189009572918
 30
0.0
 40
43.5000000000021
100
AcDbArc
 50
-141.3066749847757
 51
-129.3364599961042
  0
ARC
  5
4D1
330
59
100
AcDbEntity
  8
0
  6
Continuous
 62
     7
100
AcDbCircle
 10
0.00014599675666
 20
-644.6189009572918
 30
0.0
 40
43.49999999999823
100
AcDbArc
 50
-126.3066749847768
 51
-114.3364599961027
  0
ARC
  5
4D2
330
59
100
AcDbEntity
  8
0
  6
Continuous
 62
     7
100
AcDbCircle
 10
26.80349136910769
 20
-663.9067384942027
 30
0.0
 40
1.000000000003696
100
AcDbArc
 50
-37.82156749045289
 51
52.17843250941925
  0
ARC
  5
4D3
330
59
100
AcDbEntity
  8
0
  6
Continuous
 62
     7
100
AcDbCircle
 10
0.00014599675666
 20
-644.6189009572918
 30
0.0
 40
43.49999999999901
100
AcDbArc
 50
-36.30667498477005
 51
-24.33645999610269
  0
ARC
  5
4D4
330
59
100
AcDbEntity
  8
0
  6
Continuous
 62
     7
100
AcDbCircle
 10
0.00014756547495
 20
-644.6188994060794
 30
0.0
 40
43.49999976996588
100
AcDbArc
 50
-51.30667785873824
 51
-39.33646288609098
  0
ARC
  5
4D5
330
59
100
AcDbEntity
  8
0
  6
Continuous
 62
     7
100
AcDbCircle
 10
0.00014599675666
 20
-644.6189009572918
 30
0.0
 40
58.13148319780207
100
AcDbArc
 50
-6.68802605416762
 51
6.04489107329441
  0
ARC
  5
4D6
330
59
100
AcDbEntity
  8
0
  6
Continuous
 62
     7
100
AcDbCircle
 10
0.00014599675666
 20
-644.6189009572918
 30
0.0
 40
56.19999999999896
100
AcDbArc
 50
-6.64906312116075
 51
6.00592814028635
  0
ARC
  5
4D7
330
59
100
AcDbEntity
  8
0
  6
Continuous
 62
     7
100
AcDbCircle
 10
0.00014599675666
 20
-644.6189009572918
 30
0.0
 40
43.49999999999756
100
AcDbArc
 50
-66.30667498477345
 51
-54.33645999610296
  0
ARC
  5
4D8
330
59
100
AcDbEntity
  8
0
  6
Continuous
 62
     7
100
AcDbCircle
 10
25.33180070515988
 20
-665.8025566789584
 30
0.0
 40
0.9999999999985943
100
AcDbArc
 50
-127.8215674904159
 51
-37.82156749041606
  0
ARC
  5
4D9
330
59
100
AcDbEntity
  8
0
  6
Continuous
 62
     7
100
AcDbCircle
 10
0.00014543632602
 20
-644.6189012766736
 30
0.0
 40
40.99999976996521
100
AcDbArc
 50
-81.21427910752679
 51
-39.42885420707079
  0
ARC
  5
4DA
330
59
100
AcDbEntity
  8
0
  6
Continuous
 62
     7
100
AcDbCircle
 10
6.37361885761089
 20
-651.085650039473
 30
0.0
 40
0.9999999999985943
100
AcDbArc
 50
142.1784325095841
 51
-127.8215674902881
  0
ARC
  5
4DB
330
59
100
AcDbEntity
  8
0
  6
Continuous
 62
     7
100
AcDbCircle
 10
0.00014599675666
 20
-644.6189009572918
 30
0.0
 40
58.13148319780368
100
AcDbArc
 50
-81.68802605416957
 51
-68.95510892670595
  0
ARC
  5
4DC
330
59
100
AcDbEntity
  8
0
  6
Continuous
 62
     7
100
AcDbCircle
 10
0.00014599675666
 20
-644.6189009572918
 30
0.0
 40
56.19999999999769
100
AcDbArc
 50
-81.64906312115893
 51
-68.99407185971532
  0
ARC
  5
4DD
330
59
100
AcDbEntity
  8
0
  6
Continuous
 62
     7
100
AcDbCircle
 10
0.00014599675666
 20
-644.6189009572918
 30
0.0
 40
43.50000000000006
100
AcDbArc
 50
-96.30667498477433
 51
-84.3364599961034
  0
ARC
  5
4DE
330
59
100
AcDbEntity
  8
0
  6
Continuous
 62
     7
100
AcDbCircle
 10
0.00014599675666
 20
-644.6189009572918
 30
0.0
 40
43.499999999997
100
AcDbArc
 50
-81.30667498477618
 51
-69.33645999610373
  0
ARC
  5
4DF
330
59
100
AcDbEntity
  8
0
  6
Continuous
 62
     7
100
AcDbCircle
 10
0.00014599675666
 20
-644.6189009572918
 30
0.0
 40
58.1314831978025
100
AcDbArc
 50
-96.68802605417117
 51
-83.95510892670559
  0
ARC
  5
4E0
330
59
100
AcDbEntity
  8
0
  6
Continuous
 62
     7
100
AcDbCircle
 10
0.00014599675666
 20
-644.6189009572918
 30
0.0
 40
56.19999999999895
100
AcDbArc
 50
-96.64906312116075
 51
-83.99407185971734
  0
ARC
  5
4E1
330
59
100
AcDbEntity
  8
0
  6
Continuous
 62
     7
100
AcDbCircle
 10
0.00014599675666
 20
-644.6189009572918
 30
0.0
 40
43.50000000000053
100
AcDbArc
 50
-111.3066749847746
 51
-99.33645999610346
  0
ARC
  5
4E2
330
59
100
AcDbEntity
  8
0
  6
Continuous
 62
     7
100
AcDbCircle
 10
0.00014599675666
 20
-644.6189009572918
 30
0.0
 40
40.99999999999964
100
AcDbArc
 50
-126.2142799496886
 51
-84.42885503119138
  0
ARC
  5
4E3
330
59
100
AcDbEntity
  8
0
  6
Continuous
 62
     7
100
AcDbCircle
 10
0.00014599675666
 20
-644.6189009572918
 30
0.0
 40
56.20000000000076
100
AcDbArc
 50
-171.6490631211632
 51
-158.9940718597167
  0
ARC
  5
4E4
330
59
100
AcDbEntity
  8
0
  6
Continuous
 62
     7
100
AcDbCircle
 10
0.00014599675666
 20
-644.6189009572918
 30
0.0
 40
58.13148319780728
100
AcDbArc
 50
-171.6880260541701
 51
-158.9551089267059
  0
ARC
  5
4E5
330
59
100
AcDbEntity
  8
0
  6
Continuous
 62
     7
100
AcDbCircle
 10
0.00014599675666
 20
-644.6189009572918
 30
0.0
 40
58.13148319780154
100
AcDbArc
 50
-51.6880260541684
 51
-38.95510892670372
  0
ARC
  5
4E6
330
59
100
AcDbEntity
  8
0
  6
Continuous
 62
     7
100
AcDbCircle
 10
0.00014599675666
 20
-644.6189009572918
 30
0.0
 40
58.13148319780212
100
AcDbArc
 50
-36.68802605416741
 51
-23.95510892670628
  0
ARC
  5
4E7
330
59
100
AcDbEntity
  8
0
  6
Continuous
 62
     7
100
AcDbCircle
 10
0.00014599675666
 20
-644.6189009572918
 30
0.0
 40
58.13148319780227
100
AcDbArc
 50
-66.68802605416757
 51
-53.95510892670612
  0
ARC
  5
4E8
330
59
100
AcDbEntity
  8
0
  6
Continuous
 62
     7
100
AcDbCircle
 10
0.00014599675666
 20
-644.6189009572918
 30
0.0
 40
56.20000000000039
100
AcDbArc
 50
-66.64906312115964
 51
-53.99407185971394
  0
ARC
  5
4E9
330
59
100
AcDbEntity
  8
0
  6
Continuous
 62
     7
100
AcDbCircle
 10
0.00014599675666
 20
-644.6189009572918
 30
0.0
 40
56.19999999999873
100
AcDbArc
 50
-36.64906312115892
 51
-23.99407185971435
  0
ARC
  5
4EA
330
59
100
AcDbEntity
  8
0
  6
Continuous
 62
     7
100
AcDbCircle
 10
0.00014599675666
 20
-644.6189009572918
 30
0.0
 40
56.19999999999659
100
AcDbArc
 50
-51.64906312115968
 51
-38.99407185971616
  0
ARC
  5
4EB
330
59
100
AcDbEntity
  8
0
  6
Continuous
 62
     7
100
AcDbCircle
 10
0.00014599675666
 20
-644.6189009572918
 30
0.0
 40
58.13148319780496
100
AcDbArc
 50
-21.68802605416948
 51
-8.95510892670527
  0
ARC
  5
4EC
330
59
100
AcDbEntity
  8
0
  6
Continuous
 62
     7
100
AcDbCircle
 10
0.00014599675666
 20
-644.6189009572918
 30
0.0
 40
56.19999999999778
100
AcDbArc
 50
-21.64906312116028
 51
-8.99407185971338
  0
ARC
  5
4ED
330
59
100
AcDbEntity
  8
0
  6
Continuous
 62
     7
100
AcDbCircle
 10
0.00014599675666
 20
-644.6189009572918
 30
0.0
 40
58.1314831978056
100
AcDbArc
 50
23.31197394583103
 51
36.04489107329388
  0
ARC
  5
4EE
330
59
100
AcDbEntity
  8
0
  6
Continuous
 62
     7
100
AcDbCircle
 10
0.00014599675666
 20
-644.6189009572918
 30
0.0
 40
56.20000000000039
100
AcDbArc
 50
23.35093687884036
 51
36.00592814028388
  0
ARC
  5
4EF
330
59
100
AcDbEntity
  8
0
  6
Continuous
 62
     7
100
AcDbCircle
 10
0.00014599675666
 20
-644.6189009572918
 30
0.0
 40
43.50000000000116
100
AcDbArc
 50
53.69332501522609
 51
65.66354000389929
  0
ARC
  5
4F0
330
59
100
AcDbEntity
  8
0
  6
Continuous
 62
     7
100
AcDbCircle
 10
0.00014599675666
 20
-644.6189009572918
 30
0.0
 40
58.13148319780497
100
AcDbArc
 50
68.31197394583052
 51
81.04489107329529
  0
ARC
  5
4F1
330
59
100
AcDbEntity
  8
0
  6
Continuous
 62
     7
100
AcDbCircle
 10
0.00014599675666
 20
-644.6189009572918
 30
0.0
 40
56.20000000000116
100
AcDbArc
 50
68.3509368788411
 51
81.00592814028353
  0
ARC
  5
4F2
330
59
100
AcDbEntity
  8
0
  6
Continuous
 62
     7
100
AcDbCircle
 10
0.00014599675666
 20
-644.6189009572918
 30
0.0
 40
58.13148319780569
100
AcDbArc
 50
83.3119739458328
 51
96.04489107329404
  0
ARC
  5
4F3
330
59
100
AcDbEntity
  8
0
  6
Continuous
 62
     7
100
AcDbCircle
 10
0.00014599675666
 20
-644.6189009572918
 30
0.0
 40
56.20000000000257
100
AcDbArc
 50
83.35093687883969
 51
96.00592814028596
  0
ARC
  5
4F4
330
59
100
AcDbEntity
  8
0
  6
Continuous
 62
     7
100
AcDbCircle
 10
0.00014599675666
 20
-644.6189009572918
 30
0.0
 40
56.19999999999873
100
AcDbArc
 50
53.35093687884108
 51
66.00592814028717
  0
ARC
  5
4F5
330
59
100
AcDbEntity
  8
0
  6
Continuous
 62
     7
100
AcDbCircle
 10
0.00014599675666
 20
-644.6189009572918
 30
0.0
 40
58.13148319780721
100
AcDbArc
 50
53.31197394583185
 51
66.04489107329519
  0
ARC
  5
4F6
330
59
100
AcDbEntity
  8
0
  6
Continuous
 62
     7
100
AcDbCircle
 10
0.00014599675666
 20
-644.6189009572918
 30
0.0
 40
70.49999999999844
100
AcDbArc
 50
173.1130859681945
 51
-173.7562209490698
  0
ARC
  5
4F7
330
59
100
AcDbEntity
  8
0
  6
Continuous
 62
     7
100
AcDbCircle
 10
0.00014599675666
 20
-644.6189009572918
 30
0.0
 40
45.10463792494686
100
AcDbArc
 50
-171.3605805428417
 51
-159.2825544380362
  0
ARC
  5
4F8
330
59
100
AcDbEntity
  8
0
  6
Continuous
 62
     7
100
AcDbCircle
 10
0.00014599675666
 20
-644.6189009572918
 30
0.0
 40
70.49999999999747
100
AcDbArc
 50
-66.88691403180843
 51
-53.75622094906687
  0
ARC
  5
4F9
330
59
100
AcDbEntity
  8
0
  6
Continuous
 62
     7
100
AcDbCircle
 10
0.00014599675666
 20
-644.6189009572918
 30
0.0
 40
73.89999999999802
100
AcDbArc
 50
-66.92991923491421
 51
-53.71321574596085
  0
ARC
  5
4FA
330
59
100
AcDbEntity
  8
0
  6
Continuous
 62
     7
100
AcDbCircle
 10
0.00014599675666
 20
-644.6189009572918
 30
0.0
 40
70.49999999999844
100
AcDbArc
 50
-96.88691403180552
 51
-83.75622094906649
  0
ARC
  5
4FB
330
59
100
AcDbEntity
  8
0
  6
Continuous
 62
     7
100
AcDbCircle
 10
0.00014599675666
 20
-644.6189009572918
 30
0.0
 40
45.10463792494777
100
AcDbArc
 50
-111.3605805428423
 51
-99.28255443804066
  0
ARC
  5
4FC
330
59
100
AcDbEntity
  8
0
  6
Continuous
 62
     7
100
AcDbCircle
 10
0.00014599675666
 20
-644.6189009572918
 30
0.0
 40
73.8999999999996
100
AcDbArc
 50
-81.92991923491572
 51
-68.71321574596007
  0
ARC
  5
4FD
330
59
100
AcDbEntity
  8
0
  6
Continuous
 62
     7
100
AcDbCircle
 10
0.00014599675666
 20
-644.6189009572918
 30
0.0
 40
45.10463792494777
100
AcDbArc
 50
158.6394194571577
 51
170.7174455619601
  0
ARC
  5
4FE
330
59
100
AcDbEntity
  8
0
  6
Continuous
 62
     7
100
AcDbCircle
 10
0.00014599675666
 20
-644.6189009572918
 30
0.0
 40
45.10463792494961
100
AcDbArc
 50
143.6394194571628
 51
155.7174455619624
  0
ARC
  5
4FF
330
59
100
AcDbEntity
  8
0
  6
Continuous
 62
     7
100
AcDbCircle
 10
0.00014599675666
 20
-644.6189009572918
 30
0.0
 40
45.10463792494555
100
AcDbArc
 50
-66.36058054283684
 51
-54.28255443803588
  0
ARC
  5
500
330
59
100
AcDbEntity
  8
0
  6
Continuous
 62
     7
100
AcDbCircle
 10
0.00014599675666
 20
-644.6189009572918
 30
0.0
 40
45.10463792494633
100
AcDbArc
 50
-51.36058054283649
 51
-39.28255443803648
  0
ARC
  5
501
330
59
100
AcDbEntity
  8
0
  6
Continuous
 62
     7
100
AcDbCircle
 10
0.00014599675666
 20
-644.6189009572918
 30
0.0
 40
70.49999999999756
100
AcDbArc
 50
-51.88691403180798
 51
-38.75622094906658
  0
ARC
  5
502
330
59
100
AcDbEntity
  8
0
  6
Continuous
 62
     7
100
AcDbCircle
 10
0.00014599675666
 20
-644.6189009572918
 30
0.0
 40
73.89999999999814
100
AcDbArc
 50
-51.92991923491722
 51
-47.00968993933198
  0
ARC
  5
503
330
59
100
AcDbEntity
  8
0
  6
Continuous
 62
     7
100
AcDbCircle
 10
0.00014599675666
 20
-644.6189009572918
 30
0.0
 40
73.89999999999671
100
AcDbArc
 50
-36.92991923491511
 51
-28.63353493039634
  0
ARC
  5
504
330
59
100
AcDbEntity
  8
0
  6
Continuous
 62
     7
100
AcDbCircle
 10
0.00014599675666
 20
-644.6189009572918
 30
0.0
 40
45.1046379249469
100
AcDbArc
 50
-141.360580542843
 51
-129.2825544380394
  0
ARC
  5
505
330
59
100
AcDbEntity
  8
0
  6
Continuous
 62
     7
100
AcDbCircle
 10
0.00014599675666
 20
-644.6189009572918
 30
0.0
 40
45.10463792494667
100
AcDbArc
 50
-126.36058054284
 51
-114.2825544380376
  0
ARC
  5
506
330
59
100
AcDbEntity
  8
0
  6
Continuous
 62
     7
100
AcDbCircle
 10
0.00014599675666
 20
-644.6189009572918
 30
0.0
 40
70.49999999999712
100
AcDbArc
 50
-81.88691403181012
 51
-68.75622094906964
  0
ARC
  5
507
330
59
100
AcDbEntity
  8
0
  6
Continuous
 62
     7
100
AcDbCircle
 10
0.00014599675666
 20
-644.6189009572918
 30
0.0
 40
45.10463792494502
100
AcDbArc
 50
-96.36058054284229
 51
-84.2825544380379
  0
ARC
  5
508
330
59
100
AcDbEntity
  8
0
  6
Continuous
 62
     7
100
AcDbCircle
 10
0.00014599675666
 20
-644.6189009572918
 30
0.0
 40
45.10463792494743
100
AcDbArc
 50
-156.3605805428429
 51
-144.2825544380386
  0
ARC
  5
509
330
59
100
AcDbEntity
  8
0
  6
Continuous
 62
     7
100
AcDbCircle
 10
0.00014599675666
 20
-644.6189009572918
 30
0.0
 40
45.10463792494686
100
AcDbArc
 50
-81.36058054284167
 51
-69.28255443803616
  0
ARC
  5
50A
330
59
100
AcDbEntity
  8
0
  6
Continuous
 62
     7
100
AcDbCircle
 10
0.00014599675666
 20
-644.6189009572918
 30
0.0
 40
73.89999999999816
100
AcDbArc
 50
-141.9299192349172
 51
-137.009689939332
  0
ARC
  5
50B
330
59
100
AcDbEntity
  8
0
  6
Continuous
 62
     7
100
AcDbCircle
 10
0.00014599675666
 20
-644.6189009572918
 30
0.0
 40
70.49999999999844
100
AcDbArc
 50
-111.8869140318076
 51
-98.756220949069
  0
ARC
  5
50C
330
59
100
AcDbEntity
  8
0
  6
Continuous
 62
     7
100
AcDbCircle
 10
0.00014599675666
 20
-644.6189009572918
 30
0.0
 40
70.50000000000081
100
AcDbArc
 50
-156.8869140318096
 51
-143.7562209490669
  0
ARC
  5
50D
330
59
100
AcDbEntity
  8
0
  6
Continuous
 62
     7
100
AcDbCircle
 10
0.00014599675666
 20
-644.6189009572918
 30
0.0
 40
73.89999999999823
100
AcDbArc
 50
-137.009689939332
 51
-128.7132157459615
  0
ARC
  5
50E
330
59
100
AcDbEntity
  8
0
  6
Continuous
 62
     7
100
AcDbCircle
 10
0.00014599675666
 20
-644.6189009572918
 30
0.0
 40
70.49999999999756
100
AcDbArc
 50
-141.886914031808
 51
-128.7562209490689
  0
ARC
  5
50F
330
59
100
AcDbEntity
  8
0
  6
Continuous
 62
     7
100
AcDbCircle
 10
0.00014599675666
 20
-644.6189009572918
 30
0.0
 40
70.49999999999815
100
AcDbArc
 50
-126.8869140318094
 51
-113.7562209490691
  0
ARC
  5
510
330
59
100
AcDbEntity
  8
0
  6
Continuous
 62
     7
100
AcDbCircle
 10
0.00014599675666
 20
-644.6189009572918
 30
0.0
 40
73.89999999999871
100
AcDbArc
 50
-118.6335349303988
 51
-113.713215745962
  0
ARC
  5
511
330
59
100
AcDbEntity
  8
0
  6
Continuous
 62
     7
100
AcDbCircle
 10
0.00014599675666
 20
-644.6189009572918
 30
0.0
 40
73.89999999999888
100
AcDbArc
 50
-126.9299192349174
 51
-118.6335349303988
  0
ARC
  5
512
330
59
100
AcDbEntity
  8
0
  6
Continuous
 62
     7
100
AcDbCircle
 10
0.00014599675666
 20
-644.6189009572918
 30
0.0
 40
73.89999999999823
100
AcDbArc
 50
-47.00968993933198
 51
-38.71321574595935
  0
ARC
  5
513
330
59
100
AcDbEntity
  8
0
  6
Continuous
 62
     7
100
AcDbCircle
 10
0.00014599675666
 20
-644.6189009572918
 30
0.0
 40
73.90000000000198
100
AcDbArc
 50
83.07008076508481
 51
96.2867842540403
  0
ARC
  5
514
330
59
100
AcDbEntity
  8
0
  6
Continuous
 62
     7
100
AcDbCircle
 10
0.00014599675666
 20
-644.6189009572918
 30
0.0
 40
73.9000000000019
100
AcDbArc
 50
61.36646506960254
 51
66.2867842540391
  0
ARC
  5
515
330
59
100
AcDbEntity
  8
0
  6
Continuous
 62
     7
100
AcDbCircle
 10
0.00014599675666
 20
-644.6189009572918
 30
0.0
 40
70.50000000000182
100
AcDbArc
 50
68.11308596819346
 51
81.24377905093145
  0
ARC
  5
516
330
59
100
AcDbEntity
  8
0
  6
Continuous
 62
     7
100
AcDbCircle
 10
0.00014599675666
 20
-644.6189009572918
 30
0.0
 40
73.89999999999918
100
AcDbArc
 50
68.0700807650852
 51
81.28678425403963
  0
ARC
  5
517
330
59
100
AcDbEntity
  8
0
  6
Continuous
 62
     7
100
AcDbCircle
 10
0.00014599675666
 20
-644.6189009572918
 30
0.0
 40
70.50000000000247
100
AcDbArc
 50
83.11308596819191
 51
96.2437790509332
  0
ARC
  5
518
330
59
100
AcDbEntity
  8
0
  6
Continuous
 62
     7
100
AcDbCircle
 10
0.00014599675666
 20
-644.6189009572918
 30
0.0
 40
70.50000000000107
100
AcDbArc
 50
53.11308596819234
 51
66.24377905093209
  0
ARC
  5
519
330
59
100
AcDbEntity
  8
0
  6
Continuous
 62
     7
100
AcDbCircle
 10
0.00014599675666
 20
-644.6189009572918
 30
0.0
 40
73.9000000000018
100
AcDbArc
 50
53.07008076508433
 51
61.36646506960254
  0
ARC
  5
51A
330
59
100
AcDbEntity
  8
0
  6
Continuous
 62
     7
100
AcDbCircle
 10
0.00014599675666
 20
-644.6189009572918
 30
0.0
 40
70.50000000000266
100
AcDbArc
 50
38.11308596819251
 51
51.24377905093297
  0
ARC
  5
51B
330
59
100
AcDbEntity
  8
0
  6
Continuous
 62
     7
100
AcDbCircle
 10
0.00014599675666
 20
-644.6189009572918
 30
0.0
 40
70.49999999999844
100
AcDbArc
 50
-6.88691403180551
 51
6.2437790509332
  0
ARC
  5
51C
330
59
100
AcDbEntity
  8
0
  6
Continuous
 62
     7
100
AcDbCircle
 10
0.00014599675666
 20
-644.6189009572918
 30
0.0
 40
70.50000000000072
100
AcDbArc
 50
8.11308596818947
 51
21.24377905093311
  0
ARC
  5
51D
330
59
100
AcDbEntity
  8
0
  6
Continuous
 62
     7
100
AcDbCircle
 10
0.00014599675666
 20
-644.6189009572918
 30
0.0
 40
73.8999999999996
100
AcDbArc
 50
8.07008076508429
 51
21.28678425403994
  0
ARC
  5
51E
330
59
100
AcDbEntity
  8
0
  6
Continuous
 62
     7
100
AcDbCircle
 10
0.00014599675666
 20
-644.6189009572918
 30
0.0
 40
45.10463792494555
100
AcDbArc
 50
23.63941945716316
 51
35.71744556196788
  0
ARC
  5
51F
330
59
100
AcDbEntity
  8
0
  6
Continuous
 62
     7
100
AcDbCircle
 10
0.00014599675666
 20
-644.6189009572918
 30
0.0
 40
45.10463792494633
100
AcDbArc
 50
38.63941945716351
 51
50.71744556196351
  0
ARC
  5
520
330
59
100
AcDbEntity
  8
0
  6
Continuous
 62
     7
100
AcDbCircle
 10
0.00014599675666
 20
-644.6189009572918
 30
0.0
 40
73.90000000000039
100
AcDbArc
 50
38.070080765085
 51
42.99031006067008
  0
ARC
  5
521
330
59
100
AcDbEntity
  8
0
  6
Continuous
 62
     7
100
AcDbCircle
 10
0.00014599675666
 20
-644.6189009572918
 30
0.0
 40
70.50000000000081
100
AcDbArc
 50
23.11308596819041
 51
36.24377905093552
  0
ARC
  5
522
330
59
100
AcDbEntity
  8
0
  6
Continuous
 62
     7
100
AcDbCircle
 10
0.00014599675666
 20
-644.6189009572918
 30
0.0
 40
73.90000000000136
100
AcDbArc
 50
23.07008076508469
 51
36.28678425404142
  0
ARC
  5
523
330
59
100
AcDbEntity
  8
0
  6
Continuous
 62
     7
100
AcDbCircle
 10
0.00014599675666
 20
-644.6189009572918
 30
0.0
 40
70.50000000000225
100
AcDbArc
 50
113.1130859681931
 51
126.2437790509314
  0
ARC
  5
524
330
59
100
AcDbEntity
  8
0
  6
Continuous
 62
     7
100
AcDbCircle
 10
0.00014599675666
 20
-644.6189009572918
 30
0.0
 40
73.90000000000137
100
AcDbArc
 50
113.0700807650847
 51
126.2867842540375
  0
ARC
  5
525
330
59
100
AcDbEntity
  8
0
  6
Continuous
 62
     7
100
AcDbCircle
 10
0.00014599675666
 20
-644.6189009572918
 30
0.0
 40
73.90000000000326
100
AcDbArc
 50
128.0700807650833
 51
132.9903100606682
  0
ARC
  5
526
330
59
100
AcDbEntity
  8
0
  6
Continuous
 62
     7
100
AcDbCircle
 10
0.00014599675666
 20
-644.6189009572918
 30
0.0
 40
70.50000000000124
100
AcDbArc
 50
98.1130859681924
 51
111.2437790509304
  0
ARC
  5
527
330
59
100
AcDbEntity
  8
0
  6
Continuous
 62
     7
100
AcDbCircle
 10
0.00014599675666
 20
-644.6189009572918
 30
0.0
 40
73.90000000000319
100
AcDbArc
 50
98.0700807650839
 51
111.2867842540399
  0
ARC
  5
528
330
59
100
AcDbEntity
  8
0
  6
Continuous
 62
     7
100
AcDbCircle
 10
0.00014599675666
 20
-644.6189009572918
 30
0.0
 40
70.50000000000266
100
AcDbArc
 50
128.1130859681925
 51
141.2437790509311
  0
ARC
  5
529
330
59
100
AcDbEntity
  8
0
  6
Continuous
 62
     7
100
AcDbCircle
 10
0.00014599675666
 20
-644.6189009572918
 30
0.0
 40
73.90000000000337
100
AcDbArc
 50
132.9903100606682
 51
141.2867842540385
  0
ARC
  5
52A
330
59
100
AcDbEntity
  8
0
  6
Continuous
 62
     7
100
AcDbCircle
 10
0.00014599675666
 20
-644.6189009572918
 30
0.0
 40
45.10463792494917
100
AcDbArc
 50
128.6394194571606
 51
140.7174455619635
  0
ARC
  5
52B
330
59
100
AcDbEntity
  8
0
  6
Continuous
 62
     7
100
AcDbCircle
 10
0.00014599675666
 20
-644.6189009572918
 30
0.0
 40
45.10463792494888
100
AcDbArc
 50
113.6394194571613
 51
125.7174455619614
  0
ARC
  5
52C
330
59
100
AcDbEntity
  8
0
  6
Continuous
 62
     7
100
AcDbCircle
 10
0.00014599675666
 20
-644.6189009572918
 30
0.0
 40
45.10463792494645
100
AcDbArc
 50
-21.36058054283797
 51
-9.28255443803536
  0
ARC
  5
52D
330
59
100
AcDbEntity
  8
0
  6
Continuous
 62
     7
100
AcDbCircle
 10
0.00014599675666
 20
-644.6189009572918
 30
0.0
 40
45.10463792494462
100
AcDbArc
 50
-6.36058054283768
 51
5.71744556196209
  0
ARC
  5
52E
330
59
100
AcDbEntity
  8
0
  6
Continuous
 62
     7
100
AcDbCircle
 10
0.00014599675666
 20
-644.6189009572918
 30
0.0
 40
45.10463792494667
100
AcDbArc
 50
-36.36058054283995
 51
-24.28255443803764
  0
ARC
  5
52F
330
59
100
AcDbEntity
  8
0
  6
Continuous
 62
     7
100
AcDbCircle
 10
0.00014599675666
 20
-644.6189009572918
 30
0.0
 40
73.89999999999696
100
AcDbArc
 50
-28.63353493039634
 51
-23.7132157459609
  0
ARC
  5
530
330
59
100
AcDbEntity
  8
0
  6
Continuous
 62
     7
100
AcDbCircle
 10
0.00014599675666
 20
-644.6189009572918
 30
0.0
 40
70.49999999999888
100
AcDbArc
 50
-36.88691403180528
 51
-23.7562209490664
  0
ARC
  5
531
330
59
100
AcDbEntity
  8
0
  6
Continuous
 62
     7
100
AcDbCircle
 10
0.00014599675666
 20
-644.6189009572918
 30
0.0
 40
73.8999999999992
100
AcDbArc
 50
-21.92991923491481
 51
-8.7132157459608
  0
ARC
  5
532
330
59
100
AcDbEntity
  8
0
  6
Continuous
 62
     7
100
AcDbCircle
 10
0.00014599675666
 20
-644.6189009572918
 30
0.0
 40
70.50000000000045
100
AcDbArc
 50
-21.8869140318038
 51
-8.75622094906608
  0
ARC
  5
533
330
59
100
AcDbEntity
  8
0
  6
Continuous
 62
     7
100
AcDbCircle
 10
0.00014599675666
 20
-644.6189009572918
 30
0.0
 40
45.10463792494824
100
AcDbArc
 50
83.63941945716283
 51
95.71744556196211
  0
ARC
  5
534
330
59
100
AcDbEntity
  8
0
  6
Continuous
 62
     7
100
AcDbCircle
 10
0.00014599675666
 20
-644.6189009572918
 30
0.0
 40
45.1046379249474
100
AcDbArc
 50
98.6394194571629
 51
110.7174455619639
  0
ARC
  5
535
330
59
100
AcDbEntity
  8
0
  6
Continuous
 62
     7
100
AcDbCircle
 10
0.00014599675666
 20
-644.6189009572918
 30
0.0
 40
45.1046379249496
100
AcDbArc
 50
53.63941945716279
 51
65.71744556196235
  0
ARC
  5
536
330
59
100
AcDbEntity
  8
0
  6
Continuous
 62
     7
100
AcDbCircle
 10
0.00014599675666
 20
-644.6189009572918
 30
0.0
 40
45.10463792494983
100
AcDbArc
 50
68.63941945716371
 51
80.71744556196464
  0
ARC
  5
537
330
59
100
AcDbEntity
  8
0
  6
Continuous
 62
     7
100
AcDbCircle
 10
0.00014599675666
 20
-644.6189009572918
 30
0.0
 40
45.10463792494739
100
AcDbArc
 50
8.63941945716291
 51
20.71744556196385
  0
ARC
  5
538
330
59
100
AcDbEntity
  8
0
  6
Continuous
 62
     7
100
AcDbCircle
 10
0.00014599675666
 20
-644.6189009572918
 30
0.0
 40
73.9000000000007
100
AcDbArc
 50
42.99031006067008
 51
51.28678425404065
  0
ARC
  5
539
330
59
100
AcDbEntity
  8
0
  6
Continuous
 62
     7
100
AcDbCircle
 10
0.00014599675666
 20
-644.6189009572918
 30
0.0
 40
70.49999999999979
100
AcDbArc
 50
158.1130859681896
 51
171.2437790509339
  0
ARC
  5
53A
330
59
100
AcDbEntity
  8
0
  6
Continuous
 62
     7
100
AcDbCircle
 10
0.00014599675666
 20
-644.6189009572918
 30
0.0
 40
73.90000000000055
100
AcDbArc
 50
158.0700807650826
 51
171.2867842540396
  0
ARC
  5
53B
330
59
100
AcDbEntity
  8
0
  6
Continuous
 62
     7
100
AcDbCircle
 10
0.00014599675666
 20
-644.6189009572918
 30
0.0
 40
73.9000000000019
100
AcDbArc
 50
151.3664650696025
 51
156.2867842540391
  0
ARC
  5
53C
330
59
100
AcDbEntity
  8
0
  6
Continuous
 62
     7
100
AcDbCircle
 10
0.00014599675666
 20
-644.6189009572918
 30
0.0
 40
73.9000000000018
100
AcDbArc
 50
143.0700807650843
 51
151.3664650696025
  0
ARC
  5
53D
330
59
100
AcDbEntity
  8
0
  6
Continuous
 62
     7
100
AcDbCircle
 10
0.00014599675666
 20
-644.6189009572918
 30
0.0
 40
70.50000000000107
100
AcDbArc
 50
143.1130859681924
 51
156.2437790509309
  0
ARC
  5
53E
330
59
100
AcDbEntity
  8
1
  6
Continuous
 62
     7
100
AcDbCircle
 10
87.30519083227006
 20
-609.7788500636925
 30
0.0
 40
4.500000000002563
100
AcDbArc
 50
-6.37937020843915
 51
6.37937020843915
  0
ARC
  5
53F
330
59
100
AcDbEntity
  8
1
  6
Continuous
 62
     7
100
AcDbCircle
 10
87.30519083227006
 20
-609.7788500636925
 30
0.0
 40
4.499999999998948
100
AcDbArc
 50
-96.3793702084443
 51
-83.62062979155571
  0
ARC
  5
540
330
59
100
AcDbEntity
  8
1
  6
Continuous
 62
     7
100
AcDbCircle
 10
87.30519083227006
 20
-609.7788500636925
 30
0.0
 40
4.499999999998948
100
AcDbArc
 50
173.6206297915557
 51
-173.6206297915557
  0
ARC
  5
541
330
59
100
AcDbEntity
  8
1
  6
Continuous
 62
     7
100
AcDbCircle
 10
87.30519083227006
 20
-609.7788500636925
 30
0.0
 40
4.499999999998948
100
AcDbArc
 50
83.62062979155571
 51
96.3793702084443
  0
ARC
  5
542
330
59
100
AcDbEntity
  8
1
  6
Continuous
 62
     7
100
AcDbCircle
 10
13.48029927151907
 20
-551.5904888043951
 30
0.0
 40
4.500000000001688
100
AcDbArc
 50
143.6206297915699
 51
156.379370208425
  0
ARC
  5
543
330
59
100
AcDbEntity
  8
1
  6
Continuous
 62
     7
100
AcDbCircle
 10
13.48029927151907
 20
-551.5904888043951
 30
0.0
 40
4.49999999999876
100
AcDbArc
 50
-126.3793702084576
 51
-113.6206297915936
  0
ARC
  5
544
330
59
100
AcDbEntity
  8
1
  6
Continuous
 62
     7
100
AcDbCircle
 10
13.48029927151907
 20
-551.5904888043951
 30
0.0
 40
4.499999999996604
100
AcDbArc
 50
-36.3793702084203
 51
-23.62062979155112
  0
ARC
  5
545
330
59
100
AcDbEntity
  8
1
  6
Continuous
 62
     7
100
AcDbCircle
 10
13.48029927151907
 20
-551.5904888043951
 30
0.0
 40
4.500000000001688
100
AcDbArc
 50
53.62062979156989
 51
66.37937020846745
  0
ARC
  5
546
330
59
100
AcDbEntity
  8
1
  6
Continuous
 62
     7
100
AcDbCircle
 10
-73.82474556399796
 20
-586.4305396979871
 30
0.0
 40
4.500000000001283
100
AcDbArc
 50
-156.3793702084674
 51
-143.6206297915699
  0
ARC
  5
547
330
59
100
AcDbEntity
  8
1
  6
Continuous
 62
     7
100
AcDbCircle
 10
-73.82474556399796
 20
-586.4305396979871
 30
0.0
 40
4.500000000001283
100
AcDbArc
 50
-66.37937020846744
 51
-53.62062979156987
  0
ARC
  5
548
330
59
100
AcDbEntity
  8
1
  6
Continuous
 62
     7
100
AcDbCircle
 10
-73.82474556399796
 20
-586.4305396979871
 30
0.0
 40
4.499999999997949
100
AcDbArc
 50
23.62062979155112
 51
36.37937020845761
  0
ARC
  5
549
330
59
100
AcDbEntity
  8
1
  6
Continuous
 62
     7
100
AcDbCircle
 10
-73.82474556399796
 20
-586.4305396979871
 30
0.0
 40
4.499999999999407
100
AcDbArc
 50
113.6206297915936
 51
126.3793702084576
  0
ARC
  5
54A
330
59
100
AcDbEntity
  8
1
  6
Continuous
 62
     7
100
AcDbCircle
 10
-87.30489883876402
 20
-679.4589518508801
 30
0.0
 40
4.500000000002563
100
AcDbArc
 50
-96.37937020843916
 51
-83.62062979156084
  0
ARC
  5
54B
330
59
100
AcDbEntity
  8
1
  6
Continuous
 62
     7
100
AcDbCircle
 10
-87.30489883876402
 20
-679.4589518508801
 30
0.0
 40
4.500000000002563
100
AcDbArc
 50
-6.37937020843915
 51
6.37937020843915
  0
ARC
  5
54C
330
59
100
AcDbEntity
  8
1
  6
Continuous
 62
     7
100
AcDbCircle
 10
-87.30489883876402
 20
-679.4589518508801
 30
0.0
 40
4.499999999998948
100
AcDbArc
 50
83.62062979155571
 51
96.3793702084443
  0
ARC
  5
54D
330
59
100
AcDbEntity
  8
1
  6
Continuous
 62
     7
100
AcDbCircle
 10
-87.30489883876402
 20
-679.4589518508801
 30
0.0
 40
4.499999999998948
100
AcDbArc
 50
173.6206297915557
 51
-173.6206297915557
  0
ARC
  5
54E
330
59
100
AcDbEntity
  8
1
  6
Continuous
 62
     7
100
AcDbCircle
 10
-13.4800072780094
 20
-737.6473131101811
 30
0.0
 40
4.499999999998763
100
AcDbArc
 50
-36.37937020845758
 51
-23.62062979159355
  0
ARC
  5
54F
330
59
100
AcDbEntity
  8
1
  6
Continuous
 62
     7
100
AcDbCircle
 10
-13.4800072780094
 20
-737.6473131101811
 30
0.0
 40
4.49999999999876
100
AcDbArc
 50
53.6206297915424
 51
66.37937020844879
  0
ARC
  5
550
330
59
100
AcDbEntity
  8
1
  6
Continuous
 62
     7
100
AcDbCircle
 10
-13.4800072780094
 20
-737.6473131101811
 30
0.0
 40
4.500000000001683
100
AcDbArc
 50
143.6206297915698
 51
156.3793702084674
  0
ARC
  5
551
330
59
100
AcDbEntity
  8
1
  6
Continuous
 62
     7
100
AcDbCircle
 10
-13.4800072780094
 20
-737.6473131101811
 30
0.0
 40
4.500000000001688
100
AcDbArc
 50
-126.3793702084301
 51
-113.620629791575
  0
ARC
  5
552
330
59
100
AcDbEntity
  8
1
  6
Continuous
 62
     7
100
AcDbCircle
 10
73.82503755750764
 20
-702.8072622165928
 30
0.0
 40
4.499999999999407
100
AcDbArc
 50
23.62062979159357
 51
36.37937020845761
  0
ARC
  5
553
330
59
100
AcDbEntity
  8
1
  6
Continuous
 62
     7
100
AcDbCircle
 10
73.82503755750764
 20
-702.8072622165928
 30
0.0
 40
4.500000000001283
100
AcDbArc
 50
113.6206297915326
 51
126.3793702084301
  0
ARC
  5
554
330
59
100
AcDbEntity
  8
1
  6
Continuous
 62
     7
100
AcDbCircle
 10
73.82503755750764
 20
-702.8072622165928
 30
0.0
 40
4.500000000001283
100
AcDbArc
 50
-156.3793702084674
 51
-143.6206297916072
  0
ARC
  5
555
330
59
100
AcDbEntity
  8
1
  6
Continuous
 62
     7
100
AcDbCircle
 10
73.82503755750764
 20
-702.8072622165928
 30
0.0
 40
4.499999999997949
100
AcDbArc
 50
-66.37937020844888
 51
-53.6206297915424
  0
CIRCLE
  5
556
330
59
100
AcDbEntity
  8
0
  6
Continuous
 62
     7
100
AcDbCircle
 10
87.30519083227006
 20
-609.7788500636852
 30
0.0
 40
6.899999999996075
  0
CIRCLE
  5
557
330
59
100
AcDbEntity
  8
1
  6
Continuous
 62
     7
100
AcDbCircle
 10
87.30519083227006
 20
-609.7788500636925
 30
0.0
 40
5.5
  0
CIRCLE
  5
558
330
59
100
AcDbEntity
  8
1
  6
Continuous
 62
     7
100
AcDbCircle
 10
13.48029927151907
 20
-551.5904888043951
 30
0.0
 40
5.500000000002223
  0
CIRCLE
  5
559
330
59
100
AcDbEntity
  8
0
  6
Continuous
 62
     7
100
AcDbCircle
 10
13.4802992715118
 20
-551.5904888043879
 30
0.0
 40
6.899999999995895
  0
CIRCLE
  5
55A
330
59
100
AcDbEntity
  8
1
  6
Continuous
 62
     7
100
AcDbCircle
 10
-73.82474556399796
 20
-586.4305396979871
 30
0.0
 40
5.499999999999073
  0
CIRCLE
  5
55B
330
59
100
AcDbEntity
  8
0
  6
Continuous
 62
     7
100
AcDbCircle
 10
-73.82474556400524
 20
-586.4305396979908
 30
0.0
 40
6.899999999995087
  0
CIRCLE
  5
55C
330
59
100
AcDbEntity
  8
1
  6
Continuous
 62
     7
100
AcDbCircle
 10
-87.30489883876402
 20
-679.4589518508801
 30
0.0
 40
5.5
  0
CIRCLE
  5
55D
330
59
100
AcDbEntity
  8
0
  6
Continuous
 62
     7
100
AcDbCircle
 10
-87.30489883876402
 20
-679.4589518508874
 30
0.0
 40
6.899999999996075
  0
CIRCLE
  5
55E
330
59
100
AcDbEntity
  8
1
  6
Continuous
 62
     7
100
AcDbCircle
 10
-13.4800072780094
 20
-737.6473131101811
 30
0.0
 40
5.500000000002224
  0
CIRCLE
  5
55F
330
59
100
AcDbEntity
  8
0
  6
Continuous
 62
     7
100
AcDbCircle
 10
-13.48000727800576
 20
-737.6473131101848
 30
0.0
 40
6.899999999995373
  0
CIRCLE
  5
560
330
59
100
AcDbEntity
  8
1
  6
Continuous
 62
     7
100
AcDbCircle
 10
73.82503755750764
 20
-702.8072622165928
 30
0.0
 40
5.499999999999073
  0
CIRCLE
  5
561
330
59
100
AcDbEntity
  8
0
  6
Continuous
 62
     7
100
AcDbCircle
 10
73.82503755751492
 20
-702.8072622165855
 30
0.0
 40
6.899999999997339
  0
CIRCLE
  5
562
330
59
100
AcDbEntity
  8
1
  6
Continuous
 62
     7
100
AcDbCircle
 10
0.00014599675302
 20
-644.6189009572881
 30
0.0
 40
177.0
  0
ENDBLK
  5
5B
330
59
100
AcDbEntity
  8
0
100
AcDbBlockEnd
  0
BLOCK
  5
56C
330
563
100
AcDbEntity
  8
0
100
AcDbBlockBegin
  2
*D6
 70
     1
 71
     0
 10
0.0
 20
0.0
 30
0.0
  3
*D6
  1

  0
LINE
  5
564
330
563
100
AcDbEntity
  8
1
  6
Continuous
 62
     4
100
AcDbLine
 10
-122.0384735602476
 20
-79.2111884103648
 30
0.0
 11
-62.50019614619348
 21
-79.21110664119877
 31
0.0
  0
LINE
  5
565
330
563
100
AcDbEntity
  8
1
  6
Continuous
 62
     4
100
AcDbLine
 10
-62.50019614619348
 20
-79.21110664119877
 30
0.0
 11
62.49980385357087
 21
-79.21093496767716
 31
0.0
  0
LINE
  5
566
330
563
100
AcDbEntity
  8
1
  6
Continuous
 62
     4
100
AcDbLine
 10
62.49975966666516
 20
-47.03728839365091
 30
0.0
 11
62.49980660034716
 21
-81.21093496767529
 31
0.0
  0
LINE
  5
567
330
563
100
AcDbEntity
  8
1
  6
Continuous
 62
     4
100
AcDbLine
 10
-62.50024033333495
 20
-47.03728839365091
 30
0.0
 11
-62.50019339941714
 21
-81.21110664119688
 31
0.0
  0
SOLID
  5
568
330
563
100
AcDbEntity
  8
1
 62
     4
100
AcDbTrace
 10
-48.50019867754645
 20
-77.36795244754255
 30
0.0
 11
-48.50019361486692
 21
-81.05422237998614
 31
0.0
 12
-62.50019614619348
 22
-79.21110664119877
 32
0.0
 13
-62.50019614619348
 23
-79.21110664119877
 33
0.0
  0
SOLID
  5
569
330
563
100
AcDbEntity
  8
1
 62
     4
100
AcDbTrace
 10
48.49980638492384
 20
-81.05408916133338
 30
0.0
 11
48.49980132224431
 21
-77.36781922888979
 31
0.0
 12
62.49980385357087
 22
-79.21093496767716
 32
0.0
 13
62.49980385357087
 23
-79.21093496767716
 33
0.0
  0
MTEXT
  5
56B
330
563
100
AcDbEntity
  8
1
 62
     1
100
AcDbMText
 10
-128.1984763069723
 20
-77.21122099405596
 30
0.0
 40
14.0
 41
0.0
 71
     7
 72
     1
  1
\C1;\U+00d8\C1;125
  7
CONVERTER_11
 11
0.9999999999970619
 21
2.424068405545306E-6
 31
0.0
 73
     1
 44
0.60024009603842
  0
ENDBLK
  5
56D
330
563
100
AcDbEntity
  8
0
100
AcDbBlockEnd
  0
BLOCK
  5
577
330
570
100
AcDbEntity
  8
0
100
AcDbBlockBegin
  2
*D7
 70
     1
 71
     0
 10
0.0
 20
0.0
 30
0.0
  3
*D7
  1

  0
LINE
  5
571
330
570
100
AcDbEntity
  8
1
  6
Continuous
 62
     4
100
AcDbLine
 10
-37.4998207775901
 20
-424.1245422640671
 30
0.0
 11
37.50017922226833
 21
-424.1244392599542
 31
0.0
  0
LINE
  5
572
330
570
100
AcDbEntity
  8
1
  6
Continuous
 62
     4
100
AcDbLine
 10
37.50013856326701
 20
-394.5195524876832
 30
0.0
 11
37.50018196904467
 21
-426.1244392599523
 31
0.0
  0
LINE
  5
573
330
570
100
AcDbEntity
  8
1
  6
Continuous
 62
     4
100
AcDbLine
 10
-37.49986143673295
 20
-394.5195524876832
 30
0.0
 11
-37.49981803081375
 21
-426.1245422640653
 31
0.0
  0
SOLID
  5
574
330
570
100
AcDbEntity
  8
1
 62
     4
100
AcDbTrace
 10
-23.49982330894304
 20
-422.2813880704111
 30
0.0
 11
-23.49981824626357
 21
-425.9676580028547
 31
0.0
 12
-37.4998207775901
 22
-424.1245422640671
 32
0.0
 13
-37.4998207775901
 23
-424.1245422640671
 33
0.0
  0
SOLID
  5
575
330
570
100
AcDbEntity
  8
1
 62
     4
100
AcDbTrace
 10
23.50018175362127
 20
-425.9675934536102
 30
0.0
 11
23.5001766909418
 21
-422.2813235211666
 31
0.0
 12
37.50017922226833
 22
-424.1244392599542
 32
0.0
 13
37.50017922226833
 23
-424.1244392599542
 33
0.0
  0
MTEXT
  5
576
330
570
100
AcDbEntity
  8
1
 62
     1
100
AcDbMText
 10
-16.4992537155939
 20
-422.124537545753
 30
0.0
 40
14.0
 41
0.0
 71
     7
 72
     1
  1
\C1;DN\C1;75
  7
CONVERTER_11
 11
0.9999999999970619
 21
2.424068405545306E-6
 31
0.0
 73
     1
 44
0.60024009603842
  0
ENDBLK
  5
578
330
570
100
AcDbEntity
  8
0
100
AcDbBlockEnd
  0
BLOCK
  5
582
330
57B
100
AcDbEntity
  8
0
100
AcDbBlockBegin
  2
*D8
 70
     1
 71
     0
 10
0.0
 20
0.0
 30
0.0
  3
*D8
  1

  0
LINE
  5
57C
330
57B
100
AcDbEntity
  8
1
  6
Continuous
 62
     4
100
AcDbLine
 10
185.0000712634896
 20
-348.0860813936509
 30
0.0
 11
185.0000712634896
 21
2.0
 31
0.0
  0
LINE
  5
57D
330
57B
100
AcDbEntity
  8
1
  6
Continuous
 62
     4
100
AcDbLine
 10
175.0000712634896
 20
2.0
 30
0.0
 11
187.0000712634896
 21
2.0
 31
0.0
  0
LINE
  5
57E
330
57B
100
AcDbEntity
  8
1
  6
Continuous
 62
     4
100
AcDbLine
 10
24.99975966666508
 20
-348.0860813936509
 30
0.0
 11
187.0000712634896
 21
-348.0860813936509
 31
0.0
  0
SOLID
  5
57F
330
57B
100
AcDbEntity
  8
1
 62
     4
100
AcDbTrace
 10
183.4202412924408
 20
-336.0860813936509
 30
0.0
 11
186.5799012345383
 21
-336.0860813936509
 31
0.0
 12
185.0000712634896
 22
-348.0860813936509
 32
0.0
 13
185.0000712634896
 23
-348.0860813936509
 33
0.0
  0
SOLID
  5
580
330
57B
100
AcDbEntity
  8
1
 62
     4
100
AcDbTrace
 10
186.5799012345383
 20
-10.0
 30
0.0
 11
183.4202412924408
 21
-10.0
 31
0.0
 12
185.0000712634896
 22
2.0
 32
0.0
 13
185.0000712634896
 23
2.0
 33
0.0
  0
MTEXT
  5
581
330
57B
100
AcDbEntity
  8
1
 62
     1
100
AcDbMText
 10
183.0000712634896
 20
-179.376781036562
 30
0.0
 40
12.0
 41
0.0
 71
     7
 72
     1
  1
350
  7
CONVERTER_11
 11
0.0
 21
1.0
 31
0.0
 73
     1
 44
0.60024009603842
  0
ENDBLK
  5
583
330
57B
100
AcDbEntity
  8
0
100
AcDbBlockEnd
  0
BLOCK
  5
58D
330
586
100
AcDbEntity
  8
0
100
AcDbBlockBegin
  2
*D9
 70
     1
 71
     0
 10
0.0
 20
0.0
 30
0.0
  3
*D9
  1

  0
LINE
  5
587
330
586
100
AcDbEntity
  8
1
  6
Continuous
 62
     4
100
AcDbLine
 10
-176.999597
 20
94.1797379754155
 30
0.0
 11
176.9989335269793
 21
94.1797379754155
 31
0.0
  0
LINE
  5
588
330
586
100
AcDbEntity
  8
1
  6
Continuous
 62
     4
100
AcDbLine
 10
176.9989335269793
 20
-5.0860813936508
 30
0.0
 11
176.9989335269793
 21
96.1797379754155
 31
0.0
  0
LINE
  5
589
330
586
100
AcDbEntity
  8
1
  6
Continuous
 62
     4
100
AcDbLine
 10
-176.999597
 20
-5.0860813936508
 30
0.0
 11
-176.999597
 21
96.1797379754155
 31
0.0
  0
SOLID
  5
58A
330
586
100
AcDbEntity
  8
1
 62
     4
100
AcDbTrace
 10
-164.999597
 20
95.75956794646426
 30
0.0
 11
-164.999597
 21
92.59990800436675
 31
0.0
 12
-176.999597
 22
94.1797379754155
 32
0.0
 13
-176.999597
 23
94.1797379754155
 33
0.0
  0
SOLID
  5
58B
330
586
100
AcDbEntity
  8
1
 62
     4
100
AcDbTrace
 10
164.9989335269793
 20
92.59990800436675
 30
0.0
 11
164.9989335269793
 21
95.75956794646426
 31
0.0
 12
176.9989335269793
 22
94.1797379754155
 32
0.0
 13
176.9989335269793
 23
94.1797379754155
 33
0.0
  0
MTEXT
  5
58C
330
586
100
AcDbEntity
  8
1
 62
     1
100
AcDbMText
 10
-24.342458230369
 20
96.17969026974929
 30
0.0
 40
12.0
 41
0.0
 71
     7
 72
     1
  1
\C1;\U+00d8\C1;354
  7
CONVERTER_11
 11
0.9999999999970619
 21
2.424068405545306E-6
 31
0.0
 73
     1
 44
0.60024009603842
  0
ENDBLK
  5
58E
330
586
100
AcDbEntity
  8
0
100
AcDbBlockEnd
  0
BLOCK
  5
598
330
591
100
AcDbEntity
  8
0
100
AcDbBlockBegin
  2
*D10
 70
     1
 71
     0
 10
0.0
 20
0.0
 30
0.0
  3
*D10
  1

  0
LINE
  5
592
330
591
100
AcDbEntity
  8
1
  6
Continuous
 62
     4
100
AcDbLine
 10
74.88023912911399
 20
-348.0860813936509
 30
0.0
 11
74.88023912911399
 21
-112.0859333936509
 31
0.0
  0
LINE
  5
593
330
591
100
AcDbEntity
  8
1
  6
Continuous
 62
     4
100
AcDbLine
 10
34.50046366666493
 20
-112.0859333936509
 30
0.0
 11
76.88023912911399
 21
-112.0859333936509
 31
0.0
  0
LINE
  5
594
330
591
100
AcDbEntity
  8
1
  6
Continuous
 62
     4
100
AcDbLine
 10
26.79398766666509
 20
-348.0860813936509
 30
0.0
 11
76.88023912911399
 21
-348.0860813936509
 31
0.0
  0
SOLID
  5
595
330
591
100
AcDbEntity
  8
1
 62
     4
100
AcDbTrace
 10
73.03710416289044
 20
-334.0860813936509
 30
0.0
 11
76.72337409533753
 21
-334.0860813936509
 31
0.0
 12
74.88023912911399
 22
-348.0860813936509
 32
0.0
 13
74.88023912911399
 23
-348.0860813936509
 33
0.0
  0
SOLID
  5
596
330
591
100
AcDbEntity
  8
1
 62
     4
100
AcDbTrace
 10
76.72337409533752
 20
-126.0859333936509
 30
0.0
 11
73.03710416289044
 21
-126.0859333936509
 31
0.0
 12
74.88023912911399
 22
-112.0859333936509
 32
0.0
 13
74.88023912911399
 23
-112.0859333936509
 33
0.0
  0
MTEXT
  5
597
330
591
100
AcDbEntity
  8
1
 62
     1
100
AcDbMText
 10
72.88023912911399
 20
-236.5539999010919
 30
0.0
 40
14.0
 41
0.0
 71
     7
 72
     1
  1
236
  7
CONVERTER_11
 11
0.0
 21
1.0
 31
0.0
 73
     1
 44
0.60024009603842
  0
ENDBLK
  5
599
330
591
100
AcDbEntity
  8
0
100
AcDbBlockEnd
  0
BLOCK
  5
5A3
330
59C
100
AcDbEntity
  8
0
100
AcDbBlockBegin
  2
*D11
 70
     1
 71
     0
 10
0.0
 20
0.0
 30
0.0
  3
*D11
  1

  0
LINE
  5
59D
330
59C
100
AcDbEntity
  8
1
  6
Continuous
 62
     4
100
AcDbLine
 10
127.8398348766361
 20
-348.0860813936509
 30
0.0
 11
127.8398348766361
 21
-47.0372883936509
 31
0.0
  0
LINE
  5
59E
330
59C
100
AcDbEntity
  8
1
  6
Continuous
 62
     4
100
AcDbLine
 10
80.74975966666508
 20
-47.0372883936509
 30
0.0
 11
129.8398348766361
 21
-47.0372883936509
 31
0.0
  0
LINE
  5
59F
330
59C
100
AcDbEntity
  8
1
  6
Continuous
 62
     4
100
AcDbLine
 10
26.79398766666517
 20
-348.0860813936509
 30
0.0
 11
129.8398348766361
 21
-348.0860813936509
 31
0.0
  0
SOLID
  5
5A0
330
59C
100
AcDbEntity
  8
1
 62
     4
100
AcDbTrace
 10
125.9966999104126
 20
-334.0860813936509
 30
0.0
 11
129.6829698428596
 21
-334.0860813936509
 31
0.0
 12
127.8398348766361
 22
-348.0860813936509
 32
0.0
 13
127.8398348766361
 23
-348.0860813936509
 33
0.0
  0
SOLID
  5
5A1
330
59C
100
AcDbEntity
  8
1
 62
     4
100
AcDbTrace
 10
129.6829698428596
 20
-61.0372883936509
 30
0.0
 11
125.9966999104126
 21
-61.0372883936509
 31
0.0
 12
127.8398348766361
 22
-47.0372883936509
 32
0.0
 13
127.8398348766361
 23
-47.0372883936509
 33
0.0
  0
MTEXT
  5
5A2
330
59C
100
AcDbEntity
  8
1
 62
     1
100
AcDbMText
 10
125.8398348766361
 20
-213.550161602084
 30
0.0
 40
14.0
 41
0.0
 71
     7
 72
     1
  1
301
  7
CONVERTER_11
 11
0.0
 21
1.0
 31
0.0
 73
     1
 44
0.60024009603842
  0
ENDBLK
  5
5A4
330
59C
100
AcDbEntity
  8
0
100
AcDbBlockEnd
  0
ENDSEC
  0
SECTION
  2
ENTITIES
  0
INSERT
  5
5C
330
1F
100
AcDbEntity
  8
0
100
AcDbBlockReference
  2
Bauschutz_062_9E
 10
-646.5970363333327
 20
-315.9290623230518
 30
0.0
  0
INSERT
  5
5D
330
1F
100
AcDbEntity
  8
1
100
AcDbBlockReference
  2
PVC_Manschette
 10
-177.0007347365104
 20
-26.0
 30
0.0
  0
INSERT
  5
5E
330
1F
100
AcDbEntity
  8
0
100
AcDbBlockReference
  2
HL_69H_1
 10
-1381.992216652097
 20
119.7781705000002
 30
0.0
  0
INSERT
  5
5F
330
1F
100
AcDbEntity
  8
1
100
AcDbBlockReference
  2
062_1E_Laubfangkorb
 10
-867.5839218886072
 20
654.5262580000001
 30
0.0
  0
INSERT
  5
60
330
1F
100
AcDbEntity
  8
0
100
AcDbBlockReference
  2
Draufsicht
 10
-186.1495523286798
 20
-896.6189009572881
 30
0.0
  0
DIMENSION
  5
56F
330
1F
100
AcDbEntity
  8
1
100
AcDbDimension
  2
*D6
 10
-62.50019614619348
 20
-79.21110664119877
 30
0.0
 11
-98.93848592076294
 21
-70.21115668510649
 31
0.0
 70
    32
  1
<>
 71
     5
 42
-1.0
 53
0.00013888888889
  3
ME10_DIM_10
100
AcDbAlignedDimension
 13
62.49975966666511
 23
-47.0372883936509
 33
0.0
 14
-62.50024033333494
 24
-47.0372883936509
 34
0.0
 50
0.00007868934594
100
AcDbRotatedDimension
  0
DIMENSION
  5
57A
330
1F
100
AcDbEntity
  8
1
100
AcDbDimension
  2
*D7
 10
-37.4998207775901
 20
-424.1245422640671
 30
0.0
 11
1.56073667062605
 21
-415.124488618751
 31
0.0
 70
    32
  1
<>
 71
     5
 42
-1.0
 53
0.00013888888889
  3
ME10_DIM_11
100
AcDbAlignedDimension
 13
37.500138563267
 23
-394.5195524876829
 33
0.0
 14
-37.49986143673294
 24
-394.5195524876829
 34
0.0
 50
0.00007868934594
100
AcDbRotatedDimension
  0
DIMENSION
  5
585
330
1F
100
AcDbEntity
  8
1
100
AcDbDimension
  2
*D8
 10
185.0000712634896
 20
-348.0860813936509
 30
0.0
 11
177.0000712634896
 21
-164.976781036562
 31
0.0
 70
    32
  1
<>
 71
     5
 42
-1.0
 53
-90.0
  3
ME10_DIM_12
100
AcDbAlignedDimension
 13
175.0000712634896
 23
2.0
 33
0.0
 14
24.99975966666511
 24
-348.0860813936509
 34
0.0
 50
-90.0
100
AcDbRotatedDimension
  0
DIMENSION
  5
590
330
1F
100
AcDbEntity
  8
1
100
AcDbDimension
  2
*D9
 10
-176.999597
 20
94.1797379754155
 30
0.0
 11
2.53754176957318
 21
102.1797379754155
 31
0.0
 70
    32
  1
<>
 71
     5
 42
-1.0
 53
0.00013888888889
  3
ME10_DIM_13
100
AcDbAlignedDimension
 13
176.9989335269793
 23
-5.08608139365078
 33
0.0
 14
-176.999597
 24
-5.08608139365078
 34
0.0
100
AcDbRotatedDimension
  0
DIMENSION
  5
59B
330
1F
100
AcDbEntity
  8
1
100
AcDbDimension
  2
*D10
 10
74.88023912911399
 20
-348.0860813936509
 30
0.0
 11
65.88023912911399
 21
-219.7539999010919
 31
0.0
 70
    32
  1
<>
 71
     5
 42
-1.0
 53
90.00000000000003
  3
ME10_DIM_14
100
AcDbAlignedDimension
 13
34.50046366666493
 23
-112.0859333936509
 33
0.0
 14
26.79398766666509
 24
-348.0860813936509
 34
0.0
 50
90.00000000000003
100
AcDbRotatedDimension
  0
DIMENSION
  5
5A6
330
1F
100
AcDbEntity
  8
1
100
AcDbDimension
  2
*D11
 10
127.8398348766361
 20
-348.0860813936509
 30
0.0
 11
118.8398348766361
 21
-198.850161602084
 31
0.0
 70
    32
  1
301
 71
     5
 42
-1.0
 53
90.00000000000003
  3
ME10_DIM_15
100
AcDbAlignedDimension
 13
80.74975966666511
 23
-47.0372883936509
 33
0.0
 14
26.79398766666509
 24
-348.0860813936509
 34
0.0
 50
90.00000000000003
100
AcDbRotatedDimension
  0
ENDSEC
  0
SECTION
  2
OBJECTS
  0
DICTIONARY
  5
C
330
0
100
AcDbDictionary
281
     1
  3
ACAD_GROUP
350
D
  3
ACAD_LAYOUT
350
1A
  3
ACAD_MLINESTYLE
350
17
  3
ACAD_PLOTSETTINGS
350
19
  3
ACAD_PLOTSTYLENAME
350
E
  3
ACAD_TABLESTYLE
350
5A7
  3
ACAD_VISUALSTYLE
350
2A
  0
DICTIONARY
  5
D
102
{ACAD_REACTORS
330
C
102
}
330
C
100
AcDbDictionary
281
     1
  0
DICTIONARY
  5
1A
102
{ACAD_REACTORS
330
C
102
}
330
C
100
AcDbDictionary
281
     1
  3
Layout1
350
1E
  3
Layout2
350
26
  3
Model
350
22
  0
DICTIONARY
  5
17
102
{ACAD_REACTORS
330
C
102
}
330
C
100
AcDbDictionary
281
     1
  3
Standard
350
18
  0
DICTIONARY
  5
19
102
{ACAD_REACTORS
330
C
102
}
330
C
100
AcDbDictionary
281
     1
  0
ACDBDICTIONARYWDFLT
  5
E
102
{ACAD_REACTORS
330
C
102
}
330
C
100
AcDbDictionary
281
     1
  3
Normal
350
F
100
AcDbDictionaryWithDefault
340
F
  0
DICTIONARY
  5
5A7
102
{ACAD_REACTORS
330
C
102
}
330
C
100
AcDbDictionary
281
     1
  0
DICTIONARY
  5
2A
102
{ACAD_REACTORS
330
C
102
}
330
C
100
AcDbDictionary
281
     1
  3
2dWireframe
350
2F
  3
3D Hidden
350
31
  3
3dWireframe
350
30
  3
Basic
350
32
  3
Brighten
350
36
  3
ColorChange
350
3A
  3
Conceptual
350
34
  3
Dim
350
35
  3
Facepattern
350
39
  3
Flat
350
2B
  3
FlatWithEdges
350
2C
  3
Gouraud
350
2D
  3
GouraudWithEdges
350
2E
  3
Linepattern
350
38
  3
Realistic
350
33
  3
Thicken
350
37
  0
LAYOUT
  5
1E
102
{ACAD_REACTORS
330
1A
102
}
330
1A
100
AcDbPlotSettings
  1

  2
none_device
  4

  6

 40
0.0
 41
0.0
 42
0.0
 43
0.0
 44
0.0
 45
0.0
 46
0.0
 47
0.0
 48
0.0
 49
0.0
140
0.0
141
0.0
142
1.0
143
1.0
 70
   688
 72
     0
 73
     0
 74
     5
  7

 75
    16
147
1.0
148
0.0
149
0.0
100
AcDbLayout
  1
Layout1
 70
     1
 71
     1
 10
0.0
 20
0.0
 11
12.0
 21
9.0
 12
0.0
 22
0.0
 32
0.0
 14
1.00000000000000E+20
 24
1.00000000000000E+20
 34
1.00000000000000E+20
 15
-1.00000000000000E+20
 25
-1.00000000000000E+20
 35
-1.00000000000000E+20
146
0.0
 13
0.0
 23
0.0
 33
0.0
 16
1.0
 26
0.0
 36
0.0
 17
0.0
 27
1.0
 37
0.0
 76
     0
330
1B
  0
LAYOUT
  5
26
102
{ACAD_REACTORS
330
1A
102
}
330
1A
100
AcDbPlotSettings
  1

  2
none_device
  4

  6

 40
0.0
 41
0.0
 42
0.0
 43
0.0
 44
0.0
 45
0.0
 46
0.0
 47
0.0
 48
0.0
 49
0.0
140
0.0
141
0.0
142
1.0
143
1.0
 70
   688
 72
     0
 73
     0
 74
     5
  7

 75
    16
147
1.0
148
0.0
149
0.0
100
AcDbLayout
  1
Layout2
 70
     1
 71
     2
 10
0.0
 20
0.0
 11
0.0
 21
0.0
 12
0.0
 22
0.0
 32
0.0
 14
0.0
 24
0.0
 34
0.0
 15
0.0
 25
0.0
 35
0.0
146
0.0
 13
0.0
 23
0.0
 33
0.0
 16
1.0
 26
0.0
 36
0.0
 17
0.0
 27
1.0
 37
0.0
 76
     0
330
23
  0
LAYOUT
  5
22
102
{ACAD_REACTORS
330
1A
102
}
330
1A
100
AcDbPlotSettings
  1

  2
none_device
  4

  6

 40
0.0
 41
0.0
 42
0.0
 43
0.0
 44
0.0
 45
0.0
 46
0.0
 47
0.0
 48
0.0
 49
0.0
140
0.0
141
0.0
142
1.0
143
1.0
 70
  1712
 72
     0
 73
     0
 74
     0
  7

 75
     0
147
1.0
148
0.0
149
0.0
100
AcDbLayout
  1
Model
 70
     1
 71
     0
 10
0.0
 20
0.0
 11
12.0
 21
9.0
 12
0.0
 22
0.0
 32
0.0
 14
-177.0007347365104
 24
-821.6189009572881
 34
0.0
 15
187.0000712634896
 25
159.0652007515746
 35
0.0
146
0.0
 13
0.0
 23
0.0
 33
0.0
 16
1.0
 26
0.0
 36
0.0
 17
0.0
 27
1.0
 37
0.0
 76
     0
330
1F
331
29
  0
MLINESTYLE
  5
18
102
{ACAD_REACTORS
330
17
102
}
330
17
100
AcDbMlineStyle
  2
Standard
 70
     0
  3

 62
   256
 51
90.0
 52
90.0
 71
     2
 49
0.5
 62
   256
  6
BYLAYER
 49
-0.5
 62
   256
  6
BYLAYER
  0
ACDBPLACEHOLDER
  5
F
102
{ACAD_REACTORS
330
E
102
}
330
E
  0
VISUALSTYLE
  5
2F
102
{ACAD_REACTORS
330
2A
102
}
330
2A
100
AcDbVisualStyle
  2
2dWireframe
 70
     4
 71
     0
 72
     2
 73
     0
 90
        0
 40
-0.6
 41
-30.0
 62
     5
 63
     7
 74
     1
 91
        4
 64
     7
 65
   257
 75
     1
175
     1
 42
1.0
 92
        0
 66
   257
 43
1.0
 76
     1
 77
     6
 78
     2
 67
     7
 79
     5
170
     0
171
     0
290
     0
174
     0
 93
        1
 44
0.0
173
     0
291
     0
 45
0.0
1001
ACAD
1000
AcDbSavedByObjectVersion
1070
     0
  0
VISUALSTYLE
  5
31
102
{ACAD_REACTORS
330
2A
102
}
330
2A
100
AcDbVisualStyle
  2
3D Hidden
 70
     6
 71
     1
 72
     2
 73
     2
 90
        0
 40
-0.6
 41
-30.0
 62
     5
 63
     7
 74
     2
 91
        2
 64
     7
 65
   257
 75
     2
175
     1
 42
40.0
 92
        0
 66
   257
 43
1.0
 76
     1
 77
     6
 78
     2
 67
     7
 79
     3
170
     0
171
     0
290
     0
174
     0
 93
        1
 44
0.0
173
     0
291
     0
 45
0.0
1001
ACAD
1000
AcDbSavedByObjectVersion
1070
     0
  0
VISUALSTYLE
  5
30
102
{ACAD_REACTORS
330
2A
102
}
330
2A
100
AcDbVisualStyle
  2
3dWireframe
 70
     5
 71
     0
 72
     2
 73
     0
 90
        0
 40
-0.6
 41
-30.0
 62
     5
 63
     7
 74
     1
 91
        4
 64
     7
 65
   257
 75
     1
175
     1
 42
1.0
 92
        0
 66
   257
 43
1.0
 76
     1
 77
     6
 78
     2
 67
     7
 79
     5
170
     0
171
     0
290
     0
174
     0
 93
        1
 44
0.0
173
     0
291
     0
 45
0.0
1001
ACAD
1000
AcDbSavedByObjectVersion
1070
     0
  0
VISUALSTYLE
  5
32
102
{ACAD_REACTORS
330
2A
102
}
330
2A
100
AcDbVisualStyle
  2
Basic
 70
     7
 71
     1
 72
     0
 73
     1
 90
        0
 40
-0.6
 41
-30.0
 62
     5
 63
     7
 74
     0
 91
        4
 64
     7
 65
   257
 75
     1
175
     1
 42
1.0
 92
        8
 66
     7
 43
1.0
 76
     1
 77
     6
 78
     2
 67
     7
 79
     5
170
     0
171
     0
290
     0
174
     0
 93
        1
 44
0.0
173
     0
291
     1
 45
0.0
1001
ACAD
1000
AcDbSavedByObjectVersion
1070
     0
  0
VISUALSTYLE
  5
36
102
{ACAD_REACTORS
330
2A
102
}
330
2A
100
AcDbVisualStyle
  2
Brighten
 70
    12
 71
     2
 72
     2
 73
     0
 90
        0
 40
-0.6
 41
-30.0
 62
     5
 63
     7
 74
     1
 91
        4
 64
     7
 65
   257
 75
     1
175
     1
 42
1.0
 92
        8
 66
     7
 43
1.0
 76
     1
 77
     6
 78
     2
 67
     7
 79
     5
170
     0
171
     0
290
     0
174
     0
 93
        1
 44
50.0
173
     0
291
     1
 45
0.0
1001
ACAD
1000
AcDbSavedByObjectVersion
1070
     0
  0
VISUALSTYLE
  5
3A
102
{ACAD_REACTORS
330
2A
102
}
330
2A
100
AcDbVisualStyle
  2
ColorChange
 70
    16
 71
     2
 72
     2
 73
     3
 90
        0
 40
-0.6
 41
-30.0
 62
     5
 63
     8
 74
     1
 91
        4
 64
     7
 65
   257
 75
     1
175
     1
 42
1.0
 92
        8
 66
     8
 43
1.0
 76
     1
 77
     6
 78
     2
 67
     7
 79
     5
170
     0
171
     0
290
     0
174
     0
 93
        1
 44
0.0
173
     0
291
     1
 45
0.0
1001
ACAD
1000
AcDbSavedByObjectVersion
1070
     0
  0
VISUALSTYLE
  5
34
102
{ACAD_REACTORS
330
2A
102
}
330
2A
100
AcDbVisualStyle
  2
Conceptual
 70
     9
 71
     3
 72
     2
 73
     0
 90
        0
 40
-0.6
 41
-30.0
 62
     5
 63
     7
 74
     2
 91
        2
 64
     7
 65
   257
 75
     1
175
     1
 42
40.0
 92
        8
 66
     7
 43
1.0
 76
     1
 77
     6
 78
     2
 67
     7
 79
     3
170
     0
171
     0
290
     0
174
     0
 93
        1
 44
0.0
173
     0
291
     0
 45
0.0
1001
ACAD
1000
AcDbSavedByObjectVersion
1070
     0
  0
VISUALSTYLE
  5
35
102
{ACAD_REACTORS
330
2A
102
}
330
2A
100
AcDbVisualStyle
  2
Dim
 70
    11
 71
     2
 72
     2
 73
     0
 90
        0
 40
-0.6
 41
-30.0
 62
     5
 63
     7
 74
     1
 91
        4
 64
     7
 65
   257
 75
     1
175
     1
 42
1.0
 92
        8
 66
     7
 43
1.0
 76
     1
 77
     6
 78
     2
 67
     7
 79
     5
170
     0
171
     0
290
     0
174
     0
 93
        1
 44
-50.0
173
     0
291
     1
 45
0.0
1001
ACAD
1000
AcDbSavedByObjectVersion
1070
     0
  0
VISUALSTYLE
  5
39
102
{ACAD_REACTORS
330
2A
102
}
330
2A
100
AcDbVisualStyle
  2
Facepattern
 70
    15
 71
     2
 72
     2
 73
     0
 90
        0
 40
-0.6
 41
-30.0
 62
     5
 63
     7
 74
     1
 91
        4
 64
     7
 65
   257
 75
     1
175
     1
 42
1.0
 92
        8
 66
     7
 43
1.0
 76
     1
 77
     6
 78
     2
 67
     7
 79
     5
170
     0
171
     0
290
     0
174
     0
 93
        1
 44
0.0
173
     0
291
     1
 45
0.0
1001
ACAD
1000
AcDbSavedByObjectVersion
1070
     0
  0
VISUALSTYLE
  5
2B
102
{ACAD_REACTORS
330
2A
102
}
330
2A
100
AcDbVisualStyle
  2
Flat
 70
     0
 71
     2
 72
     1
 73
     1
 90
        2
 40
-0.6
 41
30.0
 62
     5
 63
     7
 74
     0
 91
        4
 64
     7
 65
   257
 75
     1
175
     1
 42
1.0
 92
        8
 66
     7
 43
1.0
 76
     1
 77
     6
 78
     2
 67
     7
 79
     5
170
     0
171
     0
290
     0
174
     0
 93
       13
 44
0.0
173
     0
291
     1
 45
0.0
1001
ACAD
1000
AcDbSavedByObjectVersion
1070
     0
  0
VISUALSTYLE
  5
2C
102
{ACAD_REACTORS
330
2A
102
}
330
2A
100
AcDbVisualStyle
  2
FlatWithEdges
 70
     1
 71
     2
 72
     1
 73
     1
 90
        2
 40
-0.6
 41
30.0
 62
     5
 63
     7
 74
     1
 91
        4
 64
     7
 65
   257
 75
     1
175
     1
 42
1.0
 92
        0
 66
   257
 43
1.0
 76
     1
 77
     6
 78
     2
 67
     7
 79
     5
170
     0
171
     0
290
     0
174
     0
 93
       13
 44
0.0
173
     0
291
     1
 45
0.0
1001
ACAD
1000
AcDbSavedByObjectVersion
1070
     0
  0
VISUALSTYLE
  5
2D
102
{ACAD_REACTORS
330
2A
102
}
330
2A
100
AcDbVisualStyle
  2
Gouraud
 70
     2
 71
     2
 72
     2
 73
     1
 90
        2
 40
-0.6
 41
30.0
 62
     5
 63
     7
 74
     0
 91
        4
 64
     7
 65
   257
 75
     1
175
     1
 42
1.0
 92
        0
 66
     7
 43
1.0
 76
     1
 77
     6
 78
     2
 67
     7
 79
     5
170
     0
171
     0
290
     0
174
     0
 93
       13
 44
0.0
173
     0
291
     1
 45
0.0
1001
ACAD
1000
AcDbSavedByObjectVersion
1070
     0
  0
VISUALSTYLE
  5
2E
102
{ACAD_REACTORS
330
2A
102
}
330
2A
100
AcDbVisualStyle
  2
GouraudWithEdges
 70
     3
 71
     2
 72
     2
 73
     1
 90
        2
 40
-0.6
 41
30.0
 62
     5
 63
     7
 74
     1
 91
        4
 64
     7
 65
   257
 75
     1
175
     1
 42
1.0
 92
        0
 66
   257
 43
1.0
 76
     1
 77
     6
 78
     2
 67
     7
 79
     5
170
     0
171
     0
290
     0
174
     0
 93
       13
 44
0.0
173
     0
291
     1
 45
0.0
1001
ACAD
1000
AcDbSavedByObjectVersion
1070
     0
  0
VISUALSTYLE
  5
38
102
{ACAD_REACTORS
330
2A
102
}
330
2A
100
AcDbVisualStyle
  2
Linepattern
 70
    14
 71
     2
 72
     2
 73
     0
 90
        0
 40
-0.6
 41
-30.0
 62
     5
 63
     7
 74
     1
 91
        4
 64
     7
 65
   257
 75
     7
175
     7
 42
1.0
 92
        8
 66
     7
 43
1.0
 76
     1
 77
     6
 78
     2
 67
     7
 79
     5
170
     0
171
     0
290
     0
174
     0
 93
        1
 44
0.0
173
     0
291
     1
 45
0.0
1001
ACAD
1000
AcDbSavedByObjectVersion
1070
     0
  0
VISUALSTYLE
  5
33
102
{ACAD_REACTORS
330
2A
102
}
330
2A
100
AcDbVisualStyle
  2
Realistic
 70
     8
 71
     2
 72
     2
 73
     0
 90
        0
 40
-0.6
 41
-30.0
 62
     5
 63
     7
 74
     1
 91
        0
 64
     7
 65
   257
 75
     1
175
     1
 42
1.0
 92
        8
 66
     8
 43
1.0
 76
     1
 77
     6
 78
     2
 67
     7
 79
     5
170
     0
171
     0
290
     0
174
     0
 93
       13
 44
0.0
173
     0
291
     0
 45
0.0
1001
ACAD
1000
AcDbSavedByObjectVersion
1070
     0
  0
VISUALSTYLE
  5
37
102
{ACAD_REACTORS
330
2A
102
}
330
2A
100
AcDbVisualStyle
  2
Thicken
 70
    13
 71
     2
 72
     2
 73
     0
 90
        0
 40
-0.6
 41
-30.0
 62
     5
 63
     7
 74
     1
 91
        4
 64
     7
 65
   257
 75
     1
175
     1
 42
1.0
 92
       12
 66
     7
 43
1.0
 76
     1
 77
     6
 78
     2
 67
     7
 79
     5
170
     0
171
     0
290
     0
174
     0
 93
        1
 44
0.0
173
     0
291
     1
 45
0.0
1001
ACAD
1000
AcDbSavedByObjectVersion
1070
     0
  0
ENDSEC
  0
EOF
