  0
SECTION
  2
HEADER
  9
$ACADVER
  1
AC1014
  9
$ACADMAINTVER
 70
             0
  9
$DWGCODEPAGE
  3
ANSI_1252
  9
$INSBASE
 10
0.0
 20
0.0
 30
0.0
  9
$EXTMIN
 10
-33.0
 20
-123.6394333457702
 30
0.0
  9
$EXTMAX
 10
573.00179305606116
 20
305.47299550497002
 30
0.0
  9
$LIMMIN
 10
0.0
 20
0.0
  9
$LIMMAX
 10
0.0
 20
0.0
  9
$ORTHOMODE
 70
             0
  9
$REGENMODE
 70
             1
  9
$FILLMODE
 70
             1
  9
$QTEXTMODE
 70
             0
  9
$MIRRTEXT
 70
             1
  9
$DRAGMODE
 70
             2
  9
$LTSCALE
 40
1.0
  9
$OSMODE
 70
             0
  9
$ATTMODE
 70
             1
  9
$TEXTSIZE
 40
0.2
  9
$TRACEWID
 40
0.05
  9
$TEXTSTYLE
  7
STANDARD
  9
$CLAYER
  8
0
  9
$CELTYPE
  6
CONTINUOUS
  9
$CECOLOR
 62
           256
  9
$CELTSCALE
 40
1.0
  9
$DELOBJ
 70
             1
  9
$DISPSILH
 70
             0
  9
$DIMSCALE
 40
1.0
  9
$DIMASZ
 40
0.18
  9
$DIMEXO
 40
0.0625
  9
$DIMDLI
 40
0.38
  9
$DIMRND
 40
0.0
  9
$DIMDLE
 40
0.0
  9
$DIMEXE
 40
0.18
  9
$DIMTP
 40
0.0
  9
$DIMTM
 40
0.0
  9
$DIMTXT
 40
0.18
  9
$DIMCEN
 40
0.09
  9
$DIMTSZ
 40
0.0
  9
$DIMTOL
 70
             0
  9
$DIMLIM
 70
             0
  9
$DIMTIH
 70
             1
  9
$DIMTOH
 70
             1
  9
$DIMSE1
 70
             0
  9
$DIMSE2
 70
             0
  9
$DIMTAD
 70
             0
  9
$DIMZIN
 70
             0
  9
$DIMBLK
  1

  9
$DIMASO
 70
             1
  9
$DIMSHO
 70
             1
  9
$DIMPOST
  1

  9
$DIMAPOST
  1

  9
$DIMALT
 70
             0
  9
$DIMALTD
 70
             2
  9
$DIMALTF
 40
25.4
  9
$DIMLFAC
 40
1.0
  9
$DIMTOFL
 70
             0
  9
$DIMTVP
 40
0.0
  9
$DIMTIX
 70
             0
  9
$DIMSOXD
 70
             0
  9
$DIMSAH
 70
             0
  9
$DIMBLK1
  1

  9
$DIMBLK2
  1

  9
$DIMSTYLE
  2
STANDARD
  9
$DIMCLRD
 70
             0
  9
$DIMCLRE
 70
             0
  9
$DIMCLRT
 70
             0
  9
$DIMTFAC
 40
1.0
  9
$DIMGAP
 40
0.09
  9
$DIMJUST
 70
             0
  9
$DIMSD1
 70
             0
  9
$DIMSD2
 70
             0
  9
$DIMTOLJ
 70
             1
  9
$DIMTZIN
 70
             0
  9
$DIMALTZ
 70
             0
  9
$DIMALTTZ
 70
             0
  9
$DIMFIT
 70
             3
  9
$DIMUPT
 70
             0
  9
$DIMUNIT
 70
             2
  9
$DIMDEC
 70
             4
  9
$DIMTDEC
 70
             4
  9
$DIMALTU
 70
             2
  9
$DIMALTTD
 70
             2
  9
$DIMTXSTY
  7
STANDARD
  9
$DIMAUNIT
 70
             0
  9
$LUNITS
 70
             2
  9
$LUPREC
 70
             4
  9
$SKETCHINC
 40
0.1
  9
$FILLETRAD
 40
0.0
  9
$AUNITS
 70
             0
  9
$AUPREC
 70
             0
  9
$MENU
  1
acad
  9
$ELEVATION
 40
0.0
  9
$PELEVATION
 40
0.0
  9
$THICKNESS
 40
0.0
  9
$LIMCHECK
 70
             0
  9
$BLIPMODE
 70
             1
  9
$CHAMFERA
 40
0.0
  9
$CHAMFERB
 40
0.0
  9
$CHAMFERC
 40
0.0
  9
$CHAMFERD
 40
0.0
  9
$SKPOLY
 70
             0
  9
$TDCREATE
 40
0.000000000
  9
$TDUPDATE
 40
0.000000000
  9
$TDINDWG
 40
0.0000000000
  9
$TDUSRTIMER
 40
0.0000000000
  9
$USRTIMER
 70
             1
  9
$ANGBASE
 50
0.0
  9
$ANGDIR
 70
             0
  9
$PDMODE
 70
             0
  9
$PDSIZE
 40
0.0
  9
$PLINEWID
 40
0.0
  9
$COORDS
 70
             0
  9
$SPLFRAME
 70
             0
  9
$SPLINETYPE
 70
             6
  9
$SPLINESEGS
 70
             8
  9
$ATTDIA
 70
             0
  9
$ATTREQ
 70
             1
  9
$HANDLING
 70
             1
  9
$HANDSEED
  5
259
  9
$SURFTAB1
 70
             6
  9
$SURFTAB2
 70
             6
  9
$SURFTYPE
 70
             6
  9
$SURFU
 70
             6
  9
$SURFV
 70
             6
  9
$UCSNAME
  2

  9
$UCSORG
 10
0.0
 20
0.0
 30
0.0
  9
$UCSXDIR
 10
1.0
 20
0.0
 30
0.0
  9
$UCSYDIR
 10
0.0
 20
1.0
 30
0.0
  9
$PUCSNAME
  2

  9
$PUCSORG
 10
0.0
 20
0.0
 30
0.0
  9
$PUCSXDIR
 10
1.0
 20
0.0
 30
0.0
  9
$PUCSYDIR
 10
0.0
 20
1.0
 30
0.0
  9
$USERI1
 70
             0
  9
$USERI2
 70
             0
  9
$USERI3
 70
             0
  9
$USERI4
 70
             0
  9
$USERI5
 70
             0
  9
$USERR1
 40
12.01
  9
$USERR2
 40
0.0
  9
$USERR3
 40
0.0
  9
$USERR4
 40
0.0
  9
$USERR5
 40
0.0
  9
$WORLDVIEW
 70
             1
  9
$SHADEDGE
 70
             3
  9
$SHADEDIF
 70
            70
  9
$TILEMODE
 70
             1
  9
$MAXACTVP
 70
            16
  9
$PINSBASE
 10
0.0
 20
0.0
 30
0.0
  9
$PLIMCHECK
 70
             0
  9
$PEXTMIN
 10
1.00000000000000E+20
 20
1.00000000000000E+20
 30
1.00000000000000E+20
  9
$PEXTMAX
 10
-1.00000000000000E+20
 20
-1.00000000000000E+20
 30
-1.00000000000000E+20
  9
$PLIMMIN
 10
0.0
 20
0.0
  9
$PLIMMAX
 10
12.0
 20
9.0
  9
$UNITMODE
 70
             0
  9
$VISRETAIN
 70
             0
  9
$PLINEGEN
 70
             1
  9
$PSLTSCALE
 70
             0
  9
$TREEDEPTH
 70
          3020
  9
$PICKSTYLE
 70
             1
  9
$CMLSTYLE
  2
STANDARD
  9
$CMLJUST
 70
             0
  9
$CMLSCALE
 40
1.0
  9
$PROXYGRAPHICS
 70
             0
  9
$MEASUREMENT
 70
             1
  0
ENDSEC
  0
SECTION
  2
CLASSES
  0
CLASS
  1
LWPOLYLINE
  2
AcDbPolyline
  3
"AutoCAD"
 90
        0
280
             0
281
             1
  0
CLASS
  1
IMAGE
  2
AcDbRasterImage
  3
ISM
 90
      127
280
             0
281
             1
  0
CLASS
  1
OLE2FRAME
  2
AcDbOle2Frame
  3
""
 90
        0
280
             0
281
             1
  0
CLASS
  1
HATCH
  2
AcDbHatch
  3
"ACAD_SEDONA"
 90
        0
280
             0
281
             1
  0
CLASS
  1
DICTIONARYVAR
  2
AcDbDictionaryVar
  3
"AutoCAD"
 90
        0
280
             0
281
             0
  0
CLASS
  1
RASTERVARIABLES
  2
AcDbRasterVariables
  3
ISM
 90
        0
280
             0
281
             0
  0
CLASS
  1
IMAGEDEF
  2
AcDbRasterImageDef
  3
ISM
 90
        0
280
             0
281
             0
  0
CLASS
  1
IMAGEDEF_REACTOR
  2
AcDbRasterImageDefReactor
  3
ISM
 90
        1
280
             0
281
             0
  0
CLASS
  1
IDBUFFER
  2
AcDbIdBuffer
  3
"Acad"
 90
        0
280
             0
281
             0
  0
CLASS
  1
SPATIAL_FILTER
  2
AcDbSpatialFilter
  3
"Acad"
 90
        0
280
             0
281
             0
  0
CLASS
  1
XRECORD
  2
AcDbXrecord
  3
"<Built In>"
 90
        0
280
             0
281
             0
  0
CLASS
  1
SORTENTSTABLE
  2
AcDbSortentsTable
  3
"AutoCAD"
 90
        0
280
             0
281
             0
  0
CLASS
  1
LAYER_INDEX
  2
AcDbLayerIndex
  3
"Acad"
 90
        0
280
             0
281
             0
  0
CLASS
  1
SPATIAL_INDEX
  2
AcDbSpatialIndex
  3
"Acad"
 90
        0
280
             0
281
             0
  0
CLASS
  1
OBJECT_PTR
  2
CAseDLPNTableRecord
  3
"ASE-LPNTableRecord"
 90
        1
280
             0
281
             0
  0
CLASS
  1
LAYOUT
  2
AcDbLayout
  3
"AutoCAD 2000"
 90
        0
280
             0
281
             0
  0
CLASS
  1
PLOTSETTINGS
  2
AcDbPlotSettings
  3
"AutoCAD 2000"
 90
        0
280
             0
281
             0
  0
CLASS
  1
ACDBDICTIONARYWDFLT
  2
AcDbDictionaryWithDefault
  3
"AutoCAD 2000"
 90
        0
280
             0
281
             0
  0
CLASS
  1
ACDBPLACEHOLDER
  2
AcDbPlaceHolder
  3
"AutoCAD 2000"
 90
        0
280
             0
281
             0
  0
ENDSEC
  0
SECTION
  2
TABLES
  0
TABLE
  2
VPORT
  5
7
100
AcDbSymbolTable
 70
             1
  0
VPORT
  5
15
100
AcDbSymbolTableRecord
100
AcDbViewportTableRecord
  2
*ACTIVE
 70
             0
 10
0.0
 20
0.0
 11
1.0
 21
1.0
 12
270.00089652803058
 22
90.9167810795999
 13
0.0
 23
0.0
 14
1.0
 24
1.0
 15
0.0
 25
0.0
 16
0.0
 26
0.0
 36
1.0
 17
0.0
 27
0.0
 37
0.0
 40
472.02367173581428
 41
1.60267857142857
 42
50.0
 43
0.0
 44
0.0
 50
0.0
 51
0.0
 71
             0
 72
           100
 73
             1
 74
             1
 75
             0
 76
             0
 77
             0
 78
             0
  0
ENDTAB
  0
TABLE
  2
LTYPE
  5
4
100
AcDbSymbolTable
 70
            11
  0
LTYPE
  5
11
100
AcDbSymbolTableRecord
100
AcDbLinetypeTableRecord
  2
BYBLOCK
 70
            64
  3

 72
            65
 73
             0
 40
0.0
  0
LTYPE
  5
12
100
AcDbSymbolTableRecord
100
AcDbLinetypeTableRecord
  2
BYLAYER
 70
            64
  3

 72
            65
 73
             0
 40
0.0
  0
LTYPE
  5
13
100
AcDbSymbolTableRecord
100
AcDbLinetypeTableRecord
  2
CONTINUOUS
 70
            64
  3
Solid line
 72
            65
 73
             0
 40
0.0
  0
LTYPE
  5
1D
100
AcDbSymbolTableRecord
100
AcDbLinetypeTableRecord
  2
DASHED
 70
            64
  3
Dashed
 72
            65
 73
             2
 40
15.0
 49
7.0
 74
             0
 49
-8.0
 74
             0
  0
LTYPE
  5
1E
100
AcDbSymbolTableRecord
100
AcDbLinetypeTableRecord
  2
DOTTED
 70
            64
  3
Dotted
 72
            65
 73
             2
 40
1.0
 49
0.0
 74
             0
 49
-1.0
 74
             0
  0
LTYPE
  5
1F
100
AcDbSymbolTableRecord
100
AcDbLinetypeTableRecord
  2
DOT_CENTER
 70
            64
  3
Dot_Center
 72
            65
 73
             4
 40
14.0
 49
12.0
 74
             0
 49
-1.0
 74
             0
 49
0.0
 74
             0
 49
-1.0
 74
             0
  0
LTYPE
  5
20
100
AcDbSymbolTableRecord
100
AcDbLinetypeTableRecord
  2
LONG_DASHED
 70
            64
  3
Long_Dashed
 72
            65
 73
             2
 40
15.0
 49
10.0
 74
             0
 49
-5.0
 74
             0
  0
LTYPE
  5
21
100
AcDbSymbolTableRecord
100
AcDbLinetypeTableRecord
  2
DASH_CENTER
 70
            64
  3
Dash_Center
 72
            65
 73
             4
 40
14.0
 49
11.0
 74
             0
 49
-1.0
 74
             0
 49
1.0
 74
             0
 49
-1.0
 74
             0
  0
LTYPE
  5
22
100
AcDbSymbolTableRecord
100
AcDbLinetypeTableRecord
  2
PHANTOM
 70
            64
  3
Phantom
 72
            65
 73
             6
 40
13.0
 49
10.0
 74
             0
 49
-1.0
 74
             0
 49
0.0
 74
             0
 49
-1.0
 74
             0
 49
0.0
 74
             0
 49
-1.0
 74
             0
  0
LTYPE
  5
23
100
AcDbSymbolTableRecord
100
AcDbLinetypeTableRecord
  2
CENTER_DASH_DASH
 70
            64
  3
Center_Dash_Dash
 72
            65
 73
             6
 40
14.0
 49
9.0
 74
             0
 49
-1.0
 74
             0
 49
1.0
 74
             0
 49
-1.0
 74
             0
 49
1.0
 74
             0
 49
-1.0
 74
             0
  0
LTYPE
  5
24
100
AcDbSymbolTableRecord
100
AcDbLinetypeTableRecord
  2
DASHDOT
 70
            64
  3
DASHDOT
 72
            65
 73
             4
 40
16.0
 49
10.0
 74
             0
 49
-3.0
 74
             0
 49
0.0
 74
             0
 49
-3.0
 74
             0
  0
ENDTAB
  0
TABLE
  2
LAYER
  5
2
100
AcDbSymbolTable
 70
             9
  0
LAYER
  5
14
100
AcDbSymbolTableRecord
100
AcDbLayerTableRecord
  2
0
 70
             0
 62
             7
  6
CONTINUOUS
  0
LAYER
  5
25
100
AcDbSymbolTableRecord
100
AcDbLayerTableRecord
  2
1
 70
             0
 62
             7
  6
CONTINUOUS
  0
LAYER
  5
26
100
AcDbSymbolTableRecord
100
AcDbLayerTableRecord
  2
LC-001-002-----0
 70
             0
 62
             7
  6
CONTINUOUS
  0
LAYER
  5
27
100
AcDbSymbolTableRecord
100
AcDbLayerTableRecord
  2
LC-001-100-D02-0
 70
             0
 62
             7
  6
CONTINUOUS
  0
LAYER
  5
28
100
AcDbSymbolTableRecord
100
AcDbLayerTableRecord
  2
LC-002-002-----0
 70
             0
 62
             7
  6
CONTINUOUS
  0
LAYER
  5
29
100
AcDbSymbolTableRecord
100
AcDbLayerTableRecord
  2
LC-002-002-RND-0
 70
             0
 62
             7
  6
CONTINUOUS
  0
LAYER
  5
2A
100
AcDbSymbolTableRecord
100
AcDbLayerTableRecord
  2
LC-004-003-----0
 70
             0
 62
             7
  6
CONTINUOUS
  0
LAYER
  5
2B
100
AcDbSymbolTableRecord
100
AcDbLayerTableRecord
  2
LC-007-006-MLN-0
 70
             0
 62
             7
  6
CONTINUOUS
  0
LAYER
  5
2C
100
AcDbSymbolTableRecord
100
AcDbLayerTableRecord
  2
LC-008-007-KH--0
 70
             0
 62
             7
  6
CONTINUOUS
  0
ENDTAB
  0
TABLE
  2
STYLE
  5
3
100
AcDbSymbolTable
 70
             2
  0
STYLE
  5
17
100
AcDbSymbolTableRecord
100
AcDbTextStyleTableRecord
  2
STANDARD
 70
             0
 40
0.0
 41
1.0
 50
0.0
 71
             0
 42
0.0
  3
txt
  4

  0
STYLE
  5
211
100
AcDbSymbolTableRecord
100
AcDbTextStyleTableRecord
  2
CONVERTER_1
 70
             0
 40
0.0
 41
0.9
 50
0.0
 71
             0
 42
0.0
  3
txt.shx
  4

  0
ENDTAB
  0
TABLE
  2
VIEW
  5
5
100
AcDbSymbolTable
 70
             0
  0
ENDTAB
  0
TABLE
  2
UCS
  5
6
100
AcDbSymbolTable
 70
             0
  0
ENDTAB
  0
TABLE
  2
APPID
  5
8
100
AcDbSymbolTable
 70
             1
  0
APPID
  5
16
100
AcDbSymbolTableRecord
100
AcDbRegAppTableRecord
  2
ACAD
 70
             0
  0
ENDTAB
  0
TABLE
  2
DIMSTYLE
  5
9
100
AcDbSymbolTable
 70
             8
  0
DIMSTYLE
105
18
100
AcDbSymbolTableRecord
100
AcDbDimStyleTableRecord
  2
STANDARD
 70
             0
  3

  4

  5

  6

  7

 40
1.0
 41
0.18
 42
0.0625
 43
0.38
 44
0.18
 45
0.0
 46
0.0
 47
0.0
 48
0.0
 71
             0
 72
             0
 73
             1
 74
             1
 75
             0
 76
             0
 77
             0
 78
             0
140
0.18
141
0.09
142
0.0
143
25.4
144
1.0
145
0.0
146
1.0
147
0.09
170
             0
171
             2
172
             0
173
             0
174
             0
175
             0
176
             0
177
             0
178
             0
270
             2
271
             4
272
             4
273
             2
274
             2
275
             0
280
             0
281
             0
282
             0
283
             1
284
             0
285
             0
286
             0
287
             3
288
             0
340
17
  0
DIMSTYLE
105
214
100
AcDbSymbolTableRecord
100
AcDbDimStyleTableRecord
  2
ME10_DIM_0
 70
             0
  3

  4

  5

  6

  7

 40
1.0
 41
15.0
 42
0.0
 43
0.38
 44
2.0
 45
0.0
 46
0.0
 47
0.0
 48
0.0
 71
             0
 72
             0
 73
             0
 74
             0
 75
             0
 76
             0
 77
             1
 78
             8
140
15.0
141
0.09
142
0.0
143
25.4
144
1.0
145
0.0
146
1.0
147
0.625
170
             0
171
             2
172
             1
173
             1
174
             0
175
             0
176
             4
177
             4
178
             1
270
             2
271
             2
272
             4
273
             2
274
             2
275
             0
280
             0
281
             0
282
             0
283
             1
284
             0
285
             0
286
             0
287
             3
288
             0
340
211
  0
DIMSTYLE
105
21F
100
AcDbSymbolTableRecord
100
AcDbDimStyleTableRecord
  2
ME10_DIM_1
 70
             0
  3

  4

  5

  6

  7

 40
1.0
 41
15.0
 42
0.0
 43
0.38
 44
2.0
 45
0.0
 46
0.0
 47
0.0
 48
0.0
 71
             0
 72
             0
 73
             0
 74
             0
 75
             0
 76
             0
 77
             1
 78
             8
140
15.0
141
0.09
142
0.0
143
25.4
144
1.0
145
0.0
146
1.0
147
0.625
170
             0
171
             2
172
             1
173
             1
174
             0
175
             0
176
             4
177
             4
178
             1
270
             2
271
             2
272
             4
273
             2
274
             2
275
             0
280
             0
281
             0
282
             0
283
             1
284
             0
285
             0
286
             0
287
             3
288
             0
340
211
  0
DIMSTYLE
105
22A
100
AcDbSymbolTableRecord
100
AcDbDimStyleTableRecord
  2
ME10_DIM_2
 70
             0
  3

  4

  5

  6

  7

 40
1.0
 41
15.0
 42
0.0
 43
0.38
 44
2.0
 45
0.0
 46
0.0
 47
0.0
 48
0.0
 71
             0
 72
             0
 73
             0
 74
             0
 75
             0
 76
             0
 77
             1
 78
             8
140
15.0
141
0.09
142
0.0
143
25.4
144
1.0
145
0.0
146
1.0
147
0.625
170
             0
171
             2
172
             1
173
             1
174
             0
175
             0
176
             4
177
             4
178
             1
270
             2
271
             2
272
             4
273
             2
274
             2
275
             0
280
             0
281
             0
282
             0
283
             1
284
             0
285
             0
286
             0
287
             3
288
             0
340
211
  0
DIMSTYLE
105
235
100
AcDbSymbolTableRecord
100
AcDbDimStyleTableRecord
  2
ME10_DIM_3
 70
             0
  3
DN<>
  4

  5

  6

  7

 40
1.0
 41
15.0
 42
0.0
 43
0.38
 44
2.0
 45
0.0
 46
0.0
 47
0.0
 48
0.0
 71
             0
 72
             0
 73
             0
 74
             0
 75
             0
 76
             0
 77
             1
 78
             8
140
15.0
141
0.09
142
0.0
143
25.4
144
1.0
145
0.0
146
1.0
147
0.625
170
             0
171
             2
172
             1
173
             1
174
             0
175
             0
176
             4
177
             4
178
             1
270
             2
271
             2
272
             4
273
             2
274
             2
275
             0
280
             0
281
             0
282
             0
283
             1
284
             0
285
             0
286
             0
287
             3
288
             0
340
211
  0
DIMSTYLE
105
240
100
AcDbSymbolTableRecord
100
AcDbDimStyleTableRecord
  2
ME10_DIM_4
 70
             0
  3
DN<>
  4

  5

  6

  7

 40
1.0
 41
15.0
 42
0.0
 43
0.38
 44
2.0
 45
0.0
 46
0.0
 47
0.0
 48
0.0
 71
             0
 72
             0
 73
             0
 74
             0
 75
             0
 76
             0
 77
             1
 78
             8
140
15.0
141
0.09
142
0.0
143
25.4
144
1.0
145
0.0
146
1.0
147
0.625
170
             0
171
             2
172
             1
173
             1
174
             0
175
             0
176
             4
177
             4
178
             1
270
             2
271
             2
272
             4
273
             2
274
             2
275
             0
280
             0
281
             0
282
             0
283
             1
284
             0
285
             0
286
             0
287
             3
288
             0
340
211
  0
DIMSTYLE
105
24B
100
AcDbSymbolTableRecord
100
AcDbDimStyleTableRecord
  2
ME10_DIM_5
 70
             0
  3
220-<>
  4

  5

  6

  7

 40
1.0
 41
15.0
 42
0.0
 43
0.38
 44
2.0
 45
0.0
 46
0.0
 47
0.0
 48
0.0
 71
             0
 72
             0
 73
             0
 74
             0
 75
             0
 76
             0
 77
             1
 78
             8
140
15.0
141
0.09
142
0.0
143
25.4
144
1.0
145
0.0
146
1.0
147
0.625
170
             0
171
             2
172
             1
173
             1
174
             0
175
             0
176
             4
177
             4
178
             1
270
             2
271
             2
272
             4
273
             2
274
             2
275
             0
280
             0
281
             0
282
             0
283
             1
284
             0
285
             0
286
             0
287
             3
288
             0
340
211
  0
DIMSTYLE
105
256
100
AcDbSymbolTableRecord
100
AcDbDimStyleTableRecord
  2
ME10_DIM_6
 70
             0
  3

  4

  5

  6

  7

 40
1.0
 41
15.0
 42
0.0
 43
0.38
 44
2.0
 45
0.0
 46
0.0
 47
0.0
 48
0.0
 71
             0
 72
             0
 73
             0
 74
             0
 75
             0
 76
             0
 77
             1
 78
             8
140
15.0
141
0.09
142
0.0
143
25.4
144
1.0
145
0.0
146
1.0
147
0.625
170
             0
171
             2
172
             1
173
             1
174
             0
175
             0
176
             4
177
             4
178
             1
270
             2
271
             2
272
             4
273
             2
274
             2
275
             0
280
             0
281
             0
282
             0
283
             1
284
             0
285
             0
286
             0
287
             3
288
             0
340
211
  0
ENDTAB
  0
TABLE
  2
BLOCK_RECORD
  5
1
100
AcDbSymbolTable
 70
             8
  0
BLOCK_RECORD
  5
A
100
AcDbSymbolTableRecord
100
AcDbBlockTableRecord
  2
*MODEL_SPACE
  0
BLOCK_RECORD
  5
B
100
AcDbSymbolTableRecord
100
AcDbBlockTableRecord
  2
*PAPER_SPACE
  0
BLOCK_RECORD
  5
2D
100
AcDbSymbolTableRecord
100
AcDbBlockTableRecord
  2
HL_710_2EPC_R_CKSTAUVE0__1
  0
BLOCK_RECORD
  5
208
100
AcDbSymbolTableRecord
100
AcDbBlockTableRecord
  2
*D1
  0
BLOCK_RECORD
  5
216
100
AcDbSymbolTableRecord
100
AcDbBlockTableRecord
  2
*D2
  0
BLOCK_RECORD
  5
221
100
AcDbSymbolTableRecord
100
AcDbBlockTableRecord
  2
*D3
  0
BLOCK_RECORD
  5
22C
100
AcDbSymbolTableRecord
100
AcDbBlockTableRecord
  2
*D4
  0
BLOCK_RECORD
  5
237
100
AcDbSymbolTableRecord
100
AcDbBlockTableRecord
  2
*D5
  0
BLOCK_RECORD
  5
242
100
AcDbSymbolTableRecord
100
AcDbBlockTableRecord
  2
*D6
  0
BLOCK_RECORD
  5
24D
100
AcDbSymbolTableRecord
100
AcDbBlockTableRecord
  2
*D7
  0
ENDTAB
  0
ENDSEC
  0
SECTION
  2
BLOCKS
  0
BLOCK
  5
D
100
AcDbEntity
  8
0
100
AcDbBlockBegin
  2
*MODEL_SPACE
 70
             0
 10
0.0
 20
0.0
 30
0.0
  3
*MODEL_SPACE
  1

  0
ENDBLK
  5
E
100
AcDbEntity
  8
0
100
AcDbBlockEnd
  0
BLOCK
  5
F
100
AcDbEntity
 67
             1
  8
0
100
AcDbBlockBegin
  2
*PAPER_SPACE
 70
             0
 10
0.0
 20
0.0
 30
0.0
  3
*PAPER_SPACE
  1

  0
ENDBLK
  5
10
100
AcDbEntity
 67
             1
  8
0
100
AcDbBlockEnd
  0
BLOCK
  5
2E
100
AcDbEntity
  8
0
100
AcDbBlockBegin
  2
HL_710_2EPC_R_CKSTAUVE0__1
 70
             0
 10
420.80042131573299
 20
1633.7955987476701
 30
0.0
  3
HL_710_2EPC_R_CKSTAUVE0__1
  1

  0
CIRCLE
  5
205
100
AcDbEntity
  8
LC-001-002-----0
  6
CONTINUOUS
 62
             7
100
AcDbCircle
 10
304.09421900000012
 20
213.99635900000001
 40
2.5
  0
ARC
  5
204
100
AcDbEntity
  8
LC-002-002-RND-0
  6
CONTINUOUS
 62
             7
100
AcDbCircle
 10
52.77537200000006
 20
104.74572499999999
 40
0.5
100
AcDbArc
 50
-179.99999999994301
 51
-90.0
  0
ARC
  5
203
100
AcDbEntity
  8
LC-002-002-RND-0
  6
CONTINUOUS
 62
             7
100
AcDbCircle
 10
55.27537200000006
 20
116.24572499999999
 40
3.0
100
AcDbArc
 50
90.0
 51
180.0
  0
ARC
  5
202
100
AcDbEntity
  8
LC-002-002-RND-0
  6
CONTINUOUS
 62
             7
100
AcDbCircle
 10
237.62593600000011
 20
116.24572499999999
 40
3.0
100
AcDbArc
 50
0.0
 51
90.0
  0
ARC
  5
201
100
AcDbEntity
  8
LC-002-002-RND-0
  6
CONTINUOUS
 62
             7
100
AcDbCircle
 10
240.12593600000011
 20
104.74572499999999
 40
0.5
100
AcDbArc
 50
-90.0
 51
0.0
  0
ARC
  5
200
100
AcDbEntity
  8
LC-001-002-----0
  6
CONTINUOUS
 62
             7
100
AcDbCircle
 10
282.12826100000012
 20
68.24003100000005
 40
61.75632799999959
100
AcDbArc
 50
71.28470100000003
 51
108.72565599999992
  0
ARC
  5
1FF
100
AcDbEntity
  8
LC-002-002-RND-0
  6
CONTINUOUS
 62
             7
100
AcDbCircle
 10
82.97065399999997
 20
111.74572499999999
 40
0.5
100
AcDbArc
 50
90.0
 51
180.0
  0
ARC
  5
1FE
100
AcDbEntity
  8
LC-002-002-RND-0
  6
CONTINUOUS
 62
             7
100
AcDbCircle
 10
101.970654
 20
111.74572499999999
 40
0.5
100
AcDbArc
 50
0.0
 51
90.0
  0
ARC
  5
1FD
100
AcDbEntity
  8
LC-002-002-RND-0
  6
CONTINUOUS
 62
             7
100
AcDbCircle
 10
190.970654
 20
111.74572499999999
 40
0.5
100
AcDbArc
 50
90.0
 51
180.0
  0
ARC
  5
1FC
100
AcDbEntity
  8
LC-002-002-RND-0
  6
CONTINUOUS
 62
             7
100
AcDbCircle
 10
209.970654
 20
111.74572499999999
 40
0.5
100
AcDbArc
 50
0.0
 51
90.0
  0
ARC
  5
1FB
100
AcDbEntity
  8
LC-002-002-RND-0
  6
CONTINUOUS
 62
             7
100
AcDbCircle
 10
82.97065399999997
 20
104.74572499999999
 40
0.5
100
AcDbArc
 50
180.0
 51
-90.0
  0
ARC
  5
1FA
100
AcDbEntity
  8
LC-002-002-RND-0
  6
CONTINUOUS
 62
             7
100
AcDbCircle
 10
101.970654
 20
104.74572499999999
 40
0.5
100
AcDbArc
 50
-90.0
 51
0.0
  0
ARC
  5
1F9
100
AcDbEntity
  8
LC-002-002-RND-0
  6
CONTINUOUS
 62
             7
100
AcDbCircle
 10
190.970654
 20
104.74572499999999
 40
0.5
100
AcDbArc
 50
180.0
 51
-90.0
  0
ARC
  5
1F8
100
AcDbEntity
  8
LC-002-002-RND-0
  6
CONTINUOUS
 62
             7
100
AcDbCircle
 10
209.970654
 20
104.74572499999999
 40
0.5
100
AcDbArc
 50
-90.0
 51
0.0
  0
ARC
  5
1F7
100
AcDbEntity
  8
LC-002-002-RND-0
  6
CONTINUOUS
 62
             7
100
AcDbCircle
 10
64.53255899999999
 20
-71.25000000000023
 40
5.00000000000006
100
AcDbArc
 50
-179.00000000000605
 51
-90.0
  0
ARC
  5
1F6
100
AcDbEntity
  8
LC-001-002-----0
  6
CONTINUOUS
 62
             7
100
AcDbCircle
 10
21.5
 20
-60.45000000000005
 40
1.0
100
AcDbArc
 50
90.0
 51
180.0
  0
ARC
  5
1F5
100
AcDbEntity
  8
LC-001-002-----0
  6
CONTINUOUS
 62
             7
100
AcDbCircle
 10
16.5
 20
-60.75000000000023
 40
4.0
100
AcDbArc
 50
-90.0
 51
0.0
  0
ARC
  5
1F4
100
AcDbEntity
  8
LC-001-002-----0
  6
CONTINUOUS
 62
             7
100
AcDbCircle
 10
6.5
 20
-60.75000000000023
 40
4.0
100
AcDbArc
 50
180.0
 51
-90.0
  0
ARC
  5
1F3
100
AcDbEntity
  8
LC-002-002-RND-0
  6
CONTINUOUS
 62
             7
100
AcDbCircle
 10
73.76133600000014
 20
245.8916094999997
 40
5.0
100
AcDbArc
 50
90.0
 51
180.0
  0
ARC
  5
1F2
100
AcDbEntity
  8
LC-002-002-RND-0
  6
CONTINUOUS
 62
             7
100
AcDbCircle
 10
220.0091630000002
 20
218.89612949999969
 40
5.0
100
AcDbArc
 50
0.00000000000456
 51
90.0
  0
ARC
  5
1F1
100
AcDbEntity
  8
LC-001-002-----0
  6
CONTINUOUS
 62
             7
100
AcDbCircle
 10
271.19229200000001
 20
144.6100690000001
 40
24.35759900000059
100
AcDbArc
 50
-113.13242599999995
 51
-69.7424469999995
  0
ARC
  5
1F0
100
AcDbEntity
  8
LC-001-002-----0
  6
CONTINUOUS
 62
             7
100
AcDbCircle
 10
293.05384300000009
 20
144.61018399999989
 40
24.35759899999971
100
AcDbArc
 50
-110.2575910000012
 51
-66.86761100000105
  0
ARC
  5
1EF
100
AcDbEntity
  8
LC-002-002-RND-0
  6
CONTINUOUS
 62
             7
100
AcDbCircle
 10
53.09349300000008
 20
124.7458340000001
 40
0.5
100
AcDbArc
 50
90.0
 51
180.0
  0
ARC
  5
1EE
100
AcDbEntity
  8
LC-002-002-RND-0
  6
CONTINUOUS
 62
             7
100
AcDbCircle
 10
125.13117100000009
 20
245.8916094999997
 40
5.00000000000001
100
AcDbArc
 50
0.0
 51
90.0
  0
ARC
  5
1ED
100
AcDbEntity
  8
LC-001-002-----0
  6
CONTINUOUS
 62
             7
100
AcDbCircle
 10
301.62289700000002
 20
125.783846
 40
1.0
100
AcDbArc
 50
0.0
 51
71.28469999999152
  0
ARC
  5
1EC
100
AcDbEntity
  8
LC-001-002-----0
  6
CONTINUOUS
 62
             7
100
AcDbCircle
 10
293.05639799999989
 20
103.38010199999989
 40
24.35759900000023
100
AcDbArc
 50
66.87414800000069
 51
110.2572870000002
  0
ARC
  5
1EB
100
AcDbEntity
  8
LC-002-002-RND-0
  6
CONTINUOUS
 62
             7
100
AcDbCircle
 10
242.46422400000009
 20
89.99635899999998
 40
0.5
100
AcDbArc
 50
180.0
 51
-90.0
  0
ARC
  5
1EA
100
AcDbEntity
  8
LC-001-002-----0
  6
CONTINUOUS
 62
             7
100
AcDbCircle
 10
262.62322399999988
 20
122.20025199999991
 40
1.00000000000021
100
AcDbArc
 50
179.99996299998472
 51
-110.00011399998071
  0
ARC
  5
1E9
100
AcDbEntity
  8
LC-002-002-RND-0
  6
CONTINUOUS
 62
             7
100
AcDbCircle
 10
244.96422400000009
 20
101.496359
 40
3.0
100
AcDbArc
 50
90.0
 51
180.0
  0
ARC
  5
1E8
100
AcDbEntity
  8
LC-001-002-----0
  6
CONTINUOUS
 62
             7
100
AcDbCircle
 10
262.62322600000022
 20
125.780321
 40
1.00000000000014
100
AcDbArc
 50
108.72563699999013
 51
179.99996299998389
  0
ARC
  5
1E7
100
AcDbEntity
  8
LC-001-002-----0
  6
CONTINUOUS
 62
             7
100
AcDbCircle
 10
301.62289700000002
 20
122.2003609999999
 40
1.00000000000012
100
AcDbArc
 50
-69.9998669999901
 51
0.0
  0
ARC
  5
1E6
100
AcDbEntity
  8
LC-001-002-----0
  6
CONTINUOUS
 62
             7
100
AcDbCircle
 10
271.1897100000001
 20
103.379987
 40
24.35759899999948
100
AcDbArc
 50
69.74267600000053
 51
113.12581499999995
  0
ARC
  5
1E5
100
AcDbEntity
  8
LC-002-002-RND-0
  6
CONTINUOUS
 62
             7
100
AcDbCircle
 10
306.19421899999998
 20
105.496359
 40
1.0
100
AcDbArc
 50
180.0
 51
-90.0
  0
ARC
  5
1E4
100
AcDbEntity
  8
LC-002-002-RND-0
  6
CONTINUOUS
 62
             7
100
AcDbCircle
 10
304.69421899999998
 20
110.996359
 40
0.5
100
AcDbArc
 50
0.0
 51
90.0
  0
ARC
  5
1E3
100
AcDbEntity
  8
LC-002-002-RND-0
  6
CONTINUOUS
 62
             7
100
AcDbCircle
 10
427.27478799999989
 20
101.496359
 40
3.0
100
AcDbArc
 50
0.0
 51
90.0
  0
ARC
  5
1E2
100
AcDbEntity
  8
LC-002-002-RND-0
  6
CONTINUOUS
 62
             7
100
AcDbCircle
 10
429.77478799999989
 20
89.99635899999998
 40
0.5
100
AcDbArc
 50
-90.0
 51
0.0
  0
ARC
  5
1E1
100
AcDbEntity
  8
LC-001-002-----0
  6
CONTINUOUS
 62
             7
100
AcDbCircle
 10
390.12842300000011
 20
68.24003100000005
 40
61.75632799999963
100
AcDbArc
 50
71.28470099999991
 51
108.72565599999982
  0
ARC
  5
1E0
100
AcDbEntity
  8
LC-001-002-----0
  6
CONTINUOUS
 62
             7
100
AcDbCircle
 10
379.192454
 20
144.6100690000001
 40
24.35759900000054
100
AcDbArc
 50
-113.1324259999997
 51
-69.74244699999925
  0
ARC
  5
1DF
100
AcDbEntity
  8
LC-002-002-RND-0
  6
CONTINUOUS
 62
             7
100
AcDbCircle
 10
135.13117100000011
 20
228.89612949999969
 40
5.0
100
AcDbArc
 50
180.0
 51
-90.0
  0
ARC
  5
1DE
100
AcDbEntity
  8
LC-001-002-----0
  6
CONTINUOUS
 62
             7
100
AcDbCircle
 10
401.05400500000002
 20
144.61018399999989
 40
24.35759899999971
100
AcDbArc
 50
-110.2575910000012
 51
-66.86761100000081
  0
ARC
  5
1DD
100
AcDbEntity
  8
LC-002-002-RND-0
  6
CONTINUOUS
 62
             7
100
AcDbCircle
 10
53.09349300000008
 20
119.7458340000001
 40
0.5
100
AcDbArc
 50
180.0
 51
-90.0
  0
ARC
  5
1DC
100
AcDbEntity
  8
LC-002-002-RND-0
  6
CONTINUOUS
 62
             7
100
AcDbCircle
 10
240.13310700000011
 20
124.7458340000001
 40
0.5
100
AcDbArc
 50
0.0
 51
90.0
  0
ARC
  5
1DB
100
AcDbEntity
  8
LC-002-002-RND-0
  6
CONTINUOUS
 62
             7
100
AcDbCircle
 10
240.13310700000011
 20
119.7458340000001
 40
0.5
100
AcDbArc
 50
-90.0
 51
0.0
  0
ARC
  5
1DA
100
AcDbEntity
  8
LC-002-002-RND-0
  6
CONTINUOUS
 62
             7
100
AcDbCircle
 10
89.11809900000003
 20
251.3916094999997
 40
0.5
100
AcDbArc
 50
-90.0
 51
0.0
  0
ARC
  5
1D9
100
AcDbEntity
  8
LC-002-002-RND-0
  6
CONTINUOUS
 62
             7
100
AcDbCircle
 10
90.11809900000003
 20
260.49881449999998
 40
0.5
100
AcDbArc
 50
90.0
 51
179.99999999979156
  0
ARC
  5
1D8
100
AcDbEntity
  8
LC-002-002-RND-0
  6
CONTINUOUS
 62
             7
100
AcDbCircle
 10
116.118099
 20
260.49881449999998
 40
0.5000000000003
100
AcDbArc
 50
0.00000000020844
 51
90.0
  0
ARC
  5
1D7
100
AcDbEntity
  8
LC-002-002-RND-0
  6
CONTINUOUS
 62
             7
100
AcDbCircle
 10
117.118099
 20
251.3916094999997
 40
0.5
100
AcDbArc
 50
180.0
 51
-90.0
  0
ARC
  5
1D6
100
AcDbEntity
  8
LC-002-002-RND-0
  6
CONTINUOUS
 62
             7
100
AcDbCircle
 10
1.5
 20
-60.45000000000005
 40
1.0
100
AcDbArc
 50
0.0
 51
90.0
  0
ARC
  5
1D5
100
AcDbEntity
  8
LC-001-002-----0
  6
CONTINUOUS
 62
             7
100
AcDbCircle
 10
21.5
 20
60.45000000000005
 40
1.0
100
AcDbArc
 50
180.0
 51
-90.0
  0
ARC
  5
1D4
100
AcDbEntity
  8
LC-001-002-----0
  6
CONTINUOUS
 62
             7
100
AcDbCircle
 10
16.5
 20
60.74999999999977
 40
4.0
100
AcDbArc
 50
0.0
 51
90.0
  0
ARC
  5
1D3
100
AcDbEntity
  8
LC-001-002-----0
  6
CONTINUOUS
 62
             7
100
AcDbCircle
 10
6.5
 20
60.74999999999977
 40
4.0
100
AcDbArc
 50
90.0
 51
180.0
  0
ARC
  5
1D2
100
AcDbEntity
  8
LC-002-002-RND-0
  6
CONTINUOUS
 62
             7
100
AcDbCircle
 10
1.5
 20
60.45000000000005
 40
1.0
100
AcDbArc
 50
-90.0
 51
0.0
  0
ARC
  5
1D1
100
AcDbEntity
  8
LC-002-002-RND-0
  6
CONTINUOUS
 62
             7
100
AcDbCircle
 10
90.54986200000008
 20
-71.74975500000005
 40
0.5
100
AcDbArc
 50
90.0
 51
180.0
  0
ARC
  5
1D0
100
AcDbEntity
  8
LC-002-002-RND-0
  6
CONTINUOUS
 62
             7
100
AcDbCircle
 10
89.54986200000008
 20
-75.75000000000023
 40
0.5
100
AcDbArc
 50
-90.0
 51
0.0
  0
ARC
  5
1CF
100
AcDbEntity
  8
LC-002-002-RND-0
  6
CONTINUOUS
 62
             7
100
AcDbCircle
 10
233.9773319999999
 20
64.25331799999981
 40
0.5
100
AcDbArc
 50
90.0
 51
180.0
  0
ARC
  5
1CE
100
AcDbEntity
  8
LC-002-002-RND-0
  6
CONTINUOUS
 62
             7
100
AcDbCircle
 10
240.6679280000001
 20
64.25331799999981
 40
0.5
100
AcDbArc
 50
0.0
 51
90.0
  0
ARC
  5
1CD
100
AcDbEntity
  8
LC-002-002-RND-0
  6
CONTINUOUS
 62
             7
100
AcDbCircle
 10
240.6679280000001
 20
47.25331799999981
 40
0.5
100
AcDbArc
 50
-90.0
 51
0.0
  0
ARC
  5
1CC
100
AcDbEntity
  8
LC-002-002-RND-0
  6
CONTINUOUS
 62
             7
100
AcDbCircle
 10
238.9773319999999
 20
46.25331799999981
 40
0.5
100
AcDbArc
 50
90.0
 51
180.0
  0
ARC
  5
1CB
100
AcDbEntity
  8
LC-002-002-RND-0
  6
CONTINUOUS
 62
             7
100
AcDbCircle
 10
233.9773319999999
 20
15.44973299999992
 40
0.5
100
AcDbArc
 50
180.0
 51
-90.0
  0
ARC
  5
1CA
100
AcDbEntity
  8
LC-002-002-RND-0
  6
CONTINUOUS
 62
             7
100
AcDbCircle
 10
101.970654
 20
96.74572499999999
 40
0.5
100
AcDbArc
 50
-90.0
 51
0.0
  0
ARC
  5
1C9
100
AcDbEntity
  8
LC-002-002-RND-0
  6
CONTINUOUS
 62
             7
100
AcDbCircle
 10
82.97065399999997
 20
96.74572499999999
 40
0.5
100
AcDbArc
 50
180.0
 51
-90.0
  0
ARC
  5
1C8
100
AcDbEntity
  8
LC-002-002-RND-0
  6
CONTINUOUS
 62
             7
100
AcDbCircle
 10
209.970654
 20
96.74572499999999
 40
0.5
100
AcDbArc
 50
-90.0
 51
0.0
  0
ARC
  5
1C7
100
AcDbEntity
  8
LC-002-002-RND-0
  6
CONTINUOUS
 62
             7
100
AcDbCircle
 10
190.970654
 20
96.74572499999999
 40
0.5
100
AcDbArc
 50
180.0
 51
-90.0
  0
ARC
  5
1C6
100
AcDbEntity
  8
LC-002-002-RND-0
  6
CONTINUOUS
 62
             7
100
AcDbCircle
 10
82.97065399999997
 20
103.74572499999999
 40
0.5
100
AcDbArc
 50
90.0
 51
180.0
  0
ARC
  5
1C5
100
AcDbEntity
  8
LC-002-002-RND-0
  6
CONTINUOUS
 62
             7
100
AcDbCircle
 10
101.970654
 20
103.74572499999999
 40
0.5
100
AcDbArc
 50
0.0
 51
90.0
  0
ARC
  5
1C4
100
AcDbEntity
  8
LC-002-002-RND-0
  6
CONTINUOUS
 62
             7
100
AcDbCircle
 10
190.970654
 20
103.74572499999999
 40
0.5
100
AcDbArc
 50
90.0
 51
180.0
  0
ARC
  5
1C3
100
AcDbEntity
  8
LC-002-002-RND-0
  6
CONTINUOUS
 62
             7
100
AcDbCircle
 10
209.970654
 20
103.74572499999999
 40
0.5
100
AcDbArc
 50
0.0
 51
90.0
  0
ARC
  5
1C2
100
AcDbEntity
  8
LC-002-002-RND-0
  6
CONTINUOUS
 62
             7
100
AcDbCircle
 10
233.9773319999999
 20
-24.88128900000015
 40
0.5
100
AcDbArc
 50
90.0
 51
180.0
  0
ARC
  5
1C1
100
AcDbEntity
  8
LC-002-002-RND-0
  6
CONTINUOUS
 62
             7
100
AcDbCircle
 10
233.9773319999999
 20
-81.74930300000028
 40
0.5
100
AcDbArc
 50
180.0
 51
-90.0
  0
ARC
  5
1C0
100
AcDbEntity
  8
LC-002-002-RND-0
  6
CONTINUOUS
 62
             7
100
AcDbCircle
 10
240.6679280000001
 20
-81.74930300000028
 40
0.5
100
AcDbArc
 50
-90.0
 51
0.0
  0
ARC
  5
1BF
100
AcDbEntity
  8
LC-002-002-RND-0
  6
CONTINUOUS
 62
             7
100
AcDbCircle
 10
240.6679280000001
 20
-64.74930300000028
 40
0.5
100
AcDbArc
 50
0.0
 51
90.0
  0
ARC
  5
1BE
100
AcDbEntity
  8
LC-002-002-RND-0
  6
CONTINUOUS
 62
             7
100
AcDbCircle
 10
238.9773319999999
 20
-63.74930300000028
 40
0.5
100
AcDbArc
 50
180.0
 51
-90.0
  0
ARC
  5
1BD
100
AcDbEntity
  8
LC-002-002-RND-0
  6
CONTINUOUS
 62
             7
100
AcDbCircle
 10
238.9773319999999
 20
50.75322299999993
 40
0.5
100
AcDbArc
 50
90.0
 51
180.0
  0
ARC
  5
1BC
100
AcDbEntity
  8
LC-002-002-RND-0
  6
CONTINUOUS
 62
             7
100
AcDbCircle
 10
238.9773319999999
 20
-71.96499700000027
 40
0.5
100
AcDbArc
 50
180.0
 51
-90.0
  0
ARC
  5
1BB
100
AcDbEntity
  8
LC-002-002-RND-0
  6
CONTINUOUS
 62
             7
100
AcDbCircle
 10
58.33820200000002
 20
-60.45000000000005
 40
0.99999999999967
100
AcDbArc
 50
0.99999999997604
 51
90.0
  0
ARC
  5
1BA
100
AcDbEntity
  8
LC-002-002-RND-0
  6
CONTINUOUS
 62
             7
100
AcDbCircle
 10
56.22788400000013
 20
60.45000000000005
 40
1.0
100
AcDbArc
 50
-90.0
 51
0.99999999997617
  0
ARC
  5
1B9
100
AcDbEntity
  8
LC-002-002-RND-0
  6
CONTINUOUS
 62
             7
100
AcDbCircle
 10
236.29105799999999
 20
65.25331799999981
 40
0.49999999999965
100
AcDbArc
 50
179.00335300004016
 51
-90.0
  0
ARC
  5
1B8
100
AcDbEntity
  8
LC-002-002-RND-0
  6
CONTINUOUS
 62
             7
100
AcDbCircle
 10
240.6679280000001
 20
51.75322299999993
 40
0.5
100
AcDbArc
 50
-90.0
 51
0.0
  0
ARC
  5
1B7
100
AcDbEntity
  8
LC-002-002-RND-0
  6
CONTINUOUS
 62
             7
100
AcDbCircle
 10
0.5
 20
58.95000000000005
 40
0.5
100
AcDbArc
 50
90.0
 51
180.0
  0
ARC
  5
1B6
100
AcDbEntity
  8
LC-002-002-RND-0
  6
CONTINUOUS
 62
             7
100
AcDbCircle
 10
240.6679280000001
 20
-72.96499700000027
 40
0.5
100
AcDbArc
 50
0.0
 51
90.0
  0
ARC
  5
1B5
100
AcDbEntity
  8
LC-002-002-RND-0
  6
CONTINUOUS
 62
             7
100
AcDbCircle
 10
0.5
 20
-58.95000000000005
 40
0.5
100
AcDbArc
 50
180.0
 51
-90.0
  0
ARC
  5
1B4
100
AcDbEntity
  8
LC-001-002-----0
  6
CONTINUOUS
 62
             7
100
AcDbCircle
 10
279.59421900000012
 20
225.99635900000001
 40
3.0
100
AcDbArc
 50
90.0
 51
179.9998480000136
  0
ARC
  5
1B3
100
AcDbEntity
  8
LC-001-002-----0
  6
CONTINUOUS
 62
             7
100
AcDbCircle
 10
298.09421900000012
 20
225.99635900000001
 40
3.0
100
AcDbArc
 50
0.0
 51
90.0
  0
ARC
  5
1B2
100
AcDbEntity
  8
LC-001-002-----0
  6
CONTINUOUS
 62
             7
100
AcDbCircle
 10
288.59421900000012
 20
208.49635900000001
 40
2.0
100
AcDbArc
 50
90.0
 51
179.99984800000979
  0
ARC
  5
1B1
100
AcDbEntity
  8
LC-001-002-----0
  6
CONTINUOUS
 62
             7
100
AcDbCircle
 10
284.59421900000012
 20
193.49635900000001
 40
2.00000000000014
100
AcDbArc
 50
-89.9999419999984
 51
0.0
  0
ARC
  5
1B0
100
AcDbEntity
  8
LC-001-002-----0
  6
CONTINUOUS
 62
             7
100
AcDbCircle
 10
278.59421900000012
 20
193.49635900000001
 40
2.00000000000005
100
AcDbArc
 50
179.99984800000979
 51
-90.0
  0
ARC
  5
1AF
100
AcDbEntity
  8
LC-001-002-----0
  6
CONTINUOUS
 62
             7
100
AcDbCircle
 10
304.09421900000012
 20
213.99635900000001
 40
3.00000000000002
100
AcDbArc
 50
-59.99988300000073
 51
179.99988800000784
  0
ARC
  5
1AE
100
AcDbEntity
  8
LC-001-002-----0
  6
CONTINUOUS
 62
             7
100
AcDbCircle
 10
409.62305800000013
 20
125.783846
 40
1.0
100
AcDbArc
 50
0.0
 51
71.28469999999152
  0
ARC
  5
1AD
100
AcDbEntity
  8
LC-001-002-----0
  6
CONTINUOUS
 62
             7
100
AcDbCircle
 10
401.05655999999999
 20
103.38010199999989
 40
24.35759900000019
100
AcDbArc
 50
66.87414800000094
 51
110.2572870000002
  0
ARC
  5
1AC
100
AcDbEntity
  8
LC-001-002-----0
  6
CONTINUOUS
 62
             7
100
AcDbCircle
 10
370.6233850000001
 20
122.20025199999991
 40
1.00000000000021
100
AcDbArc
 50
179.99996299998472
 51
-110.00011399999602
  0
ARC
  5
1AB
100
AcDbEntity
  8
LC-001-002-----0
  6
CONTINUOUS
 62
             7
100
AcDbCircle
 10
370.62338799999998
 20
125.780321
 40
1.00000000000007
100
AcDbArc
 50
108.72563699997781
 51
179.99996299998389
  0
ARC
  5
1AA
100
AcDbEntity
  8
LC-001-002-----0
  6
CONTINUOUS
 62
             7
100
AcDbCircle
 10
409.62305800000013
 20
122.2003609999999
 40
1.00000000000006
100
AcDbArc
 50
-69.9998669999993
 51
0.0
  0
ARC
  5
1A9
100
AcDbEntity
  8
LC-001-002-----0
  6
CONTINUOUS
 62
             7
100
AcDbCircle
 10
379.18987099999998
 20
103.379987
 40
24.3575989999996
100
AcDbArc
 50
69.74267599999976
 51
113.12581499999946
  0
ARC
  5
1A8
100
AcDbEntity
  8
LC-001-002-----0
  6
CONTINUOUS
 62
             7
100
AcDbCircle
 10
240.9997820000001
 20
55.97839699999963
 40
15.02413600000069
100
AcDbArc
 50
165.15176399999885
 51
-165.15176400000055
  0
ARC
  5
1A7
100
AcDbEntity
  8
LC-001-002-----0
  6
CONTINUOUS
 62
             7
100
AcDbCircle
 10
229.51248200000009
 20
50.31581799999981
 40
3.53515100000021
100
AcDbArc
 50
149.1556250000024
 51
-149.15562500000252
  0
ARC
  5
1A6
100
AcDbEntity
  8
LC-001-002-----0
  6
CONTINUOUS
 62
             7
100
AcDbCircle
 10
228.74718100000001
 20
61.41589699999963
 40
2.76985899999978
100
AcDbArc
 50
145.03295499998961
 51
-145.03295499999732
  0
ARC
  5
1A5
100
AcDbEntity
  8
LC-001-002-----0
  6
CONTINUOUS
 62
             7
100
AcDbCircle
 10
241.33607499999991
 20
55.97839699999963
 40
15.0241359999997
100
AcDbArc
 50
-14.84823600000035
 51
14.84823600000205
  0
ARC
  5
1A4
100
AcDbEntity
  8
LC-001-002-----0
  6
CONTINUOUS
 62
             7
100
AcDbCircle
 10
252.82337499999991
 20
50.31581799999981
 40
3.53515100000028
100
AcDbArc
 50
-30.84437499999679
 51
30.84437499999688
  0
ARC
  5
1A3
100
AcDbEntity
  8
LC-001-002-----0
  6
CONTINUOUS
 62
             7
100
AcDbCircle
 10
253.58867600000011
 20
61.41589699999963
 40
2.76985899999959
100
AcDbArc
 50
-34.96704500000168
 51
34.96704500000939
  0
ARC
  5
1A2
100
AcDbEntity
  8
LC-001-002-----0
  6
CONTINUOUS
 62
             7
100
AcDbCircle
 10
304.09421900000012
 20
221.99635900000001
 40
3.0
100
AcDbArc
 50
180.0
 51
-89.99994199999894
  0
ARC
  5
1A1
100
AcDbEntity
  8
LC-001-002-----0
  6
CONTINUOUS
 62
             7
100
AcDbCircle
 10
240.9997820000001
 20
-73.02422400000023
 40
15.02413600000063
100
AcDbArc
 50
165.1517639999997
 51
-165.15176400000055
  0
ARC
  5
1A0
100
AcDbEntity
  8
LC-001-002-----0
  6
CONTINUOUS
 62
             7
100
AcDbCircle
 10
304.09421900000012
 20
205.99635900000001
 40
3.0
100
AcDbArc
 50
90.0
 51
180.0
  0
ARC
  5
19F
100
AcDbEntity
  8
LC-001-002-----0
  6
CONTINUOUS
 62
             7
100
AcDbCircle
 10
304.09421900000012
 20
213.99635900000001
 40
5.0
100
AcDbArc
 50
-90.0
 51
90.00004000000729
  0
ARC
  5
19E
100
AcDbEntity
  8
LC-001-002-----0
  6
CONTINUOUS
 62
             7
100
AcDbCircle
 10
229.51248200000009
 20
-78.68680300000028
 40
3.53515100000033
100
AcDbArc
 50
149.15562499999936
 51
-149.15562500000252
  0
ARC
  5
19D
100
AcDbEntity
  8
LC-001-002-----0
  6
CONTINUOUS
 62
             7
100
AcDbCircle
 10
228.74718100000001
 20
-67.58672400000023
 40
2.76985899999965
100
AcDbArc
 50
145.03295499999345
 51
-145.03295499999732
  0
ARC
  5
19C
100
AcDbEntity
  8
LC-002-002-RND-0
  6
CONTINUOUS
 62
             7
100
AcDbCircle
 10
254.16777700000009
 20
-85.99936600000024
 40
5.0
100
AcDbArc
 50
-179.005581000001
 51
-90.0
  0
ARC
  5
19B
100
AcDbEntity
  8
LC-001-002-----0
  6
CONTINUOUS
 62
             7
100
AcDbCircle
 10
241.33607499999991
 20
-73.02422400000023
 40
15.0241359999997
100
AcDbArc
 50
-14.84823600000035
 51
14.84823600000119
  0
ARC
  5
19A
100
AcDbEntity
  8
LC-001-002-----0
  6
CONTINUOUS
 62
             7
100
AcDbCircle
 10
252.82337499999991
 20
-78.68680300000028
 40
3.53515100000028
100
AcDbArc
 50
-30.84437499999679
 51
30.84437499999995
  0
ARC
  5
199
100
AcDbEntity
  8
LC-001-002-----0
  6
CONTINUOUS
 62
             7
100
AcDbCircle
 10
253.58867600000011
 20
-67.58672400000023
 40
2.76985899999959
100
AcDbArc
 50
-34.96704500000168
 51
34.96704500000553
  0
ARC
  5
198
100
AcDbEntity
  8
LC-002-002-RND-0
  6
CONTINUOUS
 62
             7
100
AcDbCircle
 10
280.19872500000002
 20
-86.49912100000006
 40
0.5
100
AcDbArc
 50
90.0
 51
180.0
  0
ARC
  5
197
100
AcDbEntity
  8
LC-002-002-RND-0
  6
CONTINUOUS
 62
             7
100
AcDbCircle
 10
279.19872500000002
 20
-90.49936600000024
 40
0.5
100
AcDbArc
 50
-90.0
 51
0.0
  0
ARC
  5
196
100
AcDbEntity
  8
LC-002-002-RND-0
  6
CONTINUOUS
 62
             7
100
AcDbCircle
 10
241.6679280000001
 20
64.25331799999981
 40
0.5
100
AcDbArc
 50
90.0
 51
180.0
  0
ARC
  5
195
100
AcDbEntity
  8
LC-002-002-RND-0
  6
CONTINUOUS
 62
             7
100
AcDbCircle
 10
248.3585250000001
 20
64.25331799999981
 40
0.5
100
AcDbArc
 50
0.0
 51
90.0
  0
ARC
  5
194
100
AcDbEntity
  8
LC-002-002-RND-0
  6
CONTINUOUS
 62
             7
100
AcDbCircle
 10
243.3585250000001
 20
46.25331799999981
 40
0.5
100
AcDbArc
 50
0.0
 51
90.0
  0
ARC
  5
193
100
AcDbEntity
  8
LC-002-002-RND-0
  6
CONTINUOUS
 62
             7
100
AcDbCircle
 10
241.6679280000001
 20
47.25331799999981
 40
0.5
100
AcDbArc
 50
180.0
 51
-90.0
  0
ARC
  5
192
100
AcDbEntity
  8
LC-002-002-RND-0
  6
CONTINUOUS
 62
             7
100
AcDbCircle
 10
248.3585250000001
 20
16.55426799999987
 40
0.5
100
AcDbArc
 50
-90.0
 51
0.0
  0
ARC
  5
191
100
AcDbEntity
  8
LC-002-002-RND-0
  6
CONTINUOUS
 62
             7
100
AcDbCircle
 10
243.3585250000001
 20
-63.74939800000016
 40
0.49999999999999
100
AcDbArc
 50
-90.0
 51
0.0
  0
ARC
  5
190
100
AcDbEntity
  8
LC-002-002-RND-0
  6
CONTINUOUS
 62
             7
100
AcDbCircle
 10
241.6679280000001
 20
-64.74939800000016
 40
0.5
100
AcDbArc
 50
90.0
 51
180.0
  0
ARC
  5
18F
100
AcDbEntity
  8
LC-002-002-RND-0
  6
CONTINUOUS
 62
             7
100
AcDbCircle
 10
241.6679280000001
 20
-81.74939800000016
 40
0.5
100
AcDbArc
 50
180.0
 51
-90.0
  0
ARC
  5
18E
100
AcDbEntity
  8
LC-002-002-RND-0
  6
CONTINUOUS
 62
             7
100
AcDbCircle
 10
248.3585250000001
 20
-41.0774100000001
 40
0.5
100
AcDbArc
 50
0.0
 51
90.0
  0
ARC
  5
18D
100
AcDbEntity
  8
LC-002-002-RND-0
  6
CONTINUOUS
 62
             7
100
AcDbCircle
 10
291.51793700000007
 20
81.99635899999998
 40
0.5
100
AcDbArc
 50
-90.0
 51
0.0
  0
ARC
  5
18C
100
AcDbEntity
  8
LC-002-002-RND-0
  6
CONTINUOUS
 62
             7
100
AcDbCircle
 10
272.51793700000007
 20
81.99635899999998
 40
0.5
100
AcDbArc
 50
180.0
 51
-90.0
  0
ARC
  5
18B
100
AcDbEntity
  8
LC-002-002-RND-0
  6
CONTINUOUS
 62
             7
100
AcDbCircle
 10
399.51793700000007
 20
81.99635899999998
 40
0.5
100
AcDbArc
 50
-90.0
 51
0.0
  0
ARC
  5
18A
100
AcDbEntity
  8
LC-002-002-RND-0
  6
CONTINUOUS
 62
             7
100
AcDbCircle
 10
380.51793700000007
 20
81.99635899999998
 40
0.5
100
AcDbArc
 50
180.0
 51
-90.0
  0
ARC
  5
189
100
AcDbEntity
  8
LC-002-002-RND-0
  6
CONTINUOUS
 62
             7
100
AcDbCircle
 10
272.51793700000007
 20
88.99635899999998
 40
0.5
100
AcDbArc
 50
90.0
 51
180.0
  0
ARC
  5
188
100
AcDbEntity
  8
LC-002-002-RND-0
  6
CONTINUOUS
 62
             7
100
AcDbCircle
 10
291.51793700000007
 20
88.99635899999998
 40
0.5
100
AcDbArc
 50
0.0
 51
90.0
  0
ARC
  5
187
100
AcDbEntity
  8
LC-002-002-RND-0
  6
CONTINUOUS
 62
             7
100
AcDbCircle
 10
380.51793700000007
 20
88.99635899999998
 40
0.5
100
AcDbArc
 50
90.0
 51
180.0
  0
ARC
  5
186
100
AcDbEntity
  8
LC-002-002-RND-0
  6
CONTINUOUS
 62
             7
100
AcDbCircle
 10
399.51793700000007
 20
88.99635899999998
 40
0.5
100
AcDbArc
 50
0.0
 51
90.0
  0
ARC
  5
185
100
AcDbEntity
  8
LC-002-002-RND-0
  6
CONTINUOUS
 62
             7
100
AcDbCircle
 10
243.3585250000001
 20
50.75322299999993
 40
0.5
100
AcDbArc
 50
0.0
 51
90.0
  0
ARC
  5
184
100
AcDbEntity
  8
LC-002-002-RND-0
  6
CONTINUOUS
 62
             7
100
AcDbCircle
 10
243.3585250000001
 20
-71.96509200000014
 40
0.5
100
AcDbArc
 50
-90.0
 51
0.0
  0
ARC
  5
183
100
AcDbEntity
  8
LC-002-002-RND-0
  6
CONTINUOUS
 62
             7
100
AcDbCircle
 10
248.6092350000001
 20
-82.74939800000016
 40
0.50000000000024
100
AcDbArc
 50
1.01670200000545
 51
90.0
  0
ARC
  5
182
100
AcDbEntity
  8
LC-002-002-RND-0
  6
CONTINUOUS
 62
             7
100
AcDbCircle
 10
241.6679280000001
 20
51.75322299999993
 40
0.5
100
AcDbArc
 50
180.0
 51
-90.0
  0
ARC
  5
181
100
AcDbEntity
  8
LC-002-002-RND-0
  6
CONTINUOUS
 62
             7
100
AcDbCircle
 10
241.6679280000001
 20
-72.96509200000014
 40
0.5
100
AcDbArc
 50
90.0
 51
180.0
  0
ARC
  5
180
100
AcDbEntity
  8
LC-002-002-RND-0
  6
CONTINUOUS
 62
             7
100
AcDbCircle
 10
425.99632999999989
 20
25.00076599999989
 40
1.00000000000023
100
AcDbArc
 50
179.00335299998918
 51
-89.998488999993
  0
ARC
  5
17F
100
AcDbEntity
  8
LC-001-002-----0
  6
CONTINUOUS
 62
             7
100
AcDbCircle
 10
200.4758570000001
 20
82.98939700000005
 40
61.75632799999964
100
AcDbArc
 50
71.2847009999999
 51
108.7256559999998
  0
ARC
  5
17E
100
AcDbEntity
  8
LC-001-002-----0
  6
CONTINUOUS
 62
             7
100
AcDbCircle
 10
189.53988700000011
 20
159.3594350000001
 40
24.35759900000064
100
AcDbArc
 50
-113.13242600000018
 51
-69.74244699999966
  0
ARC
  5
17D
100
AcDbEntity
  8
LC-001-002-----0
  6
CONTINUOUS
 62
             7
100
AcDbCircle
 10
211.4014380000001
 20
159.3595499999999
 40
24.35759899999973
100
AcDbArc
 50
-110.25759100000118
 51
-66.86761100000113
  0
ARC
  5
17C
100
AcDbEntity
  8
LC-001-002-----0
  6
CONTINUOUS
 62
             7
100
AcDbCircle
 10
219.97049200000021
 20
140.53321200000011
 40
1.0
100
AcDbArc
 50
0.0
 51
71.28469999999432
  0
ARC
  5
17B
100
AcDbEntity
  8
LC-001-002-----0
  6
CONTINUOUS
 62
             7
100
AcDbCircle
 10
211.40399400000001
 20
118.1294679999999
 40
24.35759900000022
100
AcDbArc
 50
66.87414800000067
 51
110.25728700000026
  0
ARC
  5
17A
100
AcDbEntity
  8
LC-001-002-----0
  6
CONTINUOUS
 62
             7
100
AcDbCircle
 10
180.97081900000009
 20
136.9496179999999
 40
1.00000000000021
100
AcDbArc
 50
179.99996300000669
 51
-110.00011399999629
  0
ARC
  5
179
100
AcDbEntity
  8
LC-001-002-----0
  6
CONTINUOUS
 62
             7
100
AcDbCircle
 10
180.97082100000009
 20
140.52968799999991
 40
1.0000000000005
100
AcDbArc
 50
108.72563699997974
 51
179.99996299998389
  0
ARC
  5
178
100
AcDbEntity
  8
LC-001-002-----0
  6
CONTINUOUS
 62
             7
100
AcDbCircle
 10
219.97049200000021
 20
136.94972799999979
 40
1.00000000000002
100
AcDbArc
 50
-69.99986700000541
 51
0.0
  0
ARC
  5
177
100
AcDbEntity
  8
LC-001-002-----0
  6
CONTINUOUS
 62
             7
100
AcDbCircle
 10
189.53730500000009
 20
118.12935299999999
 40
24.35759899999946
100
AcDbArc
 50
69.74267600000064
 51
113.12581499999955
  0
ARC
  5
176
100
AcDbEntity
  8
LC-001-002-----0
  6
CONTINUOUS
 62
             7
100
AcDbCircle
 10
92.47585700000002
 20
82.98939700000005
 40
61.75632799999966
100
AcDbArc
 50
71.28470099999984
 51
108.72565599999973
  0
ARC
  5
175
100
AcDbEntity
  8
LC-001-002-----0
  6
CONTINUOUS
 62
             7
100
AcDbCircle
 10
81.53988700000002
 20
159.3594350000001
 40
24.35759900000062
100
AcDbArc
 50
-113.13242600000005
 51
-69.74244699999953
  0
ARC
  5
174
100
AcDbEntity
  8
LC-001-002-----0
  6
CONTINUOUS
 62
             7
100
AcDbCircle
 10
103.4014380000001
 20
159.3595499999999
 40
24.35759899999973
100
AcDbArc
 50
-110.25759100000118
 51
-66.86761100000116
  0
ARC
  5
173
100
AcDbEntity
  8
LC-001-002-----0
  6
CONTINUOUS
 62
             7
100
AcDbCircle
 10
111.97049199999999
 20
140.53321200000011
 40
1.0
100
AcDbArc
 50
0.0
 51
71.28469999998815
  0
ARC
  5
172
100
AcDbEntity
  8
LC-001-002-----0
  6
CONTINUOUS
 62
             7
100
AcDbCircle
 10
103.403994
 20
118.1294679999999
 40
24.35759900000014
100
AcDbArc
 50
66.87414800000111
 51
110.25728700000029
  0
ARC
  5
171
100
AcDbEntity
  8
LC-001-002-----0
  6
CONTINUOUS
 62
             7
100
AcDbCircle
 10
72.97081900000012
 20
136.9496179999999
 40
1.00000000000021
100
AcDbArc
 50
179.99996300000669
 51
-110.00011399999629
  0
ARC
  5
170
100
AcDbEntity
  8
LC-001-002-----0
  6
CONTINUOUS
 62
             7
100
AcDbCircle
 10
72.97082100000012
 20
140.52968799999991
 40
1.0000000000005
100
AcDbArc
 50
108.72563699997974
 51
179.99996299998389
  0
ARC
  5
16F
100
AcDbEntity
  8
LC-001-002-----0
  6
CONTINUOUS
 62
             7
100
AcDbCircle
 10
111.97049199999999
 20
136.94972799999979
 40
1.0000000000001
100
AcDbArc
 50
-69.99986699999317
 51
0.0
  0
ARC
  5
16E
100
AcDbEntity
  8
LC-001-002-----0
  6
CONTINUOUS
 62
             7
100
AcDbCircle
 10
81.53730500000006
 20
118.12935299999999
 40
24.35759899999952
100
AcDbArc
 50
69.74267600000027
 51
113.12581499999985
  0
ARC
  5
16D
100
AcDbEntity
  8
LC-002-002-RND-0
  6
CONTINUOUS
 62
             7
100
AcDbCircle
 10
272.62305800000013
 20
96.99635899999998
 40
0.5
100
AcDbArc
 50
90.0
 51
180.0
  0
ARC
  5
16C
100
AcDbEntity
  8
LC-002-002-RND-0
  6
CONTINUOUS
 62
             7
100
AcDbCircle
 10
291.62305800000013
 20
96.99635899999998
 40
0.5
100
AcDbArc
 50
0.0
 51
90.0
  0
ARC
  5
16B
100
AcDbEntity
  8
LC-002-002-RND-0
  6
CONTINUOUS
 62
             7
100
AcDbCircle
 10
272.62305800000013
 20
89.99635899999998
 40
0.5
100
AcDbArc
 50
180.0
 51
-90.0
  0
ARC
  5
16A
100
AcDbEntity
  8
LC-002-002-RND-0
  6
CONTINUOUS
 62
             7
100
AcDbCircle
 10
291.62305800000013
 20
89.99635899999998
 40
0.5
100
AcDbArc
 50
-90.0
 51
0.0
  0
ARC
  5
169
100
AcDbEntity
  8
LC-002-002-RND-0
  6
CONTINUOUS
 62
             7
100
AcDbCircle
 10
380.62322
 20
96.99635899999998
 40
0.5
100
AcDbArc
 50
90.0
 51
180.0
  0
ARC
  5
168
100
AcDbEntity
  8
LC-002-002-RND-0
  6
CONTINUOUS
 62
             7
100
AcDbCircle
 10
399.62322
 20
96.99635899999998
 40
0.5
100
AcDbArc
 50
0.0
 51
90.0
  0
ARC
  5
167
100
AcDbEntity
  8
LC-002-002-RND-0
  6
CONTINUOUS
 62
             7
100
AcDbCircle
 10
380.62322
 20
89.99635899999998
 40
0.5
100
AcDbArc
 50
180.0
 51
-90.0
  0
ARC
  5
166
100
AcDbEntity
  8
LC-002-002-RND-0
  6
CONTINUOUS
 62
             7
100
AcDbCircle
 10
399.62322
 20
89.99635899999998
 40
0.5
100
AcDbArc
 50
-90.0
 51
0.0
  0
ARC
  5
165
100
AcDbEntity
  8
LC-002-002-----0
  6
CONTINUOUS
 62
             7
100
AcDbCircle
 10
208.49572300000011
 20
236.39612949999969
 40
10.0
100
AcDbArc
 50
90.0
 51
180.0
  0
ARC
  5
164
100
AcDbEntity
  8
LC-002-002-----0
  6
CONTINUOUS
 62
             7
100
AcDbCircle
 10
208.49572300000011
 20
236.39612949999969
 40
4.0
100
AcDbArc
 50
90.0
 51
180.0
  0
ARC
  5
163
100
AcDbEntity
  8
LC-002-002-----0
  6
DASHDOT
 62
             2
100
AcDbCircle
 10
208.49572300000011
 20
236.39612949999969
 40
7.0
100
AcDbArc
 50
90.0
 51
180.0
  0
ARC
  5
162
100
AcDbEntity
  8
LC-002-002-----0
  6
CONTINUOUS
 62
             7
100
AcDbCircle
 10
198.49572300000011
 20
233.39612949999969
 40
3.0
100
AcDbArc
 50
90.0
 51
180.0
  0
ARC
  5
161
100
AcDbEntity
  8
LC-002-002-----0
  6
CONTINUOUS
 62
             7
100
AcDbCircle
 10
204.49572300000011
 20
233.39612949999969
 40
3.0
100
AcDbArc
 50
0.0
 51
90.0
  0
ARC
  5
160
100
AcDbEntity
  8
LC-002-002-----0
  6
CONTINUOUS
 62
             7
100
AcDbCircle
 10
201.49572300000011
 20
225.77112949999969
 40
6.62500000000017
100
AcDbArc
 50
58.10920799999864
 51
121.89079200000158
  0
ARC
  5
15F
100
AcDbEntity
  8
LC-002-002-----0
  6
CONTINUOUS
 62
             7
100
AcDbCircle
 10
196.24572300000011
 20
230.36487949999969
 40
2.03125000000067
100
AcDbArc
 50
30.51023700000216
 51
149.48976299999541
  0
ARC
  5
15E
100
AcDbEntity
  8
LC-002-002-----0
  6
CONTINUOUS
 62
             7
100
AcDbCircle
 10
206.74572300000011
 20
230.36487949999969
 40
2.03125000000067
100
AcDbArc
 50
30.51023700000216
 51
149.48976299999541
  0
ARC
  5
15D
100
AcDbEntity
  8
LC-002-002-----0
  6
CONTINUOUS
 62
             7
100
AcDbCircle
 10
220.22868200000019
 20
226.39612949999969
 40
20.0
100
AcDbArc
 50
0.0
 51
90.0
  0
ARC
  5
15C
100
AcDbEntity
  8
LC-002-002-----0
  6
DASHDOT
 62
             2
100
AcDbCircle
 10
220.22868200000019
 20
226.39612949999969
 40
17.0
100
AcDbArc
 50
0.0
 51
90.0
  0
ARC
  5
15B
100
AcDbEntity
  8
LC-002-002-----0
  6
CONTINUOUS
 62
             7
100
AcDbCircle
 10
220.22868200000019
 20
226.39612949999969
 40
14.0
100
AcDbArc
 50
0.0
 51
90.0
  0
ARC
  5
15A
100
AcDbEntity
  8
LC-001-100-D02-0
  6
CONTINUOUS
 62
             7
100
AcDbCircle
 10
239.4376220000002
 20
132.20643377422951
 40
0.99436699999998
100
AcDbArc
 50
0.0
 51
90.0
  0
ARC
  5
159
100
AcDbEntity
  8
LC-001-100-D02-0
  6
CONTINUOUS
 62
             7
100
AcDbCircle
 10
53.88873000000012
 20
132.2068869776723
 40
0.99436700000001
100
AcDbArc
 50
90.0
 51
180.0
  0
LINE
  5
158
100
AcDbEntity
  8
LC-001-002-----0
  6
CONTINUOUS
 62
             7
100
AcDbLine
 10
52.77537200000006
 20
104.24572499999999
 11
240.12593600000011
 21
104.24572499999999
  0
LINE
  5
157
100
AcDbEntity
  8
LC-001-002-----0
  6
CONTINUOUS
 62
             7
100
AcDbLine
 10
55.27537200000006
 20
119.24572499999999
 11
82.97080700000004
 21
119.24572499999999
  0
LINE
  5
156
100
AcDbEntity
  8
LC-001-002-----0
  6
CONTINUOUS
 62
             7
100
AcDbLine
 10
52.27537200000006
 20
116.24572499999999
 11
52.27537200000006
 21
104.7457249999995
  0
LINE
  5
155
100
AcDbEntity
  8
LC-001-002-----0
  6
CONTINUOUS
 62
             7
100
AcDbLine
 10
240.62593600000011
 20
116.24572499999999
 11
240.62593600000011
 21
104.74572499999999
  0
LINE
  5
154
100
AcDbEntity
  8
LC-001-002-----0
  6
CONTINUOUS
 62
             7
100
AcDbLine
 10
82.97065399999997
 20
112.24572499999999
 11
101.970654
 21
112.24572499999999
  0
LINE
  5
153
100
AcDbEntity
  8
LC-001-002-----0
  6
CONTINUOUS
 62
             7
100
AcDbLine
 10
190.970654
 20
112.24572499999999
 11
209.970654
 21
112.24572499999999
  0
LINE
  5
152
100
AcDbEntity
  8
LC-001-002-----0
  6
CONTINUOUS
 62
             7
100
AcDbLine
 10
102.470654
 20
104.74572499999999
 11
102.470654
 21
111.74572499999999
  0
LINE
  5
151
100
AcDbEntity
  8
LC-001-002-----0
  6
CONTINUOUS
 62
             7
100
AcDbLine
 10
82.47065399999997
 20
104.74572499999999
 11
82.47065399999997
 21
111.74572499999999
  0
LINE
  5
150
100
AcDbEntity
  8
LC-001-002-----0
  6
CONTINUOUS
 62
             7
100
AcDbLine
 10
210.470654
 20
104.74572499999999
 11
210.470654
 21
111.74572499999999
  0
LINE
  5
14F
100
AcDbEntity
  8
LC-001-002-----0
  6
CONTINUOUS
 62
             7
100
AcDbLine
 10
190.470654
 20
104.74572499999999
 11
190.470654
 21
111.74572499999999
  0
LINE
  5
14E
100
AcDbEntity
  8
LC-001-002-----0
  6
CONTINUOUS
 62
             7
100
AcDbLine
 10
59.53275600000006
 20
-71.33727200000021
 11
56.46794300000011
 21
104.24572499999999
  0
LINE
  5
14D
100
AcDbEntity
  8
LC-001-002-----0
  6
CONTINUOUS
 62
             7
100
AcDbLine
 10
90.96711200000004
 20
96.24572499999999
 11
90.96711200000004
 21
70.81305099999986
  0
LINE
  5
14C
100
AcDbEntity
  8
LC-001-002-----0
  6
CONTINUOUS
 62
             7
100
AcDbLine
 10
82.97065399999997
 20
96.24572499999999
 11
101.970654
 21
96.24572499999999
  0
LINE
  5
14B
100
AcDbEntity
  8
LC-001-002-----0
  6
CONTINUOUS
 62
             7
100
AcDbLine
 10
190.970654
 20
96.24572499999999
 11
209.970654
 21
96.24572499999999
  0
LINE
  5
14A
100
AcDbEntity
  8
LC-001-002-----0
  6
CONTINUOUS
 62
             7
100
AcDbLine
 10
82.47065399999997
 20
103.74572499999999
 11
82.47065399999997
 21
96.74572499999999
  0
LINE
  5
149
100
AcDbEntity
  8
LC-001-002-----0
  6
CONTINUOUS
 62
             7
100
AcDbLine
 10
102.470654
 20
96.74572499999999
 11
102.470654
 21
103.74572499999999
  0
LINE
  5
148
100
AcDbEntity
  8
LC-001-002-----0
  6
CONTINUOUS
 62
             7
100
AcDbLine
 10
261.62322399999988
 20
122.20025199999991
 11
261.62322600000022
 21
125.7803219999998
  0
LINE
  5
147
100
AcDbEntity
  8
LC-001-002-----0
  6
CONTINUOUS
 62
             7
100
AcDbLine
 10
67.11996718272746
 20
133.20125397767231
 11
68.76133600000013
 21
245.8916094999997
  0
LINE
  5
146
100
AcDbEntity
  8
LC-002-002-RND-0
  6
CONTINUOUS
 62
             7
100
AcDbLine
 10
226.48220342496771
 20
133.20080077422949
 11
225.0091630000002
 21
218.89612950000009
  0
LINE
  5
145
100
AcDbEntity
  8
LC-001-002-----0
  6
CONTINUOUS
 62
             7
100
AcDbLine
 10
135.13117100000011
 20
223.89612949999969
 11
220.0091630000002
 21
223.89612949999969
  0
LINE
  5
144
100
AcDbEntity
  8
LC-001-002-----0
  6
CONTINUOUS
 62
             7
100
AcDbLine
 10
65.88410599999997
 20
119.2458340000001
 11
82.97080700000004
 21
119.2458340000001
  0
LINE
  5
143
100
AcDbEntity
  8
LC-001-002-----0
  6
CONTINUOUS
 62
             7
100
AcDbLine
 10
232.383478
 20
119.2458340000001
 11
240.13310700000011
 21
119.2458340000001
  0
LINE
  5
142
100
AcDbEntity
  8
LC-001-002-----0
  6
CONTINUOUS
 62
             7
100
AcDbLine
 10
53.09349300000008
 20
119.2458340000001
 11
65.88410599999997
 21
119.2458340000001
  0
LINE
  5
141
100
AcDbEntity
  8
LC-001-002-----0
  6
CONTINUOUS
 62
             7
100
AcDbLine
 10
52.59349300000008
 20
119.7458340000001
 11
52.59349300000008
 21
124.7458340000001
  0
LINE
  5
140
100
AcDbEntity
  8
LC-001-002-----0
  6
CONTINUOUS
 62
             7
100
AcDbLine
 10
53.09349300000008
 20
125.2458340000001
 11
82.97081100000003
 21
125.2458340000001
  0
LINE
  5
13F
100
AcDbEntity
  8
LC-001-002-----0
  6
CONTINUOUS
 62
             7
100
AcDbLine
 10
240.13405700000001
 20
125.2458340000001
 11
227.60212324955859
 21
125.2458340000001
  0
LINE
  5
13E
100
AcDbEntity
  8
LC-001-002-----0
  6
CONTINUOUS
 62
             7
100
AcDbLine
 10
240.63310700000011
 20
119.7458340000001
 11
240.63310700000011
 21
124.7458340000001
  0
LINE
  5
13D
100
AcDbEntity
  8
LC-001-002-----0
  6
CONTINUOUS
 62
             7
100
AcDbLine
 10
73.76133600000014
 20
250.8916094999997
 11
125.13117100000009
 21
250.8916094999997
  0
LINE
  5
13C
100
AcDbEntity
  8
LC-001-002-----0
  6
CONTINUOUS
 62
             7
100
AcDbLine
 10
89.61809900000003
 20
251.3916094999997
 11
89.61809900000026
 21
260.4988145000018
  0
LINE
  5
13B
100
AcDbEntity
  8
LC-001-002-----0
  6
CONTINUOUS
 62
             7
100
AcDbLine
 10
90.11809900000003
 20
260.99881449999998
 11
116.118099
 21
260.99881449999998
  0
LINE
  5
13A
100
AcDbEntity
  8
LC-001-002-----0
  6
CONTINUOUS
 62
             7
100
AcDbLine
 10
116.618099
 20
251.3916094999997
 11
116.6180990000003
 21
260.4988145000018
  0
LINE
  5
139
100
AcDbEntity
  8
LC-001-002-----0
  6
CONTINUOUS
 62
             7
100
AcDbLine
 10
130.13117100000011
 20
228.89612949999969
 11
130.13117100000011
 21
245.8916094999997
  0
LINE
  5
138
100
AcDbEntity
  8
LC-001-002-----0
  6
CONTINUOUS
 62
             7
100
AcDbLine
 10
284.62322300000011
 20
121.76054499999989
 11
279.64356500000008
 21
121.760548
  0
LINE
  5
137
100
AcDbEntity
  8
LC-001-002-----0
  6
CONTINUOUS
 62
             7
100
AcDbLine
 10
279.62322300000011
 20
121.760548
 11
279.62322600000022
 21
126.230992
  0
LINE
  5
136
100
AcDbEntity
  8
LC-001-002-----0
  6
CONTINUOUS
 62
             7
100
AcDbLine
 10
284.62322600000022
 20
126.230988
 11
279.62322600000022
 21
126.230992
  0
LINE
  5
135
100
AcDbEntity
  8
LC-001-002-----0
  6
CONTINUOUS
 62
             7
100
AcDbLine
 10
284.62322300000011
 20
121.76054499999989
 11
284.62322600000022
 21
126.230988
  0
LINE
  5
134
100
AcDbEntity
  8
LC-001-002-----0
  6
CONTINUOUS
 62
             7
100
AcDbLine
 10
291.62289700000002
 20
117.4964809999999
 11
301.96491700000001
 21
121.26066899999999
  0
LINE
  5
133
100
AcDbEntity
  8
LC-001-002-----0
  6
CONTINUOUS
 62
             7
100
AcDbLine
 10
291.62289700000002
 20
117.4964809999999
 11
282.12289700000002
 21
117.4964809999999
  0
LINE
  5
132
100
AcDbEntity
  8
LC-001-002-----0
  6
CONTINUOUS
 62
             7
100
AcDbLine
 10
242.46422400000009
 20
89.49635899999998
 11
429.77478799999989
 21
89.49635899999998
  0
LINE
  5
131
100
AcDbEntity
  8
LC-001-002-----0
  6
CONTINUOUS
 62
             7
100
AcDbLine
 10
248.8585250000001
 20
47.25331799999981
 11
248.8585250000001
 21
64.25331799999981
  0
LINE
  5
130
100
AcDbEntity
  8
LC-001-002-----0
  6
CONTINUOUS
 62
             7
100
AcDbLine
 10
272.62322
 20
117.4963649999997
 11
262.281203
 21
121.2605590000001
  0
LINE
  5
12F
100
AcDbEntity
  8
LC-001-002-----0
  6
CONTINUOUS
 62
             7
100
AcDbLine
 10
272.62322
 20
117.4963649999997
 11
282.12322
 21
117.496359
  0
LINE
  5
12E
100
AcDbEntity
  8
LC-001-002-----0
  6
CONTINUOUS
 62
             7
100
AcDbLine
 10
272.62320700000009
 20
97.49636499999974
 11
272.62322
 21
117.4963649999997
  0
LINE
  5
12D
100
AcDbEntity
  8
LC-001-002-----0
  6
CONTINUOUS
 62
             7
100
AcDbLine
 10
291.62289700000002
 20
97.49635299999977
 11
291.62289700000002
 21
117.4964809999999
  0
LINE
  5
12C
100
AcDbEntity
  8
LC-001-002-----0
  6
CONTINUOUS
 62
             7
100
AcDbLine
 10
272.62338199999999
 20
89.49636499999974
 11
291.62305800000013
 21
89.49635299999977
  0
LINE
  5
12B
100
AcDbEntity
  8
LC-001-002-----0
  6
CONTINUOUS
 62
             7
100
AcDbLine
 10
291.62289700000002
 20
111.496359
 11
304.09421900000012
 21
111.496359
  0
LINE
  5
12A
100
AcDbEntity
  8
LC-001-002-----0
  6
CONTINUOUS
 62
             7
100
AcDbLine
 10
302.62289700000002
 20
122.2003609999999
 11
302.62289700000002
 21
125.783846
  0
LINE
  5
129
100
AcDbEntity
  8
LC-001-002-----0
  6
CONTINUOUS
 62
             7
100
AcDbLine
 10
304.69421899999998
 20
111.496359
 11
304.09421900000012
 21
111.496359
  0
LINE
  5
128
100
AcDbEntity
  8
LC-001-002-----0
  6
CONTINUOUS
 62
             7
100
AcDbLine
 10
305.19421899999998
 20
110.996359
 11
305.19421899999998
 21
105.496359
  0
LINE
  5
127
100
AcDbEntity
  8
LC-001-002-----0
  6
CONTINUOUS
 62
             7
100
AcDbLine
 10
306.19421899999998
 20
104.496359
 11
380.62337900000011
 21
104.496359
  0
LINE
  5
126
100
AcDbEntity
  8
LC-001-002-----0
  6
DASHDOT
 62
             2
100
AcDbLine
 10
294.59421900000012
 20
210.49635900000001
 11
294.59421900000012
 21
104.496359
  0
LINE
  5
125
100
AcDbEntity
  8
LC-001-002-----0
  6
CONTINUOUS
 62
             7
100
AcDbLine
 10
241.96422400000009
 20
101.496359
 11
241.96422400000009
 21
89.99635899999998
  0
LINE
  5
124
100
AcDbEntity
  8
LC-001-002-----0
  6
CONTINUOUS
 62
             7
100
AcDbLine
 10
430.27478799999989
 20
101.496359
 11
430.27478799999989
 21
89.99635899999998
  0
LINE
  5
123
100
AcDbEntity
  8
LC-001-002-----0
  6
CONTINUOUS
 62
             7
100
AcDbLine
 10
369.6233850000001
 20
122.20025199999991
 11
369.62338799999998
 21
125.7803219999998
  0
LINE
  5
122
100
AcDbEntity
  8
LC-001-002-----0
  6
CONTINUOUS
 62
             7
100
AcDbLine
 10
244.96422400000009
 20
104.496359
 11
272.62337900000011
 21
104.496359
  0
LINE
  5
121
100
AcDbEntity
  8
LC-001-002-----0
  6
CONTINUOUS
 62
             7
100
AcDbLine
 10
392.6233850000001
 20
121.76054499999989
 11
387.64372700000013
 21
121.760548
  0
LINE
  5
120
100
AcDbEntity
  8
LC-001-002-----0
  6
CONTINUOUS
 62
             7
100
AcDbLine
 10
387.6233850000001
 20
121.760548
 11
387.62338799999998
 21
126.230992
  0
LINE
  5
11F
100
AcDbEntity
  8
LC-001-002-----0
  6
CONTINUOUS
 62
             7
100
AcDbLine
 10
298.59421900000012
 20
210.49635900000001
 11
290.59421900000012
 21
210.49635900000001
  0
LINE
  5
11E
100
AcDbEntity
  8
LC-001-002-----0
  6
CONTINUOUS
 62
             7
100
AcDbLine
 10
190.470654
 20
103.74572499999999
 11
190.470654
 21
96.74572499999999
  0
LINE
  5
11D
100
AcDbEntity
  8
LC-001-002-----0
  6
CONTINUOUS
 62
             7
100
AcDbLine
 10
210.470654
 20
96.74572499999999
 11
210.470654
 21
103.74572499999999
  0
LINE
  5
11C
100
AcDbEntity
  8
LC-001-002-----0
  6
CONTINUOUS
 62
             7
100
AcDbLine
 10
1.5
 20
59.45000000000005
 11
0.5
 21
59.45000000000005
  0
LINE
  5
11B
100
AcDbEntity
  8
LC-001-002-----0
  6
CONTINUOUS
 62
             7
100
AcDbLine
 10
93.96711200000004
 20
96.24572499999999
 11
93.96711200000004
 21
70.81305099999986
  0
LINE
  5
11A
100
AcDbEntity
  8
LC-001-002-----0
  6
CONTINUOUS
 62
             7
100
AcDbLine
 10
201.96711199999999
 20
96.24572499999999
 11
201.96711199999999
 21
70.81305099999986
  0
LINE
  5
119
100
AcDbEntity
  8
LC-001-002-----0
  6
CONTINUOUS
 62
             7
100
AcDbLine
 10
1.5
 20
-59.45000000000005
 11
0.5
 21
-59.45000000000005
  0
LINE
  5
118
100
AcDbEntity
  8
LC-001-002-----0
  6
CONTINUOUS
 62
             7
100
AcDbLine
 10
290.59421900000012
 20
210.49635900000001
 11
290.59421900000012
 21
208.49635900000001
  0
LINE
  5
117
100
AcDbEntity
  8
LC-001-002-----0
  6
CONTINUOUS
 62
             7
100
AcDbLine
 10
16.5
 20
-64.75000000000023
 11
6.5
 21
-64.75000000000023
  0
LINE
  5
116
100
AcDbEntity
  8
LC-001-002-----0
  6
CONTINUOUS
 62
             7
100
AcDbLine
 10
198.96711199999999
 20
96.24572499999999
 11
198.96711199999999
 21
70.81305099999986
  0
LINE
  5
115
100
AcDbEntity
  8
LC-001-002-----0
  6
CONTINUOUS
 62
             7
100
AcDbLine
 10
21.5
 20
-59.45000000000005
 11
58.33820200000002
 21
-59.45000000000005
  0
LINE
  5
114
100
AcDbEntity
  8
LC-001-002-----0
  6
CONTINUOUS
 62
             7
100
AcDbLine
 10
90.96711200000004
 20
70.81305099999986
 11
93.96711200000004
 21
70.81305099999986
  0
LINE
  5
113
100
AcDbEntity
  8
LC-001-002-----0
  6
CONTINUOUS
 62
             7
100
AcDbLine
 10
201.96711199999999
 20
70.81305099999986
 11
198.96711199999999
 21
70.81305099999986
  0
LINE
  5
112
100
AcDbEntity
  8
LC-001-002-----0
  6
CONTINUOUS
 62
             7
100
AcDbLine
 10
0.0
 20
-55.45000000000005
 11
0.0
 21
-58.95000000000005
  0
LINE
  5
111
100
AcDbEntity
  8
LC-001-002-----0
  6
CONTINUOUS
 62
             7
100
AcDbLine
 10
301.09421900000012
 20
208.49635900000001
 11
287.09421900000012
 21
208.49635900000001
  0
LINE
  5
110
100
AcDbEntity
  8
LC-001-002-----0
  6
CONTINUOUS
 62
             7
100
AcDbLine
 10
287.09421900000012
 20
208.49635900000001
 11
287.09421900000012
 21
129.79637399999979
  0
LINE
  5
10F
100
AcDbEntity
  8
LC-001-002-----0
  6
CONTINUOUS
 62
             7
100
AcDbLine
 10
0.0
 20
58.95000000000005
 11
0.0
 21
-58.95000000000005
  0
LINE
  5
10E
100
AcDbEntity
  8
LC-001-002-----0
  6
CONTINUOUS
 62
             7
100
AcDbLine
 10
20.5
 20
60.74999999999977
 11
20.5
 21
-60.75000000000023
  0
LINE
  5
10D
100
AcDbEntity
  8
LC-001-002-----0
  6
CONTINUOUS
 62
             7
100
AcDbLine
 10
2.5
 20
60.74999999999977
 11
2.5
 21
-60.75000000000023
  0
LINE
  5
10C
100
AcDbEntity
  8
LC-001-002-----0
  6
CONTINUOUS
 62
             7
100
AcDbLine
 10
16.5
 20
64.74999999999977
 11
6.5
 21
64.74999999999977
  0
LINE
  5
10B
100
AcDbEntity
  8
LC-001-002-----0
  6
CONTINUOUS
 62
             7
100
AcDbLine
 10
90.54986200000008
 20
-71.24975500000005
 11
225.9773319999999
 21
-71.24975500000005
  0
LINE
  5
10A
100
AcDbEntity
  8
LC-001-002-----0
  6
CONTINUOUS
 62
             7
100
AcDbLine
 10
21.5
 20
59.45000000000005
 11
56.22788400000013
 21
59.45000000000005
  0
LINE
  5
109
100
AcDbEntity
  8
LC-001-002-----0
  6
CONTINUOUS
 62
             7
100
AcDbLine
 10
64.53255899999999
 20
-76.25000000000023
 11
89.54986200000008
 21
-76.25000000000023
  0
LINE
  5
108
100
AcDbEntity
  8
LC-001-002-----0
  6
CONTINUOUS
 62
             7
100
AcDbLine
 10
90.04986200000008
 20
6.61723999999981
 11
90.04986200000008
 21
-75.75000000000023
  0
LINE
  5
107
100
AcDbEntity
  8
LC-001-002-----0
  6
CONTINUOUS
 62
             7
100
AcDbLine
 10
233.4773319999999
 20
-24.88128900000015
 11
233.4773319999999
 21
-81.74930300000028
  0
LINE
  5
106
100
AcDbEntity
  8
LC-001-002-----0
  6
CONTINUOUS
 62
             7
100
AcDbLine
 10
233.9773319999999
 20
-82.24930300000028
 11
240.6679280000001
 21
-82.24930300000028
  0
LINE
  5
105
100
AcDbEntity
  8
LC-001-002-----0
  6
CONTINUOUS
 62
             7
100
AcDbLine
 10
233.9773319999999
 20
64.75331799999981
 11
240.6679280000001
 21
64.75331799999981
  0
LINE
  5
104
100
AcDbEntity
  8
LC-001-002-----0
  6
CONTINUOUS
 62
             7
100
AcDbLine
 10
238.9773319999999
 20
46.75331799999981
 11
240.6679280000001
 21
46.75331799999981
  0
LINE
  5
103
100
AcDbEntity
  8
LC-001-002-----0
  6
CONTINUOUS
 62
             7
100
AcDbLine
 10
235.791133
 20
65.26201500000002
 11
236.46931399999991
 21
104.24572499999999
  0
LINE
  5
102
100
AcDbEntity
  8
LC-001-002-----0
  6
CONTINUOUS
 62
             7
100
AcDbLine
 10
238.4773319999999
 20
14.94973299999992
 11
233.9773319999999
 21
14.94973299999992
  0
LINE
  5
101
100
AcDbEntity
  8
LC-001-002-----0
  6
CONTINUOUS
 62
             7
100
AcDbLine
 10
233.4773319999999
 20
15.44973299999992
 11
233.4773319999999
 21
64.25331799999981
  0
LINE
  5
100
100
AcDbEntity
  8
LC-001-002-----0
  6
CONTINUOUS
 62
             7
100
AcDbLine
 10
238.4773319999999
 20
-24.38128900000015
 11
233.9773319999999
 21
-24.38128900000015
  0
LINE
  5
FF
100
AcDbEntity
  8
LC-001-002-----0
  6
CONTINUOUS
 62
             7
100
AcDbLine
 10
238.4773319999999
 20
-24.38128900000015
 11
238.4773319999999
 21
-71.96499700000027
  0
LINE
  5
FE
100
AcDbEntity
  8
LC-007-006-MLN-0
  6
DASHDOT
 62
             2
100
AcDbLine
 10
200.470654
 20
154.74572499999999
 11
200.470654
 21
60.81305099999986
  0
LINE
  5
FD
100
AcDbEntity
  8
LC-001-002-----0
  6
CONTINUOUS
 62
             7
100
AcDbLine
 10
238.4773319999999
 20
50.75322299999993
 11
238.4773319999999
 21
-24.38128900000015
  0
LINE
  5
FC
100
AcDbEntity
  8
LC-001-002-----0
  6
CONTINUOUS
 62
             7
100
AcDbLine
 10
250.8585250000001
 20
47.25331799999981
 11
250.8585250000001
 21
64.25331799999981
  0
LINE
  5
FB
100
AcDbEntity
  8
LC-007-006-MLN-0
  6
DASHDOT
 62
             2
100
AcDbLine
 10
92.47065399999997
 20
154.74572499999999
 11
92.47065399999997
 21
60.81305099999986
  0
LINE
  5
FA
100
AcDbEntity
  8
LC-001-002-----0
  6
CONTINUOUS
 62
             7
100
AcDbLine
 10
241.1679280000001
 20
47.25331799999981
 11
241.1679280000001
 21
64.25331799999981
  0
LINE
  5
F9
100
AcDbEntity
  8
LC-001-002-----0
  6
CONTINUOUS
 62
             7
100
AcDbLine
 10
241.1679280000001
 20
-64.74930300000028
 11
241.1679280000001
 21
-81.74930300000028
  0
LINE
  5
F8
100
AcDbEntity
  8
LC-001-002-----0
  6
CONTINUOUS
 62
             7
100
AcDbLine
 10
238.9773319999999
 20
-64.24930300000028
 11
240.6679280000001
 21
-64.24930300000028
  0
LINE
  5
F7
100
AcDbEntity
  8
LC-001-002-----0
  6
CONTINUOUS
 62
             7
100
AcDbLine
 10
238.9773319999999
 20
51.25322299999993
 11
240.6679280000001
 21
51.25322299999993
  0
LINE
  5
F6
100
AcDbEntity
  8
LC-001-002-----0
  6
CONTINUOUS
 62
             7
100
AcDbLine
 10
238.9773319999999
 20
-72.46499700000027
 11
240.6679280000001
 21
-72.46499700000027
  0
LINE
  5
F5
100
AcDbEntity
  8
LC-008-007-KH--0
  6
DASHDOT
 62
             7
100
AcDbLine
 10
241.1679280000001
 20
-72.46499700000027
 11
241.1679280000001
 21
-72.62499700000012
  0
LINE
  5
F4
100
AcDbEntity
  8
LC-001-002-----0
  6
DASHDOT
 62
             2
100
AcDbLine
 10
225.9773319999999
 20
55.75331799999981
 11
256.3585250000001
 21
55.75331799999981
  0
LINE
  5
F3
100
AcDbEntity
  8
LC-001-002-----0
  6
CONTINUOUS
 62
             7
100
AcDbLine
 10
298.59421900000012
 20
208.49635900000001
 11
298.59421900000012
 21
210.49635900000001
  0
LINE
  5
F2
100
AcDbEntity
  8
LC-001-002-----0
  6
DASHED
 62
             2
100
AcDbLine
 10
290.59421900000012
 20
129.41332299999999
 11
290.59421900000012
 21
208.49635900000001
  0
LINE
  5
F1
100
AcDbEntity
  8
LC-001-002-----0
  6
DASHED
 62
             2
100
AcDbLine
 10
298.59421900000012
 20
127.7607529999998
 11
298.59421900000012
 21
208.49635900000001
  0
LINE
  5
F0
100
AcDbEntity
  8
LC-001-002-----0
  6
CONTINUOUS
 62
             7
100
AcDbLine
 10
301.09421900000012
 20
210.49635900000001
 11
298.59421900000012
 21
210.49635900000001
  0
LINE
  5
EF
100
AcDbEntity
  8
LC-001-002-----0
  6
CONTINUOUS
 62
             7
100
AcDbLine
 10
279.59421900000012
 20
228.99635900000001
 11
298.09421900000012
 21
228.99635900000001
  0
LINE
  5
EE
100
AcDbEntity
  8
LC-001-002-----0
  6
CONTINUOUS
 62
             7
100
AcDbLine
 10
288.59421900000012
 20
210.49635900000001
 11
290.59421900000012
 21
210.49635900000001
  0
LINE
  5
ED
100
AcDbEntity
  8
LC-001-002-----0
  6
CONTINUOUS
 62
             7
100
AcDbLine
 10
286.59421900000012
 20
208.49635900000001
 11
286.59421900000012
 21
193.49635900000001
  0
LINE
  5
EC
100
AcDbEntity
  8
LC-001-002-----0
  6
CONTINUOUS
 62
             7
100
AcDbLine
 10
284.59421900000012
 20
191.49635900000001
 11
278.59421900000012
 21
191.49635900000001
  0
LINE
  5
EB
100
AcDbEntity
  8
LC-001-002-----0
  6
CONTINUOUS
 62
             7
100
AcDbLine
 10
276.59421900000012
 20
193.49635900000001
 11
276.59421900000012
 21
225.99635900000001
  0
LINE
  5
EA
100
AcDbEntity
  8
LC-001-002-----0
  6
CONTINUOUS
 62
             7
100
AcDbLine
 10
305.59421900000012
 20
211.39828299999979
 11
306.59421900000012
 21
209.66623199999981
  0
LINE
  5
E9
100
AcDbEntity
  8
LC-001-002-----0
  6
CONTINUOUS
 62
             7
100
AcDbLine
 10
301.09421900000012
 20
213.99635900000001
 11
301.09421900000012
 21
210.49635900000001
  0
LINE
  5
E8
100
AcDbEntity
  8
LC-001-002-----0
  6
CONTINUOUS
 62
             7
100
AcDbLine
 10
392.62338799999998
 20
126.230988
 11
387.62338799999998
 21
126.230992
  0
LINE
  5
E7
100
AcDbEntity
  8
LC-001-002-----0
  6
CONTINUOUS
 62
             7
100
AcDbLine
 10
392.6233850000001
 20
121.76054499999989
 11
392.62338799999998
 21
126.230988
  0
LINE
  5
E6
100
AcDbEntity
  8
LC-001-002-----0
  6
CONTINUOUS
 62
             7
100
AcDbLine
 10
399.62305800000013
 20
117.4964809999999
 11
409.96507900000012
 21
121.26066899999999
  0
LINE
  5
E5
100
AcDbEntity
  8
LC-001-002-----0
  6
CONTINUOUS
 62
             7
100
AcDbLine
 10
399.62305800000013
 20
117.4964809999999
 11
390.12305800000013
 21
117.4964809999999
  0
LINE
  5
E4
100
AcDbEntity
  8
LC-001-002-----0
  6
CONTINUOUS
 62
             7
100
AcDbLine
 10
380.62338199999999
 20
117.4963649999997
 11
370.28136500000011
 21
121.2605590000001
  0
LINE
  5
E3
100
AcDbEntity
  8
LC-001-002-----0
  6
CONTINUOUS
 62
             7
100
AcDbLine
 10
380.62338199999999
 20
117.4963649999997
 11
390.12338199999999
 21
117.496359
  0
LINE
  5
E2
100
AcDbEntity
  8
LC-001-002-----0
  6
CONTINUOUS
 62
             7
100
AcDbLine
 10
380.62336900000008
 20
97.49636499999974
 11
380.62338199999999
 21
117.4963649999997
  0
LINE
  5
E1
100
AcDbEntity
  8
LC-001-002-----0
  6
CONTINUOUS
 62
             7
100
AcDbLine
 10
399.62305800000013
 20
97.49635299999977
 11
399.62305800000013
 21
117.4964809999999
  0
LINE
  5
E0
100
AcDbEntity
  8
LC-001-002-----0
  6
CONTINUOUS
 62
             7
100
AcDbLine
 10
380.62338199999999
 20
89.49636499999974
 11
399.62305800000013
 21
89.49635299999977
  0
LINE
  5
DF
100
AcDbEntity
  8
LC-001-002-----0
  6
CONTINUOUS
 62
             7
100
AcDbLine
 10
410.62305800000013
 20
122.2003609999999
 11
410.62305800000013
 21
125.783846
  0
LINE
  5
DE
100
AcDbEntity
  8
LC-001-002-----0
  6
DASHDOT
 62
             2
100
AcDbLine
 10
304.09422000000001
 20
216.99635900000001
 11
304.09422000000001
 21
211.49635900000001
  0
LINE
  5
DD
100
AcDbEntity
  8
LC-001-002-----0
  6
CONTINUOUS
 62
             7
100
AcDbLine
 10
246.55031500000001
 20
64.75331799999981
 11
246.12083499999989
 21
89.49635899999998
  0
LINE
  5
DC
100
AcDbEntity
  8
LC-001-002-----0
  6
CONTINUOUS
 62
             7
100
AcDbLine
 10
399.62305800000013
 20
104.496359
 11
427.20478800000001
 21
104.496359
  0
LINE
  5
DB
100
AcDbEntity
  8
LC-001-002-----0
  6
CONTINUOUS
 62
             7
100
AcDbLine
 10
291.62305800000013
 20
104.496359
 11
306.19421899999998
 21
104.496359
  0
LINE
  5
DA
100
AcDbEntity
  8
LC-001-002-----0
  6
CONTINUOUS
 62
             7
100
AcDbLine
 10
250.8585250000001
 20
50.75331799999981
 11
248.8585250000001
 21
50.75331799999981
  0
LINE
  5
D9
100
AcDbEntity
  8
LC-001-002-----0
  6
CONTINUOUS
 62
             7
100
AcDbLine
 10
233.4773319999999
 20
47.25331799999981
 11
233.4773319999999
 21
64.25331799999981
  0
LINE
  5
D8
100
AcDbEntity
  8
LC-001-002-----0
  6
CONTINUOUS
 62
             7
100
AcDbLine
 10
231.4773319999999
 20
47.25331799999981
 11
231.4773319999999
 21
64.25331799999981
  0
LINE
  5
D7
100
AcDbEntity
  8
LC-001-002-----0
  6
CONTINUOUS
 62
             7
100
AcDbLine
 10
231.4773319999999
 20
50.75331799999981
 11
233.4773319999999
 21
50.75331799999981
  0
LINE
  5
D6
100
AcDbEntity
  8
LC-001-002-----0
  6
CONTINUOUS
 62
             7
100
AcDbLine
 10
231.4773319999999
 20
60.75331799999981
 11
233.4773319999999
 21
60.75331799999981
  0
LINE
  5
D5
100
AcDbEntity
  8
LC-001-002-----0
  6
CONTINUOUS
 62
             7
100
AcDbLine
 10
225.9773319999999
 20
48.50331799999981
 11
225.9773319999999
 21
63.00331799999981
  0
LINE
  5
D4
100
AcDbEntity
  8
LC-001-002-----0
  6
CONTINUOUS
 62
             7
100
AcDbLine
 10
250.8585250000001
 20
60.75331799999981
 11
248.8585250000001
 21
60.75331799999981
  0
LINE
  5
D3
100
AcDbEntity
  8
LC-001-002-----0
  6
CONTINUOUS
 62
             7
100
AcDbLine
 10
225.9773319999999
 20
48.50331799999981
 11
231.4773319999999
 21
48.50331799999981
  0
LINE
  5
D2
100
AcDbEntity
  8
LC-001-002-----0
  6
CONTINUOUS
 62
             7
100
AcDbLine
 10
226.4773319999999
 20
52.12831799999981
 11
231.4773319999999
 21
52.12831799999981
  0
LINE
  5
D1
100
AcDbEntity
  8
LC-001-002-----0
  6
DASHDOT
 62
             2
100
AcDbLine
 10
301.09421900000012
 20
213.99635900000001
 11
307.09421900000012
 21
213.99635900000001
  0
LINE
  5
D0
100
AcDbEntity
  8
LC-001-002-----0
  6
CONTINUOUS
 62
             7
100
AcDbLine
 10
226.4773319999999
 20
59.82847699999979
 11
231.4773319999999
 21
59.82847699999979
  0
LINE
  5
CF
100
AcDbEntity
  8
LC-001-002-----0
  6
CONTINUOUS
 62
             7
100
AcDbLine
 10
301.09421900000012
 20
225.99635900000001
 11
301.09421900000012
 21
221.99635900000001
  0
LINE
  5
CE
100
AcDbEntity
  8
LC-001-002-----0
  6
CONTINUOUS
 62
             7
100
AcDbLine
 10
256.3585250000001
 20
48.50331799999981
 11
256.3585250000001
 21
63.00331799999981
  0
LINE
  5
CD
100
AcDbEntity
  8
LC-001-002-----0
  6
CONTINUOUS
 62
             7
100
AcDbLine
 10
225.9773319999999
 20
63.00331799999981
 11
231.4773319999999
 21
63.00331799999981
  0
LINE
  5
CC
100
AcDbEntity
  8
LC-001-002-----0
  6
CONTINUOUS
 62
             7
100
AcDbLine
 10
256.3585250000001
 20
48.50331799999981
 11
250.8585250000001
 21
48.50331799999981
  0
LINE
  5
CB
100
AcDbEntity
  8
LC-001-002-----0
  6
CONTINUOUS
 62
             7
100
AcDbLine
 10
231.4773319999999
 20
47.25331799999981
 11
233.4773319999999
 21
47.25331799999981
  0
LINE
  5
CA
100
AcDbEntity
  8
LC-001-002-----0
  6
CONTINUOUS
 62
             7
100
AcDbLine
 10
304.09421900000012
 20
218.99635900000001
 11
304.09421900000012
 21
218.99635900000001
  0
LINE
  5
C9
100
AcDbEntity
  8
LC-001-002-----0
  6
CONTINUOUS
 62
             7
100
AcDbLine
 10
255.8585250000001
 20
52.12831799999981
 11
250.8585250000001
 21
52.12831799999981
  0
LINE
  5
C8
100
AcDbEntity
  8
LC-001-002-----0
  6
CONTINUOUS
 62
             7
100
AcDbLine
 10
301.09421900000012
 20
111.496359
 11
301.09421900000012
 21
120.9437609999998
  0
LINE
  5
C7
100
AcDbEntity
  8
LC-001-002-----0
  6
CONTINUOUS
 62
             7
100
AcDbLine
 10
255.8585250000001
 20
59.82847699999979
 11
250.8585250000001
 21
59.82847699999979
  0
LINE
  5
C6
100
AcDbEntity
  8
LC-001-002-----0
  6
CONTINUOUS
 62
             7
100
AcDbLine
 10
256.3585250000001
 20
63.00331799999981
 11
250.8585250000001
 21
63.00331799999981
  0
LINE
  5
C5
100
AcDbEntity
  8
LC-001-002-----0
  6
CONTINUOUS
 62
             7
100
AcDbLine
 10
250.8585250000001
 20
47.25331799999981
 11
248.8585250000001
 21
47.25331799999981
  0
LINE
  5
C4
100
AcDbEntity
  8
LC-001-002-----0
  6
CONTINUOUS
 62
             7
100
AcDbLine
 10
250.8585250000001
 20
64.25331799999981
 11
248.8585250000001
 21
64.25331799999981
  0
LINE
  5
C3
100
AcDbEntity
  8
LC-001-002-----0
  6
CONTINUOUS
 62
             7
100
AcDbLine
 10
231.4773319999999
 20
64.25331799999981
 11
233.4773319999999
 21
64.25331799999981
  0
LINE
  5
C2
100
AcDbEntity
  8
LC-001-002-----0
  6
CONTINUOUS
 62
             7
100
AcDbLine
 10
233.4773319999999
 20
-81.74930300000028
 11
233.4773319999999
 21
-64.74930300000028
  0
LINE
  5
C1
100
AcDbEntity
  8
LC-001-002-----0
  6
CONTINUOUS
 62
             7
100
AcDbLine
 10
231.4773319999999
 20
-81.74930300000028
 11
231.4773319999999
 21
-64.74930300000028
  0
LINE
  5
C0
100
AcDbEntity
  8
LC-001-002-----0
  6
CONTINUOUS
 62
             7
100
AcDbLine
 10
231.4773319999999
 20
-78.24930300000028
 11
233.4773319999999
 21
-78.24930300000028
  0
LINE
  5
BF
100
AcDbEntity
  8
LC-001-002-----0
  6
CONTINUOUS
 62
             7
100
AcDbLine
 10
231.4773319999999
 20
-68.24930300000028
 11
233.4773319999999
 21
-68.24930300000028
  0
LINE
  5
BE
100
AcDbEntity
  8
LC-001-002-----0
  6
CONTINUOUS
 62
             7
100
AcDbLine
 10
225.9773319999999
 20
-80.49930300000028
 11
225.9773319999999
 21
-65.99930300000028
  0
LINE
  5
BD
100
AcDbEntity
  8
LC-001-002-----0
  6
CONTINUOUS
 62
             7
100
AcDbLine
 10
225.9773319999999
 20
-80.49930300000028
 11
231.4773319999999
 21
-80.49930300000028
  0
LINE
  5
BC
100
AcDbEntity
  8
LC-001-002-----0
  6
CONTINUOUS
 62
             7
100
AcDbLine
 10
226.4773319999999
 20
-76.87430300000028
 11
231.4773319999999
 21
-76.87430300000028
  0
LINE
  5
BB
100
AcDbEntity
  8
LC-001-002-----0
  6
CONTINUOUS
 62
             7
100
AcDbLine
 10
226.4773319999999
 20
-69.17414500000018
 11
231.4773319999999
 21
-69.17414500000018
  0
LINE
  5
BA
100
AcDbEntity
  8
LC-001-002-----0
  6
CONTINUOUS
 62
             7
100
AcDbLine
 10
248.8585250000001
 20
-81.74930300000028
 11
248.8585250000001
 21
-64.74930300000028
  0
LINE
  5
B9
100
AcDbEntity
  8
LC-001-002-----0
  6
CONTINUOUS
 62
             7
100
AcDbLine
 10
250.8585250000001
 20
-81.74930300000028
 11
250.8585250000001
 21
-64.74930300000028
  0
LINE
  5
B8
100
AcDbEntity
  8
LC-001-002-----0
  6
CONTINUOUS
 62
             7
100
AcDbLine
 10
225.9773319999999
 20
-65.99930300000028
 11
231.4773319999999
 21
-65.99930300000028
  0
LINE
  5
B7
100
AcDbEntity
  8
LC-001-002-----0
  6
CONTINUOUS
 62
             7
100
AcDbLine
 10
231.4773319999999
 20
-81.74930300000028
 11
233.4773319999999
 21
-81.74930300000028
  0
LINE
  5
B6
100
AcDbEntity
  8
LC-001-002-----0
  6
CONTINUOUS
 62
             7
100
AcDbLine
 10
241.1679280000001
 20
47.25331799999981
 11
241.1679280000001
 21
64.25331799999981
  0
LINE
  5
B5
100
AcDbEntity
  8
LC-001-002-----0
  6
CONTINUOUS
 62
             7
100
AcDbLine
 10
246.12083499999989
 20
89.49635899999998
 11
426.11817700000012
 21
89.49635899999998
  0
LINE
  5
B4
100
AcDbEntity
  8
LC-001-002-----0
  6
CONTINUOUS
 62
             7
100
AcDbLine
 10
485.49591200000009
 20
24.00233599999979
 11
485.49591200000009
 21
-85.99940400000014
  0
LINE
  5
B3
100
AcDbEntity
  8
LC-001-002-----0
  6
CONTINUOUS
 62
             7
100
AcDbLine
 10
280.61951700000009
 20
81.49635899999998
 11
280.61951700000009
 21
57.36890699999981
  0
LINE
  5
B2
100
AcDbEntity
  8
LC-001-002-----0
  6
CONTINUOUS
 62
             7
100
AcDbLine
 10
272.51793700000007
 20
81.49635899999998
 11
291.51793700000007
 21
81.49635899999998
  0
LINE
  5
B1
100
AcDbEntity
  8
LC-001-002-----0
  6
CONTINUOUS
 62
             7
100
AcDbLine
 10
380.51793700000007
 20
81.49635899999998
 11
399.51793700000007
 21
81.49635899999998
  0
LINE
  5
B0
100
AcDbEntity
  8
LC-001-002-----0
  6
CONTINUOUS
 62
             7
100
AcDbLine
 10
272.01793700000007
 20
88.99635899999998
 11
272.01793700000007
 21
81.99635899999998
  0
LINE
  5
AF
100
AcDbEntity
  8
LC-001-002-----0
  6
CONTINUOUS
 62
             7
100
AcDbLine
 10
292.01793700000007
 20
81.99635899999998
 11
292.01793700000007
 21
88.99635899999998
  0
LINE
  5
AE
100
AcDbEntity
  8
LC-001-002-----0
  6
CONTINUOUS
 62
             7
100
AcDbLine
 10
380.01793700000007
 20
88.99635899999998
 11
380.01793700000007
 21
81.99635899999998
  0
LINE
  5
AD
100
AcDbEntity
  8
LC-001-002-----0
  6
CONTINUOUS
 62
             7
100
AcDbLine
 10
400.01793700000007
 20
81.99635899999998
 11
400.01793700000007
 21
88.99635899999998
  0
LINE
  5
AC
100
AcDbEntity
  8
LC-001-002-----0
  6
CONTINUOUS
 62
             7
100
AcDbLine
 10
283.61951700000009
 20
81.49635899999998
 11
283.61951700000009
 21
57.36890699999981
  0
LINE
  5
AB
100
AcDbEntity
  8
LC-001-002-----0
  6
CONTINUOUS
 62
             7
100
AcDbLine
 10
391.61951700000009
 20
81.49635899999998
 11
391.61951700000009
 21
57.36890699999981
  0
LINE
  5
AA
100
AcDbEntity
  8
LC-001-002-----0
  6
CONTINUOUS
 62
             7
100
AcDbLine
 10
388.61951700000009
 20
81.49635899999998
 11
388.61951700000009
 21
57.36890699999981
  0
LINE
  5
A9
100
AcDbEntity
  8
LC-001-002-----0
  6
CONTINUOUS
 62
             7
100
AcDbLine
 10
280.61951700000009
 20
57.36890699999981
 11
283.61951700000009
 21
57.36890699999981
  0
LINE
  5
A8
100
AcDbEntity
  8
LC-001-002-----0
  6
CONTINUOUS
 62
             7
100
AcDbLine
 10
391.61951700000009
 20
57.36890699999981
 11
388.61951700000009
 21
57.36890699999981
  0
LINE
  5
A7
100
AcDbEntity
  8
LC-001-002-----0
  6
CONTINUOUS
 62
             7
100
AcDbLine
 10
231.4773319999999
 20
-64.74930300000028
 11
233.4773319999999
 21
-64.74930300000028
  0
LINE
  5
A6
100
AcDbEntity
  8
LC-001-002-----0
  6
CONTINUOUS
 62
             7
100
AcDbLine
 10
250.8585250000001
 20
-78.24930300000028
 11
248.8585250000001
 21
-78.24930300000028
  0
LINE
  5
A5
100
AcDbEntity
  8
LC-001-002-----0
  6
CONTINUOUS
 62
             7
100
AcDbLine
 10
485.49591200000009
 20
24.00233599999979
 11
425.99635600000011
 21
24.00076599999989
  0
LINE
  5
A4
100
AcDbEntity
  8
LC-001-002-----0
  6
CONTINUOUS
 62
             7
100
AcDbLine
 10
241.6679280000001
 20
46.75331799999981
 11
243.3585250000001
 21
46.75331799999981
  0
LINE
  5
A3
100
AcDbEntity
  8
LC-001-002-----0
  6
CONTINUOUS
 62
             7
100
AcDbLine
 10
250.8585250000001
 20
-68.24930300000028
 11
248.8585250000001
 21
-68.24930300000028
  0
LINE
  5
A2
100
AcDbEntity
  8
LC-007-006-MLN-0
  6
DASHDOT
 62
             2
100
AcDbLine
 10
390.12305800000013
 20
124.446459
 11
390.12305800000013
 21
47.36890699999981
  0
LINE
  5
A1
100
AcDbEntity
  8
LC-001-002-----0
  6
CONTINUOUS
 62
             7
100
AcDbLine
 10
280.19872500000002
 20
-85.99912100000006
 11
485.48433199999999
 21
-85.99851400000011
  0
LINE
  5
A0
100
AcDbEntity
  8
LC-007-006-MLN-0
  6
DASHDOT
 62
             2
100
AcDbLine
 10
282.12305800000013
 20
139.99635900000001
 11
282.12305800000013
 21
47.36890699999981
  0
LINE
  5
9F
100
AcDbEntity
  8
LC-001-002-----0
  6
CONTINUOUS
 62
             7
100
AcDbLine
 10
254.16777700000009
 20
-90.99936600000024
 11
279.19872500000002
 21
-90.99936600000024
  0
LINE
  5
9E
100
AcDbEntity
  8
LC-001-002-----0
  6
CONTINUOUS
 62
             7
100
AcDbLine
 10
279.69872500000002
 20
-8.13212700000008
 11
279.69872500000002
 21
-90.49936600000024
  0
LINE
  5
9D
100
AcDbEntity
  8
LC-001-002-----0
  6
CONTINUOUS
 62
             7
100
AcDbLine
 10
489.99562800000012
 20
22.79664099999991
 11
489.99562800000012
 21
-84.72032300000024
  0
LINE
  5
9C
100
AcDbEntity
  8
LC-001-002-----0
  6
CONTINUOUS
 62
             7
100
AcDbLine
 10
485.49591200000009
 20
24.00233599999979
 11
489.99562800000012
 21
22.79664099999991
  0
LINE
  5
9B
100
AcDbEntity
  8
LC-001-002-----0
  6
CONTINUOUS
 62
             7
100
AcDbLine
 10
485.49591200000009
 20
-85.99851400000011
 11
489.99562800000012
 21
-84.72032300000024
  0
LINE
  5
9A
100
AcDbEntity
  8
LC-001-002-----0
  6
CONTINUOUS
 62
             7
100
AcDbLine
 10
256.3585250000001
 20
-80.49930300000028
 11
256.3585250000001
 21
-65.99930300000028
  0
LINE
  5
99
100
AcDbEntity
  8
LC-001-002-----0
  6
CONTINUOUS
 62
             7
100
AcDbLine
 10
423.06516600000009
 20
-85.99912100000006
 11
426.11817700000012
 21
89.49635899999998
  0
LINE
  5
98
100
AcDbEntity
  8
LC-001-002-----0
  6
CONTINUOUS
 62
             7
100
AcDbLine
 10
249.1685300000002
 20
-86.08614100000023
 11
249.1091570000001
 21
-82.74052600000027
  0
LINE
  5
97
100
AcDbEntity
  8
LC-001-002-----0
  6
CONTINUOUS
 62
             7
100
AcDbLine
 10
256.3585250000001
 20
-80.49930300000028
 11
250.8585250000001
 21
-80.49930300000028
  0
LINE
  5
96
100
AcDbEntity
  8
LC-001-002-----0
  6
CONTINUOUS
 62
             7
100
AcDbLine
 10
255.8585250000001
 20
-76.87430300000028
 11
250.8585250000001
 21
-76.87430300000028
  0
LINE
  5
95
100
AcDbEntity
  8
LC-001-002-----0
  6
CONTINUOUS
 62
             7
100
AcDbLine
 10
255.8585250000001
 20
-69.17414500000018
 11
250.8585250000001
 21
-69.17414500000018
  0
LINE
  5
94
100
AcDbEntity
  8
LC-001-002-----0
  6
CONTINUOUS
 62
             7
100
AcDbLine
 10
256.3585250000001
 20
-65.99930300000028
 11
250.8585250000001
 21
-65.99930300000028
  0
LINE
  5
93
100
AcDbEntity
  8
LC-001-002-----0
  6
CONTINUOUS
 62
             7
100
AcDbLine
 10
250.8585250000001
 20
-81.74930300000028
 11
248.8585250000001
 21
-81.74930300000028
  0
LINE
  5
92
100
AcDbEntity
  8
LC-001-002-----0
  6
CONTINUOUS
 62
             7
100
AcDbLine
 10
250.8585250000001
 20
-64.74930300000028
 11
248.8585250000001
 21
-64.74930300000028
  0
LINE
  5
91
100
AcDbEntity
  8
LC-001-002-----0
  6
DASHDOT
 62
             2
100
AcDbLine
 10
225.9773319999999
 20
-73.24930300000028
 11
256.36021099999988
 21
-73.24930300000028
  0
LINE
  5
90
100
AcDbEntity
  8
LC-001-002-----0
  6
CONTINUOUS
 62
             7
100
AcDbLine
 10
248.8585250000001
 20
-82.31597600000009
 11
248.8585250000001
 21
-41.0774100000001
  0
LINE
  5
8F
100
AcDbEntity
  8
LC-001-002-----0
  6
CONTINUOUS
 62
             7
100
AcDbLine
 10
248.3585250000001
 20
-40.5774100000001
 11
243.8585250000001
 21
-40.5774100000001
  0
LINE
  5
8E
100
AcDbEntity
  8
LC-001-002-----0
  6
CONTINUOUS
 62
             7
100
AcDbLine
 10
243.8585250000001
 20
-71.96509200000014
 11
243.8585250000001
 21
50.91312799999992
  0
LINE
  5
8D
100
AcDbEntity
  8
LC-001-002-----0
  6
CONTINUOUS
 62
             7
100
AcDbLine
 10
248.8585250000001
 20
16.55426799999987
 11
248.8585250000001
 21
64.25331799999981
  0
LINE
  5
8C
100
AcDbEntity
  8
LC-001-002-----0
  6
CONTINUOUS
 62
             7
100
AcDbLine
 10
241.6679280000001
 20
64.75331799999981
 11
248.3585250000001
 21
64.75331799999981
  0
LINE
  5
8B
100
AcDbEntity
  8
LC-001-002-----0
  6
CONTINUOUS
 62
             7
100
AcDbLine
 10
243.8585250000001
 20
16.05426799999987
 11
248.3585250000001
 21
16.05426799999987
  0
LINE
  5
8A
100
AcDbEntity
  8
LC-001-002-----0
  6
CONTINUOUS
 62
             7
100
AcDbLine
 10
241.6679280000001
 20
-64.24939800000016
 11
243.3585250000001
 21
-64.24939800000016
  0
LINE
  5
89
100
AcDbEntity
  8
LC-001-002-----0
  6
CONTINUOUS
 62
             7
100
AcDbLine
 10
241.1679280000001
 20
-64.74939800000016
 11
241.1679280000001
 21
-81.74939800000016
  0
LINE
  5
88
100
AcDbEntity
  8
LC-001-002-----0
  6
CONTINUOUS
 62
             7
100
AcDbLine
 10
248.6092350000001
 20
-82.24939800000016
 11
241.6679280000001
 21
-82.24939800000016
  0
LINE
  5
87
100
AcDbEntity
  8
LC-001-002-----0
  6
CONTINUOUS
 62
             7
100
AcDbLine
 10
241.6679280000001
 20
51.25322299999993
 11
243.3585250000001
 21
51.25322299999993
  0
LINE
  5
86
100
AcDbEntity
  8
LC-001-002-----0
  6
CONTINUOUS
 62
             7
100
AcDbLine
 10
241.6679280000001
 20
-72.46509200000014
 11
243.3585250000001
 21
-72.46509200000014
  0
LINE
  5
85
100
AcDbEntity
  8
LC-001-002-----0
  6
CONTINUOUS
 62
             7
100
AcDbLine
 10
179.97081900000009
 20
136.94961899999981
 11
179.97082100000009
 21
140.52968799999991
  0
LINE
  5
84
100
AcDbEntity
  8
LC-001-002-----0
  6
CONTINUOUS
 62
             7
100
AcDbLine
 10
202.97081900000009
 20
136.5099109999999
 11
197.9911610000002
 21
136.50991400000001
  0
LINE
  5
83
100
AcDbEntity
  8
LC-001-002-----0
  6
CONTINUOUS
 62
             7
100
AcDbLine
 10
197.97081900000009
 20
136.50991400000001
 11
197.970822
 21
140.9803579999996
  0
LINE
  5
82
100
AcDbEntity
  8
LC-001-002-----0
  6
CONTINUOUS
 62
             7
100
AcDbLine
 10
202.970822
 20
140.98035499999989
 11
197.970822
 21
140.9803579999996
  0
LINE
  5
81
100
AcDbEntity
  8
LC-001-002-----0
  6
CONTINUOUS
 62
             7
100
AcDbLine
 10
202.97081900000009
 20
136.5099109999999
 11
202.970822
 21
140.98035499999989
  0
LINE
  5
80
100
AcDbEntity
  8
LC-001-002-----0
  6
CONTINUOUS
 62
             7
100
AcDbLine
 10
209.97049200000021
 20
132.2458479999998
 11
220.312512
 21
136.01003499999999
  0
LINE
  5
7F
100
AcDbEntity
  8
LC-001-002-----0
  6
CONTINUOUS
 62
             7
100
AcDbLine
 10
209.97049200000021
 20
132.2458479999998
 11
200.47049200000021
 21
132.2458479999998
  0
LINE
  5
7E
100
AcDbEntity
  8
LC-001-002-----0
  6
CONTINUOUS
 62
             7
100
AcDbLine
 10
190.97081600000001
 20
132.24573099999981
 11
180.62879799999999
 21
136.00992600000001
  0
LINE
  5
7D
100
AcDbEntity
  8
LC-001-002-----0
  6
CONTINUOUS
 62
             7
100
AcDbLine
 10
190.97081600000001
 20
132.24573099999981
 11
200.47081600000001
 21
132.24572499999999
  0
LINE
  5
7C
100
AcDbEntity
  8
LC-001-002-----0
  6
CONTINUOUS
 62
             7
100
AcDbLine
 10
190.97080300000019
 20
112.24573099999979
 11
190.97081600000001
 21
132.24573099999981
  0
LINE
  5
7B
100
AcDbEntity
  8
LC-001-002-----0
  6
CONTINUOUS
 62
             7
100
AcDbLine
 10
209.97049200000021
 20
112.2457189999998
 11
209.97049200000021
 21
132.2458479999998
  0
LINE
  5
7A
100
AcDbEntity
  8
LC-001-002-----0
  6
CONTINUOUS
 62
             7
100
AcDbLine
 10
220.97049200000021
 20
136.94972799999979
 11
220.97049200000021
 21
140.53321200000011
  0
LINE
  5
79
100
AcDbEntity
  8
LC-001-002-----0
  6
CONTINUOUS
 62
             7
100
AcDbLine
 10
209.97049200000021
 20
125.2458340000001
 11
227.60212324955859
 21
125.2458340000001
  0
LINE
  5
78
100
AcDbEntity
  8
LC-001-002-----0
  6
CONTINUOUS
 62
             7
100
AcDbLine
 10
209.97049200000021
 20
119.2458340000001
 11
225.3831090000001
 21
119.2458340000001
  0
LINE
  5
77
100
AcDbEntity
  8
LC-001-002-----0
  6
CONTINUOUS
 62
             7
100
AcDbLine
 10
209.97049200000021
 20
119.24572499999999
 11
237.555936
 21
119.24572499999999
  0
LINE
  5
76
100
AcDbEntity
  8
LC-001-002-----0
  6
CONTINUOUS
 62
             7
100
AcDbLine
 10
71.97081900000012
 20
136.94961899999981
 11
71.97082100000012
 21
140.52968799999991
  0
LINE
  5
75
100
AcDbEntity
  8
LC-001-002-----0
  6
CONTINUOUS
 62
             7
100
AcDbLine
 10
94.97081900000012
 20
136.5099109999999
 11
89.99116100000003
 21
136.50991400000001
  0
LINE
  5
74
100
AcDbEntity
  8
LC-001-002-----0
  6
CONTINUOUS
 62
             7
100
AcDbLine
 10
89.97081900000012
 20
136.50991400000001
 11
89.970822
 21
140.9803579999996
  0
LINE
  5
73
100
AcDbEntity
  8
LC-001-002-----0
  6
CONTINUOUS
 62
             7
100
AcDbLine
 10
94.970822
 20
140.98035499999989
 11
89.970822
 21
140.9803579999996
  0
LINE
  5
72
100
AcDbEntity
  8
LC-001-002-----0
  6
CONTINUOUS
 62
             7
100
AcDbLine
 10
94.97081900000012
 20
136.5099109999999
 11
94.970822
 21
140.98035499999989
  0
LINE
  5
71
100
AcDbEntity
  8
LC-001-002-----0
  6
CONTINUOUS
 62
             7
100
AcDbLine
 10
101.97049199999999
 20
132.2458479999998
 11
112.312512
 21
136.01003499999999
  0
LINE
  5
70
100
AcDbEntity
  8
LC-001-002-----0
  6
CONTINUOUS
 62
             7
100
AcDbLine
 10
101.97049199999999
 20
132.2458479999998
 11
92.47049200000004
 21
132.2458479999998
  0
LINE
  5
6F
100
AcDbEntity
  8
LC-001-002-----0
  6
CONTINUOUS
 62
             7
100
AcDbLine
 10
82.97081600000001
 20
132.24573099999981
 11
72.62879800000007
 21
136.00992600000001
  0
LINE
  5
6E
100
AcDbEntity
  8
LC-001-002-----0
  6
CONTINUOUS
 62
             7
100
AcDbLine
 10
82.97081600000001
 20
132.24573099999981
 11
92.47081600000001
 21
132.24572499999999
  0
LINE
  5
6D
100
AcDbEntity
  8
LC-001-002-----0
  6
CONTINUOUS
 62
             7
100
AcDbLine
 10
82.97080300000005
 20
112.24573099999979
 11
82.97081600000001
 21
132.24573099999981
  0
LINE
  5
6C
100
AcDbEntity
  8
LC-001-002-----0
  6
CONTINUOUS
 62
             7
100
AcDbLine
 10
101.97049199999999
 20
112.2457189999998
 11
101.97049199999999
 21
132.2458479999998
  0
LINE
  5
6B
100
AcDbEntity
  8
LC-001-002-----0
  6
CONTINUOUS
 62
             7
100
AcDbLine
 10
112.97049199999999
 20
136.94972799999979
 11
112.97049199999999
 21
140.53321200000011
  0
LINE
  5
6A
100
AcDbEntity
  8
LC-001-002-----0
  6
CONTINUOUS
 62
             7
100
AcDbLine
 10
101.97049199999999
 20
119.2458340000001
 11
117.3831090000001
 21
119.2458340000001
  0
LINE
  5
69
100
AcDbEntity
  8
LC-001-002-----0
  6
CONTINUOUS
 62
             7
100
AcDbLine
 10
101.97049199999999
 20
125.2458340000001
 11
190.97081100000011
 21
125.2458340000001
  0
LINE
  5
68
100
AcDbEntity
  8
LC-001-002-----0
  6
CONTINUOUS
 62
             7
100
AcDbLine
 10
101.97049199999999
 20
119.24572499999999
 11
190.97080700000021
 21
119.24572499999999
  0
LINE
  5
67
100
AcDbEntity
  8
LC-001-002-----0
  6
CONTINUOUS
 62
             7
100
AcDbLine
 10
101.97049199999999
 20
119.2458340000001
 11
190.97080700000021
 21
119.2458340000001
  0
LINE
  5
66
100
AcDbEntity
  8
LC-001-002-----0
  6
CONTINUOUS
 62
             7
100
AcDbLine
 10
272.62305800000013
 20
97.49635899999998
 11
291.62305800000013
 21
97.49635899999998
  0
LINE
  5
65
100
AcDbEntity
  8
LC-001-002-----0
  6
CONTINUOUS
 62
             7
100
AcDbLine
 10
292.12305800000013
 20
89.99635899999998
 11
292.12305800000013
 21
96.99635899999998
  0
LINE
  5
64
100
AcDbEntity
  8
LC-001-002-----0
  6
CONTINUOUS
 62
             7
100
AcDbLine
 10
272.12305800000013
 20
89.99635899999998
 11
272.12305800000013
 21
96.99635899999998
  0
LINE
  5
63
100
AcDbEntity
  8
LC-001-002-----0
  6
CONTINUOUS
 62
             7
100
AcDbLine
 10
301.09421900000012
 20
126.373276
 11
301.09421900000012
 21
208.49635900000001
  0
LINE
  5
62
100
AcDbEntity
  8
LC-001-002-----0
  6
CONTINUOUS
 62
             7
100
AcDbLine
 10
380.62322
 20
97.49635899999998
 11
399.62322
 21
97.49635899999998
  0
LINE
  5
61
100
AcDbEntity
  8
LC-001-002-----0
  6
CONTINUOUS
 62
             7
100
AcDbLine
 10
400.12322
 20
89.99635899999998
 11
400.12322
 21
96.99635899999998
  0
LINE
  5
60
100
AcDbEntity
  8
LC-001-002-----0
  6
CONTINUOUS
 62
             7
100
AcDbLine
 10
380.12322
 20
89.99635899999998
 11
380.12322
 21
96.99635899999998
  0
LINE
  5
5F
100
AcDbEntity
  8
1
  6
PHANTOM
 62
             2
100
AcDbLine
 10
-6.0
 20
0.0
 11
67.34692001547512
 21
0.0
  0
LINE
  5
5E
100
AcDbEntity
  8
1
  6
PHANTOM
 62
             2
100
AcDbLine
 10
496.25859579126541
 20
-30.99793108452468
 11
405.32454711389602
 21
-30.99926525104661
  0
LINE
  5
5D
100
AcDbEntity
  8
1
  6
CONTINUOUS
 62
             3
100
AcDbLine
 10
6.5
 20
-60.75000000000023
 11
6.5
 21
60.74999999999977
  0
LINE
  5
5C
100
AcDbEntity
  8
1
  6
CONTINUOUS
 62
             3
100
AcDbLine
 10
16.5
 20
60.74999999999977
 11
16.5
 21
-60.75000000000023
  0
LINE
  5
5B
100
AcDbEntity
  8
1
  6
DOT_CENTER
 62
             2
100
AcDbLine
 10
-6.0
 20
54.99999999999977
 11
-3.0
 21
54.99999999999977
  0
LINE
  5
5A
100
AcDbEntity
  8
1
  6
DOT_CENTER
 62
             2
100
AcDbLine
 10
-6.0
 20
-55.0
 11
-3.0
 21
-55.0
  0
LINE
  5
59
100
AcDbEntity
  8
LC-002-002-----0
  6
CONTINUOUS
 62
             7
100
AcDbLine
 10
191.49572300000011
 20
223.89612949999969
 11
191.49572300000011
 21
227.39612949999969
  0
LINE
  5
58
100
AcDbEntity
  8
LC-002-002-----0
  6
CONTINUOUS
 62
             7
100
AcDbLine
 10
191.49572300000011
 20
227.39612949999969
 11
211.49572300000011
 21
227.39612949999969
  0
LINE
  5
57
100
AcDbEntity
  8
LC-002-002-----0
  6
CONTINUOUS
 62
             7
100
AcDbLine
 10
211.49572300000011
 20
223.89612949999969
 11
211.49572300000011
 21
227.39612949999969
  0
LINE
  5
56
100
AcDbEntity
  8
LC-002-002-----0
  6
CONTINUOUS
 62
             7
100
AcDbLine
 10
198.49572300000011
 20
236.39612949999969
 11
204.49572300000011
 21
236.39612949999969
  0
LINE
  5
55
100
AcDbEntity
  8
LC-002-002-----0
  6
CONTINUOUS
 62
             7
100
AcDbLine
 10
191.49572300000011
 20
227.39612949999969
 11
211.49572300000011
 21
227.39612949999969
  0
LINE
  5
54
100
AcDbEntity
  8
LC-002-002-----0
  6
CONTINUOUS
 62
             7
100
AcDbLine
 10
208.49572300000011
 20
231.39612949999969
 11
208.49572300000011
 21
227.39612949999969
  0
LINE
  5
53
100
AcDbEntity
  8
LC-002-002-----0
  6
CONTINUOUS
 62
             7
100
AcDbLine
 10
194.49572300000011
 20
231.39612949999969
 11
194.49572300000011
 21
227.39612949999969
  0
LINE
  5
52
100
AcDbEntity
  8
LC-002-002-----0
  6
CONTINUOUS
 62
             7
100
AcDbLine
 10
195.49572300000011
 20
232.39612949999969
 11
207.49572300000011
 21
232.39612949999969
  0
LINE
  5
51
100
AcDbEntity
  8
LC-002-002-----0
  6
CONTINUOUS
 62
             7
100
AcDbLine
 10
195.49572300000011
 20
232.25259650000021
 11
195.49572300000011
 21
233.39612949999969
  0
LINE
  5
50
100
AcDbEntity
  8
LC-002-002-----0
  6
CONTINUOUS
 62
             7
100
AcDbLine
 10
207.49572300000011
 20
232.25259650000021
 11
207.49572300000011
 21
233.39612949999969
  0
LINE
  5
4F
100
AcDbEntity
  8
LC-002-002-----0
  6
CONTINUOUS
 62
             7
100
AcDbLine
 10
195.49572300000011
 20
233.39612949999969
 11
207.49572300000011
 21
233.39612949999969
  0
LINE
  5
4E
100
AcDbEntity
  8
LC-002-002-----0
  6
CONTINUOUS
 62
             7
100
AcDbLine
 10
204.99572300000011
 20
231.39612949999969
 11
204.99572300000011
 21
227.39612949999969
  0
LINE
  5
4D
100
AcDbEntity
  8
LC-002-002-----0
  6
CONTINUOUS
 62
             7
100
AcDbLine
 10
197.99572300000011
 20
231.39612949999969
 11
197.99572300000011
 21
227.39612949999969
  0
LINE
  5
4C
100
AcDbEntity
  8
LC-002-002-----0
  6
CONTINUOUS
 62
             7
100
AcDbLine
 10
198.49572300000011
 20
236.39612949999969
 11
204.49572300000011
 21
236.39612949999969
  0
LINE
  5
4B
100
AcDbEntity
  8
LC-002-002-----0
  6
CONTINUOUS
 62
             7
100
AcDbLine
 10
208.49572300000011
 20
246.39612949999969
 11
220.22868200000019
 21
246.39612949999969
  0
LINE
  5
4A
100
AcDbEntity
  8
LC-002-002-----0
  6
CONTINUOUS
 62
             7
100
AcDbLine
 10
208.49572300000011
 20
240.39612949999969
 11
220.22868200000019
 21
240.39612949999969
  0
LINE
  5
49
100
AcDbEntity
  8
LC-002-002-----0
  6
DASHDOT
 62
             2
100
AcDbLine
 10
208.49572300000011
 20
243.39612949999969
 11
220.22868200000019
 21
243.39612949999969
  0
LINE
  5
48
100
AcDbEntity
  8
LC-002-002-----0
  6
CONTINUOUS
 62
             7
100
AcDbLine
 10
240.22868200000019
 20
226.39612949999969
 11
240.22868200000019
 21
216.72582949999989
  0
LINE
  5
47
100
AcDbEntity
  8
LC-002-002-----0
  6
CONTINUOUS
 62
             7
100
AcDbLine
 10
234.22868200000019
 20
226.39612949999969
 11
234.22868200000019
 21
216.72582949999989
  0
LINE
  5
46
100
AcDbEntity
  8
LC-002-002-----0
  6
CONTINUOUS
 62
             7
100
AcDbLine
 10
234.22868200000019
 20
216.72582949999989
 11
235.45327200000011
 21
217.61682949999999
  0
LINE
  5
45
100
AcDbEntity
  8
LC-002-002-----0
  6
CONTINUOUS
 62
             7
100
AcDbLine
 10
235.45327200000011
 20
217.61682949999999
 11
237.52261600000011
 21
216.54762950000011
  0
LINE
  5
44
100
AcDbEntity
  8
LC-002-002-----0
  6
CONTINUOUS
 62
             7
100
AcDbLine
 10
237.52261600000011
 20
216.54762950000011
 11
238.63687800000011
 21
217.61682949999999
  0
LINE
  5
43
100
AcDbEntity
  8
LC-002-002-----0
  6
CONTINUOUS
 62
             7
100
AcDbLine
 10
238.63687800000011
 20
217.61682949999999
 11
240.22868200000019
 21
216.72582949999989
  0
LINE
  5
42
100
AcDbEntity
  8
LC-002-002-----0
  6
DASHDOT
 62
             2
100
AcDbLine
 10
237.22868200000019
 20
226.39612949999969
 11
237.22868200000019
 21
216.72582949999989
  0
LINE
  5
41
100
AcDbEntity
  8
LC-001-100-D02-0
  6
CONTINUOUS
 62
             7
100
AcDbLine
 10
239.4376220000002
 20
133.20080077422949
 11
226.48220342496771
 21
133.20080077422949
  0
LINE
  5
40
100
AcDbEntity
  8
LC-001-100-D02-0
  6
CONTINUOUS
 62
             7
100
AcDbLine
 10
240.43198900000019
 20
125.1466700638416
 11
240.43198900000019
 21
132.20643377422951
  0
LINE
  5
3F
100
AcDbEntity
  8
LC-001-100-D02-0
  6
CONTINUOUS
 62
             7
100
AcDbLine
 10
52.89436300000011
 20
125.2463179776724
 11
52.89436300000011
 21
132.2068869776723
  0
LINE
  5
3E
100
AcDbEntity
  8
LC-001-100-D02-0
  6
CONTINUOUS
 62
             7
100
AcDbLine
 10
53.88873000000012
 20
133.20125397767231
 11
67.11996718272746
 21
133.20125397767231
  0
POINT
  5
3D
100
AcDbEntity
  8
LC-004-003-----0
 62
             7
100
AcDbPoint
 10
0.5
 20
59.45000000000005
  0
POINT
  5
3C
100
AcDbEntity
  8
LC-004-003-----0
 62
             7
100
AcDbPoint
 10
0.5
 20
-59.45000000000005
  0
POINT
  5
3B
100
AcDbEntity
  8
LC-004-003-----0
 62
             7
100
AcDbPoint
 10
485.49591200000009
 20
24.00233599999979
  0
POINT
  5
3A
100
AcDbEntity
  8
LC-004-003-----0
 62
             7
100
AcDbPoint
 10
485.48433199999999
 20
-85.99851400000011
  0
POINT
  5
39
100
AcDbEntity
  8
LC-004-003-----0
 62
             7
100
AcDbPoint
 10
0.0
 20
-55.45000000000005
  0
POINT
  5
38
100
AcDbEntity
  8
LC-004-003-----0
 62
             7
100
AcDbPoint
 10
489.99562800000012
 20
-84.72032300000024
  0
POINT
  5
37
100
AcDbEntity
  8
LC-004-003-----0
 62
             7
100
AcDbPoint
 10
58.28319499999998
 20
-0.00000000000023
  0
POINT
  5
36
100
AcDbEntity
  8
LC-004-003-----0
 62
             7
100
AcDbPoint
 10
424.02213900000021
 20
-30.98971400000005
  0
POINT
  5
35
100
AcDbEntity
  8
LC-004-003-----0
 62
             7
100
AcDbPoint
 10
52.59349300000008
 20
124.7458340000001
  0
POINT
  5
34
100
AcDbEntity
  8
LC-004-003-----0
 62
             7
100
AcDbPoint
 10
430.27478799999989
 20
101.496359
  0
POINT
  5
33
100
AcDbEntity
  8
LC-004-003-----0
 62
             7
100
AcDbPoint
 10
298.09421900000012
 20
228.99635900000001
  0
POINT
  5
32
100
AcDbEntity
  8
LC-004-003-----0
 62
             7
100
AcDbPoint
 10
279.19872500000002
 20
-90.99936600000024
  0
ENDBLK
  5
206
100
AcDbEntity
  8
0
100
AcDbBlockEnd
  0
BLOCK
  5
209
100
AcDbEntity
  8
0
100
AcDbBlockBegin
  2
*D1
 70
             1
 10
0.0
 20
0.0
 30
0.0
  3
*D1
  1

  0
LINE
  5
20A
100
AcDbEntity
  8
0
  6
CONTINUOUS
 62
             4
100
AcDbLine
 10
464.86900417378121
 20
-30.99926525104661
 11
464.86900417378121
 21
-60.99926525104664
  0
LINE
  5
20B
100
AcDbEntity
  8
0
  6
CONTINUOUS
 62
             4
100
AcDbLine
 10
464.86900417378121
 20
0.0
 11
464.86900417378121
 21
-30.99926525104661
  0
LINE
  5
20C
100
AcDbEntity
  8
0
  6
CONTINUOUS
 62
             4
100
AcDbLine
 10
464.86900417378121
 20
74.47346582837986
 11
464.86900417378121
 21
0.0
  0
LINE
  5
20D
100
AcDbEntity
  8
0
  6
CONTINUOUS
 62
             4
100
AcDbLine
 10
405.32454711389602
 20
-30.99926525104661
 11
466.86900417378121
 21
-30.99926525104661
  0
LINE
  5
20E
100
AcDbEntity
  8
0
  6
CONTINUOUS
 62
             4
100
AcDbLine
 10
67.34692001547523
 20
0.0
 11
466.86900417378121
 21
0.0
  0
SOLID
  5
20F
100
AcDbEntity
  8
0
 62
             4
100
AcDbTrace
 10
462.89421670997029
 20
15.0
 11
466.84379163759212
 21
15.0
 12
464.86900417378121
 22
0.0
 13
464.86900417378121
 23
0.0
  0
SOLID
  5
210
100
AcDbEntity
  8
0
 62
             4
100
AcDbTrace
 10
466.84379163759212
 20
-45.99926525104661
 11
462.89421670997029
 21
-45.99926525104661
 12
464.86900417378121
 22
-30.99926525104661
 13
464.86900417378121
 23
-30.99926525104661
  0
MTEXT
  5
212
100
AcDbEntity
  8
0
 62
             1
100
AcDbMText
 10
462.86900417378121
 20
56.47346582837986
 30
0.0
 40
15.0
 41
0.0
 71
             7
 72
             1
  1
31
  7
CONVERTER_1
 11
0.0
 21
1.0
 31
0.0
  0
ENDBLK
  5
213
100
AcDbEntity
  8
0
100
AcDbBlockEnd
  0
BLOCK
  5
217
100
AcDbEntity
  8
0
100
AcDbBlockBegin
  2
*D2
 70
             1
 10
0.0
 20
0.0
 30
0.0
  3
*D2
  1

  0
LINE
  5
218
100
AcDbEntity
  8
0
  6
CONTINUOUS
 62
             4
100
AcDbLine
 10
430.27478799999994
 20
288.47299550497002
 11
52.275372
 21
288.47299550497002
  0
LINE
  5
219
100
AcDbEntity
  8
0
  6
CONTINUOUS
 62
             4
100
AcDbLine
 10
52.275372
 20
116.24572500000002
 11
52.275372
 21
290.47299550497002
  0
LINE
  5
21A
100
AcDbEntity
  8
0
  6
CONTINUOUS
 62
             4
100
AcDbLine
 10
430.27478799999994
 20
101.49635900000001
 11
430.27478799999994
 21
290.47299550497002
  0
SOLID
  5
21B
100
AcDbEntity
  8
0
 62
             4
100
AcDbTrace
 10
415.27478799999994
 20
286.4982080411591
 11
415.27478799999994
 21
290.44778296878093
 12
430.27478799999994
 22
288.47299550497002
 13
430.27478799999994
 23
288.47299550497002
  0
SOLID
  5
21C
100
AcDbEntity
  8
0
 62
             4
100
AcDbTrace
 10
67.275372
 20
290.44778296878093
 11
67.275372
 21
286.4982080411591
 12
52.275372
 22
288.47299550497002
 13
52.275372
 23
288.47299550497002
  0
MTEXT
  5
21D
100
AcDbEntity
  8
0
 62
             1
100
AcDbMText
 10
214.26272587577611
 20
290.47299550497002
 30
0.0
 40
15.0
 41
0.0
 71
             7
 72
             1
  1
378
  7
CONVERTER_1
 11
0.99999999999706
 21
0.00000242406841
 31
0.0
  0
ENDBLK
  5
21E
100
AcDbEntity
  8
0
100
AcDbBlockEnd
  0
BLOCK
  5
222
100
AcDbEntity
  8
0
100
AcDbBlockBegin
  2
*D3
 70
             1
 10
0.0
 20
0.0
 30
0.0
  3
*D3
  1

  0
LINE
  5
223
100
AcDbEntity
  8
0
  6
CONTINUOUS
 62
             4
100
AcDbLine
 10
489.99562800000007
 20
-121.6394333457702
 11
0.0
 21
-121.6394333457702
  0
LINE
  5
224
100
AcDbEntity
  8
0
  6
CONTINUOUS
 62
             4
100
AcDbLine
 10
0.0
 20
-58.95000000000009
 11
0.0
 21
-123.6394333457702
  0
LINE
  5
225
100
AcDbEntity
  8
0
  6
CONTINUOUS
 62
             4
100
AcDbLine
 10
489.99562800000007
 20
-84.72032300000028
 11
489.99562800000007
 21
-123.6394333457702
  0
SOLID
  5
226
100
AcDbEntity
  8
0
 62
             4
100
AcDbTrace
 10
474.99562800000007
 20
-123.61422080958113
 11
474.99562800000007
 21
-119.66464588195926
 12
489.99562800000007
 22
-121.6394333457702
 13
489.99562800000007
 23
-121.6394333457702
  0
SOLID
  5
227
100
AcDbEntity
  8
0
 62
             4
100
AcDbTrace
 10
15.0
 20
-119.66464588195926
 11
15.0
 21
-123.61422080958114
 12
0.0
 22
-121.6394333457702
 13
0.0
 23
-121.6394333457702
  0
MTEXT
  5
228
100
AcDbEntity
  8
0
 62
             1
100
AcDbMText
 10
259.07614053207698
 20
-119.6394333457702
 30
0.0
 40
15.0
 41
0.0
 71
             7
 72
             1
  1
490
  7
CONVERTER_1
 11
0.99999999999706
 21
0.00000242406841
 31
0.0
  0
ENDBLK
  5
229
100
AcDbEntity
  8
0
100
AcDbBlockEnd
  0
BLOCK
  5
22D
100
AcDbEntity
  8
0
100
AcDbBlockBegin
  2
*D4
 70
             1
 10
0.0
 20
0.0
 30
0.0
  3
*D4
  1

  0
LINE
  5
22E
100
AcDbEntity
  8
0
  6
CONTINUOUS
 62
             4
100
AcDbLine
 10
519.03943578280109
 20
24.00233599999979
 11
519.03943578280109
 21
-85.99851400000011
  0
LINE
  5
22F
100
AcDbEntity
  8
0
  6
CONTINUOUS
 62
             4
100
AcDbLine
 10
485.48433199999999
 20
-85.99851400000011
 11
521.03943578280109
 21
-85.99851400000011
  0
LINE
  5
230
100
AcDbEntity
  8
0
  6
CONTINUOUS
 62
             4
100
AcDbLine
 10
485.49591200000009
 20
24.00233599999979
 11
521.03943578280109
 21
24.00233599999979
  0
SOLID
  5
231
100
AcDbEntity
  8
0
 62
             4
100
AcDbTrace
 10
521.014223246612
 20
9.00233599999978
 11
517.06464831899018
 21
9.00233599999979
 12
519.03943578280109
 22
24.00233599999979
 13
519.03943578280109
 23
24.00233599999979
  0
SOLID
  5
232
100
AcDbEntity
  8
0
 62
             4
100
AcDbTrace
 10
517.06464831899018
 20
-70.99851400000011
 11
521.014223246612
 21
-70.99851400000011
 12
519.03943578280109
 22
-85.99851400000011
 13
519.03943578280109
 23
-85.99851400000011
  0
MTEXT
  5
233
100
AcDbEntity
  8
0
 62
             1
100
AcDbMText
 10
517.03943578280109
 20
-49.81736190538013
 30
0.0
 40
15.0
 41
0.0
 71
             7
 72
             1
  1
\C1;DN\C1;110
  7
CONVERTER_1
 11
0.0
 21
1.0
 31
0.0
  0
ENDBLK
  5
234
100
AcDbEntity
  8
0
100
AcDbBlockEnd
  0
BLOCK
  5
238
100
AcDbEntity
  8
0
100
AcDbBlockBegin
  2
*D5
 70
             1
 10
0.0
 20
0.0
 30
0.0
  3
*D5
  1

  0
LINE
  5
239
100
AcDbEntity
  8
0
  6
CONTINUOUS
 62
             4
100
AcDbLine
 10
-16.0
 20
54.99999999999977
 11
-16.0
 21
-55.00000000000001
  0
LINE
  5
23A
100
AcDbEntity
  8
0
  6
CONTINUOUS
 62
             4
100
AcDbLine
 10
-6.0
 20
-55.00000000000001
 11
-18.0
 21
-55.00000000000001
  0
LINE
  5
23B
100
AcDbEntity
  8
0
  6
CONTINUOUS
 62
             4
100
AcDbLine
 10
-6.0
 20
54.99999999999977
 11
-18.0
 21
54.99999999999977
  0
SOLID
  5
23C
100
AcDbEntity
  8
0
 62
             4
100
AcDbTrace
 10
-14.02521253618907
 20
39.99999999999977
 11
-17.97478746381094
 21
39.99999999999977
 12
-16.0
 22
54.99999999999977
 13
-16.0
 23
54.99999999999977
  0
SOLID
  5
23D
100
AcDbEntity
  8
0
 62
             4
100
AcDbTrace
 10
-17.97478746381094
 20
-40.00000000000001
 11
-14.02521253618906
 21
-40.00000000000001
 12
-16.0
 22
-55.00000000000001
 13
-16.0
 23
-55.00000000000001
  0
MTEXT
  5
23E
100
AcDbEntity
  8
0
 62
             1
100
AcDbMText
 10
-18.0
 20
-22.59825158477029
 30
0.0
 40
15.0
 41
0.0
 71
             7
 72
             1
  1
\C1;DN\C1;110
  7
CONVERTER_1
 11
0.0
 21
1.0
 31
0.0
  0
ENDBLK
  5
23F
100
AcDbEntity
  8
0
100
AcDbBlockEnd
  0
BLOCK
  5
243
100
AcDbEntity
  8
0
100
AcDbBlockBegin
  2
*D6
 70
             1
 10
0.0
 20
0.0
 30
0.0
  3
*D6
  1

  0
LINE
  5
244
100
AcDbEntity
  8
0
  6
CONTINUOUS
 62
             4
100
AcDbLine
 10
545.41270393636114
 20
-90.99936600000024
 11
545.41270393636114
 21
228.99635899999996
  0
LINE
  5
245
100
AcDbEntity
  8
0
  6
CONTINUOUS
 62
             4
100
AcDbLine
 10
298.09421900000007
 20
228.99635899999996
 11
547.41270393636114
 21
228.99635899999996
  0
LINE
  5
246
100
AcDbEntity
  8
0
  6
CONTINUOUS
 62
             4
100
AcDbLine
 10
279.19872499999997
 20
-90.99936600000024
 11
547.41270393636114
 21
-90.99936600000024
  0
SOLID
  5
247
100
AcDbEntity
  8
0
 62
             4
100
AcDbTrace
 10
543.43791647255023
 20
-75.99936600000024
 11
547.38749140017205
 21
-75.99936600000024
 12
545.41270393636114
 22
-90.99936600000024
 13
545.41270393636114
 23
-90.99936600000024
  0
SOLID
  5
248
100
AcDbEntity
  8
0
 62
             4
100
AcDbTrace
 10
547.38749140017205
 20
213.99635899999996
 11
543.43791647255023
 21
213.99635899999996
 12
545.41270393636114
 22
228.99635899999996
 13
545.41270393636114
 23
228.99635899999996
  0
MTEXT
  5
249
100
AcDbEntity
  8
0
 62
             1
100
AcDbMText
 10
543.41270393636114
 20
21.53419049212976
 30
0.0
 40
15.0
 41
0.0
 71
             7
 72
             1
  1
\C1;220-\C1;320
  7
CONVERTER_1
 11
0.0
 21
1.0
 31
0.0
  0
ENDBLK
  5
24A
100
AcDbEntity
  8
0
100
AcDbBlockEnd
  0
BLOCK
  5
24E
100
AcDbEntity
  8
0
100
AcDbBlockBegin
  2
*D7
 70
             1
 10
0.0
 20
0.0
 30
0.0
  3
*D7
  1

  0
LINE
  5
24F
100
AcDbEntity
  8
0
  6
CONTINUOUS
 62
             4
100
AcDbLine
 10
571.00179305606116
 20
-90.99936600000019
 11
571.00179305606116
 21
260.99881449999998
  0
LINE
  5
250
100
AcDbEntity
  8
0
  6
CONTINUOUS
 62
             4
100
AcDbLine
 10
116.11809900000009
 20
260.99881449999998
 11
573.00179305606116
 21
260.99881449999998
  0
LINE
  5
251
100
AcDbEntity
  8
0
  6
CONTINUOUS
 62
             4
100
AcDbLine
 10
279.19872499999997
 20
-90.99936600000019
 11
573.00179305606116
 21
-90.99936600000019
  0
SOLID
  5
252
100
AcDbEntity
  8
0
 62
             4
100
AcDbTrace
 10
569.02700559225025
 20
-75.99936600000019
 11
572.97658051987207
 21
-75.99936600000019
 12
571.00179305606116
 22
-90.99936600000019
 13
571.00179305606116
 23
-90.99936600000019
  0
SOLID
  5
253
100
AcDbEntity
  8
0
 62
             4
100
AcDbTrace
 10
572.97658051987207
 20
245.99881449999998
 11
569.02700559225025
 21
245.99881449999998
 12
571.00179305606116
 22
260.99881449999998
 13
571.00179305606116
 23
260.99881449999998
  0
MTEXT
  5
254
100
AcDbEntity
  8
0
 62
             1
100
AcDbMText
 10
569.00179305606116
 20
109.018508838127
 30
0.0
 40
15.0
 41
0.0
 71
             7
 72
             1
  1
352
  7
CONVERTER_1
 11
0.0
 21
1.0
 31
0.0
  0
ENDBLK
  5
255
100
AcDbEntity
  8
0
100
AcDbBlockEnd
  0
ENDSEC
  0
SECTION
  2
ENTITIES
  0
DIMENSION
  5
257
100
AcDbEntity
  8
1
100
AcDbDimension
  2
*D7
 10
571.00179305606116
 20
-90.99936600000019
 11
561.50179305606116
 21
127.018508838127
 31
0.0
 53
90.0
  1
<>
  3
ME10_DIM_6
100
AcDbAlignedDimension
 13
116.118099
 23
260.99881449999998
 14
279.19872500000002
 24
-90.99936600000024
 50
90.0
100
AcDbRotatedDimension
  0
DIMENSION
  5
24C
100
AcDbEntity
  8
1
100
AcDbDimension
  2
*D6
 10
545.41270393636114
 20
-90.99936600000024
 11
535.91270393636114
 21
60.98419049212976
 31
0.0
 53
90.0
  1
<>
  3
ME10_DIM_5
100
AcDbAlignedDimension
 13
298.09421900000012
 23
228.99635900000001
 14
279.19872500000002
 24
-90.99936600000024
 50
90.0
100
AcDbRotatedDimension
  0
DIMENSION
  5
241
100
AcDbEntity
  8
1
100
AcDbDimension
  2
*D5
 10
-16.0
 20
54.99999999999977
 11
-25.5
 21
-0.99825158477029
 31
0.0
 53
90.0
  1
<>
  3
ME10_DIM_4
100
AcDbAlignedDimension
 13
-6.0
 23
-55.0
 14
-6.0
 24
54.99999999999977
 50
90.0
100
AcDbRotatedDimension
  0
DIMENSION
  5
236
100
AcDbEntity
  8
1
100
AcDbDimension
  2
*D4
 10
519.03943578280109
 20
24.00233599999979
 11
509.53943578280109
 21
-28.21736190538013
 31
0.0
 53
90.0
  1
<>
  3
ME10_DIM_3
100
AcDbAlignedDimension
 13
485.48433199999999
 23
-85.99851400000011
 14
485.49591200000009
 24
24.00233599999979
 50
90.0
100
AcDbRotatedDimension
  0
DIMENSION
  5
22B
100
AcDbEntity
  8
1
100
AcDbDimension
  2
*D3
 10
489.99562800000007
 20
-121.6394333457702
 11
277.07614053207698
 21
-112.1394333457702
 31
0.0
 53
0.00013888888889
  1
<>
  3
ME10_DIM_2
100
AcDbAlignedDimension
 13
0.0
 23
-58.95000000000005
 14
489.99562800000012
 24
-84.72032300000024
100
AcDbRotatedDimension
  0
DIMENSION
  5
220
100
AcDbEntity
  8
1
100
AcDbDimension
  2
*D2
 10
430.27478799999994
 20
288.47299550497002
 11
232.26272587577611
 21
297.97299550497002
 31
0.0
 53
0.00013888888889
  1
<>
  3
ME10_DIM_1
100
AcDbAlignedDimension
 13
52.27537200000006
 23
116.24572499999999
 14
430.27478799999989
 24
101.496359
100
AcDbRotatedDimension
  0
DIMENSION
  5
215
100
AcDbEntity
  8
1
100
AcDbDimension
  2
*D1
 10
464.86900417378121
 20
0.0
 11
455.36900417378121
 21
65.47346582837986
 31
0.0
 53
90.0
  1
<>
  3
ME10_DIM_0
100
AcDbAlignedDimension
 13
405.32454711389602
 23
-30.99926525104661
 14
67.34692001547512
 24
0.0
 50
90.0
100
AcDbRotatedDimension
  0
INSERT
  5
31
100
AcDbEntity
  8
0
100
AcDbBlockReference
  2
HL_710_2EPC_R_CKSTAUVE0__1
 10
420.80042131573299
 20
1633.7955987476701
  0
ENDSEC
  0
SECTION
  2
OBJECTS
  0
DICTIONARY
  5
19
100
AcDbDictionary
  3
ACAD_GROUP
350
1A
  3
ACAD_MLINESTYLE
350
1B
  0
DICTIONARY
  5
1A
102
{ACAD_REACTORS
330
19
102
}
100
AcDbDictionary
  0
DICTIONARY
  5
1B
102
{ACAD_REACTORS
330
19
102
}
100
AcDbDictionary
  3
STANDARD
350
1C
  0
MLINESTYLE
  5
1C
102
{ACAD_REACTORS
330
1B
102
}
100
AcDbMlineStyle
  2
STANDARD
 70
             0
  3

 62
             0
 51
90.0
 52
90.0
 71
             2
 49
0.5
 62
           256
  6
BYLAYER
 49
-0.5
 62
           256
  6
BYLAYER
  0
ENDSEC
  0
EOF
