  0
SECTION
  2
HEADER
  9
$ACADVER
  1
AC1014
  9
$ACADMAINTVER
 70
             0
  9
$DWGCODEPAGE
  3
ANSI_1252
  9
$INSBASE
 10
0.0
 20
0.0
 30
0.0
  9
$EXTMIN
 10
-30.00000042398777
 20
-83.59926475676886
 30
0.0
  9
$EXTMAX
 10
212.58373700000081
 20
199.66594368987089
 30
0.0
  9
$LIMMIN
 10
0.0
 20
0.0
  9
$LIMMAX
 10
0.0
 20
0.0
  9
$ORTHOMODE
 70
             0
  9
$REGENMODE
 70
             1
  9
$FILLMODE
 70
             1
  9
$QTEXTMODE
 70
             0
  9
$MIRRTEXT
 70
             1
  9
$DRAGMODE
 70
             2
  9
$LTSCALE
 40
1.0
  9
$OSMODE
 70
             0
  9
$ATTMODE
 70
             1
  9
$TEXTSIZE
 40
0.2
  9
$TRACEWID
 40
0.05
  9
$TEXTSTYLE
  7
STANDARD
  9
$CLAYER
  8
0
  9
$CELTYPE
  6
CONTINUOUS
  9
$CECOLOR
 62
           256
  9
$CELTSCALE
 40
1.0
  9
$DELOBJ
 70
             1
  9
$DISPSILH
 70
             0
  9
$DIMSCALE
 40
1.0
  9
$DIMASZ
 40
0.18
  9
$DIMEXO
 40
0.0625
  9
$DIMDLI
 40
0.38
  9
$DIMRND
 40
0.0
  9
$DIMDLE
 40
0.0
  9
$DIMEXE
 40
0.18
  9
$DIMTP
 40
0.0
  9
$DIMTM
 40
0.0
  9
$DIMTXT
 40
0.18
  9
$DIMCEN
 40
0.09
  9
$DIMTSZ
 40
0.0
  9
$DIMTOL
 70
             0
  9
$DIMLIM
 70
             0
  9
$DIMTIH
 70
             1
  9
$DIMTOH
 70
             1
  9
$DIMSE1
 70
             0
  9
$DIMSE2
 70
             0
  9
$DIMTAD
 70
             0
  9
$DIMZIN
 70
             0
  9
$DIMBLK
  1

  9
$DIMASO
 70
             1
  9
$DIMSHO
 70
             1
  9
$DIMPOST
  1

  9
$DIMAPOST
  1

  9
$DIMALT
 70
             0
  9
$DIMALTD
 70
             2
  9
$DIMALTF
 40
25.4
  9
$DIMLFAC
 40
1.0
  9
$DIMTOFL
 70
             0
  9
$DIMTVP
 40
0.0
  9
$DIMTIX
 70
             0
  9
$DIMSOXD
 70
             0
  9
$DIMSAH
 70
             0
  9
$DIMBLK1
  1

  9
$DIMBLK2
  1

  9
$DIMSTYLE
  2
STANDARD
  9
$DIMCLRD
 70
             0
  9
$DIMCLRE
 70
             0
  9
$DIMCLRT
 70
             0
  9
$DIMTFAC
 40
1.0
  9
$DIMGAP
 40
0.09
  9
$DIMJUST
 70
             0
  9
$DIMSD1
 70
             0
  9
$DIMSD2
 70
             0
  9
$DIMTOLJ
 70
             1
  9
$DIMTZIN
 70
             0
  9
$DIMALTZ
 70
             0
  9
$DIMALTTZ
 70
             0
  9
$DIMFIT
 70
             3
  9
$DIMUPT
 70
             0
  9
$DIMUNIT
 70
             2
  9
$DIMDEC
 70
             4
  9
$DIMTDEC
 70
             4
  9
$DIMALTU
 70
             2
  9
$DIMALTTD
 70
             2
  9
$DIMTXSTY
  7
STANDARD
  9
$DIMAUNIT
 70
             0
  9
$LUNITS
 70
             2
  9
$LUPREC
 70
             4
  9
$SKETCHINC
 40
0.1
  9
$FILLETRAD
 40
0.0
  9
$AUNITS
 70
             0
  9
$AUPREC
 70
             0
  9
$MENU
  1
acad
  9
$ELEVATION
 40
0.0
  9
$PELEVATION
 40
0.0
  9
$THICKNESS
 40
0.0
  9
$LIMCHECK
 70
             0
  9
$BLIPMODE
 70
             1
  9
$CHAMFERA
 40
0.0
  9
$CHAMFERB
 40
0.0
  9
$CHAMFERC
 40
0.0
  9
$CHAMFERD
 40
0.0
  9
$SKPOLY
 70
             0
  9
$TDCREATE
 40
0.000000000
  9
$TDUPDATE
 40
0.000000000
  9
$TDINDWG
 40
0.0000000000
  9
$TDUSRTIMER
 40
0.0000000000
  9
$USRTIMER
 70
             1
  9
$ANGBASE
 50
0.0
  9
$ANGDIR
 70
             0
  9
$PDMODE
 70
             0
  9
$PDSIZE
 40
0.0
  9
$PLINEWID
 40
0.0
  9
$COORDS
 70
             0
  9
$SPLFRAME
 70
             0
  9
$SPLINETYPE
 70
             6
  9
$SPLINESEGS
 70
             8
  9
$ATTDIA
 70
             0
  9
$ATTREQ
 70
             1
  9
$HANDLING
 70
             1
  9
$HANDSEED
  5
D8
  9
$SURFTAB1
 70
             6
  9
$SURFTAB2
 70
             6
  9
$SURFTYPE
 70
             6
  9
$SURFU
 70
             6
  9
$SURFV
 70
             6
  9
$UCSNAME
  2

  9
$UCSORG
 10
0.0
 20
0.0
 30
0.0
  9
$UCSXDIR
 10
1.0
 20
0.0
 30
0.0
  9
$UCSYDIR
 10
0.0
 20
1.0
 30
0.0
  9
$PUCSNAME
  2

  9
$PUCSORG
 10
0.0
 20
0.0
 30
0.0
  9
$PUCSXDIR
 10
1.0
 20
0.0
 30
0.0
  9
$PUCSYDIR
 10
0.0
 20
1.0
 30
0.0
  9
$USERI1
 70
             0
  9
$USERI2
 70
             0
  9
$USERI3
 70
             0
  9
$USERI4
 70
             0
  9
$USERI5
 70
             0
  9
$USERR1
 40
12.01
  9
$USERR2
 40
0.0
  9
$USERR3
 40
0.0
  9
$USERR4
 40
0.0
  9
$USERR5
 40
0.0
  9
$WORLDVIEW
 70
             1
  9
$SHADEDGE
 70
             3
  9
$SHADEDIF
 70
            70
  9
$TILEMODE
 70
             1
  9
$MAXACTVP
 70
            16
  9
$PINSBASE
 10
0.0
 20
0.0
 30
0.0
  9
$PLIMCHECK
 70
             0
  9
$PEXTMIN
 10
1.00000000000000E+20
 20
1.00000000000000E+20
 30
1.00000000000000E+20
  9
$PEXTMAX
 10
-1.00000000000000E+20
 20
-1.00000000000000E+20
 30
-1.00000000000000E+20
  9
$PLIMMIN
 10
0.0
 20
0.0
  9
$PLIMMAX
 10
12.0
 20
9.0
  9
$UNITMODE
 70
             0
  9
$VISRETAIN
 70
             0
  9
$PLINEGEN
 70
             1
  9
$PSLTSCALE
 70
             0
  9
$TREEDEPTH
 70
          3020
  9
$PICKSTYLE
 70
             1
  9
$CMLSTYLE
  2
STANDARD
  9
$CMLJUST
 70
             0
  9
$CMLSCALE
 40
1.0
  9
$PROXYGRAPHICS
 70
             0
  9
$MEASUREMENT
 70
             1
  0
ENDSEC
  0
SECTION
  2
CLASSES
  0
CLASS
  1
LWPOLYLINE
  2
AcDbPolyline
  3
"AutoCAD"
 90
        0
280
             0
281
             1
  0
CLASS
  1
IMAGE
  2
AcDbRasterImage
  3
ISM
 90
      127
280
             0
281
             1
  0
CLASS
  1
OLE2FRAME
  2
AcDbOle2Frame
  3
""
 90
        0
280
             0
281
             1
  0
CLASS
  1
HATCH
  2
AcDbHatch
  3
"ACAD_SEDONA"
 90
        0
280
             0
281
             1
  0
CLASS
  1
DICTIONARYVAR
  2
AcDbDictionaryVar
  3
"AutoCAD"
 90
        0
280
             0
281
             0
  0
CLASS
  1
RASTERVARIABLES
  2
AcDbRasterVariables
  3
ISM
 90
        0
280
             0
281
             0
  0
CLASS
  1
IMAGEDEF
  2
AcDbRasterImageDef
  3
ISM
 90
        0
280
             0
281
             0
  0
CLASS
  1
IMAGEDEF_REACTOR
  2
AcDbRasterImageDefReactor
  3
ISM
 90
        1
280
             0
281
             0
  0
CLASS
  1
IDBUFFER
  2
AcDbIdBuffer
  3
"Acad"
 90
        0
280
             0
281
             0
  0
CLASS
  1
SPATIAL_FILTER
  2
AcDbSpatialFilter
  3
"Acad"
 90
        0
280
             0
281
             0
  0
CLASS
  1
XRECORD
  2
AcDbXrecord
  3
"<Built In>"
 90
        0
280
             0
281
             0
  0
CLASS
  1
SORTENTSTABLE
  2
AcDbSortentsTable
  3
"AutoCAD"
 90
        0
280
             0
281
             0
  0
CLASS
  1
LAYER_INDEX
  2
AcDbLayerIndex
  3
"Acad"
 90
        0
280
             0
281
             0
  0
CLASS
  1
SPATIAL_INDEX
  2
AcDbSpatialIndex
  3
"Acad"
 90
        0
280
             0
281
             0
  0
CLASS
  1
OBJECT_PTR
  2
CAseDLPNTableRecord
  3
"ASE-LPNTableRecord"
 90
        1
280
             0
281
             0
  0
CLASS
  1
LAYOUT
  2
AcDbLayout
  3
"AutoCAD 2000"
 90
        0
280
             0
281
             0
  0
CLASS
  1
PLOTSETTINGS
  2
AcDbPlotSettings
  3
"AutoCAD 2000"
 90
        0
280
             0
281
             0
  0
CLASS
  1
ACDBDICTIONARYWDFLT
  2
AcDbDictionaryWithDefault
  3
"AutoCAD 2000"
 90
        0
280
             0
281
             0
  0
CLASS
  1
ACDBPLACEHOLDER
  2
AcDbPlaceHolder
  3
"AutoCAD 2000"
 90
        0
280
             0
281
             0
  0
ENDSEC
  0
SECTION
  2
TABLES
  0
TABLE
  2
VPORT
  5
7
100
AcDbSymbolTable
 70
             1
  0
VPORT
  5
15
100
AcDbSymbolTableRecord
100
AcDbViewportTableRecord
  2
*ACTIVE
 70
             0
 10
0.0
 20
0.0
 11
1.0
 21
1.0
 12
91.29186828800653
 22
58.03333946655101
 13
0.0
 23
0.0
 14
1.0
 24
1.0
 15
0.0
 25
0.0
 16
0.0
 26
0.0
 36
1.0
 17
0.0
 27
0.0
 37
0.0
 40
311.59172929130375
 41
1.60267857142857
 42
50.0
 43
0.0
 44
0.0
 50
0.0
 51
0.0
 71
             0
 72
           100
 73
             1
 74
             1
 75
             0
 76
             0
 77
             0
 78
             0
  0
ENDTAB
  0
TABLE
  2
LTYPE
  5
4
100
AcDbSymbolTable
 70
            10
  0
LTYPE
  5
11
100
AcDbSymbolTableRecord
100
AcDbLinetypeTableRecord
  2
BYBLOCK
 70
            64
  3

 72
            65
 73
             0
 40
0.0
  0
LTYPE
  5
12
100
AcDbSymbolTableRecord
100
AcDbLinetypeTableRecord
  2
BYLAYER
 70
            64
  3

 72
            65
 73
             0
 40
0.0
  0
LTYPE
  5
13
100
AcDbSymbolTableRecord
100
AcDbLinetypeTableRecord
  2
CONTINUOUS
 70
            64
  3
Solid line
 72
            65
 73
             0
 40
0.0
  0
LTYPE
  5
1D
100
AcDbSymbolTableRecord
100
AcDbLinetypeTableRecord
  2
DASHED
 70
            64
  3
Dashed
 72
            65
 73
             2
 40
15.0
 49
7.0
 74
             0
 49
-8.0
 74
             0
  0
LTYPE
  5
1E
100
AcDbSymbolTableRecord
100
AcDbLinetypeTableRecord
  2
DOTTED
 70
            64
  3
Dotted
 72
            65
 73
             2
 40
1.0
 49
0.0
 74
             0
 49
-1.0
 74
             0
  0
LTYPE
  5
1F
100
AcDbSymbolTableRecord
100
AcDbLinetypeTableRecord
  2
DOT_CENTER
 70
            64
  3
Dot_Center
 72
            65
 73
             4
 40
14.0
 49
12.0
 74
             0
 49
-1.0
 74
             0
 49
0.0
 74
             0
 49
-1.0
 74
             0
  0
LTYPE
  5
20
100
AcDbSymbolTableRecord
100
AcDbLinetypeTableRecord
  2
LONG_DASHED
 70
            64
  3
Long_Dashed
 72
            65
 73
             2
 40
15.0
 49
10.0
 74
             0
 49
-5.0
 74
             0
  0
LTYPE
  5
21
100
AcDbSymbolTableRecord
100
AcDbLinetypeTableRecord
  2
DASH_CENTER
 70
            64
  3
Dash_Center
 72
            65
 73
             4
 40
14.0
 49
11.0
 74
             0
 49
-1.0
 74
             0
 49
1.0
 74
             0
 49
-1.0
 74
             0
  0
LTYPE
  5
22
100
AcDbSymbolTableRecord
100
AcDbLinetypeTableRecord
  2
PHANTOM
 70
            64
  3
Phantom
 72
            65
 73
             6
 40
13.0
 49
10.0
 74
             0
 49
-1.0
 74
             0
 49
0.0
 74
             0
 49
-1.0
 74
             0
 49
0.0
 74
             0
 49
-1.0
 74
             0
  0
LTYPE
  5
23
100
AcDbSymbolTableRecord
100
AcDbLinetypeTableRecord
  2
CENTER_DASH_DASH
 70
            64
  3
Center_Dash_Dash
 72
            65
 73
             6
 40
14.0
 49
9.0
 74
             0
 49
-1.0
 74
             0
 49
1.0
 74
             0
 49
-1.0
 74
             0
 49
1.0
 74
             0
 49
-1.0
 74
             0
  0
ENDTAB
  0
TABLE
  2
LAYER
  5
2
100
AcDbSymbolTable
 70
             8
  0
LAYER
  5
14
100
AcDbSymbolTableRecord
100
AcDbLayerTableRecord
  2
0
 70
             0
 62
             7
  6
CONTINUOUS
  0
LAYER
  5
24
100
AcDbSymbolTableRecord
100
AcDbLayerTableRecord
  2
1
 70
             0
 62
             7
  6
CONTINUOUS
  0
LAYER
  5
25
100
AcDbSymbolTableRecord
100
AcDbLayerTableRecord
  2
LC-001-001-----0
 70
             0
 62
             7
  6
CONTINUOUS
  0
LAYER
  5
26
100
AcDbSymbolTableRecord
100
AcDbLayerTableRecord
  2
LC-001-002-----0
 70
             0
 62
             7
  6
CONTINUOUS
  0
LAYER
  5
27
100
AcDbSymbolTableRecord
100
AcDbLayerTableRecord
  2
LC-002-002-----0
 70
             0
 62
             7
  6
CONTINUOUS
  0
LAYER
  5
28
100
AcDbSymbolTableRecord
100
AcDbLayerTableRecord
  2
LC-003-100-D03-0
 70
             0
 62
             7
  6
CONTINUOUS
  0
LAYER
  5
29
100
AcDbSymbolTableRecord
100
AcDbLayerTableRecord
  2
LC-004-002-----0
 70
             0
 62
             7
  6
CONTINUOUS
  0
LAYER
  5
2A
100
AcDbSymbolTableRecord
100
AcDbLayerTableRecord
  2
LC-008-002-RND-0
 70
             0
 62
             7
  6
CONTINUOUS
  0
ENDTAB
  0
TABLE
  2
STYLE
  5
3
100
AcDbSymbolTable
 70
             2
  0
STYLE
  5
17
100
AcDbSymbolTableRecord
100
AcDbTextStyleTableRecord
  2
STANDARD
 70
             0
 40
0.0
 41
1.0
 50
0.0
 71
             0
 42
0.0
  3
txt
  4

  0
STYLE
  5
B1
100
AcDbSymbolTableRecord
100
AcDbTextStyleTableRecord
  2
CONVERTER_1
 70
             0
 40
0.0
 41
0.9
 50
0.0
 71
             0
 42
0.0
  3
txt.shx
  4

  0
ENDTAB
  0
TABLE
  2
VIEW
  5
5
100
AcDbSymbolTable
 70
             0
  0
ENDTAB
  0
TABLE
  2
UCS
  5
6
100
AcDbSymbolTable
 70
             0
  0
ENDTAB
  0
TABLE
  2
APPID
  5
8
100
AcDbSymbolTable
 70
             1
  0
APPID
  5
16
100
AcDbSymbolTableRecord
100
AcDbRegAppTableRecord
  2
ACAD
 70
             0
  0
ENDTAB
  0
TABLE
  2
DIMSTYLE
  5
9
100
AcDbSymbolTable
 70
             5
  0
DIMSTYLE
105
18
100
AcDbSymbolTableRecord
100
AcDbDimStyleTableRecord
  2
STANDARD
 70
             0
  3

  4

  5

  6

  7

 40
1.0
 41
0.18
 42
0.0625
 43
0.38
 44
0.18
 45
0.0
 46
0.0
 47
0.0
 48
0.0
 71
             0
 72
             0
 73
             1
 74
             1
 75
             0
 76
             0
 77
             0
 78
             0
140
0.18
141
0.09
142
0.0
143
25.4
144
1.0
145
0.0
146
1.0
147
0.09
170
             0
171
             2
172
             0
173
             0
174
             0
175
             0
176
             0
177
             0
178
             0
270
             2
271
             4
272
             4
273
             2
274
             2
275
             0
280
             0
281
             0
282
             0
283
             1
284
             0
285
             0
286
             0
287
             3
288
             0
340
17
  0
DIMSTYLE
105
B4
100
AcDbSymbolTableRecord
100
AcDbDimStyleTableRecord
  2
ME10_DIM_0
 70
             0
  3

  4

  5

  6

  7

 40
1.0
 41
12.0
 42
0.0
 43
0.38
 44
2.0
 45
0.0
 46
0.0
 47
0.0
 48
0.0
 71
             0
 72
             0
 73
             0
 74
             0
 75
             0
 76
             0
 77
             1
 78
             8
140
12.0
141
0.09
142
0.0
143
25.4
144
1.0
145
0.0
146
1.0
147
0.625
170
             0
171
             2
172
             1
173
             1
174
             0
175
             0
176
             4
177
             4
178
             1
270
             2
271
             2
272
             4
273
             2
274
             2
275
             0
280
             0
281
             0
282
             0
283
             1
284
             0
285
             0
286
             0
287
             3
288
             0
340
B1
  0
DIMSTYLE
105
BF
100
AcDbSymbolTableRecord
100
AcDbDimStyleTableRecord
  2
ME10_DIM_1
 70
             0
  3
DN<>
  4

  5

  6

  7

 40
1.0
 41
12.0
 42
0.0
 43
0.38
 44
2.0
 45
0.0
 46
0.0
 47
0.0
 48
0.0
 71
             0
 72
             0
 73
             0
 74
             0
 75
             0
 76
             0
 77
             1
 78
             8
140
12.0
141
0.09
142
0.0
143
25.4
144
1.0
145
0.0
146
1.0
147
0.625
170
             0
171
             2
172
             1
173
             1
174
             0
175
             0
176
             4
177
             4
178
             1
270
             2
271
             2
272
             4
273
             2
274
             2
275
             0
280
             0
281
             0
282
             0
283
             1
284
             0
285
             0
286
             0
287
             3
288
             0
340
B1
  0
DIMSTYLE
105
CA
100
AcDbSymbolTableRecord
100
AcDbDimStyleTableRecord
  2
ME10_DIM_2
 70
             0
  3

  4

  5

  6

  7

 40
1.0
 41
12.0
 42
0.0
 43
0.38
 44
2.0
 45
0.0
 46
0.0
 47
0.0
 48
0.0
 71
             0
 72
             0
 73
             0
 74
             0
 75
             0
 76
             0
 77
             1
 78
             8
140
12.0
141
0.09
142
0.0
143
25.4
144
1.0
145
0.0
146
1.0
147
0.625
170
             0
171
             2
172
             1
173
             1
174
             0
175
             0
176
             4
177
             4
178
             1
270
             2
271
             2
272
             4
273
             2
274
             2
275
             0
280
             0
281
             0
282
             0
283
             1
284
             0
285
             0
286
             0
287
             3
288
             0
340
B1
  0
DIMSTYLE
105
D5
100
AcDbSymbolTableRecord
100
AcDbDimStyleTableRecord
  2
ME10_DIM_3
 70
             0
  3

  4

  5

  6

  7

 40
1.0
 41
12.0
 42
0.0
 43
0.38
 44
2.0
 45
0.0
 46
0.0
 47
0.0
 48
0.0
 71
             0
 72
             0
 73
             0
 74
             0
 75
             0
 76
             0
 77
             1
 78
             8
140
12.0
141
0.09
142
0.0
143
25.4
144
1.0
145
0.0
146
1.0
147
0.625
170
             0
171
             2
172
             1
173
             1
174
             0
175
             0
176
             4
177
             4
178
             1
270
             2
271
             2
272
             4
273
             2
274
             2
275
             0
280
             0
281
             0
282
             0
283
             1
284
             0
285
             0
286
             0
287
             3
288
             0
340
B1
  0
ENDTAB
  0
TABLE
  2
BLOCK_RECORD
  5
1
100
AcDbSymbolTable
 70
             7
  0
BLOCK_RECORD
  5
A
100
AcDbSymbolTableRecord
100
AcDbBlockTableRecord
  2
*MODEL_SPACE
  0
BLOCK_RECORD
  5
B
100
AcDbSymbolTableRecord
100
AcDbBlockTableRecord
  2
*PAPER_SPACE
  0
BLOCK_RECORD
  5
2B
100
AcDbSymbolTableRecord
100
AcDbBlockTableRecord
  2
HL_712_R_CKSTAUVERSCHLS__1
  0
BLOCK_RECORD
  5
2D
100
AcDbSymbolTableRecord
100
AcDbBlockTableRecord
  2
HL_712_R_CKSTAUVERSCHLS__2
  0
BLOCK_RECORD
  5
30
100
AcDbSymbolTableRecord
100
AcDbBlockTableRecord
  2
HL_712_0_FROSCHKLAPPE__3
  0
BLOCK_RECORD
  5
AA
100
AcDbSymbolTableRecord
100
AcDbBlockTableRecord
  2
*D3
  0
BLOCK_RECORD
  5
B6
100
AcDbSymbolTableRecord
100
AcDbBlockTableRecord
  2
*D4
  0
BLOCK_RECORD
  5
C1
100
AcDbSymbolTableRecord
100
AcDbBlockTableRecord
  2
*D5
  0
BLOCK_RECORD
  5
CC
100
AcDbSymbolTableRecord
100
AcDbBlockTableRecord
  2
*D6
  0
ENDTAB
  0
ENDSEC
  0
SECTION
  2
BLOCKS
  0
BLOCK
  5
D
100
AcDbEntity
  8
0
100
AcDbBlockBegin
  2
*MODEL_SPACE
 70
             0
 10
0.0
 20
0.0
 30
0.0
  3
*MODEL_SPACE
  1

  0
ENDBLK
  5
E
100
AcDbEntity
  8
0
100
AcDbBlockEnd
  0
BLOCK
  5
F
100
AcDbEntity
 67
             1
  8
0
100
AcDbBlockBegin
  2
*PAPER_SPACE
 70
             0
 10
0.0
 20
0.0
 30
0.0
  3
*PAPER_SPACE
  1

  0
ENDBLK
  5
10
100
AcDbEntity
 67
             1
  8
0
100
AcDbBlockEnd
  0
BLOCK
  5
2C
100
AcDbEntity
  8
0
100
AcDbBlockBegin
  2
HL_712_R_CKSTAUVERSCHLS__1
 70
             0
 10
1380.3930397464289
 20
-402.49172864321361
 30
0.0
  3
HL_712_R_CKSTAUVERSCHLS__1
  1

  0
XLINE
  5
3A
100
AcDbEntity
  8
1
  6
DOT_CENTER
 62
             3
 60
             1
100
AcDbXline
 10
1894.2436237464281
 20
162.04468046583511
 30
0.0
 11
0.0
 21
1.0
 31
0.0
  0
XLINE
  5
39
100
AcDbEntity
  8
1
  6
DOT_CENTER
 62
             3
 60
             1
100
AcDbXline
 10
1894.2436237464281
 20
162.04468046583511
 30
0.0
 11
1.0
 21
0.0
 31
0.0
  0
POINT
  5
38
100
AcDbEntity
  8
1
 62
             3
 60
             1
100
AcDbPoint
 10
1894.2436237464281
 20
162.04468046583511
  0
POINT
  5
37
100
AcDbEntity
  8
1
 62
             3
 60
             1
100
AcDbPoint
 10
1894.2436237464281
 20
333.78959066751872
  0
POINT
  5
36
100
AcDbEntity
  8
1
 62
             3
 60
             1
100
AcDbPoint
 10
1894.2436237464281
 20
-9.70022973585199
  0
ENDBLK
  5
3B
100
AcDbEntity
  8
0
100
AcDbBlockEnd
  0
BLOCK
  5
2E
100
AcDbEntity
  8
0
100
AcDbBlockBegin
  2
HL_712_R_CKSTAUVERSCHLS__2
 70
             0
 10
308.17293494427599
 20
5.34729402549084
 30
0.0
  3
HL_712_R_CKSTAUVERSCHLS__2
  1

  0
INSERT
  5
2F
100
AcDbEntity
  8
0
100
AcDbBlockReference
  2
HL_712_R_CKSTAUVERSCHLS__1
 10
1380.3930397464289
 20
-402.49172864321361
  0
ENDBLK
  5
3C
100
AcDbEntity
  8
0
100
AcDbBlockEnd
  0
BLOCK
  5
31
100
AcDbEntity
  8
0
100
AcDbBlockBegin
  2
HL_712_0_FROSCHKLAPPE__3
 70
             0
 10
6.0825749921797
 20
-1075.4404413795089
 30
0.0
  3
HL_712_0_FROSCHKLAPPE__3
  1

  0
ARC
  5
A7
100
AcDbEntity
  8
LC-003-100-D03-0
  6
CONTINUOUS
 62
             7
100
AcDbCircle
 10
89.2416599999998
 20
-81.611064685537
 40
1.98820000000001
100
AcDbArc
 50
-90.0
 51
0.0
  0
ARC
  5
A6
100
AcDbEntity
  8
LC-003-100-D03-0
  6
CONTINUOUS
 62
             7
100
AcDbCircle
 10
64.08698199999982
 20
-80.616963685537
 40
2.98229999999953
100
AcDbArc
 50
-178.99999899999969
 51
-90.0
  0
ARC
  5
A5
100
AcDbEntity
  8
LC-003-100-D03-0
  6
CONTINUOUS
 62
             7
100
AcDbCircle
 10
8.47050100000001
 20
-67.60631468553706
 40
4.97050099999958
100
AcDbArc
 50
175.36204236759696
 51
-93.01131272744901
  0
ARC
  5
A4
100
AcDbEntity
  8
LC-003-100-D03-0
  6
CONTINUOUS
 62
             7
100
AcDbCircle
 10
8.47050100000001
 20
67.59921231446302
 40
4.97050100000001
100
AcDbArc
 50
93.03803791172003
 51
-175.36203085152496
  0
ARC
  5
A3
100
AcDbEntity
  8
LC-004-002-----0
  6
CONTINUOUS
 62
             7
100
AcDbCircle
 10
89.1507007586723
 20
129.78417140337891
 40
2.00000000000017
100
AcDbArc
 50
-79.6600510000019
 51
0.0
  0
ARC
  5
A2
100
AcDbEntity
  8
LC-004-002-----0
  6
CONTINUOUS
 62
             7
100
AcDbCircle
 10
82.1507007586723
 20
93.15082340337904
 40
41.00000000000014
100
AcDbArc
 50
79.66010899999944
 51
100.33989100000062
  0
ARC
  5
A1
100
AcDbEntity
  8
LC-004-002-----0
  6
CONTINUOUS
 62
             7
100
AcDbCircle
 10
75.1507007586723
 20
131.517475403379
 40
2.00000000000032
100
AcDbArc
 50
100.33987199999042
 51
180.0
  0
ARC
  5
A0
100
AcDbEntity
  8
LC-004-002-----0
  6
CONTINUOUS
 62
             7
100
AcDbCircle
 10
82.1507007586723
 20
168.15082340337889
 40
41.00000000000018
100
AcDbArc
 50
-100.33989100000061
 51
-79.66005099999941
  0
ARC
  5
9F
100
AcDbEntity
  8
LC-004-002-----0
  6
CONTINUOUS
 62
             7
100
AcDbCircle
 10
75.1507007586723
 20
129.78417140337891
 40
2.0
100
AcDbArc
 50
180.0
 51
-100.34004300000129
  0
ARC
  5
9E
100
AcDbEntity
  8
LC-004-002-----0
  6
CONTINUOUS
 62
             7
100
AcDbCircle
 10
75.1507007586723
 20
131.68105440337899
 40
2.00000000000016
100
AcDbArc
 50
106.7267819999995
 51
180.0
  0
ARC
  5
9D
100
AcDbEntity
  8
LC-004-002-----0
  6
CONTINUOUS
 62
             7
100
AcDbCircle
 10
75.1507007586723
 20
129.620591403379
 40
2.0
100
AcDbArc
 50
180.0
 51
-106.72695299999278
  0
ARC
  5
9C
100
AcDbEntity
  8
LC-004-002-----0
  6
CONTINUOUS
 62
             7
100
AcDbCircle
 10
105.1508937586722
 20
93.15098940337896
 40
40.99999999999987
100
AcDbArc
 50
79.66007200000016
 51
100.33983500000053
  0
ARC
  5
9B
100
AcDbEntity
  8
LC-004-002-----0
  6
CONTINUOUS
 62
             7
100
AcDbCircle
 10
98.15091975867233
 20
131.5176464033789
 40
1.99999999999981
100
AcDbArc
 50
100.33983500000815
 51
179.99996299998716
  0
ARC
  5
9A
100
AcDbEntity
  8
LC-004-002-----0
  6
CONTINUOUS
 62
             7
100
AcDbCircle
 10
98.15091775867234
 20
129.7843414033789
 40
2.00000000000042
100
AcDbArc
 50
179.99996299998716
 51
-100.34000499999109
  0
ARC
  5
99
100
AcDbEntity
  8
LC-004-002-----0
  6
CONTINUOUS
 62
             7
100
AcDbCircle
 10
105.1509437586723
 20
168.1509894033789
 40
40.99999999999958
100
AcDbArc
 50
-100.34007999999933
 51
-79.66014699999954
  0
ARC
  5
98
100
AcDbEntity
  8
LC-004-002-----0
  6
CONTINUOUS
 62
             7
100
AcDbCircle
 10
112.1509197586723
 20
131.51763740337901
 40
2.00000000000042
100
AcDbArc
 50
-0.00003700001366
 51
79.65999700000228
  0
ARC
  5
97
100
AcDbEntity
  8
LC-004-002-----0
  6
CONTINUOUS
 62
             7
100
AcDbCircle
 10
93.65070075867232
 20
70.12197740337888
 40
66.27884600000039
100
AcDbArc
 50
73.2731990000005
 51
106.72678199999969
  0
ARC
  5
96
100
AcDbEntity
  8
LC-004-002-----0
  6
CONTINUOUS
 62
             7
100
AcDbCircle
 10
112.1507007586723
 20
131.68105440337899
 40
2.0
100
AcDbArc
 50
0.0
 51
73.27319899999114
  0
ARC
  5
95
100
AcDbEntity
  8
LC-004-002-----0
  6
CONTINUOUS
 62
             7
100
AcDbCircle
 10
112.15091775867231
 20
129.7843324033789
 40
1.9999999999999
100
AcDbArc
 50
-79.66008799999408
 51
-0.0000370000104
  0
ARC
  5
94
100
AcDbEntity
  8
LC-004-002-----0
  6
CONTINUOUS
 62
             7
100
AcDbCircle
 10
93.65070075867232
 20
191.17966940337899
 40
66.27884599999993
100
AcDbArc
 50
-106.72695300000022
 51
-73.27319900000028
  0
ARC
  5
93
100
AcDbEntity
  8
LC-004-002-----0
  6
CONTINUOUS
 62
             7
100
AcDbCircle
 10
112.1507007586723
 20
129.620591403379
 40
2.00000000000039
100
AcDbArc
 50
-73.27313999999731
 51
0.0
  0
ARC
  5
92
100
AcDbEntity
  8
LC-004-002-----0
  6
CONTINUOUS
 62
             7
100
AcDbCircle
 10
89.1507007586723
 20
131.517475403379
 40
2.0
100
AcDbArc
 50
0.0
 51
79.66010899999414
  0
ARC
  5
91
100
AcDbEntity
  8
LC-004-002-----0
  6
CONTINUOUS
 62
             7
100
AcDbCircle
 10
92.1507007586723
 20
132.15082340337901
 40
1.0
100
AcDbArc
 50
90.0
 51
179.99984799997557
  0
ARC
  5
90
100
AcDbEntity
  8
LC-004-002-----0
  6
CONTINUOUS
 62
             7
100
AcDbCircle
 10
95.15070075867232
 20
132.15082340337901
 40
1.0
100
AcDbArc
 50
0.0
 51
90.0
  0
ARC
  5
8F
100
AcDbEntity
  8
LC-004-002-----0
  6
CONTINUOUS
 62
             7
100
AcDbCircle
 10
95.15070075867232
 20
129.15082340337901
 40
0.99999999999963
100
AcDbArc
 50
-89.99994200000329
 51
0.0
  0
ARC
  5
8E
100
AcDbEntity
  8
LC-008-002-RND-0
  6
CONTINUOUS
 62
             7
100
AcDbCircle
 10
58.00037099999982
 20
108.3965484033787
 40
3.0
100
AcDbArc
 50
90.0
 51
180.0
  0
ARC
  5
8D
100
AcDbEntity
  8
LC-004-002-----0
  6
CONTINUOUS
 62
             7
100
AcDbCircle
 10
92.1507007586723
 20
129.15082340337901
 40
1.0
100
AcDbArc
 50
180.0
 51
-89.9999419999984
  0
ARC
  5
8C
100
AcDbEntity
  8
LC-008-002-RND-0
  6
CONTINUOUS
 62
             7
100
AcDbCircle
 10
103.1507007586723
 20
89.3964603144631
 40
0.5
100
AcDbArc
 50
-90.0
 51
0.0
  0
ARC
  5
8B
100
AcDbEntity
  8
LC-008-002-RND-0
  6
CONTINUOUS
 62
             7
100
AcDbCircle
 10
84.1507007586723
 20
89.3964603144631
 40
0.5
100
AcDbArc
 50
180.0
 51
-90.0
  0
ARC
  5
8A
100
AcDbEntity
  8
LC-008-002-RND-0
  6
CONTINUOUS
 62
             7
100
AcDbCircle
 10
84.1507007586723
 20
95.91654840337893
 40
0.5
100
AcDbArc
 50
90.0
 51
180.0
  0
ARC
  5
89
100
AcDbEntity
  8
LC-008-002-RND-0
  6
CONTINUOUS
 62
             7
100
AcDbCircle
 10
103.1507007586723
 20
95.91654840337893
 40
0.5
100
AcDbArc
 50
0.0
 51
90.0
  0
ARC
  5
88
100
AcDbEntity
  8
LC-008-002-RND-0
  6
CONTINUOUS
 62
             7
100
AcDbCircle
 10
84.1507007586723
 20
103.8865484033789
 40
0.5
100
AcDbArc
 50
90.0
 51
180.0
  0
ARC
  5
87
100
AcDbEntity
  8
LC-008-002-RND-0
  6
CONTINUOUS
 62
             7
100
AcDbCircle
 10
103.1507007586723
 20
103.8865484033789
 40
0.5
100
AcDbArc
 50
0.0
 51
90.0
  0
ARC
  5
86
100
AcDbEntity
  8
LC-008-002-RND-0
  6
CONTINUOUS
 62
             7
100
AcDbCircle
 10
84.1507007586723
 20
96.91654840337893
 40
0.5
100
AcDbArc
 50
180.0
 51
-90.0
  0
ARC
  5
85
100
AcDbEntity
  8
LC-008-002-RND-0
  6
CONTINUOUS
 62
             7
100
AcDbCircle
 10
103.1507007586723
 20
96.91654840337893
 40
0.5
100
AcDbArc
 50
-90.0
 51
0.0
  0
ARC
  5
84
100
AcDbEntity
  8
LC-002-002-----0
  6
CONTINUOUS
 62
             7
100
AcDbCircle
 10
-359.35908441900028
 20
32.05261664830489
 40
484.49566425397609
100
AcDbArc
 50
-13.202029439067
 51
1.35113132169496
  0
ARC
  5
83
100
AcDbEntity
  8
LC-001-002-----0
  6
DASHED
 62
             7
100
AcDbCircle
 10
205.02155900000071
 20
7.6262728191073
 40
1.00000000000126
100
AcDbArc
 50
150.00000000004184
 51
-119.99999999995819
  0
ARC
  5
82
100
AcDbEntity
  8
LC-001-002-----0
  6
DASHED
 62
             7
100
AcDbCircle
 10
210.2177110000012
 20
4.6262728191073
 40
1.00000000000126
100
AcDbArc
 50
-119.99999999995819
 51
-30.00000000006406
  0
ARC
  5
81
100
AcDbEntity
  8
LC-001-002-----0
  6
DASHED
 62
             7
100
AcDbCircle
 10
97.44375600000058
 20
-62.59360218089157
 40
139.99999999999855
100
AcDbArc
 50
36.58023199999965
 51
64.36101600000045
  0
ARC
  5
80
100
AcDbEntity
  8
LC-001-002-----0
  6
DASHED
 62
             7
100
AcDbCircle
 10
97.44375600000058
 20
-62.59360218089157
 40
138.99999999999702
100
AcDbArc
 50
36.58023199999954
 51
78.5647830000004
  0
ARC
  5
7F
100
AcDbEntity
  8
LC-001-002-----0
  6
DASHED
 62
             7
100
AcDbCircle
 10
206.6549019999984
 20
18.4553068191058
 40
3.00000000000069
100
AcDbArc
 50
-29.9999999999924
 51
36.58023199995741
  0
ARC
  5
7E
100
AcDbEntity
  8
LC-001-002-----0
  6
DASHED
 62
             7
100
AcDbCircle
 10
206.6549019999984
 20
18.4553068191058
 40
4.00000000000195
100
AcDbArc
 50
-29.99999999998385
 51
36.5802320000027
  0
ARC
  5
7D
100
AcDbEntity
  8
LC-001-002-----0
  6
DASHED
 62
             7
100
AcDbCircle
 10
154.8882019999983
 20
65.32881481910638
 40
2.00000000000007
100
AcDbArc
 50
1.375597999954
 51
75.00000100001317
  0
ARC
  5
7C
100
AcDbEntity
  8
LC-001-002-----0
  6
DASHED
 62
             7
100
AcDbCircle
 10
158.88705000000121
 20
65.4248398191053
 40
2.00000000000009
100
AcDbArc
 50
-178.62440200004602
 51
-115.63898400002138
  0
ARC
  5
7B
100
AcDbEntity
  8
LC-001-002-----0
  6
DASHED
 62
             7
100
AcDbCircle
 10
154.8882019999983
 20
65.32881481910638
 40
1.00000000000003
100
AcDbArc
 50
1.375597999954
 51
75.0000009999862
  0
ARC
  5
7A
100
AcDbEntity
  8
LC-001-002-----0
  6
DASHED
 62
             7
100
AcDbCircle
 10
158.88705000000121
 20
65.4248398191053
 40
3.00000000000013
100
AcDbArc
 50
-178.62440200004602
 51
-115.63898400005378
  0
ARC
  5
79
100
AcDbEntity
  8
LC-001-002-----0
  6
DASHED
 62
             7
100
AcDbCircle
 10
132.6915090000002
 20
73.3469518191055
 40
1.50000000000038
100
AcDbArc
 50
-14.99999899993
 51
141.42182299989148
  0
ARC
  5
78
100
AcDbEntity
  8
LC-001-002-----0
  6
DASHED
 62
             7
100
AcDbCircle
 10
130.73711399999959
 20
74.90590681910592
 40
0.9999999999994
100
AcDbArc
 50
-104.99999900001853
 51
-38.5781769998916
  0
LINE
  5
77
100
AcDbEntity
  8
LC-003-100-D03-0
  6
CONTINUOUS
 62
             7
100
AcDbLine
 10
91.2298609999998
 20
-81.611064685537
 11
91.2298609999998
 21
-78.59909739352786
  0
LINE
  5
76
100
AcDbEntity
  8
LC-003-100-D03-0
  6
CONTINUOUS
 62
             7
100
AcDbLine
 10
64.08698199999982
 20
-83.59926468553701
 11
89.2416599999998
 21
-83.59926468553701
  0
LINE
  5
75
100
AcDbEntity
  8
LC-001-001-----0
  6
CONTINUOUS
 62
             7
100
AcDbLine
 10
58.99996699999982
 20
96.41654840337893
 11
58.00571499999983
 21
96.4165484033789
  0
LINE
  5
74
100
AcDbEntity
  8
LC-003-100-D03-0
  6
CONTINUOUS
 62
             7
100
AcDbLine
 10
61.10513599999981
 20
-80.66901268553701
 11
58.00571499999983
 21
96.4165484033789
  0
LINE
  5
73
100
AcDbEntity
  8
LC-003-100-D03-0
  6
CONTINUOUS
 62
             7
100
AcDbLine
 10
20.29915800000001
 20
-73.20354968553701
 11
23.76326
 21
-67.2035486855369
  0
LINE
  5
72
100
AcDbEntity
  8
LC-003-100-D03-0
  6
CONTINUOUS
 62
             7
100
AcDbLine
 10
20.29915800000001
 20
-73.20354968553701
 11
8.20938502991018
 21
-72.56995232754528
  0
LINE
  5
71
100
AcDbEntity
  8
LC-003-100-D03-0
  6
CONTINUOUS
 62
             7
100
AcDbLine
 10
3.51627576095334
 20
-67.20440366081917
 11
0.0
 21
-67.02012371729731
  0
LINE
  5
70
100
AcDbEntity
  8
LC-003-100-D03-0
  6
CONTINUOUS
 62
             7
100
AcDbLine
 10
20.29915800000001
 20
73.19644631446309
 11
8.20706980705344
 21
72.56272762093522
  0
LINE
  5
6F
100
AcDbEntity
  8
LC-003-100-D03-0
  6
CONTINUOUS
 62
             7
100
AcDbLine
 10
20.29915800000001
 20
73.19644631446309
 11
23.76326000000001
 21
67.19644531446296
  0
LINE
  5
6E
100
AcDbEntity
  8
LC-003-100-D03-0
  6
CONTINUOUS
 62
             7
100
AcDbLine
 10
3.51627584173446
 20
67.19730029397866
 11
0.0
 21
67.01302034622339
  0
LINE
  5
6D
100
AcDbEntity
  8
LC-003-100-D03-0
  6
CONTINUOUS
 62
             7
100
AcDbLine
 10
60.86933384409905
 20
-67.19644568555148
 11
23.76326
 21
-67.19644668553693
  0
LINE
  5
6C
100
AcDbEntity
  8
LC-003-100-D03-0
  6
CONTINUOUS
 62
             7
100
AcDbLine
 10
58.51713673126891
 20
67.19644431463092
 11
23.76326000000001
 21
67.19644531446296
  0
LINE
  5
6B
100
AcDbEntity
  8
LC-003-100-D03-0
  6
CONTINUOUS
 62
             7
100
AcDbLine
 10
0.0
 20
67.01302034622339
 11
0.0
 21
-67.02012371729731
  0
LINE
  5
6A
100
AcDbEntity
  8
LC-003-100-D03-0
  6
CONTINUOUS
 62
             7
100
AcDbLine
 10
55.00037099999982
 20
96.41654840337893
 11
125.0018730000011
 21
96.41654840337893
  0
LINE
  5
69
100
AcDbEntity
  8
LC-003-100-D03-0
  6
CONTINUOUS
 62
             7
100
AcDbLine
 10
92.4080747586723
 20
67.28820876892735
 11
94.89332575867223
 21
67.28820876892732
  0
LINE
  5
68
100
AcDbEntity
  8
LC-003-100-D03-0
  6
CONTINUOUS
 62
             7
100
AcDbLine
 10
91.6641087586723
 20
88.8964603144631
 11
92.4080747586723
 21
67.28820876892735
  0
LINE
  5
67
100
AcDbEntity
  8
LC-003-100-D03-0
  6
CONTINUOUS
 62
             7
100
AcDbLine
 10
94.89332575867223
 20
67.28820876892732
 11
95.63729175867223
 21
88.8964603144631
  0
LINE
  5
66
100
AcDbEntity
  8
LC-004-002-----0
  6
CONTINUOUS
 62
             7
100
AcDbLine
 10
103.1509082272156
 20
111.3965484033787
 11
125.0018730000011
 21
111.3965484033787
  0
LINE
  5
65
100
AcDbEntity
  8
LC-004-002-----0
  6
CONTINUOUS
 62
             7
100
AcDbLine
 10
84.1507007586723
 20
104.3865484033789
 11
84.1507007586723
 21
125.5851924033789
  0
LINE
  5
64
100
AcDbEntity
  8
LC-004-002-----0
  6
CONTINUOUS
 62
             7
100
AcDbLine
 10
73.1507007586723
 20
129.620591403379
 11
73.1507007586723
 21
131.68105440337899
  0
LINE
  5
63
100
AcDbEntity
  8
LC-004-002-----0
  6
CONTINUOUS
 62
             7
100
AcDbLine
 10
103.1509047586723
 20
104.3867154033788
 11
103.1509157586723
 21
125.585359403379
  0
LINE
  5
62
100
AcDbEntity
  8
LC-004-002-----0
  6
CONTINUOUS
 62
             7
100
AcDbLine
 10
114.1507007586723
 20
129.620591403379
 11
114.1507007586723
 21
131.68105440337899
  0
LINE
  5
61
100
AcDbEntity
  8
LC-004-002-----0
  6
CONTINUOUS
 62
             7
100
AcDbLine
 10
58.00037099999982
 20
111.3965484033787
 11
84.1507007586723
 21
111.3965484033787
  0
LINE
  5
60
100
AcDbEntity
  8
LC-004-002-----0
  6
CONTINUOUS
 62
             7
100
AcDbLine
 10
95.15070075867232
 20
133.15082340337901
 11
92.1507007586723
 21
133.15082340337901
  0
LINE
  5
5F
100
AcDbEntity
  8
LC-004-002-----0
  6
CONTINUOUS
 62
             7
100
AcDbLine
 10
96.15070075867232
 20
129.15082340337901
 11
96.15070075867232
 21
132.15082340337901
  0
LINE
  5
5E
100
AcDbEntity
  8
LC-004-002-----0
  6
CONTINUOUS
 62
             7
100
AcDbLine
 10
91.1507007586723
 20
132.15082340337901
 11
91.1507007586723
 21
129.15082340337901
  0
LINE
  5
5D
100
AcDbEntity
  8
LC-004-002-----0
  6
CONTINUOUS
 62
             7
100
AcDbLine
 10
92.1507007586723
 20
128.15082340337901
 11
95.15070075867232
 21
128.15082340337901
  0
LINE
  5
5C
100
AcDbEntity
  8
LC-004-002-----0
  6
CONTINUOUS
 62
             7
100
AcDbLine
 10
3.5
 20
67.19644731446297
 11
3.5
 21
-67.20355068553701
  0
LINE
  5
5B
100
AcDbEntity
  8
LC-004-002-----0
  6
CONTINUOUS
 62
             7
100
AcDbLine
 10
20.29915800000001
 20
73.19644631446309
 11
20.29915800000001
 21
-73.20354968553701
  0
LINE
  5
5A
100
AcDbEntity
  8
LC-004-002-----0
  6
CONTINUOUS
 62
             7
100
AcDbLine
 10
23.76326000000001
 20
67.19644531446296
 11
23.76326
 21
-67.2035486855369
  0
LINE
  5
59
100
AcDbEntity
  8
LC-004-002-----0
  6
CONTINUOUS
 62
             7
100
AcDbLine
 10
55.00037099999982
 20
108.3965484033787
 11
55.00037099999982
 21
96.41654840337893
  0
LINE
  5
58
100
AcDbEntity
  8
LC-004-002-----0
  6
CONTINUOUS
 62
             7
100
AcDbLine
 10
84.1507007586723
 20
88.8964603144631
 11
103.1507007586723
 21
88.8964603144631
  0
LINE
  5
57
100
AcDbEntity
  8
LC-004-002-----0
  6
CONTINUOUS
 62
             7
100
AcDbLine
 10
83.6507007586723
 20
95.91654840337893
 11
83.6507007586723
 21
89.3964603144631
  0
LINE
  5
56
100
AcDbEntity
  8
LC-004-002-----0
  6
CONTINUOUS
 62
             7
100
AcDbLine
 10
103.6507007586723
 20
89.3964603144631
 11
103.6507007586723
 21
95.91654840337893
  0
LINE
  5
55
100
AcDbEntity
  8
LC-004-002-----0
  6
CONTINUOUS
 62
             7
100
AcDbLine
 10
84.15102475867231
 20
104.3865544033789
 11
103.1507007586723
 21
104.3865424033788
  0
LINE
  5
54
100
AcDbEntity
  8
LC-004-002-----0
  6
CONTINUOUS
 62
             7
100
AcDbLine
 10
84.1507007586723
 20
104.3865484033789
 11
103.1507007586723
 21
104.3865484033789
  0
LINE
  5
53
100
AcDbEntity
  8
LC-004-002-----0
  6
CONTINUOUS
 62
             7
100
AcDbLine
 10
103.6507007586723
 20
96.91654840337893
 11
103.6507007586723
 21
103.8865484033789
  0
LINE
  5
52
100
AcDbEntity
  8
LC-004-002-----0
  6
CONTINUOUS
 62
             7
100
AcDbLine
 10
83.6507007586723
 20
96.91654840337893
 11
83.6507007586723
 21
103.8865484033789
  0
LINE
  5
51
100
AcDbEntity
  8
1
  6
PHANTOM
 62
             2
100
AcDbLine
 10
66.15166412109028
 20
-0.00000006018355
 11
-5.99999994313865
 21
0.00000000545869
  0
LINE
  5
50
100
AcDbEntity
  8
1
  6
PHANTOM
 62
             2
100
AcDbLine
 10
93.65079211719961
 20
63.3549929159163
 11
93.65081192317429
 21
139.69313919364129
  0
LINE
  5
4F
100
AcDbEntity
  8
1
  6
CONTINUOUS
 62
             3
100
AcDbLine
 10
8.47050100000001
 20
67.59921231446302
 11
8.47050100000001
 21
-67.60631468553706
  0
LINE
  5
4E
100
AcDbEntity
  8
1
  6
DOT_CENTER
 62
             2
100
AcDbLine
 10
-6.0
 20
62.49999922730888
 11
-3.0
 21
62.49999922730888
  0
LINE
  5
4D
100
AcDbEntity
  8
1
  6
DOT_CENTER
 62
             2
100
AcDbLine
 10
-3.0
 20
-62.50000077461002
 11
-6.0
 21
-62.50000077461002
  0
LINE
  5
4C
100
AcDbEntity
  8
1
  6
DOT_CENTER
 62
             2
100
AcDbLine
 10
96.85120647922685
 20
136.40082340328669
 11
89.85120647922679
 21
136.40082340328669
  0
LINE
  5
4B
100
AcDbEntity
  8
LC-002-002-----0
  6
CONTINUOUS
 62
             7
100
AcDbLine
 10
125.0018730000011
 20
43.31726064777021
 11
125.0018730000011
 21
96.41654840337893
  0
LINE
  5
4A
100
AcDbEntity
  8
LC-002-002-----0
  6
CONTINUOUS
 62
             7
100
AcDbLine
 10
125.0018730000011
 20
96.41654840337893
 11
125.0018730000011
 21
111.3965484033787
  0
LINE
  5
49
100
AcDbEntity
  8
1
  6
CONTINUOUS
 62
             7
100
AcDbLine
 10
112.3317538008087
 20
-78.59909739352786
 11
91.2298609999998
 21
-78.59909739352786
  0
LINE
  5
48
100
AcDbEntity
  8
LC-003-100-D03-0
  6
CONTINUOUS
 62
             7
100
AcDbLine
 10
91.2298609999998
 20
-78.59909739352786
 11
91.2298609999998
 21
2.07828631446309
  0
LINE
  5
47
100
AcDbEntity
  8
LC-001-002-----0
  6
DASHED
 62
             7
100
AcDbLine
 10
155.40584099999981
 20
67.26066681910791
 11
134.14039799999961
 21
72.9587238191057
  0
LINE
  5
46
100
AcDbEntity
  8
LC-001-002-----0
  6
DASHED
 62
             7
100
AcDbLine
 10
155.14702200000099
 20
66.29474081910715
 11
125.0018730000011
 21
74.3721078191052
  0
LINE
  5
45
100
AcDbEntity
  8
LC-001-002-----0
  6
DASHED
 62
             7
100
AcDbLine
 10
205.02155900000071
 20
7.6262728191073
 11
210.1190040000001
 21
16.4553068191058
  0
LINE
  5
44
100
AcDbEntity
  8
LC-001-002-----0
  6
DASHED
 62
             7
100
AcDbLine
 10
204.15553300000099
 20
8.1262728191073
 11
209.25297800000041
 21
16.9553068191058
  0
LINE
  5
43
100
AcDbEntity
  8
LC-001-002-----0
  6
DASHED
 62
             7
100
AcDbLine
 10
210.2177110000012
 20
4.6262728191073
 11
205.02155900000071
 21
7.6262728191073
  0
LINE
  5
42
100
AcDbEntity
  8
LC-001-002-----0
  6
DASHED
 62
             7
100
AcDbLine
 10
209.7177110000012
 20
3.76024681910761
 11
204.52155900000071
 21
6.76024681910761
  0
LINE
  5
41
100
AcDbEntity
  8
LC-001-002-----0
  6
DASHED
 62
             7
100
AcDbLine
 10
211.08373700000081
 20
4.1262728191073
 11
212.58373700000081
 21
6.7243488191057
  0
LINE
  5
40
100
AcDbEntity
  8
LC-001-002-----0
  6
DASHED
 62
             7
100
AcDbLine
 10
210.2177110000012
 20
4.6262728191073
 11
211.7177110000012
 21
7.2243488191057
  0
LINE
  5
3F
100
AcDbEntity
  8
LC-001-002-----0
  6
DASHED
 62
             7
100
AcDbLine
 10
212.58373700000081
 20
6.7243488191057
 11
206.52155900000071
 21
10.2243488191057
  0
LINE
  5
3E
100
AcDbEntity
  8
LC-001-002-----0
  6
DASHED
 62
             7
100
AcDbLine
 10
125.0018730000011
 20
52.67095881910839
 11
205.2756750000008
 21
6.32485781910557
  0
LINE
  5
3D
100
AcDbEntity
  8
LC-001-002-----0
  6
DASHED
 62
             7
100
AcDbLine
 10
130.4782950000008
 20
73.93998081910516
 11
125.0018730000011
 21
75.40738381910754
  0
ENDBLK
  5
A8
100
AcDbEntity
  8
0
100
AcDbBlockEnd
  0
BLOCK
  5
AB
100
AcDbEntity
  8
0
100
AcDbBlockBegin
  2
*D3
 70
             1
 10
0.0
 20
0.0
 30
0.0
  3
*D3
  1

  0
LINE
  5
AC
100
AcDbEntity
  8
0
  6
CONTINUOUS
 62
             4
100
AcDbLine
 10
165.53722431657371
 20
-83.5992647549493
 11
165.53722449397728
 21
111.39654836650038
  0
LINE
  5
AD
100
AcDbEntity
  8
0
  6
CONTINUOUS
 62
             4
100
AcDbLine
 10
125.00187300000111
 20
111.39654840337869
 11
167.53722449397728
 21
111.39654836468088
  0
LINE
  5
AE
100
AcDbEntity
  8
0
  6
CONTINUOUS
 62
             4
100
AcDbLine
 10
89.24165999999983
 20
-83.59926468553701
 11
167.53722431657371
 21
-83.59926475676888
  0
SOLID
  5
AF
100
AcDbEntity
  8
0
 62
             4
100
AcDbTrace
 10
163.95739435644231
 20
-71.599264753512
 11
167.11705429853981
 21
-71.5992647563866
 12
165.53722431657371
 22
-83.5992647549493
 13
165.53722431657371
 23
-83.5992647549493
  0
SOLID
  5
B0
100
AcDbEntity
  8
0
 62
             4
100
AcDbTrace
 10
167.11705445410868
 20
99.39654836506308
 11
163.95739451201118
 21
99.39654836793768
 12
165.53722449397728
 22
111.39654836650038
 13
165.53722449397728
 23
111.39654836650038
  0
MTEXT
  5
B2
100
AcDbEntity
  8
0
 62
             1
100
AcDbMText
 10
163.53722434865395
 20
-48.33778777777482
 30
0.0
 40
12.0
 41
0.0
 71
             7
 72
             1
  1
195
  7
CONVERTER_1
 11
0.0
 21
1.0
 31
0.0
  0
ENDBLK
  5
B3
100
AcDbEntity
  8
0
100
AcDbBlockEnd
  0
BLOCK
  5
B7
100
AcDbEntity
  8
0
100
AcDbBlockBegin
  2
*D4
 70
             1
 10
0.0
 20
0.0
 30
0.0
  3
*D4
  1

  0
LINE
  5
B8
100
AcDbEntity
  8
0
  6
CONTINUOUS
 62
             4
100
AcDbLine
 10
-16.00000034076474
 20
62.49999923640669
 11
-16.00000045448741
 21
-62.50000076551221
  0
LINE
  5
B9
100
AcDbEntity
  8
0
  6
CONTINUOUS
 62
             4
100
AcDbLine
 10
-6.0
 20
-62.50000077461002
 11
-18.00000045448741
 21
-62.50000076369265
  0
LINE
  5
BA
100
AcDbEntity
  8
0
  6
CONTINUOUS
 62
             4
100
AcDbLine
 10
-6.0
 20
62.49999922730888
 11
-18.00000034076474
 21
62.49999923822625
  0
SOLID
  5
BB
100
AcDbEntity
  8
0
 62
             4
100
AcDbTrace
 10
-14.42017038063338
 20
50.49999923496939
 11
-17.57983032273087
 21
50.49999923784399
 12
-16.00000034076474
 22
62.49999923640669
 13
-16.00000034076474
 23
62.49999923640669
  0
SOLID
  5
BC
100
AcDbEntity
  8
0
 62
             4
100
AcDbTrace
 10
-17.57983041461877
 20
-50.50000076407491
 11
-14.42017047252127
 21
-50.50000076694951
 12
-16.00000045448741
 22
-62.50000076551221
 13
-16.00000045448741
 23
-62.50000076551221
  0
MTEXT
  5
BD
100
AcDbEntity
  8
0
 62
             1
100
AcDbMText
 10
-18.00000039996954
 20
-22.25586128595981
 30
0.0
 40
12.0
 41
0.0
 71
             7
 72
             1
  1
\C1;DN\C1;125
  7
CONVERTER_1
 11
0.0
 21
1.0
 31
0.0
  0
ENDBLK
  5
BE
100
AcDbEntity
  8
0
100
AcDbBlockEnd
  0
BLOCK
  5
C2
100
AcDbEntity
  8
0
100
AcDbBlockBegin
  2
*D5
 70
             1
 10
0.0
 20
0.0
 30
0.0
  3
*D5
  1

  0
LINE
  5
C3
100
AcDbEntity
  8
0
  6
CONTINUOUS
 62
             4
100
AcDbLine
 10
125.00187304567204
 20
161.59647448690097
 11
55.00037104840013
 21
161.59647455058706
  0
LINE
  5
C4
100
AcDbEntity
  8
0
  6
CONTINUOUS
 62
             4
100
AcDbLine
 10
55.00037099999982
 20
108.39654840337869
 11
55.00037105021969
 21
163.59647455058706
  0
LINE
  5
C5
100
AcDbEntity
  8
0
  6
CONTINUOUS
 62
             4
100
AcDbLine
 10
125.00187300000108
 20
111.39654840337869
 11
125.0018730474916
 21
163.59647448690097
  0
SOLID
  5
C6
100
AcDbEntity
  8
0
 62
             4
100
AcDbTrace
 10
113.00187304423474
 20
160.01664452676957
 11
113.00187304710934
 21
163.17630446886707
 12
125.00187304567204
 22
161.59647448690097
 13
125.00187304567204
 23
161.59647448690097
  0
SOLID
  5
C7
100
AcDbEntity
  8
0
 62
             4
100
AcDbTrace
 10
67.00037104983743
 20
163.17630451071847
 11
67.00037104696283
 21
160.01664456862096
 12
55.00037104840013
 22
161.59647455058706
 13
55.00037104840013
 23
161.59647455058706
  0
MTEXT
  5
C8
100
AcDbEntity
  8
0
 62
             1
100
AcDbMText
 10
81.4728033709013
 20
163.59647451831489
 30
0.0
 40
12.0
 41
0.0
 71
             7
 72
             1
  1
70
  7
CONVERTER_1
 11
0.99999999999706
 21
0.00000242406841
 31
0.0
  0
ENDBLK
  5
C9
100
AcDbEntity
  8
0
100
AcDbBlockEnd
  0
BLOCK
  5
CD
100
AcDbEntity
  8
0
100
AcDbBlockBegin
  2
*D6
 70
             1
 10
0.0
 20
0.0
 30
0.0
  3
*D6
  1

  0
LINE
  5
CE
100
AcDbEntity
  8
0
  6
CONTINUOUS
 62
             4
100
AcDbLine
 10
125.00187306756999
 20
185.66594362164517
 11
0.00000010794822
 21
185.66594373536955
  0
LINE
  5
CF
100
AcDbEntity
  8
0
  6
CONTINUOUS
 62
             4
100
AcDbLine
 10
0.0
 20
67.0130203462234
 11
0.00000010976779
 21
187.66594373536955
  0
LINE
  5
D0
100
AcDbEntity
  8
0
  6
CONTINUOUS
 62
             4
100
AcDbLine
 10
125.00187300000108
 20
111.39654840337872
 11
125.00187306938955
 21
187.66594362164517
  0
SOLID
  5
D1
100
AcDbEntity
  8
0
 62
             4
100
AcDbTrace
 10
113.00187306613269
 20
184.08611366151376
 11
113.00187306900729
 21
187.24577360361127
 12
125.00187306756999
 22
185.66594362164517
 13
125.00187306756999
 23
185.66594362164517
  0
SOLID
  5
D2
100
AcDbEntity
  8
0
 62
             4
100
AcDbTrace
 10
12.00000010938552
 20
187.24577369550096
 11
12.00000010651093
 21
184.08611375340345
 12
0.00000010794822
 22
185.66594373536955
 13
0.00000010794822
 23
185.66594373536955
  0
MTEXT
  5
D3
100
AcDbEntity
  8
0
 62
             1
100
AcDbMText
 10
50.01047132018506
 20
187.6659436784077
 30
0.0
 40
12.0
 41
0.0
 71
             7
 72
             1
  1
125
  7
CONVERTER_1
 11
0.99999999999706
 21
0.00000242406841
 31
0.0
  0
ENDBLK
  5
D4
100
AcDbEntity
  8
0
100
AcDbBlockEnd
  0
ENDSEC
  0
SECTION
  2
ENTITIES
  0
DIMENSION
  5
D6
100
AcDbEntity
  8
1
100
AcDbDimension
  2
*D6
 10
125.00187306756999
 20
185.66594362164517
 11
62.61047132018506
 21
193.6659436784077
 31
0.0
 53
0.00013888888889
  1
<>
  3
ME10_DIM_3
100
AcDbAlignedDimension
 13
0.0
 23
67.01302034622339
 14
125.0018730000011
 24
111.3965484033787
100
AcDbRotatedDimension
  0
DIMENSION
  5
CB
100
AcDbEntity
  8
1
100
AcDbDimension
  2
*D5
 10
125.00187304567204
 20
161.59647448690097
 11
90.4728033709013
 21
169.59647451831489
 31
0.0
 53
0.00013888888889
  1
<>
  3
ME10_DIM_2
100
AcDbAlignedDimension
 13
55.00037099999982
 23
108.3965484033787
 14
125.0018730000011
 24
111.3965484033787
100
AcDbRotatedDimension
  0
DIMENSION
  5
C0
100
AcDbEntity
  8
1
100
AcDbDimension
  2
*D4
 10
-16.00000034076474
 20
62.49999923640669
 11
-24.00000040051541
 21
-3.17586128050112
 31
0.0
 53
89.99999994787336
  1
<>
  3
ME10_DIM_1
100
AcDbAlignedDimension
 13
-6.0
 23
-62.50000077461002
 14
-6.0
 24
62.49999922730888
 50
89.99999994787336
100
AcDbRotatedDimension
  0
DIMENSION
  5
B5
100
AcDbEntity
  8
1
100
AcDbDimension
  2
*D3
 10
165.53722431657371
 20
-83.5992647549493
 11
157.53722436011719
 21
-35.73778777231613
 31
0.0
 53
89.99999994787336
  1
<>
  3
ME10_DIM_0
100
AcDbAlignedDimension
 13
125.0018730000011
 23
111.3965484033787
 14
89.2416599999998
 24
-83.59926468553701
 50
89.99999994787336
100
AcDbRotatedDimension
  0
INSERT
  5
34
100
AcDbEntity
  8
0
100
AcDbBlockReference
  2
HL_712_R_CKSTAUVERSCHLS__2
 10
308.17293494427599
 20
5.34729402549084
  0
INSERT
  5
35
100
AcDbEntity
  8
0
100
AcDbBlockReference
  2
HL_712_0_FROSCHKLAPPE__3
 10
6.0825749921797
 20
-1075.4404413795089
  0
ENDSEC
  0
SECTION
  2
OBJECTS
  0
DICTIONARY
  5
19
100
AcDbDictionary
  3
ACAD_GROUP
350
1A
  3
ACAD_MLINESTYLE
350
1B
  0
DICTIONARY
  5
1A
102
{ACAD_REACTORS
330
19
102
}
100
AcDbDictionary
  0
DICTIONARY
  5
1B
102
{ACAD_REACTORS
330
19
102
}
100
AcDbDictionary
  3
STANDARD
350
1C
  0
MLINESTYLE
  5
1C
102
{ACAD_REACTORS
330
1B
102
}
100
AcDbMlineStyle
  2
STANDARD
 70
             0
  3

 62
             0
 51
90.0
 52
90.0
 71
             2
 49
0.5
 62
           256
  6
BYLAYER
 49
-0.5
 62
           256
  6
BYLAYER
  0
ENDSEC
  0
EOF
