  0
SECTION
  2
HEADER
  9
$ACADVER
  1
AC1014
  9
$ACADMAINTVER
 70
             0
  9
$DWGCODEPAGE
  3
ANSI_1252
  9
$INSBASE
 10
0.0
 20
0.0
 30
0.0
  9
$EXTMIN
 10
-33.84367193566678
 20
-130.3670754717829
 30
0.0
  9
$EXTMAX
 10
904.34397297947726
 20
289.55931345702368
 30
0.0
  9
$LIMMIN
 10
0.0
 20
0.0
  9
$LIMMAX
 10
0.0
 20
0.0
  9
$ORTHOMODE
 70
             0
  9
$REGENMODE
 70
             1
  9
$FILLMODE
 70
             1
  9
$QTEXTMODE
 70
             0
  9
$MIRRTEXT
 70
             1
  9
$DRAGMODE
 70
             2
  9
$LTSCALE
 40
1.0
  9
$OSMODE
 70
             0
  9
$ATTMODE
 70
             1
  9
$TEXTSIZE
 40
0.2
  9
$TRACEWID
 40
0.05
  9
$TEXTSTYLE
  7
STANDARD
  9
$CLAYER
  8
0
  9
$CELTYPE
  6
CONTINUOUS
  9
$CECOLOR
 62
           256
  9
$CELTSCALE
 40
1.0
  9
$DELOBJ
 70
             1
  9
$DISPSILH
 70
             0
  9
$DIMSCALE
 40
1.0
  9
$DIMASZ
 40
0.18
  9
$DIMEXO
 40
0.0625
  9
$DIMDLI
 40
0.38
  9
$DIMRND
 40
0.0
  9
$DIMDLE
 40
0.0
  9
$DIMEXE
 40
0.18
  9
$DIMTP
 40
0.0
  9
$DIMTM
 40
0.0
  9
$DIMTXT
 40
0.18
  9
$DIMCEN
 40
0.09
  9
$DIMTSZ
 40
0.0
  9
$DIMTOL
 70
             0
  9
$DIMLIM
 70
             0
  9
$DIMTIH
 70
             1
  9
$DIMTOH
 70
             1
  9
$DIMSE1
 70
             0
  9
$DIMSE2
 70
             0
  9
$DIMTAD
 70
             0
  9
$DIMZIN
 70
             0
  9
$DIMBLK
  1

  9
$DIMASO
 70
             1
  9
$DIMSHO
 70
             1
  9
$DIMPOST
  1

  9
$DIMAPOST
  1

  9
$DIMALT
 70
             0
  9
$DIMALTD
 70
             2
  9
$DIMALTF
 40
25.4
  9
$DIMLFAC
 40
1.0
  9
$DIMTOFL
 70
             0
  9
$DIMTVP
 40
0.0
  9
$DIMTIX
 70
             0
  9
$DIMSOXD
 70
             0
  9
$DIMSAH
 70
             0
  9
$DIMBLK1
  1

  9
$DIMBLK2
  1

  9
$DIMSTYLE
  2
STANDARD
  9
$DIMCLRD
 70
             0
  9
$DIMCLRE
 70
             0
  9
$DIMCLRT
 70
             0
  9
$DIMTFAC
 40
1.0
  9
$DIMGAP
 40
0.09
  9
$DIMJUST
 70
             0
  9
$DIMSD1
 70
             0
  9
$DIMSD2
 70
             0
  9
$DIMTOLJ
 70
             1
  9
$DIMTZIN
 70
             0
  9
$DIMALTZ
 70
             0
  9
$DIMALTTZ
 70
             0
  9
$DIMFIT
 70
             3
  9
$DIMUPT
 70
             0
  9
$DIMUNIT
 70
             2
  9
$DIMDEC
 70
             4
  9
$DIMTDEC
 70
             4
  9
$DIMALTU
 70
             2
  9
$DIMALTTD
 70
             2
  9
$DIMTXSTY
  7
STANDARD
  9
$DIMAUNIT
 70
             0
  9
$LUNITS
 70
             2
  9
$LUPREC
 70
             4
  9
$SKETCHINC
 40
0.1
  9
$FILLETRAD
 40
0.0
  9
$AUNITS
 70
             0
  9
$AUPREC
 70
             0
  9
$MENU
  1
acad
  9
$ELEVATION
 40
0.0
  9
$PELEVATION
 40
0.0
  9
$THICKNESS
 40
0.0
  9
$LIMCHECK
 70
             0
  9
$BLIPMODE
 70
             1
  9
$CHAMFERA
 40
0.0
  9
$CHAMFERB
 40
0.0
  9
$CHAMFERC
 40
0.0
  9
$CHAMFERD
 40
0.0
  9
$SKPOLY
 70
             0
  9
$TDCREATE
 40
0.000000000
  9
$TDUPDATE
 40
0.000000000
  9
$TDINDWG
 40
0.0000000000
  9
$TDUSRTIMER
 40
0.0000000000
  9
$USRTIMER
 70
             1
  9
$ANGBASE
 50
0.0
  9
$ANGDIR
 70
             0
  9
$PDMODE
 70
             0
  9
$PDSIZE
 40
0.0
  9
$PLINEWID
 40
0.0
  9
$COORDS
 70
             0
  9
$SPLFRAME
 70
             0
  9
$SPLINETYPE
 70
             6
  9
$SPLINESEGS
 70
             8
  9
$ATTDIA
 70
             0
  9
$ATTREQ
 70
             1
  9
$HANDLING
 70
             1
  9
$HANDSEED
  5
347
  9
$SURFTAB1
 70
             6
  9
$SURFTAB2
 70
             6
  9
$SURFTYPE
 70
             6
  9
$SURFU
 70
             6
  9
$SURFV
 70
             6
  9
$UCSNAME
  2

  9
$UCSORG
 10
0.0
 20
0.0
 30
0.0
  9
$UCSXDIR
 10
1.0
 20
0.0
 30
0.0
  9
$UCSYDIR
 10
0.0
 20
1.0
 30
0.0
  9
$PUCSNAME
  2

  9
$PUCSORG
 10
0.0
 20
0.0
 30
0.0
  9
$PUCSXDIR
 10
1.0
 20
0.0
 30
0.0
  9
$PUCSYDIR
 10
0.0
 20
1.0
 30
0.0
  9
$USERI1
 70
             0
  9
$USERI2
 70
             0
  9
$USERI3
 70
             0
  9
$USERI4
 70
             0
  9
$USERI5
 70
             0
  9
$USERR1
 40
12.01
  9
$USERR2
 40
0.0
  9
$USERR3
 40
0.0
  9
$USERR4
 40
0.0
  9
$USERR5
 40
0.0
  9
$WORLDVIEW
 70
             1
  9
$SHADEDGE
 70
             3
  9
$SHADEDIF
 70
            70
  9
$TILEMODE
 70
             1
  9
$MAXACTVP
 70
            16
  9
$PINSBASE
 10
0.0
 20
0.0
 30
0.0
  9
$PLIMCHECK
 70
             0
  9
$PEXTMIN
 10
1.00000000000000E+20
 20
1.00000000000000E+20
 30
1.00000000000000E+20
  9
$PEXTMAX
 10
-1.00000000000000E+20
 20
-1.00000000000000E+20
 30
-1.00000000000000E+20
  9
$PLIMMIN
 10
0.0
 20
0.0
  9
$PLIMMAX
 10
12.0
 20
9.0
  9
$UNITMODE
 70
             0
  9
$VISRETAIN
 70
             0
  9
$PLINEGEN
 70
             1
  9
$PSLTSCALE
 70
             0
  9
$TREEDEPTH
 70
          3020
  9
$PICKSTYLE
 70
             1
  9
$CMLSTYLE
  2
STANDARD
  9
$CMLJUST
 70
             0
  9
$CMLSCALE
 40
1.0
  9
$PROXYGRAPHICS
 70
             0
  9
$MEASUREMENT
 70
             1
  0
ENDSEC
  0
SECTION
  2
CLASSES
  0
CLASS
  1
LWPOLYLINE
  2
AcDbPolyline
  3
"AutoCAD"
 90
        0
280
             0
281
             1
  0
CLASS
  1
IMAGE
  2
AcDbRasterImage
  3
ISM
 90
      127
280
             0
281
             1
  0
CLASS
  1
OLE2FRAME
  2
AcDbOle2Frame
  3
""
 90
        0
280
             0
281
             1
  0
CLASS
  1
HATCH
  2
AcDbHatch
  3
"ACAD_SEDONA"
 90
        0
280
             0
281
             1
  0
CLASS
  1
DICTIONARYVAR
  2
AcDbDictionaryVar
  3
"AutoCAD"
 90
        0
280
             0
281
             0
  0
CLASS
  1
RASTERVARIABLES
  2
AcDbRasterVariables
  3
ISM
 90
        0
280
             0
281
             0
  0
CLASS
  1
IMAGEDEF
  2
AcDbRasterImageDef
  3
ISM
 90
        0
280
             0
281
             0
  0
CLASS
  1
IMAGEDEF_REACTOR
  2
AcDbRasterImageDefReactor
  3
ISM
 90
        1
280
             0
281
             0
  0
CLASS
  1
IDBUFFER
  2
AcDbIdBuffer
  3
"Acad"
 90
        0
280
             0
281
             0
  0
CLASS
  1
SPATIAL_FILTER
  2
AcDbSpatialFilter
  3
"Acad"
 90
        0
280
             0
281
             0
  0
CLASS
  1
XRECORD
  2
AcDbXrecord
  3
"<Built In>"
 90
        0
280
             0
281
             0
  0
CLASS
  1
SORTENTSTABLE
  2
AcDbSortentsTable
  3
"AutoCAD"
 90
        0
280
             0
281
             0
  0
CLASS
  1
LAYER_INDEX
  2
AcDbLayerIndex
  3
"Acad"
 90
        0
280
             0
281
             0
  0
CLASS
  1
SPATIAL_INDEX
  2
AcDbSpatialIndex
  3
"Acad"
 90
        0
280
             0
281
             0
  0
CLASS
  1
OBJECT_PTR
  2
CAseDLPNTableRecord
  3
"ASE-LPNTableRecord"
 90
        1
280
             0
281
             0
  0
CLASS
  1
LAYOUT
  2
AcDbLayout
  3
"AutoCAD 2000"
 90
        0
280
             0
281
             0
  0
CLASS
  1
PLOTSETTINGS
  2
AcDbPlotSettings
  3
"AutoCAD 2000"
 90
        0
280
             0
281
             0
  0
CLASS
  1
ACDBDICTIONARYWDFLT
  2
AcDbDictionaryWithDefault
  3
"AutoCAD 2000"
 90
        0
280
             0
281
             0
  0
CLASS
  1
ACDBPLACEHOLDER
  2
AcDbPlaceHolder
  3
"AutoCAD 2000"
 90
        0
280
             0
281
             0
  0
ENDSEC
  0
SECTION
  2
TABLES
  0
TABLE
  2
VPORT
  5
7
100
AcDbSymbolTable
 70
             1
  0
VPORT
  5
15
100
AcDbSymbolTableRecord
100
AcDbViewportTableRecord
  2
*ACTIVE
 70
             0
 10
0.0
 20
0.0
 11
1.0
 21
1.0
 12
435.25015052190525
 22
79.59611899262039
 13
0.0
 23
0.0
 14
1.0
 24
1.0
 15
0.0
 25
0.0
 16
0.0
 26
0.0
 36
1.0
 17
0.0
 27
0.0
 37
0.0
 40
643.92600475512984
 41
1.60267857142857
 42
50.0
 43
0.0
 44
0.0
 50
0.0
 51
0.0
 71
             0
 72
           100
 73
             1
 74
             1
 75
             0
 76
             0
 77
             0
 78
             0
  0
ENDTAB
  0
TABLE
  2
LTYPE
  5
4
100
AcDbSymbolTable
 70
            11
  0
LTYPE
  5
11
100
AcDbSymbolTableRecord
100
AcDbLinetypeTableRecord
  2
BYBLOCK
 70
            64
  3

 72
            65
 73
             0
 40
0.0
  0
LTYPE
  5
12
100
AcDbSymbolTableRecord
100
AcDbLinetypeTableRecord
  2
BYLAYER
 70
            64
  3

 72
            65
 73
             0
 40
0.0
  0
LTYPE
  5
13
100
AcDbSymbolTableRecord
100
AcDbLinetypeTableRecord
  2
CONTINUOUS
 70
            64
  3
Solid line
 72
            65
 73
             0
 40
0.0
  0
LTYPE
  5
1D
100
AcDbSymbolTableRecord
100
AcDbLinetypeTableRecord
  2
DASHED
 70
            64
  3
Dashed
 72
            65
 73
             2
 40
15.0
 49
7.0
 74
             0
 49
-8.0
 74
             0
  0
LTYPE
  5
1E
100
AcDbSymbolTableRecord
100
AcDbLinetypeTableRecord
  2
DOTTED
 70
            64
  3
Dotted
 72
            65
 73
             2
 40
1.0
 49
0.0
 74
             0
 49
-1.0
 74
             0
  0
LTYPE
  5
1F
100
AcDbSymbolTableRecord
100
AcDbLinetypeTableRecord
  2
DOT_CENTER
 70
            64
  3
Dot_Center
 72
            65
 73
             4
 40
14.0
 49
12.0
 74
             0
 49
-1.0
 74
             0
 49
0.0
 74
             0
 49
-1.0
 74
             0
  0
LTYPE
  5
20
100
AcDbSymbolTableRecord
100
AcDbLinetypeTableRecord
  2
LONG_DASHED
 70
            64
  3
Long_Dashed
 72
            65
 73
             2
 40
15.0
 49
10.0
 74
             0
 49
-5.0
 74
             0
  0
LTYPE
  5
21
100
AcDbSymbolTableRecord
100
AcDbLinetypeTableRecord
  2
DASH_CENTER
 70
            64
  3
Dash_Center
 72
            65
 73
             4
 40
14.0
 49
11.0
 74
             0
 49
-1.0
 74
             0
 49
1.0
 74
             0
 49
-1.0
 74
             0
  0
LTYPE
  5
22
100
AcDbSymbolTableRecord
100
AcDbLinetypeTableRecord
  2
PHANTOM
 70
            64
  3
Phantom
 72
            65
 73
             6
 40
13.0
 49
10.0
 74
             0
 49
-1.0
 74
             0
 49
0.0
 74
             0
 49
-1.0
 74
             0
 49
0.0
 74
             0
 49
-1.0
 74
             0
  0
LTYPE
  5
23
100
AcDbSymbolTableRecord
100
AcDbLinetypeTableRecord
  2
CENTER_DASH_DASH
 70
            64
  3
Center_Dash_Dash
 72
            65
 73
             6
 40
14.0
 49
9.0
 74
             0
 49
-1.0
 74
             0
 49
1.0
 74
             0
 49
-1.0
 74
             0
 49
1.0
 74
             0
 49
-1.0
 74
             0
  0
LTYPE
  5
24
100
AcDbSymbolTableRecord
100
AcDbLinetypeTableRecord
  2
DASHDOT
 70
            64
  3
DASHDOT
 72
            65
 73
             4
 40
16.0
 49
10.0
 74
             0
 49
-3.0
 74
             0
 49
0.0
 74
             0
 49
-3.0
 74
             0
  0
ENDTAB
  0
TABLE
  2
LAYER
  5
2
100
AcDbSymbolTable
 70
            11
  0
LAYER
  5
14
100
AcDbSymbolTableRecord
100
AcDbLayerTableRecord
  2
0
 70
             0
 62
             7
  6
CONTINUOUS
  0
LAYER
  5
25
100
AcDbSymbolTableRecord
100
AcDbLayerTableRecord
  2
1
 70
             0
 62
             7
  6
CONTINUOUS
  0
LAYER
  5
26
100
AcDbSymbolTableRecord
100
AcDbLayerTableRecord
  2
LC-001-002-----0
 70
             0
 62
             7
  6
CONTINUOUS
  0
LAYER
  5
27
100
AcDbSymbolTableRecord
100
AcDbLayerTableRecord
  2
LC-001-100-D02-0
 70
             0
 62
             7
  6
CONTINUOUS
  0
LAYER
  5
28
100
AcDbSymbolTableRecord
100
AcDbLayerTableRecord
  2
LC-002-002-----0
 70
             0
 62
             7
  6
CONTINUOUS
  0
LAYER
  5
29
100
AcDbSymbolTableRecord
100
AcDbLayerTableRecord
  2
LC-002-002-RND-0
 70
             0
 62
             7
  6
CONTINUOUS
  0
LAYER
  5
2A
100
AcDbSymbolTableRecord
100
AcDbLayerTableRecord
  2
LC-003-100-D03-0
 70
             0
 62
             7
  6
CONTINUOUS
  0
LAYER
  5
2B
100
AcDbSymbolTableRecord
100
AcDbLayerTableRecord
  2
LC-004-003-----0
 70
             0
 62
             7
  6
CONTINUOUS
  0
LAYER
  5
2C
100
AcDbSymbolTableRecord
100
AcDbLayerTableRecord
  2
LC-007-002-----0
 70
             0
 62
             7
  6
CONTINUOUS
  0
LAYER
  5
2D
100
AcDbSymbolTableRecord
100
AcDbLayerTableRecord
  2
LC-008-007-KH--0
 70
             0
 62
             7
  6
CONTINUOUS
  0
LAYER
  5
2E
100
AcDbSymbolTableRecord
100
AcDbLayerTableRecord
  2
LC-012-002-RND-0
 70
             0
 62
             7
  6
CONTINUOUS
  0
ENDTAB
  0
TABLE
  2
STYLE
  5
3
100
AcDbSymbolTable
 70
             2
  0
STYLE
  5
17
100
AcDbSymbolTableRecord
100
AcDbTextStyleTableRecord
  2
STANDARD
 70
             0
 40
0.0
 41
1.0
 50
0.0
 71
             0
 42
0.0
  3
txt
  4

  0
STYLE
  5
2F2
100
AcDbSymbolTableRecord
100
AcDbTextStyleTableRecord
  2
CONVERTER_1
 70
             0
 40
0.0
 41
0.9
 50
0.0
 71
             0
 42
0.0
  3
txt.shx
  4

  0
ENDTAB
  0
TABLE
  2
VIEW
  5
5
100
AcDbSymbolTable
 70
             0
  0
ENDTAB
  0
TABLE
  2
UCS
  5
6
100
AcDbSymbolTable
 70
             0
  0
ENDTAB
  0
TABLE
  2
APPID
  5
8
100
AcDbSymbolTable
 70
             1
  0
APPID
  5
16
100
AcDbSymbolTableRecord
100
AcDbRegAppTableRecord
  2
ACAD
 70
             0
  0
ENDTAB
  0
TABLE
  2
DIMSTYLE
  5
9
100
AcDbSymbolTable
 70
             9
  0
DIMSTYLE
105
18
100
AcDbSymbolTableRecord
100
AcDbDimStyleTableRecord
  2
STANDARD
 70
             0
  3

  4

  5

  6

  7

 40
1.0
 41
0.18
 42
0.0625
 43
0.38
 44
0.18
 45
0.0
 46
0.0
 47
0.0
 48
0.0
 71
             0
 72
             0
 73
             1
 74
             1
 75
             0
 76
             0
 77
             0
 78
             0
140
0.18
141
0.09
142
0.0
143
25.4
144
1.0
145
0.0
146
1.0
147
0.09
170
             0
171
             2
172
             0
173
             0
174
             0
175
             0
176
             0
177
             0
178
             0
270
             2
271
             4
272
             4
273
             2
274
             2
275
             0
280
             0
281
             0
282
             0
283
             1
284
             0
285
             0
286
             0
287
             3
288
             0
340
17
  0
DIMSTYLE
105
2F5
100
AcDbSymbolTableRecord
100
AcDbDimStyleTableRecord
  2
ME10_DIM_0
 70
             0
  3

  4

  5

  6

  7

 40
1.0
 41
15.0
 42
0.0
 43
0.38
 44
2.0
 45
0.0
 46
0.0
 47
0.0
 48
0.0
 71
             0
 72
             0
 73
             0
 74
             0
 75
             0
 76
             0
 77
             1
 78
             8
140
15.0
141
0.09
142
0.0
143
25.4
144
1.0
145
0.0
146
1.0
147
0.625
170
             0
171
             2
172
             1
173
             1
174
             0
175
             0
176
             4
177
             4
178
             1
270
             2
271
             2
272
             4
273
             2
274
             2
275
             0
280
             0
281
             0
282
             0
283
             1
284
             0
285
             0
286
             0
287
             3
288
             0
340
2F2
  0
DIMSTYLE
105
300
100
AcDbSymbolTableRecord
100
AcDbDimStyleTableRecord
  2
ME10_DIM_1
 70
             0
  3

  4

  5

  6

  7

 40
1.0
 41
15.0
 42
0.0
 43
0.38
 44
2.0
 45
0.0
 46
0.0
 47
0.0
 48
0.0
 71
             0
 72
             0
 73
             0
 74
             0
 75
             0
 76
             0
 77
             1
 78
             8
140
15.0
141
0.09
142
0.0
143
25.4
144
1.0
145
0.0
146
1.0
147
0.625
170
             0
171
             2
172
             1
173
             1
174
             0
175
             0
176
             4
177
             4
178
             1
270
             2
271
             2
272
             4
273
             2
274
             2
275
             0
280
             0
281
             0
282
             0
283
             1
284
             0
285
             0
286
             0
287
             3
288
             0
340
2F2
  0
DIMSTYLE
105
30B
100
AcDbSymbolTableRecord
100
AcDbDimStyleTableRecord
  2
ME10_DIM_2
 70
             0
  3

  4

  5

  6

  7

 40
1.0
 41
15.0
 42
0.0
 43
0.38
 44
2.0
 45
0.0
 46
0.0
 47
0.0
 48
0.0
 71
             0
 72
             0
 73
             0
 74
             0
 75
             0
 76
             0
 77
             1
 78
             8
140
15.0
141
0.09
142
0.0
143
25.4
144
1.0
145
0.0
146
1.0
147
0.625
170
             0
171
             2
172
             1
173
             1
174
             0
175
             0
176
             4
177
             4
178
             1
270
             2
271
             2
272
             4
273
             2
274
             2
275
             0
280
             0
281
             0
282
             0
283
             1
284
             0
285
             0
286
             0
287
             3
288
             0
340
2F2
  0
DIMSTYLE
105
318
100
AcDbSymbolTableRecord
100
AcDbDimStyleTableRecord
  2
ME10_DIM_3
 70
             0
  3

  4

  5

  6

  7

 40
1.0
 41
15.0
 42
0.0
 43
0.38
 44
2.0
 45
0.0
 46
0.0
 47
0.0
 48
0.0
 71
             0
 72
             0
 73
             0
 74
             0
 75
             0
 76
             0
 77
             1
 78
             8
140
15.0
141
0.09
142
0.0
143
25.4
144
1.0
145
0.0
146
1.0
147
0.625
170
             0
171
             2
172
             1
173
             1
174
             0
175
             0
176
             4
177
             4
178
             1
270
             2
271
             2
272
             4
273
             2
274
             2
275
             0
280
             0
281
             0
282
             0
283
             1
284
             0
285
             0
286
             0
287
             3
288
             0
340
2F2
  0
DIMSTYLE
105
323
100
AcDbSymbolTableRecord
100
AcDbDimStyleTableRecord
  2
ME10_DIM_4
 70
             0
  3
DN<>
  4

  5

  6

  7

 40
1.0
 41
15.0
 42
0.0
 43
0.38
 44
2.0
 45
0.0
 46
0.0
 47
0.0
 48
0.0
 71
             0
 72
             0
 73
             0
 74
             0
 75
             0
 76
             0
 77
             1
 78
             8
140
15.0
141
0.09
142
0.0
143
25.4
144
1.0
145
0.0
146
1.0
147
0.625
170
             0
171
             2
172
             1
173
             1
174
             0
175
             0
176
             4
177
             4
178
             1
270
             2
271
             2
272
             4
273
             2
274
             2
275
             0
280
             0
281
             0
282
             0
283
             1
284
             0
285
             0
286
             0
287
             3
288
             0
340
2F2
  0
DIMSTYLE
105
32E
100
AcDbSymbolTableRecord
100
AcDbDimStyleTableRecord
  2
ME10_DIM_5
 70
             0
  3
DN<>
  4

  5

  6

  7

 40
1.0
 41
15.0
 42
0.0
 43
0.38
 44
2.0
 45
0.0
 46
0.0
 47
0.0
 48
0.0
 71
             0
 72
             0
 73
             0
 74
             0
 75
             0
 76
             0
 77
             1
 78
             8
140
15.0
141
0.09
142
0.0
143
25.4
144
1.0
145
0.0
146
1.0
147
0.625
170
             0
171
             2
172
             1
173
             1
174
             0
175
             0
176
             4
177
             4
178
             1
270
             2
271
             2
272
             4
273
             2
274
             2
275
             0
280
             0
281
             0
282
             0
283
             1
284
             0
285
             0
286
             0
287
             3
288
             0
340
2F2
  0
DIMSTYLE
105
339
100
AcDbSymbolTableRecord
100
AcDbDimStyleTableRecord
  2
ME10_DIM_6
 70
             0
  3
220-<>
  4

  5

  6

  7

 40
1.0
 41
15.0
 42
0.0
 43
0.38
 44
2.0
 45
0.0
 46
0.0
 47
0.0
 48
0.0
 71
             0
 72
             0
 73
             0
 74
             0
 75
             0
 76
             0
 77
             1
 78
             8
140
15.0
141
0.09
142
0.0
143
25.4
144
1.0
145
0.0
146
1.0
147
0.625
170
             0
171
             2
172
             1
173
             1
174
             0
175
             0
176
             4
177
             4
178
             1
270
             2
271
             2
272
             4
273
             2
274
             2
275
             0
280
             0
281
             0
282
             0
283
             1
284
             0
285
             0
286
             0
287
             3
288
             0
340
2F2
  0
DIMSTYLE
105
344
100
AcDbSymbolTableRecord
100
AcDbDimStyleTableRecord
  2
ME10_DIM_7
 70
             0
  3

  4

  5

  6

  7

 40
1.0
 41
15.0
 42
0.0
 43
0.38
 44
2.0
 45
0.0
 46
0.0
 47
0.0
 48
0.0
 71
             0
 72
             0
 73
             0
 74
             0
 75
             0
 76
             0
 77
             1
 78
             8
140
15.0
141
0.09
142
0.0
143
25.4
144
1.0
145
0.0
146
1.0
147
0.625
170
             0
171
             2
172
             1
173
             1
174
             0
175
             0
176
             4
177
             4
178
             1
270
             2
271
             2
272
             4
273
             2
274
             2
275
             0
280
             0
281
             0
282
             0
283
             1
284
             0
285
             0
286
             0
287
             3
288
             0
340
2F2
  0
ENDTAB
  0
TABLE
  2
BLOCK_RECORD
  5
1
100
AcDbSymbolTable
 70
            10
  0
BLOCK_RECORD
  5
A
100
AcDbSymbolTableRecord
100
AcDbBlockTableRecord
  2
*MODEL_SPACE
  0
BLOCK_RECORD
  5
B
100
AcDbSymbolTableRecord
100
AcDbBlockTableRecord
  2
*PAPER_SPACE
  0
BLOCK_RECORD
  5
2F
100
AcDbSymbolTableRecord
100
AcDbBlockTableRecord
  2
HL_712_2EPC_R_CKSTAUVES__1
  0
BLOCK_RECORD
  5
31
100
AcDbSymbolTableRecord
100
AcDbBlockTableRecord
  2
HL_712_2EPC_R_CKSTAUVES__2
  0
BLOCK_RECORD
  5
2EB
100
AcDbSymbolTableRecord
100
AcDbBlockTableRecord
  2
*D2
  0
BLOCK_RECORD
  5
2F7
100
AcDbSymbolTableRecord
100
AcDbBlockTableRecord
  2
*D3
  0
BLOCK_RECORD
  5
302
100
AcDbSymbolTableRecord
100
AcDbBlockTableRecord
  2
*D4
  0
BLOCK_RECORD
  5
30D
100
AcDbSymbolTableRecord
100
AcDbBlockTableRecord
  2
*D5
  0
BLOCK_RECORD
  5
31A
100
AcDbSymbolTableRecord
100
AcDbBlockTableRecord
  2
*D6
  0
BLOCK_RECORD
  5
325
100
AcDbSymbolTableRecord
100
AcDbBlockTableRecord
  2
*D7
  0
BLOCK_RECORD
  5
330
100
AcDbSymbolTableRecord
100
AcDbBlockTableRecord
  2
*D8
  0
BLOCK_RECORD
  5
33B
100
AcDbSymbolTableRecord
100
AcDbBlockTableRecord
  2
*D9
  0
ENDTAB
  0
ENDSEC
  0
SECTION
  2
BLOCKS
  0
BLOCK
  5
D
100
AcDbEntity
  8
0
100
AcDbBlockBegin
  2
*MODEL_SPACE
 70
             0
 10
0.0
 20
0.0
 30
0.0
  3
*MODEL_SPACE
  1

  0
ENDBLK
  5
E
100
AcDbEntity
  8
0
100
AcDbBlockEnd
  0
BLOCK
  5
F
100
AcDbEntity
 67
             1
  8
0
100
AcDbBlockBegin
  2
*PAPER_SPACE
 70
             0
 10
0.0
 20
0.0
 30
0.0
  3
*PAPER_SPACE
  1

  0
ENDBLK
  5
10
100
AcDbEntity
 67
             1
  8
0
100
AcDbBlockEnd
  0
BLOCK
  5
30
100
AcDbEntity
  8
0
100
AcDbBlockBegin
  2
HL_712_2EPC_R_CKSTAUVES__1
 70
             0
 10
23823.158338494941
 20
33243.475743720832
 30
0.0
  3
HL_712_2EPC_R_CKSTAUVES__1
  1

  0
CIRCLE
  5
11C
100
AcDbEntity
  8
LC-007-002-----0
  6
CONTINUOUS
 62
             7
100
AcDbCircle
 10
24242.344188408799
 20
32623.602137648701
 40
6.5
  0
CIRCLE
  5
11B
100
AcDbEntity
  8
LC-007-002-----0
  6
CONTINUOUS
 62
             7
100
AcDbCircle
 10
24107.344188408799
 20
32623.602137648701
 40
6.5
  0
CIRCLE
  5
11A
100
AcDbEntity
  8
LC-007-002-----0
  6
CONTINUOUS
 62
             7
100
AcDbCircle
 10
24269.094188408799
 20
32754.0633746487
 40
6.5
  0
CIRCLE
  5
119
100
AcDbEntity
  8
LC-007-002-----0
  6
CONTINUOUS
 62
             7
100
AcDbCircle
 10
24080.594188408799
 20
32754.0633746487
 40
6.5
  0
CIRCLE
  5
118
100
AcDbEntity
  8
LC-007-002-----0
  6
CONTINUOUS
 62
             7
100
AcDbCircle
 10
24107.344188408799
 20
32623.602137648701
 40
8.75
  0
CIRCLE
  5
117
100
AcDbEntity
  8
LC-007-002-----0
  6
CONTINUOUS
 62
             7
100
AcDbCircle
 10
24242.344188408799
 20
32623.602137648701
 40
8.75
  0
CIRCLE
  5
116
100
AcDbEntity
  8
LC-007-002-----0
  6
CONTINUOUS
 62
             7
100
AcDbCircle
 10
24269.094188408799
 20
32754.0633746487
 40
8.75
  0
CIRCLE
  5
115
100
AcDbEntity
  8
LC-007-002-----0
  6
CONTINUOUS
 62
             7
100
AcDbCircle
 10
24080.594188408799
 20
32754.0633746487
 40
8.75
  0
CIRCLE
  5
114
100
AcDbEntity
  8
1
  6
CONTINUOUS
 62
             7
100
AcDbCircle
 10
24174.844188408799
 20
32701.663362639771
 40
63.0
  0
CIRCLE
  5
113
100
AcDbEntity
  8
1
  6
CONTINUOUS
 62
             7
100
AcDbCircle
 10
24174.844188408799
 20
32701.663362639771
 40
67.0
  0
CIRCLE
  5
112
100
AcDbEntity
  8
1
  6
CONTINUOUS
 62
             7
100
AcDbCircle
 10
24174.844188408799
 20
32701.663362639771
 40
73.0
  0
ARC
  5
111
100
AcDbEntity
  8
LC-007-002-----0
  6
CONTINUOUS
 62
             7
100
AcDbCircle
 10
24174.844188408799
 20
32687.594940648709
 40
81.49280300000486
100
AcDbArc
 50
-111.17057800000009
 51
-90.0
  0
ARC
  5
110
100
AcDbEntity
  8
LC-007-002-----0
  6
CONTINUOUS
 62
             7
100
AcDbCircle
 10
24285.351848408809
 20
32776.630056292823
 40
45.29592433980251
100
AcDbArc
 50
80.0182902007986
 51
93.15420720081004
  0
ARC
  5
10F
100
AcDbEntity
  8
LC-007-002-----0
  6
CONTINUOUS
 62
             7
100
AcDbCircle
 10
24292.844188408799
 20
32819.272821567407
 40
2.0
100
AcDbArc
 50
0.0
 51
79.66012799996017
  0
ARC
  5
10E
100
AcDbEntity
  8
LC-007-002-----0
  6
CONTINUOUS
 62
             7
100
AcDbCircle
 10
24285.351848408802
 20
32860.359224390762
 40
45.47019789190266
100
AcDbArc
 50
-92.67519458697373
 51
-80.05693658697771
  0
ARC
  5
10D
100
AcDbEntity
  8
LC-007-002-----0
  6
CONTINUOUS
 62
             7
100
AcDbCircle
 10
24292.844188408799
 20
32817.539517567398
 40
1.99999999999325
100
AcDbArc
 50
-79.65995699997028
 51
0.0
  0
ARC
  5
10C
100
AcDbEntity
  8
LC-007-002-----0
  6
CONTINUOUS
 62
             7
100
AcDbCircle
 10
24292.844188408799
 20
32819.436400567407
 40
2.0
100
AcDbArc
 50
0.0
 51
73.27321800003388
  0
ARC
  5
10B
100
AcDbEntity
  8
LC-007-002-----0
  6
CONTINUOUS
 62
             7
100
AcDbCircle
 10
24292.844188408799
 20
32817.375937567413
 40
2.00000000001485
100
AcDbArc
 50
-73.2730469999569
 51
0.0
  0
ARC
  5
10A
100
AcDbEntity
  8
LC-007-002-----0
  6
CONTINUOUS
 62
             7
100
AcDbCircle
 10
24273.359508408801
 20
32748.784528648699
 40
66.27884600001799
100
AcDbArc
 50
98.24098600000097
 51
98.51292899999486
  0
ARC
  5
109
100
AcDbEntity
  8
LC-007-002-----0
  6
CONTINUOUS
 62
             7
100
AcDbCircle
 10
24273.851848408809
 20
32751.241099506169
 40
72.79019254334689
100
AcDbArc
 50
74.40554872280919
 51
82.89152472280749
  0
ARC
  5
108
100
AcDbEntity
  8
LC-007-002-----0
  6
CONTINUOUS
 62
             7
100
AcDbCircle
 10
24273.851848408809
 20
32885.874933286417
 40
73.08274828470387
100
AcDbArc
 50
-82.58529394113313
 51
-74.46939894112975
  0
ARC
  5
107
100
AcDbEntity
  8
LC-007-002-----0
  6
CONTINUOUS
 62
             7
100
AcDbCircle
 10
24064.336528408799
 20
32776.630056292794
 40
45.29592433984142
100
AcDbArc
 50
86.84579279920119
 51
99.98170979920862
  0
ARC
  5
106
100
AcDbEntity
  8
LC-007-002-----0
  6
CONTINUOUS
 62
             7
100
AcDbCircle
 10
24056.844188408799
 20
32819.272821567407
 40
1.99999999998499
100
AcDbArc
 50
100.3398719999373
 51
180.0
  0
ARC
  5
105
100
AcDbEntity
  8
LC-007-002-----0
  6
CONTINUOUS
 62
             7
100
AcDbCircle
 10
24064.336528408799
 20
32860.359224390777
 40
45.47019789192193
100
AcDbArc
 50
-99.94306341302364
 51
-87.32480541301797
  0
ARC
  5
104
100
AcDbEntity
  8
LC-007-002-----0
  6
CONTINUOUS
 62
             7
100
AcDbCircle
 10
24056.844188408799
 20
32817.539517567398
 40
2.0
100
AcDbArc
 50
180.0
 51
-100.34004299992721
  0
ARC
  5
103
100
AcDbEntity
  8
LC-007-002-----0
  6
CONTINUOUS
 62
             7
100
AcDbCircle
 10
24056.844188408799
 20
32819.436400567407
 40
1.99999999998883
100
AcDbArc
 50
106.72678199996612
 51
180.0
  0
ARC
  5
102
100
AcDbEntity
  8
LC-007-002-----0
  6
CONTINUOUS
 62
             7
100
AcDbCircle
 10
24056.844188408799
 20
32817.375937567413
 40
2.0
100
AcDbArc
 50
180.0
 51
-106.72695299994329
  0
ARC
  5
101
100
AcDbEntity
  8
LC-007-002-----0
  6
CONTINUOUS
 62
             7
100
AcDbCircle
 10
24075.836528408789
 20
32751.24109950614
 40
72.79019254338171
100
AcDbArc
 50
97.10847527718684
 51
105.59445127718466
  0
ARC
  5
100
100
AcDbEntity
  8
LC-007-002-----0
  6
CONTINUOUS
 62
             7
100
AcDbCircle
 10
24076.3288684088
 20
32748.784528648699
 40
66.27884599999229
100
AcDbArc
 50
81.49728800000109
 51
81.75901400000215
  0
ARC
  5
FF
100
AcDbEntity
  8
LC-007-002-----0
  6
CONTINUOUS
 62
             7
100
AcDbCircle
 10
24075.836528408799
 20
32885.874933286454
 40
73.08274828473191
100
AcDbArc
 50
-105.53060105887086
 51
-97.41470605886886
  0
ARC
  5
FE
100
AcDbEntity
  8
LC-007-002-----0
  6
CONTINUOUS
 62
             7
100
AcDbCircle
 10
24174.844188408799
 20
32687.594940648709
 40
81.49280300000828
100
AcDbArc
 50
-90.0
 51
-68.82942199999992
  0
ARC
  5
FD
100
AcDbEntity
  8
LC-007-002-----0
  6
CONTINUOUS
 62
             7
100
AcDbCircle
 10
24282.803459408799
 20
32780.107624648706
 40
0.49704999999813
100
AcDbArc
 50
-90.0
 51
0.0
  0
ARC
  5
FC
100
AcDbEntity
  8
LC-007-002-----0
  6
CONTINUOUS
 62
             7
100
AcDbCircle
 10
24066.884917408799
 20
32780.107624648706
 40
0.49704999999813
100
AcDbArc
 50
180.0
 51
-90.0
  0
ARC
  5
FB
100
AcDbEntity
  8
LC-007-002-----0
  6
CONTINUOUS
 62
             7
100
AcDbCircle
 10
24269.094188408799
 20
32754.0633746487
 40
10.49999999999373
100
AcDbArc
 50
-29.95350299994384
 51
90.0
  0
ARC
  5
FA
100
AcDbEntity
  8
LC-007-002-----0
  6
CONTINUOUS
 62
             7
100
AcDbCircle
 10
24080.594188408799
 20
32754.0633746487
 40
10.5
100
AcDbArc
 50
90.0
 51
-150.04649700004626
  0
ARC
  5
F9
100
AcDbEntity
  8
LC-007-002-----0
  6
CONTINUOUS
 62
             7
100
AcDbCircle
 10
24107.344188408799
 20
32623.602137648701
 40
12.00000000000161
100
AcDbArc
 50
-178.12787400006346
 51
-90.0
  0
ARC
  5
F8
100
AcDbEntity
  8
LC-012-002-RND-0
  6
CONTINUOUS
 62
             7
100
AcDbCircle
 10
24066.887867408801
 20
32787.063374648707
 40
0.5
100
AcDbArc
 50
90.0
 51
180.0
  0
ARC
  5
F7
100
AcDbEntity
  8
LC-007-002-----0
  6
CONTINUOUS
 62
             7
100
AcDbCircle
 10
24242.344188408799
 20
32623.602137648701
 40
12.0
100
AcDbArc
 50
-90.0
 51
-1.87212599993655
  0
ARC
  5
F6
100
AcDbEntity
  8
LC-012-002-RND-0
  6
CONTINUOUS
 62
             7
100
AcDbCircle
 10
24282.8005094088
 20
32787.063374648707
 40
0.5
100
AcDbArc
 50
0.0
 51
90.0
  0
ARC
  5
F5
100
AcDbEntity
  8
LC-007-002-----0
  6
CONTINUOUS
 62
             7
100
AcDbCircle
 10
24277.859508408801
 20
32836.288965877422
 40
2.0
100
AcDbArc
 50
180.0
 51
-100.33994900003519
  0
ARC
  5
F4
100
AcDbEntity
  8
LC-007-002-----0
  6
CONTINUOUS
 62
             7
100
AcDbCircle
 10
24285.351848408802
 20
32796.957127828937
 40
43.74303711501973
100
AcDbArc
 50
79.66010899999763
 51
100.33989100000706
  0
ARC
  5
F3
100
AcDbEntity
  8
LC-007-002-----0
  6
CONTINUOUS
 62
             7
100
AcDbCircle
 10
24292.844188408799
 20
32838.022270877424
 40
2.0
100
AcDbArc
 50
0.0
 51
79.66012800010982
  0
ARC
  5
F2
100
AcDbEntity
  8
LC-007-002-----0
  6
CONTINUOUS
 62
             7
100
AcDbCircle
 10
24285.351848408802
 20
32877.3541021907
 40
43.7430295054128
100
AcDbArc
 50
-100.33994718148018
 51
-79.66010718147103
  0
ARC
  5
F1
100
AcDbEntity
  8
LC-007-002-----0
  6
CONTINUOUS
 62
             7
100
AcDbCircle
 10
24292.844188408799
 20
32836.288965877422
 40
1.99999999998609
100
AcDbArc
 50
-79.65995699993287
 51
0.0
  0
ARC
  5
F0
100
AcDbEntity
  8
LC-007-002-----0
  6
CONTINUOUS
 62
             7
100
AcDbCircle
 10
24292.844188408799
 20
32838.185849877424
 40
2.0
100
AcDbArc
 50
0.0
 51
73.27321800015386
  0
ARC
  5
EF
100
AcDbEntity
  8
LC-007-002-----0
  6
CONTINUOUS
 62
             7
100
AcDbCircle
 10
24292.844188408799
 20
32836.125386877422
 40
1.99999999999394
100
AcDbArc
 50
-73.27304699977692
 51
0.0
  0
ARC
  5
EE
100
AcDbEntity
  8
LC-007-002-----0
  6
CONTINUOUS
 62
             7
100
AcDbCircle
 10
24261.369314408799
 20
32796.970116730627
 40
43.73000245324739
100
AcDbArc
 50
79.66016209706903
 51
100.3399250970779
  0
ARC
  5
ED
100
AcDbEntity
  8
LC-007-002-----0
  6
CONTINUOUS
 62
             7
100
AcDbCircle
 10
24268.8592894088
 20
32838.022441877431
 40
2.00000000000042
100
AcDbArc
 50
0.00003699991514
 51
79.66016500014791
  0
ARC
  5
EC
100
AcDbEntity
  8
LC-007-002-----0
  6
CONTINUOUS
 62
             7
100
AcDbCircle
 10
24268.8592914088
 20
32836.289136877429
 40
2.00000000000665
100
AcDbArc
 50
-79.65999500019619
 51
0.00003699991514
  0
ARC
  5
EB
100
AcDbEntity
  8
LC-007-002-----0
  6
CONTINUOUS
 62
             7
100
AcDbCircle
 10
24261.369265408801
 20
32877.341430459899
 40
43.72998025534838
100
AcDbArc
 50
-100.33986008559565
 51
-79.65992708559672
  0
ARC
  5
EA
100
AcDbEntity
  8
LC-007-002-----0
  6
CONTINUOUS
 62
             7
100
AcDbCircle
 10
24253.8792894088
 20
32838.022431877427
 40
2.00000000000546
100
AcDbArc
 50
100.3400029998577
 51
-179.99996300008488
  0
ARC
  5
E9
100
AcDbEntity
  8
LC-007-002-----0
  6
CONTINUOUS
 62
             7
100
AcDbCircle
 10
24273.3618484088
 20
32773.358016133207
 40
69.69201988820132
100
AcDbArc
 50
73.27321753474067
 51
106.72680053474205
  0
ARC
  5
E8
100
AcDbEntity
  8
LC-007-002-----0
  6
CONTINUOUS
 62
             7
100
AcDbCircle
 10
24253.879508408801
 20
32838.185849877424
 40
2.00000000000978
100
AcDbArc
 50
106.72680100008976
 51
180.0
  0
ARC
  5
E7
100
AcDbEntity
  8
LC-007-002-----0
  6
CONTINUOUS
 62
             7
100
AcDbCircle
 10
24253.879291408801
 20
32836.289127877433
 40
2.00000000000042
100
AcDbArc
 50
-179.99996300008488
 51
-100.33991199995968
  0
ARC
  5
E6
100
AcDbEntity
  8
LC-007-002-----0
  6
CONTINUOUS
 62
             7
100
AcDbCircle
 10
24273.3618484088
 20
32900.953202924771
 40
69.69200294009747
100
AcDbArc
 50
-106.72680472209663
 51
-73.27305072208608
  0
ARC
  5
E5
100
AcDbEntity
  8
LC-007-002-----0
  6
CONTINUOUS
 62
             7
100
AcDbCircle
 10
24253.879508408801
 20
32836.125386877422
 40
2.0
100
AcDbArc
 50
180.0
 51
-106.72685999997789
  0
ARC
  5
E4
100
AcDbEntity
  8
LC-007-002-----0
  6
CONTINUOUS
 62
             7
100
AcDbCircle
 10
24277.859508408801
 20
32838.022270877424
 40
2.00000000000658
100
AcDbArc
 50
100.33989100010567
 51
180.0
  0
ARC
  5
E3
100
AcDbEntity
  8
LC-007-002-----0
  6
CONTINUOUS
 62
             7
100
AcDbCircle
 10
24274.859508408801
 20
32838.655618877427
 40
1.00000000000352
100
AcDbArc
 50
0.00015200005699
 51
90.0
  0
ARC
  5
E2
100
AcDbEntity
  8
LC-007-002-----0
  6
CONTINUOUS
 62
             7
100
AcDbCircle
 10
24271.859508408801
 20
32838.655618877427
 40
1.0
100
AcDbArc
 50
90.0
 51
180.0
  0
ARC
  5
E1
100
AcDbEntity
  8
LC-007-002-----0
  6
CONTINUOUS
 62
             7
100
AcDbCircle
 10
24271.859508408801
 20
32835.655618877427
 40
1.0
100
AcDbArc
 50
180.0
 51
-90.00005799991205
  0
ARC
  5
E0
100
AcDbEntity
  8
LC-007-002-----0
  6
CONTINUOUS
 62
             7
100
AcDbCircle
 10
24274.859508408801
 20
32835.655618877427
 40
1.00000000000051
100
AcDbArc
 50
-90.00005799991205
 51
0.0
  0
ARC
  5
DF
100
AcDbEntity
  8
LC-007-002-----0
  6
CONTINUOUS
 62
             7
100
AcDbCircle
 10
24071.8288684088
 20
32836.288883567402
 40
1.99999999999577
100
AcDbArc
 50
-79.66005099996482
 51
0.0
  0
ARC
  5
DE
100
AcDbEntity
  8
LC-007-002-----0
  6
CONTINUOUS
 62
             7
100
AcDbCircle
 10
24064.336528408799
 20
32796.95704551891
 40
43.74303711502754
100
AcDbArc
 50
79.66010899999466
 51
100.33989100000534
  0
ARC
  5
DD
100
AcDbEntity
  8
LC-007-002-----0
  6
CONTINUOUS
 62
             7
100
AcDbCircle
 10
24056.844188408799
 20
32838.022188567396
 40
2.00000000002078
100
AcDbArc
 50
100.33987199975024
 51
180.0
  0
ARC
  5
DC
100
AcDbEntity
  8
LC-007-002-----0
  6
CONTINUOUS
 62
             7
100
AcDbCircle
 10
24064.336528408799
 20
32877.354019880702
 40
43.74302950544332
100
AcDbArc
 50
-100.33989281852853
 51
-79.66005281852964
  0
ARC
  5
DB
100
AcDbEntity
  8
LC-007-002-----0
  6
CONTINUOUS
 62
             7
100
AcDbCircle
 10
24056.844188408799
 20
32836.288883567402
 40
2.0
100
AcDbArc
 50
180.0
 51
-100.34004299996462
  0
ARC
  5
DA
100
AcDbEntity
  8
LC-007-002-----0
  6
CONTINUOUS
 62
             7
100
AcDbCircle
 10
24056.844188408799
 20
32838.185767567396
 40
2.00000000000974
100
AcDbArc
 50
106.72678199978616
 51
180.0
  0
ARC
  5
D9
100
AcDbEntity
  8
LC-007-002-----0
  6
CONTINUOUS
 62
             7
100
AcDbCircle
 10
24056.844188408799
 20
32836.125304567402
 40
2.0
100
AcDbArc
 50
180.0
 51
-106.72695300012327
  0
ARC
  5
D8
100
AcDbEntity
  8
LC-007-002-----0
  6
CONTINUOUS
 62
             7
100
AcDbCircle
 10
24088.319061408802
 20
32796.970034420599
 40
43.7300024532585
100
AcDbArc
 50
79.66007490292851
 51
100.33983790292926
  0
ARC
  5
D7
100
AcDbEntity
  8
LC-007-002-----0
  6
CONTINUOUS
 62
             7
100
AcDbCircle
 10
24080.829086408801
 20
32838.022359567411
 40
2.0000000000113
100
AcDbArc
 50
100.33983499985209
 51
179.99996300008488
  0
ARC
  5
D6
100
AcDbEntity
  8
LC-007-002-----0
  6
CONTINUOUS
 62
             7
100
AcDbCircle
 10
24080.829085408801
 20
32836.289054567409
 40
2.00000000000042
100
AcDbArc
 50
179.99996300008488
 51
-100.34000499990634
  0
ARC
  5
D5
100
AcDbEntity
  8
LC-007-002-----0
  6
CONTINUOUS
 62
             7
100
AcDbCircle
 10
24088.3191104088
 20
32877.341348149872
 40
43.7299802553441
100
AcDbArc
 50
-100.340072914405
 51
-79.66013991441842
  0
ARC
  5
D4
100
AcDbEntity
  8
LC-007-002-----0
  6
CONTINUOUS
 62
             7
100
AcDbCircle
 10
24095.809086408801
 20
32838.022349567407
 40
2.00000000000042
100
AcDbArc
 50
-0.00003699991514
 51
79.65999700014231
  0
ARC
  5
D3
100
AcDbEntity
  8
LC-007-002-----0
  6
CONTINUOUS
 62
             7
100
AcDbCircle
 10
24076.326528408801
 20
32773.357933823187
 40
69.69201988817484
100
AcDbArc
 50
73.27319946525793
 51
106.72678246526048
  0
ARC
  5
D2
100
AcDbEntity
  8
LC-007-002-----0
  6
CONTINUOUS
 62
             7
100
AcDbCircle
 10
24095.8088684088
 20
32838.185767567396
 40
2.0
100
AcDbArc
 50
0.0
 51
73.27319900007004
  0
ARC
  5
D1
100
AcDbEntity
  8
LC-007-002-----0
  6
CONTINUOUS
 62
             7
100
AcDbCircle
 10
24095.8090854088
 20
32836.289045567413
 40
1.99999999999822
100
AcDbArc
 50
-79.66008800004033
 51
-0.00003699991514
  0
ARC
  5
D0
100
AcDbEntity
  8
LC-007-002-----0
  6
CONTINUOUS
 62
             7
100
AcDbCircle
 10
24095.8088684088
 20
32836.125304567402
 40
1.99999999998945
100
AcDbArc
 50
-73.27314000002211
 51
0.0
  0
ARC
  5
CF
100
AcDbEntity
  8
LC-007-002-----0
  6
CONTINUOUS
 62
             7
100
AcDbCircle
 10
24071.8288684088
 20
32838.022188567396
 40
2.0
100
AcDbArc
 50
0.0
 51
79.66010899999687
  0
ARC
  5
CE
100
AcDbEntity
  8
LC-007-002-----0
  6
CONTINUOUS
 62
             7
100
AcDbCircle
 10
24074.8288684088
 20
32838.655536567407
 40
1.0
100
AcDbArc
 50
90.0
 51
179.999847999943
  0
ARC
  5
CD
100
AcDbEntity
  8
LC-007-002-----0
  6
CONTINUOUS
 62
             7
100
AcDbCircle
 10
24077.8288684088
 20
32838.655536567407
 40
1.0
100
AcDbArc
 50
0.0
 51
90.0
  0
ARC
  5
CC
100
AcDbEntity
  8
LC-007-002-----0
  6
CONTINUOUS
 62
             7
100
AcDbCircle
 10
24077.8288684088
 20
32835.655536567407
 40
1.00000000000051
100
AcDbArc
 50
-89.99994200008796
 51
0.0
  0
ARC
  5
CB
100
AcDbEntity
  8
LC-007-002-----0
  6
CONTINUOUS
 62
             7
100
AcDbCircle
 10
24074.8288684088
 20
32835.655536567407
 40
1.0
100
AcDbArc
 50
180.0
 51
-89.99994200008796
  0
ARC
  5
CA
100
AcDbEntity
  8
LC-007-002-----0
  6
CONTINUOUS
 62
             7
100
AcDbCircle
 10
24107.344188408799
 20
32623.602137648701
 40
12.00000000000161
100
AcDbArc
 50
-178.12787400006346
 51
-90.0
  0
ARC
  5
C9
100
AcDbEntity
  8
LC-007-002-----0
  6
CONTINUOUS
 62
             7
100
AcDbCircle
 10
24242.344188408799
 20
32623.602137648701
 40
12.0
100
AcDbArc
 50
-90.0
 51
-1.87212599993655
  0
ARC
  5
C8
100
AcDbEntity
  8
LC-007-002-----0
  6
CONTINUOUS
 62
             7
100
AcDbCircle
 10
24269.094188408799
 20
32754.0633746487
 40
10.49999999999373
100
AcDbArc
 50
-29.95350299994384
 51
90.0
  0
ARC
  5
C7
100
AcDbEntity
  8
LC-007-002-----0
  6
CONTINUOUS
 62
             7
100
AcDbCircle
 10
24080.594188408799
 20
32754.0633746487
 40
10.5
100
AcDbArc
 50
90.0
 51
-150.04649700004626
  0
ARC
  5
C6
100
AcDbEntity
  8
LC-007-002-----0
  6
CONTINUOUS
 62
             7
100
AcDbCircle
 10
24241.887678408799
 20
32944.051420286167
 40
5.00000000000058
100
AcDbArc
 50
1.00000000003814
 51
90.0
  0
ARC
  5
C5
100
AcDbEntity
  8
LC-007-002-----0
  6
CONTINUOUS
 62
             7
100
AcDbCircle
 10
24107.800697408798
 20
32944.051420286167
 40
5.0
100
AcDbArc
 50
90.0
 51
178.99999999996112
  0
ARC
  5
C4
100
AcDbEntity
  8
LC-007-002-----0
  6
CONTINUOUS
 62
             7
100
AcDbCircle
 10
24087.842704408798
 20
32825.518310648702
 40
1.0
100
AcDbArc
 50
90.0
 51
180.0
  0
ARC
  5
C3
100
AcDbEntity
  8
LC-007-002-----0
  6
CONTINUOUS
 62
             7
100
AcDbCircle
 10
24261.845672408799
 20
32825.518310648702
 40
1.0
100
AcDbArc
 50
0.0
 51
90.0
  0
ARC
  5
C2
100
AcDbEntity
  8
LC-007-002-----0
  6
CONTINUOUS
 62
             7
100
AcDbCircle
 10
24185.844188408799
 20
32956.158625286167
 40
3.0
100
AcDbArc
 50
0.0
 51
90.0
  0
ARC
  5
C1
100
AcDbEntity
  8
LC-007-002-----0
  6
CONTINUOUS
 62
             7
100
AcDbCircle
 10
24163.844188408799
 20
32956.158625286167
 40
3.0
100
AcDbArc
 50
90.0
 51
180.0
  0
ARC
  5
C0
100
AcDbEntity
  8
LC-007-002-----0
  6
CONTINUOUS
 62
             7
100
AcDbCircle
 10
24080.651913408801
 20
32816.562837648708
 40
6.00000000000136
100
AcDbArc
 50
-30.36076800010347
 51
-10.91393500008075
  0
ARC
  5
BF
100
AcDbEntity
  8
LC-007-002-----0
  6
CONTINUOUS
 62
             7
100
AcDbCircle
 10
24269.0364624088
 20
32816.562837648708
 40
6.00000000000233
100
AcDbArc
 50
-169.08606499992584
 51
-149.6392319999141
  0
ARC
  5
BE
100
AcDbEntity
  8
LC-012-002-RND-0
  6
CONTINUOUS
 62
             7
100
AcDbCircle
 10
24282.099142408799
 20
32809.563374648707
 40
1.00000000000361
100
AcDbArc
 50
2.00000000020499
 51
88.46435000018235
  0
ARC
  5
BD
100
AcDbEntity
  8
LC-012-002-RND-0
  6
CONTINUOUS
 62
             7
100
AcDbCircle
 10
24067.589234408799
 20
32809.563374648707
 40
0.99999999999639
100
AcDbArc
 50
91.53564999981765
 51
177.99999999978775
  0
ARC
  5
BC
100
AcDbEntity
  8
LC-012-002-RND-0
  6
CONTINUOUS
 62
             7
100
AcDbCircle
 10
24259.655545408801
 20
32815.063374648707
 40
3.50000000000279
100
AcDbArc
 50
1.99999999985308
 51
90.0
  0
ARC
  5
BB
100
AcDbEntity
  8
LC-012-002-RND-0
  6
CONTINUOUS
 62
             7
100
AcDbCircle
 10
24090.0328314088
 20
32815.063374648707
 40
3.5
100
AcDbArc
 50
90.0
 51
178.00000000014694
  0
ARC
  5
BA
100
AcDbEntity
  8
LC-007-002-----0
  6
CONTINUOUS
 62
             7
100
AcDbCircle
 10
24174.844188408799
 20
32701.663362639771
 40
81.49280300000032
100
AcDbArc
 50
-178.0000129999994
 51
-1.99998700000052
  0
ARC
  5
B9
100
AcDbEntity
  8
LC-007-002-----0
  6
CONTINUOUS
 62
             7
100
AcDbCircle
 10
24282.803459408799
 20
32795.107624648706
 40
0.49704999999813
100
AcDbArc
 50
-90.0
 51
0.0
  0
ARC
  5
B8
100
AcDbEntity
  8
LC-007-002-----0
  6
CONTINUOUS
 62
             7
100
AcDbCircle
 10
24066.884917408799
 20
32795.107624648706
 40
0.49704999999813
100
AcDbArc
 50
180.0
 51
-90.0
  0
ARC
  5
B7
100
AcDbEntity
  8
LC-007-002-----0
  6
CONTINUOUS
 62
             7
100
AcDbCircle
 10
24076.326528408801
 20
32900.953120614773
 40
69.69200294012325
100
AcDbArc
 50
-106.72680472208401
 51
-73.27305072209126
  0
ARC
  5
B6
100
AcDbEntity
  8
1
  6
CONTINUOUS
 62
             7
100
AcDbCircle
 10
24174.844188408799
 20
32671.022513974331
 40
59.36018134711984
100
AcDbArc
 50
14.71489844241448
 51
165.28510155758462
  0
ARC
  5
B5
100
AcDbEntity
  8
1
  6
CONTINUOUS
 62
             7
100
AcDbCircle
 10
24174.844188408799
 20
32701.663362639771
 40
59.48516131831679
100
AcDbArc
 50
-168.67329093565019
 51
-164.83349800413208
  0
ARC
  5
B4
100
AcDbEntity
  8
1
  6
CONTINUOUS
 62
             7
100
AcDbCircle
 10
24174.844188408799
 20
32701.663362639771
 40
59.48516131831463
100
AcDbArc
 50
-164.83349800413208
 51
-15.166501995867
  0
ARC
  5
B3
100
AcDbEntity
  8
1
  6
CONTINUOUS
 62
             7
100
AcDbCircle
 10
24174.84418840881
 20
32685.479182321451
 40
58.49999999998841
100
AcDbArc
 50
4.41280778472727
 51
175.58719221527437
  0
ARC
  5
B2
100
AcDbEntity
  8
1
  6
CONTINUOUS
 62
             7
100
AcDbCircle
 10
24174.844188408799
 20
32701.663362639771
 40
59.48516131831814
100
AcDbArc
 50
-15.166501995867
 51
-11.32670906434982
  0
ARC
  5
B1
100
AcDbEntity
  8
1
  6
CONTINUOUS
 62
             7
100
AcDbCircle
 10
24174.844188408799
 20
32701.663362639771
 40
59.48516131831679
100
AcDbArc
 50
-11.32670906434982
 51
-168.67329093565019
  0
LINE
  5
B0
100
AcDbEntity
  8
1
  6
PHANTOM
 62
             2
100
AcDbLine
 10
24107.344188408799
 20
32633.227137648701
 11
24107.344188408799
 21
32613.977137648701
  0
LINE
  5
AF
100
AcDbEntity
  8
1
  6
PHANTOM
 62
             2
100
AcDbLine
 10
24116.969188408799
 20
32623.602137648701
 11
24097.719188408799
 21
32623.602137648701
  0
LINE
  5
AE
100
AcDbEntity
  8
1
  6
PHANTOM
 62
             2
100
AcDbLine
 10
24242.344188408799
 20
32633.227137648701
 11
24242.344188408799
 21
32613.977137648701
  0
LINE
  5
AD
100
AcDbEntity
  8
1
  6
PHANTOM
 62
             2
100
AcDbLine
 10
24251.969188408799
 20
32623.602137648701
 11
24232.719188408799
 21
32623.602137648701
  0
LINE
  5
AC
100
AcDbEntity
  8
1
  6
PHANTOM
 62
             2
100
AcDbLine
 10
24269.094188408799
 20
32763.6883746487
 11
24269.094188408799
 21
32744.4383746487
  0
LINE
  5
AB
100
AcDbEntity
  8
1
  6
PHANTOM
 62
             2
100
AcDbLine
 10
24278.719188408799
 20
32754.0633746487
 11
24259.469188408799
 21
32754.0633746487
  0
LINE
  5
AA
100
AcDbEntity
  8
1
  6
PHANTOM
 62
             2
100
AcDbLine
 10
24080.594188408799
 20
32763.6883746487
 11
24080.594188408799
 21
32744.4383746487
  0
LINE
  5
A9
100
AcDbEntity
  8
1
  6
PHANTOM
 62
             2
100
AcDbLine
 10
24090.219188408799
 20
32754.0633746487
 11
24070.969188408799
 21
32754.0633746487
  0
LINE
  5
A8
100
AcDbEntity
  8
LC-007-002-----0
  6
CONTINUOUS
 62
             1
100
AcDbLine
 10
24111.0969644088
 20
32617.102137648701
 11
24114.849741408791
 21
32623.602137648701
  0
LINE
  5
A7
100
AcDbEntity
  8
LC-007-002-----0
  6
CONTINUOUS
 62
             1
100
AcDbLine
 10
24103.591411408801
 20
32617.102137648701
 11
24111.0969644088
 21
32617.102137648701
  0
LINE
  5
A6
100
AcDbEntity
  8
LC-007-002-----0
  6
CONTINUOUS
 62
             1
100
AcDbLine
 10
24099.838634408799
 20
32623.602137648701
 11
24103.591411408801
 21
32617.102137648701
  0
LINE
  5
A5
100
AcDbEntity
  8
LC-007-002-----0
  6
CONTINUOUS
 62
             1
100
AcDbLine
 10
24103.591411408801
 20
32630.102137648701
 11
24099.838634408799
 21
32623.602137648701
  0
LINE
  5
A4
100
AcDbEntity
  8
LC-007-002-----0
  6
CONTINUOUS
 62
             1
100
AcDbLine
 10
24111.0969644088
 20
32630.102137648701
 11
24103.591411408801
 21
32630.102137648701
  0
LINE
  5
A3
100
AcDbEntity
  8
LC-007-002-----0
  6
CONTINUOUS
 62
             1
100
AcDbLine
 10
24114.849741408791
 20
32623.602137648701
 11
24111.0969644088
 21
32630.102137648701
  0
LINE
  5
A2
100
AcDbEntity
  8
LC-007-002-----0
  6
CONTINUOUS
 62
             1
100
AcDbLine
 10
24238.591411408801
 20
32617.102137648701
 11
24234.838634408799
 21
32623.602137648701
  0
LINE
  5
A1
100
AcDbEntity
  8
LC-007-002-----0
  6
CONTINUOUS
 62
             1
100
AcDbLine
 10
24246.0969644088
 20
32617.102137648701
 11
24238.591411408801
 21
32617.102137648701
  0
LINE
  5
A0
100
AcDbEntity
  8
LC-007-002-----0
  6
CONTINUOUS
 62
             1
100
AcDbLine
 10
24249.849741408791
 20
32623.602137648701
 11
24246.0969644088
 21
32617.102137648701
  0
LINE
  5
9F
100
AcDbEntity
  8
LC-007-002-----0
  6
CONTINUOUS
 62
             1
100
AcDbLine
 10
24246.0969644088
 20
32630.102137648701
 11
24249.849741408791
 21
32623.602137648701
  0
LINE
  5
9E
100
AcDbEntity
  8
LC-007-002-----0
  6
CONTINUOUS
 62
             1
100
AcDbLine
 10
24238.591411408801
 20
32630.102137648701
 11
24246.0969644088
 21
32630.102137648701
  0
LINE
  5
9D
100
AcDbEntity
  8
LC-007-002-----0
  6
CONTINUOUS
 62
             1
100
AcDbLine
 10
24234.838634408799
 20
32623.602137648701
 11
24238.591411408801
 21
32630.102137648701
  0
LINE
  5
9C
100
AcDbEntity
  8
LC-007-002-----0
  6
CONTINUOUS
 62
             1
100
AcDbLine
 10
24084.3469644088
 20
32747.5633746487
 11
24088.099741408791
 21
32754.0633746487
  0
LINE
  5
9B
100
AcDbEntity
  8
LC-007-002-----0
  6
CONTINUOUS
 62
             1
100
AcDbLine
 10
24076.841411408801
 20
32747.5633746487
 11
24084.3469644088
 21
32747.5633746487
  0
LINE
  5
9A
100
AcDbEntity
  8
LC-007-002-----0
  6
CONTINUOUS
 62
             1
100
AcDbLine
 10
24073.088634408799
 20
32754.0633746487
 11
24076.841411408801
 21
32747.5633746487
  0
LINE
  5
99
100
AcDbEntity
  8
LC-007-002-----0
  6
CONTINUOUS
 62
             1
100
AcDbLine
 10
24076.841411408801
 20
32760.5633746487
 11
24073.088634408799
 21
32754.0633746487
  0
LINE
  5
98
100
AcDbEntity
  8
LC-007-002-----0
  6
CONTINUOUS
 62
             1
100
AcDbLine
 10
24084.3469644088
 20
32760.5633746487
 11
24076.841411408801
 21
32760.5633746487
  0
LINE
  5
97
100
AcDbEntity
  8
LC-007-002-----0
  6
CONTINUOUS
 62
             1
100
AcDbLine
 10
24088.099741408791
 20
32754.0633746487
 11
24084.3469644088
 21
32760.5633746487
  0
LINE
  5
96
100
AcDbEntity
  8
LC-007-002-----0
  6
CONTINUOUS
 62
             1
100
AcDbLine
 10
24265.341411408801
 20
32747.5633746487
 11
24261.588634408799
 21
32754.0633746487
  0
LINE
  5
95
100
AcDbEntity
  8
LC-007-002-----0
  6
CONTINUOUS
 62
             1
100
AcDbLine
 10
24272.8469644088
 20
32747.5633746487
 11
24265.341411408801
 21
32747.5633746487
  0
LINE
  5
94
100
AcDbEntity
  8
LC-007-002-----0
  6
CONTINUOUS
 62
             1
100
AcDbLine
 10
24276.599741408791
 20
32754.0633746487
 11
24272.8469644088
 21
32747.5633746487
  0
LINE
  5
93
100
AcDbEntity
  8
LC-007-002-----0
  6
CONTINUOUS
 62
             1
100
AcDbLine
 10
24272.8469644088
 20
32760.5633746487
 11
24276.599741408791
 21
32754.0633746487
  0
LINE
  5
92
100
AcDbEntity
  8
LC-007-002-----0
  6
CONTINUOUS
 62
             1
100
AcDbLine
 10
24265.341411408801
 20
32760.5633746487
 11
24272.8469644088
 21
32760.5633746487
  0
LINE
  5
91
100
AcDbEntity
  8
LC-007-002-----0
  6
CONTINUOUS
 62
             1
100
AcDbLine
 10
24261.588634408799
 20
32754.0633746487
 11
24265.341411408801
 21
32760.5633746487
  0
LINE
  5
90
100
AcDbEntity
  8
LC-007-002-----0
  6
CONTINUOUS
 62
             7
100
AcDbLine
 10
24282.859508408801
 20
32787.563374648707
 11
24282.8005094088
 21
32787.563374648707
  0
LINE
  5
8F
100
AcDbEntity
  8
LC-007-002-----0
  6
CONTINUOUS
 62
             7
100
AcDbLine
 10
24282.859508408801
 20
32787.563374648707
 11
24282.859508408801
 21
32794.621723648692
  0
LINE
  5
8E
100
AcDbEntity
  8
LC-007-002-----0
  6
CONTINUOUS
 62
             7
100
AcDbLine
 10
24294.844188408799
 20
32817.375937567413
 11
24294.844188408799
 21
32819.436400567407
  0
LINE
  5
8D
100
AcDbEntity
  8
LC-007-002-----0
  6
CONTINUOUS
 62
             7
100
AcDbLine
 10
24066.8288684088
 20
32787.563374648707
 11
24072.3291244088
 21
32787.563374648707
  0
LINE
  5
8C
100
AcDbEntity
  8
LC-007-002-----0
  6
CONTINUOUS
 62
             7
100
AcDbLine
 10
24066.8288684088
 20
32787.563374648707
 11
24066.8288684088
 21
32794.621723648692
  0
LINE
  5
8B
100
AcDbEntity
  8
LC-007-002-----0
  6
CONTINUOUS
 62
             7
100
AcDbLine
 10
24054.844188408799
 20
32817.375937567413
 11
24054.844188408799
 21
32819.436400567407
  0
LINE
  5
8A
100
AcDbEntity
  8
LC-007-002-----0
  6
CONTINUOUS
 62
             7
100
AcDbLine
 10
24080.594188408799
 20
32764.5633746487
 11
24091.137726408801
 21
32764.5633746487
  0
LINE
  5
89
100
AcDbEntity
  8
LC-007-002-----0
  6
CONTINUOUS
 62
             7
100
AcDbLine
 10
24276.359316408802
 20
32788.964596648708
 11
24276.359316408802
 21
32787.563374648707
  0
LINE
  5
88
100
AcDbEntity
  8
LC-007-002-----0
  6
CONTINUOUS
 62
             7
100
AcDbLine
 10
24277.359252408802
 20
32787.563374648707
 11
24277.359252408802
 21
32789.840681648719
  0
LINE
  5
87
100
AcDbEntity
  8
LC-007-002-----0
  6
CONTINUOUS
 62
             7
100
AcDbLine
 10
24073.3290604088
 20
32788.964596648708
 11
24073.3290604088
 21
32787.563374648707
  0
LINE
  5
86
100
AcDbEntity
  8
LC-007-002-----0
  6
CONTINUOUS
 62
             7
100
AcDbLine
 10
24080.328612408801
 20
32810.562850648712
 11
24080.328612408801
 21
32810.563015648702
  0
LINE
  5
85
100
AcDbEntity
  8
LC-007-002-----0
  6
CONTINUOUS
 62
             7
100
AcDbLine
 10
24259.0744624088
 20
32764.5633746487
 11
24259.407935408799
 21
32774.112797648697
  0
LINE
  5
84
100
AcDbEntity
  8
LC-007-002-----0
  6
CONTINUOUS
 62
             7
100
AcDbLine
 10
24282.803459408799
 20
32779.610574648708
 11
24265.6290534088
 21
32764.5633746487
  0
LINE
  5
83
100
AcDbEntity
  8
LC-007-002-----0
  6
CONTINUOUS
 62
             7
100
AcDbLine
 10
24282.803459408799
 20
32779.610574648708
 11
24265.682926408801
 21
32779.610574648708
  0
LINE
  5
82
100
AcDbEntity
  8
LC-007-002-----0
  6
CONTINUOUS
 62
             7
100
AcDbLine
 10
24074.928371408801
 20
32787.563374648707
 11
24066.887867408801
 21
32787.563374648707
  0
LINE
  5
81
100
AcDbEntity
  8
LC-007-002-----0
  6
CONTINUOUS
 62
             7
100
AcDbLine
 10
24283.3005094088
 20
32787.063374648707
 11
24283.3005094088
 21
32780.107624648706
  0
LINE
  5
80
100
AcDbEntity
  8
LC-007-002-----0
  6
CONTINUOUS
 62
             7
100
AcDbLine
 10
24066.884917408799
 20
32779.610574648708
 11
24084.059322408801
 21
32764.5633746487
  0
LINE
  5
7F
100
AcDbEntity
  8
LC-007-002-----0
  6
CONTINUOUS
 62
             7
100
AcDbLine
 10
24066.387867408801
 20
32787.063374648707
 11
24066.387867408801
 21
32780.107624648706
  0
LINE
  5
7E
100
AcDbEntity
  8
LC-007-002-----0
  6
CONTINUOUS
 62
             7
100
AcDbLine
 10
24066.884917408799
 20
32779.610574648708
 11
24084.0054504088
 21
32779.610574648708
  0
LINE
  5
7D
100
AcDbEntity
  8
LC-007-002-----0
  6
CONTINUOUS
 62
             7
100
AcDbLine
 10
24274.760004408799
 20
32787.563374648707
 11
24282.8005094088
 21
32787.563374648707
  0
LINE
  5
7C
100
AcDbEntity
  8
LC-007-002-----0
  6
CONTINUOUS
 62
             7
100
AcDbLine
 10
24072.3291244088
 20
32787.563374648707
 11
24072.3291244088
 21
32789.840681648719
  0
LINE
  5
7B
100
AcDbEntity
  8
LC-007-002-----0
  6
CONTINUOUS
 62
             7
100
AcDbLine
 10
24278.1917124088
 20
32748.8207556487
 11
24257.256056408791
 21
32712.49108064871
  0
LINE
  5
7A
100
AcDbEntity
  8
LC-007-002-----0
  6
CONTINUOUS
 62
             7
100
AcDbLine
 10
24090.613914408801
 20
32764.5633746487
 11
24090.280441408799
 21
32774.112797648697
  0
LINE
  5
79
100
AcDbEntity
  8
LC-007-002-----0
  6
CONTINUOUS
 62
             7
100
AcDbLine
 10
24095.350593408799
 20
32623.210109648709
 11
24092.432319408799
 21
32712.49108064871
  0
LINE
  5
78
100
AcDbEntity
  8
LC-007-002-----0
  6
CONTINUOUS
 62
             7
100
AcDbLine
 10
24282.859508408801
 20
32810.563015648702
 11
24263.859304408801
 21
32810.563015648702
  0
LINE
  5
77
100
AcDbEntity
  8
LC-007-002-----0
  6
CONTINUOUS
 62
             7
100
AcDbLine
 10
24282.859508408801
 20
32810.563015648702
 11
24282.859508408801
 21
32832.089987769272
  0
LINE
  5
76
100
AcDbEntity
  8
LC-007-002-----0
  6
CONTINUOUS
 62
             7
100
AcDbLine
 10
24294.844188408799
 20
32836.125386877422
 11
24294.844188408799
 21
32838.185849877424
  0
LINE
  5
75
100
AcDbEntity
  8
LC-007-002-----0
  6
CONTINUOUS
 62
             7
100
AcDbLine
 10
24263.859304408801
 20
32810.563182648708
 11
24263.859293408801
 21
32832.090154769263
  0
LINE
  5
74
100
AcDbEntity
  8
LC-007-002-----0
  6
CONTINUOUS
 62
             7
100
AcDbLine
 10
24251.879508408801
 20
32836.125386877422
 11
24251.879508408801
 21
32838.185849877424
  0
LINE
  5
73
100
AcDbEntity
  8
LC-007-002-----0
  6
CONTINUOUS
 62
             7
100
AcDbLine
 10
24271.859508408801
 20
32839.655618877427
 11
24274.859508408801
 21
32839.655618877427
  0
LINE
  5
72
100
AcDbEntity
  8
LC-007-002-----0
  6
CONTINUOUS
 62
             7
100
AcDbLine
 10
24270.859508408801
 20
32835.655618877427
 11
24270.859508408801
 21
32838.655618877427
  0
LINE
  5
71
100
AcDbEntity
  8
LC-007-002-----0
  6
CONTINUOUS
 62
             7
100
AcDbLine
 10
24275.859508408801
 20
32838.655618877427
 11
24275.859508408801
 21
32835.655618877427
  0
LINE
  5
70
100
AcDbEntity
  8
LC-007-002-----0
  6
CONTINUOUS
 62
             7
100
AcDbLine
 10
24274.859508408801
 20
32834.655618877427
 11
24271.859508408801
 21
32834.655618877427
  0
LINE
  5
6F
100
AcDbEntity
  8
LC-007-002-----0
  6
CONTINUOUS
 62
             7
100
AcDbLine
 10
24066.8288684088
 20
32810.563015648702
 11
24085.8290714088
 21
32810.563015648702
  0
LINE
  5
6E
100
AcDbEntity
  8
LC-007-002-----0
  6
CONTINUOUS
 62
             7
100
AcDbLine
 10
24066.8288684088
 20
32810.563015648702
 11
24066.8288684088
 21
32832.089905459252
  0
LINE
  5
6D
100
AcDbEntity
  8
LC-007-002-----0
  6
CONTINUOUS
 62
             7
100
AcDbLine
 10
24054.844188408799
 20
32836.125304567402
 11
24054.844188408799
 21
32838.185767567396
  0
LINE
  5
6C
100
AcDbEntity
  8
LC-007-002-----0
  6
CONTINUOUS
 62
             7
100
AcDbLine
 10
24085.8290714088
 20
32810.563182648708
 11
24085.829082794298
 21
32832.089936508892
  0
LINE
  5
6B
100
AcDbEntity
  8
LC-007-002-----0
  6
CONTINUOUS
 62
             7
100
AcDbLine
 10
24097.8088684088
 20
32836.125304567402
 11
24097.8088684088
 21
32838.185767567396
  0
LINE
  5
6A
100
AcDbEntity
  8
LC-007-002-----0
  6
CONTINUOUS
 62
             7
100
AcDbLine
 10
24077.8288684088
 20
32839.655536567407
 11
24074.8288684088
 21
32839.655536567407
  0
LINE
  5
69
100
AcDbEntity
  8
LC-007-002-----0
  6
CONTINUOUS
 62
             7
100
AcDbLine
 10
24078.8288684088
 20
32835.655536567407
 11
24078.8288684088
 21
32838.655536567407
  0
LINE
  5
68
100
AcDbEntity
  8
LC-007-002-----0
  6
CONTINUOUS
 62
             7
100
AcDbLine
 10
24073.8288684088
 20
32838.655536567407
 11
24073.8288684088
 21
32835.655536567407
  0
LINE
  5
67
100
AcDbEntity
  8
LC-007-002-----0
  6
CONTINUOUS
 62
             7
100
AcDbLine
 10
24074.8288684088
 20
32834.655536567407
 11
24077.8288684088
 21
32834.655536567407
  0
LINE
  5
66
100
AcDbEntity
  8
LC-007-002-----0
  6
CONTINUOUS
 62
             7
100
AcDbLine
 10
24174.844188408799
 20
32611.602137648701
 11
24107.344188408799
 21
32611.602137648701
  0
LINE
  5
65
100
AcDbEntity
  8
LC-007-002-----0
  6
CONTINUOUS
 62
             7
100
AcDbLine
 10
24095.350593408799
 20
32623.210109648709
 11
24092.432319408799
 21
32712.49108064871
  0
LINE
  5
64
100
AcDbEntity
  8
LC-007-002-----0
  6
CONTINUOUS
 62
             7
100
AcDbLine
 10
24174.844187408798
 20
32611.602137648701
 11
24242.344188408799
 21
32611.602137648701
  0
LINE
  5
63
100
AcDbEntity
  8
LC-007-002-----0
  6
CONTINUOUS
 62
             7
100
AcDbLine
 10
24254.337782408798
 20
32623.210109648709
 11
24257.256056408791
 21
32712.49108064871
  0
LINE
  5
62
100
AcDbEntity
  8
LC-007-002-----0
  6
CONTINUOUS
 62
             7
100
AcDbLine
 10
24278.1917124088
 20
32748.8207556487
 11
24257.256056408791
 21
32712.49108064871
  0
LINE
  5
61
100
AcDbEntity
  8
LC-007-002-----0
  6
CONTINUOUS
 62
             7
100
AcDbLine
 10
24258.550650408801
 20
32764.5633746487
 11
24269.094188408799
 21
32764.5633746487
  0
LINE
  5
60
100
AcDbEntity
  8
LC-007-002-----0
  6
CONTINUOUS
 62
             7
100
AcDbLine
 10
24071.496663408801
 20
32748.8207556487
 11
24092.432319408799
 21
32712.49108064871
  0
LINE
  5
5F
100
AcDbEntity
  8
LC-007-002-----0
  6
CONTINUOUS
 62
             7
100
AcDbLine
 10
24080.594188408799
 20
32764.5633746487
 11
24091.137726408801
 21
32764.5633746487
  0
LINE
  5
5E
100
AcDbEntity
  8
LC-007-002-----0
  6
CONTINUOUS
 62
             7
100
AcDbLine
 10
24262.845672408799
 20
32818.563374648707
 11
24086.842704408798
 21
32818.563374648707
  0
LINE
  5
5D
100
AcDbEntity
  8
LC-007-002-----0
  6
CONTINUOUS
 62
             7
100
AcDbLine
 10
24248.844188408799
 20
32826.518310648702
 11
24246.886917408799
 21
32944.13868228616
  0
LINE
  5
5C
100
AcDbEntity
  8
LC-007-002-----0
  6
CONTINUOUS
 62
             7
100
AcDbLine
 10
24262.845672408799
 20
32818.563374648707
 11
24262.845672408799
 21
32825.518310648702
  0
LINE
  5
5B
100
AcDbEntity
  8
LC-007-002-----0
  6
CONTINUOUS
 62
             7
100
AcDbLine
 10
24261.845672408799
 20
32826.518310648702
 11
24174.844188408799
 21
32826.518310648702
  0
LINE
  5
5A
100
AcDbEntity
  8
LC-007-002-----0
  6
CONTINUOUS
 62
             7
100
AcDbLine
 10
24086.842704408798
 20
32818.563374648707
 11
24086.842704408798
 21
32825.518310648702
  0
LINE
  5
59
100
AcDbEntity
  8
LC-007-002-----0
  6
CONTINUOUS
 62
             7
100
AcDbLine
 10
24100.844188408799
 20
32826.518310648702
 11
24102.801459408802
 21
32944.13868228616
  0
LINE
  5
58
100
AcDbEntity
  8
LC-007-002-----0
  6
CONTINUOUS
 62
             7
100
AcDbLine
 10
24087.842704408798
 20
32826.518310648702
 11
24174.844188408799
 21
32826.518310648702
  0
LINE
  5
57
100
AcDbEntity
  8
LC-007-002-----0
  6
CONTINUOUS
 62
             7
100
AcDbLine
 10
24283.344197408798
 20
32802.563374648707
 11
24066.344179408799
 21
32802.563374648707
  0
LINE
  5
56
100
AcDbEntity
  8
LC-007-002-----0
  6
CONTINUOUS
 62
             7
100
AcDbLine
 10
24107.800697408798
 20
32949.051420286167
 11
24174.844188408799
 21
32949.051420286167
  0
LINE
  5
55
100
AcDbEntity
  8
LC-007-002-----0
  6
CONTINUOUS
 62
             7
100
AcDbLine
 10
24174.844188408799
 20
32949.051420286167
 11
24241.887678408799
 21
32949.051420286167
  0
LINE
  5
54
100
AcDbEntity
  8
LC-007-002-----0
  6
CONTINUOUS
 62
             7
100
AcDbLine
 10
24188.844188408799
 20
32949.051420286167
 11
24188.844188408799
 21
32956.158625286167
  0
LINE
  5
53
100
AcDbEntity
  8
LC-007-002-----0
  6
CONTINUOUS
 62
             7
100
AcDbLine
 10
24163.844188408799
 20
32959.158625286167
 11
24185.844188408799
 21
32959.158625286167
  0
LINE
  5
52
100
AcDbEntity
  8
LC-007-002-----0
  6
CONTINUOUS
 62
             7
100
AcDbLine
 10
24160.844188408799
 20
32949.051420286167
 11
24160.844188408799
 21
32956.158625286167
  0
LINE
  5
51
100
AcDbEntity
  8
LC-007-002-----0
  6
CONTINUOUS
 62
             7
100
AcDbLine
 10
24086.543390408799
 20
32815.426831648707
 11
24086.543390408799
 21
32802.563374648707
  0
LINE
  5
50
100
AcDbEntity
  8
LC-007-002-----0
  6
CONTINUOUS
 62
             7
100
AcDbLine
 10
24263.859304408801
 20
32810.563374648707
 11
24263.144986408799
 21
32810.563374648707
  0
LINE
  5
4F
100
AcDbEntity
  8
LC-007-002-----0
  6
CONTINUOUS
 62
             7
100
AcDbLine
 10
24283.344197408798
 20
32802.563374648707
 11
24283.0985334088
 21
32809.598273648713
  0
LINE
  5
4E
100
AcDbEntity
  8
LC-007-002-----0
  6
CONTINUOUS
 62
             7
100
AcDbLine
 10
24085.8290714088
 20
32810.563374648707
 11
24086.543390408799
 21
32810.563374648707
  0
LINE
  5
4D
100
AcDbEntity
  8
LC-007-002-----0
  6
CONTINUOUS
 62
             7
100
AcDbLine
 10
24066.344179408799
 20
32802.563374648707
 11
24066.589843408801
 21
32809.598273648713
  0
LINE
  5
4C
100
AcDbEntity
  8
LC-007-002-----0
  6
CONTINUOUS
 62
             7
100
AcDbLine
 10
24263.144986408799
 20
32815.426831648707
 11
24263.144986408799
 21
32802.563374648707
  0
LINE
  5
4B
100
AcDbEntity
  8
LC-007-002-----0
  6
CONTINUOUS
 62
             7
100
AcDbLine
 10
24079.328676408801
 20
32810.563015648702
 11
24079.328676408801
 21
32810.562891648697
  0
LINE
  5
4A
100
AcDbEntity
  8
LC-007-002-----0
  6
CONTINUOUS
 62
             7
100
AcDbLine
 10
24080.328612408801
 20
32810.562850648712
 11
24080.328612408801
 21
32810.563015648702
  0
LINE
  5
49
100
AcDbEntity
  8
LC-007-002-----0
  6
CONTINUOUS
 62
             7
100
AcDbLine
 10
24256.287349408791
 20
32699.750901648709
 11
24259.876428408799
 21
32802.528681648713
  0
LINE
  5
48
100
AcDbEntity
  8
LC-007-002-----0
  6
CONTINUOUS
 62
             7
100
AcDbLine
 10
24089.811948408798
 20
32802.528681648713
 11
24093.4010284088
 21
32699.750901648709
  0
LINE
  5
47
100
AcDbEntity
  8
LC-007-002-----0
  6
CONTINUOUS
 62
             7
100
AcDbLine
 10
24282.803459408799
 20
32794.610574648708
 11
24258.867591408802
 21
32773.639380648703
  0
LINE
  5
46
100
AcDbEntity
  8
LC-007-002-----0
  6
CONTINUOUS
 62
             7
100
AcDbLine
 10
24282.803459408799
 20
32794.610574648708
 11
24259.599922408801
 21
32794.610574648708
  0
LINE
  5
45
100
AcDbEntity
  8
LC-007-002-----0
  6
CONTINUOUS
 62
             7
100
AcDbLine
 10
24283.3005094088
 20
32802.563374648707
 11
24283.3005094088
 21
32795.107624648706
  0
LINE
  5
44
100
AcDbEntity
  8
LC-007-002-----0
  6
CONTINUOUS
 62
             7
100
AcDbLine
 10
24066.884917408799
 20
32794.610574648708
 11
24090.8207854088
 21
32773.639380648703
  0
LINE
  5
43
100
AcDbEntity
  8
LC-007-002-----0
  6
CONTINUOUS
 62
             7
100
AcDbLine
 10
24066.387867408801
 20
32802.563374648707
 11
24066.387867408801
 21
32795.107624648706
  0
LINE
  5
42
100
AcDbEntity
  8
LC-007-002-----0
  6
CONTINUOUS
 62
             7
100
AcDbLine
 10
24066.884917408799
 20
32794.610574648708
 11
24090.088455408801
 21
32794.610574648708
  0
LINE
  5
41
100
AcDbEntity
  8
1
  6
PHANTOM
 62
             2
100
AcDbLine
 10
24076.328964949022
 20
32791.87141626206
 11
24076.328979573809
 21
32847.174047705499
  0
LINE
  5
40
100
AcDbEntity
  8
1
  6
PHANTOM
 62
             2
100
AcDbLine
 10
24273.35941127465
 20
32791.568376059862
 11
24273.35939745522
 21
32845.657524547511
  0
LINE
  5
3F
100
AcDbEntity
  8
1
  6
PHANTOM
 62
             2
100
AcDbLine
 10
24264.4862717088
 20
32701.663362639771
 11
24085.20210510879
 21
32701.663362639771
  0
LINE
  5
3E
100
AcDbEntity
  8
1
  6
PHANTOM
 62
             2
100
AcDbLine
 10
24174.844188408799
 20
32842.624638346002
 11
24174.844188408799
 21
32600.490218433199
  0
LINE
  5
3D
100
AcDbEntity
  8
1
  6
DOT_CENTER
 62
             2
100
AcDbLine
 10
24104.902216119201
 20
32670.663362639771
 11
24244.902216119201
 21
32670.663362639771
  0
POINT
  5
3C
100
AcDbEntity
  8
0
 62
             7
100
AcDbPoint
 10
24263.144986408799
 20
32802.563374648707
  0
POINT
  5
3B
100
AcDbEntity
  8
0
 62
             7
100
AcDbPoint
 10
24086.543390408799
 20
32802.563374648707
  0
POINT
  5
3A
100
AcDbEntity
  8
0
 62
             7
100
AcDbPoint
 10
24293.4199734088
 20
32834.210061877428
  0
POINT
  5
39
100
AcDbEntity
  8
0
 62
             7
100
AcDbPoint
 10
24056.268566408799
 20
32834.209930567413
  0
POINT
  5
38
100
AcDbEntity
  8
0
 62
             7
100
AcDbPoint
 10
24248.844188408799
 20
32826.518310648702
  0
POINT
  5
37
100
AcDbEntity
  8
0
 62
             7
100
AcDbPoint
 10
24100.844188408799
 20
32826.518310648702
  0
ENDBLK
  5
11D
100
AcDbEntity
  8
0
100
AcDbBlockEnd
  0
BLOCK
  5
32
100
AcDbEntity
  8
0
100
AcDbBlockBegin
  2
HL_712_2EPC_R_CKSTAUVES__2
 70
             0
 10
441.58943986963283
 20
1065.4689867674549
 30
0.0
  3
HL_712_2EPC_R_CKSTAUVES__2
  1

  0
CIRCLE
  5
2E8
100
AcDbEntity
  8
LC-001-002-----0
  6
CONTINUOUS
 62
             7
100
AcDbCircle
 10
312.4798750000005
 20
206.49280711234829
 40
2.5
  0
ARC
  5
2E7
100
AcDbEntity
  8
LC-002-002-RND-0
  6
CONTINUOUS
 62
             7
100
AcDbCircle
 10
61.16102800000181
 20
97.24217311234828
 40
0.5
100
AcDbArc
 50
180.0
 51
-90.0
  0
ARC
  5
2E6
100
AcDbEntity
  8
LC-002-002-RND-0
  6
CONTINUOUS
 62
             7
100
AcDbCircle
 10
63.66102800000181
 20
108.7421731123483
 40
3.0
100
AcDbArc
 50
90.0
 51
180.0
  0
ARC
  5
2E5
100
AcDbEntity
  8
LC-002-002-RND-0
  6
CONTINUOUS
 62
             7
100
AcDbCircle
 10
246.01159200000211
 20
108.7421731123483
 40
3.0
100
AcDbArc
 50
0.0
 51
90.0
  0
ARC
  5
2E4
100
AcDbEntity
  8
LC-002-002-RND-0
  6
CONTINUOUS
 62
             7
100
AcDbCircle
 10
248.51159200000211
 20
97.24217311234828
 40
0.5
100
AcDbArc
 50
-90.0
 51
0.0
  0
ARC
  5
2E3
100
AcDbEntity
  8
LC-001-002-----0
  6
CONTINUOUS
 62
             7
100
AcDbCircle
 10
290.5139170000034
 20
60.73647911234879
 40
61.7563279999973
100
AcDbArc
 50
71.28470100000125
 51
108.72565600000249
  0
ARC
  5
2E2
100
AcDbEntity
  8
LC-002-002-RND-0
  6
CONTINUOUS
 62
             7
100
AcDbCircle
 10
91.3563100000024
 20
104.2421731123483
 40
0.5
100
AcDbArc
 50
90.0
 51
180.0
  0
ARC
  5
2E1
100
AcDbEntity
  8
LC-002-002-RND-0
  6
CONTINUOUS
 62
             7
100
AcDbCircle
 10
110.3563100000024
 20
104.2421731123483
 40
0.5
100
AcDbArc
 50
0.0
 51
90.0
  0
ARC
  5
2E0
100
AcDbEntity
  8
LC-002-002-RND-0
  6
CONTINUOUS
 62
             7
100
AcDbCircle
 10
199.3563100000024
 20
104.2421731123483
 40
0.5
100
AcDbArc
 50
90.0
 51
180.0
  0
ARC
  5
2DF
100
AcDbEntity
  8
LC-002-002-RND-0
  6
CONTINUOUS
 62
             7
100
AcDbCircle
 10
218.3563100000024
 20
104.2421731123483
 40
0.5
100
AcDbArc
 50
0.0
 51
90.0
  0
ARC
  5
2DE
100
AcDbEntity
  8
LC-002-002-RND-0
  6
CONTINUOUS
 62
             7
100
AcDbCircle
 10
91.3563100000024
 20
97.24217311234828
 40
0.5
100
AcDbArc
 50
180.0
 51
-90.0
  0
ARC
  5
2DD
100
AcDbEntity
  8
LC-002-002-RND-0
  6
CONTINUOUS
 62
             7
100
AcDbCircle
 10
110.3563100000024
 20
97.24217311234828
 40
0.5
100
AcDbArc
 50
-90.0
 51
0.0
  0
ARC
  5
2DC
100
AcDbEntity
  8
LC-002-002-RND-0
  6
CONTINUOUS
 62
             7
100
AcDbCircle
 10
199.3563100000024
 20
97.24217311234828
 40
0.5
100
AcDbArc
 50
180.0
 51
-90.0
  0
ARC
  5
2DB
100
AcDbEntity
  8
LC-002-002-RND-0
  6
CONTINUOUS
 62
             7
100
AcDbCircle
 10
218.3563100000024
 20
97.24217311234828
 40
0.5
100
AcDbArc
 50
-90.0
 51
0.0
  0
ARC
  5
2DA
100
AcDbEntity
  8
LC-002-002-RND-0
  6
CONTINUOUS
 62
             7
100
AcDbCircle
 10
72.91821500000106
 20
-78.75355188765239
 40
5.00000000000052
100
AcDbArc
 50
-179.00000000000355
 51
-90.0
  0
ARC
  5
2D9
100
AcDbEntity
  8
LC-002-002-RND-0
  6
CONTINUOUS
 62
             7
100
AcDbCircle
 10
82.14699200000132
 20
238.38805761234619
 40
5.0
100
AcDbArc
 50
90.0
 51
180.0
  0
ARC
  5
2D8
100
AcDbEntity
  8
LC-002-002-RND-0
  6
CONTINUOUS
 62
             7
100
AcDbCircle
 10
228.39481900000061
 20
211.39257761234839
 40
5.0
100
AcDbArc
 50
0.0
 51
90.0
  0
ARC
  5
2D7
100
AcDbEntity
  8
LC-001-002-----0
  6
CONTINUOUS
 62
             7
100
AcDbCircle
 10
279.57794800000153
 20
137.1065171123461
 40
24.35759900000103
100
AcDbArc
 50
-113.1324260000024
 51
-69.7424469999994
  0
ARC
  5
2D6
100
AcDbEntity
  8
LC-001-002-----0
  6
CONTINUOUS
 62
             7
100
AcDbCircle
 10
301.43949900000331
 20
137.10663211234859
 40
24.35759900000251
100
AcDbArc
 50
-110.25759100000404
 51
-66.86761100000312
  0
ARC
  5
2D5
100
AcDbEntity
  8
LC-002-002-RND-0
  6
CONTINUOUS
 62
             7
100
AcDbCircle
 10
61.47914900000205
 20
117.2422821123488
 40
0.5
100
AcDbArc
 50
90.0
 51
180.0
  0
ARC
  5
2D4
100
AcDbEntity
  8
LC-002-002-RND-0
  6
CONTINUOUS
 62
             7
100
AcDbCircle
 10
133.51682700000271
 20
238.38805761234619
 40
5.0
100
AcDbArc
 50
0.0
 51
90.0
  0
ARC
  5
2D3
100
AcDbEntity
  8
LC-001-002-----0
  6
CONTINUOUS
 62
             7
100
AcDbCircle
 10
310.00855300000291
 20
118.2802941123461
 40
1.0
100
AcDbArc
 50
0.0
 51
71.28470000011308
  0
ARC
  5
2D2
100
AcDbEntity
  8
LC-001-002-----0
  6
CONTINUOUS
 62
             7
100
AcDbCircle
 10
301.44205400000237
 20
95.87655011234678
 40
24.3575990000011
100
AcDbArc
 50
66.8741480000068
 51
110.25728700000117
  0
ARC
  5
2D1
100
AcDbEntity
  8
LC-002-002-RND-0
  6
CONTINUOUS
 62
             7
100
AcDbCircle
 10
250.84988000000109
 20
82.49280711234827
 40
0.5
100
AcDbArc
 50
180.0
 51
-90.0
  0
ARC
  5
2D0
100
AcDbEntity
  8
LC-001-002-----0
  6
CONTINUOUS
 62
             7
100
AcDbCircle
 10
271.00888000000077
 20
114.69670011234631
 40
1.00000000000021
100
AcDbArc
 50
179.99996299987561
 51
-110.00011399990252
  0
ARC
  5
2CF
100
AcDbEntity
  8
LC-002-002-RND-0
  6
CONTINUOUS
 62
             7
100
AcDbCircle
 10
253.34988000000109
 20
93.99280711234827
 40
3.0
100
AcDbArc
 50
90.0
 51
180.0
  0
ARC
  5
2CE
100
AcDbEntity
  8
LC-001-002-----0
  6
CONTINUOUS
 62
             7
100
AcDbCircle
 10
271.00888200000151
 20
118.276769112346
 40
1.00000000000036
100
AcDbArc
 50
108.72563700002715
 51
179.99996299987561
  0
ARC
  5
2CD
100
AcDbEntity
  8
LC-001-002-----0
  6
CONTINUOUS
 62
             7
100
AcDbCircle
 10
310.00855300000291
 20
114.6968091123469
 40
0.99999999999775
100
AcDbArc
 50
-69.99986699999286
 51
0.0
  0
ARC
  5
2CC
100
AcDbEntity
  8
LC-001-002-----0
  6
CONTINUOUS
 62
             7
100
AcDbCircle
 10
279.57536600000049
 20
95.87643511234786
 40
24.35759899999967
100
AcDbArc
 50
69.74267599999884
 51
113.12581499999719
  0
ARC
  5
2CB
100
AcDbEntity
  8
LC-002-002-RND-0
  6
CONTINUOUS
 62
             7
100
AcDbCircle
 10
314.57987500000257
 20
97.99280711234827
 40
1.0
100
AcDbArc
 50
180.0
 51
-90.0
  0
ARC
  5
2CA
100
AcDbEntity
  8
LC-002-002-RND-0
  6
CONTINUOUS
 62
             7
100
AcDbCircle
 10
313.07987500000257
 20
103.4928071123483
 40
0.5
100
AcDbArc
 50
0.0
 51
90.0
  0
ARC
  5
2C9
100
AcDbEntity
  8
LC-002-002-RND-0
  6
CONTINUOUS
 62
             7
100
AcDbCircle
 10
435.66044400000061
 20
93.99280711234827
 40
3.0
100
AcDbArc
 50
0.0
 51
90.0
  0
ARC
  5
2C8
100
AcDbEntity
  8
LC-002-002-RND-0
  6
CONTINUOUS
 62
             7
100
AcDbCircle
 10
438.16044400000061
 20
82.49280711234827
 40
0.5
100
AcDbArc
 50
-90.0
 51
0.0
  0
ARC
  5
2C7
100
AcDbEntity
  8
LC-001-002-----0
  6
CONTINUOUS
 62
             7
100
AcDbCircle
 10
398.51407900000368
 20
60.73647911234879
 40
61.75632799999732
100
AcDbArc
 50
71.28470100000121
 51
108.72565600000243
  0
ARC
  5
2C6
100
AcDbEntity
  8
LC-001-002-----0
  6
CONTINUOUS
 62
             7
100
AcDbCircle
 10
387.57811000000169
 20
137.1065171123461
 40
24.35759900000097
100
AcDbArc
 50
-113.13242600000203
 51
-69.74244699999903
  0
ARC
  5
2C5
100
AcDbEntity
  8
LC-002-002-RND-0
  6
CONTINUOUS
 62
             7
100
AcDbCircle
 10
143.51682700000271
 20
221.39257761234839
 40
5.0
100
AcDbArc
 50
180.0
 51
-90.0
  0
ARC
  5
2C4
100
AcDbEntity
  8
LC-001-002-----0
  6
CONTINUOUS
 62
             7
100
AcDbCircle
 10
409.43966100000353
 20
137.10663211234859
 40
24.35759900000247
100
AcDbArc
 50
-110.2575910000038
 51
-66.86761100000288
  0
ARC
  5
2C3
100
AcDbEntity
  8
LC-002-002-RND-0
  6
CONTINUOUS
 62
             7
100
AcDbCircle
 10
61.47914900000205
 20
112.2422821123488
 40
0.5
100
AcDbArc
 50
180.0
 51
-90.0
  0
ARC
  5
2C2
100
AcDbEntity
  8
LC-002-002-RND-0
  6
CONTINUOUS
 62
             7
100
AcDbCircle
 10
248.51876300000319
 20
117.2422821123488
 40
0.5
100
AcDbArc
 50
0.0
 51
90.0
  0
ARC
  5
2C1
100
AcDbEntity
  8
LC-002-002-RND-0
  6
CONTINUOUS
 62
             7
100
AcDbCircle
 10
248.51876300000319
 20
112.2422821123488
 40
0.5
100
AcDbArc
 50
-90.0
 51
0.0
  0
ARC
  5
2C0
100
AcDbEntity
  8
LC-002-002-RND-0
  6
CONTINUOUS
 62
             7
100
AcDbCircle
 10
97.50375500000109
 20
243.88805761234619
 40
0.5
100
AcDbArc
 50
-90.0
 51
0.0
  0
ARC
  5
2BF
100
AcDbEntity
  8
LC-002-002-RND-0
  6
CONTINUOUS
 62
             7
100
AcDbCircle
 10
98.50375500000109
 20
252.99526261234641
 40
0.5
100
AcDbArc
 50
90.0
 51
179.9999999995766
  0
ARC
  5
2BE
100
AcDbEntity
  8
LC-002-002-RND-0
  6
CONTINUOUS
 62
             7
100
AcDbCircle
 10
124.50375500000111
 20
252.99526261234641
 40
0.5
100
AcDbArc
 50
0.0000000004234
 51
90.0
  0
ARC
  5
2BD
100
AcDbEntity
  8
LC-002-002-RND-0
  6
CONTINUOUS
 62
             7
100
AcDbCircle
 10
125.50375500000111
 20
243.88805761234619
 40
0.5
100
AcDbArc
 50
180.0
 51
-90.0
  0
ARC
  5
2BC
100
AcDbEntity
  8
LC-002-002-RND-0
  6
CONTINUOUS
 62
             7
100
AcDbCircle
 10
98.93551800000159
 20
-79.25330688765313
 40
0.5
100
AcDbArc
 50
90.0
 51
180.0
  0
ARC
  5
2BB
100
AcDbEntity
  8
LC-002-002-RND-0
  6
CONTINUOUS
 62
             7
100
AcDbCircle
 10
97.93551800000159
 20
-83.25355188765239
 40
0.5
100
AcDbArc
 50
-90.0
 51
0.0
  0
ARC
  5
2BA
100
AcDbEntity
  8
LC-002-002-RND-0
  6
CONTINUOUS
 62
             7
100
AcDbCircle
 10
242.36298800000031
 20
56.74976611234673
 40
0.5
100
AcDbArc
 50
90.0
 51
180.0
  0
ARC
  5
2B9
100
AcDbEntity
  8
LC-002-002-RND-0
  6
CONTINUOUS
 62
             7
100
AcDbCircle
 10
249.05358400000071
 20
56.74976611234673
 40
0.5
100
AcDbArc
 50
0.0
 51
90.0
  0
ARC
  5
2B8
100
AcDbEntity
  8
LC-002-002-RND-0
  6
CONTINUOUS
 62
             7
100
AcDbCircle
 10
249.05358400000071
 20
39.74976611234673
 40
0.5
100
AcDbArc
 50
-90.0
 51
0.0
  0
ARC
  5
2B7
100
AcDbEntity
  8
LC-002-002-RND-0
  6
CONTINUOUS
 62
             7
100
AcDbCircle
 10
247.36298800000031
 20
38.74976611234673
 40
0.5
100
AcDbArc
 50
90.0
 51
180.0
  0
ARC
  5
2B6
100
AcDbEntity
  8
LC-002-002-RND-0
  6
CONTINUOUS
 62
             7
100
AcDbCircle
 10
242.36298800000031
 20
7.9461811123489
 40
0.5
100
AcDbArc
 50
180.0
 51
-90.0
  0
ARC
  5
2B5
100
AcDbEntity
  8
LC-002-002-RND-0
  6
CONTINUOUS
 62
             7
100
AcDbCircle
 10
110.3563100000024
 20
89.24217311234828
 40
0.5
100
AcDbArc
 50
-90.0
 51
0.0
  0
ARC
  5
2B4
100
AcDbEntity
  8
LC-002-002-RND-0
  6
CONTINUOUS
 62
             7
100
AcDbCircle
 10
91.3563100000024
 20
89.24217311234828
 40
0.5
100
AcDbArc
 50
180.0
 51
-90.0
  0
ARC
  5
2B3
100
AcDbEntity
  8
LC-002-002-RND-0
  6
CONTINUOUS
 62
             7
100
AcDbCircle
 10
218.3563100000024
 20
89.24217311234828
 40
0.5
100
AcDbArc
 50
-90.0
 51
0.0
  0
ARC
  5
2B2
100
AcDbEntity
  8
LC-002-002-RND-0
  6
CONTINUOUS
 62
             7
100
AcDbCircle
 10
199.3563100000024
 20
89.24217311234828
 40
0.5
100
AcDbArc
 50
180.0
 51
-90.0
  0
ARC
  5
2B1
100
AcDbEntity
  8
LC-002-002-RND-0
  6
CONTINUOUS
 62
             7
100
AcDbCircle
 10
91.3563100000024
 20
96.24217311234828
 40
0.5
100
AcDbArc
 50
90.0
 51
180.0
  0
ARC
  5
2B0
100
AcDbEntity
  8
LC-002-002-RND-0
  6
CONTINUOUS
 62
             7
100
AcDbCircle
 10
110.3563100000024
 20
96.24217311234828
 40
0.5
100
AcDbArc
 50
0.0
 51
90.0
  0
ARC
  5
2AF
100
AcDbEntity
  8
LC-002-002-RND-0
  6
CONTINUOUS
 62
             7
100
AcDbCircle
 10
199.3563100000024
 20
96.24217311234828
 40
0.5
100
AcDbArc
 50
90.0
 51
180.0
  0
ARC
  5
2AE
100
AcDbEntity
  8
LC-002-002-RND-0
  6
CONTINUOUS
 62
             7
100
AcDbCircle
 10
218.3563100000024
 20
96.24217311234828
 40
0.5
100
AcDbArc
 50
0.0
 51
90.0
  0
ARC
  5
2AD
100
AcDbEntity
  8
LC-002-002-RND-0
  6
CONTINUOUS
 62
             7
100
AcDbCircle
 10
242.36298800000031
 20
-32.38484088765323
 40
0.5
100
AcDbArc
 50
90.0
 51
180.0
  0
ARC
  5
2AC
100
AcDbEntity
  8
LC-002-002-RND-0
  6
CONTINUOUS
 62
             7
100
AcDbCircle
 10
242.36298800000031
 20
-89.2528548876529
 40
0.5
100
AcDbArc
 50
180.0
 51
-90.0
  0
ARC
  5
2AB
100
AcDbEntity
  8
LC-002-002-RND-0
  6
CONTINUOUS
 62
             7
100
AcDbCircle
 10
249.05358400000071
 20
-89.2528548876529
 40
0.5
100
AcDbArc
 50
-90.0
 51
0.0
  0
ARC
  5
2AA
100
AcDbEntity
  8
LC-002-002-RND-0
  6
CONTINUOUS
 62
             7
100
AcDbCircle
 10
249.05358400000071
 20
-72.2528548876529
 40
0.5
100
AcDbArc
 50
0.0
 51
90.0
  0
ARC
  5
2A9
100
AcDbEntity
  8
LC-002-002-RND-0
  6
CONTINUOUS
 62
             7
100
AcDbCircle
 10
247.36298800000031
 20
-71.2528548876529
 40
0.5
100
AcDbArc
 50
180.0
 51
-90.0
  0
ARC
  5
2A8
100
AcDbEntity
  8
LC-002-002-RND-0
  6
CONTINUOUS
 62
             7
100
AcDbCircle
 10
247.36298800000031
 20
43.24967111234732
 40
0.5
100
AcDbArc
 50
90.0
 51
180.0
  0
ARC
  5
2A7
100
AcDbEntity
  8
LC-002-002-RND-0
  6
CONTINUOUS
 62
             7
100
AcDbCircle
 10
247.36298800000031
 20
-79.46854888765152
 40
0.5
100
AcDbArc
 50
180.0
 51
-90.0
  0
ARC
  5
2A6
100
AcDbEntity
  8
LC-002-002-RND-0
  6
CONTINUOUS
 62
             7
100
AcDbCircle
 10
244.6767140000006
 20
57.74976611234673
 40
0.50000000000015
100
AcDbArc
 50
179.00335300014456
 51
-90.0
  0
ARC
  5
2A5
100
AcDbEntity
  8
LC-002-002-RND-0
  6
CONTINUOUS
 62
             7
100
AcDbCircle
 10
249.05358400000071
 20
44.24967111234732
 40
0.5
100
AcDbArc
 50
-90.0
 51
0.0
  0
ARC
  5
2A4
100
AcDbEntity
  8
LC-002-002-RND-0
  6
CONTINUOUS
 62
             7
100
AcDbCircle
 10
249.05358400000071
 20
-80.46854888765152
 40
0.5
100
AcDbArc
 50
0.0
 51
90.0
  0
ARC
  5
2A3
100
AcDbEntity
  8
LC-001-002-----0
  6
CONTINUOUS
 62
             7
100
AcDbCircle
 10
287.9798750000005
 20
218.49280711234829
 40
3.0
100
AcDbArc
 50
90.0
 51
179.99984800001303
  0
ARC
  5
2A2
100
AcDbEntity
  8
LC-001-002-----0
  6
CONTINUOUS
 62
             7
100
AcDbCircle
 10
306.4798750000005
 20
218.49280711234829
 40
3.0
100
AcDbArc
 50
0.0
 51
90.0
  0
ARC
  5
2A1
100
AcDbEntity
  8
LC-001-002-----0
  6
CONTINUOUS
 62
             7
100
AcDbCircle
 10
296.9798750000005
 20
200.99280711234829
 40
2.0
100
AcDbArc
 50
90.0
 51
179.99984800004887
  0
ARC
  5
2A0
100
AcDbEntity
  8
LC-001-002-----0
  6
CONTINUOUS
 62
             7
100
AcDbCircle
 10
292.9798750000005
 20
185.99280711234829
 40
2.00000000000102
100
AcDbArc
 50
-89.99994199998375
 51
0.0
  0
ARC
  5
29F
100
AcDbEntity
  8
LC-001-002-----0
  6
CONTINUOUS
 62
             7
100
AcDbCircle
 10
286.9798750000005
 20
185.99280711234829
 40
1.99999999999982
100
AcDbArc
 50
179.99984800004887
 51
-90.0
  0
ARC
  5
29E
100
AcDbEntity
  8
LC-001-002-----0
  6
CONTINUOUS
 62
             7
100
AcDbCircle
 10
312.4798750000005
 20
206.49280711234829
 40
3.00000000000215
100
AcDbArc
 50
-59.99988299996402
 51
179.99988800001654
  0
ARC
  5
29D
100
AcDbEntity
  8
LC-001-002-----0
  6
CONTINUOUS
 62
             7
100
AcDbCircle
 10
418.00871400000278
 20
118.2802941123461
 40
1.0
100
AcDbArc
 50
0.0
 51
71.28470000011308
  0
ARC
  5
29C
100
AcDbEntity
  8
LC-001-002-----0
  6
CONTINUOUS
 62
             7
100
AcDbCircle
 10
409.4422160000027
 20
95.87655011234678
 40
24.35759900000103
100
AcDbArc
 50
66.87414800000717
 51
110.25728700000117
  0
ARC
  5
29B
100
AcDbEntity
  8
LC-001-002-----0
  6
CONTINUOUS
 62
             7
100
AcDbCircle
 10
379.00904100000071
 20
114.69670011234631
 40
1.00000000000021
100
AcDbArc
 50
179.99996299987561
 51
-110.00011399990252
  0
ARC
  5
29A
100
AcDbEntity
  8
LC-001-002-----0
  6
CONTINUOUS
 62
             7
100
AcDbCircle
 10
379.00904400000172
 20
118.276769112346
 40
1.00000000000032
100
AcDbArc
 50
108.72563700002098
 51
179.99996299987561
  0
ARC
  5
299
100
AcDbEntity
  8
LC-001-002-----0
  6
CONTINUOUS
 62
             7
100
AcDbCircle
 10
418.00871400000278
 20
114.6968091123469
 40
0.99999999999775
100
AcDbArc
 50
-69.99986699999286
 51
0.0
  0
ARC
  5
298
100
AcDbEntity
  8
LC-001-002-----0
  6
CONTINUOUS
 62
             7
100
AcDbCircle
 10
387.57552700000042
 20
95.87643511234786
 40
24.35759899999965
100
AcDbArc
 50
69.74267599999897
 51
113.12581499999732
  0
ARC
  5
297
100
AcDbEntity
  8
LC-001-002-----0
  6
CONTINUOUS
 62
             7
100
AcDbCircle
 10
249.3854380000007
 20
48.47484511234656
 40
15.0241360000004
100
AcDbArc
 50
165.15176399998958
 51
-165.151764000003
  0
ARC
  5
296
100
AcDbEntity
  8
LC-001-002-----0
  6
CONTINUOUS
 62
             7
100
AcDbCircle
 10
237.89813799999999
 20
42.81226611234673
 40
3.53515099999941
100
AcDbArc
 50
149.15562499995153
 51
-149.15562500000246
  0
ARC
  5
295
100
AcDbEntity
  8
LC-001-002-----0
  6
CONTINUOUS
 62
             7
100
AcDbCircle
 10
237.13283700000059
 20
53.91234511234656
 40
2.76985899999875
100
AcDbArc
 50
145.0329549999515
 51
-145.03295500001326
  0
ARC
  5
294
100
AcDbEntity
  8
LC-001-002-----0
  6
CONTINUOUS
 62
             7
100
AcDbCircle
 10
249.721731000001
 20
48.47484511234656
 40
15.02413599999949
100
AcDbArc
 50
-14.84823599999697
 51
14.8482360000104
  0
ARC
  5
293
100
AcDbEntity
  8
LC-001-002-----0
  6
CONTINUOUS
 62
             7
100
AcDbCircle
 10
261.20903100000169
 20
42.81226611234673
 40
3.5351510000007
100
AcDbArc
 50
-30.84437499996684
 51
30.84437500001776
  0
ARC
  5
292
100
AcDbEntity
  8
LC-001-002-----0
  6
CONTINUOUS
 62
             7
100
AcDbCircle
 10
261.97433200000108
 20
53.91234511234656
 40
2.76985899999969
100
AcDbArc
 50
-34.96704499994292
 51
34.96704500000471
  0
ARC
  5
291
100
AcDbEntity
  8
LC-001-002-----0
  6
CONTINUOUS
 62
             7
100
AcDbCircle
 10
312.4798750000005
 20
214.49280711234829
 40
3.0
100
AcDbArc
 50
180.0
 51
-89.9999419999501
  0
ARC
  5
290
100
AcDbEntity
  8
LC-001-002-----0
  6
CONTINUOUS
 62
             7
100
AcDbCircle
 10
249.3854380000007
 20
-80.52777588765308
 40
15.02413599999946
100
AcDbArc
 50
165.151764000003
 51
-165.151764000003
  0
ARC
  5
28F
100
AcDbEntity
  8
LC-001-002-----0
  6
CONTINUOUS
 62
             7
100
AcDbCircle
 10
312.4798750000005
 20
198.49280711234829
 40
3.0
100
AcDbArc
 50
90.0
 51
180.0
  0
ARC
  5
28E
100
AcDbEntity
  8
LC-001-002-----0
  6
CONTINUOUS
 62
             7
100
AcDbCircle
 10
312.4798750000005
 20
206.49280711234829
 40
5.0
100
AcDbArc
 50
-90.0
 51
90.00004000000467
  0
ARC
  5
28D
100
AcDbEntity
  8
LC-001-002-----0
  6
CONTINUOUS
 62
             7
100
AcDbCircle
 10
237.89813799999999
 20
-86.1903548876529
 40
3.53515099999753
100
AcDbArc
 50
149.15562500000235
 51
-149.15562500000235
  0
ARC
  5
28C
100
AcDbEntity
  8
LC-001-002-----0
  6
CONTINUOUS
 62
             7
100
AcDbCircle
 10
237.13283700000059
 20
-75.09027588765308
 40
2.76985899999874
100
AcDbArc
 50
145.03295499995161
 51
-145.03295500001326
  0
ARC
  5
28B
100
AcDbEntity
  8
LC-002-002-RND-0
  6
CONTINUOUS
 62
             7
100
AcDbCircle
 10
262.5534330000005
 20
-93.5029178876524
 40
4.99999999999926
100
AcDbArc
 50
-179.00558099998523
 51
-90.0
  0
ARC
  5
28A
100
AcDbEntity
  8
LC-001-002-----0
  6
CONTINUOUS
 62
             7
100
AcDbCircle
 10
249.721731000001
 20
-80.52777588765308
 40
15.02413599999949
100
AcDbArc
 50
-14.84823599999697
 51
14.84823599999697
  0
ARC
  5
289
100
AcDbEntity
  8
LC-001-002-----0
  6
CONTINUOUS
 62
             7
100
AcDbCircle
 10
261.20903100000169
 20
-86.1903548876529
 40
3.53515100000071
100
AcDbArc
 50
-30.84437499996694
 51
30.84437499996694
  0
ARC
  5
288
100
AcDbEntity
  8
LC-001-002-----0
  6
CONTINUOUS
 62
             7
100
AcDbCircle
 10
261.97433200000108
 20
-75.09027588765308
 40
2.76985899999969
100
AcDbArc
 50
-34.96704499994292
 51
34.96704500000459
  0
ARC
  5
287
100
AcDbEntity
  8
LC-002-002-RND-0
  6
CONTINUOUS
 62
             7
100
AcDbCircle
 10
288.58438100000012
 20
-94.00267288765313
 40
0.5
100
AcDbArc
 50
90.0
 51
180.0
  0
ARC
  5
286
100
AcDbEntity
  8
LC-002-002-RND-0
  6
CONTINUOUS
 62
             7
100
AcDbCircle
 10
287.58438100000012
 20
-98.0029178876524
 40
0.5
100
AcDbArc
 50
-90.0
 51
0.0
  0
ARC
  5
285
100
AcDbEntity
  8
LC-002-002-RND-0
  6
CONTINUOUS
 62
             7
100
AcDbCircle
 10
250.05358400000071
 20
56.74976611234673
 40
0.5
100
AcDbArc
 50
90.0
 51
180.0
  0
ARC
  5
284
100
AcDbEntity
  8
LC-002-002-RND-0
  6
CONTINUOUS
 62
             7
100
AcDbCircle
 10
256.74418100000139
 20
56.74976611234673
 40
0.5
100
AcDbArc
 50
0.0
 51
90.0
  0
ARC
  5
283
100
AcDbEntity
  8
LC-002-002-RND-0
  6
CONTINUOUS
 62
             7
100
AcDbCircle
 10
251.74418100000139
 20
38.74976611234673
 40
0.5
100
AcDbArc
 50
0.0
 51
90.0
  0
ARC
  5
282
100
AcDbEntity
  8
LC-002-002-RND-0
  6
CONTINUOUS
 62
             7
100
AcDbCircle
 10
250.05358400000071
 20
39.74976611234673
 40
0.5
100
AcDbArc
 50
180.0
 51
-90.0
  0
ARC
  5
281
100
AcDbEntity
  8
LC-002-002-RND-0
  6
CONTINUOUS
 62
             7
100
AcDbCircle
 10
256.74418100000139
 20
9.05071611234747
 40
0.5
100
AcDbArc
 50
-90.0
 51
0.0
  0
ARC
  5
280
100
AcDbEntity
  8
LC-002-002-RND-0
  6
CONTINUOUS
 62
             7
100
AcDbCircle
 10
251.74418100000139
 20
-71.25294988765232
 40
0.5
100
AcDbArc
 50
-90.0
 51
0.0
  0
ARC
  5
27F
100
AcDbEntity
  8
LC-002-002-RND-0
  6
CONTINUOUS
 62
             7
100
AcDbCircle
 10
250.05358400000071
 20
-72.25294988765232
 40
0.5
100
AcDbArc
 50
90.0
 51
180.0
  0
ARC
  5
27E
100
AcDbEntity
  8
LC-002-002-RND-0
  6
CONTINUOUS
 62
             7
100
AcDbCircle
 10
250.05358400000071
 20
-89.25294988765232
 40
0.5
100
AcDbArc
 50
180.0
 51
-90.0
  0
ARC
  5
27D
100
AcDbEntity
  8
LC-002-002-RND-0
  6
CONTINUOUS
 62
             7
100
AcDbCircle
 10
256.74418100000139
 20
-48.58096188765408
 40
0.5
100
AcDbArc
 50
0.0
 51
90.0
  0
ARC
  5
27C
100
AcDbEntity
  8
LC-002-002-RND-0
  6
CONTINUOUS
 62
             7
100
AcDbCircle
 10
299.90359300000227
 20
74.49280711234827
 40
0.5
100
AcDbArc
 50
-90.0
 51
0.0
  0
ARC
  5
27B
100
AcDbEntity
  8
LC-002-002-RND-0
  6
CONTINUOUS
 62
             7
100
AcDbCircle
 10
280.90359300000227
 20
74.49280711234827
 40
0.5
100
AcDbArc
 50
180.0
 51
-90.0
  0
ARC
  5
27A
100
AcDbEntity
  8
LC-002-002-RND-0
  6
CONTINUOUS
 62
             7
100
AcDbCircle
 10
407.90359300000227
 20
74.49280711234827
 40
0.5
100
AcDbArc
 50
-90.0
 51
0.0
  0
ARC
  5
279
100
AcDbEntity
  8
LC-002-002-RND-0
  6
CONTINUOUS
 62
             7
100
AcDbCircle
 10
388.90359300000227
 20
74.49280711234827
 40
0.5
100
AcDbArc
 50
180.0
 51
-90.0
  0
ARC
  5
278
100
AcDbEntity
  8
LC-002-002-RND-0
  6
CONTINUOUS
 62
             7
100
AcDbCircle
 10
280.90359300000227
 20
81.49280711234827
 40
0.5
100
AcDbArc
 50
90.0
 51
180.0
  0
ARC
  5
277
100
AcDbEntity
  8
LC-002-002-RND-0
  6
CONTINUOUS
 62
             7
100
AcDbCircle
 10
299.90359300000227
 20
81.49280711234827
 40
0.5
100
AcDbArc
 50
0.0
 51
90.0
  0
ARC
  5
276
100
AcDbEntity
  8
LC-002-002-RND-0
  6
CONTINUOUS
 62
             7
100
AcDbCircle
 10
388.90359300000227
 20
81.49280711234827
 40
0.5
100
AcDbArc
 50
90.0
 51
180.0
  0
ARC
  5
275
100
AcDbEntity
  8
LC-002-002-RND-0
  6
CONTINUOUS
 62
             7
100
AcDbCircle
 10
407.90359300000227
 20
81.49280711234827
 40
0.5
100
AcDbArc
 50
0.0
 51
90.0
  0
ARC
  5
274
100
AcDbEntity
  8
LC-002-002-RND-0
  6
CONTINUOUS
 62
             7
100
AcDbCircle
 10
251.74418100000139
 20
43.24967111234732
 40
0.5
100
AcDbArc
 50
0.0
 51
90.0
  0
ARC
  5
273
100
AcDbEntity
  8
LC-002-002-RND-0
  6
CONTINUOUS
 62
             7
100
AcDbCircle
 10
251.74418100000139
 20
-79.46864388765094
 40
0.5
100
AcDbArc
 50
-90.0
 51
0.0
  0
ARC
  5
272
100
AcDbEntity
  8
LC-002-002-RND-0
  6
CONTINUOUS
 62
             7
100
AcDbCircle
 10
256.99489100000159
 20
-90.25294988765232
 40
0.50000000000111
100
AcDbArc
 50
1.01670199995156
 51
90.0
  0
ARC
  5
271
100
AcDbEntity
  8
LC-002-002-RND-0
  6
CONTINUOUS
 62
             7
100
AcDbCircle
 10
250.05358400000071
 20
44.24967111234732
 40
0.5
100
AcDbArc
 50
180.0
 51
-90.0
  0
ARC
  5
270
100
AcDbEntity
  8
LC-002-002-RND-0
  6
CONTINUOUS
 62
             7
100
AcDbCircle
 10
250.05358400000071
 20
-80.46864388765094
 40
0.5
100
AcDbArc
 50
90.0
 51
180.0
  0
ARC
  5
26F
100
AcDbEntity
  8
LC-001-002-----0
  6
CONTINUOUS
 62
             7
100
AcDbCircle
 10
208.86151300000299
 20
75.4858451123488
 40
61.75632799999731
100
AcDbArc
 50
71.28470100000124
 51
108.72565600000246
  0
ARC
  5
26E
100
AcDbEntity
  8
LC-001-002-----0
  6
CONTINUOUS
 62
             7
100
AcDbCircle
 10
197.92554300000069
 20
151.85588311234611
 40
24.35759899999957
100
AcDbArc
 50
-113.13242599999427
 51
-69.74244699999112
  0
ARC
  5
26D
100
AcDbEntity
  8
LC-001-002-----0
  6
CONTINUOUS
 62
             7
100
AcDbCircle
 10
219.7870940000025
 20
151.8559981123486
 40
24.35759900000247
100
AcDbArc
 50
-110.2575910000038
 51
-66.86761100000283
  0
ARC
  5
26C
100
AcDbEntity
  8
LC-001-002-----0
  6
CONTINUOUS
 62
             7
100
AcDbCircle
 10
228.35614800000209
 20
133.02966011234611
 40
1.0
100
AcDbArc
 50
0.0
 51
71.28469999991256
  0
ARC
  5
26B
100
AcDbEntity
  8
LC-001-002-----0
  6
CONTINUOUS
 62
             7
100
AcDbCircle
 10
219.78965000000201
 20
110.6259161123468
 40
24.35759900000246
100
AcDbArc
 50
66.87414799999915
 51
110.25728700000118
  0
ARC
  5
26A
100
AcDbEntity
  8
LC-001-002-----0
  6
CONTINUOUS
 62
             7
100
AcDbCircle
 10
189.3564750000001
 20
129.4460661123463
 40
1.00000000000021
100
AcDbArc
 50
179.99996299987478
 51
-110.00011399990279
  0
ARC
  5
269
100
AcDbEntity
  8
LC-001-002-----0
  6
CONTINUOUS
 62
             7
100
AcDbCircle
 10
189.35647700000069
 20
133.02613611234631
 40
1.00000000000032
100
AcDbArc
 50
108.72563700002098
 51
179.99996299987643
  0
ARC
  5
268
100
AcDbEntity
  8
LC-001-002-----0
  6
CONTINUOUS
 62
             7
100
AcDbCircle
 10
228.35614800000209
 20
129.44617611234719
 40
1.00000000000113
100
AcDbArc
 50
-69.9998670000633
 51
0.0
  0
ARC
  5
267
100
AcDbEntity
  8
LC-001-002-----0
  6
CONTINUOUS
 62
             7
100
AcDbCircle
 10
197.9229610000034
 20
110.6258011123479
 40
24.35759899999834
100
AcDbArc
 50
69.74267600000702
 51
113.12581500000503
  0
ARC
  5
266
100
AcDbEntity
  8
LC-001-002-----0
  6
CONTINUOUS
 62
             7
100
AcDbCircle
 10
100.861513000003
 20
75.4858451123488
 40
61.75632799999731
100
AcDbArc
 50
71.28470100000124
 51
108.72565600000247
  0
ARC
  5
265
100
AcDbEntity
  8
LC-001-002-----0
  6
CONTINUOUS
 62
             7
100
AcDbCircle
 10
89.92554300000074
 20
151.85588311234611
 40
24.3575989999996
100
AcDbArc
 50
-113.1324259999944
 51
-69.74244699999125
  0
ARC
  5
264
100
AcDbEntity
  8
LC-001-002-----0
  6
CONTINUOUS
 62
             7
100
AcDbCircle
 10
111.7870940000025
 20
151.8559981123486
 40
24.35759900000247
100
AcDbArc
 50
-110.2575910000038
 51
-66.86761100000285
  0
ARC
  5
263
100
AcDbEntity
  8
LC-001-002-----0
  6
CONTINUOUS
 62
             7
100
AcDbCircle
 10
120.35614800000209
 20
133.02966011234611
 40
1.0
100
AcDbArc
 50
0.0
 51
71.28469999991256
  0
ARC
  5
262
100
AcDbEntity
  8
LC-001-002-----0
  6
CONTINUOUS
 62
             7
100
AcDbCircle
 10
111.789650000002
 20
110.6259161123468
 40
24.35759900000105
100
AcDbArc
 50
66.8741480000069
 51
110.25728700000118
  0
ARC
  5
261
100
AcDbEntity
  8
LC-001-002-----0
  6
CONTINUOUS
 62
             7
100
AcDbCircle
 10
81.35647500000368
 20
129.4460661123463
 40
1.00000000000021
100
AcDbArc
 50
179.99996299987478
 51
-110.00011400009866
  0
ARC
  5
260
100
AcDbEntity
  8
LC-001-002-----0
  6
CONTINUOUS
 62
             7
100
AcDbCircle
 10
81.35647700000072
 20
133.02613611234631
 40
1.00000000000034
100
AcDbArc
 50
108.72563700002407
 51
179.99996299987643
  0
ARC
  5
25F
100
AcDbEntity
  8
LC-001-002-----0
  6
CONTINUOUS
 62
             7
100
AcDbCircle
 10
120.35614800000209
 20
129.44617611234719
 40
1.00000000000113
100
AcDbArc
 50
-69.9998670000633
 51
0.0
  0
ARC
  5
25E
100
AcDbEntity
  8
LC-001-002-----0
  6
CONTINUOUS
 62
             7
100
AcDbCircle
 10
89.9229610000034
 20
110.6258011123479
 40
24.35759899999835
100
AcDbArc
 50
69.74267600000695
 51
113.12581500000509
  0
ARC
  5
25D
100
AcDbEntity
  8
LC-002-002-RND-0
  6
CONTINUOUS
 62
             7
100
AcDbCircle
 10
281.00871400000278
 20
89.49280711234827
 40
0.5
100
AcDbArc
 50
90.0
 51
180.0
  0
ARC
  5
25C
100
AcDbEntity
  8
LC-002-002-RND-0
  6
CONTINUOUS
 62
             7
100
AcDbCircle
 10
300.00871400000278
 20
89.49280711234827
 40
0.5
100
AcDbArc
 50
0.0
 51
90.0
  0
ARC
  5
25B
100
AcDbEntity
  8
LC-002-002-RND-0
  6
CONTINUOUS
 62
             7
100
AcDbCircle
 10
281.00871400000278
 20
82.49280711234827
 40
0.5
100
AcDbArc
 50
180.0
 51
-90.0
  0
ARC
  5
25A
100
AcDbEntity
  8
LC-002-002-RND-0
  6
CONTINUOUS
 62
             7
100
AcDbCircle
 10
300.00871400000278
 20
82.49280711234827
 40
0.5
100
AcDbArc
 50
-90.0
 51
0.0
  0
ARC
  5
259
100
AcDbEntity
  8
LC-002-002-RND-0
  6
CONTINUOUS
 62
             7
100
AcDbCircle
 10
389.00887600000311
 20
89.49280711234827
 40
0.5
100
AcDbArc
 50
90.0
 51
180.0
  0
ARC
  5
258
100
AcDbEntity
  8
LC-002-002-RND-0
  6
CONTINUOUS
 62
             7
100
AcDbCircle
 10
408.00887600000311
 20
89.49280711234827
 40
0.5
100
AcDbArc
 50
0.0
 51
90.0
  0
ARC
  5
257
100
AcDbEntity
  8
LC-002-002-RND-0
  6
CONTINUOUS
 62
             7
100
AcDbCircle
 10
389.00887600000311
 20
82.49280711234827
 40
0.5
100
AcDbArc
 50
180.0
 51
-90.0
  0
ARC
  5
256
100
AcDbEntity
  8
LC-002-002-RND-0
  6
CONTINUOUS
 62
             7
100
AcDbCircle
 10
408.00887600000311
 20
82.49280711234827
 40
0.5
100
AcDbArc
 50
-90.0
 51
0.0
  0
ARC
  5
255
100
AcDbEntity
  8
LC-002-002-----0
  6
CONTINUOUS
 62
             7
100
AcDbCircle
 10
216.88137900000169
 20
228.89257761234839
 40
10.0
100
AcDbArc
 50
90.0
 51
180.0
  0
ARC
  5
254
100
AcDbEntity
  8
LC-002-002-----0
  6
CONTINUOUS
 62
             7
100
AcDbCircle
 10
216.88137900000169
 20
228.89257761234839
 40
4.0
100
AcDbArc
 50
90.0
 51
180.0
  0
ARC
  5
253
100
AcDbEntity
  8
LC-002-002-----0
  6
DASHDOT
 62
             2
100
AcDbCircle
 10
216.88137900000169
 20
228.89257761234839
 40
7.0
100
AcDbArc
 50
90.0
 51
180.0
  0
ARC
  5
252
100
AcDbEntity
  8
LC-002-002-----0
  6
CONTINUOUS
 62
             7
100
AcDbCircle
 10
206.88137900000169
 20
225.89257761234839
 40
3.0
100
AcDbArc
 50
90.0
 51
180.0
  0
ARC
  5
251
100
AcDbEntity
  8
LC-002-002-----0
  6
CONTINUOUS
 62
             7
100
AcDbCircle
 10
212.88137900000169
 20
225.89257761234839
 40
3.0
100
AcDbArc
 50
0.0
 51
90.0
  0
ARC
  5
250
100
AcDbEntity
  8
LC-002-002-----0
  6
CONTINUOUS
 62
             7
100
AcDbCircle
 10
209.88137900000169
 20
218.26757761234839
 40
6.62499999999896
100
AcDbArc
 50
58.10920799997127
 51
121.89079200000056
  0
ARC
  5
24F
100
AcDbEntity
  8
LC-002-002-----0
  6
CONTINUOUS
 62
             7
100
AcDbCircle
 10
204.63137900000169
 20
222.86132761234839
 40
2.03124999999856
100
AcDbArc
 50
30.51023699997858
 51
149.48976300002141
  0
ARC
  5
24E
100
AcDbEntity
  8
LC-002-002-----0
  6
CONTINUOUS
 62
             7
100
AcDbCircle
 10
215.13137900000169
 20
222.86132761234839
 40
2.03124999999856
100
AcDbArc
 50
30.51023699997858
 51
149.48976300002141
  0
ARC
  5
24D
100
AcDbEntity
  8
LC-002-002-----0
  6
CONTINUOUS
 62
             7
100
AcDbCircle
 10
228.61433800000259
 20
218.89257761234839
 40
20.0
100
AcDbArc
 50
0.0
 51
90.0
  0
ARC
  5
24C
100
AcDbEntity
  8
LC-002-002-----0
  6
DASHDOT
 62
             2
100
AcDbCircle
 10
228.61433800000259
 20
218.89257761234839
 40
17.0
100
AcDbArc
 50
0.0
 51
90.0
  0
ARC
  5
24B
100
AcDbEntity
  8
LC-002-002-----0
  6
CONTINUOUS
 62
             7
100
AcDbCircle
 10
228.61433800000259
 20
218.89257761234839
 40
14.0
100
AcDbArc
 50
0.0
 51
90.0
  0
ARC
  5
24A
100
AcDbEntity
  8
LC-001-100-D02-0
  6
CONTINUOUS
 62
             7
100
AcDbCircle
 10
247.823278000003
 20
124.702881886578
 40
0.99436699999939
100
AcDbArc
 50
0.0
 51
90.0
  0
ARC
  5
249
100
AcDbEntity
  8
LC-001-100-D02-0
  6
CONTINUOUS
 62
             7
100
AcDbCircle
 10
62.2743860000005
 20
124.7033350900216
 40
0.9943669999993
100
AcDbArc
 50
90.0
 51
180.0
  0
ARC
  5
248
100
AcDbEntity
  8
LC-003-100-D03-0
  6
CONTINUOUS
 62
             7
100
AcDbCircle
 10
8.47050100000001
 20
-67.60631488765226
 40
4.97050100000001
100
AcDbArc
 50
180.0
 51
-92.99999500000064
  0
ARC
  5
247
100
AcDbEntity
  8
LC-003-100-D03-0
  6
CONTINUOUS
 62
             7
100
AcDbCircle
 10
8.47050100000001
 20
67.59921211234764
 40
4.97050099999977
100
AcDbArc
 50
92.99999500000067
 51
180.0
  0
LINE
  5
246
100
AcDbEntity
  8
LC-001-002-----0
  6
CONTINUOUS
 62
             7
100
AcDbLine
 10
61.16102800000181
 20
96.74217311234828
 11
248.51159200000211
 21
96.74217311234828
  0
LINE
  5
245
100
AcDbEntity
  8
LC-001-002-----0
  6
CONTINUOUS
 62
             7
100
AcDbLine
 10
63.66102800000181
 20
111.7421731123483
 11
91.35646300000326
 21
111.7421731123483
  0
LINE
  5
244
100
AcDbEntity
  8
LC-001-002-----0
  6
CONTINUOUS
 62
             7
100
AcDbLine
 10
60.66102800000181
 20
108.7421731123483
 11
60.66102800000181
 21
97.24217311234828
  0
LINE
  5
243
100
AcDbEntity
  8
LC-001-002-----0
  6
CONTINUOUS
 62
             7
100
AcDbLine
 10
249.01159200000211
 20
108.7421731123483
 11
249.01159200000211
 21
97.24217311234828
  0
LINE
  5
242
100
AcDbEntity
  8
LC-001-002-----0
  6
CONTINUOUS
 62
             7
100
AcDbLine
 10
91.3563100000024
 20
104.7421731123483
 11
110.3563100000024
 21
104.7421731123483
  0
LINE
  5
241
100
AcDbEntity
  8
LC-001-002-----0
  6
CONTINUOUS
 62
             7
100
AcDbLine
 10
199.3563100000024
 20
104.7421731123483
 11
218.3563100000024
 21
104.7421731123483
  0
LINE
  5
240
100
AcDbEntity
  8
LC-001-002-----0
  6
CONTINUOUS
 62
             7
100
AcDbLine
 10
110.8563100000024
 20
97.24217311234828
 11
110.8563100000024
 21
104.2421731123483
  0
LINE
  5
23F
100
AcDbEntity
  8
LC-001-002-----0
  6
CONTINUOUS
 62
             7
100
AcDbLine
 10
90.8563100000024
 20
97.24217311234828
 11
90.8563100000024
 21
104.2421731123483
  0
LINE
  5
23E
100
AcDbEntity
  8
LC-001-002-----0
  6
CONTINUOUS
 62
             7
100
AcDbLine
 10
218.8563100000024
 20
97.24217311234828
 11
218.8563100000024
 21
104.2421731123483
  0
LINE
  5
23D
100
AcDbEntity
  8
LC-001-002-----0
  6
CONTINUOUS
 62
             7
100
AcDbLine
 10
198.8563100000024
 20
97.24217311234828
 11
198.8563100000024
 21
104.2421731123483
  0
LINE
  5
23C
100
AcDbEntity
  8
LC-001-002-----0
  6
CONTINUOUS
 62
             7
100
AcDbLine
 10
67.91841200000226
 20
-78.84082388765306
 11
67.71079483351014
 21
-67.19644588765242
  0
LINE
  5
23B
100
AcDbEntity
  8
LC-001-002-----0
  6
CONTINUOUS
 62
             7
100
AcDbLine
 10
99.3527680000002
 20
88.74217311234828
 11
99.3527680000002
 21
63.3094991123486
  0
LINE
  5
23A
100
AcDbEntity
  8
LC-001-002-----0
  6
CONTINUOUS
 62
             7
100
AcDbLine
 10
91.3563100000024
 20
88.74217311234828
 11
110.3563100000024
 21
88.74217311234828
  0
LINE
  5
239
100
AcDbEntity
  8
LC-001-002-----0
  6
CONTINUOUS
 62
             7
100
AcDbLine
 10
199.3563100000024
 20
88.74217311234828
 11
218.3563100000024
 21
88.74217311234828
  0
LINE
  5
238
100
AcDbEntity
  8
LC-001-002-----0
  6
CONTINUOUS
 62
             7
100
AcDbLine
 10
90.8563100000024
 20
96.24217311234828
 11
90.8563100000024
 21
89.24217311234828
  0
LINE
  5
237
100
AcDbEntity
  8
LC-001-002-----0
  6
CONTINUOUS
 62
             7
100
AcDbLine
 10
110.8563100000024
 20
89.24217311234828
 11
110.8563100000024
 21
96.24217311234828
  0
LINE
  5
236
100
AcDbEntity
  8
LC-001-002-----0
  6
CONTINUOUS
 62
             7
100
AcDbLine
 10
270.00888000000077
 20
114.69670011234631
 11
270.00888200000151
 21
118.2767701123463
  0
LINE
  5
235
100
AcDbEntity
  8
LC-001-002-----0
  6
CONTINUOUS
 62
             7
100
AcDbLine
 10
75.50562318272887
 20
125.6977020900209
 11
77.14699200000132
 21
238.38805761234619
  0
LINE
  5
234
100
AcDbEntity
  8
LC-002-002-RND-0
  6
CONTINUOUS
 62
             7
100
AcDbLine
 10
234.8678594249682
 20
125.6972488865773
 11
233.39481900000061
 21
211.39257761234839
  0
LINE
  5
233
100
AcDbEntity
  8
LC-001-002-----0
  6
CONTINUOUS
 62
             7
100
AcDbLine
 10
143.51682700000271
 20
216.39257761234839
 11
228.39481900000061
 21
216.39257761234839
  0
LINE
  5
232
100
AcDbEntity
  8
LC-001-002-----0
  6
CONTINUOUS
 62
             7
100
AcDbLine
 10
74.26976200000308
 20
111.7422821123488
 11
91.35646300000326
 21
111.7422821123488
  0
LINE
  5
231
100
AcDbEntity
  8
LC-001-002-----0
  6
CONTINUOUS
 62
             7
100
AcDbLine
 10
240.76913400000149
 20
111.7422821123488
 11
248.51876300000319
 21
111.7422821123488
  0
LINE
  5
230
100
AcDbEntity
  8
LC-001-002-----0
  6
CONTINUOUS
 62
             7
100
AcDbLine
 10
61.47914900000205
 20
111.7422821123488
 11
74.26976200000308
 21
111.7422821123488
  0
LINE
  5
22F
100
AcDbEntity
  8
LC-001-002-----0
  6
CONTINUOUS
 62
             7
100
AcDbLine
 10
60.97914900000205
 20
112.2422821123488
 11
60.97914900000205
 21
117.2422821123488
  0
LINE
  5
22E
100
AcDbEntity
  8
LC-001-002-----0
  6
CONTINUOUS
 62
             7
100
AcDbLine
 10
61.47914900000205
 20
117.7422821123488
 11
91.35646700000098
 21
117.7422821123488
  0
LINE
  5
22D
100
AcDbEntity
  8
LC-001-002-----0
  6
CONTINUOUS
 62
             7
100
AcDbLine
 10
248.5197130000011
 20
117.7422821123488
 11
235.98777924956039
 21
117.7422821123488
  0
LINE
  5
22C
100
AcDbEntity
  8
LC-001-002-----0
  6
CONTINUOUS
 62
             7
100
AcDbLine
 10
249.01876300000319
 20
112.2422821123488
 11
249.01876300000319
 21
117.2422821123488
  0
LINE
  5
22B
100
AcDbEntity
  8
LC-001-002-----0
  6
CONTINUOUS
 62
             7
100
AcDbLine
 10
82.14699200000132
 20
243.38805761234619
 11
133.51682700000271
 21
243.38805761234619
  0
LINE
  5
22A
100
AcDbEntity
  8
LC-001-002-----0
  6
CONTINUOUS
 62
             7
100
AcDbLine
 10
98.00375500000109
 20
243.88805761234619
 11
98.00375500000109
 21
252.9952626123501
  0
LINE
  5
229
100
AcDbEntity
  8
LC-001-002-----0
  6
CONTINUOUS
 62
             7
100
AcDbLine
 10
98.50375500000109
 20
253.49526261234641
 11
124.50375500000111
 21
253.49526261234641
  0
LINE
  5
228
100
AcDbEntity
  8
LC-001-002-----0
  6
CONTINUOUS
 62
             7
100
AcDbLine
 10
125.00375500000111
 20
243.88805761234619
 11
125.00375500000111
 21
252.9952626123501
  0
LINE
  5
227
100
AcDbEntity
  8
LC-001-002-----0
  6
CONTINUOUS
 62
             7
100
AcDbLine
 10
138.51682700000271
 20
221.39257761234839
 11
138.51682700000271
 21
238.38805761234619
  0
LINE
  5
226
100
AcDbEntity
  8
LC-001-002-----0
  6
CONTINUOUS
 62
             7
100
AcDbLine
 10
293.00887900000038
 20
114.2569931123486
 11
288.02922100000018
 21
114.256996112346
  0
LINE
  5
225
100
AcDbEntity
  8
LC-001-002-----0
  6
CONTINUOUS
 62
             7
100
AcDbLine
 10
288.00887900000038
 20
114.256996112346
 11
288.00888200000151
 21
118.7274401123483
  0
LINE
  5
224
100
AcDbEntity
  8
LC-001-002-----0
  6
CONTINUOUS
 62
             7
100
AcDbLine
 10
293.00888200000151
 20
118.72743611234699
 11
288.00888200000151
 21
118.7274401123483
  0
LINE
  5
223
100
AcDbEntity
  8
LC-001-002-----0
  6
CONTINUOUS
 62
             7
100
AcDbLine
 10
293.00887900000038
 20
114.2569931123486
 11
293.00888200000151
 21
118.72743611234699
  0
LINE
  5
222
100
AcDbEntity
  8
LC-001-002-----0
  6
CONTINUOUS
 62
             7
100
AcDbLine
 10
300.00855300000291
 20
109.99292911234591
 11
310.3505730000029
 21
113.7571171123469
  0
LINE
  5
221
100
AcDbEntity
  8
LC-001-002-----0
  6
CONTINUOUS
 62
             7
100
AcDbLine
 10
300.00855300000291
 20
109.99292911234591
 11
290.50855300000291
 21
109.99292911234591
  0
LINE
  5
220
100
AcDbEntity
  8
LC-001-002-----0
  6
CONTINUOUS
 62
             7
100
AcDbLine
 10
250.84988000000109
 20
81.99280711234827
 11
438.16044400000061
 21
81.99280711234827
  0
LINE
  5
21F
100
AcDbEntity
  8
LC-001-002-----0
  6
CONTINUOUS
 62
             7
100
AcDbLine
 10
257.24418100000139
 20
39.74976611234673
 11
257.24418100000139
 21
56.74976611234673
  0
LINE
  5
21E
100
AcDbEntity
  8
LC-001-002-----0
  6
CONTINUOUS
 62
             7
100
AcDbLine
 10
281.00887600000311
 20
109.9928131123467
 11
270.66685900000039
 21
113.7570071123461
  0
LINE
  5
21D
100
AcDbEntity
  8
LC-001-002-----0
  6
CONTINUOUS
 62
             7
100
AcDbLine
 10
281.00887600000311
 20
109.9928131123467
 11
290.50887600000311
 21
109.9928071123483
  0
LINE
  5
21C
100
AcDbEntity
  8
LC-001-002-----0
  6
CONTINUOUS
 62
             7
100
AcDbLine
 10
281.00886300000229
 20
89.99281311234667
 11
281.00887600000311
 21
109.9928131123467
  0
LINE
  5
21B
100
AcDbEntity
  8
LC-001-002-----0
  6
CONTINUOUS
 62
             7
100
AcDbLine
 10
300.00855300000291
 20
89.99280111234624
 11
300.00855300000291
 21
109.99292911234591
  0
LINE
  5
21A
100
AcDbEntity
  8
LC-001-002-----0
  6
CONTINUOUS
 62
             7
100
AcDbLine
 10
281.00903800000327
 20
81.99281311234667
 11
300.00871400000278
 21
81.99280111234624
  0
LINE
  5
219
100
AcDbEntity
  8
LC-001-002-----0
  6
CONTINUOUS
 62
             7
100
AcDbLine
 10
300.00855300000291
 20
103.9928071123483
 11
312.4798750000005
 21
103.9928071123483
  0
LINE
  5
218
100
AcDbEntity
  8
LC-001-002-----0
  6
CONTINUOUS
 62
             7
100
AcDbLine
 10
311.00855300000291
 20
114.6968091123469
 11
311.00855300000291
 21
118.2802941123461
  0
LINE
  5
217
100
AcDbEntity
  8
LC-001-002-----0
  6
CONTINUOUS
 62
             7
100
AcDbLine
 10
313.07987500000257
 20
103.9928071123483
 11
312.4798750000005
 21
103.9928071123483
  0
LINE
  5
216
100
AcDbEntity
  8
LC-001-002-----0
  6
CONTINUOUS
 62
             7
100
AcDbLine
 10
313.57987500000257
 20
103.4928071123483
 11
313.57987500000257
 21
97.99280711234827
  0
LINE
  5
215
100
AcDbEntity
  8
LC-001-002-----0
  6
CONTINUOUS
 62
             7
100
AcDbLine
 10
314.57987500000257
 20
96.99280711234827
 11
389.00903500000231
 21
96.99280711234827
  0
LINE
  5
214
100
AcDbEntity
  8
LC-001-002-----0
  6
DASHDOT
 62
             2
100
AcDbLine
 10
302.9798750000005
 20
202.99280711234829
 11
302.9798750000005
 21
96.99280711234827
  0
LINE
  5
213
100
AcDbEntity
  8
LC-001-002-----0
  6
CONTINUOUS
 62
             7
100
AcDbLine
 10
250.34988000000109
 20
93.99280711234827
 11
250.34988000000109
 21
82.49280711234827
  0
LINE
  5
212
100
AcDbEntity
  8
LC-001-002-----0
  6
CONTINUOUS
 62
             7
100
AcDbLine
 10
438.66044400000061
 20
93.99280711234827
 11
438.66044400000061
 21
82.49280711234827
  0
LINE
  5
211
100
AcDbEntity
  8
LC-001-002-----0
  6
CONTINUOUS
 62
             7
100
AcDbLine
 10
378.00904100000071
 20
114.69670011234631
 11
378.00904400000172
 21
118.2767701123463
  0
LINE
  5
210
100
AcDbEntity
  8
LC-001-002-----0
  6
CONTINUOUS
 62
             7
100
AcDbLine
 10
253.34988000000109
 20
96.99280711234827
 11
281.00903500000231
 21
96.99280711234827
  0
LINE
  5
20F
100
AcDbEntity
  8
LC-001-002-----0
  6
CONTINUOUS
 62
             7
100
AcDbLine
 10
401.00904100000071
 20
114.2569931123486
 11
396.02938300000051
 21
114.256996112346
  0
LINE
  5
20E
100
AcDbEntity
  8
LC-001-002-----0
  6
CONTINUOUS
 62
             7
100
AcDbLine
 10
396.00904100000071
 20
114.256996112346
 11
396.00904400000172
 21
118.7274401123483
  0
LINE
  5
20D
100
AcDbEntity
  8
LC-001-002-----0
  6
CONTINUOUS
 62
             7
100
AcDbLine
 10
306.9798750000005
 20
202.99280711234829
 11
298.9798750000005
 21
202.99280711234829
  0
LINE
  5
20C
100
AcDbEntity
  8
LC-001-002-----0
  6
CONTINUOUS
 62
             7
100
AcDbLine
 10
198.8563100000024
 20
96.24217311234828
 11
198.8563100000024
 21
89.24217311234828
  0
LINE
  5
20B
100
AcDbEntity
  8
LC-001-002-----0
  6
CONTINUOUS
 62
             7
100
AcDbLine
 10
218.8563100000024
 20
89.24217311234828
 11
218.8563100000024
 21
96.24217311234828
  0
LINE
  5
20A
100
AcDbEntity
  8
LC-001-002-----0
  6
CONTINUOUS
 62
             7
100
AcDbLine
 10
102.3527680000002
 20
88.74217311234828
 11
102.3527680000002
 21
63.3094991123486
  0
LINE
  5
209
100
AcDbEntity
  8
LC-001-002-----0
  6
CONTINUOUS
 62
             7
100
AcDbLine
 10
210.3527680000002
 20
88.74217311234828
 11
210.3527680000002
 21
63.3094991123486
  0
LINE
  5
208
100
AcDbEntity
  8
LC-001-002-----0
  6
CONTINUOUS
 62
             7
100
AcDbLine
 10
298.9798750000005
 20
202.99280711234829
 11
298.9798750000005
 21
200.99280711234829
  0
LINE
  5
207
100
AcDbEntity
  8
LC-001-002-----0
  6
CONTINUOUS
 62
             7
100
AcDbLine
 10
207.3527680000002
 20
88.74217311234828
 11
207.3527680000002
 21
63.3094991123486
  0
LINE
  5
206
100
AcDbEntity
  8
LC-001-002-----0
  6
CONTINUOUS
 62
             7
100
AcDbLine
 10
99.3527680000002
 20
63.3094991123486
 11
102.3527680000002
 21
63.3094991123486
  0
LINE
  5
205
100
AcDbEntity
  8
LC-001-002-----0
  6
CONTINUOUS
 62
             7
100
AcDbLine
 10
210.3527680000002
 20
63.3094991123486
 11
207.3527680000002
 21
63.3094991123486
  0
LINE
  5
204
100
AcDbEntity
  8
LC-001-002-----0
  6
CONTINUOUS
 62
             7
100
AcDbLine
 10
309.4798750000005
 20
200.99280711234829
 11
295.4798750000005
 21
200.99280711234829
  0
LINE
  5
203
100
AcDbEntity
  8
LC-001-002-----0
  6
CONTINUOUS
 62
             7
100
AcDbLine
 10
295.4798750000005
 20
200.99280711234829
 11
295.4798750000005
 21
122.292822112349
  0
LINE
  5
202
100
AcDbEntity
  8
LC-001-002-----0
  6
CONTINUOUS
 62
             7
100
AcDbLine
 10
98.93551800000159
 20
-78.75330688765313
 11
234.36298800000031
 21
-78.75330688765313
  0
LINE
  5
201
100
AcDbEntity
  8
LC-001-002-----0
  6
CONTINUOUS
 62
             7
100
AcDbLine
 10
72.91821500000106
 20
-83.75355188765239
 11
97.93551800000159
 21
-83.75355188765239
  0
LINE
  5
200
100
AcDbEntity
  8
LC-001-002-----0
  6
CONTINUOUS
 62
             7
100
AcDbLine
 10
98.43551800000159
 20
-0.88631188765281
 11
98.43551800000159
 21
-83.25355188765239
  0
LINE
  5
1FF
100
AcDbEntity
  8
LC-001-002-----0
  6
CONTINUOUS
 62
             7
100
AcDbLine
 10
241.86298800000031
 20
-32.38484088765323
 11
241.86298800000031
 21
-89.2528548876529
  0
LINE
  5
1FE
100
AcDbEntity
  8
LC-001-002-----0
  6
CONTINUOUS
 62
             7
100
AcDbLine
 10
242.36298800000031
 20
-89.7528548876529
 11
249.05358400000071
 21
-89.7528548876529
  0
LINE
  5
1FD
100
AcDbEntity
  8
LC-001-002-----0
  6
CONTINUOUS
 62
             7
100
AcDbLine
 10
242.36298800000031
 20
57.24976611234673
 11
249.05358400000071
 21
57.24976611234673
  0
LINE
  5
1FC
100
AcDbEntity
  8
LC-001-002-----0
  6
CONTINUOUS
 62
             7
100
AcDbLine
 10
247.36298800000031
 20
39.24976611234673
 11
249.05358400000071
 21
39.24976611234673
  0
LINE
  5
1FB
100
AcDbEntity
  8
LC-001-002-----0
  6
CONTINUOUS
 62
             7
100
AcDbLine
 10
244.17678900000061
 20
57.75846311234785
 11
244.85496999999989
 21
96.74217311234828
  0
LINE
  5
1FA
100
AcDbEntity
  8
LC-001-002-----0
  6
CONTINUOUS
 62
             7
100
AcDbLine
 10
246.86298800000031
 20
7.4461811123489
 11
242.36298800000031
 21
7.4461811123489
  0
LINE
  5
1F9
100
AcDbEntity
  8
LC-001-002-----0
  6
CONTINUOUS
 62
             7
100
AcDbLine
 10
241.86298800000031
 20
7.9461811123489
 11
241.86298800000031
 21
56.74976611234673
  0
LINE
  5
1F8
100
AcDbEntity
  8
LC-001-002-----0
  6
CONTINUOUS
 62
             7
100
AcDbLine
 10
246.86298800000031
 20
-31.88484088765323
 11
242.36298800000031
 21
-31.88484088765323
  0
LINE
  5
1F7
100
AcDbEntity
  8
LC-001-002-----0
  6
CONTINUOUS
 62
             7
100
AcDbLine
 10
246.86298800000031
 20
-31.88484088765323
 11
246.86298800000031
 21
-79.46854888765152
  0
LINE
  5
1F6
100
AcDbEntity
  8
LC-001-002-----0
  6
CONTINUOUS
 62
             7
100
AcDbLine
 10
246.86298800000031
 20
43.24967111234732
 11
246.86298800000031
 21
-31.88484088765323
  0
LINE
  5
1F5
100
AcDbEntity
  8
LC-001-002-----0
  6
CONTINUOUS
 62
             7
100
AcDbLine
 10
259.24418100000139
 20
39.74976611234673
 11
259.24418100000139
 21
56.74976611234673
  0
LINE
  5
1F4
100
AcDbEntity
  8
LC-001-002-----0
  6
CONTINUOUS
 62
             7
100
AcDbLine
 10
249.55358400000071
 20
39.74976611234673
 11
249.55358400000071
 21
56.74976611234673
  0
LINE
  5
1F3
100
AcDbEntity
  8
LC-001-002-----0
  6
CONTINUOUS
 62
             7
100
AcDbLine
 10
249.55358400000071
 20
-72.2528548876529
 11
249.55358400000071
 21
-89.2528548876529
  0
LINE
  5
1F2
100
AcDbEntity
  8
LC-001-002-----0
  6
CONTINUOUS
 62
             7
100
AcDbLine
 10
247.36298800000031
 20
-71.7528548876529
 11
249.05358400000071
 21
-71.7528548876529
  0
LINE
  5
1F1
100
AcDbEntity
  8
LC-001-002-----0
  6
CONTINUOUS
 62
             7
100
AcDbLine
 10
247.36298800000031
 20
43.74967111234732
 11
249.05358400000071
 21
43.74967111234732
  0
LINE
  5
1F0
100
AcDbEntity
  8
LC-001-002-----0
  6
CONTINUOUS
 62
             7
100
AcDbLine
 10
247.36298800000031
 20
-79.96854888765152
 11
249.05358400000071
 21
-79.96854888765152
  0
LINE
  5
1EF
100
AcDbEntity
  8
LC-008-007-KH--0
  6
DASHDOT
 62
             7
100
AcDbLine
 10
249.55358400000071
 20
-79.96854888765152
 11
249.55358400000071
 21
-80.12854888765138
  0
LINE
  5
1EE
100
AcDbEntity
  8
LC-001-002-----0
  6
DASHDOT
 62
             2
100
AcDbLine
 10
234.36298800000031
 20
48.24976611234673
 11
264.74418100000139
 21
48.24976611234673
  0
LINE
  5
1ED
100
AcDbEntity
  8
LC-001-002-----0
  6
CONTINUOUS
 62
             7
100
AcDbLine
 10
306.9798750000005
 20
200.99280711234829
 11
306.9798750000005
 21
202.99280711234829
  0
LINE
  5
1EC
100
AcDbEntity
  8
LC-001-002-----0
  6
DASHED
 62
             2
100
AcDbLine
 10
298.9798750000005
 20
121.9097711123483
 11
298.9798750000005
 21
200.99280711234829
  0
LINE
  5
1EB
100
AcDbEntity
  8
LC-001-002-----0
  6
DASHED
 62
             2
100
AcDbLine
 10
306.9798750000005
 20
120.25720111234629
 11
306.9798750000005
 21
200.99280711234829
  0
LINE
  5
1EA
100
AcDbEntity
  8
LC-001-002-----0
  6
CONTINUOUS
 62
             7
100
AcDbLine
 10
309.4798750000005
 20
202.99280711234829
 11
306.9798750000005
 21
202.99280711234829
  0
LINE
  5
1E9
100
AcDbEntity
  8
LC-001-002-----0
  6
CONTINUOUS
 62
             7
100
AcDbLine
 10
287.9798750000005
 20
221.49280711234829
 11
306.4798750000005
 21
221.49280711234829
  0
LINE
  5
1E8
100
AcDbEntity
  8
LC-001-002-----0
  6
CONTINUOUS
 62
             7
100
AcDbLine
 10
296.9798750000005
 20
202.99280711234829
 11
298.9798750000005
 21
202.99280711234829
  0
LINE
  5
1E7
100
AcDbEntity
  8
LC-001-002-----0
  6
CONTINUOUS
 62
             7
100
AcDbLine
 10
294.9798750000005
 20
200.99280711234829
 11
294.9798750000005
 21
185.99280711234829
  0
LINE
  5
1E6
100
AcDbEntity
  8
LC-001-002-----0
  6
CONTINUOUS
 62
             7
100
AcDbLine
 10
292.9798750000005
 20
183.99280711234829
 11
286.9798750000005
 21
183.99280711234829
  0
LINE
  5
1E5
100
AcDbEntity
  8
LC-001-002-----0
  6
CONTINUOUS
 62
             7
100
AcDbLine
 10
284.9798750000005
 20
185.99280711234829
 11
284.9798750000005
 21
218.49280711234829
  0
LINE
  5
1E4
100
AcDbEntity
  8
LC-001-002-----0
  6
CONTINUOUS
 62
             7
100
AcDbLine
 10
313.9798750000005
 20
203.89473111234619
 11
314.9798750000005
 21
202.1626801123472
  0
LINE
  5
1E3
100
AcDbEntity
  8
LC-001-002-----0
  6
CONTINUOUS
 62
             7
100
AcDbLine
 10
309.4798750000005
 20
206.49280711234829
 11
309.4798750000005
 21
202.99280711234829
  0
LINE
  5
1E2
100
AcDbEntity
  8
LC-001-002-----0
  6
CONTINUOUS
 62
             7
100
AcDbLine
 10
401.00904400000172
 20
118.72743611234699
 11
396.00904400000172
 21
118.7274401123483
  0
LINE
  5
1E1
100
AcDbEntity
  8
LC-001-002-----0
  6
CONTINUOUS
 62
             7
100
AcDbLine
 10
401.00904100000071
 20
114.2569931123486
 11
401.00904400000172
 21
118.72743611234699
  0
LINE
  5
1E0
100
AcDbEntity
  8
LC-001-002-----0
  6
CONTINUOUS
 62
             7
100
AcDbLine
 10
408.00871400000278
 20
109.99292911234591
 11
418.35073500000323
 21
113.7571171123469
  0
LINE
  5
1DF
100
AcDbEntity
  8
LC-001-002-----0
  6
CONTINUOUS
 62
             7
100
AcDbLine
 10
408.00871400000278
 20
109.99292911234591
 11
398.50871400000278
 21
109.99292911234591
  0
LINE
  5
1DE
100
AcDbEntity
  8
LC-001-002-----0
  6
CONTINUOUS
 62
             7
100
AcDbLine
 10
389.00903800000327
 20
109.9928131123467
 11
378.66702100000072
 21
113.7570071123461
  0
LINE
  5
1DD
100
AcDbEntity
  8
LC-001-002-----0
  6
CONTINUOUS
 62
             7
100
AcDbLine
 10
389.00903800000327
 20
109.9928131123467
 11
398.50903800000327
 21
109.9928071123483
  0
LINE
  5
1DC
100
AcDbEntity
  8
LC-001-002-----0
  6
CONTINUOUS
 62
             7
100
AcDbLine
 10
389.00902500000262
 20
89.99281311234667
 11
389.00903800000327
 21
109.9928131123467
  0
LINE
  5
1DB
100
AcDbEntity
  8
LC-001-002-----0
  6
CONTINUOUS
 62
             7
100
AcDbLine
 10
408.00871400000278
 20
89.99280111234624
 11
408.00871400000278
 21
109.99292911234591
  0
LINE
  5
1DA
100
AcDbEntity
  8
LC-001-002-----0
  6
CONTINUOUS
 62
             7
100
AcDbLine
 10
389.00903800000327
 20
81.99281311234667
 11
408.00871400000278
 21
81.99280111234624
  0
LINE
  5
1D9
100
AcDbEntity
  8
LC-001-002-----0
  6
CONTINUOUS
 62
             7
100
AcDbLine
 10
419.00871400000278
 20
114.6968091123469
 11
419.00871400000278
 21
118.2802941123461
  0
LINE
  5
1D8
100
AcDbEntity
  8
LC-001-002-----0
  6
DASHDOT
 62
             2
100
AcDbLine
 10
312.47987600000079
 20
209.49280711234829
 11
312.47987600000079
 21
203.99280711234829
  0
LINE
  5
1D7
100
AcDbEntity
  8
LC-001-002-----0
  6
CONTINUOUS
 62
             7
100
AcDbLine
 10
254.93597100000221
 20
57.24976611234673
 11
254.50649100000331
 21
81.99280711234827
  0
LINE
  5
1D6
100
AcDbEntity
  8
LC-001-002-----0
  6
CONTINUOUS
 62
             7
100
AcDbLine
 10
408.00871400000278
 20
96.99280711234827
 11
435.59044400000079
 21
96.99280711234827
  0
LINE
  5
1D5
100
AcDbEntity
  8
LC-001-002-----0
  6
CONTINUOUS
 62
             7
100
AcDbLine
 10
300.00871400000278
 20
96.99280711234827
 11
314.57987500000257
 21
96.99280711234827
  0
LINE
  5
1D4
100
AcDbEntity
  8
LC-001-002-----0
  6
CONTINUOUS
 62
             7
100
AcDbLine
 10
259.24418100000139
 20
43.24976611234673
 11
257.24418100000139
 21
43.24976611234673
  0
LINE
  5
1D3
100
AcDbEntity
  8
LC-001-002-----0
  6
CONTINUOUS
 62
             7
100
AcDbLine
 10
241.86298800000031
 20
39.74976611234673
 11
241.86298800000031
 21
56.74976611234673
  0
LINE
  5
1D2
100
AcDbEntity
  8
LC-001-002-----0
  6
CONTINUOUS
 62
             7
100
AcDbLine
 10
239.86298800000031
 20
39.74976611234673
 11
239.86298800000031
 21
56.74976611234673
  0
LINE
  5
1D1
100
AcDbEntity
  8
LC-001-002-----0
  6
CONTINUOUS
 62
             7
100
AcDbLine
 10
239.86298800000031
 20
43.24976611234673
 11
241.86298800000031
 21
43.24976611234673
  0
LINE
  5
1D0
100
AcDbEntity
  8
LC-001-002-----0
  6
CONTINUOUS
 62
             7
100
AcDbLine
 10
239.86298800000031
 20
53.24976611234673
 11
241.86298800000031
 21
53.24976611234673
  0
LINE
  5
1CF
100
AcDbEntity
  8
LC-001-002-----0
  6
CONTINUOUS
 62
             7
100
AcDbLine
 10
234.36298800000031
 20
40.99976611234673
 11
234.36298800000031
 21
55.49976611234673
  0
LINE
  5
1CE
100
AcDbEntity
  8
LC-001-002-----0
  6
CONTINUOUS
 62
             7
100
AcDbLine
 10
259.24418100000139
 20
53.24976611234673
 11
257.24418100000139
 21
53.24976611234673
  0
LINE
  5
1CD
100
AcDbEntity
  8
LC-001-002-----0
  6
CONTINUOUS
 62
             7
100
AcDbLine
 10
234.36298800000031
 20
40.99976611234673
 11
239.86298800000031
 21
40.99976611234673
  0
LINE
  5
1CC
100
AcDbEntity
  8
LC-001-002-----0
  6
CONTINUOUS
 62
             7
100
AcDbLine
 10
234.86298800000031
 20
44.62476611234673
 11
239.86298800000031
 21
44.62476611234673
  0
LINE
  5
1CB
100
AcDbEntity
  8
LC-001-002-----0
  6
DASHDOT
 62
             2
100
AcDbLine
 10
309.4798750000005
 20
206.49280711234829
 11
315.4798750000005
 21
206.49280711234829
  0
LINE
  5
1CA
100
AcDbEntity
  8
LC-001-002-----0
  6
CONTINUOUS
 62
             7
100
AcDbLine
 10
234.86298800000031
 20
52.32492511234672
 11
239.86298800000031
 21
52.32492511234672
  0
LINE
  5
1C9
100
AcDbEntity
  8
LC-001-002-----0
  6
CONTINUOUS
 62
             7
100
AcDbLine
 10
309.4798750000005
 20
218.49280711234829
 11
309.4798750000005
 21
214.49280711234829
  0
LINE
  5
1C8
100
AcDbEntity
  8
LC-001-002-----0
  6
CONTINUOUS
 62
             7
100
AcDbLine
 10
264.74418100000139
 20
40.99976611234673
 11
264.74418100000139
 21
55.49976611234673
  0
LINE
  5
1C7
100
AcDbEntity
  8
LC-001-002-----0
  6
CONTINUOUS
 62
             7
100
AcDbLine
 10
234.36298800000031
 20
55.49976611234673
 11
239.86298800000031
 21
55.49976611234673
  0
LINE
  5
1C6
100
AcDbEntity
  8
LC-001-002-----0
  6
CONTINUOUS
 62
             7
100
AcDbLine
 10
264.74418100000139
 20
40.99976611234673
 11
259.24418100000139
 21
40.99976611234673
  0
LINE
  5
1C5
100
AcDbEntity
  8
LC-001-002-----0
  6
CONTINUOUS
 62
             7
100
AcDbLine
 10
239.86298800000031
 20
39.74976611234673
 11
241.86298800000031
 21
39.74976611234673
  0
LINE
  5
1C4
100
AcDbEntity
  8
LC-001-002-----0
  6
CONTINUOUS
 62
             7
100
AcDbLine
 10
312.4798750000005
 20
211.49280711234829
 11
312.4798750000005
 21
211.49280711234829
  0
LINE
  5
1C3
100
AcDbEntity
  8
LC-001-002-----0
  6
CONTINUOUS
 62
             7
100
AcDbLine
 10
264.24418100000139
 20
44.62476611234673
 11
259.24418100000139
 21
44.62476611234673
  0
LINE
  5
1C2
100
AcDbEntity
  8
LC-001-002-----0
  6
CONTINUOUS
 62
             7
100
AcDbLine
 10
309.4798750000005
 20
103.9928071123483
 11
309.4798750000005
 21
113.4402091123462
  0
LINE
  5
1C1
100
AcDbEntity
  8
LC-001-002-----0
  6
CONTINUOUS
 62
             7
100
AcDbLine
 10
264.24418100000139
 20
52.32492511234672
 11
259.24418100000139
 21
52.32492511234672
  0
LINE
  5
1C0
100
AcDbEntity
  8
LC-001-002-----0
  6
CONTINUOUS
 62
             7
100
AcDbLine
 10
264.74418100000139
 20
55.49976611234673
 11
259.24418100000139
 21
55.49976611234673
  0
LINE
  5
1BF
100
AcDbEntity
  8
LC-001-002-----0
  6
CONTINUOUS
 62
             7
100
AcDbLine
 10
259.24418100000139
 20
39.74976611234673
 11
257.24418100000139
 21
39.74976611234673
  0
LINE
  5
1BE
100
AcDbEntity
  8
LC-001-002-----0
  6
CONTINUOUS
 62
             7
100
AcDbLine
 10
259.24418100000139
 20
56.74976611234673
 11
257.24418100000139
 21
56.74976611234673
  0
LINE
  5
1BD
100
AcDbEntity
  8
LC-001-002-----0
  6
CONTINUOUS
 62
             7
100
AcDbLine
 10
239.86298800000031
 20
56.74976611234673
 11
241.86298800000031
 21
56.74976611234673
  0
LINE
  5
1BC
100
AcDbEntity
  8
LC-001-002-----0
  6
CONTINUOUS
 62
             7
100
AcDbLine
 10
241.86298800000031
 20
-89.2528548876529
 11
241.86298800000031
 21
-72.2528548876529
  0
LINE
  5
1BB
100
AcDbEntity
  8
LC-001-002-----0
  6
CONTINUOUS
 62
             7
100
AcDbLine
 10
239.86298800000031
 20
-89.2528548876529
 11
239.86298800000031
 21
-72.2528548876529
  0
LINE
  5
1BA
100
AcDbEntity
  8
LC-001-002-----0
  6
CONTINUOUS
 62
             7
100
AcDbLine
 10
239.86298800000031
 20
-85.7528548876529
 11
241.86298800000031
 21
-85.7528548876529
  0
LINE
  5
1B9
100
AcDbEntity
  8
LC-001-002-----0
  6
CONTINUOUS
 62
             7
100
AcDbLine
 10
239.86298800000031
 20
-75.7528548876529
 11
241.86298800000031
 21
-75.7528548876529
  0
LINE
  5
1B8
100
AcDbEntity
  8
LC-001-002-----0
  6
CONTINUOUS
 62
             7
100
AcDbLine
 10
234.36298800000031
 20
-88.0028548876529
 11
234.36298800000031
 21
-73.5028548876529
  0
LINE
  5
1B7
100
AcDbEntity
  8
LC-001-002-----0
  6
CONTINUOUS
 62
             7
100
AcDbLine
 10
234.36298800000031
 20
-88.0028548876529
 11
239.86298800000031
 21
-88.0028548876529
  0
LINE
  5
1B6
100
AcDbEntity
  8
LC-001-002-----0
  6
CONTINUOUS
 62
             7
100
AcDbLine
 10
234.86298800000031
 20
-84.3778548876529
 11
239.86298800000031
 21
-84.3778548876529
  0
LINE
  5
1B5
100
AcDbEntity
  8
LC-001-002-----0
  6
CONTINUOUS
 62
             7
100
AcDbLine
 10
234.86298800000031
 20
-76.67769688765326
 11
239.86298800000031
 21
-76.67769688765326
  0
LINE
  5
1B4
100
AcDbEntity
  8
LC-001-002-----0
  6
CONTINUOUS
 62
             7
100
AcDbLine
 10
257.24418100000139
 20
-89.2528548876529
 11
257.24418100000139
 21
-72.2528548876529
  0
LINE
  5
1B3
100
AcDbEntity
  8
LC-001-002-----0
  6
CONTINUOUS
 62
             7
100
AcDbLine
 10
259.24418100000139
 20
-89.2528548876529
 11
259.24418100000139
 21
-72.2528548876529
  0
LINE
  5
1B2
100
AcDbEntity
  8
LC-001-002-----0
  6
CONTINUOUS
 62
             7
100
AcDbLine
 10
234.36298800000031
 20
-73.5028548876529
 11
239.86298800000031
 21
-73.5028548876529
  0
LINE
  5
1B1
100
AcDbEntity
  8
LC-001-002-----0
  6
CONTINUOUS
 62
             7
100
AcDbLine
 10
239.86298800000031
 20
-89.2528548876529
 11
241.86298800000031
 21
-89.2528548876529
  0
LINE
  5
1B0
100
AcDbEntity
  8
LC-001-002-----0
  6
CONTINUOUS
 62
             7
100
AcDbLine
 10
249.55358400000071
 20
39.74976611234673
 11
249.55358400000071
 21
56.74976611234673
  0
LINE
  5
1AF
100
AcDbEntity
  8
LC-001-002-----0
  6
CONTINUOUS
 62
             7
100
AcDbLine
 10
254.50649100000331
 20
81.99280711234827
 11
434.50383300000198
 21
81.99280711234827
  0
LINE
  5
1AE
100
AcDbEntity
  8
LC-001-002-----0
  6
CONTINUOUS
 62
             7
100
AcDbLine
 10
499.4989389999979
 20
31.49588511234772
 11
499.4989389999979
 21
-93.50295588765435
  0
LINE
  5
1AD
100
AcDbEntity
  8
LC-001-002-----0
  6
CONTINUOUS
 62
             7
100
AcDbLine
 10
289.00517300000092
 20
73.99280711234827
 11
289.00517300000092
 21
49.86535511234764
  0
LINE
  5
1AC
100
AcDbEntity
  8
LC-001-002-----0
  6
CONTINUOUS
 62
             7
100
AcDbLine
 10
280.90359300000227
 20
73.99280711234827
 11
299.90359300000227
 21
73.99280711234827
  0
LINE
  5
1AB
100
AcDbEntity
  8
LC-001-002-----0
  6
CONTINUOUS
 62
             7
100
AcDbLine
 10
388.90359300000227
 20
73.99280711234827
 11
407.90359300000227
 21
73.99280711234827
  0
LINE
  5
1AA
100
AcDbEntity
  8
LC-001-002-----0
  6
CONTINUOUS
 62
             7
100
AcDbLine
 10
280.40359300000227
 20
81.49280711234827
 11
280.40359300000227
 21
74.49280711234827
  0
LINE
  5
1A9
100
AcDbEntity
  8
LC-001-002-----0
  6
CONTINUOUS
 62
             7
100
AcDbLine
 10
300.40359300000227
 20
74.49280711234827
 11
300.40359300000227
 21
81.49280711234827
  0
LINE
  5
1A8
100
AcDbEntity
  8
LC-001-002-----0
  6
CONTINUOUS
 62
             7
100
AcDbLine
 10
388.40359300000227
 20
81.49280711234827
 11
388.40359300000227
 21
74.49280711234827
  0
LINE
  5
1A7
100
AcDbEntity
  8
LC-001-002-----0
  6
CONTINUOUS
 62
             7
100
AcDbLine
 10
408.40359300000227
 20
74.49280711234827
 11
408.40359300000227
 21
81.49280711234827
  0
LINE
  5
1A6
100
AcDbEntity
  8
LC-001-002-----0
  6
CONTINUOUS
 62
             7
100
AcDbLine
 10
292.00517300000092
 20
73.99280711234827
 11
292.00517300000092
 21
49.86535511234764
  0
LINE
  5
1A5
100
AcDbEntity
  8
LC-001-002-----0
  6
CONTINUOUS
 62
             7
100
AcDbLine
 10
400.00517300000092
 20
73.99280711234827
 11
400.00517300000092
 21
49.86535511234764
  0
LINE
  5
1A4
100
AcDbEntity
  8
LC-001-002-----0
  6
CONTINUOUS
 62
             7
100
AcDbLine
 10
397.00517300000092
 20
73.99280711234827
 11
397.00517300000092
 21
49.86535511234764
  0
LINE
  5
1A3
100
AcDbEntity
  8
LC-001-002-----0
  6
CONTINUOUS
 62
             7
100
AcDbLine
 10
289.00517300000092
 20
49.86535511234764
 11
292.00517300000092
 21
49.86535511234764
  0
LINE
  5
1A2
100
AcDbEntity
  8
LC-001-002-----0
  6
CONTINUOUS
 62
             7
100
AcDbLine
 10
400.00517300000092
 20
49.86535511234764
 11
397.00517300000092
 21
49.86535511234764
  0
LINE
  5
1A1
100
AcDbEntity
  8
LC-001-002-----0
  6
CONTINUOUS
 62
             7
100
AcDbLine
 10
239.86298800000031
 20
-72.2528548876529
 11
241.86298800000031
 21
-72.2528548876529
  0
LINE
  5
1A0
100
AcDbEntity
  8
LC-001-002-----0
  6
CONTINUOUS
 62
             7
100
AcDbLine
 10
259.24418100000139
 20
-85.7528548876529
 11
257.24418100000139
 21
-85.7528548876529
  0
LINE
  5
19F
100
AcDbEntity
  8
LC-001-002-----0
  6
CONTINUOUS
 62
             7
100
AcDbLine
 10
250.05358400000071
 20
39.24976611234673
 11
251.74418100000139
 21
39.24976611234673
  0
LINE
  5
19E
100
AcDbEntity
  8
LC-001-002-----0
  6
CONTINUOUS
 62
             7
100
AcDbLine
 10
259.24418100000139
 20
-75.7528548876529
 11
257.24418100000139
 21
-75.7528548876529
  0
LINE
  5
19D
100
AcDbEntity
  8
LC-001-002-----0
  6
CONTINUOUS
 62
             7
100
AcDbLine
 10
288.58438100000012
 20
-93.50267288765313
 11
499.4873589999994
 21
-93.50206588765127
  0
LINE
  5
19C
100
AcDbEntity
  8
LC-001-002-----0
  6
CONTINUOUS
 62
             7
100
AcDbLine
 10
262.5534330000005
 20
-98.5029178876524
 11
287.58438100000012
 21
-98.5029178876524
  0
LINE
  5
19B
100
AcDbEntity
  8
LC-001-002-----0
  6
CONTINUOUS
 62
             7
100
AcDbLine
 10
288.08438100000012
 20
-15.63567888765316
 11
288.08438100000012
 21
-98.0029178876524
  0
LINE
  5
19A
100
AcDbEntity
  8
LC-001-002-----0
  6
CONTINUOUS
 62
             7
100
AcDbLine
 10
503.99865499999999
 20
30.29019011234711
 11
503.99865499999999
 21
-92.22387488765376
  0
LINE
  5
199
100
AcDbEntity
  8
LC-001-002-----0
  6
CONTINUOUS
 62
             7
100
AcDbLine
 10
499.4989389999979
 20
31.49588511234772
 11
503.99865499999999
 21
30.29019011234711
  0
LINE
  5
198
100
AcDbEntity
  8
LC-001-002-----0
  6
CONTINUOUS
 62
             7
100
AcDbLine
 10
499.4989389999979
 20
-93.50206588765137
 11
503.99865499999999
 21
-92.22387488765376
  0
LINE
  5
197
100
AcDbEntity
  8
LC-001-002-----0
  6
CONTINUOUS
 62
             7
100
AcDbLine
 10
264.74418100000139
 20
-88.0028548876529
 11
264.74418100000139
 21
-73.5028548876529
  0
LINE
  5
196
100
AcDbEntity
  8
LC-001-002-----0
  6
CONTINUOUS
 62
             7
100
AcDbLine
 10
431.45082200000212
 20
-93.50267288765313
 11
433.6251882141525
 21
31.49588511234772
  0
LINE
  5
195
100
AcDbEntity
  8
LC-001-002-----0
  6
CONTINUOUS
 62
             7
100
AcDbLine
 10
257.55418600000081
 20
-93.58969288765216
 11
257.4948130000007
 21
-90.2440778876538
  0
LINE
  5
194
100
AcDbEntity
  8
LC-001-002-----0
  6
CONTINUOUS
 62
             7
100
AcDbLine
 10
264.74418100000139
 20
-88.0028548876529
 11
259.24418100000139
 21
-88.0028548876529
  0
LINE
  5
193
100
AcDbEntity
  8
LC-001-002-----0
  6
CONTINUOUS
 62
             7
100
AcDbLine
 10
264.24418100000139
 20
-84.3778548876529
 11
259.24418100000139
 21
-84.3778548876529
  0
LINE
  5
192
100
AcDbEntity
  8
LC-001-002-----0
  6
CONTINUOUS
 62
             7
100
AcDbLine
 10
264.24418100000139
 20
-76.67769688765326
 11
259.24418100000139
 21
-76.67769688765326
  0
LINE
  5
191
100
AcDbEntity
  8
LC-001-002-----0
  6
CONTINUOUS
 62
             7
100
AcDbLine
 10
264.74418100000139
 20
-73.5028548876529
 11
259.24418100000139
 21
-73.5028548876529
  0
LINE
  5
190
100
AcDbEntity
  8
LC-001-002-----0
  6
CONTINUOUS
 62
             7
100
AcDbLine
 10
259.24418100000139
 20
-89.2528548876529
 11
257.24418100000139
 21
-89.2528548876529
  0
LINE
  5
18F
100
AcDbEntity
  8
LC-001-002-----0
  6
CONTINUOUS
 62
             7
100
AcDbLine
 10
259.24418100000139
 20
-72.2528548876529
 11
257.24418100000139
 21
-72.2528548876529
  0
LINE
  5
18E
100
AcDbEntity
  8
LC-001-002-----0
  6
DASHDOT
 62
             2
100
AcDbLine
 10
234.36298800000031
 20
-80.7528548876529
 11
264.745867000001
 21
-80.7528548876529
  0
LINE
  5
18D
100
AcDbEntity
  8
LC-001-002-----0
  6
CONTINUOUS
 62
             7
100
AcDbLine
 10
257.24418100000139
 20
-89.81952788765408
 11
257.24418100000139
 21
-48.58096188765408
  0
LINE
  5
18C
100
AcDbEntity
  8
LC-001-002-----0
  6
CONTINUOUS
 62
             7
100
AcDbLine
 10
256.74418100000139
 20
-48.08096188765408
 11
252.24418100000139
 21
-48.08096188765408
  0
LINE
  5
18B
100
AcDbEntity
  8
LC-001-002-----0
  6
CONTINUOUS
 62
             7
100
AcDbLine
 10
252.24418100000139
 20
-79.46864388765094
 11
252.24418100000139
 21
43.40957611234775
  0
LINE
  5
18A
100
AcDbEntity
  8
LC-001-002-----0
  6
CONTINUOUS
 62
             7
100
AcDbLine
 10
257.24418100000139
 20
9.05071611234747
 11
257.24418100000139
 21
56.74976611234673
  0
LINE
  5
189
100
AcDbEntity
  8
LC-001-002-----0
  6
CONTINUOUS
 62
             7
100
AcDbLine
 10
250.05358400000071
 20
57.24976611234673
 11
256.74418100000139
 21
57.24976611234673
  0
LINE
  5
188
100
AcDbEntity
  8
LC-001-002-----0
  6
CONTINUOUS
 62
             7
100
AcDbLine
 10
252.24418100000139
 20
8.55071611234747
 11
256.74418100000139
 21
8.55071611234747
  0
LINE
  5
187
100
AcDbEntity
  8
LC-001-002-----0
  6
CONTINUOUS
 62
             7
100
AcDbLine
 10
250.05358400000071
 20
-71.75294988765232
 11
251.74418100000139
 21
-71.75294988765232
  0
LINE
  5
186
100
AcDbEntity
  8
LC-001-002-----0
  6
CONTINUOUS
 62
             7
100
AcDbLine
 10
249.55358400000071
 20
-72.25294988765232
 11
249.55358400000071
 21
-89.25294988765232
  0
LINE
  5
185
100
AcDbEntity
  8
LC-001-002-----0
  6
CONTINUOUS
 62
             7
100
AcDbLine
 10
256.99489100000159
 20
-89.75294988765232
 11
250.05358400000071
 21
-89.75294988765232
  0
LINE
  5
184
100
AcDbEntity
  8
LC-001-002-----0
  6
CONTINUOUS
 62
             7
100
AcDbLine
 10
250.05358400000071
 20
43.74967111234732
 11
251.74418100000139
 21
43.74967111234732
  0
LINE
  5
183
100
AcDbEntity
  8
LC-001-002-----0
  6
CONTINUOUS
 62
             7
100
AcDbLine
 10
250.05358400000071
 20
-79.96864388765094
 11
251.74418100000139
 21
-79.96864388765094
  0
LINE
  5
182
100
AcDbEntity
  8
LC-001-002-----0
  6
CONTINUOUS
 62
             7
100
AcDbLine
 10
188.3564750000001
 20
129.4460671123467
 11
188.35647700000069
 21
133.02613611234631
  0
LINE
  5
181
100
AcDbEntity
  8
LC-001-002-----0
  6
CONTINUOUS
 62
             7
100
AcDbLine
 10
211.3564750000001
 20
129.0063591123486
 11
206.37681700000351
 21
129.00636211234601
  0
LINE
  5
180
100
AcDbEntity
  8
LC-001-002-----0
  6
CONTINUOUS
 62
             7
100
AcDbLine
 10
206.3564750000001
 20
129.00636211234601
 11
206.35647800000109
 21
133.4768061123483
  0
LINE
  5
17F
100
AcDbEntity
  8
LC-001-002-----0
  6
CONTINUOUS
 62
             7
100
AcDbLine
 10
211.35647800000109
 20
133.47680311234731
 11
206.35647800000109
 21
133.4768061123483
  0
LINE
  5
17E
100
AcDbEntity
  8
LC-001-002-----0
  6
CONTINUOUS
 62
             7
100
AcDbLine
 10
211.3564750000001
 20
129.0063591123486
 11
211.35647800000109
 21
133.47680311234731
  0
LINE
  5
17D
100
AcDbEntity
  8
LC-001-002-----0
  6
CONTINUOUS
 62
             7
100
AcDbLine
 10
218.35614800000209
 20
124.7422961123463
 11
228.6981680000022
 21
128.5064831123469
  0
LINE
  5
17C
100
AcDbEntity
  8
LC-001-002-----0
  6
CONTINUOUS
 62
             7
100
AcDbLine
 10
218.35614800000209
 20
124.7422961123463
 11
208.85614800000209
 21
124.7422961123463
  0
LINE
  5
17B
100
AcDbEntity
  8
LC-001-002-----0
  6
CONTINUOUS
 62
             7
100
AcDbLine
 10
199.3564720000027
 20
124.7421791123467
 11
189.0144540000033
 21
128.50637411234641
  0
LINE
  5
17A
100
AcDbEntity
  8
LC-001-002-----0
  6
CONTINUOUS
 62
             7
100
AcDbLine
 10
199.3564720000027
 20
124.7421791123467
 11
208.8564720000027
 21
124.7421731123483
  0
LINE
  5
179
100
AcDbEntity
  8
LC-001-002-----0
  6
CONTINUOUS
 62
             7
100
AcDbLine
 10
199.35645900000191
 20
104.7421791123467
 11
199.3564720000027
 21
124.7421791123467
  0
LINE
  5
178
100
AcDbEntity
  8
LC-001-002-----0
  6
CONTINUOUS
 62
             7
100
AcDbLine
 10
218.35614800000209
 20
104.74216711234629
 11
218.35614800000209
 21
124.7422961123463
  0
LINE
  5
177
100
AcDbEntity
  8
LC-001-002-----0
  6
CONTINUOUS
 62
             7
100
AcDbLine
 10
229.35614800000209
 20
129.44617611234719
 11
229.35614800000209
 21
133.02966011234611
  0
LINE
  5
176
100
AcDbEntity
  8
LC-001-002-----0
  6
CONTINUOUS
 62
             7
100
AcDbLine
 10
218.35614800000209
 20
117.7422821123488
 11
235.98777924956039
 21
117.7422821123488
  0
LINE
  5
175
100
AcDbEntity
  8
LC-001-002-----0
  6
CONTINUOUS
 62
             7
100
AcDbLine
 10
218.35614800000209
 20
111.7422821123488
 11
233.76876500000029
 21
111.7422821123488
  0
LINE
  5
174
100
AcDbEntity
  8
LC-001-002-----0
  6
CONTINUOUS
 62
             7
100
AcDbLine
 10
218.35614800000209
 20
111.7421731123483
 11
245.9415920000024
 21
111.7421731123483
  0
LINE
  5
173
100
AcDbEntity
  8
LC-001-002-----0
  6
CONTINUOUS
 62
             7
100
AcDbLine
 10
80.35647500000368
 20
129.4460671123467
 11
80.35647700000072
 21
133.02613611234631
  0
LINE
  5
172
100
AcDbEntity
  8
LC-001-002-----0
  6
CONTINUOUS
 62
             7
100
AcDbLine
 10
103.3564750000037
 20
129.0063591123486
 11
98.37681700000348
 21
129.00636211234601
  0
LINE
  5
171
100
AcDbEntity
  8
LC-001-002-----0
  6
CONTINUOUS
 62
             7
100
AcDbLine
 10
98.35647500000368
 20
129.00636211234601
 11
98.35647800000106
 21
133.4768061123483
  0
LINE
  5
170
100
AcDbEntity
  8
LC-001-002-----0
  6
CONTINUOUS
 62
             7
100
AcDbLine
 10
103.3564780000011
 20
133.47680311234731
 11
98.35647800000106
 21
133.4768061123483
  0
LINE
  5
16F
100
AcDbEntity
  8
LC-001-002-----0
  6
CONTINUOUS
 62
             7
100
AcDbLine
 10
103.3564750000037
 20
129.0063591123486
 11
103.3564780000011
 21
133.47680311234731
  0
LINE
  5
16E
100
AcDbEntity
  8
LC-001-002-----0
  6
CONTINUOUS
 62
             7
100
AcDbLine
 10
110.35614800000209
 20
124.7422961123463
 11
120.6981680000022
 21
128.5064831123469
  0
LINE
  5
16D
100
AcDbEntity
  8
LC-001-002-----0
  6
CONTINUOUS
 62
             7
100
AcDbLine
 10
110.35614800000209
 20
124.7422961123463
 11
100.85614800000209
 21
124.7422961123463
  0
LINE
  5
16C
100
AcDbEntity
  8
LC-001-002-----0
  6
CONTINUOUS
 62
             7
100
AcDbLine
 10
91.35647200000267
 20
124.7421791123467
 11
81.0144540000033
 21
128.50637411234641
  0
LINE
  5
16B
100
AcDbEntity
  8
LC-001-002-----0
  6
CONTINUOUS
 62
             7
100
AcDbLine
 10
91.35647200000267
 20
124.7421791123467
 11
100.8564720000027
 21
124.7421731123483
  0
LINE
  5
16A
100
AcDbEntity
  8
LC-001-002-----0
  6
CONTINUOUS
 62
             7
100
AcDbLine
 10
91.35645900000191
 20
104.7421791123467
 11
91.35647200000267
 21
124.7421791123467
  0
LINE
  5
169
100
AcDbEntity
  8
LC-001-002-----0
  6
CONTINUOUS
 62
             7
100
AcDbLine
 10
110.35614800000209
 20
104.74216711234629
 11
110.35614800000209
 21
124.7422961123463
  0
LINE
  5
168
100
AcDbEntity
  8
LC-001-002-----0
  6
CONTINUOUS
 62
             7
100
AcDbLine
 10
121.35614800000209
 20
129.44617611234719
 11
121.35614800000209
 21
133.02966011234611
  0
LINE
  5
167
100
AcDbEntity
  8
LC-001-002-----0
  6
CONTINUOUS
 62
             7
100
AcDbLine
 10
110.35614800000209
 20
111.7422821123488
 11
125.7687650000003
 21
111.7422821123488
  0
LINE
  5
166
100
AcDbEntity
  8
LC-001-002-----0
  6
CONTINUOUS
 62
             7
100
AcDbLine
 10
110.35614800000209
 20
117.7422821123488
 11
199.356467000001
 21
117.7422821123488
  0
LINE
  5
165
100
AcDbEntity
  8
LC-001-002-----0
  6
CONTINUOUS
 62
             7
100
AcDbLine
 10
110.35614800000209
 20
111.7421731123483
 11
199.35646300000329
 21
111.7421731123483
  0
LINE
  5
164
100
AcDbEntity
  8
LC-001-002-----0
  6
CONTINUOUS
 62
             7
100
AcDbLine
 10
110.35614800000209
 20
111.7422821123488
 11
199.35646300000329
 21
111.7422821123488
  0
LINE
  5
163
100
AcDbEntity
  8
LC-001-002-----0
  6
CONTINUOUS
 62
             7
100
AcDbLine
 10
281.00871400000278
 20
89.99280711234827
 11
300.00871400000278
 21
89.99280711234827
  0
LINE
  5
162
100
AcDbEntity
  8
LC-001-002-----0
  6
CONTINUOUS
 62
             7
100
AcDbLine
 10
300.50871400000278
 20
82.49280711234827
 11
300.50871400000278
 21
89.49280711234827
  0
LINE
  5
161
100
AcDbEntity
  8
LC-001-002-----0
  6
CONTINUOUS
 62
             7
100
AcDbLine
 10
280.50871400000278
 20
82.49280711234827
 11
280.50871400000278
 21
89.49280711234827
  0
LINE
  5
160
100
AcDbEntity
  8
LC-001-002-----0
  6
CONTINUOUS
 62
             7
100
AcDbLine
 10
309.4798750000005
 20
118.86972411234611
 11
309.4798750000005
 21
200.99280711234829
  0
LINE
  5
15F
100
AcDbEntity
  8
LC-001-002-----0
  6
CONTINUOUS
 62
             7
100
AcDbLine
 10
389.00887600000311
 20
89.99280711234827
 11
408.00887600000311
 21
89.99280711234827
  0
LINE
  5
15E
100
AcDbEntity
  8
LC-001-002-----0
  6
CONTINUOUS
 62
             7
100
AcDbLine
 10
408.50887600000311
 20
82.49280711234827
 11
408.50887600000311
 21
89.49280711234827
  0
LINE
  5
15D
100
AcDbEntity
  8
LC-001-002-----0
  6
CONTINUOUS
 62
             7
100
AcDbLine
 10
388.50887600000311
 20
82.49280711234827
 11
388.50887600000311
 21
89.49280711234827
  0
LINE
  5
15C
100
AcDbEntity
  8
1
  6
DOT_CENTER
 62
             2
100
AcDbLine
 10
-6.61434399999831
 20
62.49999973565299
 11
-3.61434399999831
 21
62.49999973565299
  0
LINE
  5
15B
100
AcDbEntity
  8
1
  6
DOT_CENTER
 62
             2
100
AcDbLine
 10
-6.61434399999831
 20
-62.50000026434701
 11
-3.61434399999831
 21
-62.50000026434701
  0
LINE
  5
15A
100
AcDbEntity
  8
LC-002-002-----0
  6
CONTINUOUS
 62
             7
100
AcDbLine
 10
199.88137900000169
 20
216.39257761234839
 11
199.88137900000169
 21
219.89257761234839
  0
LINE
  5
159
100
AcDbEntity
  8
LC-002-002-----0
  6
CONTINUOUS
 62
             7
100
AcDbLine
 10
199.88137900000169
 20
219.89257761234839
 11
219.88137900000169
 21
219.89257761234839
  0
LINE
  5
158
100
AcDbEntity
  8
LC-002-002-----0
  6
CONTINUOUS
 62
             7
100
AcDbLine
 10
219.88137900000169
 20
216.39257761234839
 11
219.88137900000169
 21
219.89257761234839
  0
LINE
  5
157
100
AcDbEntity
  8
LC-002-002-----0
  6
CONTINUOUS
 62
             7
100
AcDbLine
 10
206.88137900000169
 20
228.89257761234839
 11
212.88137900000169
 21
228.89257761234839
  0
LINE
  5
156
100
AcDbEntity
  8
LC-002-002-----0
  6
CONTINUOUS
 62
             7
100
AcDbLine
 10
199.88137900000169
 20
219.89257761234839
 11
219.88137900000169
 21
219.89257761234839
  0
LINE
  5
155
100
AcDbEntity
  8
LC-002-002-----0
  6
CONTINUOUS
 62
             7
100
AcDbLine
 10
216.88137900000169
 20
223.89257761234839
 11
216.88137900000169
 21
219.89257761234839
  0
LINE
  5
154
100
AcDbEntity
  8
LC-002-002-----0
  6
CONTINUOUS
 62
             7
100
AcDbLine
 10
202.88137900000169
 20
223.89257761234839
 11
202.88137900000169
 21
219.89257761234839
  0
LINE
  5
153
100
AcDbEntity
  8
LC-002-002-----0
  6
CONTINUOUS
 62
             7
100
AcDbLine
 10
203.88137900000169
 20
224.89257761234839
 11
215.88137900000169
 21
224.89257761234839
  0
LINE
  5
152
100
AcDbEntity
  8
LC-002-002-----0
  6
CONTINUOUS
 62
             7
100
AcDbLine
 10
203.88137900000169
 20
224.74904461234621
 11
203.88137900000169
 21
225.89257761234839
  0
LINE
  5
151
100
AcDbEntity
  8
LC-002-002-----0
  6
CONTINUOUS
 62
             7
100
AcDbLine
 10
215.88137900000169
 20
224.74904461234621
 11
215.88137900000169
 21
225.89257761234839
  0
LINE
  5
150
100
AcDbEntity
  8
LC-002-002-----0
  6
CONTINUOUS
 62
             7
100
AcDbLine
 10
203.88137900000169
 20
225.89257761234839
 11
215.88137900000169
 21
225.89257761234839
  0
LINE
  5
14F
100
AcDbEntity
  8
LC-002-002-----0
  6
CONTINUOUS
 62
             7
100
AcDbLine
 10
213.38137900000169
 20
223.89257761234839
 11
213.38137900000169
 21
219.89257761234839
  0
LINE
  5
14E
100
AcDbEntity
  8
LC-002-002-----0
  6
CONTINUOUS
 62
             7
100
AcDbLine
 10
206.38137900000169
 20
223.89257761234839
 11
206.38137900000169
 21
219.89257761234839
  0
LINE
  5
14D
100
AcDbEntity
  8
LC-002-002-----0
  6
CONTINUOUS
 62
             7
100
AcDbLine
 10
206.88137900000169
 20
228.89257761234839
 11
212.88137900000169
 21
228.89257761234839
  0
LINE
  5
14C
100
AcDbEntity
  8
LC-002-002-----0
  6
CONTINUOUS
 62
             7
100
AcDbLine
 10
216.88137900000169
 20
238.89257761234839
 11
228.61433800000259
 21
238.89257761234839
  0
LINE
  5
14B
100
AcDbEntity
  8
LC-002-002-----0
  6
CONTINUOUS
 62
             7
100
AcDbLine
 10
216.88137900000169
 20
232.89257761234839
 11
228.61433800000259
 21
232.89257761234839
  0
LINE
  5
14A
100
AcDbEntity
  8
LC-002-002-----0
  6
DASHDOT
 62
             2
100
AcDbLine
 10
216.88137900000169
 20
235.89257761234839
 11
228.61433800000259
 21
235.89257761234839
  0
LINE
  5
149
100
AcDbEntity
  8
LC-002-002-----0
  6
CONTINUOUS
 62
             7
100
AcDbLine
 10
248.61433800000259
 20
218.89257761234839
 11
248.61433800000259
 21
209.2222776123468
  0
LINE
  5
148
100
AcDbEntity
  8
LC-002-002-----0
  6
CONTINUOUS
 62
             7
100
AcDbLine
 10
242.61433800000259
 20
218.89257761234839
 11
242.61433800000259
 21
209.2222776123468
  0
LINE
  5
147
100
AcDbEntity
  8
LC-002-002-----0
  6
CONTINUOUS
 62
             7
100
AcDbLine
 10
242.61433800000259
 20
209.2222776123468
 11
243.83892800000061
 21
210.11327761234651
  0
LINE
  5
146
100
AcDbEntity
  8
LC-002-002-----0
  6
CONTINUOUS
 62
             7
100
AcDbLine
 10
243.83892800000061
 20
210.11327761234651
 11
245.9082720000001
 21
209.04407761234839
  0
LINE
  5
145
100
AcDbEntity
  8
LC-002-002-----0
  6
CONTINUOUS
 62
             7
100
AcDbLine
 10
245.9082720000001
 20
209.04407761234839
 11
247.02253400000291
 21
210.11327761234651
  0
LINE
  5
144
100
AcDbEntity
  8
LC-002-002-----0
  6
CONTINUOUS
 62
             7
100
AcDbLine
 10
247.02253400000291
 20
210.11327761234651
 11
248.61433800000259
 21
209.2222776123468
  0
LINE
  5
143
100
AcDbEntity
  8
LC-002-002-----0
  6
DASHDOT
 62
             2
100
AcDbLine
 10
245.61433800000259
 20
218.89257761234839
 11
245.61433800000259
 21
209.2222776123468
  0
LINE
  5
142
100
AcDbEntity
  8
LC-001-100-D02-0
  6
CONTINUOUS
 62
             7
100
AcDbLine
 10
247.823278000003
 20
125.6972488865773
 11
234.8678594249682
 21
125.6972488865773
  0
LINE
  5
141
100
AcDbEntity
  8
LC-001-100-D02-0
  6
CONTINUOUS
 62
             7
100
AcDbLine
 10
248.81764500000239
 20
117.64311817618881
 11
248.81764500000239
 21
124.702881886578
  0
LINE
  5
140
100
AcDbEntity
  8
LC-001-100-D02-0
  6
CONTINUOUS
 62
             7
100
AcDbLine
 10
61.28001900000118
 20
117.742766090019
 11
61.28001900000118
 21
124.7033350900216
  0
LINE
  5
13F
100
AcDbEntity
  8
LC-001-100-D02-0
  6
CONTINUOUS
 62
             7
100
AcDbLine
 10
62.2743860000005
 20
125.6977020900209
 11
75.50562318272887
 21
125.6977020900209
  0
LINE
  5
13E
100
AcDbEntity
  8
LC-003-100-D03-0
  6
CONTINUOUS
 62
             7
100
AcDbLine
 10
433.6251882141525
 20
31.49588511234772
 11
499.4989389999979
 21
31.49588511234772
  0
LINE
  5
13D
100
AcDbEntity
  8
LC-003-100-D03-0
  6
CONTINUOUS
 62
             7
100
AcDbLine
 10
20.29915800000003
 20
-73.20354988765244
 11
23.76325999999995
 21
-67.20354888765233
  0
LINE
  5
13C
100
AcDbEntity
  8
LC-003-100-D03-0
  6
CONTINUOUS
 62
             7
100
AcDbLine
 10
20.29915800000003
 20
-73.20354988765244
 11
8.21036500000002
 21
-72.57000388765242
  0
LINE
  5
13B
100
AcDbEntity
  8
LC-003-100-D03-0
  6
CONTINUOUS
 62
             7
100
AcDbLine
 10
-1.0
 20
-66.5484408876524
 11
-1.0
 21
-63.95120488765234
  0
LINE
  5
13A
100
AcDbEntity
  8
LC-003-100-D03-0
  6
CONTINUOUS
 62
             7
100
AcDbLine
 10
3.5
 20
-67.20355088765233
 11
-0.52896299999998
 21
-67.04480988765235
  0
LINE
  5
139
100
AcDbEntity
  8
LC-003-100-D03-0
  6
CONTINUOUS
 62
             7
100
AcDbLine
 10
20.29915800000003
 20
73.19644611234766
 11
8.21036500000002
 21
72.56290011234763
  0
LINE
  5
138
100
AcDbEntity
  8
LC-003-100-D03-0
  6
CONTINUOUS
 62
             7
100
AcDbLine
 10
20.29915800000003
 20
73.19644611234766
 11
23.76325999999995
 21
67.19644511234766
  0
LINE
  5
137
100
AcDbEntity
  8
LC-003-100-D03-0
  6
CONTINUOUS
 62
             7
100
AcDbLine
 10
-1.0
 20
66.54133711234768
 11
-1.0
 21
63.94410111234767
  0
LINE
  5
136
100
AcDbEntity
  8
LC-003-100-D03-0
  6
CONTINUOUS
 62
             7
100
AcDbLine
 10
3.5
 20
67.19644711234766
 11
-0.52896299999998
 21
67.03770611234764
  0
LINE
  5
135
100
AcDbEntity
  8
LC-003-100-D03-0
  6
CONTINUOUS
 62
             7
100
AcDbLine
 10
-1.0
 20
63.94410111234767
 11
-1.0
 21
-63.95120488765234
  0
LINE
  5
134
100
AcDbEntity
  8
LC-001-002-----0
  6
CONTINUOUS
 62
             7
100
AcDbLine
 10
3.5
 20
67.19644711234766
 11
3.5
 21
-67.20355088765233
  0
LINE
  5
133
100
AcDbEntity
  8
LC-001-002-----0
  6
CONTINUOUS
 62
             7
100
AcDbLine
 10
20.29915800000003
 20
73.19644611234766
 11
20.29915800000003
 21
-73.20354988765244
  0
LINE
  5
132
100
AcDbEntity
  8
LC-001-002-----0
  6
CONTINUOUS
 62
             7
100
AcDbLine
 10
23.76325999999995
 20
67.19644511234766
 11
23.76325999999995
 21
-67.20354888765233
  0
LINE
  5
131
100
AcDbEntity
  8
LC-003-100-D03-0
  6
CONTINUOUS
 62
             7
100
AcDbLine
 10
67.71079483351014
 20
-67.19644588765242
 11
23.76325999999995
 21
-67.1964468876523
  0
LINE
  5
130
100
AcDbEntity
  8
LC-003-100-D03-0
  6
CONTINUOUS
 62
             7
100
AcDbLine
 10
65.36495791639857
 20
67.19644411234766
 11
23.76325999999995
 21
67.19644511234766
  0
LINE
  5
12F
100
AcDbEntity
  8
LC-001-002-----0
  6
CONTINUOUS
 62
             7
100
AcDbLine
 10
65.36495791639857
 20
67.19644411234766
 11
64.8535990000014
 21
96.74217311234828
  0
LINE
  5
12E
100
AcDbEntity
  8
LC-001-002-----0
  6
CONTINUOUS
 62
             7
100
AcDbLine
 10
67.71079483351014
 20
-67.19644588765242
 11
65.36495791639857
 21
67.19644411234766
  0
LINE
  5
12D
100
AcDbEntity
  8
LC-001-002-----0
  6
CONTINUOUS
 62
             7
100
AcDbLine
 10
433.6251882141525
 20
31.49588511234772
 11
434.50383300000198
 21
81.99280711234827
  0
LINE
  5
12C
100
AcDbEntity
  8
1
  6
PHANTOM
 62
             2
100
AcDbLine
 10
100.85629711628491
 20
85.08950526051207
 11
100.8563150784171
 21
140.35760118813261
  0
LINE
  5
12B
100
AcDbEntity
  8
1
  6
PHANTOM
 62
             2
100
AcDbLine
 10
208.85629690822611
 20
84.44932446872947
 11
208.85631493971101
 21
139.93081362107969
  0
LINE
  5
12A
100
AcDbEntity
  8
1
  6
PHANTOM
 62
             2
100
AcDbLine
 10
290.50870127779262
 20
69.29862295569286
 11
290.50871937862718
 21
124.9934959702726
  0
LINE
  5
129
100
AcDbEntity
  8
1
  6
PHANTOM
 62
             2
100
AcDbLine
 10
398.50886263908842
 20
68.87184058997691
 11
398.50888073992343
 21
124.56671464483441
  0
LINE
  5
128
100
AcDbEntity
  8
1
  6
PHANTOM
 62
             2
100
AcDbLine
 10
69.69497320762291
 20
-0.000000044712
 11
-4.37869415141796
 21
0.0000000028091
  0
LINE
  5
127
100
AcDbEntity
  8
1
  6
PHANTOM
 62
             2
100
AcDbLine
 10
425.20594781137379
 20
-31.00319728221193
 11
507.06451373693739
 21
-31.00307948361531
  0
POINT
  5
126
100
AcDbEntity
  8
LC-004-003-----0
 62
             7
100
AcDbPoint
 10
499.4989389999979
 20
31.49588511234772
  0
POINT
  5
125
100
AcDbEntity
  8
LC-004-003-----0
 62
             7
100
AcDbPoint
 10
499.4873589999994
 20
-93.50206588765127
  0
POINT
  5
124
100
AcDbEntity
  8
LC-004-003-----0
 62
             7
100
AcDbPoint
 10
503.99865499999999
 20
-92.22387488765376
  0
POINT
  5
123
100
AcDbEntity
  8
LC-004-003-----0
 62
             7
100
AcDbPoint
 10
66.66885100000172
 20
-7.50355188765239
  0
POINT
  5
122
100
AcDbEntity
  8
LC-004-003-----0
 62
             7
100
AcDbPoint
 10
432.40779500000241
 20
-38.49326588765176
  0
POINT
  5
121
100
AcDbEntity
  8
LC-004-003-----0
 62
             7
100
AcDbPoint
 10
60.97914900000205
 20
117.2422821123488
  0
POINT
  5
120
100
AcDbEntity
  8
LC-004-003-----0
 62
             7
100
AcDbPoint
 10
438.66044400000061
 20
93.99280711234827
  0
POINT
  5
11F
100
AcDbEntity
  8
LC-004-003-----0
 62
             7
100
AcDbPoint
 10
306.4798750000005
 20
221.49280711234829
  0
POINT
  5
11E
100
AcDbEntity
  8
LC-004-003-----0
 62
             7
100
AcDbPoint
 10
287.58438100000012
 20
-98.5029178876524
  0
ENDBLK
  5
2E9
100
AcDbEntity
  8
0
100
AcDbBlockEnd
  0
BLOCK
  5
2EC
100
AcDbEntity
  8
0
100
AcDbBlockBegin
  2
*D2
 70
             1
 10
0.0
 20
0.0
 30
0.0
  3
*D2
  1

  0
LINE
  5
2ED
100
AcDbEntity
  8
0
  6
CONTINUOUS
 62
             4
100
AcDbLine
 10
904.34397297947726
 20
272.55931345702368
 11
664.34397297947726
 21
272.55931345702368
  0
LINE
  5
2EE
100
AcDbEntity
  8
0
  6
CONTINUOUS
 62
             4
100
AcDbLine
 10
904.34397297947726
 20
136.52248720360507
 11
904.34397297947726
 21
274.55931345702368
  0
LINE
  5
2EF
100
AcDbEntity
  8
0
  6
CONTINUOUS
 62
             4
100
AcDbLine
 10
664.34397297947726
 20
136.52240489357789
 11
664.34397297947726
 21
274.55931345702368
  0
SOLID
  5
2F0
100
AcDbEntity
  8
0
 62
             4
100
AcDbTrace
 10
889.34397297947726
 20
270.58452599321276
 11
889.34397297947726
 21
274.53410092083459
 12
904.34397297947726
 22
272.55931345702368
 13
904.34397297947726
 23
272.55931345702368
  0
SOLID
  5
2F1
100
AcDbEntity
  8
0
 62
             4
100
AcDbTrace
 10
679.34397297947726
 20
274.53410092083459
 11
679.34397297947726
 21
270.58452599321276
 12
664.34397297947726
 22
272.55931345702368
 13
664.34397297947726
 23
272.55931345702368
  0
MTEXT
  5
2F3
100
AcDbEntity
  8
0
 62
             1
100
AcDbMText
 10
718.39031654427288
 20
274.55931345702368
 30
0.0
 40
15.0
 41
0.0
 71
             7
 72
             1
  1
240
  7
CONVERTER_1
 11
0.99999999999706
 21
0.00000242406841
 31
0.0
  0
ENDBLK
  5
2F4
100
AcDbEntity
  8
0
100
AcDbBlockEnd
  0
BLOCK
  5
2F8
100
AcDbEntity
  8
0
100
AcDbBlockBegin
  2
*D3
 70
             1
 10
0.0
 20
0.0
 30
0.0
  3
*D3
  1

  0
LINE
  5
2F9
100
AcDbEntity
  8
0
  6
CONTINUOUS
 62
             4
100
AcDbLine
 10
438.6601870344295
 20
272.55888296719712
 11
60.66079226029348
 21
272.55833900704187
  0
LINE
  5
2FA
100
AcDbEntity
  8
0
  6
CONTINUOUS
 62
             4
100
AcDbLine
 10
60.66102800000178
 20
108.7421731123483
 11
60.66078938219289
 21
274.55833900703982
  0
LINE
  5
2FB
100
AcDbEntity
  8
0
  6
CONTINUOUS
 62
             4
100
AcDbLine
 10
438.66044400000055
 20
93.99280711234829
 11
438.66018415632891
 21
274.55888296719507
  0
SOLID
  5
2FC
100
AcDbEntity
  8
0
 62
             4
100
AcDbTrace
 10
423.66018987626359
 20
270.58407391763342
 11
423.6601841926265
 21
274.53364884525115
 12
438.6601870344295
 22
272.55888296719712
 13
438.6601870344295
 23
272.55888296719712
  0
SOLID
  5
2FD
100
AcDbEntity
  8
0
 62
             4
100
AcDbTrace
 10
75.66078941845942
 20
274.53314805660557
 11
75.66079510209649
 21
270.58357312898784
 12
60.66079226029348
 22
272.55833900704187
 13
60.66079226029348
 23
272.55833900704187
  0
MTEXT
  5
2FE
100
AcDbEntity
  8
0
 62
             1
100
AcDbMText
 10
232.85400821262454
 20
274.55858680174885
 30
0.0
 40
15.0
 41
0.0
 71
             7
 72
             1
  1
378
  7
CONVERTER_1
 11
0.99999999999706
 21
0.00000242406841
 31
0.0
  0
ENDBLK
  5
2FF
100
AcDbEntity
  8
0
100
AcDbBlockEnd
  0
BLOCK
  5
303
100
AcDbEntity
  8
0
100
AcDbBlockBegin
  2
*D4
 70
             1
 10
0.0
 20
0.0
 30
0.0
  3
*D4
  1

  0
LINE
  5
304
100
AcDbEntity
  8
0
  6
CONTINUOUS
 62
             4
100
AcDbLine
 10
503.99870701083921
 20
-128.3663487533604
 11
-0.99990730231991
 21
-128.36707547178491
  0
LINE
  5
305
100
AcDbEntity
  8
0
  6
CONTINUOUS
 62
             4
100
AcDbLine
 10
-1.0
 20
-63.95120488765232
 11
-0.99990442421927
 21
-130.36707547178284
  0
LINE
  5
306
100
AcDbEntity
  8
0
  6
CONTINUOUS
 62
             4
100
AcDbLine
 10
503.99865499999999
 20
-92.22387488765375
 11
503.9987098889398
 21
-130.36634875335835
  0
SOLID
  5
307
100
AcDbEntity
  8
0
 62
             4
100
AcDbTrace
 10
488.9987098526733
 20
-130.34115780292413
 11
488.99870416903622
 21
-126.39158287530634
 12
503.99870701083921
 22
-128.3663487533604
 13
503.99870701083921
 23
-128.3663487533604
  0
SOLID
  5
308
100
AcDbEntity
  8
0
 62
             4
100
AcDbTrace
 10
14.00008985584602
 20
-126.39226642222118
 11
14.0000955394831
 21
-130.34184134983897
 12
-0.99990730231991
 22
-128.36707547178491
 13
-0.99990730231991
 23
-128.36707547178491
  0
MTEXT
  5
309
100
AcDbEntity
  8
0
 62
             1
100
AcDbMText
 10
242.11481139303226
 20
-126.36672561746575
 30
0.0
 40
15.0
 41
0.0
 71
             7
 72
             1
  1
505
  7
CONVERTER_1
 11
0.99999999999706
 21
0.00000242406841
 31
0.0
  0
ENDBLK
  5
30A
100
AcDbEntity
  8
0
100
AcDbBlockEnd
  0
BLOCK
  5
30E
100
AcDbEntity
  8
0
100
AcDbBlockBegin
  2
*D5
 70
             1
 10
0.0
 20
0.0
 30
0.0
  3
*D5
  1

  0
LINE
  5
30F
100
AcDbEntity
  8
0
  6
CONTINUOUS
 62
             4
100
AcDbLine
 10
464.84475336680856
 20
-31.00319730764173
 11
464.8447533475624
 21
-61.00319730764171
  0
LINE
  5
310
100
AcDbEntity
  8
0
  6
CONTINUOUS
 62
             4
100
AcDbLine
 10
464.8447533866983
 20
-0.00000029821572
 11
464.84475336680856
 21
-31.00319730764173
  0
LINE
  5
311
100
AcDbEntity
  8
0
  6
CONTINUOUS
 62
             4
100
AcDbLine
 10
464.84475342682379
 20
62.54569512275938
 11
464.8447533866983
 21
-0.00000029821572
  0
LINE
  5
312
100
AcDbEntity
  8
0
  6
CONTINUOUS
 62
             4
100
AcDbLine
 10
425.20594781137385
 20
-31.00319728221193
 11
466.84475336680856
 21
-31.00319730892481
  0
LINE
  5
313
100
AcDbEntity
  8
0
  6
CONTINUOUS
 62
             4
100
AcDbLine
 10
69.69497320762304
 20
-0.000000044712
 11
466.8447533866983
 21
-0.00000029949881
  0
SOLID
  5
314
100
AcDbEntity
  8
0
 62
             4
100
AcDbTrace
 10
462.86996593251041
 20
14.99999970305117
 11
466.81954086013224
 21
14.99999970051738
 12
464.8447533866983
 22
-0.00000029821572
 13
464.8447533866983
 23
-0.00000029821572
  0
SOLID
  5
315
100
AcDbEntity
  8
0
 62
             4
100
AcDbTrace
 10
466.81954082099645
 20
-46.00319730890863
 11
462.86996589337463
 21
-46.00319730637483
 12
464.84475336680856
 22
-31.00319730764173
 13
464.84475336680856
 23
-31.00319730764173
  0
MTEXT
  5
316
100
AcDbEntity
  8
0
 62
             1
100
AcDbMText
 10
462.84475341527605
 20
44.54569512404245
 30
0.0
 40
15.0
 41
0.0
 71
             7
 72
             1
  1
31
  7
CONVERTER_1
 11
0.0
 21
1.0
 31
0.0
  0
ENDBLK
  5
317
100
AcDbEntity
  8
0
100
AcDbBlockEnd
  0
BLOCK
  5
31B
100
AcDbEntity
  8
0
100
AcDbBlockBegin
  2
*D6
 70
             1
 10
0.0
 20
0.0
 30
0.0
  3
*D6
  1

  0
LINE
  5
31C
100
AcDbEntity
  8
0
  6
CONTINUOUS
 62
             4
100
AcDbLine
 10
-16.84367187550501
 20
62.4999997422155
 11
-16.8436719556973
 21
-62.5000002577845
  0
LINE
  5
31D
100
AcDbEntity
  8
0
  6
CONTINUOUS
 62
             4
100
AcDbLine
 10
-6.61434399999831
 20
-62.50000026434702
 11
-18.8436719556973
 21
-62.50000025650142
  0
LINE
  5
31E
100
AcDbEntity
  8
0
  6
CONTINUOUS
 62
             4
100
AcDbLine
 10
-6.61434399999831
 20
62.49999973565299
 11
-18.84367187550501
 21
62.49999974349858
  0
SOLID
  5
31F
100
AcDbEntity
  8
0
 62
             4
100
AcDbTrace
 10
-14.86888442131715
 20
47.4999997409486
 11
-18.81845934893902
 21
47.49999974348241
 12
-16.84367187550501
 22
62.4999997422155
 13
-16.84367187550501
 23
62.4999997422155
  0
SOLID
  5
320
100
AcDbEntity
  8
0
 62
             4
100
AcDbTrace
 10
-18.81845940988517
 20
-47.5000002565176
 11
-14.86888448226329
 21
-47.5000002590514
 12
-16.8436719556973
 22
-62.5000002577845
 13
-16.8436719556973
 23
-62.5000002577845
  0
MTEXT
  5
321
100
AcDbEntity
  8
0
 62
             1
100
AcDbMText
 10
-18.84367191449601
 20
-22.8773572816804
 30
0.0
 40
15.0
 41
0.0
 71
             7
 72
             1
  1
\C1;DN\C1;125
  7
CONVERTER_1
 11
0.0
 21
1.0
 31
0.0
  0
ENDBLK
  5
322
100
AcDbEntity
  8
0
100
AcDbBlockEnd
  0
BLOCK
  5
326
100
AcDbEntity
  8
0
100
AcDbBlockBegin
  2
*D7
 70
             1
 10
0.0
 20
0.0
 30
0.0
  3
*D7
  1

  0
LINE
  5
327
100
AcDbEntity
  8
0
  6
CONTINUOUS
 62
             4
100
AcDbLine
 10
534.65509369649999
 20
31.4958850897937
 11
534.65509361630893
 21
-93.50206591021272
  0
LINE
  5
328
100
AcDbEntity
  8
0
  6
CONTINUOUS
 62
             4
100
AcDbLine
 10
499.4873589999994
 20
-93.50206588765127
 11
536.65509361630893
 21
-93.50206591149579
  0
LINE
  5
329
100
AcDbEntity
  8
0
  6
CONTINUOUS
 62
             4
100
AcDbLine
 10
499.4989389999979
 20
31.49588511234772
 11
536.65509369649999
 21
31.49588508851062
  0
SOLID
  5
32A
100
AcDbEntity
  8
0
 62
             4
100
AcDbTrace
 10
536.62988115068788
 20
16.49588508852681
 11
532.68030622306605
 21
16.4958850910606
 12
534.65509369649999
 22
31.4958850897937
 13
534.65509369649999
 23
31.4958850897937
  0
SOLID
  5
32B
100
AcDbEntity
  8
0
 62
             4
100
AcDbTrace
 10
532.68030616212104
 20
-78.50206590894582
 11
536.62988108974287
 21
-78.50206591147962
 12
534.65509361630893
 22
-93.50206591021272
 13
534.65509361630893
 23
-93.50206591021272
  0
MTEXT
  5
32C
100
AcDbEntity
  8
0
 62
             1
100
AcDbMText
 10
532.65509365826824
 20
-52.6978826727192
 30
0.0
 40
15.0
 41
0.0
 71
             7
 72
             1
  1
\C1;DN\C1;125
  7
CONVERTER_1
 11
0.0
 21
1.0
 31
0.0
  0
ENDBLK
  5
32D
100
AcDbEntity
  8
0
100
AcDbBlockEnd
  0
BLOCK
  5
331
100
AcDbEntity
  8
0
100
AcDbBlockBegin
  2
*D8
 70
             1
 10
0.0
 20
0.0
 30
0.0
  3
*D8
  1

  0
LINE
  5
332
100
AcDbEntity
  8
0
  6
CONTINUOUS
 62
             4
100
AcDbLine
 10
560.50351135818266
 20
-98.50291806274043
 11
560.5035115634721
 21
221.49280694938238
  0
LINE
  5
333
100
AcDbEntity
  8
0
  6
CONTINUOUS
 62
             4
100
AcDbLine
 10
306.47987500000039
 20
221.49280711234829
 11
562.5035115634721
 21
221.49280694809929
  0
LINE
  5
334
100
AcDbEntity
  8
0
  6
CONTINUOUS
 62
             4
100
AcDbLine
 10
287.58438100000012
 20
-98.50291788765242
 11
562.50351135818266
 21
-98.50291806402353
  0
SOLID
  5
335
100
AcDbEntity
  8
0
 62
             4
100
AcDbTrace
 10
558.52872390399477
 20
-83.50291806147354
 11
562.4782988316166
 21
-83.50291806400733
 12
560.50351135818266
 22
-98.50291806274043
 13
560.50351135818266
 23
-98.50291806274043
  0
SOLID
  5
336
100
AcDbEntity
  8
0
 62
             4
100
AcDbTrace
 10
562.47829901765999
 20
206.49280694811549
 11
558.52872409003817
 21
206.49280695064928
 12
560.5035115634721
 22
221.49280694938238
 13
560.5035115634721
 23
221.49280694938238
  0
MTEXT
  5
337
100
AcDbEntity
  8
0
 62
             1
100
AcDbMText
 10
558.50351147398214
 20
32.79987541813394
 30
0.0
 40
15.0
 41
0.0
 71
             7
 72
             1
  1
\C1;220-\C1;320
  7
CONVERTER_1
 11
0.0
 21
1.0
 31
0.0
  0
ENDBLK
  5
338
100
AcDbEntity
  8
0
100
AcDbBlockEnd
  0
BLOCK
  5
33C
100
AcDbEntity
  8
0
100
AcDbBlockBegin
  2
*D9
 70
             1
 10
0.0
 20
0.0
 30
0.0
  3
*D9
  1

  0
LINE
  5
33D
100
AcDbEntity
  8
0
  6
CONTINUOUS
 62
             4
100
AcDbLine
 10
587.70363043539817
 20
-98.5029180801904
 11
587.70363066121843
 21
253.49526231518598
  0
LINE
  5
33E
100
AcDbEntity
  8
0
  6
CONTINUOUS
 62
             4
100
AcDbLine
 10
124.50375500000109
 20
253.49526261234638
 11
589.70363066121843
 21
253.49526231390291
  0
LINE
  5
33F
100
AcDbEntity
  8
0
  6
CONTINUOUS
 62
             4
100
AcDbLine
 10
287.58438100000006
 20
-98.50291788765239
 11
589.70363043539817
 21
-98.5029180814735
  0
SOLID
  5
340
100
AcDbEntity
  8
0
 62
             4
100
AcDbTrace
 10
585.72884298121028
 20
-83.5029180789235
 11
589.6784179088321
 21
-83.5029180814573
 12
587.70363043539817
 22
-98.5029180801904
 13
587.70363043539817
 23
-98.5029180801904
  0
SOLID
  5
341
100
AcDbEntity
  8
0
 62
             4
100
AcDbTrace
 10
589.67841811540632
 20
238.49526231391908
 11
585.72884318778449
 21
238.49526231645288
 12
587.70363066121843
 22
253.49526231518598
 13
587.70363066121843
 23
253.49526231518598
  0
MTEXT
  5
342
100
AcDbEntity
  8
0
 62
             1
100
AcDbMText
 10
585.70363058098553
 20
128.43201803276176
 30
0.0
 40
15.0
 41
0.0
 71
             7
 72
             1
  1
352
  7
CONVERTER_1
 11
0.0
 21
1.0
 31
0.0
  0
ENDBLK
  5
343
100
AcDbEntity
  8
0
100
AcDbBlockEnd
  0
ENDSEC
  0
SECTION
  2
ENTITIES
  0
DIMENSION
  5
345
100
AcDbEntity
  8
1
100
AcDbDimension
  2
*D9
 10
587.70363043539817
 20
-98.5029180801904
 11
578.20363059253327
 21
146.4320180375733
 31
0.0
 53
89.99999996324257
  1
<>
  3
ME10_DIM_7
100
AcDbAlignedDimension
 13
124.50375500000111
 23
253.49526261234641
 14
287.58438100000012
 24
-98.5029178876524
 50
89.99999996324257
100
AcDbRotatedDimension
  0
DIMENSION
  5
33A
100
AcDbEntity
  8
1
100
AcDbDimension
  2
*D8
 10
560.50351135818266
 20
-98.50291806274043
 11
551.00351146772709
 21
72.24987542294548
 31
0.0
 53
89.99999996324257
  1
<>
  3
ME10_DIM_6
100
AcDbAlignedDimension
 13
306.4798750000005
 23
221.49280711234829
 14
287.58438100000012
 24
-98.5029178876524
 50
89.99999996324257
100
AcDbRotatedDimension
  0
DIMENSION
  5
32F
100
AcDbEntity
  8
1
100
AcDbDimension
  2
*D7
 10
534.65509369649999
 20
31.4958850897937
 11
525.15509365778712
 21
-28.84788266790767
 31
0.0
 53
89.99999996324257
  1
<>
  3
ME10_DIM_5
100
AcDbAlignedDimension
 13
499.4873589999994
 23
-93.50206588765127
 14
499.4989389999979
 24
31.49588511234772
 50
89.99999996324257
100
AcDbRotatedDimension
  0
DIMENSION
  5
324
100
AcDbEntity
  8
1
100
AcDbDimension
  2
*D6
 10
-16.84367187550501
 20
62.4999997422155
 11
-26.34367191497717
 21
0.97264272313114
 31
0.0
 53
89.99999996324257
  1
<>
  3
ME10_DIM_4
100
AcDbAlignedDimension
 13
-6.61434399999831
 23
-62.50000026434701
 14
-6.61434399999831
 24
62.49999973565299
 50
89.99999996324257
100
AcDbRotatedDimension
  0
DIMENSION
  5
319
100
AcDbEntity
  8
1
100
AcDbDimension
  2
*D5
 10
464.8447533866983
 20
-0.00000029821572
 11
455.34475342104992
 21
53.54569512885399
 31
0.0
 53
89.99999996324257
  1
<>
  3
ME10_DIM_3
100
AcDbAlignedDimension
 13
425.20594781137379
 23
-31.00319728221193
 14
69.69497320762291
 24
-0.000000044712
 50
89.99999996324257
100
AcDbRotatedDimension
  0
DIMENSION
  5
30C
100
AcDbEntity
  8
1
100
AcDbDimension
  2
*D4
 10
503.99870701083921
 20
-128.3663487533604
 11
260.11480060013611
 21
-118.8666997145675
 31
0.0
 53
0.00013888888889
  1
<>
  3
ME10_DIM_2
100
AcDbAlignedDimension
 13
-1.0
 23
-63.95120488765234
 14
503.99865499999999
 24
-92.22387488765376
 50
0.00008245151063
100
AcDbRotatedDimension
  0
DIMENSION
  5
301
100
AcDbEntity
  8
1
100
AcDbDimension
  2
*D3
 10
438.6601870344295
 20
272.55888296719712
 11
250.85399741972839
 21
282.05861270464709
 31
0.0
 53
0.00013888888889
  1
<>
  3
ME10_DIM_1
100
AcDbAlignedDimension
 13
60.66102800000181
 23
108.7421731123483
 14
438.66044400000061
 24
93.99280711234827
 50
0.00008245151063
100
AcDbRotatedDimension
  0
DIMENSION
  5
2F6
100
AcDbEntity
  8
1
100
AcDbDimension
  2
*D2
 10
904.34397297947726
 20
272.55931345702368
 11
736.39031654427288
 21
282.05931345702368
 31
0.0
 53
180.0
  1
<>
  3
ME10_DIM_0
100
AcDbAlignedDimension
 13
664.34397297947726
 23
136.52240489357791
 14
904.34397297947726
 24
136.52248720360512
 50
180.0
100
AcDbRotatedDimension
  0
INSERT
  5
35
100
AcDbEntity
  8
1
100
AcDbBlockReference
  2
HL_712_2EPC_R_CKSTAUVES__1
 10
432.65812306561929
 20
541.81238104701333
  0
INSERT
  5
36
100
AcDbEntity
  8
0
100
AcDbBlockReference
  2
HL_712_2EPC_R_CKSTAUVES__2
 10
441.58943986963283
 20
1065.4689867674549
  0
ENDSEC
  0
SECTION
  2
OBJECTS
  0
DICTIONARY
  5
19
100
AcDbDictionary
  3
ACAD_GROUP
350
1A
  3
ACAD_MLINESTYLE
350
1B
  0
DICTIONARY
  5
1A
102
{ACAD_REACTORS
330
19
102
}
100
AcDbDictionary
  0
DICTIONARY
  5
1B
102
{ACAD_REACTORS
330
19
102
}
100
AcDbDictionary
  3
STANDARD
350
1C
  0
MLINESTYLE
  5
1C
102
{ACAD_REACTORS
330
1B
102
}
100
AcDbMlineStyle
  2
STANDARD
 70
             0
  3

 62
             0
 51
90.0
 52
90.0
 71
             2
 49
0.5
 62
           256
  6
BYLAYER
 49
-0.5
 62
           256
  6
BYLAYER
  0
ENDSEC
  0
EOF
