  0
SECTION
  2
HEADER
  9
$ACADVER
  1
AC1014
  9
$ACADMAINTVER
 70
             0
  9
$DWGCODEPAGE
  3
ANSI_1252
  9
$INSBASE
 10
0.0
 20
0.0
 30
0.0
  9
$EXTMIN
 10
-58.10326830731143
 20
-115.16379439376691
 30
0.0
  9
$EXTMAX
 10
644.45074363232573
 20
166.6284586280776
 30
0.0
  9
$LIMMIN
 10
0.0
 20
0.0
  9
$LIMMAX
 10
0.0
 20
0.0
  9
$ORTHOMODE
 70
             0
  9
$REGENMODE
 70
             1
  9
$FILLMODE
 70
             1
  9
$QTEXTMODE
 70
             0
  9
$MIRRTEXT
 70
             1
  9
$DRAGMODE
 70
             2
  9
$LTSCALE
 40
1.0
  9
$OSMODE
 70
             0
  9
$ATTMODE
 70
             1
  9
$TEXTSIZE
 40
0.2
  9
$TRACEWID
 40
0.05
  9
$TEXTSTYLE
  7
STANDARD
  9
$CLAYER
  8
0
  9
$CELTYPE
  6
CONTINUOUS
  9
$CECOLOR
 62
           256
  9
$CELTSCALE
 40
1.0
  9
$DELOBJ
 70
             1
  9
$DISPSILH
 70
             0
  9
$DIMSCALE
 40
1.0
  9
$DIMASZ
 40
0.18
  9
$DIMEXO
 40
0.0625
  9
$DIMDLI
 40
0.38
  9
$DIMRND
 40
0.0
  9
$DIMDLE
 40
0.0
  9
$DIMEXE
 40
0.18
  9
$DIMTP
 40
0.0
  9
$DIMTM
 40
0.0
  9
$DIMTXT
 40
0.18
  9
$DIMCEN
 40
0.09
  9
$DIMTSZ
 40
0.0
  9
$DIMTOL
 70
             0
  9
$DIMLIM
 70
             0
  9
$DIMTIH
 70
             1
  9
$DIMTOH
 70
             1
  9
$DIMSE1
 70
             0
  9
$DIMSE2
 70
             0
  9
$DIMTAD
 70
             0
  9
$DIMZIN
 70
             0
  9
$DIMBLK
  1

  9
$DIMASO
 70
             1
  9
$DIMSHO
 70
             1
  9
$DIMPOST
  1

  9
$DIMAPOST
  1

  9
$DIMALT
 70
             0
  9
$DIMALTD
 70
             2
  9
$DIMALTF
 40
25.4
  9
$DIMLFAC
 40
1.0
  9
$DIMTOFL
 70
             0
  9
$DIMTVP
 40
0.0
  9
$DIMTIX
 70
             0
  9
$DIMSOXD
 70
             0
  9
$DIMSAH
 70
             0
  9
$DIMBLK1
  1

  9
$DIMBLK2
  1

  9
$DIMSTYLE
  2
STANDARD
  9
$DIMCLRD
 70
             0
  9
$DIMCLRE
 70
             0
  9
$DIMCLRT
 70
             0
  9
$DIMTFAC
 40
1.0
  9
$DIMGAP
 40
0.09
  9
$DIMJUST
 70
             0
  9
$DIMSD1
 70
             0
  9
$DIMSD2
 70
             0
  9
$DIMTOLJ
 70
             1
  9
$DIMTZIN
 70
             0
  9
$DIMALTZ
 70
             0
  9
$DIMALTTZ
 70
             0
  9
$DIMFIT
 70
             3
  9
$DIMUPT
 70
             0
  9
$DIMUNIT
 70
             2
  9
$DIMDEC
 70
             4
  9
$DIMTDEC
 70
             4
  9
$DIMALTU
 70
             2
  9
$DIMALTTD
 70
             2
  9
$DIMTXSTY
  7
STANDARD
  9
$DIMAUNIT
 70
             0
  9
$LUNITS
 70
             2
  9
$LUPREC
 70
             4
  9
$SKETCHINC
 40
0.1
  9
$FILLETRAD
 40
0.0
  9
$AUNITS
 70
             0
  9
$AUPREC
 70
             0
  9
$MENU
  1
acad
  9
$ELEVATION
 40
0.0
  9
$PELEVATION
 40
0.0
  9
$THICKNESS
 40
0.0
  9
$LIMCHECK
 70
             0
  9
$BLIPMODE
 70
             1
  9
$CHAMFERA
 40
0.0
  9
$CHAMFERB
 40
0.0
  9
$CHAMFERC
 40
0.0
  9
$CHAMFERD
 40
0.0
  9
$SKPOLY
 70
             0
  9
$TDCREATE
 40
0.000000000
  9
$TDUPDATE
 40
0.000000000
  9
$TDINDWG
 40
0.0000000000
  9
$TDUSRTIMER
 40
0.0000000000
  9
$USRTIMER
 70
             1
  9
$ANGBASE
 50
0.0
  9
$ANGDIR
 70
             0
  9
$PDMODE
 70
             0
  9
$PDSIZE
 40
0.0
  9
$PLINEWID
 40
0.0
  9
$COORDS
 70
             0
  9
$SPLFRAME
 70
             0
  9
$SPLINETYPE
 70
             6
  9
$SPLINESEGS
 70
             8
  9
$ATTDIA
 70
             0
  9
$ATTREQ
 70
             1
  9
$HANDLING
 70
             1
  9
$HANDSEED
  5
176
  9
$SURFTAB1
 70
             6
  9
$SURFTAB2
 70
             6
  9
$SURFTYPE
 70
             6
  9
$SURFU
 70
             6
  9
$SURFV
 70
             6
  9
$UCSNAME
  2

  9
$UCSORG
 10
0.0
 20
0.0
 30
0.0
  9
$UCSXDIR
 10
1.0
 20
0.0
 30
0.0
  9
$UCSYDIR
 10
0.0
 20
1.0
 30
0.0
  9
$PUCSNAME
  2

  9
$PUCSORG
 10
0.0
 20
0.0
 30
0.0
  9
$PUCSXDIR
 10
1.0
 20
0.0
 30
0.0
  9
$PUCSYDIR
 10
0.0
 20
1.0
 30
0.0
  9
$USERI1
 70
             0
  9
$USERI2
 70
             0
  9
$USERI3
 70
             0
  9
$USERI4
 70
             0
  9
$USERI5
 70
             0
  9
$USERR1
 40
12.01
  9
$USERR2
 40
0.0
  9
$USERR3
 40
0.0
  9
$USERR4
 40
0.0
  9
$USERR5
 40
0.0
  9
$WORLDVIEW
 70
             1
  9
$SHADEDGE
 70
             3
  9
$SHADEDIF
 70
            70
  9
$TILEMODE
 70
             1
  9
$MAXACTVP
 70
            16
  9
$PINSBASE
 10
0.0
 20
0.0
 30
0.0
  9
$PLIMCHECK
 70
             0
  9
$PEXTMIN
 10
1.00000000000000E+20
 20
1.00000000000000E+20
 30
1.00000000000000E+20
  9
$PEXTMAX
 10
-1.00000000000000E+20
 20
-1.00000000000000E+20
 30
-1.00000000000000E+20
  9
$PLIMMIN
 10
0.0
 20
0.0
  9
$PLIMMAX
 10
12.0
 20
9.0
  9
$UNITMODE
 70
             0
  9
$VISRETAIN
 70
             0
  9
$PLINEGEN
 70
             1
  9
$PSLTSCALE
 70
             0
  9
$TREEDEPTH
 70
          3020
  9
$PICKSTYLE
 70
             1
  9
$CMLSTYLE
  2
STANDARD
  9
$CMLJUST
 70
             0
  9
$CMLSCALE
 40
1.0
  9
$PROXYGRAPHICS
 70
             0
  9
$MEASUREMENT
 70
             1
  0
ENDSEC
  0
SECTION
  2
CLASSES
  0
CLASS
  1
LWPOLYLINE
  2
AcDbPolyline
  3
"AutoCAD"
 90
        0
280
             0
281
             1
  0
CLASS
  1
IMAGE
  2
AcDbRasterImage
  3
ISM
 90
      127
280
             0
281
             1
  0
CLASS
  1
OLE2FRAME
  2
AcDbOle2Frame
  3
""
 90
        0
280
             0
281
             1
  0
CLASS
  1
HATCH
  2
AcDbHatch
  3
"ACAD_SEDONA"
 90
        0
280
             0
281
             1
  0
CLASS
  1
DICTIONARYVAR
  2
AcDbDictionaryVar
  3
"AutoCAD"
 90
        0
280
             0
281
             0
  0
CLASS
  1
RASTERVARIABLES
  2
AcDbRasterVariables
  3
ISM
 90
        0
280
             0
281
             0
  0
CLASS
  1
IMAGEDEF
  2
AcDbRasterImageDef
  3
ISM
 90
        0
280
             0
281
             0
  0
CLASS
  1
IMAGEDEF_REACTOR
  2
AcDbRasterImageDefReactor
  3
ISM
 90
        1
280
             0
281
             0
  0
CLASS
  1
IDBUFFER
  2
AcDbIdBuffer
  3
"Acad"
 90
        0
280
             0
281
             0
  0
CLASS
  1
SPATIAL_FILTER
  2
AcDbSpatialFilter
  3
"Acad"
 90
        0
280
             0
281
             0
  0
CLASS
  1
XRECORD
  2
AcDbXrecord
  3
"<Built In>"
 90
        0
280
             0
281
             0
  0
CLASS
  1
SORTENTSTABLE
  2
AcDbSortentsTable
  3
"AutoCAD"
 90
        0
280
             0
281
             0
  0
CLASS
  1
LAYER_INDEX
  2
AcDbLayerIndex
  3
"Acad"
 90
        0
280
             0
281
             0
  0
CLASS
  1
SPATIAL_INDEX
  2
AcDbSpatialIndex
  3
"Acad"
 90
        0
280
             0
281
             0
  0
CLASS
  1
OBJECT_PTR
  2
CAseDLPNTableRecord
  3
"ASE-LPNTableRecord"
 90
        1
280
             0
281
             0
  0
CLASS
  1
LAYOUT
  2
AcDbLayout
  3
"AutoCAD 2000"
 90
        0
280
             0
281
             0
  0
CLASS
  1
PLOTSETTINGS
  2
AcDbPlotSettings
  3
"AutoCAD 2000"
 90
        0
280
             0
281
             0
  0
CLASS
  1
ACDBDICTIONARYWDFLT
  2
AcDbDictionaryWithDefault
  3
"AutoCAD 2000"
 90
        0
280
             0
281
             0
  0
CLASS
  1
ACDBPLACEHOLDER
  2
AcDbPlaceHolder
  3
"AutoCAD 2000"
 90
        0
280
             0
281
             0
  0
ENDSEC
  0
SECTION
  2
TABLES
  0
TABLE
  2
VPORT
  5
7
100
AcDbSymbolTable
 70
             1
  0
VPORT
  5
15
100
AcDbSymbolTableRecord
100
AcDbViewportTableRecord
  2
*ACTIVE
 70
             0
 10
0.0
 20
0.0
 11
1.0
 21
1.0
 12
293.17373766250716
 22
25.73233211715535
 13
0.0
 23
0.0
 14
1.0
 24
1.0
 15
0.0
 25
0.0
 16
0.0
 26
0.0
 36
1.0
 17
0.0
 27
0.0
 37
0.0
 40
482.19863103600744
 41
1.60267857142857
 42
50.0
 43
0.0
 44
0.0
 50
0.0
 51
0.0
 71
             0
 72
           100
 73
             1
 74
             1
 75
             0
 76
             0
 77
             0
 78
             0
  0
ENDTAB
  0
TABLE
  2
LTYPE
  5
4
100
AcDbSymbolTable
 70
            10
  0
LTYPE
  5
11
100
AcDbSymbolTableRecord
100
AcDbLinetypeTableRecord
  2
BYBLOCK
 70
            64
  3

 72
            65
 73
             0
 40
0.0
  0
LTYPE
  5
12
100
AcDbSymbolTableRecord
100
AcDbLinetypeTableRecord
  2
BYLAYER
 70
            64
  3

 72
            65
 73
             0
 40
0.0
  0
LTYPE
  5
13
100
AcDbSymbolTableRecord
100
AcDbLinetypeTableRecord
  2
CONTINUOUS
 70
            64
  3
Solid line
 72
            65
 73
             0
 40
0.0
  0
LTYPE
  5
1D
100
AcDbSymbolTableRecord
100
AcDbLinetypeTableRecord
  2
DASHED
 70
            64
  3
Dashed
 72
            65
 73
             2
 40
15.0
 49
7.0
 74
             0
 49
-8.0
 74
             0
  0
LTYPE
  5
1E
100
AcDbSymbolTableRecord
100
AcDbLinetypeTableRecord
  2
DOTTED
 70
            64
  3
Dotted
 72
            65
 73
             2
 40
1.0
 49
0.0
 74
             0
 49
-1.0
 74
             0
  0
LTYPE
  5
1F
100
AcDbSymbolTableRecord
100
AcDbLinetypeTableRecord
  2
DOT_CENTER
 70
            64
  3
Dot_Center
 72
            65
 73
             4
 40
14.0
 49
12.0
 74
             0
 49
-1.0
 74
             0
 49
0.0
 74
             0
 49
-1.0
 74
             0
  0
LTYPE
  5
20
100
AcDbSymbolTableRecord
100
AcDbLinetypeTableRecord
  2
LONG_DASHED
 70
            64
  3
Long_Dashed
 72
            65
 73
             2
 40
15.0
 49
10.0
 74
             0
 49
-5.0
 74
             0
  0
LTYPE
  5
21
100
AcDbSymbolTableRecord
100
AcDbLinetypeTableRecord
  2
DASH_CENTER
 70
            64
  3
Dash_Center
 72
            65
 73
             4
 40
14.0
 49
11.0
 74
             0
 49
-1.0
 74
             0
 49
1.0
 74
             0
 49
-1.0
 74
             0
  0
LTYPE
  5
22
100
AcDbSymbolTableRecord
100
AcDbLinetypeTableRecord
  2
PHANTOM
 70
            64
  3
Phantom
 72
            65
 73
             6
 40
13.0
 49
10.0
 74
             0
 49
-1.0
 74
             0
 49
0.0
 74
             0
 49
-1.0
 74
             0
 49
0.0
 74
             0
 49
-1.0
 74
             0
  0
LTYPE
  5
23
100
AcDbSymbolTableRecord
100
AcDbLinetypeTableRecord
  2
CENTER_DASH_DASH
 70
            64
  3
Center_Dash_Dash
 72
            65
 73
             6
 40
14.0
 49
9.0
 74
             0
 49
-1.0
 74
             0
 49
1.0
 74
             0
 49
-1.0
 74
             0
 49
1.0
 74
             0
 49
-1.0
 74
             0
  0
ENDTAB
  0
TABLE
  2
LAYER
  5
2
100
AcDbSymbolTable
 70
             8
  0
LAYER
  5
14
100
AcDbSymbolTableRecord
100
AcDbLayerTableRecord
  2
0
 70
             0
 62
             7
  6
CONTINUOUS
  0
LAYER
  5
24
100
AcDbSymbolTableRecord
100
AcDbLayerTableRecord
  2
1
 70
             0
 62
             7
  6
CONTINUOUS
  0
LAYER
  5
25
100
AcDbSymbolTableRecord
100
AcDbLayerTableRecord
  2
LC-001-001-----0
 70
             0
 62
             7
  6
CONTINUOUS
  0
LAYER
  5
26
100
AcDbSymbolTableRecord
100
AcDbLayerTableRecord
  2
LC-002-002-----0
 70
             0
 62
             7
  6
CONTINUOUS
  0
LAYER
  5
27
100
AcDbSymbolTableRecord
100
AcDbLayerTableRecord
  2
LC-003-100-D03-0
 70
             0
 62
             7
  6
CONTINUOUS
  0
LAYER
  5
28
100
AcDbSymbolTableRecord
100
AcDbLayerTableRecord
  2
LC-004-002-----0
 70
             0
 62
             7
  6
CONTINUOUS
  0
LAYER
  5
29
100
AcDbSymbolTableRecord
100
AcDbLayerTableRecord
  2
LC-008-002-RND-0
 70
             0
 62
             7
  6
CONTINUOUS
  0
LAYER
  5
2A
100
AcDbSymbolTableRecord
100
AcDbLayerTableRecord
  2
LC-009-002-RND-0
 70
             0
 62
             7
  6
CONTINUOUS
  0
ENDTAB
  0
TABLE
  2
STYLE
  5
3
100
AcDbSymbolTable
 70
             2
  0
STYLE
  5
17
100
AcDbSymbolTableRecord
100
AcDbTextStyleTableRecord
  2
STANDARD
 70
             0
 40
0.0
 41
1.0
 50
0.0
 71
             0
 42
0.0
  3
txt
  4

  0
STYLE
  5
139
100
AcDbSymbolTableRecord
100
AcDbTextStyleTableRecord
  2
CONVERTER_1
 70
             0
 40
0.0
 41
0.9
 50
0.0
 71
             0
 42
0.0
  3
txt.shx
  4

  0
ENDTAB
  0
TABLE
  2
VIEW
  5
5
100
AcDbSymbolTable
 70
             0
  0
ENDTAB
  0
TABLE
  2
UCS
  5
6
100
AcDbSymbolTable
 70
             0
  0
ENDTAB
  0
TABLE
  2
APPID
  5
8
100
AcDbSymbolTable
 70
             1
  0
APPID
  5
16
100
AcDbSymbolTableRecord
100
AcDbRegAppTableRecord
  2
ACAD
 70
             0
  0
ENDTAB
  0
TABLE
  2
DIMSTYLE
  5
9
100
AcDbSymbolTable
 70
             7
  0
DIMSTYLE
105
18
100
AcDbSymbolTableRecord
100
AcDbDimStyleTableRecord
  2
STANDARD
 70
             0
  3

  4

  5

  6

  7

 40
1.0
 41
0.18
 42
0.0625
 43
0.38
 44
0.18
 45
0.0
 46
0.0
 47
0.0
 48
0.0
 71
             0
 72
             0
 73
             1
 74
             1
 75
             0
 76
             0
 77
             0
 78
             0
140
0.18
141
0.09
142
0.0
143
25.4
144
1.0
145
0.0
146
1.0
147
0.09
170
             0
171
             2
172
             0
173
             0
174
             0
175
             0
176
             0
177
             0
178
             0
270
             2
271
             4
272
             4
273
             2
274
             2
275
             0
280
             0
281
             0
282
             0
283
             1
284
             0
285
             0
286
             0
287
             3
288
             0
340
17
  0
DIMSTYLE
105
13C
100
AcDbSymbolTableRecord
100
AcDbDimStyleTableRecord
  2
ME10_DIM_0
 70
             0
  3

  4

  5

  6

  7

 40
1.0
 41
15.0
 42
0.0
 43
0.38
 44
2.0
 45
0.0
 46
0.0
 47
0.0
 48
0.0
 71
             0
 72
             0
 73
             0
 74
             0
 75
             0
 76
             0
 77
             1
 78
             8
140
15.0
141
0.09
142
0.0
143
25.4
144
1.0
145
0.0
146
1.0
147
0.625
170
             0
171
             2
172
             1
173
             1
174
             0
175
             0
176
             4
177
             4
178
             1
270
             2
271
             2
272
             4
273
             2
274
             2
275
             0
280
             0
281
             0
282
             0
283
             1
284
             0
285
             0
286
             0
287
             3
288
             0
340
139
  0
DIMSTYLE
105
147
100
AcDbSymbolTableRecord
100
AcDbDimStyleTableRecord
  2
ME10_DIM_1
 70
             0
  3
DN<>
  4

  5

  6

  7

 40
1.0
 41
15.0
 42
0.0
 43
0.38
 44
2.0
 45
0.0
 46
0.0
 47
0.0
 48
0.0
 71
             0
 72
             0
 73
             0
 74
             0
 75
             0
 76
             0
 77
             1
 78
             8
140
15.0
141
0.09
142
0.0
143
25.4
144
1.0
145
0.0
146
1.0
147
0.625
170
             0
171
             2
172
             1
173
             1
174
             0
175
             0
176
             4
177
             4
178
             1
270
             2
271
             2
272
             4
273
             2
274
             2
275
             0
280
             0
281
             0
282
             0
283
             1
284
             0
285
             0
286
             0
287
             3
288
             0
340
139
  0
DIMSTYLE
105
152
100
AcDbSymbolTableRecord
100
AcDbDimStyleTableRecord
  2
ME10_DIM_2
 70
             0
  3
DN<>
  4

  5

  6

  7

 40
1.0
 41
15.0
 42
0.0
 43
0.38
 44
2.0
 45
0.0
 46
0.0
 47
0.0
 48
0.0
 71
             0
 72
             0
 73
             0
 74
             0
 75
             0
 76
             0
 77
             1
 78
             8
140
15.0
141
0.09
142
0.0
143
25.4
144
1.0
145
0.0
146
1.0
147
0.625
170
             0
171
             2
172
             1
173
             1
174
             0
175
             0
176
             4
177
             4
178
             1
270
             2
271
             2
272
             4
273
             2
274
             2
275
             0
280
             0
281
             0
282
             0
283
             1
284
             0
285
             0
286
             0
287
             3
288
             0
340
139
  0
DIMSTYLE
105
15D
100
AcDbSymbolTableRecord
100
AcDbDimStyleTableRecord
  2
ME10_DIM_3
 70
             0
  3

  4

  5

  6

  7

 40
1.0
 41
15.0
 42
0.0
 43
0.38
 44
2.0
 45
0.0
 46
0.0
 47
0.0
 48
0.0
 71
             0
 72
             0
 73
             0
 74
             0
 75
             0
 76
             0
 77
             1
 78
             8
140
15.0
141
0.09
142
0.0
143
25.4
144
1.0
145
0.0
146
1.0
147
0.625
170
             0
171
             2
172
             1
173
             1
174
             0
175
             0
176
             4
177
             4
178
             1
270
             2
271
             2
272
             4
273
             2
274
             2
275
             0
280
             0
281
             0
282
             0
283
             1
284
             0
285
             0
286
             0
287
             3
288
             0
340
139
  0
DIMSTYLE
105
168
100
AcDbSymbolTableRecord
100
AcDbDimStyleTableRecord
  2
ME10_DIM_4
 70
             0
  3

  4

  5

  6

  7

 40
1.0
 41
15.0
 42
0.0
 43
0.38
 44
2.0
 45
0.0
 46
0.0
 47
0.0
 48
0.0
 71
             0
 72
             0
 73
             0
 74
             0
 75
             0
 76
             0
 77
             1
 78
             8
140
15.0
141
0.09
142
0.0
143
25.4
144
1.0
145
0.0
146
1.0
147
0.625
170
             0
171
             2
172
             1
173
             1
174
             0
175
             0
176
             4
177
             4
178
             1
270
             2
271
             2
272
             4
273
             2
274
             2
275
             0
280
             0
281
             0
282
             0
283
             1
284
             0
285
             0
286
             0
287
             3
288
             0
340
139
  0
DIMSTYLE
105
173
100
AcDbSymbolTableRecord
100
AcDbDimStyleTableRecord
  2
ME10_DIM_5
 70
             0
  3

  4

  5

  6

  7

 40
1.0
 41
15.0
 42
0.0
 43
0.38
 44
2.0
 45
0.0
 46
0.0
 47
0.0
 48
0.0
 71
             0
 72
             0
 73
             0
 74
             0
 75
             0
 76
             0
 77
             1
 78
             8
140
15.0
141
0.09
142
0.0
143
25.4
144
1.0
145
0.0
146
1.0
147
0.625
170
             0
171
             2
172
             1
173
             1
174
             0
175
             0
176
             4
177
             4
178
             1
270
             2
271
             2
272
             4
273
             2
274
             2
275
             0
280
             0
281
             0
282
             0
283
             1
284
             0
285
             0
286
             0
287
             3
288
             0
340
139
  0
ENDTAB
  0
TABLE
  2
BLOCK_RECORD
  5
1
100
AcDbSymbolTable
 70
             9
  0
BLOCK_RECORD
  5
A
100
AcDbSymbolTableRecord
100
AcDbBlockTableRecord
  2
*MODEL_SPACE
  0
BLOCK_RECORD
  5
B
100
AcDbSymbolTableRecord
100
AcDbBlockTableRecord
  2
*PAPER_SPACE
  0
BLOCK_RECORD
  5
2B
100
AcDbSymbolTableRecord
100
AcDbBlockTableRecord
  2
HL_712_R_CKSTAUVERSCHLS__1
  0
BLOCK_RECORD
  5
2D
100
AcDbSymbolTableRecord
100
AcDbBlockTableRecord
  2
HL_712_R_CKSTAUVERSCHLS__2
  0
BLOCK_RECORD
  5
2F
100
AcDbSymbolTableRecord
100
AcDbBlockTableRecord
  2
HL_712_R_CKSTAUVERSCHLS__3
  0
BLOCK_RECORD
  5
132
100
AcDbSymbolTableRecord
100
AcDbBlockTableRecord
  2
*D3
  0
BLOCK_RECORD
  5
13E
100
AcDbSymbolTableRecord
100
AcDbBlockTableRecord
  2
*D4
  0
BLOCK_RECORD
  5
149
100
AcDbSymbolTableRecord
100
AcDbBlockTableRecord
  2
*D5
  0
BLOCK_RECORD
  5
154
100
AcDbSymbolTableRecord
100
AcDbBlockTableRecord
  2
*D6
  0
BLOCK_RECORD
  5
15F
100
AcDbSymbolTableRecord
100
AcDbBlockTableRecord
  2
*D7
  0
BLOCK_RECORD
  5
16A
100
AcDbSymbolTableRecord
100
AcDbBlockTableRecord
  2
*D8
  0
ENDTAB
  0
ENDSEC
  0
SECTION
  2
BLOCKS
  0
BLOCK
  5
D
100
AcDbEntity
  8
0
100
AcDbBlockBegin
  2
*MODEL_SPACE
 70
             0
 10
0.0
 20
0.0
 30
0.0
  3
*MODEL_SPACE
  1

  0
ENDBLK
  5
E
100
AcDbEntity
  8
0
100
AcDbBlockEnd
  0
BLOCK
  5
F
100
AcDbEntity
 67
             1
  8
0
100
AcDbBlockBegin
  2
*PAPER_SPACE
 70
             0
 10
0.0
 20
0.0
 30
0.0
  3
*PAPER_SPACE
  1

  0
ENDBLK
  5
10
100
AcDbEntity
 67
             1
  8
0
100
AcDbBlockEnd
  0
BLOCK
  5
2C
100
AcDbEntity
  8
0
100
AcDbBlockBegin
  2
HL_712_R_CKSTAUVERSCHLS__1
 70
             0
 10
1499.8327333632519
 20
-407.82246587936868
 30
0.0
  3
HL_712_R_CKSTAUVERSCHLS__1
  1

  0
XLINE
  5
3A
100
AcDbEntity
  8
1
  6
DOT_CENTER
 62
             3
 60
             1
100
AcDbXline
 10
2013.683317363251
 20
156.71394322968001
 30
0.0
 11
0.0
 21
1.0
 31
0.0
  0
XLINE
  5
39
100
AcDbEntity
  8
1
  6
DOT_CENTER
 62
             3
 60
             1
100
AcDbXline
 10
2013.683317363251
 20
156.71394322968001
 30
0.0
 11
1.0
 21
0.0
 31
0.0
  0
POINT
  5
38
100
AcDbEntity
  8
1
 62
             3
 60
             1
100
AcDbPoint
 10
2013.683317363251
 20
156.71394322968001
  0
POINT
  5
37
100
AcDbEntity
  8
1
 62
             3
 60
             1
100
AcDbPoint
 10
2013.683317363251
 20
328.45885343136348
  0
POINT
  5
36
100
AcDbEntity
  8
1
 62
             3
 60
             1
100
AcDbPoint
 10
2013.683317363251
 20
-15.03096697200721
  0
ENDBLK
  5
3B
100
AcDbEntity
  8
0
100
AcDbBlockEnd
  0
BLOCK
  5
2E
100
AcDbEntity
  8
0
100
AcDbBlockBegin
  2
HL_712_R_CKSTAUVERSCHLS__2
 70
             0
 10
1087.288795406588
 20
-407.82246587936959
 30
0.0
  3
HL_712_R_CKSTAUVERSCHLS__2
  1

  0
XLINE
  5
A1
100
AcDbEntity
  8
1
  6
DOT_CENTER
 62
             3
 60
             1
100
AcDbXline
 10
1601.139379406588
 20
156.7139432296791
 30
0.0
 11
1.0
 21
0.0
 31
0.0
  0
XLINE
  5
A0
100
AcDbEntity
  8
1
  6
DOT_CENTER
 62
             3
 60
             1
100
AcDbXline
 10
1601.139379406588
 20
156.7139432296791
 30
0.0
 11
0.0
 21
1.0
 31
0.0
  0
CIRCLE
  5
9F
100
AcDbEntity
  8
1
  6
CONTINUOUS
 62
             7
100
AcDbCircle
 10
524.45063626234878
 20
0.40008805842905
 40
73.19644773090738
  0
CIRCLE
  5
9E
100
AcDbEntity
  8
1
  6
CONTINUOUS
 62
             7
100
AcDbCircle
 10
524.45063626234878
 20
0.40008805842905
 40
67.19644873090749
  0
CIRCLE
  5
9D
100
AcDbEntity
  8
1
  6
CONTINUOUS
 62
             7
100
AcDbCircle
 10
524.45063626234878
 20
0.40008805842905
 40
62.94999973090751
  0
ARC
  5
9C
100
AcDbEntity
  8
1
  6
CONTINUOUS
 62
             7
100
AcDbCircle
 10
524.45063626234878
 20
-16.10070424178934
 40
58.49996759792479
100
AcDbArc
 50
-7.98482633144015
 51
-172.01517366855987
  0
ARC
  5
9B
100
AcDbEntity
  8
LC-009-002-RND-0
  6
CONTINUOUS
 62
             7
100
AcDbCircle
 10
439.4007052623474
 20
108.4165491799078
 40
3.0
100
AcDbArc
 50
90.0
 51
180.0
  0
ARC
  5
9A
100
AcDbEntity
  8
LC-009-002-RND-0
  6
CONTINUOUS
 62
             7
100
AcDbCircle
 10
434.4007052623474
 20
106.4165491799078
 40
2.0
100
AcDbArc
 50
-90.0
 51
0.0
  0
ARC
  5
99
100
AcDbEntity
  8
LC-003-100-D03-0
  6
CONTINUOUS
 62
             7
100
AcDbCircle
 10
416.49136526234912
 20
89.46079954974005
 40
0.49705000000182
100
AcDbArc
 50
180.0
 51
-90.0
  0
ARC
  5
98
100
AcDbEntity
  8
LC-009-002-RND-0
  6
CONTINUOUS
 62
             7
100
AcDbCircle
 10
416.45203726234649
 20
103.9165491799078
 40
0.5
100
AcDbArc
 50
90.0
 51
180.0
  0
ARC
  5
97
100
AcDbEntity
  8
LC-009-002-RND-0
  6
CONTINUOUS
 62
             7
100
AcDbCircle
 10
416.45203726234649
 20
96.9165491799078
 40
0.5
100
AcDbArc
 50
180.0
 51
-90.0
  0
ARC
  5
96
100
AcDbEntity
  8
LC-009-002-RND-0
  6
CONTINUOUS
 62
             7
100
AcDbCircle
 10
632.44923526234743
 20
96.9165491799078
 40
0.5
100
AcDbArc
 50
-90.0
 51
0.0
  0
ARC
  5
95
100
AcDbEntity
  8
LC-009-002-RND-0
  6
CONTINUOUS
 62
             7
100
AcDbCircle
 10
632.44923526234743
 20
103.9165491799078
 40
0.5
100
AcDbArc
 50
0.0
 51
90.0
  0
ARC
  5
94
100
AcDbEntity
  8
LC-003-100-D03-0
  6
CONTINUOUS
 62
             7
100
AcDbCircle
 10
524.45063626234878
 20
-2.08637221066863
 40
81.4928029999958
100
AcDbArc
 50
-178.72632026524084
 51
-2.45566879744839
  0
ARC
  5
93
100
AcDbEntity
  8
LC-003-100-D03-0
  6
CONTINUOUS
 62
             7
100
AcDbCircle
 10
632.4099072623485
 20
89.46079954974005
 40
0.4970500000054
100
AcDbArc
 50
-90.0
 51
0.0
  0
ARC
  5
92
100
AcDbEntity
  8
LC-009-002-RND-0
  6
CONTINUOUS
 62
             7
100
AcDbCircle
 10
614.50056726234652
 20
106.4165491799078
 40
2.0
100
AcDbArc
 50
180.0
 51
-90.0
  0
ARC
  5
91
100
AcDbEntity
  8
LC-009-002-RND-0
  6
CONTINUOUS
 62
             7
100
AcDbCircle
 10
609.50056726234652
 20
108.4165491799078
 40
3.0
100
AcDbArc
 50
0.0
 51
90.0
  0
ARC
  5
90
100
AcDbEntity
  8
LC-002-002-----0
  6
CONTINUOUS
 62
             7
100
AcDbCircle
 10
621.46584563232864
 20
129.31488446599289
 40
1.0
100
AcDbArc
 50
180.0
 51
-89.99994200008796
  0
ARC
  5
8F
100
AcDbEntity
  8
LC-002-002-----0
  6
CONTINUOUS
 62
             7
100
AcDbCircle
 10
624.46584563232864
 20
129.31488446599289
 40
1.00000000000051
100
AcDbArc
 50
-89.99994200008796
 51
0.0
  0
ARC
  5
8E
100
AcDbEntity
  8
LC-002-002-----0
  6
CONTINUOUS
 62
             7
100
AcDbCircle
 10
624.46584563232864
 20
132.02640667760821
 40
1.0
100
AcDbArc
 50
0.0
 51
90.0
  0
ARC
  5
8D
100
AcDbEntity
  8
LC-002-002-----0
  6
CONTINUOUS
 62
             7
100
AcDbCircle
 10
621.46584563232864
 20
132.02640667760821
 40
1.0
100
AcDbArc
 50
90.0
 51
179.99984799994138
  0
ARC
  5
8C
100
AcDbEntity
  8
LC-002-002-----0
  6
CONTINUOUS
 62
             7
100
AcDbCircle
 10
618.46584563232864
 20
131.39305867760521
 40
2.0
100
AcDbArc
 50
0.0
 51
79.66010899985707
  0
ARC
  5
8B
100
AcDbEntity
  8
LC-002-002-----0
  6
CONTINUOUS
 62
             7
100
AcDbCircle
 10
642.45052563233003
 20
129.78465246598819
 40
1.99999999999636
100
AcDbArc
 50
-73.27314000008164
 51
0.0
  0
ARC
  5
8A
100
AcDbEntity
  8
LC-002-002-----0
  6
CONTINUOUS
 62
             7
100
AcDbCircle
 10
642.45074263232709
 20
129.94839346599221
 40
1.99999999999896
100
AcDbArc
 50
-79.66008799993823
 51
-0.00003700012521
  0
ARC
  5
89
100
AcDbEntity
  8
LC-002-002-----0
  6
CONTINUOUS
 62
             7
100
AcDbCircle
 10
642.45052563233003
 20
131.55663767760521
 40
2.0
100
AcDbArc
 50
0.0
 51
73.27319899995005
  0
ARC
  5
88
100
AcDbEntity
  8
LC-002-002-----0
  6
CONTINUOUS
 62
             7
100
AcDbCircle
 10
622.96818563232773
 20
66.72880493338118
 40
69.69201988818985
100
AcDbArc
 50
73.27319946525853
 51
106.72678246526277
  0
ARC
  5
87
100
AcDbEntity
  8
LC-002-002-----0
  6
CONTINUOUS
 62
             7
100
AcDbCircle
 10
642.45074363232743
 20
131.39322067760909
 40
2.00000000000042
100
AcDbArc
 50
-0.00003700012195
 51
79.65999700010504
  0
ARC
  5
86
100
AcDbEntity
  8
LC-002-002-----0
  6
CONTINUOUS
 62
             7
100
AcDbCircle
 10
634.95842763232758
 20
171.01352137633981
 40
43.74301730390841
100
AcDbArc
 50
-100.34007288268883
 51
-79.66013988268962
  0
ARC
  5
85
100
AcDbEntity
  8
LC-002-002-----0
  6
CONTINUOUS
 62
             7
100
AcDbCircle
 10
627.46606263232934
 20
129.9484024659952
 40
2.00000000000042
100
AcDbArc
 50
179.99996300008405
 51
-100.34000499994367
  0
ARC
  5
84
100
AcDbEntity
  8
LC-002-002-----0
  6
CONTINUOUS
 62
             7
100
AcDbCircle
 10
627.46606363232968
 20
131.39322967760489
 40
2.00000000000414
100
AcDbArc
 50
100.3398349998895
 51
179.99996299987805
  0
ARC
  5
83
100
AcDbEntity
  8
LC-002-002-----0
  6
CONTINUOUS
 62
             7
100
AcDbCircle
 10
634.95837863232919
 20
90.32807909515498
 40
43.74303960783058
100
AcDbArc
 50
79.66007491591839
 51
100.33983791592031
  0
ARC
  5
82
100
AcDbEntity
  8
LC-002-002-----0
  6
CONTINUOUS
 62
             7
100
AcDbCircle
 10
603.48584563232907
 20
129.78465246598819
 40
2.0
100
AcDbArc
 50
180.0
 51
-106.72695300016379
  0
ARC
  5
81
100
AcDbEntity
  8
LC-002-002-----0
  6
CONTINUOUS
 62
             7
100
AcDbCircle
 10
603.48584563232907
 20
131.55663767760521
 40
2.0000000000028
100
AcDbArc
 50
106.72678199984591
 51
180.0
  0
ARC
  5
80
100
AcDbEntity
  8
LC-002-002-----0
  6
CONTINUOUS
 62
             7
100
AcDbCircle
 10
603.48584563232907
 20
129.94823246598861
 40
2.0
100
AcDbArc
 50
180.0
 51
-100.34004299999231
  0
ARC
  5
7F
100
AcDbEntity
  8
LC-002-002-----0
  6
CONTINUOUS
 62
             7
100
AcDbCircle
 10
610.97584563232704
 20
171.00054239243511
 40
43.72999239886436
100
AcDbArc
 50
-100.33989281042641
 51
-79.66005281042345
  0
ARC
  5
7E
100
AcDbEntity
  8
LC-002-002-----0
  6
CONTINUOUS
 62
             7
100
AcDbCircle
 10
603.48584563232907
 20
131.39305867760521
 40
1.99999999999993
100
AcDbArc
 50
100.33987199996517
 51
180.0
  0
ARC
  5
7D
100
AcDbEntity
  8
LC-002-002-----0
  6
CONTINUOUS
 62
             7
100
AcDbCircle
 10
610.97584563232704
 20
90.34074105271532
 40
43.72999997229523
100
AcDbArc
 50
79.66010899999168
 51
100.33989100000365
  0
ARC
  5
7C
100
AcDbEntity
  8
LC-002-002-----0
  6
CONTINUOUS
 62
             7
100
AcDbCircle
 10
618.46584563232864
 20
129.94823246598861
 40
1.99999999999575
100
AcDbArc
 50
-79.66005099996468
 51
0.0
  0
ARC
  5
7B
100
AcDbEntity
  8
LC-002-002-----0
  6
CONTINUOUS
 62
             7
100
AcDbCircle
 10
622.96818563232773
 20
194.6209819480766
 40
69.70015619088002
100
AcDbArc
 50
-106.72493508489897
 51
-73.3532484498062
  0
ARC
  5
7A
100
AcDbEntity
  8
LC-002-002-----0
  6
CONTINUOUS
 62
             7
100
AcDbCircle
 10
430.43520563232778
 20
129.94823246598861
 40
2.0
100
AcDbArc
 50
180.0
 51
-100.33994900003532
  0
ARC
  5
79
100
AcDbEntity
  8
LC-002-002-----0
  6
CONTINUOUS
 62
             7
100
AcDbCircle
 10
437.92520563232938
 20
90.34077571756018
 40
43.72999997229529
100
AcDbArc
 50
79.66010899999161
 51
100.33989100000831
  0
ARC
  5
78
100
AcDbEntity
  8
LC-002-002-----0
  6
CONTINUOUS
 62
             7
100
AcDbCircle
 10
445.4152056323274
 20
131.3930933424501
 40
2.0
100
AcDbArc
 50
0.0
 51
79.66012800003659
  0
ARC
  5
77
100
AcDbEntity
  8
LC-002-002-----0
  6
CONTINUOUS
 62
             7
100
AcDbCircle
 10
437.92520563232938
 20
171.00054239243511
 40
43.72999239886968
100
AcDbArc
 50
-100.33994718957649
 51
-79.66010718956885
  0
ARC
  5
76
100
AcDbEntity
  8
LC-002-002-----0
  6
CONTINUOUS
 62
             7
100
AcDbCircle
 10
445.4152056323274
 20
129.94823246598861
 40
2.0000000000004
100
AcDbArc
 50
-79.65995700000929
 51
0.0
  0
ARC
  5
75
100
AcDbEntity
  8
LC-002-002-----0
  6
CONTINUOUS
 62
             7
100
AcDbCircle
 10
445.4152056323274
 20
131.55667234245001
 40
2.0
100
AcDbArc
 50
0.0
 51
73.2732180001541
  0
ARC
  5
74
100
AcDbEntity
  8
LC-002-002-----0
  6
CONTINUOUS
 62
             7
100
AcDbCircle
 10
445.4152056323274
 20
129.78465246598819
 40
2.00000000000081
100
AcDbArc
 50
-73.27304699983777
 51
0.0
  0
ARC
  5
73
100
AcDbEntity
  8
LC-002-002-----0
  6
CONTINUOUS
 62
             7
100
AcDbCircle
 10
413.94267263232717
 20
90.32811375999984
 40
43.74303960783372
100
AcDbArc
 50
79.66016208407493
 51
100.3399250840815
  0
ARC
  5
72
100
AcDbEntity
  8
LC-002-002-----0
  6
CONTINUOUS
 62
             7
100
AcDbCircle
 10
421.43498763233038
 20
131.3932643424497
 40
2.00000000000042
100
AcDbArc
 50
0.00003700012439
 51
79.6601650001105
  0
ARC
  5
71
100
AcDbEntity
  8
LC-002-002-----0
  6
CONTINUOUS
 62
             7
100
AcDbCircle
 10
421.43498863232708
 20
129.9484024659952
 40
2.00000000000015
100
AcDbArc
 50
-79.65999500005633
 51
0.00003699991595
  0
ARC
  5
70
100
AcDbEntity
  8
LC-002-002-----0
  6
CONTINUOUS
 62
             7
100
AcDbCircle
 10
413.94262363232878
 20
171.01352137633981
 40
43.74301730391267
100
AcDbArc
 50
-100.33986011731032
 51
-79.65992711731103
  0
ARC
  5
6F
100
AcDbEntity
  8
LC-002-002-----0
  6
CONTINUOUS
 62
             7
100
AcDbCircle
 10
406.45030763232899
 20
131.39325534245401
 40
1.99999999999829
100
AcDbArc
 50
100.34000299989351
 51
-179.99996299987478
  0
ARC
  5
6E
100
AcDbEntity
  8
LC-002-002-----0
  6
CONTINUOUS
 62
             7
100
AcDbCircle
 10
425.93286563232869
 20
66.72883959822605
 40
69.69201988818853
100
AcDbArc
 50
73.27321753473434
 51
106.7268005347386
  0
ARC
  5
6D
100
AcDbEntity
  8
LC-002-002-----0
  6
CONTINUOUS
 62
             7
100
AcDbCircle
 10
406.45052563233003
 20
131.55667234245001
 40
2.00000000000278
100
AcDbArc
 50
106.72680100014999
 51
180.0
  0
ARC
  5
6C
100
AcDbEntity
  8
LC-002-002-----0
  6
CONTINUOUS
 62
             7
100
AcDbCircle
 10
406.45030863232932
 20
129.94839346599221
 40
2.00000000000042
100
AcDbArc
 50
-179.99996299987478
 51
-100.33991199995924
  0
ARC
  5
6B
100
AcDbEntity
  8
LC-002-002-----0
  6
CONTINUOUS
 62
             7
100
AcDbCircle
 10
425.93286563232869
 20
194.6209819480766
 40
69.7001561908814
100
AcDbArc
 50
-106.64675155019376
 51
-73.27506491510098
  0
ARC
  5
6A
100
AcDbEntity
  8
LC-002-002-----0
  6
CONTINUOUS
 62
             7
100
AcDbCircle
 10
406.45052563233003
 20
129.78465246598819
 40
2.0
100
AcDbArc
 50
180.0
 51
-106.72685999991837
  0
ARC
  5
69
100
AcDbEntity
  8
LC-002-002-----0
  6
CONTINUOUS
 62
             7
100
AcDbCircle
 10
430.43520563232778
 20
131.3930933424501
 40
1.9999999999987
100
AcDbArc
 50
100.33989100003924
 51
180.0
  0
ARC
  5
68
100
AcDbEntity
  8
LC-002-002-----0
  6
CONTINUOUS
 62
             7
100
AcDbCircle
 10
427.43520563232778
 20
132.0264413424531
 40
1.00000000000352
100
AcDbArc
 50
0.00015200005373
 51
90.0
  0
ARC
  5
67
100
AcDbEntity
  8
LC-002-002-----0
  6
CONTINUOUS
 62
             7
100
AcDbCircle
 10
424.43520563232778
 20
132.0264413424531
 40
1.0
100
AcDbArc
 50
90.0
 51
180.0
  0
ARC
  5
66
100
AcDbEntity
  8
LC-002-002-----0
  6
CONTINUOUS
 62
             7
100
AcDbCircle
 10
424.43520563232778
 20
129.31488446599289
 40
1.0
100
AcDbArc
 50
180.0
 51
-90.00005799990878
  0
ARC
  5
65
100
AcDbEntity
  8
LC-002-002-----0
  6
CONTINUOUS
 62
             7
100
AcDbCircle
 10
427.43520563232778
 20
129.31488446599289
 40
1.00000000000051
100
AcDbArc
 50
-90.00005799990878
 51
0.0
  0
LINE
  5
64
100
AcDbEntity
  8
1
  6
PHANTOM
 62
             2
100
AcDbLine
 10
524.45063626234878
 20
117.09487671771871
 11
524.45063626234878
 21
-88.85705528334262
  0
LINE
  5
63
100
AcDbEntity
  8
1
  6
PHANTOM
 62
             2
100
AcDbLine
 10
611.75011678196802
 20
0.40008805842905
 11
438.3614265962691
 21
0.40008805842905
  0
LINE
  5
62
100
AcDbEntity
  8
LC-002-002-----0
  6
CONTINUOUS
 62
             7
100
AcDbLine
 10
436.4007052623474
 20
96.4165491799078
 11
436.4007052623474
 21
108.4165491799078
  0
LINE
  5
61
100
AcDbEntity
  8
LC-003-100-D03-0
  6
CONTINUOUS
 62
             7
100
AcDbLine
 10
415.9943152623473
 20
89.46079954974005
 11
415.9943152623473
 21
96.4165491799078
  0
LINE
  5
60
100
AcDbEntity
  8
LC-003-100-D03-0
  6
CONTINUOUS
 62
             7
100
AcDbLine
 10
439.97108550879238
 20
88.96374954973464
 11
416.49136526234912
 21
88.96374954973464
  0
LINE
  5
5F
100
AcDbEntity
  8
LC-003-100-D03-0
  6
CONTINUOUS
 62
             7
100
AcDbLine
 10
440.6604671870391
 20
67.2882095454562
 11
416.49136526234912
 21
88.96374954973464
  0
LINE
  5
5E
100
AcDbEntity
  8
LC-002-002-----0
  6
CONTINUOUS
 62
             7
100
AcDbLine
 10
416.45203726234649
 20
104.4165491799078
 11
434.4007052623474
 21
104.4165491799078
  0
LINE
  5
5D
100
AcDbEntity
  8
LC-002-002-----0
  6
CONTINUOUS
 62
             7
100
AcDbLine
 10
415.95203726234649
 20
103.9165491799078
 11
415.95203726234649
 21
96.9165491799078
  0
LINE
  5
5C
100
AcDbEntity
  8
LC-002-002-----0
  6
CONTINUOUS
 62
             7
100
AcDbLine
 10
435.43531626234648
 20
125.5716140649649
 11
435.43531626234648
 21
104.7049475677679
  0
LINE
  5
5B
100
AcDbEntity
  8
LC-002-002-----0
  6
CONTINUOUS
 62
             7
100
AcDbLine
 10
416.4351023543623
 20
125.5709691620624
 11
416.43511326234687
 21
104.41671617991339
  0
LINE
  5
5A
100
AcDbEntity
  8
LC-002-002-----0
  6
CONTINUOUS
 62
             7
100
AcDbLine
 10
632.46615926234699
 20
104.41671617991339
 11
632.46617017034623
 21
125.5709995965309
  0
LINE
  5
59
100
AcDbEntity
  8
LC-002-002-----0
  6
CONTINUOUS
 62
             7
100
AcDbLine
 10
613.46595626234739
 20
104.7049475677679
 11
613.46595626234739
 21
125.5715836159154
  0
LINE
  5
58
100
AcDbEntity
  8
LC-002-002-----0
  6
CONTINUOUS
 62
             7
100
AcDbLine
 10
632.94923526234743
 20
96.9165491799078
 11
632.94923526234743
 21
103.9165491799078
  0
LINE
  5
57
100
AcDbEntity
  8
LC-002-002-----0
  6
CONTINUOUS
 62
             7
100
AcDbLine
 10
614.50056726234652
 20
104.4165491799078
 11
632.44923526234743
 21
104.4165491799078
  0
LINE
  5
56
100
AcDbEntity
  8
LC-003-100-D03-0
  6
CONTINUOUS
 62
             7
100
AcDbLine
 10
632.4099072623485
 20
88.96374954973464
 11
608.24080502435572
 21
67.28820927096342
  0
LINE
  5
55
100
AcDbEntity
  8
LC-003-100-D03-0
  6
CONTINUOUS
 62
             7
100
AcDbLine
 10
632.4099072623485
 20
88.96374954973464
 11
608.93018693280646
 21
88.96374954973464
  0
LINE
  5
54
100
AcDbEntity
  8
LC-003-100-D03-0
  6
CONTINUOUS
 62
             7
100
AcDbLine
 10
524.45063626234878
 20
96.4165491799078
 11
415.9943152623473
 21
96.4165491799078
  0
LINE
  5
53
100
AcDbEntity
  8
LC-003-100-D03-0
  6
CONTINUOUS
 62
             7
100
AcDbLine
 10
632.90695726234662
 20
96.4165491799078
 11
632.90695726234662
 21
89.46079954974005
  0
LINE
  5
52
100
AcDbEntity
  8
LC-002-002-----0
  6
CONTINUOUS
 62
             7
100
AcDbLine
 10
612.50056726234652
 20
108.4165491799078
 11
612.50056726234652
 21
96.4165491799078
  0
LINE
  5
51
100
AcDbEntity
  8
LC-002-002-----0
  6
CONTINUOUS
 62
             7
100
AcDbLine
 10
439.40070426234712
 20
111.4165491799078
 11
609.43056726234681
 21
111.4165491799078
  0
LINE
  5
50
100
AcDbEntity
  8
LC-002-002-----0
  6
CONTINUOUS
 62
             7
100
AcDbLine
 10
416.45203726234649
 20
96.4165491799078
 11
632.44923526234743
 21
96.4165491799078
  0
LINE
  5
4F
100
AcDbEntity
  8
LC-002-002-----0
  6
CONTINUOUS
 62
             7
100
AcDbLine
 10
609.18909492122293
 20
96.4165491799078
 11
605.86860213692671
 21
-5.57804425169422
  0
LINE
  5
4E
100
AcDbEntity
  8
LC-003-100-D03-0
  6
CONTINUOUS
 62
             7
100
AcDbLine
 10
524.45063626234878
 20
96.4165491799078
 11
632.90695726234662
 21
96.4165491799078
  0
LINE
  5
4D
100
AcDbEntity
  8
LC-002-002-----0
  6
CONTINUOUS
 62
             7
100
AcDbLine
 10
439.71217760347099
 20
96.4165491799078
 11
442.97796802843919
 21
-3.8978002780849
  0
LINE
  5
4C
100
AcDbEntity
  8
1
  6
PHANTOM
 62
             2
100
AcDbLine
 10
425.93520619492671
 20
137.59150424439679
 11
425.93521793580481
 21
92.05247299826544
  0
LINE
  5
4B
100
AcDbEntity
  8
1
  6
PHANTOM
 62
             2
100
AcDbLine
 10
622.96605474571879
 20
92.73518057477958
 11
622.96606689075452
 21
139.84180712921909
  0
LINE
  5
4A
100
AcDbEntity
  8
LC-002-002-----0
  6
CONTINUOUS
 62
             7
100
AcDbLine
 10
621.46584563232864
 20
128.31488446599289
 11
624.46584563232864
 21
128.31488446599289
  0
LINE
  5
49
100
AcDbEntity
  8
LC-002-002-----0
  6
CONTINUOUS
 62
             7
100
AcDbLine
 10
620.46584563232864
 20
132.02640667760821
 11
620.46584563232864
 21
129.31488446599289
  0
LINE
  5
48
100
AcDbEntity
  8
LC-002-002-----0
  6
CONTINUOUS
 62
             7
100
AcDbLine
 10
625.46584563232864
 20
129.31488446599289
 11
625.46584563232864
 21
132.02640667760821
  0
LINE
  5
47
100
AcDbEntity
  8
LC-002-002-----0
  6
CONTINUOUS
 62
             7
100
AcDbLine
 10
624.46584563232864
 20
133.02640667760821
 11
621.46584563232864
 21
133.02640667760821
  0
LINE
  5
46
100
AcDbEntity
  8
LC-002-002-----0
  6
CONTINUOUS
 62
             7
100
AcDbLine
 10
644.45052563233003
 20
129.78465246598819
 11
644.45052563233003
 21
131.55663767760521
  0
LINE
  5
45
100
AcDbEntity
  8
LC-002-002-----0
  6
CONTINUOUS
 62
             7
100
AcDbLine
 10
601.48584563232907
 20
129.78465246598819
 11
601.48584563232907
 21
131.55663767760521
  0
LINE
  5
44
100
AcDbEntity
  8
LC-002-002-----0
  6
CONTINUOUS
 62
             7
100
AcDbLine
 10
447.4152056323274
 20
131.55667234245001
 11
447.4152056323274
 21
129.78465246598819
  0
LINE
  5
43
100
AcDbEntity
  8
LC-002-002-----0
  6
CONTINUOUS
 62
             7
100
AcDbLine
 10
404.45052563233003
 20
131.55667234245001
 11
404.45052563233003
 21
129.78465246598819
  0
LINE
  5
42
100
AcDbEntity
  8
LC-002-002-----0
  6
CONTINUOUS
 62
             7
100
AcDbLine
 10
427.43520563232778
 20
133.0264413424531
 11
424.43520563232778
 21
133.0264413424531
  0
LINE
  5
41
100
AcDbEntity
  8
LC-002-002-----0
  6
CONTINUOUS
 62
             7
100
AcDbLine
 10
423.43520563232778
 20
132.0264413424531
 11
423.43520563232778
 21
129.31488446599289
  0
LINE
  5
40
100
AcDbEntity
  8
LC-002-002-----0
  6
CONTINUOUS
 62
             7
100
AcDbLine
 10
428.43520563232778
 20
129.31488446599289
 11
428.43520563232778
 21
132.0264413424531
  0
LINE
  5
3F
100
AcDbEntity
  8
LC-002-002-----0
  6
CONTINUOUS
 62
             7
100
AcDbLine
 10
424.43520563232778
 20
128.31488446599289
 11
427.43520563232778
 21
128.31488446599289
  0
POINT
  5
3E
100
AcDbEntity
  8
1
 62
             3
 60
             1
100
AcDbPoint
 10
1601.139379406588
 20
-15.03096697200812
  0
POINT
  5
3D
100
AcDbEntity
  8
1
 62
             3
 60
             1
100
AcDbPoint
 10
1601.139379406588
 20
328.45885343136263
  0
POINT
  5
3C
100
AcDbEntity
  8
1
 62
             3
 60
             1
100
AcDbPoint
 10
1601.139379406588
 20
156.7139432296791
  0
ENDBLK
  5
A2
100
AcDbEntity
  8
0
100
AcDbBlockEnd
  0
BLOCK
  5
30
100
AcDbEntity
  8
0
100
AcDbBlockBegin
  2
HL_712_R_CKSTAUVERSCHLS__3
 70
             0
 10
-21.5783580183157
 20
-1108.08031956031
 30
0.0
  3
HL_712_R_CKSTAUVERSCHLS__3
  1

  0
ARC
  5
12F
100
AcDbEntity
  8
LC-008-002-RND-0
  6
CONTINUOUS
 62
             7
100
AcDbCircle
 10
217.90620543119309
 20
96.9165491799078
 40
0.5
100
AcDbArc
 50
-90.0
 51
0.0
  0
ARC
  5
12E
100
AcDbEntity
  8
LC-008-002-RND-0
  6
CONTINUOUS
 62
             7
100
AcDbCircle
 10
198.90620543119309
 20
96.9165491799078
 40
0.5
100
AcDbArc
 50
180.0
 51
-90.0
  0
ARC
  5
12D
100
AcDbEntity
  8
LC-008-002-RND-0
  6
CONTINUOUS
 62
             7
100
AcDbCircle
 10
217.90620543119309
 20
103.9165514791969
 40
0.5
100
AcDbArc
 50
0.0
 51
90.0
  0
ARC
  5
12C
100
AcDbEntity
  8
LC-008-002-RND-0
  6
CONTINUOUS
 62
             7
100
AcDbCircle
 10
198.90620543119309
 20
103.9165514791969
 40
0.5
100
AcDbArc
 50
90.0
 51
180.0
  0
ARC
  5
12B
100
AcDbEntity
  8
LC-008-002-RND-0
  6
CONTINUOUS
 62
             7
100
AcDbCircle
 10
217.90620543119309
 20
95.9165491799078
 40
0.5
100
AcDbArc
 50
0.0
 51
90.0
  0
ARC
  5
12A
100
AcDbEntity
  8
LC-008-002-RND-0
  6
CONTINUOUS
 62
             7
100
AcDbCircle
 10
198.90620543119309
 20
95.9165491799078
 40
0.5
100
AcDbArc
 50
90.0
 51
180.0
  0
ARC
  5
129
100
AcDbEntity
  8
LC-008-002-RND-0
  6
CONTINUOUS
 62
             7
100
AcDbCircle
 10
198.90620543119309
 20
89.39646109099198
 40
0.5
100
AcDbArc
 50
180.0
 51
-90.0
  0
ARC
  5
128
100
AcDbEntity
  8
LC-008-002-RND-0
  6
CONTINUOUS
 62
             7
100
AcDbCircle
 10
217.90620543119309
 20
89.39646109099198
 40
0.5
100
AcDbArc
 50
-90.0
 51
0.0
  0
ARC
  5
127
100
AcDbEntity
  8
LC-008-002-RND-0
  6
CONTINUOUS
 62
             7
100
AcDbCircle
 10
109.9052327586726
 20
96.9165491799078
 40
0.5
100
AcDbArc
 50
-90.0
 51
0.0
  0
ARC
  5
126
100
AcDbEntity
  8
LC-008-002-RND-0
  6
CONTINUOUS
 62
             7
100
AcDbCircle
 10
90.90523275867257
 20
96.9165491799078
 40
0.5
100
AcDbArc
 50
180.0
 51
-90.0
  0
ARC
  5
125
100
AcDbEntity
  8
LC-008-002-RND-0
  6
CONTINUOUS
 62
             7
100
AcDbCircle
 10
109.9052327586726
 20
103.9165491799078
 40
0.5
100
AcDbArc
 50
0.0
 51
90.0
  0
ARC
  5
124
100
AcDbEntity
  8
LC-008-002-RND-0
  6
CONTINUOUS
 62
             7
100
AcDbCircle
 10
90.90523275867257
 20
103.9165491799078
 40
0.5
100
AcDbArc
 50
90.0
 51
180.0
  0
ARC
  5
123
100
AcDbEntity
  8
LC-008-002-RND-0
  6
CONTINUOUS
 62
             7
100
AcDbCircle
 10
109.9052327586726
 20
95.9165491799078
 40
0.5
100
AcDbArc
 50
0.0
 51
90.0
  0
ARC
  5
122
100
AcDbEntity
  8
LC-008-002-RND-0
  6
CONTINUOUS
 62
             7
100
AcDbCircle
 10
90.90523275867257
 20
95.9165491799078
 40
0.5
100
AcDbArc
 50
90.0
 51
180.0
  0
ARC
  5
121
100
AcDbEntity
  8
LC-008-002-RND-0
  6
CONTINUOUS
 62
             7
100
AcDbCircle
 10
90.90523275867257
 20
89.39646109099198
 40
0.5
100
AcDbArc
 50
180.0
 51
-90.0
  0
ARC
  5
120
100
AcDbEntity
  8
LC-008-002-RND-0
  6
CONTINUOUS
 62
             7
100
AcDbCircle
 10
109.9052327586726
 20
89.39646109099198
 40
0.5
100
AcDbArc
 50
-90.0
 51
0.0
  0
ARC
  5
11F
100
AcDbEntity
  8
LC-008-002-RND-0
  6
CONTINUOUS
 62
             7
100
AcDbCircle
 10
243.9054670000001
 20
108.4265491799076
 40
3.0
100
AcDbArc
 50
0.0
 51
90.0
  0
ARC
  5
11E
100
AcDbEntity
  8
LC-004-002-----0
  6
CONTINUOUS
 62
             7
100
AcDbCircle
 10
98.90523275867257
 20
129.15082417990789
 40
1.0
100
AcDbArc
 50
180.0
 51
-89.9999419999984
  0
ARC
  5
11D
100
AcDbEntity
  8
LC-008-002-RND-0
  6
CONTINUOUS
 62
             7
100
AcDbCircle
 10
64.90490300000009
 20
108.4265491799076
 40
3.0
100
AcDbArc
 50
90.0
 51
180.0
  0
ARC
  5
11C
100
AcDbEntity
  8
LC-004-002-----0
  6
CONTINUOUS
 62
             7
100
AcDbCircle
 10
101.9052327586726
 20
129.15082417990789
 40
0.9999999999996
100
AcDbArc
 50
-89.99994200000329
 51
0.0
  0
ARC
  5
11B
100
AcDbEntity
  8
LC-004-002-----0
  6
CONTINUOUS
 62
             7
100
AcDbCircle
 10
101.9052327586726
 20
132.15082417990789
 40
1.0
100
AcDbArc
 50
0.0
 51
90.0
  0
ARC
  5
11A
100
AcDbEntity
  8
LC-004-002-----0
  6
CONTINUOUS
 62
             7
100
AcDbCircle
 10
98.90523275867257
 20
132.15082417990789
 40
1.0
100
AcDbArc
 50
90.0
 51
179.99984799997395
  0
ARC
  5
119
100
AcDbEntity
  8
LC-004-002-----0
  6
CONTINUOUS
 62
             7
100
AcDbCircle
 10
95.90523275867257
 20
131.5174761799079
 40
2.0
100
AcDbArc
 50
0.0
 51
79.66010899999414
  0
ARC
  5
118
100
AcDbEntity
  8
LC-004-002-----0
  6
CONTINUOUS
 62
             7
100
AcDbCircle
 10
118.9052327586726
 20
129.6205921799079
 40
2.0000000000004
100
AcDbArc
 50
-73.27313999999743
 51
0.0
  0
ARC
  5
117
100
AcDbEntity
  8
LC-004-002-----0
  6
CONTINUOUS
 62
             7
100
AcDbCircle
 10
100.4052327586726
 20
191.1796701799079
 40
66.27884599999996
100
AcDbArc
 50
-106.72695300000024
 51
-73.27319900000026
  0
ARC
  5
116
100
AcDbEntity
  8
LC-004-002-----0
  6
CONTINUOUS
 62
             7
100
AcDbCircle
 10
118.9054497586726
 20
129.7843331799078
 40
1.99999999999992
100
AcDbArc
 50
-79.66008799999415
 51
-0.0000370000104
  0
ARC
  5
115
100
AcDbEntity
  8
LC-004-002-----0
  6
CONTINUOUS
 62
             7
100
AcDbCircle
 10
118.9052327586726
 20
131.6810551799079
 40
2.0
100
AcDbArc
 50
0.0
 51
73.27319899999114
  0
ARC
  5
114
100
AcDbEntity
  8
LC-004-002-----0
  6
CONTINUOUS
 62
             7
100
AcDbCircle
 10
100.4052327586726
 20
70.12197817990776
 40
66.27884600000041
100
AcDbArc
 50
73.2731990000005
 51
106.72678199999969
  0
ARC
  5
113
100
AcDbEntity
  8
LC-004-002-----0
  6
CONTINUOUS
 62
             7
100
AcDbCircle
 10
118.9054517586726
 20
131.51763817990789
 40
2.00000000000042
100
AcDbArc
 50
-0.00003700001284
 51
79.65999700000228
  0
ARC
  5
112
100
AcDbEntity
  8
LC-004-002-----0
  6
CONTINUOUS
 62
             7
100
AcDbCircle
 10
111.90547575867259
 20
168.15099017990781
 40
40.99999999999959
100
AcDbArc
 50
-100.34007999999936
 51
-79.66014699999953
  0
ARC
  5
111
100
AcDbEntity
  8
LC-004-002-----0
  6
CONTINUOUS
 62
             7
100
AcDbCircle
 10
104.9054497586726
 20
129.78434217990781
 40
2.00000000000042
100
AcDbArc
 50
179.99996299998716
 51
-100.3400049999907
  0
ARC
  5
110
100
AcDbEntity
  8
LC-004-002-----0
  6
CONTINUOUS
 62
             7
100
AcDbCircle
 10
104.9054517586726
 20
131.51764717990781
 40
1.99999999999981
100
AcDbArc
 50
100.33983500000815
 51
179.99996299998716
  0
ARC
  5
10F
100
AcDbEntity
  8
LC-004-002-----0
  6
CONTINUOUS
 62
             7
100
AcDbCircle
 10
111.90542575867249
 20
93.15099017990784
 40
40.99999999999988
100
AcDbArc
 50
79.66007200000028
 51
100.33983500000055
  0
ARC
  5
10E
100
AcDbEntity
  8
LC-004-002-----0
  6
CONTINUOUS
 62
             7
100
AcDbCircle
 10
81.90523275867257
 20
129.6205921799079
 40
2.0
100
AcDbArc
 50
180.0
 51
-106.72695299999278
  0
ARC
  5
10D
100
AcDbEntity
  8
LC-004-002-----0
  6
CONTINUOUS
 62
             7
100
AcDbCircle
 10
81.90523275867257
 20
131.6810551799079
 40
2.00000000000014
100
AcDbArc
 50
106.72678199999973
 51
180.0
  0
ARC
  5
10C
100
AcDbEntity
  8
LC-004-002-----0
  6
CONTINUOUS
 62
             7
100
AcDbCircle
 10
81.90523275867257
 20
129.78417217990781
 40
2.0
100
AcDbArc
 50
180.0
 51
-100.34004300000129
  0
ARC
  5
10B
100
AcDbEntity
  8
LC-004-002-----0
  6
CONTINUOUS
 62
             7
100
AcDbCircle
 10
88.90523275867257
 20
168.1508241799078
 40
41.00000000000018
100
AcDbArc
 50
-100.33989100000061
 51
-79.66005099999941
  0
ARC
  5
10A
100
AcDbEntity
  8
LC-004-002-----0
  6
CONTINUOUS
 62
             7
100
AcDbCircle
 10
81.90523275867257
 20
131.5174761799079
 40
2.00000000000032
100
AcDbArc
 50
100.33987199999042
 51
180.0
  0
ARC
  5
109
100
AcDbEntity
  8
LC-004-002-----0
  6
CONTINUOUS
 62
             7
100
AcDbCircle
 10
88.90523275867257
 20
93.15082417990791
 40
41.00000000000016
100
AcDbArc
 50
79.66010899999944
 51
100.33989100000062
  0
ARC
  5
108
100
AcDbEntity
  8
LC-004-002-----0
  6
CONTINUOUS
 62
             7
100
AcDbCircle
 10
95.90523275867257
 20
129.78417217990781
 40
2.00000000000019
100
AcDbArc
 50
-79.66005100000197
 51
0.0
  0
ARC
  5
107
100
AcDbEntity
  8
LC-004-002-----0
  6
CONTINUOUS
 62
             7
100
AcDbCircle
 10
206.90523943119311
 20
129.1508241800002
 40
1.0
100
AcDbArc
 50
180.0
 51
-89.9999419999984
  0
ARC
  5
106
100
AcDbEntity
  8
LC-004-002-----0
  6
CONTINUOUS
 62
             7
100
AcDbCircle
 10
209.90523943119311
 20
129.1508241800002
 40
0.9999999999996
100
AcDbArc
 50
-89.9999419999984
 51
0.0
  0
ARC
  5
105
100
AcDbEntity
  8
LC-004-002-----0
  6
CONTINUOUS
 62
             7
100
AcDbCircle
 10
209.90523943119311
 20
132.1508241800002
 40
1.0
100
AcDbArc
 50
0.0
 51
90.0
  0
ARC
  5
104
100
AcDbEntity
  8
LC-004-002-----0
  6
CONTINUOUS
 62
             7
100
AcDbCircle
 10
206.90523943119311
 20
132.1508241800002
 40
1.0
100
AcDbArc
 50
90.0
 51
179.99984799997557
  0
ARC
  5
103
100
AcDbEntity
  8
LC-004-002-----0
  6
CONTINUOUS
 62
             7
100
AcDbCircle
 10
203.90523943119311
 20
131.51747618000019
 40
2.0
100
AcDbArc
 50
0.0
 51
79.66010899999495
  0
ARC
  5
102
100
AcDbEntity
  8
LC-004-002-----0
  6
CONTINUOUS
 62
             7
100
AcDbCircle
 10
226.90523943119311
 20
129.62059218000019
 40
2.00000000000038
100
AcDbArc
 50
-73.27313999999718
 51
0.0
  0
ARC
  5
101
100
AcDbEntity
  8
LC-004-002-----0
  6
CONTINUOUS
 62
             7
100
AcDbCircle
 10
208.40523943119311
 20
191.17967018000019
 40
66.27884599999983
100
AcDbArc
 50
-106.72695300000024
 51
-73.27319900000026
  0
ARC
  5
100
100
AcDbEntity
  8
LC-004-002-----0
  6
CONTINUOUS
 62
             7
100
AcDbCircle
 10
226.9054564311931
 20
129.78433318000009
 40
1.9999999999999
100
AcDbArc
 50
-79.66008799999368
 51
-0.00003700000959
  0
ARC
  5
FF
100
AcDbEntity
  8
LC-004-002-----0
  6
CONTINUOUS
 62
             7
100
AcDbCircle
 10
226.90523943119311
 20
131.68105518000019
 40
2.0
100
AcDbArc
 50
0.0
 51
73.27319899999176
  0
ARC
  5
FE
100
AcDbEntity
  8
LC-004-002-----0
  6
CONTINUOUS
 62
             7
100
AcDbCircle
 10
208.40523943119311
 20
70.12197818000007
 40
66.2788460000005
100
AcDbArc
 50
73.27319900000053
 51
106.72678199999967
  0
ARC
  5
FD
100
AcDbEntity
  8
LC-004-002-----0
  6
CONTINUOUS
 62
             7
100
AcDbCircle
 10
226.9054584311931
 20
131.5176381800002
 40
2.00000000000042
100
AcDbArc
 50
-0.00003700001284
 51
79.65999700000231
  0
ARC
  5
FC
100
AcDbEntity
  8
LC-004-002-----0
  6
CONTINUOUS
 62
             7
100
AcDbCircle
 10
219.90548243119309
 20
168.15099018000021
 40
40.99999999999969
100
AcDbArc
 50
-100.34007999999935
 51
-79.66014699999941
  0
ARC
  5
FB
100
AcDbEntity
  8
LC-004-002-----0
  6
CONTINUOUS
 62
             7
100
AcDbCircle
 10
212.9054564311931
 20
129.7843421800001
 40
2.00000000000042
100
AcDbArc
 50
179.99996299998716
 51
-100.34000499998797
  0
ARC
  5
FA
100
AcDbEntity
  8
LC-004-002-----0
  6
CONTINUOUS
 62
             7
100
AcDbCircle
 10
212.9054584311931
 20
131.5176471800001
 40
1.99999999999981
100
AcDbArc
 50
100.33983500000815
 51
179.99996299998716
  0
ARC
  5
F9
100
AcDbEntity
  8
LC-004-002-----0
  6
CONTINUOUS
 62
             7
100
AcDbCircle
 10
219.90543243119311
 20
93.15099018000015
 40
40.99999999999983
100
AcDbArc
 50
79.66007200000044
 51
100.33983499999933
  0
ARC
  5
F8
100
AcDbEntity
  8
LC-003-100-D03-0
  6
CONTINUOUS
 62
             7
100
AcDbCircle
 10
8.47050100000001
 20
67.5992130909919
 40
4.97050100000001
100
AcDbArc
 50
93.03803791172001
 51
-175.36203085152493
  0
ARC
  5
F7
100
AcDbEntity
  8
LC-004-002-----0
  6
CONTINUOUS
 62
             7
100
AcDbCircle
 10
189.90523943119311
 20
129.62059218000019
 40
2.0
100
AcDbArc
 50
180.0
 51
-106.7269529999929
  0
ARC
  5
F6
100
AcDbEntity
  8
LC-004-002-----0
  6
CONTINUOUS
 62
             7
100
AcDbCircle
 10
189.90523943119311
 20
131.68105518000019
 40
2.00000000000027
100
AcDbArc
 50
106.72678199999856
 51
180.0
  0
ARC
  5
F5
100
AcDbEntity
  8
LC-004-002-----0
  6
CONTINUOUS
 62
             7
100
AcDbCircle
 10
189.90523943119311
 20
129.7841721800001
 40
2.0
100
AcDbArc
 50
180.0
 51
-100.34004300000136
  0
ARC
  5
F4
100
AcDbEntity
  8
LC-003-100-D03-0
  6
CONTINUOUS
 62
             7
100
AcDbCircle
 10
8.47050100000001
 20
-67.60631390900818
 40
4.97050099999958
100
AcDbArc
 50
175.36204236759696
 51
-93.011312727449
  0
ARC
  5
F3
100
AcDbEntity
  8
LC-003-100-D03-0
  6
CONTINUOUS
 62
             7
100
AcDbCircle
 10
70.9915140000001
 20
-80.61696290900812
 40
2.98229999999953
100
AcDbArc
 50
-178.99999899999969
 51
-90.0
  0
ARC
  5
F2
100
AcDbEntity
  8
LC-004-002-----0
  6
CONTINUOUS
 62
             7
100
AcDbCircle
 10
196.90523943119311
 20
168.15082418000009
 40
41.00000000000016
100
AcDbArc
 50
-100.33989100000062
 51
-79.6600509999994
  0
ARC
  5
F1
100
AcDbEntity
  8
LC-004-002-----0
  6
CONTINUOUS
 62
             7
100
AcDbCircle
 10
189.90523943119311
 20
131.51747618000019
 40
2.00000000000032
100
AcDbArc
 50
100.33987199999042
 51
180.0
  0
ARC
  5
F0
100
AcDbEntity
  8
LC-004-002-----0
  6
CONTINUOUS
 62
             7
100
AcDbCircle
 10
196.90523943119311
 20
93.15082418000023
 40
41.00000000000016
100
AcDbArc
 50
79.66010899999944
 51
100.33989100000062
  0
ARC
  5
EF
100
AcDbEntity
  8
LC-004-002-----0
  6
CONTINUOUS
 62
             7
100
AcDbCircle
 10
203.90523943119311
 20
129.7841721800001
 40
2.00000000000017
100
AcDbArc
 50
-79.6600510000019
 51
0.0
  0
ARC
  5
EE
100
AcDbEntity
  8
LC-003-100-D03-0
  6
CONTINUOUS
 62
             7
100
AcDbCircle
 10
95.99619200000007
 20
-81.61106390900812
 40
1.98820000000001
100
AcDbArc
 50
-90.0
 51
0.0
  0
LINE
  5
ED
100
AcDbEntity
  8
1
  6
DOT_CENTER
 62
             2
100
AcDbLine
 10
103.6057384792271
 20
136.4008241798156
 11
96.60573847922706
 21
136.4008241798156
  0
LINE
  5
EC
100
AcDbEntity
  8
1
  6
DOT_CENTER
 62
             2
100
AcDbLine
 10
-3.0
 20
-62.49999999808114
 11
-6.0
 21
-62.49999999808114
  0
LINE
  5
EB
100
AcDbEntity
  8
1
  6
DOT_CENTER
 62
             2
100
AcDbLine
 10
-6.0
 20
62.50000000383776
 11
-3.0
 21
62.50000000383776
  0
LINE
  5
EA
100
AcDbEntity
  8
LC-001-001-----0
  6
CONTINUOUS
 62
             7
100
AcDbLine
 10
241.36858400000031
 20
-78.59982690900807
 11
244.42160900000039
 21
96.41654917990778
  0
LINE
  5
E9
100
AcDbEntity
  8
1
  6
CONTINUOUS
 62
             3
100
AcDbLine
 10
8.47050100000001
 20
67.5992130909919
 11
8.47050100000001
 21
-67.60631390900818
  0
LINE
  5
E8
100
AcDbEntity
  8
1
  6
PHANTOM
 62
             2
100
AcDbLine
 10
100.40533021415909
 20
86.90455965964662
 11
100.4053434375558
 21
137.79935569105771
  0
LINE
  5
E7
100
AcDbEntity
  8
1
  6
PHANTOM
 62
             2
100
AcDbLine
 10
208.40533688111549
 20
86.90196045132402
 11
208.40535107797629
 21
141.5434619256763
  0
LINE
  5
E6
100
AcDbEntity
  8
1
  6
PHANTOM
 62
             2
100
AcDbLine
 10
223.39550075355351
 20
-16.1005855526401
 11
321.88839343730541
 21
-16.10085881058063
  0
LINE
  5
E5
100
AcDbEntity
  8
1
  6
PHANTOM
 62
             2
100
AcDbLine
 10
72.32441978778435
 20
-0.00000004626077
 11
-5.24267725800696
 21
0.00000000335336
  0
LINE
  5
E4
100
AcDbEntity
  8
LC-004-002-----0
  6
CONTINUOUS
 62
             7
100
AcDbLine
 10
198.40620543119309
 20
96.9165491799078
 11
198.40620543119309
 21
103.9165514791969
  0
LINE
  5
E3
100
AcDbEntity
  8
LC-004-002-----0
  6
CONTINUOUS
 62
             7
100
AcDbLine
 10
218.40620543119309
 20
96.9165491799078
 11
218.40620543119309
 21
103.9165514791969
  0
LINE
  5
E2
100
AcDbEntity
  8
LC-004-002-----0
  6
CONTINUOUS
 62
             7
100
AcDbLine
 10
198.90620543119309
 20
104.4165514791969
 11
217.90620543119309
 21
104.4165514791969
  0
LINE
  5
E1
100
AcDbEntity
  8
LC-004-002-----0
  6
CONTINUOUS
 62
             7
100
AcDbLine
 10
218.40620543119309
 20
89.39646109099198
 11
218.40620543119309
 21
95.9165491799078
  0
LINE
  5
E0
100
AcDbEntity
  8
LC-004-002-----0
  6
CONTINUOUS
 62
             7
100
AcDbLine
 10
198.40620543119309
 20
95.9165491799078
 11
198.40620543119309
 21
89.39646109099198
  0
LINE
  5
DF
100
AcDbEntity
  8
LC-004-002-----0
  6
CONTINUOUS
 62
             7
100
AcDbLine
 10
198.90652943119309
 20
104.4165574791969
 11
217.90620543119309
 21
104.4165454791968
  0
LINE
  5
DE
100
AcDbEntity
  8
LC-004-002-----0
  6
CONTINUOUS
 62
             7
100
AcDbLine
 10
198.90620543119309
 20
88.89646109099198
 11
217.90620543119309
 21
88.89646109099198
  0
LINE
  5
DD
100
AcDbEntity
  8
LC-004-002-----0
  6
CONTINUOUS
 62
             7
100
AcDbLine
 10
90.40523275867257
 20
96.9165491799078
 11
90.40523275867257
 21
103.9165491799078
  0
LINE
  5
DC
100
AcDbEntity
  8
LC-004-002-----0
  6
CONTINUOUS
 62
             7
100
AcDbLine
 10
110.4052327586726
 20
96.9165491799078
 11
110.4052327586726
 21
103.9165491799078
  0
LINE
  5
DB
100
AcDbEntity
  8
LC-004-002-----0
  6
CONTINUOUS
 62
             7
100
AcDbLine
 10
90.90523275867257
 20
104.4165491799078
 11
109.9052327586726
 21
104.4165491799078
  0
LINE
  5
DA
100
AcDbEntity
  8
LC-004-002-----0
  6
CONTINUOUS
 62
             7
100
AcDbLine
 10
90.90555675867257
 20
104.4165551799078
 11
109.9052327586726
 21
104.41654317990771
  0
LINE
  5
D9
100
AcDbEntity
  8
LC-004-002-----0
  6
CONTINUOUS
 62
             7
100
AcDbLine
 10
110.4052327586726
 20
89.39646109099198
 11
110.4052327586726
 21
95.9165491799078
  0
LINE
  5
D8
100
AcDbEntity
  8
LC-004-002-----0
  6
CONTINUOUS
 62
             7
100
AcDbLine
 10
90.40523275867257
 20
95.9165491799078
 11
90.40523275867257
 21
89.39646109099198
  0
LINE
  5
D7
100
AcDbEntity
  8
LC-004-002-----0
  6
CONTINUOUS
 62
             7
100
AcDbLine
 10
90.90523275867257
 20
88.89646109099198
 11
109.9052327586726
 21
88.89646109099198
  0
LINE
  5
D6
100
AcDbEntity
  8
LC-004-002-----0
  6
CONTINUOUS
 62
             7
100
AcDbLine
 10
246.9054670000001
 20
108.4265491799076
 11
246.9054670000001
 21
96.4165491799078
  0
LINE
  5
D5
100
AcDbEntity
  8
LC-004-002-----0
  6
CONTINUOUS
 62
             7
100
AcDbLine
 10
61.90490300000009
 20
108.4265491799076
 11
61.90490300000009
 21
96.4165491799078
  0
LINE
  5
D4
100
AcDbEntity
  8
LC-004-002-----0
  6
CONTINUOUS
 62
             7
100
AcDbLine
 10
23.76326
 20
67.19644609099186
 11
23.76326
 21
-67.20354790900802
  0
LINE
  5
D3
100
AcDbEntity
  8
LC-004-002-----0
  6
CONTINUOUS
 62
             7
100
AcDbLine
 10
20.29915800000001
 20
73.19644709099197
 11
20.29915800000001
 21
-73.20354890900813
  0
LINE
  5
D2
100
AcDbEntity
  8
LC-004-002-----0
  6
CONTINUOUS
 62
             7
100
AcDbLine
 10
3.5
 20
67.19644809099185
 11
3.5
 21
-67.20354990900813
  0
LINE
  5
D1
100
AcDbEntity
  8
LC-003-100-D03-0
  6
CONTINUOUS
 62
             7
100
AcDbLine
 10
310.03226500000028
 20
-78.60020790900813
 11
315.00418900000028
 21
-77.26798490900802
  0
LINE
  5
D0
100
AcDbEntity
  8
LC-003-100-D03-0
  6
CONTINUOUS
 62
             7
100
AcDbLine
 10
310.03368800000032
 20
46.3985560909918
 11
315.00418900000028
 21
45.06671409099198
  0
LINE
  5
CF
100
AcDbEntity
  8
LC-003-100-D03-0
  6
CONTINUOUS
 62
             7
100
AcDbLine
 10
243.54908388684919
 20
46.3985560909918
 11
310.03368800000032
 21
46.3985560909918
  0
LINE
  5
CE
100
AcDbEntity
  8
LC-003-100-D03-0
  6
CONTINUOUS
 62
             7
100
AcDbLine
 10
315.00418900000028
 20
-77.26798490900802
 11
315.00418900000028
 21
45.06671409099198
  0
LINE
  5
CD
100
AcDbEntity
  8
LC-004-002-----0
  6
CONTINUOUS
 62
             7
100
AcDbLine
 10
98.90523275867257
 20
128.15082417990789
 11
101.9052327586726
 21
128.15082417990789
  0
LINE
  5
CC
100
AcDbEntity
  8
LC-004-002-----0
  6
CONTINUOUS
 62
             7
100
AcDbLine
 10
97.90523275867257
 20
132.15082417990789
 11
97.90523275867257
 21
129.15082417990789
  0
LINE
  5
CB
100
AcDbEntity
  8
LC-004-002-----0
  6
CONTINUOUS
 62
             7
100
AcDbLine
 10
102.9052327586726
 20
129.15082417990789
 11
102.9052327586726
 21
132.15082417990789
  0
LINE
  5
CA
100
AcDbEntity
  8
LC-004-002-----0
  6
CONTINUOUS
 62
             7
100
AcDbLine
 10
101.9052327586726
 20
133.15082417990789
 11
98.90523275867257
 21
133.15082417990789
  0
LINE
  5
C9
100
AcDbEntity
  8
LC-004-002-----0
  6
CONTINUOUS
 62
             7
100
AcDbLine
 10
64.90490300000009
 20
111.4265491799076
 11
90.90523275867257
 21
111.4265491799076
  0
LINE
  5
C8
100
AcDbEntity
  8
LC-004-002-----0
  6
CONTINUOUS
 62
             7
100
AcDbLine
 10
120.9052327586726
 20
129.6205921799079
 11
120.9052327586726
 21
131.6810551799079
  0
LINE
  5
C7
100
AcDbEntity
  8
LC-004-002-----0
  6
CONTINUOUS
 62
             7
100
AcDbLine
 10
109.90543675867259
 20
104.4167161799077
 11
109.90544775867259
 21
125.58536017990789
  0
LINE
  5
C6
100
AcDbEntity
  8
LC-004-002-----0
  6
CONTINUOUS
 62
             7
100
AcDbLine
 10
79.90523275867257
 20
129.6205921799079
 11
79.90523275867257
 21
131.6810551799079
  0
LINE
  5
C5
100
AcDbEntity
  8
LC-004-002-----0
  6
CONTINUOUS
 62
             7
100
AcDbLine
 10
90.90523275867257
 20
104.4165491799078
 11
90.90523275867257
 21
125.5851931799078
  0
LINE
  5
C4
100
AcDbEntity
  8
LC-004-002-----0
  6
CONTINUOUS
 62
             7
100
AcDbLine
 10
109.90544022721581
 20
111.4265491799076
 11
195.8871764311931
 21
111.4265491799076
  0
LINE
  5
C3
100
AcDbEntity
  8
LC-004-002-----0
  6
CONTINUOUS
 62
             7
100
AcDbLine
 10
206.90523943119311
 20
128.1508241800002
 11
209.90523943119311
 21
128.1508241800002
  0
LINE
  5
C2
100
AcDbEntity
  8
LC-004-002-----0
  6
CONTINUOUS
 62
             7
100
AcDbLine
 10
205.90523943119311
 20
132.1508241800002
 11
205.90523943119311
 21
129.1508241800002
  0
LINE
  5
C1
100
AcDbEntity
  8
LC-004-002-----0
  6
CONTINUOUS
 62
             7
100
AcDbLine
 10
210.90523943119311
 20
129.1508241800002
 11
210.90523943119311
 21
132.1508241800002
  0
LINE
  5
C0
100
AcDbEntity
  8
LC-004-002-----0
  6
CONTINUOUS
 62
             7
100
AcDbLine
 10
209.90523943119311
 20
133.1508241800002
 11
206.90523943119311
 21
133.1508241800002
  0
LINE
  5
BF
100
AcDbEntity
  8
LC-004-002-----0
  6
CONTINUOUS
 62
             7
100
AcDbLine
 10
228.90523943119311
 20
129.62059218000019
 11
228.90523943119311
 21
131.68105518000019
  0
LINE
  5
BE
100
AcDbEntity
  8
LC-004-002-----0
  6
CONTINUOUS
 62
             7
100
AcDbLine
 10
195.8871764311931
 20
111.4265491799076
 11
198.90523943119311
 21
111.4265491799076
  0
LINE
  5
BD
100
AcDbEntity
  8
LC-004-002-----0
  6
CONTINUOUS
 62
             7
100
AcDbLine
 10
310.03368800000032
 20
46.3985560909918
 11
310.03368800000032
 21
-78.60020790900813
  0
LINE
  5
BC
100
AcDbEntity
  8
LC-003-100-D03-0
  6
CONTINUOUS
 62
             7
100
AcDbLine
 10
206.41864843119311
 20
88.89646109099198
 11
207.16261443119311
 21
67.28820954545623
  0
LINE
  5
BB
100
AcDbEntity
  8
LC-003-100-D03-0
  6
CONTINUOUS
 62
             7
100
AcDbLine
 10
209.64786543119311
 20
67.2882095454562
 11
210.39183143119311
 21
88.89646109099198
  0
LINE
  5
BA
100
AcDbEntity
  8
LC-003-100-D03-0
  6
CONTINUOUS
 62
             7
100
AcDbLine
 10
207.16261443119311
 20
67.28820954545623
 11
209.64786543119311
 21
67.2882095454562
  0
LINE
  5
B9
100
AcDbEntity
  8
LC-003-100-D03-0
  6
CONTINUOUS
 62
             7
100
AcDbLine
 10
101.6478577586725
 20
67.2882095454562
 11
102.3918237586725
 21
88.89646109099198
  0
LINE
  5
B8
100
AcDbEntity
  8
LC-003-100-D03-0
  6
CONTINUOUS
 62
             7
100
AcDbLine
 10
98.41864075867257
 20
88.89646109099198
 11
99.16260675867257
 21
67.28820954545623
  0
LINE
  5
B7
100
AcDbEntity
  8
LC-003-100-D03-0
  6
CONTINUOUS
 62
             7
100
AcDbLine
 10
99.16260675867257
 20
67.28820954545623
 11
101.6478577586725
 21
67.2882095454562
  0
LINE
  5
B6
100
AcDbEntity
  8
LC-003-100-D03-0
  6
CONTINUOUS
 62
             7
100
AcDbLine
 10
61.90490300000009
 20
96.4165491799078
 11
246.9054670000001
 21
96.4165491799078
  0
LINE
  5
B5
100
AcDbEntity
  8
LC-003-100-D03-0
  6
CONTINUOUS
 62
             7
100
AcDbLine
 10
0.0
 20
67.01302112275226
 11
0.0
 21
-67.02012294076843
  0
LINE
  5
B4
100
AcDbEntity
  8
LC-003-100-D03-0
  6
CONTINUOUS
 62
             7
100
AcDbLine
 10
65.42166873126918
 20
67.1964450911598
 11
23.76326
 21
67.19644609099186
  0
LINE
  5
B3
100
AcDbEntity
  8
LC-003-100-D03-0
  6
CONTINUOUS
 62
             7
100
AcDbLine
 10
67.77386584409932
 20
-67.1964449090226
 11
23.76326
 21
-67.19644590900805
  0
LINE
  5
B2
100
AcDbEntity
  8
LC-003-100-D03-0
  6
CONTINUOUS
 62
             7
100
AcDbLine
 10
3.51627584173446
 20
67.19730107050754
 11
0.0
 21
67.01302112275226
  0
LINE
  5
B1
100
AcDbEntity
  8
LC-003-100-D03-0
  6
CONTINUOUS
 62
             7
100
AcDbLine
 10
20.29915800000001
 20
73.19644709099197
 11
23.76326
 21
67.19644609099186
  0
LINE
  5
B0
100
AcDbEntity
  8
LC-003-100-D03-0
  6
CONTINUOUS
 62
             7
100
AcDbLine
 10
20.29915800000001
 20
73.19644709099197
 11
8.20706980705344
 21
72.5627283974641
  0
LINE
  5
AF
100
AcDbEntity
  8
LC-003-100-D03-0
  6
CONTINUOUS
 62
             7
100
AcDbLine
 10
3.51627576095334
 20
-67.20440288429029
 11
0.0
 21
-67.02012294076843
  0
LINE
  5
AE
100
AcDbEntity
  8
LC-004-002-----0
  6
CONTINUOUS
 62
             7
100
AcDbLine
 10
217.9054474311931
 20
111.4265491799076
 11
243.9054670000001
 21
111.4265491799076
  0
LINE
  5
AD
100
AcDbEntity
  8
LC-004-002-----0
  6
CONTINUOUS
 62
             7
100
AcDbLine
 10
217.90544343119311
 20
104.4167184791968
 11
217.90545443119311
 21
125.58536018000019
  0
LINE
  5
AC
100
AcDbEntity
  8
LC-004-002-----0
  6
CONTINUOUS
 62
             7
100
AcDbLine
 10
187.90523943119311
 20
129.62059218000019
 11
187.90523943119311
 21
131.68105518000019
  0
LINE
  5
AB
100
AcDbEntity
  8
LC-003-100-D03-0
  6
CONTINUOUS
 62
             7
100
AcDbLine
 10
20.29915800000001
 20
-73.20354890900813
 11
8.20938502991018
 21
-72.5699515510164
  0
LINE
  5
AA
100
AcDbEntity
  8
LC-003-100-D03-0
  6
CONTINUOUS
 62
             7
100
AcDbLine
 10
20.29915800000001
 20
-73.20354890900813
 11
23.76326
 21
-67.20354790900802
  0
LINE
  5
A9
100
AcDbEntity
  8
LC-003-100-D03-0
  6
CONTINUOUS
 62
             7
100
AcDbLine
 10
68.00966800000008
 20
-80.66901190900813
 11
64.9102470000001
 21
96.41654917990778
  0
LINE
  5
A8
100
AcDbEntity
  8
LC-001-001-----0
  6
CONTINUOUS
 62
             7
100
AcDbLine
 10
65.90449900000009
 20
96.4165491799078
 11
64.9102470000001
 21
96.41654917990778
  0
LINE
  5
A7
100
AcDbEntity
  8
LC-001-001-----0
  6
CONTINUOUS
 62
             7
100
AcDbLine
 10
241.36858400000031
 20
-78.59982690900807
 11
310.03226500000028
 21
-78.60020790900813
  0
LINE
  5
A6
100
AcDbEntity
  8
LC-004-002-----0
  6
CONTINUOUS
 62
             7
100
AcDbLine
 10
198.90523943119311
 20
104.4165514791969
 11
198.90523943119311
 21
125.5851931800001
  0
LINE
  5
A5
100
AcDbEntity
  8
LC-003-100-D03-0
  6
CONTINUOUS
 62
             7
100
AcDbLine
 10
70.9915140000001
 20
-83.59926390900813
 11
95.99619200000007
 21
-83.59926390900813
  0
LINE
  5
A4
100
AcDbEntity
  8
LC-003-100-D03-0
  6
CONTINUOUS
 62
             7
100
AcDbLine
 10
97.98439300000007
 20
-81.61106390900812
 11
97.98439300000007
 21
2.07828709099198
  0
LINE
  5
A3
100
AcDbEntity
  8
LC-003-100-D03-0
  6
CONTINUOUS
 62
             7
100
AcDbLine
 10
98.48144500000007
 20
-78.59901890900807
 11
241.36858400000031
 21
-78.59982090900809
  0
ENDBLK
  5
130
100
AcDbEntity
  8
0
100
AcDbBlockEnd
  0
BLOCK
  5
133
100
AcDbEntity
  8
0
100
AcDbBlockBegin
  2
*D3
 70
             1
 10
0.0
 20
0.0
 30
0.0
  3
*D3
  1

  0
LINE
  5
134
100
AcDbEntity
  8
0
  6
CONTINUOUS
 62
             4
100
AcDbLine
 10
404.45052563232997
 20
-113.16379439376691
 11
644.45052563233003
 21
-113.16379439376691
  0
LINE
  5
135
100
AcDbEntity
  8
0
  6
CONTINUOUS
 62
             4
100
AcDbLine
 10
404.45052563232997
 20
129.78465246598819
 11
404.45052563232997
 21
-115.16379439376691
  0
LINE
  5
136
100
AcDbEntity
  8
0
  6
CONTINUOUS
 62
             4
100
AcDbLine
 10
644.45052563233003
 20
129.78465246598819
 11
644.45052563233003
 21
-115.16379439376691
  0
SOLID
  5
137
100
AcDbEntity
  8
0
 62
             4
100
AcDbTrace
 10
419.45052563232997
 20
-111.18900692995597
 11
419.45052563232997
 21
-115.13858185757785
 12
404.45052563232997
 22
-113.16379439376691
 13
404.45052563232997
 23
-113.16379439376691
  0
SOLID
  5
138
100
AcDbEntity
  8
0
 62
             4
100
AcDbTrace
 10
629.45052563233003
 20
-115.13858185757783
 11
629.45052563233003
 21
-111.18900692995597
 12
644.45052563233003
 22
-113.16379439376691
 13
644.45052563233003
 23
-113.16379439376691
  0
MTEXT
  5
13A
100
AcDbEntity
  8
0
 62
             1
100
AcDbMText
 10
470.08733501143831
 20
-111.16379439376691
 30
0.0
 40
15.0
 41
0.0
 71
             7
 72
             1
  1
240
  7
CONVERTER_1
 11
0.99999999999706
 21
0.00000242406841
 31
0.0
  0
ENDBLK
  5
13B
100
AcDbEntity
  8
0
100
AcDbBlockEnd
  0
BLOCK
  5
13F
100
AcDbEntity
  8
0
100
AcDbBlockBegin
  2
*D4
 70
             1
 10
0.0
 20
0.0
 30
0.0
  3
*D4
  1

  0
LINE
  5
140
100
AcDbEntity
  8
0
  6
CONTINUOUS
 62
             4
100
AcDbLine
 10
342.68146285165221
 20
46.39846551325086
 11
342.68111605602166
 21
-78.60029848973488
  0
LINE
  5
141
100
AcDbEntity
  8
0
  6
CONTINUOUS
 62
             4
100
AcDbLine
 10
310.03368800000038
 20
46.39855609099181
 11
344.68146285164454
 21
46.39845996446591
  0
LINE
  5
142
100
AcDbEntity
  8
0
  6
CONTINUOUS
 62
             4
100
AcDbLine
 10
310.03226500000034
 20
-78.60020790900813
 11
344.68111605601399
 21
-78.60030403851985
  0
SOLID
  5
143
100
AcDbEntity
  8
0
 62
             4
100
AcDbTrace
 10
344.65620869956808
 20
31.39846003447306
 11
340.70663377196138
 21
31.39847099214412
 12
342.68146285165221
 22
46.39846551325086
 13
342.68146285165221
 23
46.39846551325086
  0
SOLID
  5
144
100
AcDbEntity
  8
0
 62
             4
100
AcDbTrace
 10
340.7063702081058
 20
-63.60029301095709
 11
344.6559451357125
 21
-63.60030396862814
 12
342.68111605602166
 22
-78.60029848973488
 13
342.68111605602166
 23
-78.60029848973488
  0
MTEXT
  5
145
100
AcDbEntity
  8
0
 62
             1
100
AcDbMText
 10
340.6812183670537
 20
-41.72338199306548
 30
0.0
 40
15.0
 41
0.0
 71
             7
 72
             1
  1
\C1;DN\C1;125
  7
CONVERTER_1
 11
0.00000277439248
 21
0.99999999999615
 31
0.0
  0
ENDBLK
  5
146
100
AcDbEntity
  8
0
100
AcDbBlockEnd
  0
BLOCK
  5
14A
100
AcDbEntity
  8
0
100
AcDbBlockBegin
  2
*D5
 70
             1
 10
0.0
 20
0.0
 30
0.0
  3
*D5
  1

  0
LINE
  5
14B
100
AcDbEntity
  8
0
  6
CONTINUOUS
 62
             4
100
AcDbLine
 10
-16.76839493443266
 20
62.50002987959167
 11
-16.76874173349234
 21
-62.49997012136509
  0
LINE
  5
14C
100
AcDbEntity
  8
0
  6
CONTINUOUS
 62
             4
100
AcDbLine
 10
-6.0
 20
62.50000000383776
 11
-18.76839493442497
 21
62.50003542837663
  0
LINE
  5
14D
100
AcDbEntity
  8
0
  6
CONTINUOUS
 62
             4
100
AcDbLine
 10
-6.0
 20
-62.49999999808114
 11
-18.76874173348464
 21
-62.49996457258013
  0
SOLID
  5
14E
100
AcDbEntity
  8
0
 62
             4
100
AcDbTrace
 10
-14.79364908651649
 20
47.50002440081391
 11
-18.74322401412317
 21
47.50003535848488
 12
-16.76839493443266
 22
62.50002987959167
 13
-16.76839493443266
 23
62.50002987959167
  0
SOLID
  5
14F
100
AcDbEntity
  8
0
 62
             4
100
AcDbTrace
 10
-18.74348758140851
 20
-47.49996464258733
 11
-14.79391265380184
 21
-47.4999756002583
 12
-16.76874173349234
 22
-62.49997012136509
 13
-16.76874173349234
 23
-62.49997012136509
  0
MTEXT
  5
150
100
AcDbEntity
  8
0
 62
             1
100
AcDbMText
 10
-18.76863120635757
 20
-22.66164754599048
 30
0.0
 40
15.0
 41
0.0
 71
             7
 72
             1
  1
\C1;DN\C1;125
  7
CONVERTER_1
 11
0.00000277439248
 21
0.99999999999615
 31
0.0
  0
ENDBLK
  5
151
100
AcDbEntity
  8
0
100
AcDbBlockEnd
  0
BLOCK
  5
155
100
AcDbEntity
  8
0
100
AcDbBlockBegin
  2
*D6
 70
             1
 10
0.0
 20
0.0
 30
0.0
  3
*D6
  1

  0
LINE
  5
156
100
AcDbEntity
  8
0
  6
CONTINUOUS
 62
             4
100
AcDbLine
 10
-0.00000002907129
 20
-112.47038996679765
 11
315.00418897748381
 21
-112.47039016828333
  0
LINE
  5
157
100
AcDbEntity
  8
0
  6
CONTINUOUS
 62
             4
100
AcDbLine
 10
0.0
 20
-67.02012294076843
 11
-0.00000003035058
 21
-114.47038996679765
  0
LINE
  5
158
100
AcDbEntity
  8
0
  6
CONTINUOUS
 62
             4
100
AcDbLine
 10
315.00418900000022
 20
-77.26798490900802
 11
315.00418897620455
 21
-114.47039016828333
  0
SOLID
  5
159
100
AcDbEntity
  8
0
 62
             4
100
AcDbTrace
 10
14.99999997219185
 20
-110.49560251258119
 11
14.99999996966558
 21
-114.44517744020305
 12
-0.00000002907129
 22
-112.47038996679765
 13
-0.00000002907129
 23
-112.47038996679765
  0
SOLID
  5
15A
100
AcDbEntity
  8
0
 62
             4
100
AcDbTrace
 10
300.00418897622069
 20
-114.44517762249981
 11
300.00418897874692
 21
-110.49560269487793
 12
315.00418897748381
 22
-112.47039016828333
 13
315.00418897748381
 23
-112.47039016828333
  0
MTEXT
  5
15B
100
AcDbEntity
  8
0
 62
             1
100
AcDbMText
 10
145.19489825669481
 20
-110.47039006974261
 30
0.0
 40
15.0
 41
0.0
 71
             7
 72
             1
  1
315
  7
CONVERTER_1
 11
0.99999999999706
 21
0.00000242406841
 31
0.0
  0
ENDBLK
  5
15C
100
AcDbEntity
  8
0
100
AcDbBlockEnd
  0
BLOCK
  5
160
100
AcDbEntity
  8
0
100
AcDbBlockBegin
  2
*D7
 70
             1
 10
0.0
 20
0.0
 30
0.0
  3
*D7
  1

  0
LINE
  5
161
100
AcDbEntity
  8
0
  6
CONTINUOUS
 62
             4
100
AcDbLine
 10
61.90490302635398
 20
149.62845868048132
 11
246.90546702635399
 21
149.62845856214969
  0
LINE
  5
162
100
AcDbEntity
  8
0
  6
CONTINUOUS
 62
             4
100
AcDbLine
 10
61.90490300000006
 20
108.42654917990765
 11
61.90490302763323
 21
151.62845868048132
  0
LINE
  5
163
100
AcDbEntity
  8
0
  6
CONTINUOUS
 62
             4
100
AcDbLine
 10
246.90546700000007
 20
108.42654917990765
 11
246.90546702763325
 21
151.62845856214969
  0
SOLID
  5
164
100
AcDbEntity
  8
0
 62
             4
100
AcDbTrace
 10
76.90490302761711
 20
151.6032461346978
 11
76.90490302509085
 21
147.65367120707592
 12
61.90490302635398
 22
149.62845868048132
 13
61.90490302635398
 23
149.62845868048132
  0
SOLID
  5
165
100
AcDbEntity
  8
0
 62
             4
100
AcDbTrace
 10
231.90546702509084
 20
147.65367110793321
 11
231.90546702761714
 21
151.60324603555509
 12
246.90546702635399
 22
149.62845856214969
 13
246.90546702635399
 23
149.62845856214969
  0
MTEXT
  5
166
100
AcDbEntity
  8
0
 62
             1
100
AcDbMText
 10
143.83334584826491
 20
151.62845861800341
 30
0.0
 40
15.0
 41
0.0
 71
             7
 72
             1
  1
185
  7
CONVERTER_1
 11
0.99999999999706
 21
0.00000242406841
 31
0.0
  0
ENDBLK
  5
167
100
AcDbEntity
  8
0
100
AcDbBlockEnd
  0
BLOCK
  5
16B
100
AcDbEntity
  8
0
100
AcDbBlockBegin
  2
*D8
 70
             1
 10
0.0
 20
0.0
 30
0.0
  3
*D8
  1

  0
LINE
  5
16C
100
AcDbEntity
  8
0
  6
CONTINUOUS
 62
             4
100
AcDbLine
 10
-41.10326836822033
 20
-83.59926383730912
 11
-41.10326822750199
 21
136.40082426789829
  0
LINE
  5
16D
100
AcDbEntity
  8
0
  6
CONTINUOUS
 62
             4
100
AcDbLine
 10
70.99151400000008
 20
-83.59926390900812
 11
-43.10326836822033
 21
-83.59926383602982
  0
LINE
  5
16E
100
AcDbEntity
  8
0
  6
CONTINUOUS
 62
             4
100
AcDbLine
 10
96.60573847922707
 20
136.40082417981557
 11
-43.10326822750199
 21
136.40082426917746
  0
SOLID
  5
16F
100
AcDbEntity
  8
0
 62
             4
100
AcDbTrace
 10
-43.07805582243681
 20
-68.59926383604599
 11
-39.12848089481494
 21
-68.59926383857226
 12
-41.10326836822033
 22
-83.59926383730912
 13
-41.10326836822033
 23
-83.59926383730912
  0
SOLID
  5
170
100
AcDbEntity
  8
0
 62
             4
100
AcDbTrace
 10
-39.12848077328552
 20
121.40082426663515
 11
-43.07805570090739
 21
121.40082426916142
 12
-41.10326822750199
 22
136.40082426789829
 13
-41.10326822750199
 23
136.40082426789829
  0
MTEXT
  5
171
100
AcDbEntity
  8
0
 62
             1
100
AcDbMText
 10
-43.10326830731143
 20
11.62615619674896
 30
0.0
 40
15.0
 41
0.0
 71
             7
 72
             1
  1
220
  7
CONVERTER_1
 11
0.0
 21
1.0
 31
0.0
  0
ENDBLK
  5
172
100
AcDbEntity
  8
0
100
AcDbBlockEnd
  0
ENDSEC
  0
SECTION
  2
ENTITIES
  0
DIMENSION
  5
174
100
AcDbEntity
  8
1
100
AcDbDimension
  2
*D8
 10
-41.10326836822033
 20
-83.59926383730912
 11
-50.60326829579812
 21
29.62615620154618
 31
0.0
 53
89.99999996335198
  1
<>
  3
ME10_DIM_5
100
AcDbAlignedDimension
 13
96.60573847922706
 23
136.4008241798156
 14
70.9915140000001
 24
-83.59926390900813
 50
89.99999996335198
100
AcDbRotatedDimension
  0
DIMENSION
  5
169
100
AcDbEntity
  8
1
100
AcDbDimension
  2
*D7
 10
61.90490302635398
 20
149.62845868048132
 11
159.58334584826491
 21
159.12845861800341
 31
0.0
 53
0.00013888888889
  1
<>
  3
ME10_DIM_4
100
AcDbAlignedDimension
 13
246.9054670000001
 23
108.4265491799076
 14
61.90490300000009
 24
108.4265491799076
100
AcDbRotatedDimension
  0
DIMENSION
  5
15E
100
AcDbEntity
  8
1
100
AcDbDimension
  2
*D6
 10
-0.00000002907129
 20
-112.47038996679765
 11
160.94489825669481
 21
-102.97039006974261
 31
0.0
 53
0.00013888888889
  1
<>
  3
ME10_DIM_3
100
AcDbAlignedDimension
 13
315.00418900000028
 23
-77.26798490900802
 14
0.0
 24
-67.02012294076843
100
AcDbRotatedDimension
  0
DIMENSION
  5
153
100
AcDbEntity
  8
1
100
AcDbDimension
  2
*D5
 10
-16.76839493443266
 20
62.50002987959167
 11
-26.26856503706812
 21
1.18837326186131
 31
0.0
 53
89.99984103902034
  1
<>
  3
ME10_DIM_2
100
AcDbAlignedDimension
 13
-6.0
 23
-62.49999999808114
 14
-6.0
 24
62.50000000383776
 50
89.99984103902034
100
AcDbRotatedDimension
  0
DIMENSION
  5
148
100
AcDbEntity
  8
1
100
AcDbDimension
  2
*D4
 10
342.68146285165221
 20
46.39846551325086
 11
333.18128453634313
 21
-17.87336118521369
 31
0.0
 53
89.99984103902034
  1
<>
  3
ME10_DIM_1
100
AcDbAlignedDimension
 13
310.03226500000028
 23
-78.60020790900813
 14
310.03368800000032
 24
46.3985560909918
 50
89.99984103902034
100
AcDbRotatedDimension
  0
DIMENSION
  5
13D
100
AcDbEntity
  8
1
100
AcDbDimension
  2
*D3
 10
404.45052563232997
 20
-113.16379439376691
 11
488.08733501143831
 21
-103.66379439376691
 31
0.0
 53
0.00013888888889
  1
<>
  3
ME10_DIM_0
100
AcDbAlignedDimension
 13
644.45052563233003
 23
129.78465246598819
 14
404.45052563233003
 24
129.78465246598819
100
AcDbRotatedDimension
  0
INSERT
  5
33
100
AcDbEntity
  8
0
100
AcDbBlockReference
  2
HL_712_R_CKSTAUVERSCHLS__1
 10
1499.8327333632519
 20
-407.82246587936868
  0
INSERT
  5
34
100
AcDbEntity
  8
0
100
AcDbBlockReference
  2
HL_712_R_CKSTAUVERSCHLS__2
 10
1087.288795406588
 20
-407.82246587936959
  0
INSERT
  5
35
100
AcDbEntity
  8
0
100
AcDbBlockReference
  2
HL_712_R_CKSTAUVERSCHLS__3
 10
-21.5783580183157
 20
-1108.08031956031
  0
ENDSEC
  0
SECTION
  2
OBJECTS
  0
DICTIONARY
  5
19
100
AcDbDictionary
  3
ACAD_GROUP
350
1A
  3
ACAD_MLINESTYLE
350
1B
  0
DICTIONARY
  5
1A
102
{ACAD_REACTORS
330
19
102
}
100
AcDbDictionary
  0
DICTIONARY
  5
1B
102
{ACAD_REACTORS
330
19
102
}
100
AcDbDictionary
  3
STANDARD
350
1C
  0
MLINESTYLE
  5
1C
102
{ACAD_REACTORS
330
1B
102
}
100
AcDbMlineStyle
  2
STANDARD
 70
             0
  3

 62
             0
 51
90.0
 52
90.0
 71
             2
 49
0.5
 62
           256
  6
BYLAYER
 49
-0.5
 62
           256
  6
BYLAYER
  0
ENDSEC
  0
EOF
