  0
SECTION
  2
HEADER
  9
$ACADVER
  1
AC1014
  9
$ACADMAINTVER
 70
             0
  9
$DWGCODEPAGE
  3
ANSI_1252
  9
$INSBASE
 10
0.0
 20
0.0
 30
0.0
  9
$EXTMIN
 10
-59.33385384276559
 20
-131.08585823927999
 30
0.0
  9
$EXTMAX
 10
787.69305782131062
 20
266.73097407956487
 30
0.0
  9
$LIMMIN
 10
0.0
 20
0.0
  9
$LIMMAX
 10
0.0
 20
0.0
  9
$ORTHOMODE
 70
             0
  9
$REGENMODE
 70
             1
  9
$FILLMODE
 70
             1
  9
$QTEXTMODE
 70
             0
  9
$MIRRTEXT
 70
             1
  9
$DRAGMODE
 70
             2
  9
$LTSCALE
 40
1.0
  9
$OSMODE
 70
             0
  9
$ATTMODE
 70
             1
  9
$TEXTSIZE
 40
0.2
  9
$TRACEWID
 40
0.05
  9
$TEXTSTYLE
  7
STANDARD
  9
$CLAYER
  8
0
  9
$CELTYPE
  6
CONTINUOUS
  9
$CECOLOR
 62
           256
  9
$CELTSCALE
 40
1.0
  9
$DELOBJ
 70
             1
  9
$DISPSILH
 70
             0
  9
$DIMSCALE
 40
1.0
  9
$DIMASZ
 40
0.18
  9
$DIMEXO
 40
0.0625
  9
$DIMDLI
 40
0.38
  9
$DIMRND
 40
0.0
  9
$DIMDLE
 40
0.0
  9
$DIMEXE
 40
0.18
  9
$DIMTP
 40
0.0
  9
$DIMTM
 40
0.0
  9
$DIMTXT
 40
0.18
  9
$DIMCEN
 40
0.09
  9
$DIMTSZ
 40
0.0
  9
$DIMTOL
 70
             0
  9
$DIMLIM
 70
             0
  9
$DIMTIH
 70
             1
  9
$DIMTOH
 70
             1
  9
$DIMSE1
 70
             0
  9
$DIMSE2
 70
             0
  9
$DIMTAD
 70
             0
  9
$DIMZIN
 70
             0
  9
$DIMBLK
  1

  9
$DIMASO
 70
             1
  9
$DIMSHO
 70
             1
  9
$DIMPOST
  1

  9
$DIMAPOST
  1

  9
$DIMALT
 70
             0
  9
$DIMALTD
 70
             2
  9
$DIMALTF
 40
25.4
  9
$DIMLFAC
 40
1.0
  9
$DIMTOFL
 70
             0
  9
$DIMTVP
 40
0.0
  9
$DIMTIX
 70
             0
  9
$DIMSOXD
 70
             0
  9
$DIMSAH
 70
             0
  9
$DIMBLK1
  1

  9
$DIMBLK2
  1

  9
$DIMSTYLE
  2
STANDARD
  9
$DIMCLRD
 70
             0
  9
$DIMCLRE
 70
             0
  9
$DIMCLRT
 70
             0
  9
$DIMTFAC
 40
1.0
  9
$DIMGAP
 40
0.09
  9
$DIMJUST
 70
             0
  9
$DIMSD1
 70
             0
  9
$DIMSD2
 70
             0
  9
$DIMTOLJ
 70
             1
  9
$DIMTZIN
 70
             0
  9
$DIMALTZ
 70
             0
  9
$DIMALTTZ
 70
             0
  9
$DIMFIT
 70
             3
  9
$DIMUPT
 70
             0
  9
$DIMUNIT
 70
             2
  9
$DIMDEC
 70
             4
  9
$DIMTDEC
 70
             4
  9
$DIMALTU
 70
             2
  9
$DIMALTTD
 70
             2
  9
$DIMTXSTY
  7
STANDARD
  9
$DIMAUNIT
 70
             0
  9
$LUNITS
 70
             2
  9
$LUPREC
 70
             4
  9
$SKETCHINC
 40
0.1
  9
$FILLETRAD
 40
0.0
  9
$AUNITS
 70
             0
  9
$AUPREC
 70
             0
  9
$MENU
  1
acad
  9
$ELEVATION
 40
0.0
  9
$PELEVATION
 40
0.0
  9
$THICKNESS
 40
0.0
  9
$LIMCHECK
 70
             0
  9
$BLIPMODE
 70
             1
  9
$CHAMFERA
 40
0.0
  9
$CHAMFERB
 40
0.0
  9
$CHAMFERC
 40
0.0
  9
$CHAMFERD
 40
0.0
  9
$SKPOLY
 70
             0
  9
$TDCREATE
 40
0.000000000
  9
$TDUPDATE
 40
0.000000000
  9
$TDINDWG
 40
0.0000000000
  9
$TDUSRTIMER
 40
0.0000000000
  9
$USRTIMER
 70
             1
  9
$ANGBASE
 50
0.0
  9
$ANGDIR
 70
             0
  9
$PDMODE
 70
             0
  9
$PDSIZE
 40
0.0
  9
$PLINEWID
 40
0.0
  9
$COORDS
 70
             0
  9
$SPLFRAME
 70
             0
  9
$SPLINETYPE
 70
             6
  9
$SPLINESEGS
 70
             8
  9
$ATTDIA
 70
             0
  9
$ATTREQ
 70
             1
  9
$HANDLING
 70
             1
  9
$HANDSEED
  5
24A
  9
$SURFTAB1
 70
             6
  9
$SURFTAB2
 70
             6
  9
$SURFTYPE
 70
             6
  9
$SURFU
 70
             6
  9
$SURFV
 70
             6
  9
$UCSNAME
  2

  9
$UCSORG
 10
0.0
 20
0.0
 30
0.0
  9
$UCSXDIR
 10
1.0
 20
0.0
 30
0.0
  9
$UCSYDIR
 10
0.0
 20
1.0
 30
0.0
  9
$PUCSNAME
  2

  9
$PUCSORG
 10
0.0
 20
0.0
 30
0.0
  9
$PUCSXDIR
 10
1.0
 20
0.0
 30
0.0
  9
$PUCSYDIR
 10
0.0
 20
1.0
 30
0.0
  9
$USERI1
 70
             0
  9
$USERI2
 70
             0
  9
$USERI3
 70
             0
  9
$USERI4
 70
             0
  9
$USERI5
 70
             0
  9
$USERR1
 40
12.01
  9
$USERR2
 40
0.0
  9
$USERR3
 40
0.0
  9
$USERR4
 40
0.0
  9
$USERR5
 40
0.0
  9
$WORLDVIEW
 70
             1
  9
$SHADEDGE
 70
             3
  9
$SHADEDIF
 70
            70
  9
$TILEMODE
 70
             1
  9
$MAXACTVP
 70
            16
  9
$PINSBASE
 10
0.0
 20
0.0
 30
0.0
  9
$PLIMCHECK
 70
             0
  9
$PEXTMIN
 10
1.00000000000000E+20
 20
1.00000000000000E+20
 30
1.00000000000000E+20
  9
$PEXTMAX
 10
-1.00000000000000E+20
 20
-1.00000000000000E+20
 30
-1.00000000000000E+20
  9
$PLIMMIN
 10
0.0
 20
0.0
  9
$PLIMMAX
 10
12.0
 20
9.0
  9
$UNITMODE
 70
             0
  9
$VISRETAIN
 70
             0
  9
$PLINEGEN
 70
             1
  9
$PSLTSCALE
 70
             0
  9
$TREEDEPTH
 70
          3020
  9
$PICKSTYLE
 70
             1
  9
$CMLSTYLE
  2
STANDARD
  9
$CMLJUST
 70
             0
  9
$CMLSCALE
 40
1.0
  9
$PROXYGRAPHICS
 70
             0
  9
$MEASUREMENT
 70
             1
  0
ENDSEC
  0
SECTION
  2
CLASSES
  0
CLASS
  1
LWPOLYLINE
  2
AcDbPolyline
  3
"AutoCAD"
 90
        0
280
             0
281
             1
  0
CLASS
  1
IMAGE
  2
AcDbRasterImage
  3
ISM
 90
      127
280
             0
281
             1
  0
CLASS
  1
OLE2FRAME
  2
AcDbOle2Frame
  3
""
 90
        0
280
             0
281
             1
  0
CLASS
  1
HATCH
  2
AcDbHatch
  3
"ACAD_SEDONA"
 90
        0
280
             0
281
             1
  0
CLASS
  1
DICTIONARYVAR
  2
AcDbDictionaryVar
  3
"AutoCAD"
 90
        0
280
             0
281
             0
  0
CLASS
  1
RASTERVARIABLES
  2
AcDbRasterVariables
  3
ISM
 90
        0
280
             0
281
             0
  0
CLASS
  1
IMAGEDEF
  2
AcDbRasterImageDef
  3
ISM
 90
        0
280
             0
281
             0
  0
CLASS
  1
IMAGEDEF_REACTOR
  2
AcDbRasterImageDefReactor
  3
ISM
 90
        1
280
             0
281
             0
  0
CLASS
  1
IDBUFFER
  2
AcDbIdBuffer
  3
"Acad"
 90
        0
280
             0
281
             0
  0
CLASS
  1
SPATIAL_FILTER
  2
AcDbSpatialFilter
  3
"Acad"
 90
        0
280
             0
281
             0
  0
CLASS
  1
XRECORD
  2
AcDbXrecord
  3
"<Built In>"
 90
        0
280
             0
281
             0
  0
CLASS
  1
SORTENTSTABLE
  2
AcDbSortentsTable
  3
"AutoCAD"
 90
        0
280
             0
281
             0
  0
CLASS
  1
LAYER_INDEX
  2
AcDbLayerIndex
  3
"Acad"
 90
        0
280
             0
281
             0
  0
CLASS
  1
SPATIAL_INDEX
  2
AcDbSpatialIndex
  3
"Acad"
 90
        0
280
             0
281
             0
  0
CLASS
  1
OBJECT_PTR
  2
CAseDLPNTableRecord
  3
"ASE-LPNTableRecord"
 90
        1
280
             0
281
             0
  0
CLASS
  1
LAYOUT
  2
AcDbLayout
  3
"AutoCAD 2000"
 90
        0
280
             0
281
             0
  0
CLASS
  1
PLOTSETTINGS
  2
AcDbPlotSettings
  3
"AutoCAD 2000"
 90
        0
280
             0
281
             0
  0
CLASS
  1
ACDBDICTIONARYWDFLT
  2
AcDbDictionaryWithDefault
  3
"AutoCAD 2000"
 90
        0
280
             0
281
             0
  0
CLASS
  1
ACDBPLACEHOLDER
  2
AcDbPlaceHolder
  3
"AutoCAD 2000"
 90
        0
280
             0
281
             0
  0
ENDSEC
  0
SECTION
  2
TABLES
  0
TABLE
  2
VPORT
  5
7
100
AcDbSymbolTable
 70
             1
  0
VPORT
  5
15
100
AcDbSymbolTableRecord
100
AcDbViewportTableRecord
  2
*ACTIVE
 70
             0
 10
0.0
 20
0.0
 11
1.0
 21
1.0
 12
364.1796019892725
 22
67.82255792014244
 13
0.0
 23
0.0
 14
1.0
 24
1.0
 15
0.0
 25
0.0
 16
0.0
 26
0.0
 36
1.0
 17
0.0
 27
0.0
 37
0.0
 40
581.3577466128927
 41
1.60267857142857
 42
50.0
 43
0.0
 44
0.0
 50
0.0
 51
0.0
 71
             0
 72
           100
 73
             1
 74
             1
 75
             0
 76
             0
 77
             0
 78
             0
  0
ENDTAB
  0
TABLE
  2
LTYPE
  5
4
100
AcDbSymbolTable
 70
            11
  0
LTYPE
  5
11
100
AcDbSymbolTableRecord
100
AcDbLinetypeTableRecord
  2
BYBLOCK
 70
            64
  3

 72
            65
 73
             0
 40
0.0
  0
LTYPE
  5
12
100
AcDbSymbolTableRecord
100
AcDbLinetypeTableRecord
  2
BYLAYER
 70
            64
  3

 72
            65
 73
             0
 40
0.0
  0
LTYPE
  5
13
100
AcDbSymbolTableRecord
100
AcDbLinetypeTableRecord
  2
CONTINUOUS
 70
            64
  3
Solid line
 72
            65
 73
             0
 40
0.0
  0
LTYPE
  5
1D
100
AcDbSymbolTableRecord
100
AcDbLinetypeTableRecord
  2
DASHED
 70
            64
  3
Dashed
 72
            65
 73
             2
 40
15.0
 49
7.0
 74
             0
 49
-8.0
 74
             0
  0
LTYPE
  5
1E
100
AcDbSymbolTableRecord
100
AcDbLinetypeTableRecord
  2
DOTTED
 70
            64
  3
Dotted
 72
            65
 73
             2
 40
1.0
 49
0.0
 74
             0
 49
-1.0
 74
             0
  0
LTYPE
  5
1F
100
AcDbSymbolTableRecord
100
AcDbLinetypeTableRecord
  2
DOT_CENTER
 70
            64
  3
Dot_Center
 72
            65
 73
             4
 40
14.0
 49
12.0
 74
             0
 49
-1.0
 74
             0
 49
0.0
 74
             0
 49
-1.0
 74
             0
  0
LTYPE
  5
20
100
AcDbSymbolTableRecord
100
AcDbLinetypeTableRecord
  2
LONG_DASHED
 70
            64
  3
Long_Dashed
 72
            65
 73
             2
 40
15.0
 49
10.0
 74
             0
 49
-5.0
 74
             0
  0
LTYPE
  5
21
100
AcDbSymbolTableRecord
100
AcDbLinetypeTableRecord
  2
DASH_CENTER
 70
            64
  3
Dash_Center
 72
            65
 73
             4
 40
14.0
 49
11.0
 74
             0
 49
-1.0
 74
             0
 49
1.0
 74
             0
 49
-1.0
 74
             0
  0
LTYPE
  5
22
100
AcDbSymbolTableRecord
100
AcDbLinetypeTableRecord
  2
PHANTOM
 70
            64
  3
Phantom
 72
            65
 73
             6
 40
13.0
 49
10.0
 74
             0
 49
-1.0
 74
             0
 49
0.0
 74
             0
 49
-1.0
 74
             0
 49
0.0
 74
             0
 49
-1.0
 74
             0
  0
LTYPE
  5
23
100
AcDbSymbolTableRecord
100
AcDbLinetypeTableRecord
  2
CENTER_DASH_DASH
 70
            64
  3
Center_Dash_Dash
 72
            65
 73
             6
 40
14.0
 49
9.0
 74
             0
 49
-1.0
 74
             0
 49
1.0
 74
             0
 49
-1.0
 74
             0
 49
1.0
 74
             0
 49
-1.0
 74
             0
  0
LTYPE
  5
24
100
AcDbSymbolTableRecord
100
AcDbLinetypeTableRecord
  2
DASHDOT
 70
            64
  3
DASHDOT
 72
            65
 73
             4
 40
16.0
 49
10.0
 74
             0
 49
-3.0
 74
             0
 49
0.0
 74
             0
 49
-3.0
 74
             0
  0
ENDTAB
  0
TABLE
  2
LAYER
  5
2
100
AcDbSymbolTable
 70
             9
  0
LAYER
  5
14
100
AcDbSymbolTableRecord
100
AcDbLayerTableRecord
  2
0
 70
             0
 62
             7
  6
CONTINUOUS
  0
LAYER
  5
25
100
AcDbSymbolTableRecord
100
AcDbLayerTableRecord
  2
1
 70
             0
 62
             7
  6
CONTINUOUS
  0
LAYER
  5
26
100
AcDbSymbolTableRecord
100
AcDbLayerTableRecord
  2
LC-003-002-----0
 70
             0
 62
             7
  6
CONTINUOUS
  0
LAYER
  5
27
100
AcDbSymbolTableRecord
100
AcDbLayerTableRecord
  2
LC-004-002-RND-0
 70
             0
 62
             7
  6
CONTINUOUS
  0
LAYER
  5
28
100
AcDbSymbolTableRecord
100
AcDbLayerTableRecord
  2
LC-005-005-----0
 70
             0
 62
             7
  6
CONTINUOUS
  0
LAYER
  5
29
100
AcDbSymbolTableRecord
100
AcDbLayerTableRecord
  2
LC-006-002-RND-0
 70
             0
 62
             7
  6
CONTINUOUS
  0
LAYER
  5
2A
100
AcDbSymbolTableRecord
100
AcDbLayerTableRecord
  2
LC-007-002-----0
 70
             0
 62
             7
  6
CONTINUOUS
  0
LAYER
  5
2B
100
AcDbSymbolTableRecord
100
AcDbLayerTableRecord
  2
LC-007-003-----0
 70
             0
 62
             7
  6
CONTINUOUS
  0
LAYER
  5
2C
100
AcDbSymbolTableRecord
100
AcDbLayerTableRecord
  2
LC-008-006-MLN-0
 70
             0
 62
             7
  6
CONTINUOUS
  0
ENDTAB
  0
TABLE
  2
STYLE
  5
3
100
AcDbSymbolTable
 70
             2
  0
STYLE
  5
17
100
AcDbSymbolTableRecord
100
AcDbTextStyleTableRecord
  2
STANDARD
 70
             0
 40
0.0
 41
1.0
 50
0.0
 71
             0
 42
0.0
  3
txt
  4

  0
STYLE
  5
200
100
AcDbSymbolTableRecord
100
AcDbTextStyleTableRecord
  2
CONVERTER_1
 70
             0
 40
0.0
 41
0.9
 50
0.0
 71
             0
 42
0.0
  3
txt.shx
  4

  0
ENDTAB
  0
TABLE
  2
VIEW
  5
5
100
AcDbSymbolTable
 70
             0
  0
ENDTAB
  0
TABLE
  2
UCS
  5
6
100
AcDbSymbolTable
 70
             0
  0
ENDTAB
  0
TABLE
  2
APPID
  5
8
100
AcDbSymbolTable
 70
             1
  0
APPID
  5
16
100
AcDbSymbolTableRecord
100
AcDbRegAppTableRecord
  2
ACAD
 70
             0
  0
ENDTAB
  0
TABLE
  2
DIMSTYLE
  5
9
100
AcDbSymbolTable
 70
             8
  0
DIMSTYLE
105
18
100
AcDbSymbolTableRecord
100
AcDbDimStyleTableRecord
  2
STANDARD
 70
             0
  3

  4

  5

  6

  7

 40
1.0
 41
0.18
 42
0.0625
 43
0.38
 44
0.18
 45
0.0
 46
0.0
 47
0.0
 48
0.0
 71
             0
 72
             0
 73
             1
 74
             1
 75
             0
 76
             0
 77
             0
 78
             0
140
0.18
141
0.09
142
0.0
143
25.4
144
1.0
145
0.0
146
1.0
147
0.09
170
             0
171
             2
172
             0
173
             0
174
             0
175
             0
176
             0
177
             0
178
             0
270
             2
271
             4
272
             4
273
             2
274
             2
275
             0
280
             0
281
             0
282
             0
283
             1
284
             0
285
             0
286
             0
287
             3
288
             0
340
17
  0
DIMSTYLE
105
203
100
AcDbSymbolTableRecord
100
AcDbDimStyleTableRecord
  2
ME10_DIM_0
 70
             0
  3
265-<>
  4

  5

  6

  7

 40
1.0
 41
12.0
 42
0.0
 43
0.38
 44
2.0
 45
0.0
 46
0.0
 47
0.0
 48
0.0
 71
             0
 72
             0
 73
             0
 74
             0
 75
             0
 76
             0
 77
             1
 78
             8
140
12.0
141
0.09
142
0.0
143
25.4
144
1.0
145
0.0
146
1.0
147
0.625
170
             0
171
             2
172
             1
173
             1
174
             0
175
             0
176
             4
177
             4
178
             1
270
             2
271
             2
272
             4
273
             2
274
             2
275
             0
280
             0
281
             0
282
             0
283
             1
284
             0
285
             0
286
             0
287
             3
288
             0
340
200
  0
DIMSTYLE
105
210
100
AcDbSymbolTableRecord
100
AcDbDimStyleTableRecord
  2
ME10_DIM_1
 70
             0
  3

  4

  5

  6

  7

 40
1.0
 41
12.0
 42
0.0
 43
0.38
 44
2.0
 45
0.0
 46
0.0
 47
0.0
 48
0.0
 71
             0
 72
             0
 73
             0
 74
             0
 75
             0
 76
             0
 77
             1
 78
             8
140
12.0
141
0.09
142
0.0
143
25.4
144
1.0
145
0.0
146
1.0
147
0.625
170
             0
171
             2
172
             1
173
             1
174
             0
175
             0
176
             4
177
             4
178
             1
270
             2
271
             2
272
             4
273
             2
274
             2
275
             0
280
             0
281
             0
282
             0
283
             1
284
             0
285
             0
286
             0
287
             3
288
             0
340
200
  0
DIMSTYLE
105
21B
100
AcDbSymbolTableRecord
100
AcDbDimStyleTableRecord
  2
ME10_DIM_2
 70
             0
  3
DN<>
  4

  5

  6

  7

 40
1.0
 41
12.0
 42
0.0
 43
0.38
 44
2.0
 45
0.0
 46
0.0
 47
0.0
 48
0.0
 71
             0
 72
             0
 73
             0
 74
             0
 75
             0
 76
             0
 77
             1
 78
             8
140
12.0
141
0.09
142
0.0
143
25.4
144
1.0
145
0.0
146
1.0
147
0.625
170
             0
171
             2
172
             1
173
             1
174
             0
175
             0
176
             4
177
             4
178
             1
270
             2
271
             2
272
             4
273
             2
274
             2
275
             0
280
             0
281
             0
282
             0
283
             1
284
             0
285
             0
286
             0
287
             3
288
             0
340
200
  0
DIMSTYLE
105
226
100
AcDbSymbolTableRecord
100
AcDbDimStyleTableRecord
  2
ME10_DIM_3
 70
             0
  3
DN<>
  4

  5

  6

  7

 40
1.0
 41
12.0
 42
0.0
 43
0.38
 44
2.0
 45
0.0
 46
0.0
 47
0.0
 48
0.0
 71
             0
 72
             0
 73
             0
 74
             0
 75
             0
 76
             0
 77
             1
 78
             8
140
12.0
141
0.09
142
0.0
143
25.4
144
1.0
145
0.0
146
1.0
147
0.625
170
             0
171
             2
172
             1
173
             1
174
             0
175
             0
176
             4
177
             4
178
             1
270
             2
271
             2
272
             4
273
             2
274
             2
275
             0
280
             0
281
             0
282
             0
283
             1
284
             0
285
             0
286
             0
287
             3
288
             0
340
200
  0
DIMSTYLE
105
231
100
AcDbSymbolTableRecord
100
AcDbDimStyleTableRecord
  2
ME10_DIM_4
 70
             0
  3

  4

  5

  6

  7

 40
1.0
 41
12.0
 42
0.0
 43
0.38
 44
2.0
 45
0.0
 46
0.0
 47
0.0
 48
0.0
 71
             0
 72
             0
 73
             0
 74
             0
 75
             0
 76
             0
 77
             1
 78
             8
140
12.0
141
0.09
142
0.0
143
25.4
144
1.0
145
0.0
146
1.0
147
0.625
170
             0
171
             2
172
             1
173
             1
174
             0
175
             0
176
             4
177
             4
178
             1
270
             2
271
             2
272
             4
273
             2
274
             2
275
             0
280
             0
281
             0
282
             0
283
             1
284
             0
285
             0
286
             0
287
             3
288
             0
340
200
  0
DIMSTYLE
105
23C
100
AcDbSymbolTableRecord
100
AcDbDimStyleTableRecord
  2
ME10_DIM_5
 70
             0
  3

  4

  5

  6

  7

 40
1.0
 41
12.0
 42
0.0
 43
0.38
 44
2.0
 45
0.0
 46
0.0
 47
0.0
 48
0.0
 71
             0
 72
             0
 73
             0
 74
             0
 75
             0
 76
             0
 77
             1
 78
             8
140
12.0
141
0.09
142
0.0
143
25.4
144
1.0
145
0.0
146
1.0
147
0.625
170
             0
171
             2
172
             1
173
             1
174
             0
175
             0
176
             4
177
             4
178
             1
270
             2
271
             2
272
             4
273
             2
274
             2
275
             0
280
             0
281
             0
282
             0
283
             1
284
             0
285
             0
286
             0
287
             3
288
             0
340
200
  0
DIMSTYLE
105
247
100
AcDbSymbolTableRecord
100
AcDbDimStyleTableRecord
  2
ME10_DIM_6
 70
             0
  3

  4

  5

  6

  7

 40
1.0
 41
12.0
 42
0.0
 43
0.38
 44
2.0
 45
0.0
 46
0.0
 47
0.0
 48
0.0
 71
             0
 72
             0
 73
             0
 74
             0
 75
             0
 76
             0
 77
             1
 78
             8
140
12.0
141
0.09
142
0.0
143
25.4
144
1.0
145
0.0
146
1.0
147
0.625
170
             0
171
             2
172
             1
173
             1
174
             0
175
             0
176
             4
177
             4
178
             1
270
             2
271
             2
272
             4
273
             2
274
             2
275
             0
280
             0
281
             0
282
             0
283
             1
284
             0
285
             0
286
             0
287
             3
288
             0
340
200
  0
ENDTAB
  0
TABLE
  2
BLOCK_RECORD
  5
1
100
AcDbSymbolTable
 70
             9
  0
BLOCK_RECORD
  5
A
100
AcDbSymbolTableRecord
100
AcDbBlockTableRecord
  2
*MODEL_SPACE
  0
BLOCK_RECORD
  5
B
100
AcDbSymbolTableRecord
100
AcDbBlockTableRecord
  2
*PAPER_SPACE
  0
BLOCK_RECORD
  5
2D
100
AcDbSymbolTableRecord
100
AcDbBlockTableRecord
  2
HL_715_1_R_CKSTAUVERSCS__1
  0
BLOCK_RECORD
  5
2F
100
AcDbSymbolTableRecord
100
AcDbBlockTableRecord
  2
HL_715_1_R_CKSTAUVERSCS__2
  0
BLOCK_RECORD
  5
1F9
100
AcDbSymbolTableRecord
100
AcDbBlockTableRecord
  2
*D2
  0
BLOCK_RECORD
  5
205
100
AcDbSymbolTableRecord
100
AcDbBlockTableRecord
  2
*D3
  0
BLOCK_RECORD
  5
212
100
AcDbSymbolTableRecord
100
AcDbBlockTableRecord
  2
*D4
  0
BLOCK_RECORD
  5
21D
100
AcDbSymbolTableRecord
100
AcDbBlockTableRecord
  2
*D5
  0
BLOCK_RECORD
  5
228
100
AcDbSymbolTableRecord
100
AcDbBlockTableRecord
  2
*D6
  0
BLOCK_RECORD
  5
233
100
AcDbSymbolTableRecord
100
AcDbBlockTableRecord
  2
*D7
  0
BLOCK_RECORD
  5
23E
100
AcDbSymbolTableRecord
100
AcDbBlockTableRecord
  2
*D8
  0
ENDTAB
  0
ENDSEC
  0
SECTION
  2
BLOCKS
  0
BLOCK
  5
D
100
AcDbEntity
  8
0
100
AcDbBlockBegin
  2
*MODEL_SPACE
 70
             0
 10
0.0
 20
0.0
 30
0.0
  3
*MODEL_SPACE
  1

  0
ENDBLK
  5
E
100
AcDbEntity
  8
0
100
AcDbBlockEnd
  0
BLOCK
  5
F
100
AcDbEntity
 67
             1
  8
0
100
AcDbBlockBegin
  2
*PAPER_SPACE
 70
             0
 10
0.0
 20
0.0
 30
0.0
  3
*PAPER_SPACE
  1

  0
ENDBLK
  5
10
100
AcDbEntity
 67
             1
  8
0
100
AcDbBlockEnd
  0
BLOCK
  5
2E
100
AcDbEntity
  8
0
100
AcDbBlockBegin
  2
HL_715_1_R_CKSTAUVERSCS__1
 70
             0
 10
-10.00000000000011
 20
1400.900592
 30
0.0
  3
HL_715_1_R_CKSTAUVERSCS__1
  1

  0
CIRCLE
  5
101
100
AcDbEntity
  8
LC-004-002-RND-0
  6
CONTINUOUS
 62
             7
100
AcDbCircle
 10
161.7093100000001
 20
240.8996340000003
 40
2.5
  0
ARC
  5
100
100
AcDbEntity
  8
LC-004-002-RND-0
  6
CONTINUOUS
 62
             7
100
AcDbCircle
 10
13.0
 20
-89.5
 40
4.0
100
AcDbArc
 50
180.0
 51
-90.0
  0
ARC
  5
FF
100
AcDbEntity
  8
LC-004-002-RND-0
  6
CONTINUOUS
 62
             7
100
AcDbCircle
 10
25.0
 20
-89.5
 40
4.0
100
AcDbArc
 50
-90.0
 51
0.0
  0
ARC
  5
FE
100
AcDbEntity
  8
LC-004-002-RND-0
  6
CONTINUOUS
 62
             7
100
AcDbCircle
 10
13.0
 20
89.5
 40
4.0
100
AcDbArc
 50
90.0
 51
180.0
  0
ARC
  5
FD
100
AcDbEntity
  8
LC-004-002-RND-0
  6
CONTINUOUS
 62
             7
100
AcDbCircle
 10
25.0
 20
89.5
 40
4.0
100
AcDbArc
 50
0.0
 51
90.0
  0
ARC
  5
FC
100
AcDbEntity
  8
LC-004-002-RND-0
  6
CONTINUOUS
 62
             7
100
AcDbCircle
 10
286.57909799999999
 20
-93.10012599999982
 40
1.00000000000031
100
AcDbArc
 50
-90.00004500010549
 51
-0.99972700000736
  0
ARC
  5
FB
100
AcDbEntity
  8
LC-004-002-RND-0
  6
CONTINUOUS
 62
             7
100
AcDbCircle
 10
126.0092080000001
 20
-95.099244
 40
4.0000000000004
100
AcDbArc
 50
-89.99965999996884
 51
0.0
  0
ARC
  5
FA
100
AcDbEntity
  8
LC-004-002-RND-0
  6
CONTINUOUS
 62
             7
100
AcDbCircle
 10
130.50920800000009
 20
-94.60000499999978
 40
0.50000000000015
100
AcDbArc
 50
89.99995499990428
 51
180.0
  0
ARC
  5
F9
100
AcDbEntity
  8
LC-004-002-RND-0
  6
CONTINUOUS
 62
             7
100
AcDbCircle
 10
95.45554500000003
 20
-95.09940800000004
 40
4.0000000000005
100
AcDbArc
 50
-179.00027300000062
 51
-89.99967699999941
  0
ARC
  5
F8
100
AcDbEntity
  8
LC-004-002-RND-0
  6
CONTINUOUS
 62
             7
100
AcDbCircle
 10
291.54580800000002
 20
117.40065000015259
 40
3.50000000000316
100
AcDbArc
 50
2.00000000000231
 51
90.0
  0
ARC
  5
F7
100
AcDbEntity
  8
LC-004-002-RND-0
  6
CONTINUOUS
 62
             7
100
AcDbCircle
 10
87.45349000000005
 20
117.40065000015259
 40
3.5
100
AcDbArc
 50
90.0
 51
177.99999999999596
  0
ARC
  5
F6
100
AcDbEntity
  8
LC-004-002-RND-0
  6
CONTINUOUS
 62
             7
100
AcDbCircle
 10
141.7093100000001
 20
130.90065000015261
 40
1.0
100
AcDbArc
 50
90.0
 51
180.0
  0
ARC
  5
F5
100
AcDbEntity
  8
LC-004-002-RND-0
  6
CONTINUOUS
 62
             7
100
AcDbCircle
 10
161.7093100000001
 20
130.90065000015261
 40
1.0
100
AcDbArc
 50
0.0
 51
90.0
  0
ARC
  5
F4
100
AcDbEntity
  8
LC-004-002-RND-0
  6
CONTINUOUS
 62
             7
100
AcDbCircle
 10
99.93217500000003
 20
123.90065000015259
 40
2.0
100
AcDbArc
 50
90.0
 51
180.0
  0
ARC
  5
F3
100
AcDbEntity
  8
LC-004-002-RND-0
  6
CONTINUOUS
 62
             7
100
AcDbCircle
 10
156.7095250000001
 20
137.08224000000021
 40
1.99999999999983
100
AcDbArc
 50
-89.99987399999172
 51
0.00012600000747
  0
ARC
  5
F2
100
AcDbEntity
  8
LC-004-002-RND-0
  6
CONTINUOUS
 62
             7
100
AcDbCircle
 10
146.7093229999999
 20
234.8996010000001
 40
1.99999999999983
100
AcDbArc
 50
90.00012600000503
 51
-179.99987399999171
  0
ARC
  5
F1
100
AcDbEntity
  8
LC-004-002-RND-0
  6
CONTINUOUS
 62
             7
100
AcDbCircle
 10
159.20931699999991
 20
237.39962800000009
 40
0.5000000000003
100
AcDbArc
 50
-89.99987399970593
 51
0.00012599998467
  0
ARC
  5
F0
100
AcDbEntity
  8
LC-004-002-RND-0
  6
CONTINUOUS
 62
             7
100
AcDbCircle
 10
160.70931600000009
 20
238.0860680000001
 40
3.00000000000047
100
AcDbArc
 50
-84.99987400004146
 51
-11.59436199997595
  0
ARC
  5
EF
100
AcDbEntity
  8
LC-004-002-RND-0
  6
CONTINUOUS
 62
             7
100
AcDbCircle
 10
146.70932699999989
 20
232.8996010000001
 40
1.99999999999983
100
AcDbArc
 50
90.00012600000747
 51
-179.99987399999171
  0
ARC
  5
EE
100
AcDbEntity
  8
LC-004-002-RND-0
  6
CONTINUOUS
 62
             7
100
AcDbCircle
 10
141.7093100000001
 20
222.67843300000001
 40
1.0
100
AcDbArc
 50
90.0
 51
180.0
  0
ARC
  5
ED
100
AcDbEntity
  8
LC-004-002-RND-0
  6
CONTINUOUS
 62
             7
100
AcDbCircle
 10
162.2093100000001
 20
247.881754
 40
3.0
100
AcDbArc
 50
180.0
 51
-94.09604400006666
  0
ARC
  5
EC
100
AcDbEntity
  8
LC-004-002-RND-0
  6
CONTINUOUS
 62
             7
100
AcDbCircle
 10
163.39397100000011
 20
238.41731299999989
 40
0.50000000000096
100
AcDbArc
 50
124.16331500009638
 51
-150.0442019997821
  0
ARC
  5
EB
100
AcDbEntity
  8
LC-004-002-RND-0
  6
CONTINUOUS
 62
             7
100
AcDbCircle
 10
163.64421499999989
 20
237.98310399999991
 40
0.49999999999564
100
AcDbArc
 50
-150.04420199977764
 51
-56.43861999950386
  0
ARC
  5
EA
100
AcDbEntity
  8
LC-004-002-RND-0
  6
CONTINUOUS
 62
             7
100
AcDbCircle
 10
157.2093100000001
 20
253.8996340000003
 40
2.0
100
AcDbArc
 50
0.0
 51
90.0
  0
ARC
  5
E9
100
AcDbEntity
  8
LC-004-002-RND-0
  6
CONTINUOUS
 62
             7
100
AcDbCircle
 10
136.20930999999999
 20
253.8996340000003
 40
2.0
100
AcDbArc
 50
90.0
 51
180.0
  0
ARC
  5
E8
100
AcDbEntity
  8
LC-004-002-RND-0
  6
CONTINUOUS
 62
             7
100
AcDbCircle
 10
136.20930999999999
 20
220.3996340000003
 40
2.0
100
AcDbArc
 50
180.0
 51
-90.0
  0
ARC
  5
E7
100
AcDbEntity
  8
LC-004-002-RND-0
  6
CONTINUOUS
 62
             7
100
AcDbCircle
 10
146.2093100000001
 20
235.3996340000003
 40
2.0
100
AcDbArc
 50
90.0
 51
180.0
  0
ARC
  5
E6
100
AcDbEntity
  8
LC-004-002-RND-0
  6
CONTINUOUS
 62
             7
100
AcDbCircle
 10
157.2093100000001
 20
239.3996340000003
 40
2.0
100
AcDbArc
 50
-90.0
 51
0.0
  0
ARC
  5
E5
100
AcDbEntity
  8
LC-004-002-RND-0
  6
CONTINUOUS
 62
             7
100
AcDbCircle
 10
161.7093100000001
 20
240.8996340000003
 40
3.99999999999788
100
AcDbArc
 50
-56.43862000004246
 51
85.90395599993363
  0
ARC
  5
E4
100
AcDbEntity
  8
LC-004-002-RND-0
  6
CONTINUOUS
 62
             7
100
AcDbCircle
 10
161.7093100000001
 20
240.8996340000003
 40
2.49999999999754
100
AcDbArc
 50
-55.83668500007607
 51
180.0
  0
ARC
  5
E3
100
AcDbEntity
  8
LC-004-002-RND-0
  6
CONTINUOUS
 62
             7
100
AcDbCircle
 10
260.49982000000011
 20
95.40081200000395
 40
0.5
100
AcDbArc
 50
-90.0
 51
0.0
  0
ARC
  5
E2
100
AcDbEntity
  8
LC-004-002-RND-0
  6
CONTINUOUS
 62
             7
100
AcDbCircle
 10
241.49982000000011
 20
95.40081200000395
 40
0.5
100
AcDbArc
 50
180.0
 51
-90.0
  0
ARC
  5
E1
100
AcDbEntity
  8
LC-004-002-RND-0
  6
CONTINUOUS
 62
             7
100
AcDbCircle
 10
241.49982000000011
 20
103.40046199999981
 40
0.5
100
AcDbArc
 50
90.0
 51
180.0
  0
ARC
  5
E0
100
AcDbEntity
  8
LC-004-002-RND-0
  6
CONTINUOUS
 62
             7
100
AcDbCircle
 10
260.49982000000011
 20
103.40046199999981
 40
0.5
100
AcDbArc
 50
0.0
 51
90.0
  0
ARC
  5
DF
100
AcDbEntity
  8
LC-004-002-RND-0
  6
CONTINUOUS
 62
             7
100
AcDbCircle
 10
241.49982000000011
 20
111.4005690001525
 40
0.5
100
AcDbArc
 50
90.0
 51
180.0
  0
ARC
  5
DE
100
AcDbEntity
  8
LC-004-002-RND-0
  6
CONTINUOUS
 62
             7
100
AcDbCircle
 10
260.49982000000011
 20
111.4005690001525
 40
0.5
100
AcDbArc
 50
0.0
 51
90.0
  0
ARC
  5
DD
100
AcDbEntity
  8
LC-004-002-RND-0
  6
CONTINUOUS
 62
             7
100
AcDbCircle
 10
241.49982000000011
 20
104.40046199999981
 40
0.5
100
AcDbArc
 50
180.0
 51
-90.0
  0
ARC
  5
DC
100
AcDbEntity
  8
LC-004-002-RND-0
  6
CONTINUOUS
 62
             7
100
AcDbCircle
 10
260.49982000000011
 20
104.40046199999981
 40
0.5
100
AcDbArc
 50
-90.0
 51
0.0
  0
ARC
  5
DB
100
AcDbEntity
  8
LC-003-002-----0
  6
CONTINUOUS
 62
             7
100
AcDbCircle
 10
251.0051850000001
 20
81.14322500000026
 40
61.75632799999868
100
AcDbArc
 50
71.28470100000253
 51
108.72565599999803
  0
ARC
  5
DA
100
AcDbEntity
  8
LC-003-002-----0
  6
CONTINUOUS
 62
             7
100
AcDbCircle
 10
238.81245058257619
 20
158.01326300000051
 40
24.3612230387408
100
AcDbArc
 50
-109.95063845965782
 51
-66.5606594596658
  0
ARC
  5
D9
100
AcDbEntity
  8
LC-003-002-----0
  6
CONTINUOUS
 62
             7
100
AcDbCircle
 10
263.18753038549357
 20
158.0133780000003
 40
24.36122392268358
100
AcDbArc
 50
-113.43937840720983
 51
-70.04939840720807
  0
ARC
  5
D8
100
AcDbEntity
  8
LC-003-002-----0
  6
CONTINUOUS
 62
             7
100
AcDbCircle
 10
270.49982000000011
 20
138.68704000000031
 40
1.0
100
AcDbArc
 50
0.0
 51
71.28470000021177
  0
ARC
  5
D7
100
AcDbEntity
  8
LC-003-002-----0
  6
CONTINUOUS
 62
             7
100
AcDbCircle
 10
261.93332100000009
 20
116.28329600000011
 40
24.3575989999985
100
AcDbArc
 50
66.87414800001015
 51
110.25728699999826
  0
ARC
  5
D6
100
AcDbEntity
  8
LC-003-002-----0
  6
CONTINUOUS
 62
             7
100
AcDbCircle
 10
231.50014700000011
 20
135.1034460000001
 40
1.00000000000021
100
AcDbArc
 50
179.99996299998389
 51
-110.00011400009714
  0
ARC
  5
D5
100
AcDbEntity
  8
LC-003-002-----0
  6
CONTINUOUS
 62
             7
100
AcDbCircle
 10
231.50014900000011
 20
138.68351600000011
 40
0.99999999999946
100
AcDbArc
 50
108.72563699987448
 51
179.99996299998554
  0
ARC
  5
D4
100
AcDbEntity
  8
LC-003-002-----0
  6
CONTINUOUS
 62
             7
100
AcDbCircle
 10
270.49982000000011
 20
135.103556
 40
0.9999999999989
100
AcDbArc
 50
-69.99986700009639
 51
0.0
  0
ARC
  5
D3
100
AcDbEntity
  8
LC-003-002-----0
  6
CONTINUOUS
 62
             7
100
AcDbCircle
 10
240.066633
 20
116.2831810000002
 40
24.35759899999918
100
AcDbArc
 50
69.74267600000246
 51
113.125814999998
  0
ARC
  5
D2
100
AcDbEntity
  8
LC-003-002-----0
  6
CONTINUOUS
 62
             7
100
AcDbCircle
 10
251.0051850000001
 20
81.14322500000026
 40
61.75632799999868
100
AcDbArc
 50
71.28470100000253
 51
108.72565599999803
  0
ARC
  5
D1
100
AcDbEntity
  8
LC-004-002-RND-0
  6
CONTINUOUS
 62
             7
100
AcDbCircle
 10
137.49981
 20
95.90089300000409
 40
0.5
100
AcDbArc
 50
-90.0
 51
0.0
  0
ARC
  5
D0
100
AcDbEntity
  8
LC-004-002-RND-0
  6
CONTINUOUS
 62
             7
100
AcDbCircle
 10
118.49981
 20
95.90089300000409
 40
0.5
100
AcDbArc
 50
180.0
 51
-90.0
  0
ARC
  5
CF
100
AcDbEntity
  8
LC-004-002-RND-0
  6
CONTINUOUS
 62
             7
100
AcDbCircle
 10
118.49981
 20
103.900543
 40
0.5
100
AcDbArc
 50
90.0
 51
180.0
  0
ARC
  5
CE
100
AcDbEntity
  8
LC-004-002-RND-0
  6
CONTINUOUS
 62
             7
100
AcDbCircle
 10
137.49981
 20
103.900543
 40
0.5
100
AcDbArc
 50
0.0
 51
90.0
  0
ARC
  5
CD
100
AcDbEntity
  8
LC-004-002-RND-0
  6
CONTINUOUS
 62
             7
100
AcDbCircle
 10
118.49981
 20
111.90065000015259
 40
0.5
100
AcDbArc
 50
90.0
 51
180.0
  0
ARC
  5
CC
100
AcDbEntity
  8
LC-004-002-RND-0
  6
CONTINUOUS
 62
             7
100
AcDbCircle
 10
137.49981
 20
111.90065000015259
 40
0.5
100
AcDbArc
 50
0.0
 51
90.0
  0
ARC
  5
CB
100
AcDbEntity
  8
LC-004-002-RND-0
  6
CONTINUOUS
 62
             7
100
AcDbCircle
 10
118.49981
 20
104.900543
 40
0.5
100
AcDbArc
 50
180.0
 51
-90.0
  0
ARC
  5
CA
100
AcDbEntity
  8
LC-004-002-RND-0
  6
CONTINUOUS
 62
             7
100
AcDbCircle
 10
137.49981
 20
104.900543
 40
0.5
100
AcDbArc
 50
-90.0
 51
0.0
  0
ARC
  5
C9
100
AcDbEntity
  8
LC-003-002-----0
  6
CONTINUOUS
 62
             7
100
AcDbCircle
 10
128.00517500000001
 20
81.64330500000006
 40
61.75632799999909
100
AcDbArc
 50
71.2847010000028
 51
108.7256559999998
  0
ARC
  5
C8
100
AcDbEntity
  8
LC-003-002-----0
  6
CONTINUOUS
 62
             7
100
AcDbCircle
 10
115.8124415825761
 20
158.5133430000005
 40
24.36122303874044
100
AcDbArc
 50
-109.95063845965768
 51
-66.56065945966562
  0
ARC
  5
C7
100
AcDbEntity
  8
LC-003-002-----0
  6
CONTINUOUS
 62
             7
100
AcDbCircle
 10
140.1875213854936
 20
158.51345900000049
 40
24.36122392268348
100
AcDbArc
 50
-113.43937840720943
 51
-70.04939840720795
  0
ARC
  5
C6
100
AcDbEntity
  8
LC-003-002-----0
  6
CONTINUOUS
 62
             7
100
AcDbCircle
 10
147.49980999999991
 20
139.18712000000011
 40
1.0
100
AcDbArc
 50
0.0
 51
71.28470000020099
  0
ARC
  5
C5
100
AcDbEntity
  8
LC-003-002-----0
  6
CONTINUOUS
 62
             7
100
AcDbCircle
 10
138.933312
 20
116.7833770000002
 40
24.35759899999862
100
AcDbArc
 50
66.87414800000954
 51
110.25728699999858
  0
ARC
  5
C4
100
AcDbEntity
  8
LC-003-002-----0
  6
CONTINUOUS
 62
             7
100
AcDbCircle
 10
108.500137
 20
135.6035259999999
 40
1.00000000000021
100
AcDbArc
 50
179.99996299998389
 51
-110.00011399999093
  0
ARC
  5
C3
100
AcDbEntity
  8
LC-003-002-----0
  6
CONTINUOUS
 62
             7
100
AcDbCircle
 10
108.50014
 20
139.18359599999991
 40
1.00000000000048
100
AcDbArc
 50
108.72563699997589
 51
179.99996299998389
  0
ARC
  5
C2
100
AcDbEntity
  8
LC-003-002-----0
  6
CONTINUOUS
 62
             7
100
AcDbCircle
 10
147.49980999999991
 20
135.60363600000031
 40
0.99999999999944
100
AcDbArc
 50
-69.99986700009723
 51
0.0
  0
ARC
  5
C1
100
AcDbEntity
  8
LC-003-002-----0
  6
CONTINUOUS
 62
             7
100
AcDbCircle
 10
117.06662300000011
 20
116.783261
 40
24.35759899999951
100
AcDbArc
 50
69.74267600000304
 51
113.125815
  0
ARC
  5
C0
100
AcDbEntity
  8
LC-004-002-RND-0
  6
CONTINUOUS
 62
             7
100
AcDbCircle
 10
275.86268000000013
 20
123.90065000015259
 40
2.0
100
AcDbArc
 50
0.0
 51
90.0
  0
LINE
  5
BF
100
AcDbEntity
  8
LC-003-002-----0
  6
CONTINUOUS
 62
             7
100
AcDbLine
 10
1.0
 20
81.0
 11
1.0
 21
-81.0
  0
LINE
  5
BE
100
AcDbEntity
  8
LC-003-002-----0
  6
CONTINUOUS
 62
             7
100
AcDbLine
 10
369.99967800000002
 20
68.50002799999993
 11
375.99967800000002
 21
66.89233300000024
  0
LINE
  5
BD
100
AcDbEntity
  8
LC-003-002-----0
  6
CONTINUOUS
 62
             7
100
AcDbLine
 10
369.99974144483423
 20
-91.49995499999909
 11
375.99967800000002
 21
-89.89227600000027
  0
LINE
  5
BC
100
AcDbEntity
  8
LC-003-002-----0
  6
CONTINUOUS
 62
             7
100
AcDbLine
 10
290.40096699999992
 20
68.50002799999993
 11
369.99967800000002
 21
68.50002799999993
  0
LINE
  5
BB
100
AcDbEntity
  8
LC-003-002-----0
  6
CONTINUOUS
 62
             7
100
AcDbLine
 10
91.27433500000007
 20
-84.75
 11
29.0
 21
-84.75
  0
LINE
  5
BA
100
AcDbEntity
  8
LC-003-002-----0
  6
CONTINUOUS
 62
             7
100
AcDbLine
 10
9.0
 20
89.5
 11
9.0
 21
85.0
  0
LINE
  5
B9
100
AcDbEntity
  8
LC-003-002-----0
  6
CONTINUOUS
 62
             7
100
AcDbLine
 10
9.0
 20
-89.5
 11
9.0
 21
-85.0
  0
LINE
  5
B8
100
AcDbEntity
  8
LC-003-002-----0
  6
CONTINUOUS
 62
             7
100
AcDbLine
 10
130.00920800000009
 20
-94.60000499999978
 11
130.00920800000009
 21
-95.099244
  0
LINE
  5
B7
100
AcDbEntity
  8
LC-003-002-----0
  6
CONTINUOUS
 62
             7
100
AcDbLine
 10
130.50920900000011
 20
-94.10000599999967
 11
286.57909699999988
 21
-94.10012599999982
  0
LINE
  5
B6
100
AcDbEntity
  8
LC-003-002-----0
  6
CONTINUOUS
 62
             7
100
AcDbLine
 10
95.45556699999997
 20
-99.09940800000004
 11
126.017454
 21
-99.09923600000002
  0
LINE
  5
B5
100
AcDbEntity
  8
LC-003-002-----0
  6
CONTINUOUS
 62
             7
100
AcDbLine
 10
29.0
 20
84.75
 11
29.0
 21
89.5
  0
LINE
  5
B4
100
AcDbEntity
  8
LC-003-002-----0
  6
CONTINUOUS
 62
             7
100
AcDbLine
 10
290.99952300000012
 20
104.401537
 11
287.60542800000002
 21
-91.49997199999962
  0
LINE
  5
B3
100
AcDbEntity
  8
LC-003-002-----0
  6
CONTINUOUS
 62
             7
100
AcDbLine
 10
29.0
 20
-84.75
 11
29.0
 21
-89.5
  0
LINE
  5
B2
100
AcDbEntity
  8
LC-003-002-----0
  6
CONTINUOUS
 62
             7
100
AcDbLine
 10
1.0
 20
-85.0
 11
1.0
 21
-81.0
  0
LINE
  5
B1
100
AcDbEntity
  8
LC-003-002-----0
  6
CONTINUOUS
 62
             7
100
AcDbLine
 10
25.0
 20
-93.5
 11
13.0
 21
-93.5
  0
LINE
  5
B0
100
AcDbEntity
  8
LC-003-002-----0
  6
CONTINUOUS
 62
             7
100
AcDbLine
 10
91.27433500000007
 20
-84.75
 11
91.45615399999997
 21
-95.16919800000005
  0
LINE
  5
AF
100
AcDbEntity
  8
LC-003-002-----0
  6
CONTINUOUS
 62
             7
100
AcDbLine
 10
25.0
 20
93.5
 11
13.0
 21
93.5
  0
LINE
  5
AE
100
AcDbEntity
  8
LC-003-002-----0
  6
CONTINUOUS
 62
             7
100
AcDbLine
 10
88.34833700000002
 20
84.75
 11
29.0
 21
84.75
  0
LINE
  5
AD
100
AcDbEntity
  8
LC-003-002-----0
  6
CONTINUOUS
 62
             7
100
AcDbLine
 10
9.0
 20
-85.0
 11
1.0
 21
-85.0
  0
LINE
  5
AC
100
AcDbEntity
  8
LC-003-002-----0
  6
CONTINUOUS
 62
             7
100
AcDbLine
 10
287.60542800000002
 20
-91.49997199999962
 11
287.57894599999997
 21
-93.11757399999988
  0
LINE
  5
AB
100
AcDbEntity
  8
LC-003-002-----0
  6
CONTINUOUS
 62
             7
100
AcDbLine
 10
1.0
 20
85.0
 11
1.0
 21
81.0
  0
LINE
  5
AA
100
AcDbEntity
  8
LC-003-002-----0
  6
CONTINUOUS
 62
             7
100
AcDbLine
 10
375.99967800000002
 20
66.89233300000024
 11
375.99967800000002
 21
-89.89227600000027
  0
LINE
  5
A9
100
AcDbEntity
  8
LC-003-002-----0
  6
CONTINUOUS
 62
             7
100
AcDbLine
 10
287.60717299999999
 20
-91.49997200000007
 11
369.99974144483423
 21
-91.49995499999909
  0
LINE
  5
A8
100
AcDbEntity
  8
LC-003-002-----0
  6
CONTINUOUS
 62
             7
100
AcDbLine
 10
9.0
 20
85.0
 11
1.0
 21
85.0
  0
LINE
  5
A7
100
AcDbEntity
  8
LC-003-002-----0
  6
CONTINUOUS
 62
             7
100
AcDbLine
 10
87.99979200000007
 20
104.4005389999995
 11
91.27433500000007
 21
-84.75
  0
LINE
  5
A6
100
AcDbEntity
  8
LC-004-002-RND-0
  6
CONTINUOUS
 62
             7
100
AcDbLine
 10
295.50191100000001
 20
104.400543
 11
295.04367599999989
 21
117.52279800015251
  0
LINE
  5
A5
100
AcDbEntity
  8
LC-004-002-RND-0
  6
CONTINUOUS
 62
             7
100
AcDbLine
 10
292.17445200000009
 20
104.400543
 11
295.48445099999998
 21
104.400543
  0
LINE
  5
A4
100
AcDbEntity
  8
LC-004-002-RND-0
  6
CONTINUOUS
 62
             7
100
AcDbLine
 10
140.70930999999999
 20
125.90065000015259
 11
140.70930999999999
 21
130.90065000015261
  0
LINE
  5
A3
100
AcDbEntity
  8
LC-004-002-RND-0
  6
CONTINUOUS
 62
             7
100
AcDbLine
 10
162.7093100000001
 20
125.90065000015259
 11
162.7093100000001
 21
130.90065000015261
  0
LINE
  5
A2
100
AcDbEntity
  8
LC-004-002-RND-0
  6
CONTINUOUS
 62
             7
100
AcDbLine
 10
161.7093100000001
 20
131.90065000015261
 11
147.7093100000001
 21
131.90065000015261
  0
LINE
  5
A1
100
AcDbEntity
  8
LC-004-002-RND-0
  6
CONTINUOUS
 62
             7
100
AcDbLine
 10
97.93217500000003
 20
120.90065000015259
 11
87.45349000000005
 21
120.90065000015259
  0
LINE
  5
A0
100
AcDbEntity
  8
LC-004-002-RND-0
  6
CONTINUOUS
 62
             7
100
AcDbLine
 10
140.70930999999999
 20
125.90065000015259
 11
137.49981
 21
125.90065000015259
  0
LINE
  5
9F
100
AcDbEntity
  8
LC-004-002-RND-0
  6
CONTINUOUS
 62
             7
100
AcDbLine
 10
275.86268000000013
 20
125.90065000015259
 11
260.49982000000011
 21
125.90065000015259
  0
LINE
  5
9E
100
AcDbEntity
  8
LC-004-002-RND-0
  6
CONTINUOUS
 62
             7
100
AcDbLine
 10
86.82484599999998
 20
104.400543
 11
83.51484699999998
 21
104.400543
  0
LINE
  5
9D
100
AcDbEntity
  8
LC-004-002-RND-0
  6
CONTINUOUS
 62
             7
100
AcDbLine
 10
277.86268000000013
 20
120.90065000015259
 11
291.54580800000002
 21
120.90065000015259
  0
LINE
  5
9C
100
AcDbEntity
  8
LC-004-002-RND-0
  6
CONTINUOUS
 62
             7
100
AcDbLine
 10
97.93217500000003
 20
120.90065000015259
 11
97.93217500000003
 21
123.90065000015259
  0
LINE
  5
9B
100
AcDbEntity
  8
LC-004-002-RND-0
  6
CONTINUOUS
 62
             7
100
AcDbLine
 10
83.49738700000006
 20
104.400543
 11
83.95562200000001
 21
117.5227980001528
  0
LINE
  5
9A
100
AcDbEntity
  8
LC-003-002-----0
  6
CONTINUOUS
 62
             5
100
AcDbLine
 10
118.49981
 20
120.90081000015221
 11
118.50012700000001
 21
120.90081000015221
  0
LINE
  5
99
100
AcDbEntity
  8
LC-004-002-RND-0
  6
CONTINUOUS
 62
             7
100
AcDbLine
 10
147.7093229999999
 20
234.89960299999979
 11
146.7093229999999
 21
234.8996010000001
  0
LINE
  5
98
100
AcDbEntity
  8
LC-004-002-RND-0
  6
CONTINUOUS
 62
             7
100
AcDbLine
 10
147.70931800000011
 20
236.89960299999979
 11
146.70931800000011
 21
236.8996010000001
  0
LINE
  5
97
100
AcDbEntity
  8
LC-004-002-RND-0
  6
CONTINUOUS
 62
             7
100
AcDbLine
 10
144.7093229999999
 20
234.8995960000002
 11
144.70951600000001
 21
141.0975660000004
  0
LINE
  5
96
100
AcDbEntity
  8
LC-004-002-RND-0
  6
CONTINUOUS
 62
             7
100
AcDbLine
 10
159.20931800000011
 20
236.89962800000009
 11
146.70931800000011
 21
236.8996010000001
  0
LINE
  5
95
100
AcDbEntity
  8
LC-004-002-RND-0
  6
CONTINUOUS
 62
             7
100
AcDbLine
 10
158.7093229999999
 20
234.89962700000021
 11
147.7093229999999
 21
234.89960299999979
  0
LINE
  5
94
100
AcDbEntity
  8
LC-004-002-RND-0
  6
CONTINUOUS
 62
             7
100
AcDbLine
 10
158.7093229999999
 20
234.89962700000021
 11
160.97078999999999
 21
235.0974850000002
  0
LINE
  5
93
100
AcDbEntity
  8
LC-004-002-RND-0
  6
CONTINUOUS
 62
             7
100
AcDbLine
 10
159.70931300000001
 20
239.399629
 11
159.70931699999991
 21
237.399629
  0
LINE
  5
92
100
AcDbEntity
  8
LC-004-002-RND-0
  6
CONTINUOUS
 62
             7
100
AcDbLine
 10
158.7093229999999
 20
234.89962700000021
 11
158.7095250000001
 21
137.0822440000002
  0
LINE
  5
91
100
AcDbEntity
  8
LC-004-002-RND-0
  6
CONTINUOUS
 62
             7
100
AcDbLine
 10
163.64810100000011
 20
237.48312400000029
 11
163.64809700000009
 21
239.3213100000003
  0
LINE
  5
90
100
AcDbEntity
  8
LC-004-002-RND-0
  6
CONTINUOUS
 62
             7
100
AcDbLine
 10
156.70952900000009
 20
135.08224000000021
 11
148.31896300000011
 21
135.08222100000009
  0
LINE
  5
8F
100
AcDbEntity
  8
LC-004-002-RND-0
  6
CONTINUOUS
 62
             7
100
AcDbLine
 10
155.7093100000001
 20
131.90065000015261
 11
155.7093100000001
 21
135.08223700000011
  0
LINE
  5
8E
100
AcDbEntity
  8
LC-004-002-RND-0
  6
CONTINUOUS
 62
             7
100
AcDbLine
 10
147.7093100000001
 20
131.90065000015261
 11
147.7093100000001
 21
134.61571000000001
  0
LINE
  5
8D
100
AcDbEntity
  8
LC-004-002-RND-0
  6
CONTINUOUS
 62
             7
100
AcDbLine
 10
155.7093100000001
 20
237.3996340000003
 11
149.7093100000001
 21
237.3996340000003
  0
LINE
  5
8C
100
AcDbEntity
  8
LC-004-002-RND-0
  6
CONTINUOUS
 62
             7
100
AcDbLine
 10
140.70930999999999
 20
218.3996340000003
 11
140.70930999999999
 21
222.67843300000001
  0
LINE
  5
8B
100
AcDbEntity
  8
LC-004-002-RND-0
  6
CONTINUOUS
 62
             7
100
AcDbLine
 10
144.2093100000001
 20
223.67843300000001
 11
141.7093100000001
 21
223.67843300000001
  0
LINE
  5
8A
100
AcDbEntity
  8
LC-004-002-RND-0
  6
CONTINUOUS
 62
             7
100
AcDbLine
 10
136.20930999999999
 20
255.8996340000003
 11
157.2093100000001
 21
255.8996340000003
  0
LINE
  5
89
100
AcDbEntity
  8
LC-004-002-RND-0
  6
CONTINUOUS
 62
             7
100
AcDbLine
 10
159.2093100000001
 20
253.8996340000003
 11
159.2093100000001
 21
247.881754
  0
LINE
  5
88
100
AcDbEntity
  8
LC-004-002-RND-0
  6
CONTINUOUS
 62
             7
100
AcDbLine
 10
157.2093100000001
 20
237.3996340000003
 11
155.7093100000001
 21
237.3996340000003
  0
LINE
  5
87
100
AcDbEntity
  8
LC-004-002-RND-0
  6
CONTINUOUS
 62
             7
100
AcDbLine
 10
144.2093100000001
 20
235.3996340000003
 11
144.2093100000001
 21
223.67843300000001
  0
LINE
  5
86
100
AcDbEntity
  8
LC-004-002-RND-0
  6
CONTINUOUS
 62
             7
100
AcDbLine
 10
140.70930999999999
 20
218.3996340000003
 11
136.20930999999999
 21
218.3996340000003
  0
LINE
  5
85
100
AcDbEntity
  8
LC-004-002-RND-0
  6
CONTINUOUS
 62
             7
100
AcDbLine
 10
134.20930999999999
 20
220.3996340000003
 11
134.20930999999999
 21
253.8996340000003
  0
LINE
  5
84
100
AcDbEntity
  8
LC-004-002-RND-0
  6
CONTINUOUS
 62
             7
100
AcDbLine
 10
159.2093100000001
 20
240.8996340000003
 11
159.2093100000001
 21
239.3996340000003
  0
LINE
  5
83
100
AcDbEntity
  8
LC-004-002-RND-0
  6
CONTINUOUS
 62
             7
100
AcDbLine
 10
162.9607649999999
 20
238.16764700000019
 11
163.21100899999999
 21
237.73343800000021
  0
LINE
  5
82
100
AcDbEntity
  8
LC-004-002-RND-0
  6
CONTINUOUS
 62
             7
100
AcDbLine
 10
146.2093100000001
 20
237.3996340000003
 11
149.7093100000001
 21
237.3996340000003
  0
LINE
  5
81
100
AcDbEntity
  8
LC-004-002-RND-0
  6
CONTINUOUS
 62
             7
100
AcDbLine
 10
147.7093100000001
 20
131.90065000015261
 11
141.7093100000001
 21
131.90065000015261
  0
LINE
  5
80
100
AcDbEntity
  8
LC-003-002-----0
  6
CONTINUOUS
 62
             7
100
AcDbLine
 10
9.0
 20
85.0
 11
9.0
 21
-85.0
  0
LINE
  5
7F
100
AcDbEntity
  8
LC-003-002-----0
  6
CONTINUOUS
 62
             7
100
AcDbLine
 10
29.0
 20
84.75
 11
29.0
 21
-84.75
  0
LINE
  5
7E
100
AcDbEntity
  8
LC-003-002-----0
  6
CONTINUOUS
 62
             7
100
AcDbLine
 10
130.50920900000011
 20
-94.10000499999978
 11
130.50920900000011
 21
0.0
  0
LINE
  5
7D
100
AcDbEntity
  8
LC-003-002-----0
  6
CONTINUOUS
 62
             7
100
AcDbLine
 10
369.99967800000002
 20
68.50002799999993
 11
369.99967800000002
 21
-91.49995499999955
  0
LINE
  5
7C
100
AcDbEntity
  8
LC-003-002-----0
  6
CONTINUOUS
 62
             7
100
AcDbLine
 10
140.70930999999999
 20
125.90065000015259
 11
162.7093100000001
 21
125.90065000015259
  0
LINE
  5
7B
100
AcDbEntity
  8
LC-003-002-----0
  6
CONTINUOUS
 62
             7
100
AcDbLine
 10
97.93217500000003
 20
120.90065000015259
 11
118.50012700000001
 21
120.90065000015259
  0
LINE
  5
7A
100
AcDbEntity
  8
LC-003-002-----0
  6
CONTINUOUS
 62
             7
100
AcDbLine
 10
86.82484599999998
 20
104.400543
 11
292.17445200000009
 21
104.400543
  0
LINE
  5
79
100
AcDbEntity
  8
LC-003-002-----0
  6
DASHED
 62
             2
100
AcDbLine
 10
147.7093100000001
 20
134.66394299999999
 11
147.7093100000001
 21
234.89960199999999
  0
LINE
  5
78
100
AcDbEntity
  8
LC-003-002-----0
  6
DASHED
 62
             2
100
AcDbLine
 10
155.7093100000001
 20
135.08223700000011
 11
155.7093100000001
 21
234.89962700000021
  0
LINE
  5
77
100
AcDbEntity
  8
LC-003-002-----0
  6
DASHDOT
 62
             2
100
AcDbLine
 10
151.709103
 20
234.89961200000019
 11
151.7093200000001
 21
131.90065000015241
  0
LINE
  5
76
100
AcDbEntity
  8
LC-005-005-----0
  6
DASHDOT
 62
             2
100
AcDbLine
 10
250.99982000000011
 20
68.96687999999995
 11
250.99982000000011
 21
142.89955400000011
  0
LINE
  5
75
100
AcDbEntity
  8
LC-003-002-----0
  6
CONTINUOUS
 62
             7
100
AcDbLine
 10
249.49627799999999
 20
94.90081200000395
 11
249.49627799999999
 21
68.96687999999995
  0
LINE
  5
74
100
AcDbEntity
  8
LC-003-002-----0
  6
CONTINUOUS
 62
             7
100
AcDbLine
 10
241.49982000000011
 20
94.90081200000395
 11
260.49982000000011
 21
94.90081200000395
  0
LINE
  5
73
100
AcDbEntity
  8
LC-003-002-----0
  6
CONTINUOUS
 62
             7
100
AcDbLine
 10
240.99982000000011
 20
103.40046199999981
 11
240.99982000000011
 21
95.40081200000395
  0
LINE
  5
72
100
AcDbEntity
  8
LC-003-002-----0
  6
CONTINUOUS
 62
             7
100
AcDbLine
 10
260.99982000000011
 20
95.40081200000395
 11
260.99982000000011
 21
103.40046199999981
  0
LINE
  5
71
100
AcDbEntity
  8
LC-003-002-----0
  6
CONTINUOUS
 62
             7
100
AcDbLine
 10
241.50014400000001
 20
111.9005760001521
 11
260.49982000000011
 21
111.9005630001523
  0
LINE
  5
70
100
AcDbEntity
  8
LC-003-002-----0
  6
CONTINUOUS
 62
             7
100
AcDbLine
 10
252.49627799999999
 20
94.90081200000395
 11
252.49627799999999
 21
68.96687999999995
  0
LINE
  5
6F
100
AcDbEntity
  8
LC-003-002-----0
  6
CONTINUOUS
 62
             7
100
AcDbLine
 10
249.49627799999999
 20
68.96687999999995
 11
252.49627799999999
 21
68.96687999999995
  0
LINE
  5
6E
100
AcDbEntity
  8
LC-003-002-----0
  6
CONTINUOUS
 62
             7
100
AcDbLine
 10
241.49982000000011
 20
111.9005690001525
 11
260.49982000000011
 21
111.9005690001525
  0
LINE
  5
6D
100
AcDbEntity
  8
LC-003-002-----0
  6
CONTINUOUS
 62
             7
100
AcDbLine
 10
260.99982000000011
 20
104.40046199999981
 11
260.99982000000011
 21
111.4005690001525
  0
LINE
  5
6C
100
AcDbEntity
  8
LC-003-002-----0
  6
CONTINUOUS
 62
             7
100
AcDbLine
 10
240.99982000000011
 20
104.40046199999981
 11
240.99982000000011
 21
111.4005690001525
  0
LINE
  5
6B
100
AcDbEntity
  8
LC-003-002-----0
  6
CONTINUOUS
 62
             7
100
AcDbLine
 10
230.50014700000011
 20
135.10344699999999
 11
230.50014900000011
 21
138.68351600000011
  0
LINE
  5
6A
100
AcDbEntity
  8
LC-003-002-----0
  6
CONTINUOUS
 62
             7
100
AcDbLine
 10
253.500146
 20
135.66373900000011
 11
248.520488
 21
135.66374200000021
  0
LINE
  5
69
100
AcDbEntity
  8
LC-003-002-----0
  6
CONTINUOUS
 62
             7
100
AcDbLine
 10
248.500146
 20
135.66374200000021
 11
248.50014900000011
 21
139.1341860000002
  0
LINE
  5
68
100
AcDbEntity
  8
LC-003-002-----0
  6
CONTINUOUS
 62
             7
100
AcDbLine
 10
253.50014900000011
 20
139.13418300000009
 11
248.50014900000011
 21
139.1341860000002
  0
LINE
  5
67
100
AcDbEntity
  8
LC-003-002-----0
  6
CONTINUOUS
 62
             7
100
AcDbLine
 10
253.500146
 20
135.66373900000011
 11
253.50014900000011
 21
139.13418300000009
  0
LINE
  5
66
100
AcDbEntity
  8
LC-003-002-----0
  6
CONTINUOUS
 62
             7
100
AcDbLine
 10
260.49982000000011
 20
131.9006920001523
 11
270.84183999999988
 21
134.16386300000019
  0
LINE
  5
65
100
AcDbEntity
  8
LC-003-002-----0
  6
CONTINUOUS
 62
             7
100
AcDbLine
 10
260.49982000000011
 20
131.9006920001523
 11
250.99982000000011
 21
131.9006920001523
  0
LINE
  5
64
100
AcDbEntity
  8
LC-003-002-----0
  6
CONTINUOUS
 62
             7
100
AcDbLine
 10
241.50014400000001
 20
131.90057600015211
 11
231.1581259999999
 21
134.16375400000021
  0
LINE
  5
63
100
AcDbEntity
  8
LC-003-002-----0
  6
CONTINUOUS
 62
             7
100
AcDbLine
 10
241.50014400000001
 20
131.90057600015211
 11
251.00014400000001
 21
131.9005690001525
  0
LINE
  5
62
100
AcDbEntity
  8
LC-003-002-----0
  6
CONTINUOUS
 62
             7
100
AcDbLine
 10
260.49982000000011
 20
111.9005630001523
 11
260.49982000000011
 21
131.9006920001523
  0
LINE
  5
61
100
AcDbEntity
  8
LC-003-002-----0
  6
CONTINUOUS
 62
             7
100
AcDbLine
 10
271.49982000000011
 20
135.103556
 11
271.49982000000011
 21
138.68704000000031
  0
LINE
  5
60
100
AcDbEntity
  8
LC-003-002-----0
  6
CONTINUOUS
 62
             7
100
AcDbLine
 10
241.5001310000001
 20
111.9005760001521
 11
241.50014400000001
 21
131.90057600015211
  0
LINE
  5
5F
100
AcDbEntity
  8
LC-005-005-----0
  6
DASHDOT
 62
             2
100
AcDbLine
 10
127.99981
 20
69.4669600000002
 11
127.99981
 21
143.3996340000003
  0
LINE
  5
5E
100
AcDbEntity
  8
LC-003-002-----0
  6
CONTINUOUS
 62
             7
100
AcDbLine
 10
126.496269
 20
95.40089300000409
 11
126.496269
 21
69.4669600000002
  0
LINE
  5
5D
100
AcDbEntity
  8
LC-003-002-----0
  6
CONTINUOUS
 62
             7
100
AcDbLine
 10
118.49981
 20
95.40089300000409
 11
137.49981
 21
95.40089300000409
  0
LINE
  5
5C
100
AcDbEntity
  8
LC-003-002-----0
  6
CONTINUOUS
 62
             7
100
AcDbLine
 10
117.99981
 20
103.900543
 11
117.99981
 21
95.90089300000409
  0
LINE
  5
5B
100
AcDbEntity
  8
LC-003-002-----0
  6
CONTINUOUS
 62
             7
100
AcDbLine
 10
137.99981
 20
95.90089300000409
 11
137.99981
 21
103.900543
  0
LINE
  5
5A
100
AcDbEntity
  8
LC-003-002-----0
  6
CONTINUOUS
 62
             7
100
AcDbLine
 10
118.500134
 20
112.4006560001524
 11
137.49981
 21
112.4006430001525
  0
LINE
  5
59
100
AcDbEntity
  8
LC-003-002-----0
  6
CONTINUOUS
 62
             7
100
AcDbLine
 10
129.49626900000001
 20
95.40089300000409
 11
129.49626900000001
 21
69.4669600000002
  0
LINE
  5
58
100
AcDbEntity
  8
LC-003-002-----0
  6
CONTINUOUS
 62
             7
100
AcDbLine
 10
126.496269
 20
69.4669600000002
 11
129.49626900000001
 21
69.4669600000002
  0
LINE
  5
57
100
AcDbEntity
  8
LC-003-002-----0
  6
CONTINUOUS
 62
             7
100
AcDbLine
 10
118.49981
 20
112.40065000015259
 11
137.49981
 21
112.40065000015259
  0
LINE
  5
56
100
AcDbEntity
  8
LC-003-002-----0
  6
CONTINUOUS
 62
             7
100
AcDbLine
 10
137.99981
 20
104.900543
 11
137.99981
 21
111.90065000015259
  0
LINE
  5
55
100
AcDbEntity
  8
LC-003-002-----0
  6
CONTINUOUS
 62
             7
100
AcDbLine
 10
117.99981
 20
104.900543
 11
117.99981
 21
111.90065000015259
  0
LINE
  5
54
100
AcDbEntity
  8
LC-003-002-----0
  6
CONTINUOUS
 62
             7
100
AcDbLine
 10
107.500137
 20
135.60352700000021
 11
107.50014
 21
139.18359599999991
  0
LINE
  5
53
100
AcDbEntity
  8
LC-003-002-----0
  6
CONTINUOUS
 62
             7
100
AcDbLine
 10
130.500137
 20
136.1638190000003
 11
125.52047899999999
 21
136.16382299999989
  0
LINE
  5
52
100
AcDbEntity
  8
LC-003-002-----0
  6
CONTINUOUS
 62
             7
100
AcDbLine
 10
125.500137
 20
136.16382299999989
 11
125.50014
 21
139.634266
  0
LINE
  5
51
100
AcDbEntity
  8
LC-003-002-----0
  6
CONTINUOUS
 62
             7
100
AcDbLine
 10
130.50013999999999
 20
139.63426299999989
 11
125.50014
 21
139.634266
  0
LINE
  5
50
100
AcDbEntity
  8
LC-003-002-----0
  6
CONTINUOUS
 62
             7
100
AcDbLine
 10
130.500137
 20
136.1638190000003
 11
130.50013999999999
 21
139.63426299999989
  0
LINE
  5
4F
100
AcDbEntity
  8
LC-003-002-----0
  6
CONTINUOUS
 62
             7
100
AcDbLine
 10
137.49981
 20
132.4007720001525
 11
147.8418310000001
 21
134.66394299999999
  0
LINE
  5
4E
100
AcDbEntity
  8
LC-003-002-----0
  6
CONTINUOUS
 62
             7
100
AcDbLine
 10
137.49981
 20
132.4007720001525
 11
127.99981
 21
132.4007720001525
  0
LINE
  5
4D
100
AcDbEntity
  8
LC-003-002-----0
  6
CONTINUOUS
 62
             7
100
AcDbLine
 10
118.500134
 20
132.4006560001524
 11
108.1581170000001
 21
134.66383400000001
  0
LINE
  5
4C
100
AcDbEntity
  8
LC-003-002-----0
  6
CONTINUOUS
 62
             7
100
AcDbLine
 10
118.500134
 20
132.4006560001524
 11
128.000134
 21
132.40065000015261
  0
LINE
  5
4B
100
AcDbEntity
  8
LC-003-002-----0
  6
CONTINUOUS
 62
             7
100
AcDbLine
 10
137.49981
 20
112.4006430001525
 11
137.49981
 21
132.4007720001525
  0
LINE
  5
4A
100
AcDbEntity
  8
LC-003-002-----0
  6
CONTINUOUS
 62
             7
100
AcDbLine
 10
148.49980999999991
 20
135.60363600000031
 11
148.49980999999991
 21
139.18712000000011
  0
LINE
  5
49
100
AcDbEntity
  8
LC-003-002-----0
  6
CONTINUOUS
 62
             7
100
AcDbLine
 10
118.50012099999999
 20
112.4006560001524
 11
118.500134
 21
132.4006560001524
  0
LINE
  5
48
100
AcDbEntity
  8
LC-004-002-RND-0
  6
CONTINUOUS
 62
             7
100
AcDbLine
 10
277.86268000000013
 20
120.90065000015259
 11
277.86268000000013
 21
123.90065000015259
  0
LINE
  5
47
100
AcDbEntity
  8
LC-004-002-RND-0
  6
CONTINUOUS
 62
             7
100
AcDbLine
 10
118.50013
 20
125.90065000015259
 11
99.93217500000003
 21
125.90065000015259
  0
LINE
  5
46
100
AcDbEntity
  8
LC-003-002-----0
  6
CONTINUOUS
 62
             7
100
AcDbLine
 10
137.49981
 20
120.90065000015259
 11
241.500136
 21
120.90065000015259
  0
LINE
  5
45
100
AcDbEntity
  8
LC-004-002-RND-0
  6
CONTINUOUS
 62
             7
100
AcDbLine
 10
241.50013999999999
 20
125.90065000015259
 11
162.7093100000001
 21
125.90065000015259
  0
LINE
  5
44
100
AcDbEntity
  8
LC-003-002-----0
  6
CONTINUOUS
 62
             7
100
AcDbLine
 10
260.49982000000011
 20
120.90065000015259
 11
277.86268000000013
 21
120.90065000015259
  0
LINE
  5
43
100
AcDbEntity
  8
LC-003-002-----0
  6
CONTINUOUS
 62
             5
100
AcDbLine
 10
137.49981
 20
120.90081000015221
 11
137.50001399999999
 21
120.90081000015221
  0
LINE
  5
42
100
AcDbEntity
  8
LC-003-002-----0
  6
DASHED
 62
             2
100
AcDbLine
 10
148.35311400000009
 20
135.08222100000009
 11
147.7093100000001
 21
135.08222100000009
  0
LINE
  5
41
100
AcDbEntity
  8
1
  6
PHANTOM
 62
             2
100
AcDbLine
 10
102.3931798659771
 20
0.0
 11
-8.27748155170542
 21
0.0
  0
LINE
  5
40
100
AcDbEntity
  8
1
  6
PHANTOM
 62
             2
100
AcDbLine
 10
282.52758784230059
 20
-11.49997252403296
 11
379.93329844702498
 21
-11.49996247520653
  0
LINE
  5
3F
100
AcDbEntity
  8
1
  6
DOT_CENTER
 62
             2
100
AcDbLine
 10
-5.0
 20
80.0
 11
-2.0
 21
80.0
  0
LINE
  5
3E
100
AcDbEntity
  8
1
  6
DOT_CENTER
 62
             2
100
AcDbLine
 10
-2.0
 20
-80.00000000000046
 11
-5.0
 21
-80.00000000000046
  0
POINT
  5
3D
100
AcDbEntity
  8
LC-007-003-----0
 62
             7
100
AcDbPoint
 10
369.99969599999997
 20
-91.49995200000012
  0
POINT
  5
3C
100
AcDbEntity
  8
LC-007-003-----0
 62
             7
100
AcDbPoint
 10
369.99967800000002
 20
68.50002799999993
  0
POINT
  5
3B
100
AcDbEntity
  8
LC-007-003-----0
 62
             7
100
AcDbPoint
 10
1.0
 20
-81.0
  0
POINT
  5
3A
100
AcDbEntity
  8
LC-007-003-----0
 62
             7
100
AcDbPoint
 10
126.017454
 20
-99.09923600000002
  0
POINT
  5
39
100
AcDbEntity
  8
LC-007-003-----0
 62
             7
100
AcDbPoint
 10
136.20930999999999
 20
255.8996340000003
  0
POINT
  5
38
100
AcDbEntity
  8
LC-007-003-----0
 62
             7
100
AcDbPoint
 10
83.49738700000006
 20
104.400543
  0
POINT
  5
37
100
AcDbEntity
  8
LC-007-003-----0
 62
             7
100
AcDbPoint
 10
295.50191100000001
 20
104.400543
  0
POINT
  5
36
100
AcDbEntity
  8
LC-007-003-----0
 62
             7
100
AcDbPoint
 10
1.0
 20
85.0
  0
POINT
  5
35
100
AcDbEntity
  8
LC-007-003-----0
 62
             7
100
AcDbPoint
 10
1.0
 20
-81.0
  0
ENDBLK
  5
102
100
AcDbEntity
  8
0
100
AcDbBlockEnd
  0
BLOCK
  5
30
100
AcDbEntity
  8
0
100
AcDbBlockBegin
  2
HL_715_1_R_CKSTAUVERSCS__2
 70
             0
 10
1500.59689794726
 20
2823.2508768820599
 30
0.0
  3
HL_715_1_R_CKSTAUVERSCS__2
  1

  0
CIRCLE
  5
1F6
100
AcDbEntity
  8
LC-007-002-----0
  6
CONTINUOUS
 62
             7
100
AcDbCircle
 10
650.1929558213086
 20
0.0
 40
79.1423040000011
  0
CIRCLE
  5
1F5
100
AcDbEntity
  8
LC-007-002-----0
  6
CONTINUOUS
 62
             7
100
AcDbCircle
 10
650.1929558213086
 20
0.0
 40
93.5
  0
CIRCLE
  5
1F4
100
AcDbEntity
  8
LC-007-002-----0
  6
CONTINUOUS
 62
             7
100
AcDbCircle
 10
650.1929558213086
 20
0.0
 40
85.0
  0
CIRCLE
  5
1F3
100
AcDbEntity
  8
LC-007-002-----0
  6
CONTINUOUS
 62
             7
100
AcDbCircle
 10
650.1929558213086
 20
-3.09999999999809
 40
73.0
  0
CIRCLE
  5
1F2
100
AcDbEntity
  8
LC-007-002-----0
  6
CONTINUOUS
 62
             7
100
AcDbCircle
 10
650.1929558213086
 20
0.0
 40
80.75
  0
CIRCLE
  5
1F1
100
AcDbEntity
  8
LC-007-002-----0
  6
CONTINUOUS
 62
             7
100
AcDbCircle
 10
650.1929558213086
 20
0.0
 40
81.0
  0
ARC
  5
1F0
100
AcDbEntity
  8
LC-007-002-----0
  6
CONTINUOUS
 62
             7
100
AcDbCircle
 10
650.1929558213086
 20
-1.29771500000106
 40
97.80169300000026
100
AcDbArc
 50
-178.00000000000085
 51
-1.99999999999725
  0
ARC
  5
1EF
100
AcDbEntity
  8
LC-006-002-RND-0
  6
CONTINUOUS
 62
             7
100
AcDbCircle
 10
524.1929558213086
 20
95.40081200000395
 40
0.5
100
AcDbArc
 50
180.0
 51
-90.0
  0
ARC
  5
1EE
100
AcDbEntity
  8
LC-006-002-RND-0
  6
CONTINUOUS
 62
             7
100
AcDbCircle
 10
776.1929558213086
 20
95.40081200000395
 40
0.5
100
AcDbArc
 50
-90.0
 51
0.0
  0
ARC
  5
1ED
100
AcDbEntity
  8
LC-007-002-----0
  6
CONTINUOUS
 62
             7
100
AcDbCircle
 10
650.1929558213086
 20
-11.49997199999802
 40
76.10000000000019
100
AcDbArc
 50
24.62783399999906
 51
155.37216600000093
  0
ARC
  5
1EC
100
AcDbEntity
  8
LC-006-002-RND-0
  6
CONTINUOUS
 62
             7
100
AcDbCircle
 10
597.6929558213086
 20
132.9005430000002
 40
1.0
100
AcDbArc
 50
90.0
 51
180.0
  0
ARC
  5
1EB
100
AcDbEntity
  8
LC-006-002-RND-0
  6
CONTINUOUS
 62
             7
100
AcDbCircle
 10
617.6929558213086
 20
132.9005430000002
 40
1.0
100
AcDbArc
 50
0.0
 51
90.0
  0
ARC
  5
1EA
100
AcDbEntity
  8
LC-006-002-RND-0
  6
CONTINUOUS
 62
             7
100
AcDbCircle
 10
682.6929558213086
 20
132.9005430000002
 40
1.0
100
AcDbArc
 50
90.0
 51
180.0
  0
ARC
  5
1E9
100
AcDbEntity
  8
LC-006-002-RND-0
  6
CONTINUOUS
 62
             7
100
AcDbCircle
 10
702.6929558213086
 20
132.9005430000002
 40
1.0
100
AcDbArc
 50
0.0
 51
90.0
  0
ARC
  5
1E8
100
AcDbEntity
  8
LC-006-002-RND-0
  6
CONTINUOUS
 62
             7
100
AcDbCircle
 10
742.69270782130877
 20
125.9005430000002
 40
2.0
100
AcDbArc
 50
0.0
 51
90.0
  0
ARC
  5
1E7
100
AcDbEntity
  8
LC-006-002-RND-0
  6
CONTINUOUS
 62
             7
100
AcDbCircle
 10
548.45679682130879
 20
117.400543
 40
3.5
100
AcDbArc
 50
90.0
 51
178.00000000002987
  0
ARC
  5
1E6
100
AcDbEntity
  8
LC-006-002-RND-0
  6
CONTINUOUS
 62
             7
100
AcDbCircle
 10
751.92911482130864
 20
117.400543
 40
3.50000000000008
100
AcDbArc
 50
1.99999999996962
 51
90.0
  0
ARC
  5
1E5
100
AcDbEntity
  8
LC-006-002-RND-0
  6
CONTINUOUS
 62
             7
100
AcDbCircle
 10
557.69320282130877
 20
125.9005430000002
 40
2.0
100
AcDbArc
 50
90.0
 51
180.0
  0
ARC
  5
1E4
100
AcDbEntity
  8
LC-006-002-RND-0
  6
CONTINUOUS
 62
             7
100
AcDbCircle
 10
524.93341682130961
 20
111.400465000002
 40
0.99999999999857
100
AcDbArc
 50
89.99539100006008
 51
178.00000000020577
  0
ARC
  5
1E3
100
AcDbEntity
  8
LC-006-002-RND-0
  6
CONTINUOUS
 62
             7
100
AcDbCircle
 10
775.4524948213076
 20
111.400465000002
 40
0.99999999999995
100
AcDbArc
 50
1.99999999979356
 51
90.00460899987479
  0
ARC
  5
1E2
100
AcDbEntity
  8
LC-006-002-RND-0
  6
CONTINUOUS
 62
             7
100
AcDbCircle
 10
539.95157082130766
 20
117.3992570000009
 40
5.00000000000338
100
AcDbArc
 50
-90.00460899998161
 51
-1.99999999995767
  0
ARC
  5
1E1
100
AcDbEntity
  8
LC-006-002-RND-0
  6
CONTINUOUS
 62
             7
100
AcDbCircle
 10
760.43434082130977
 20
117.3992570000009
 40
5.00000000000252
100
AcDbArc
 50
-178.00000000004235
 51
-89.99539100000798
  0
ARC
  5
1E0
100
AcDbEntity
  8
LC-007-002-----0
  6
CONTINUOUS
 62
             7
100
AcDbCircle
 10
688.79297082130859
 20
134.400557999998
 40
0.5
100
AcDbArc
 50
-90.0
 51
0.0
  0
ARC
  5
1DF
100
AcDbEntity
  8
LC-007-002-----0
  6
CONTINUOUS
 62
             7
100
AcDbCircle
 10
697.69297082131072
 20
134.400557999998
 40
0.5
100
AcDbArc
 50
180.0
 51
-90.0
  0
ARC
  5
1DE
100
AcDbEntity
  8
LC-007-002-----0
  6
CONTINUOUS
 62
             7
100
AcDbCircle
 10
600.94297082131072
 20
134.400557999998
 40
0.5
100
AcDbArc
 50
180.0
 51
-90.0
  0
ARC
  5
1DD
100
AcDbEntity
  8
LC-007-002-----0
  6
CONTINUOUS
 62
             7
100
AcDbCircle
 10
688.79297082130859
 20
236.89964899999811
 40
0.5
100
AcDbArc
 50
0.0
 51
90.0
  0
ARC
  5
1DC
100
AcDbEntity
  8
LC-007-002-----0
  6
CONTINUOUS
 62
             7
100
AcDbCircle
 10
674.85963782130773
 20
180.1114890000008
 40
12.60555599999927
100
AcDbArc
 50
30.74966199998914
 51
147.61065300000968
  0
ARC
  5
1DB
100
AcDbEntity
  8
LC-007-002-----0
  6
CONTINUOUS
 62
             7
100
AcDbCircle
 10
650.19297082131072
 20
180.1114890000008
 40
12.60555600000088
100
AcDbArc
 50
32.3893470000189
 51
147.61065300001911
  0
ARC
  5
1DA
100
AcDbEntity
  8
LC-007-002-----0
  6
CONTINUOUS
 62
             7
100
AcDbCircle
 10
686.19297082131072
 20
134.400557999998
 40
0.5
100
AcDbArc
 50
180.0
 51
-90.0
  0
ARC
  5
1D9
100
AcDbEntity
  8
LC-007-002-----0
  6
CONTINUOUS
 62
             7
100
AcDbCircle
 10
684.69297082131072
 20
192.8596480000042
 40
1.00000000000123
100
AcDbArc
 50
-127.64491400005801
 51
0.0
  0
ARC
  5
1D8
100
AcDbEntity
  8
LC-007-002-----0
  6
CONTINUOUS
 62
             7
100
AcDbCircle
 10
699.44297082131072
 20
134.400557999998
 40
0.5
100
AcDbArc
 50
-90.0
 51
0.0
  0
ARC
  5
1D7
100
AcDbEntity
  8
LC-007-002-----0
  6
CONTINUOUS
 62
             7
100
AcDbCircle
 10
611.59297082130763
 20
236.89964899999811
 40
0.5
100
AcDbArc
 50
90.0
 51
180.0
  0
ARC
  5
1D6
100
AcDbEntity
  8
LC-007-002-----0
  6
CONTINUOUS
 62
             7
100
AcDbCircle
 10
614.19297082131072
 20
134.400557999998
 40
0.5
100
AcDbArc
 50
-90.0
 51
0.0
  0
ARC
  5
1D5
100
AcDbEntity
  8
LC-007-002-----0
  6
CONTINUOUS
 62
             7
100
AcDbCircle
 10
625.52630382130872
 20
180.1114890000008
 40
12.60555600000088
100
AcDbArc
 50
32.3893470000189
 51
149.25033800001088
  0
ARC
  5
1D4
100
AcDbEntity
  8
LC-007-002-----0
  6
CONTINUOUS
 62
             7
100
AcDbCircle
 10
637.85963782130773
 20
187.9352439999993
 40
1.99999999999838
100
AcDbArc
 50
-147.61065299994678
 51
-32.3893469999939
  0
ARC
  5
1D3
100
AcDbEntity
  8
LC-007-002-----0
  6
CONTINUOUS
 62
             7
100
AcDbCircle
 10
611.59297082130763
 20
134.400557999998
 40
0.5
100
AcDbArc
 50
180.0
 51
-90.0
  0
ARC
  5
1D2
100
AcDbEntity
  8
LC-007-002-----0
  6
CONTINUOUS
 62
             7
100
AcDbCircle
 10
614.19297082131072
 20
236.89964899999811
 40
0.5
100
AcDbArc
 50
0.0
 51
90.0
  0
ARC
  5
1D1
100
AcDbEntity
  8
LC-007-002-----0
  6
CONTINUOUS
 62
             7
100
AcDbCircle
 10
674.85963782130773
 20
180.1114890000008
 40
15.10000000000076
100
AcDbArc
 50
52.3550860000014
 51
144.76345299999545
  0
ARC
  5
1D0
100
AcDbEntity
  8
LC-007-002-----0
  6
CONTINUOUS
 62
             7
100
AcDbCircle
 10
602.69297082131072
 20
134.400557999998
 40
0.5
100
AcDbArc
 50
-90.0
 51
0.0
  0
ARC
  5
1CF
100
AcDbEntity
  8
LC-007-002-----0
  6
CONTINUOUS
 62
             7
100
AcDbCircle
 10
615.69297082131072
 20
192.8596480000042
 40
1.0
100
AcDbArc
 50
180.0
 51
-52.35508600012768
  0
ARC
  5
1CE
100
AcDbEntity
  8
LC-007-002-----0
  6
CONTINUOUS
 62
             7
100
AcDbCircle
 10
625.52630382130872
 20
180.1114890000008
 40
15.10000000000233
100
AcDbArc
 50
35.23654700000258
 51
127.64491399999928
  0
ARC
  5
1CD
100
AcDbEntity
  8
LC-007-002-----0
  6
CONTINUOUS
 62
             7
100
AcDbCircle
 10
650.19297082131072
 20
180.1114890000008
 40
15.10000000000159
100
AcDbArc
 50
35.23654700000458
 51
144.76345299999741
  0
ARC
  5
1CC
100
AcDbEntity
  8
LC-007-002-----0
  6
CONTINUOUS
 62
             7
100
AcDbCircle
 10
662.52630382130872
 20
187.9352439999993
 40
1.99999999999838
100
AcDbArc
 50
-147.61065299994678
 51
-32.3893469999939
  0
ARC
  5
1CB
100
AcDbEntity
  8
LC-006-002-RND-0
  6
CONTINUOUS
 62
             7
100
AcDbCircle
 10
686.1929558213086
 20
236.8996340000003
 40
0.5
100
AcDbArc
 50
90.0
 51
180.0
  0
ARC
  5
1CA
100
AcDbEntity
  8
LC-007-002-----0
  6
CONTINUOUS
 62
             7
100
AcDbCircle
 10
532.19285382131079
 20
136.1506500000792
 40
1.0
100
AcDbArc
 50
180.0
 51
-89.99994200012053
  0
ARC
  5
1C9
100
AcDbEntity
  8
LC-007-002-----0
  6
CONTINUOUS
 62
             7
100
AcDbCircle
 10
535.19285382131079
 20
136.1506500000792
 40
1.00000000000051
100
AcDbArc
 50
-89.99994200012053
 51
0.0
  0
ARC
  5
1C8
100
AcDbEntity
  8
LC-007-002-----0
  6
CONTINUOUS
 62
             7
100
AcDbCircle
 10
535.19285382131079
 20
139.1506500000792
 40
1.0
100
AcDbArc
 50
0.0
 51
90.0
  0
ARC
  5
1C7
100
AcDbEntity
  8
LC-007-002-----0
  6
CONTINUOUS
 62
             7
100
AcDbCircle
 10
532.19285382131079
 20
139.1506500000792
 40
1.0
100
AcDbArc
 50
90.0
 51
179.99984800038757
  0
ARC
  5
1C6
100
AcDbEntity
  8
LC-007-002-----0
  6
CONTINUOUS
 62
             7
100
AcDbCircle
 10
529.19285382131079
 20
138.51730200007611
 40
2.0
100
AcDbArc
 50
0.0
 51
79.66010900007815
  0
ARC
  5
1C5
100
AcDbEntity
  8
LC-007-002-----0
  6
CONTINUOUS
 62
             7
100
AcDbCircle
 10
552.69285382131068
 20
136.62041900007489
 40
1.99999999999747
100
AcDbArc
 50
-73.27313999997558
 51
0.0
  0
ARC
  5
1C4
100
AcDbEntity
  8
LC-007-002-----0
  6
CONTINUOUS
 62
             7
100
AcDbCircle
 10
533.69285382131079
 20
199.8432468640093
 40
68.01610445435863
100
AcDbArc
 50
-106.72695105881846
 51
-73.27319705881985
  0
ARC
  5
1C3
100
AcDbEntity
  8
LC-007-002-----0
  6
CONTINUOUS
 62
             7
100
AcDbCircle
 10
552.69307082130774
 20
136.7841600000788
 40
2.00000000000607
100
AcDbArc
 50
-79.66008799996881
 51
-0.00003700012195
  0
ARC
  5
1C2
100
AcDbEntity
  8
LC-007-002-----0
  6
CONTINUOUS
 62
             7
100
AcDbCircle
 10
552.69285382131068
 20
138.6808820000756
 40
2.0
100
AcDbArc
 50
0.0
 51
73.27319900005611
  0
ARC
  5
1C1
100
AcDbEntity
  8
LC-007-002-----0
  6
CONTINUOUS
 62
             7
100
AcDbCircle
 10
533.69285382131079
 20
75.45804412863677
 40
68.01611308073757
100
AcDbArc
 50
73.27319924265099
 51
106.72678224265066
  0
ARC
  5
1C0
100
AcDbEntity
  8
LC-007-002-----0
  6
CONTINUOUS
 62
             7
100
AcDbCircle
 10
552.69307182130763
 20
138.51746400007281
 40
2.00000000000042
100
AcDbArc
 50
-0.00003699991595
 51
79.6599970000284
  0
ARC
  5
1BF
100
AcDbEntity
  8
LC-007-002-----0
  6
CONTINUOUS
 62
             7
100
AcDbCircle
 10
545.44309582130916
 20
176.52104333807009
 40
42.39284706905834
100
AcDbArc
 50
-100.34007627087486
 51
-79.66014327087395
  0
ARC
  5
1BE
100
AcDbEntity
  8
LC-007-002-----0
  6
CONTINUOUS
 62
             7
100
AcDbCircle
 10
538.19307082130774
 20
136.78416900007369
 40
2.00000000000042
100
AcDbArc
 50
179.99996299987478
 51
-100.34000499993358
  0
ARC
  5
1BD
100
AcDbEntity
  8
LC-007-002-----0
  6
CONTINUOUS
 62
             7
100
AcDbCircle
 10
538.19307182130763
 20
138.5174730000758
 40
1.99999999999666
100
AcDbArc
 50
100.33983500002131
 51
179.99996300011011
  0
ARC
  5
1BC
100
AcDbEntity
  8
LC-007-002-----0
  6
CONTINUOUS
 62
             7
100
AcDbCircle
 10
545.44304682131042
 20
98.78057714966252
 40
42.39285839451927
100
AcDbArc
 50
79.66007352780378
 51
100.33983652780523
  0
ARC
  5
1BB
100
AcDbEntity
  8
LC-007-002-----0
  6
CONTINUOUS
 62
             7
100
AcDbCircle
 10
514.69285382131079
 20
136.62041900007489
 40
2.0
100
AcDbArc
 50
180.0
 51
-106.72695300005368
  0
ARC
  5
1BA
100
AcDbEntity
  8
LC-007-002-----0
  6
CONTINUOUS
 62
             7
100
AcDbCircle
 10
514.69285382131079
 20
138.6808820000756
 40
1.9999999999983
100
AcDbArc
 50
106.72678200010223
 51
180.0
  0
ARC
  5
1B9
100
AcDbEntity
  8
LC-007-002-----0
  6
CONTINUOUS
 62
             7
100
AcDbCircle
 10
514.69285382131079
 20
136.78399800007489
 40
2.0
100
AcDbArc
 50
180.0
 51
-100.3400430000807
  0
ARC
  5
1B8
100
AcDbEntity
  8
LC-007-002-----0
  6
CONTINUOUS
 62
             7
100
AcDbCircle
 10
521.94285382131091
 20
176.52088363602101
 40
42.39285326473526
100
AcDbArc
 50
-100.33989195281885
 51
-79.66005195282342
  0
ARC
  5
1B7
100
AcDbEntity
  8
LC-007-002-----0
  6
CONTINUOUS
 62
             7
100
AcDbCircle
 10
514.69285382131079
 20
138.51730200007611
 40
2.00000000000076
100
AcDbArc
 50
100.33987200007671
 51
180.0
  0
ARC
  5
1B6
100
AcDbEntity
  8
LC-007-002-----0
  6
CONTINUOUS
 62
             7
100
AcDbCircle
 10
521.94285382131079
 20
98.78041243635586
 40
42.39285712872292
100
AcDbArc
 50
79.66010900000472
 51
100.33989100000073
  0
ARC
  5
1B5
100
AcDbEntity
  8
LC-007-002-----0
  6
CONTINUOUS
 62
             7
100
AcDbCircle
 10
529.19285382131079
 20
136.78399800007489
 40
1.99999999999598
100
AcDbArc
 50
-79.66005100006852
 51
0.0
  0
ARC
  5
1B4
100
AcDbEntity
  8
LC-007-002-----0
  6
CONTINUOUS
 62
             7
100
AcDbCircle
 10
533.44285382131159
 20
201.54922481978011
 40
69.58178065746415
100
AcDbArc
 50
-106.12534402198213
 51
-97.63934902198221
  0
ARC
  5
1B3
100
AcDbEntity
  8
LC-007-002-----0
  6
CONTINUOUS
 62
             7
100
AcDbCircle
 10
514.69285382131079
 20
136.62041900007489
 40
2.0
100
AcDbArc
 50
180.0
 51
-106.72680100004268
  0
ARC
  5
1B2
100
AcDbEntity
  8
LC-007-002-----0
  6
CONTINUOUS
 62
             7
100
AcDbCircle
 10
514.69285382131079
 20
138.6808820000756
 40
2.00000000000176
100
AcDbArc
 50
106.72680100004995
 51
180.0
  0
ARC
  5
1B1
100
AcDbEntity
  8
LC-007-002-----0
  6
CONTINUOUS
 62
             7
100
AcDbCircle
 10
533.69285382131091
 20
75.45804512947503
 40
68.01611212224678
100
AcDbArc
 50
73.27319900000217
 51
106.72680100000152
  0
ARC
  5
1B0
100
AcDbEntity
  8
LC-007-002-----0
  6
CONTINUOUS
 62
             7
100
AcDbCircle
 10
552.69285382131068
 20
138.6808820000756
 40
2.0
100
AcDbArc
 50
0.0
 51
73.27319900005611
  0
ARC
  5
1AF
100
AcDbEntity
  8
LC-007-002-----0
  6
CONTINUOUS
 62
             7
100
AcDbCircle
 10
552.69285382131068
 20
136.62041900007489
 40
2.00000000000149
100
AcDbArc
 50
-73.27319900006337
 51
0.0
  0
ARC
  5
1AE
100
AcDbEntity
  8
LC-007-002-----0
  6
CONTINUOUS
 62
             7
100
AcDbCircle
 10
533.94285382131022
 20
201.54929934998131
 40
69.58185225537842
100
AcDbArc
 50
-82.36048102301203
 51
-73.87467302301207
  0
ARC
  5
1AD
100
AcDbEntity
  8
LC-007-002-----0
  6
CONTINUOUS
 62
             7
100
AcDbCircle
 10
768.19305782131062
 20
136.1506500000792
 40
1.00000000000051
100
AcDbArc
 50
-90.00005800010746
 51
0.0
  0
ARC
  5
1AC
100
AcDbEntity
  8
LC-007-002-----0
  6
CONTINUOUS
 62
             7
100
AcDbCircle
 10
765.19305782131062
 20
136.1506500000792
 40
1.0
100
AcDbArc
 50
180.0
 51
-90.00005800010746
  0
ARC
  5
1AB
100
AcDbEntity
  8
LC-007-002-----0
  6
CONTINUOUS
 62
             7
100
AcDbCircle
 10
765.19305782131062
 20
139.1506500000792
 40
1.0
100
AcDbArc
 50
90.0
 51
180.0
  0
ARC
  5
1AA
100
AcDbEntity
  8
LC-007-002-----0
  6
CONTINUOUS
 62
             7
100
AcDbCircle
 10
768.19305782131062
 20
139.1506500000792
 40
0.99999999999965
100
AcDbArc
 50
0.00015199961242
 51
90.0
  0
ARC
  5
1A9
100
AcDbEntity
  8
LC-007-002-----0
  6
CONTINUOUS
 62
             7
100
AcDbCircle
 10
771.19305782131062
 20
138.51730200007611
 40
1.9999999999988
100
AcDbArc
 50
100.3398910000404
 51
180.0
  0
ARC
  5
1A8
100
AcDbEntity
  8
LC-007-002-----0
  6
CONTINUOUS
 62
             7
100
AcDbCircle
 10
747.69305782131062
 20
136.62041900007489
 40
2.0
100
AcDbArc
 50
180.0
 51
-106.72686000010552
  0
ARC
  5
1A7
100
AcDbEntity
  8
LC-007-002-----0
  6
CONTINUOUS
 62
             7
100
AcDbCircle
 10
766.69305782131084
 20
199.84324686400919
 40
68.01610445435956
100
AcDbArc
 50
-106.72680294118368
 51
-73.2730489411817
  0
ARC
  5
1A6
100
AcDbEntity
  8
LC-007-002-----0
  6
CONTINUOUS
 62
             7
100
AcDbCircle
 10
747.69283982130958
 20
136.7841600000788
 40
2.00000000000042
100
AcDbArc
 50
-179.99996299987805
 51
-100.33991200003121
  0
ARC
  5
1A5
100
AcDbEntity
  8
LC-007-002-----0
  6
CONTINUOUS
 62
             7
100
AcDbCircle
 10
747.69305782131062
 20
138.6808820000756
 40
2.00000000000176
100
AcDbArc
 50
106.72680100004995
 51
180.0
  0
ARC
  5
1A4
100
AcDbEntity
  8
LC-007-002-----0
  6
CONTINUOUS
 62
             7
100
AcDbCircle
 10
766.69305782131062
 20
75.45804412863676
 40
68.01611308073642
100
AcDbArc
 50
73.27321775735256
 51
106.72680075735241
  0
ARC
  5
1A3
100
AcDbEntity
  8
LC-007-002-----0
  6
CONTINUOUS
 62
             7
100
AcDbCircle
 10
747.69283882130969
 20
138.51746400007281
 40
2.0000000000052
100
AcDbArc
 50
100.3400029999716
 51
-179.99996300008405
  0
ARC
  5
1A2
100
AcDbEntity
  8
LC-007-002-----0
  6
CONTINUOUS
 62
             7
100
AcDbCircle
 10
754.94281482130827
 20
176.5210433380702
 40
42.39284706905368
100
AcDbArc
 50
-100.3398567291206
 51
-79.65992372912139
  0
ARC
  5
1A1
100
AcDbEntity
  8
LC-007-002-----0
  6
CONTINUOUS
 62
             7
100
AcDbCircle
 10
762.19283982130958
 20
136.78416900007369
 40
1.99999999999956
100
AcDbArc
 50
-79.65999500006643
 51
0.00003700012521
  0
ARC
  5
1A0
100
AcDbEntity
  8
LC-007-002-----0
  6
CONTINUOUS
 62
             7
100
AcDbCircle
 10
762.19283882130969
 20
138.5174730000758
 40
2.00000000000042
100
AcDbArc
 50
0.0000369998899
 51
79.6601649999787
  0
ARC
  5
19F
100
AcDbEntity
  8
LC-007-002-----0
  6
CONTINUOUS
 62
             7
100
AcDbCircle
 10
754.94286382131111
 20
98.78057714966253
 40
42.3928583945148
100
AcDbArc
 50
79.66016347220037
 51
100.33992647220184
  0
ARC
  5
19E
100
AcDbEntity
  8
LC-007-002-----0
  6
CONTINUOUS
 62
             7
100
AcDbCircle
 10
785.69305782131062
 20
136.62041900007489
 40
1.99999999999891
100
AcDbArc
 50
-73.27304700003054
 51
0.0
  0
ARC
  5
19D
100
AcDbEntity
  8
LC-007-002-----0
  6
CONTINUOUS
 62
             7
100
AcDbCircle
 10
785.69305782131062
 20
138.6808820000756
 40
2.0
100
AcDbArc
 50
0.0
 51
73.27321800000381
  0
ARC
  5
19C
100
AcDbEntity
  8
LC-007-002-----0
  6
CONTINUOUS
 62
             7
100
AcDbCircle
 10
785.69305782131062
 20
136.78399800007489
 40
2.00000000000131
100
AcDbArc
 50
-79.65995700000582
 51
0.0
  0
ARC
  5
19B
100
AcDbEntity
  8
LC-007-002-----0
  6
CONTINUOUS
 62
             7
100
AcDbCircle
 10
778.4430578213105
 20
176.5208836360207
 40
42.39285326473453
100
AcDbArc
 50
-100.33994804718073
 51
-79.66010804718094
  0
ARC
  5
19A
100
AcDbEntity
  8
LC-007-002-----0
  6
CONTINUOUS
 62
             7
100
AcDbCircle
 10
785.69305782131062
 20
138.51730200007611
 40
2.0
100
AcDbArc
 50
0.0
 51
79.66012800003544
  0
ARC
  5
199
100
AcDbEntity
  8
LC-007-002-----0
  6
CONTINUOUS
 62
             7
100
AcDbCircle
 10
778.44305782131073
 20
98.78041243635586
 40
42.39285712872292
100
AcDbArc
 50
79.66010900000472
 51
100.33989100000073
  0
ARC
  5
198
100
AcDbEntity
  8
LC-007-002-----0
  6
CONTINUOUS
 62
             7
100
AcDbCircle
 10
771.19305782131062
 20
136.78399800007489
 40
2.0
100
AcDbArc
 50
180.0
 51
-100.33994900001798
  0
ARC
  5
197
100
AcDbEntity
  8
LC-007-002-----0
  6
CONTINUOUS
 62
             7
100
AcDbCircle
 10
766.94305782131005
 20
201.54922481978011
 40
69.5817806574612
100
AcDbArc
 50
-82.36065097802121
 51
-73.87465597802138
  0
ARC
  5
196
100
AcDbEntity
  8
LC-007-002-----0
  6
CONTINUOUS
 62
             7
100
AcDbCircle
 10
785.69305782131062
 20
136.62041900007489
 40
2.00000000000149
100
AcDbArc
 50
-73.27319900006337
 51
0.0
  0
ARC
  5
195
100
AcDbEntity
  8
LC-007-002-----0
  6
CONTINUOUS
 62
             7
100
AcDbCircle
 10
785.69305782131062
 20
138.6808820000756
 40
2.0
100
AcDbArc
 50
0.0
 51
73.27319900005611
  0
ARC
  5
194
100
AcDbEntity
  8
LC-007-002-----0
  6
CONTINUOUS
 62
             7
100
AcDbCircle
 10
766.69305782131062
 20
75.45804512947503
 40
68.01611212224684
100
AcDbArc
 50
73.27319900000197
 51
106.72680100000133
  0
ARC
  5
193
100
AcDbEntity
  8
LC-007-002-----0
  6
CONTINUOUS
 62
             7
100
AcDbCircle
 10
747.69305782131062
 20
138.6808820000756
 40
2.00000000000176
100
AcDbArc
 50
106.72680100004995
 51
180.0
  0
ARC
  5
192
100
AcDbEntity
  8
LC-007-002-----0
  6
CONTINUOUS
 62
             7
100
AcDbCircle
 10
747.69305782131062
 20
136.62041900007489
 40
2.0
100
AcDbArc
 50
180.0
 51
-106.72680100004268
  0
ARC
  5
191
100
AcDbEntity
  8
LC-007-002-----0
  6
CONTINUOUS
 62
             7
100
AcDbCircle
 10
766.44305782131141
 20
201.549299349981
 40
69.58185225538122
100
AcDbArc
 50
-106.12532697699143
 51
-97.63951897699072
  0
ARC
  5
190
100
AcDbEntity
  8
LC-007-002-----0
  6
CONTINUOUS
 62
             7
100
AcDbCircle
 10
620.1929558213086
 20
232.1318070000043
 40
10.00000000000017
100
AcDbArc
 50
37.27579099999182
 51
142.72420900000424
  0
ARC
  5
18F
100
AcDbEntity
  8
LC-007-002-----0
  6
CONTINUOUS
 62
             7
100
AcDbCircle
 10
660.1929558213086
 20
232.1318070000043
 40
10.00000000000017
100
AcDbArc
 50
37.27579099999182
 51
142.72420900000424
  0
ARC
  5
18E
100
AcDbEntity
  8
LC-007-002-----0
  6
CONTINUOUS
 62
             7
100
AcDbCircle
 10
680.1929558213086
 20
232.1318070000043
 40
10.00000000000017
100
AcDbArc
 50
37.27579099999182
 51
142.72420900000424
  0
ARC
  5
18D
100
AcDbEntity
  8
LC-007-002-----0
  6
CONTINUOUS
 62
             7
100
AcDbCircle
 10
640.1929558213086
 20
232.1318070000043
 40
10.00000000000017
100
AcDbArc
 50
37.27579099999182
 51
142.72420900000424
  0
ARC
  5
18C
100
AcDbEntity
  8
LC-007-002-----0
  6
CONTINUOUS
 62
             7
100
AcDbCircle
 10
602.1929558213086
 20
253.8996340000003
 40
2.0
100
AcDbArc
 50
90.0
 51
180.0
  0
ARC
  5
18B
100
AcDbEntity
  8
LC-006-002-RND-0
  6
CONTINUOUS
 62
             7
100
AcDbCircle
 10
698.1929558213086
 20
253.8996340000003
 40
2.0
100
AcDbArc
 50
0.0
 51
90.0
  0
ARC
  5
18A
100
AcDbEntity
  8
LC-006-002-RND-0
  6
CONTINUOUS
 62
             7
100
AcDbCircle
 10
608.1929558213086
 20
220.3996340000003
 40
2.0
100
AcDbArc
 50
-90.0
 51
0.0
  0
ARC
  5
189
100
AcDbEntity
  8
LC-006-002-RND-0
  6
CONTINUOUS
 62
             7
100
AcDbCircle
 10
692.1929558213086
 20
220.3996340000003
 40
2.0
100
AcDbArc
 50
180.0
 51
-90.0
  0
ARC
  5
188
100
AcDbEntity
  8
LC-006-002-RND-0
  6
CONTINUOUS
 62
             7
100
AcDbCircle
 10
629.74170882130772
 20
239.3996340000003
 40
2.00000000000023
100
AcDbArc
 50
-142.72420900000952
 51
-90.0
  0
ARC
  5
187
100
AcDbEntity
  8
LC-006-002-RND-0
  6
CONTINUOUS
 62
             7
100
AcDbCircle
 10
630.64420182130959
 20
239.3996340000003
 40
2.0
100
AcDbArc
 50
-90.0
 51
-37.27579099999048
  0
ARC
  5
186
100
AcDbEntity
  8
LC-006-002-RND-0
  6
CONTINUOUS
 62
             7
100
AcDbCircle
 10
649.74170882130772
 20
239.3996340000003
 40
2.00000000000023
100
AcDbArc
 50
-142.72420900000952
 51
-90.0
  0
ARC
  5
185
100
AcDbEntity
  8
LC-006-002-RND-0
  6
CONTINUOUS
 62
             7
100
AcDbCircle
 10
650.64420182130959
 20
239.3996340000003
 40
2.0
100
AcDbArc
 50
-90.0
 51
-37.27579099999048
  0
ARC
  5
184
100
AcDbEntity
  8
LC-006-002-RND-0
  6
CONTINUOUS
 62
             7
100
AcDbCircle
 10
669.74170882130772
 20
239.3996340000003
 40
2.00000000000023
100
AcDbArc
 50
-142.72420900000952
 51
-90.0
  0
ARC
  5
183
100
AcDbEntity
  8
LC-006-002-RND-0
  6
CONTINUOUS
 62
             7
100
AcDbCircle
 10
610.64420182130959
 20
239.3996340000003
 40
2.0
100
AcDbArc
 50
-90.0
 51
-37.27579099999048
  0
ARC
  5
182
100
AcDbEntity
  8
LC-006-002-RND-0
  6
CONTINUOUS
 62
             7
100
AcDbCircle
 10
670.64420182130959
 20
239.3996340000003
 40
2.0
100
AcDbArc
 50
-90.0
 51
-37.27579099999048
  0
ARC
  5
181
100
AcDbEntity
  8
LC-006-002-RND-0
  6
CONTINUOUS
 62
             7
100
AcDbCircle
 10
689.74170882130772
 20
239.3996340000003
 40
2.00000000000023
100
AcDbArc
 50
-142.72420900000952
 51
-90.0
  0
LINE
  5
180
100
AcDbEntity
  8
1
  6
PHANTOM
 62
             2
100
AcDbLine
 10
650.1929558213086
 20
266.73097407956487
 11
650.1929558213086
 21
-114.63007851523091
  0
LINE
  5
17F
100
AcDbEntity
  8
1
  6
PHANTOM
 62
             2
100
AcDbLine
 10
753.0429558213076
 20
0.0
 11
547.34295582131074
 21
0.0
  0
LINE
  5
17E
100
AcDbEntity
  8
LC-007-002-----0
  6
CONTINUOUS
 62
             7
100
AcDbLine
 10
749.69288082130868
 20
102.90099499999999
 11
749.6142928213086
 21
104.400543
  0
LINE
  5
17D
100
AcDbEntity
  8
LC-007-002-----0
  6
CONTINUOUS
 62
             7
100
AcDbLine
 10
548.6929558213086
 20
102.900812000004
 11
552.45084082130768
 21
-4.7109449999989
  0
LINE
  5
17C
100
AcDbEntity
  8
LC-007-002-----0
  6
CONTINUOUS
 62
             7
100
AcDbLine
 10
550.69303082130875
 20
102.90099499999999
 11
550.77161882130861
 21
104.400543
  0
LINE
  5
17B
100
AcDbEntity
  8
LC-007-002-----0
  6
CONTINUOUS
 62
             7
100
AcDbLine
 10
751.6929558213086
 20
102.900812000004
 11
747.93507082130975
 21
-4.7109449999989
  0
LINE
  5
17A
100
AcDbEntity
  8
0
  6
CONTINUOUS
 62
             7
100
AcDbLine
 10
650.1929558213086
 20
102.900627999999
 11
548.69296182131063
 21
102.900627999999
  0
LINE
  5
179
100
AcDbEntity
  8
0
  6
CONTINUOUS
 62
             7
100
AcDbLine
 10
650.1929558213086
 20
102.900627999999
 11
751.69294882130964
 21
102.900627999999
  0
LINE
  5
178
100
AcDbEntity
  8
LC-007-002-----0
  6
CONTINUOUS
 62
             7
100
AcDbLine
 10
523.6929558213086
 20
95.40081200000395
 11
523.6929558213086
 21
102.900812000004
  0
LINE
  5
177
100
AcDbEntity
  8
LC-007-002-----0
  6
CONTINUOUS
 62
             7
100
AcDbLine
 10
548.97232182130767
 20
94.90081200000395
 11
524.1929558213086
 21
94.90081200000395
  0
LINE
  5
176
100
AcDbEntity
  8
LC-007-002-----0
  6
CONTINUOUS
 62
             7
100
AcDbLine
 10
549.86894682130867
 20
69.22481999999991
 11
524.1929558213086
 21
94.90081200000395
  0
LINE
  5
175
100
AcDbEntity
  8
0
  6
CONTINUOUS
 62
             7
100
AcDbLine
 10
548.6929558213086
 20
102.900812000004
 11
523.6929558213086
 21
102.900812000004
  0
LINE
  5
174
100
AcDbEntity
  8
LC-007-002-----0
  6
CONTINUOUS
 62
             7
100
AcDbLine
 10
750.51696382130865
 20
69.22481999999991
 11
776.1929558213086
 21
94.90081200000395
  0
LINE
  5
173
100
AcDbEntity
  8
LC-007-002-----0
  6
CONTINUOUS
 62
             7
100
AcDbLine
 10
751.41358982130976
 20
94.90081200000395
 11
776.1929558213086
 21
94.90081200000395
  0
LINE
  5
172
100
AcDbEntity
  8
0
  6
CONTINUOUS
 62
             7
100
AcDbLine
 10
751.6929558213086
 20
102.900812000004
 11
776.6929558213086
 21
102.900812000004
  0
LINE
  5
171
100
AcDbEntity
  8
LC-007-002-----0
  6
CONTINUOUS
 62
             7
100
AcDbLine
 10
776.6929558213086
 20
95.40081200000395
 11
776.6929558213086
 21
102.900812000004
  0
LINE
  5
170
100
AcDbEntity
  8
LC-008-006-MLN-0
  6
CONTINUOUS
 62
             2
100
AcDbLine
 10
533.6929558213086
 20
92.90081200000395
 11
533.6929558213086
 21
145.4006500000792
  0
LINE
  5
16F
100
AcDbEntity
  8
LC-007-002-----0
  6
CONTINUOUS
 62
             7
100
AcDbLine
 10
596.6929558213086
 20
127.9005430000002
 11
596.6929558213086
 21
132.9005430000002
  0
LINE
  5
16E
100
AcDbEntity
  8
LC-007-002-----0
  6
CONTINUOUS
 62
             7
100
AcDbLine
 10
618.6929558213086
 20
127.9005430000002
 11
618.6929558213086
 21
132.9005430000002
  0
LINE
  5
16D
100
AcDbEntity
  8
LC-007-002-----0
  6
CONTINUOUS
 62
             7
100
AcDbLine
 10
617.6929558213086
 20
133.9005430000002
 11
597.6929558213086
 21
133.9005430000002
  0
LINE
  5
16C
100
AcDbEntity
  8
LC-007-002-----0
  6
CONTINUOUS
 62
             7
100
AcDbLine
 10
681.6929558213086
 20
127.9005430000002
 11
681.6929558213086
 21
132.9005430000002
  0
LINE
  5
16B
100
AcDbEntity
  8
LC-007-002-----0
  6
CONTINUOUS
 62
             7
100
AcDbLine
 10
703.6929558213086
 20
127.9005430000002
 11
703.6929558213086
 21
132.9005430000002
  0
LINE
  5
16A
100
AcDbEntity
  8
LC-007-002-----0
  6
CONTINUOUS
 62
             7
100
AcDbLine
 10
702.6929558213086
 20
133.9005430000002
 11
682.6929558213086
 21
133.9005430000002
  0
LINE
  5
169
100
AcDbEntity
  8
LC-007-002-----0
  6
CONTINUOUS
 62
             7
100
AcDbLine
 10
650.1929558213086
 20
104.400543
 11
776.69754682130963
 21
104.400543
  0
LINE
  5
168
100
AcDbEntity
  8
LC-007-002-----0
  6
CONTINUOUS
 62
             7
100
AcDbLine
 10
650.1929558213086
 20
120.900543
 11
548.45679682130879
 21
120.900543
  0
LINE
  5
167
100
AcDbEntity
  8
LC-007-002-----0
  6
CONTINUOUS
 62
             7
100
AcDbLine
 10
742.69270782130877
 20
127.9005430000002
 11
557.69320282130877
 21
127.9005430000002
  0
LINE
  5
166
100
AcDbEntity
  8
LC-007-002-----0
  6
CONTINUOUS
 62
             7
100
AcDbLine
 10
650.1929558213086
 20
104.400543
 11
523.68836482130769
 21
104.400543
  0
LINE
  5
165
100
AcDbEntity
  8
LC-007-002-----0
  6
CONTINUOUS
 62
             7
100
AcDbLine
 10
744.69270782130877
 20
120.900543
 11
744.69270782130877
 21
125.9005430000002
  0
LINE
  5
164
100
AcDbEntity
  8
LC-007-002-----0
  6
CONTINUOUS
 62
             7
100
AcDbLine
 10
650.1929558213086
 20
120.900543
 11
751.92911482130864
 21
120.900543
  0
LINE
  5
163
100
AcDbEntity
  8
LC-007-002-----0
  6
CONTINUOUS
 62
             7
100
AcDbLine
 10
555.69320282130877
 20
120.900543
 11
555.69320282130877
 21
125.9005430000002
  0
LINE
  5
162
100
AcDbEntity
  8
LC-007-002-----0
  6
CONTINUOUS
 62
             7
100
AcDbLine
 10
544.50069382130857
 20
104.400543
 11
544.95892882131068
 21
117.5226910000019
  0
LINE
  5
161
100
AcDbEntity
  8
LC-007-002-----0
  6
CONTINUOUS
 62
             7
100
AcDbLine
 10
523.68836482130769
 20
104.400543
 11
523.93402582130864
 21
111.4353640000011
  0
LINE
  5
160
100
AcDbEntity
  8
LC-007-002-----0
  6
CONTINUOUS
 62
             7
100
AcDbLine
 10
524.93349782130861
 20
112.400465000002
 11
544.78000082130859
 21
112.39886799999999
  0
LINE
  5
15F
100
AcDbEntity
  8
LC-007-002-----0
  6
CONTINUOUS
 62
             7
100
AcDbLine
 10
755.88521782130977
 20
104.400543
 11
755.42698282130766
 21
117.5226910000019
  0
LINE
  5
15E
100
AcDbEntity
  8
LC-007-002-----0
  6
CONTINUOUS
 62
             7
100
AcDbLine
 10
776.69754682130963
 20
104.400543
 11
776.45188482130868
 21
111.4353640000011
  0
LINE
  5
15D
100
AcDbEntity
  8
LC-007-002-----0
  6
CONTINUOUS
 62
             7
100
AcDbLine
 10
775.45241382130973
 20
112.400465000002
 11
755.60591082130861
 21
112.39886799999999
  0
LINE
  5
15C
100
AcDbEntity
  8
LC-007-002-----0
  6
CONTINUOUS
 62
             7
100
AcDbLine
 10
742.69270782130877
 20
127.9005430000002
 11
557.69320282130877
 21
127.9005430000002
  0
LINE
  5
15B
100
AcDbEntity
  8
LC-007-002-----0
  6
CONTINUOUS
 62
             7
100
AcDbLine
 10
614.1929558213086
 20
239.9618110000001
 11
614.1929558213086
 21
237.3996340000003
  0
LINE
  5
15A
100
AcDbEntity
  8
LC-007-002-----0
  6
CONTINUOUS
 62
             7
100
AcDbLine
 10
699.9429558213086
 20
138.9005430000002
 11
699.9429558213086
 21
218.3996340000003
  0
LINE
  5
159
100
AcDbEntity
  8
LC-007-002-----0
  6
CONTINUOUS
 62
             7
100
AcDbLine
 10
690.1929558213086
 20
235.3996340000003
 11
689.2929558213076
 21
235.3996340000003
  0
LINE
  5
158
100
AcDbEntity
  8
LC-007-002-----0
  6
CONTINUOUS
 62
             7
100
AcDbLine
 10
685.6929558213086
 20
186.55654399999821
 11
685.6929558213086
 21
138.9005430000002
  0
LINE
  5
157
100
AcDbEntity
  8
LC-007-002-----0
  6
CONTINUOUS
 62
             7
100
AcDbLine
 10
610.1929558213086
 20
234.8996340000003
 11
611.09295582131074
 21
234.8996340000003
  0
LINE
  5
156
100
AcDbEntity
  8
LC-007-002-----0
  6
CONTINUOUS
 62
             7
100
AcDbLine
 10
603.1929558213086
 20
138.9005430000002
 11
603.1929558213086
 21
218.3996340000003
  0
LINE
  5
155
100
AcDbEntity
  8
LC-007-002-----0
  6
CONTINUOUS
 62
             7
100
AcDbLine
 10
685.6929558213086
 20
236.8996340000003
 11
685.6929558213086
 21
192.85963299999909
  0
LINE
  5
154
100
AcDbEntity
  8
LC-007-002-----0
  6
CONTINUOUS
 62
             7
100
AcDbLine
 10
611.09295582131074
 20
234.3996340000003
 11
611.09295582131074
 21
138.9005430000002
  0
LINE
  5
153
100
AcDbEntity
  8
LC-007-002-----0
  6
CONTINUOUS
 62
             7
100
AcDbLine
 10
603.1929558213086
 20
138.9005430000002
 11
603.1929558213086
 21
134.4005430000002
  0
LINE
  5
152
100
AcDbEntity
  8
LC-007-002-----0
  6
CONTINUOUS
 62
             7
100
AcDbLine
 10
697.1929558213086
 20
134.4005430000002
 11
689.2929558213076
 21
134.4005430000002
  0
LINE
  5
151
100
AcDbEntity
  8
LC-007-002-----0
  6
CONTINUOUS
 62
             7
100
AcDbLine
 10
611.59295582131074
 20
237.3996340000003
 11
614.1929558213086
 21
237.3996340000003
  0
LINE
  5
150
100
AcDbEntity
  8
LC-007-002-----0
  6
CONTINUOUS
 62
             7
100
AcDbLine
 10
600.4429558213086
 20
134.4005430000002
 11
600.4429558213086
 21
138.9005430000002
  0
LINE
  5
14F
100
AcDbEntity
  8
LC-007-002-----0
  6
CONTINUOUS
 62
             7
100
AcDbLine
 10
689.2929558213076
 20
236.8996340000003
 11
689.2929558213076
 21
234.3996340000003
  0
LINE
  5
14E
100
AcDbEntity
  8
LC-007-002-----0
  6
CONTINUOUS
 62
             7
100
AcDbLine
 10
685.6929558213086
 20
134.4005430000002
 11
685.6929558213086
 21
138.9005430000002
  0
LINE
  5
14D
100
AcDbEntity
  8
LC-007-002-----0
  6
CONTINUOUS
 62
             7
100
AcDbLine
 10
611.09295582131074
 20
237.4690030000038
 11
611.09295582131074
 21
236.8996340000003
  0
LINE
  5
14C
100
AcDbEntity
  8
LC-007-002-----0
  6
CONTINUOUS
 62
             7
100
AcDbLine
 10
689.2929558213076
 20
236.8996340000003
 11
689.2929558213076
 21
237.43847100000039
  0
LINE
  5
14B
100
AcDbEntity
  8
LC-007-002-----0
  6
CONTINUOUS
 62
             7
100
AcDbLine
 10
686.1929558213086
 20
239.9448299999994
 11
686.1929558213086
 21
237.3996340000003
  0
LINE
  5
14A
100
AcDbEntity
  8
LC-007-002-----0
  6
CONTINUOUS
 62
             7
100
AcDbLine
 10
611.09295582131074
 20
134.4005430000002
 11
603.1929558213086
 21
134.4005430000002
  0
LINE
  5
149
100
AcDbEntity
  8
LC-007-002-----0
  6
CONTINUOUS
 62
             7
100
AcDbLine
 10
614.6929558213086
 20
192.85963299999909
 11
614.6929558213086
 21
236.895776000003
  0
LINE
  5
148
100
AcDbEntity
  8
LC-007-002-----0
  6
CONTINUOUS
 62
             7
100
AcDbLine
 10
689.2929558213076
 20
234.8996340000003
 11
690.1929558213086
 21
234.8996340000003
  0
LINE
  5
147
100
AcDbEntity
  8
LC-007-002-----0
  6
CONTINUOUS
 62
             7
100
AcDbLine
 10
611.09295582131074
 20
234.3996340000003
 11
611.09295582131074
 21
236.8996340000003
  0
LINE
  5
146
100
AcDbEntity
  8
LC-007-002-----0
  6
CONTINUOUS
 62
             7
100
AcDbLine
 10
686.1929558213086
 20
237.3996340000003
 11
688.7929558213076
 21
237.3996340000003
  0
LINE
  5
145
100
AcDbEntity
  8
LC-007-002-----0
  6
CONTINUOUS
 62
             7
100
AcDbLine
 10
614.6929558213086
 20
138.9005430000002
 11
614.6929558213086
 21
134.4005430000002
  0
LINE
  5
144
100
AcDbEntity
  8
LC-007-002-----0
  6
CONTINUOUS
 62
             7
100
AcDbLine
 10
611.09295582131074
 20
134.4005430000002
 11
611.09295582131074
 21
138.9005430000002
  0
LINE
  5
143
100
AcDbEntity
  8
LC-007-002-----0
  6
CONTINUOUS
 62
             7
100
AcDbLine
 10
697.1929558213086
 20
218.3996340000003
 11
697.1929558213086
 21
138.9005430000002
  0
LINE
  5
142
100
AcDbEntity
  8
LC-007-002-----0
  6
CONTINUOUS
 62
             7
100
AcDbLine
 10
697.1929558213086
 20
134.4005430000002
 11
697.1929558213086
 21
138.9005430000002
  0
LINE
  5
141
100
AcDbEntity
  8
LC-007-002-----0
  6
CONTINUOUS
 62
             7
100
AcDbLine
 10
600.4429558213086
 20
218.3996340000003
 11
600.4429558213086
 21
138.9005430000002
  0
LINE
  5
140
100
AcDbEntity
  8
LC-007-002-----0
  6
CONTINUOUS
 62
             7
100
AcDbLine
 10
611.09295582131074
 20
235.3996340000003
 11
610.1929558213086
 21
235.3996340000003
  0
LINE
  5
13F
100
AcDbEntity
  8
LC-007-002-----0
  6
CONTINUOUS
 62
             7
100
AcDbLine
 10
689.2929558213076
 20
138.9005430000002
 11
689.2929558213076
 21
134.4005430000002
  0
LINE
  5
13E
100
AcDbEntity
  8
LC-007-002-----0
  6
CONTINUOUS
 62
             7
100
AcDbLine
 10
699.9429558213086
 20
138.9005430000002
 11
699.9429558213086
 21
134.4005430000002
  0
LINE
  5
13D
100
AcDbEntity
  8
LC-007-002-----0
  6
CONTINUOUS
 62
             7
100
AcDbLine
 10
614.6929558213086
 20
138.9005430000002
 11
614.6929558213086
 21
186.55654399999821
  0
LINE
  5
13C
100
AcDbEntity
  8
LC-007-002-----0
  6
CONTINUOUS
 62
             7
100
AcDbLine
 10
689.2929558213076
 20
138.9005430000002
 11
689.2929558213076
 21
234.3996340000003
  0
LINE
  5
13B
100
AcDbEntity
  8
LC-007-002-----0
  6
CONTINUOUS
 62
             7
100
AcDbLine
 10
686.1929558213086
 20
237.3996340000003
 11
670.64420182130959
 21
237.3996340000003
  0
LINE
  5
13A
100
AcDbEntity
  8
LC-007-002-----0
  6
CONTINUOUS
 62
             7
100
AcDbLine
 10
669.74170882130772
 20
237.3996340000003
 11
650.64420182130959
 21
237.3996340000003
  0
LINE
  5
139
100
AcDbEntity
  8
LC-007-002-----0
  6
CONTINUOUS
 62
             7
100
AcDbLine
 10
649.74170882130772
 20
237.3996340000003
 11
630.64420182130959
 21
237.3996340000003
  0
LINE
  5
138
100
AcDbEntity
  8
LC-007-002-----0
  6
CONTINUOUS
 62
             7
100
AcDbLine
 10
629.74170882130772
 20
237.3996340000003
 11
614.1929558213086
 21
237.3996340000003
  0
LINE
  5
137
100
AcDbEntity
  8
LC-008-006-MLN-0
  6
CONTINUOUS
 62
             2
100
AcDbLine
 10
598.44297082131072
 20
240.8996340000003
 11
701.94297082131072
 21
240.8996340000003
  0
LINE
  5
136
100
AcDbEntity
  8
LC-007-002-----0
  6
CONTINUOUS
 62
             7
100
AcDbLine
 10
532.19285382131079
 20
135.1506500000792
 11
535.19285382131079
 21
135.1506500000792
  0
LINE
  5
135
100
AcDbEntity
  8
LC-007-002-----0
  6
CONTINUOUS
 62
             7
100
AcDbLine
 10
531.19285382131079
 20
139.1506500000792
 11
531.19285382131079
 21
136.1506500000792
  0
LINE
  5
134
100
AcDbEntity
  8
LC-007-002-----0
  6
CONTINUOUS
 62
             7
100
AcDbLine
 10
536.19285382131079
 20
136.1506500000792
 11
536.19285382131079
 21
139.1506500000792
  0
LINE
  5
133
100
AcDbEntity
  8
LC-007-002-----0
  6
CONTINUOUS
 62
             7
100
AcDbLine
 10
535.19285382131079
 20
140.1506500000792
 11
532.19285382131079
 21
140.1506500000792
  0
LINE
  5
132
100
AcDbEntity
  8
LC-007-002-----0
  6
CONTINUOUS
 62
             7
100
AcDbLine
 10
554.69285382131068
 20
136.62041900007489
 11
554.69285382131068
 21
138.6808820000756
  0
LINE
  5
131
100
AcDbEntity
  8
LC-007-002-----0
  6
CONTINUOUS
 62
             7
100
AcDbLine
 10
543.19305782131062
 20
113.6519930000029
 11
543.1930688213107
 21
132.58518700007289
  0
LINE
  5
130
100
AcDbEntity
  8
LC-007-002-----0
  6
CONTINUOUS
 62
             7
100
AcDbLine
 10
512.69285382131079
 20
136.62041900007489
 11
512.69285382131079
 21
138.6808820000756
  0
LINE
  5
12F
100
AcDbEntity
  8
LC-007-002-----0
  6
CONTINUOUS
 62
             7
100
AcDbLine
 10
524.19285382131079
 20
112.39976000000409
 11
524.19285382131079
 21
132.5850190000738
  0
LINE
  5
12E
100
AcDbEntity
  8
LC-007-002-----0
  6
CONTINUOUS
 62
             7
100
AcDbLine
 10
524.19285382131079
 20
112.39976000000409
 11
524.9298708213106
 21
112.39976000000409
  0
LINE
  5
12D
100
AcDbEntity
  8
LC-007-002-----0
  6
CONTINUOUS
 62
             7
100
AcDbLine
 10
533.6929558213086
 20
112.39976000000409
 11
539.95375982131065
 21
112.39976000000409
  0
LINE
  5
12C
100
AcDbEntity
  8
LC-007-002-----0
  6
CONTINUOUS
 62
             7
100
AcDbLine
 10
539.95375982131065
 20
112.39976000000409
 11
533.6929558213086
 21
112.39976000000409
  0
LINE
  5
12B
100
AcDbEntity
  8
LC-007-002-----0
  6
CONTINUOUS
 62
             7
100
AcDbLine
 10
524.9298708213106
 20
112.39976000000409
 11
524.19285382131079
 21
112.39976000000409
  0
LINE
  5
12A
100
AcDbEntity
  8
LC-007-002-----0
  6
CONTINUOUS
 62
             7
100
AcDbLine
 10
524.19285382131079
 20
112.39976000000409
 11
524.19285382131079
 21
132.5850190000738
  0
LINE
  5
129
100
AcDbEntity
  8
LC-007-002-----0
  6
CONTINUOUS
 62
             7
100
AcDbLine
 10
512.69285382131079
 20
136.62041900007489
 11
512.69285382131079
 21
138.6808820000756
  0
LINE
  5
128
100
AcDbEntity
  8
LC-007-002-----0
  6
CONTINUOUS
 62
             7
100
AcDbLine
 10
554.69285382131068
 20
138.6808820000756
 11
554.69285382131068
 21
136.62041900007489
  0
LINE
  5
127
100
AcDbEntity
  8
LC-007-002-----0
  6
CONTINUOUS
 62
             7
100
AcDbLine
 10
543.1930688213107
 20
132.58505000007651
 11
543.19305782131062
 21
113.6519930000029
  0
LINE
  5
126
100
AcDbEntity
  8
LC-007-002-----0
  6
CONTINUOUS
 62
             7
100
AcDbLine
 10
768.19305782131062
 20
135.1506500000792
 11
765.19305782131062
 21
135.1506500000792
  0
LINE
  5
125
100
AcDbEntity
  8
LC-007-002-----0
  6
CONTINUOUS
 62
             7
100
AcDbLine
 10
769.19305782131062
 20
139.1506500000792
 11
769.19305782131062
 21
136.1506500000792
  0
LINE
  5
124
100
AcDbEntity
  8
LC-007-002-----0
  6
CONTINUOUS
 62
             7
100
AcDbLine
 10
764.19305782131062
 20
136.1506500000792
 11
764.19305782131062
 21
139.1506500000792
  0
LINE
  5
123
100
AcDbEntity
  8
LC-007-002-----0
  6
CONTINUOUS
 62
             7
100
AcDbLine
 10
765.19305782131062
 20
140.1506500000792
 11
768.19305782131062
 21
140.1506500000792
  0
LINE
  5
122
100
AcDbEntity
  8
LC-007-002-----0
  6
CONTINUOUS
 62
             7
100
AcDbLine
 10
745.69305782131062
 20
136.62041900007489
 11
745.69305782131062
 21
138.6808820000756
  0
LINE
  5
121
100
AcDbEntity
  8
LC-007-002-----0
  6
CONTINUOUS
 62
             7
100
AcDbLine
 10
757.19285282131057
 20
113.6519930000029
 11
757.19284282131059
 21
132.58518700007289
  0
LINE
  5
120
100
AcDbEntity
  8
LC-007-002-----0
  6
CONTINUOUS
 62
             7
100
AcDbLine
 10
787.69305782131062
 20
136.62041900007489
 11
787.69305782131062
 21
138.6808820000756
  0
LINE
  5
11F
100
AcDbEntity
  8
LC-007-002-----0
  6
CONTINUOUS
 62
             7
100
AcDbLine
 10
776.19305782131062
 20
112.39976000000409
 11
776.19305782131062
 21
132.5850190000738
  0
LINE
  5
11E
100
AcDbEntity
  8
LC-007-002-----0
  6
CONTINUOUS
 62
             7
100
AcDbLine
 10
776.19305782131062
 20
112.39976000000409
 11
775.45603982131058
 21
112.39976000000409
  0
LINE
  5
11D
100
AcDbEntity
  8
LC-007-002-----0
  6
CONTINUOUS
 62
             7
100
AcDbLine
 10
766.6929558213086
 20
112.39976000000409
 11
760.43215182130768
 21
112.39976000000409
  0
LINE
  5
11C
100
AcDbEntity
  8
LC-007-002-----0
  6
CONTINUOUS
 62
             7
100
AcDbLine
 10
760.43215182130768
 20
112.39976000000409
 11
766.6929558213086
 21
112.39976000000409
  0
LINE
  5
11B
100
AcDbEntity
  8
LC-007-002-----0
  6
CONTINUOUS
 62
             7
100
AcDbLine
 10
775.45603982131058
 20
112.39976000000409
 11
776.19305782131062
 21
112.39976000000409
  0
LINE
  5
11A
100
AcDbEntity
  8
LC-007-002-----0
  6
CONTINUOUS
 62
             7
100
AcDbLine
 10
776.19305782131062
 20
112.39976000000409
 11
776.19305782131062
 21
132.5850190000738
  0
LINE
  5
119
100
AcDbEntity
  8
LC-007-002-----0
  6
CONTINUOUS
 62
             7
100
AcDbLine
 10
787.69305782131062
 20
136.62041900007489
 11
787.69305782131062
 21
138.6808820000756
  0
LINE
  5
118
100
AcDbEntity
  8
LC-007-002-----0
  6
CONTINUOUS
 62
             7
100
AcDbLine
 10
745.69305782131062
 20
138.6808820000756
 11
745.69305782131062
 21
136.62041900007489
  0
LINE
  5
117
100
AcDbEntity
  8
LC-007-002-----0
  6
CONTINUOUS
 62
             7
100
AcDbLine
 10
757.19284282131059
 20
132.58505000007651
 11
757.19285282131057
 21
113.6519930000029
  0
LINE
  5
116
100
AcDbEntity
  8
LC-008-006-MLN-0
  6
CONTINUOUS
 62
             2
100
AcDbLine
 10
766.6929558213086
 20
92.90081200000395
 11
766.6929558213086
 21
145.4006500000792
  0
LINE
  5
115
100
AcDbEntity
  8
LC-007-002-----0
  6
CONTINUOUS
 62
             7
100
AcDbLine
 10
700.1929558213086
 20
218.3996340000003
 11
700.1929558213086
 21
253.8996340000003
  0
LINE
  5
114
100
AcDbEntity
  8
LC-007-002-----0
  6
CONTINUOUS
 62
             7
100
AcDbLine
 10
600.1929558213086
 20
218.3996340000003
 11
600.1929558213086
 21
253.8996340000003
  0
LINE
  5
113
100
AcDbEntity
  8
LC-007-002-----0
  6
CONTINUOUS
 62
             7
100
AcDbLine
 10
698.1929558213086
 20
255.8996340000003
 11
602.1929558213086
 21
255.8996340000003
  0
LINE
  5
112
100
AcDbEntity
  8
LC-007-002-----0
  6
CONTINUOUS
 62
             7
100
AcDbLine
 10
700.1929558213086
 20
218.3996340000003
 11
692.1929558213086
 21
218.3996340000003
  0
LINE
  5
111
100
AcDbEntity
  8
LC-007-002-----0
  6
CONTINUOUS
 62
             7
100
AcDbLine
 10
610.1929558213086
 20
220.3996340000003
 11
610.1929558213086
 21
237.3996340000003
  0
LINE
  5
110
100
AcDbEntity
  8
LC-007-002-----0
  6
CONTINUOUS
 62
             7
100
AcDbLine
 10
690.1929558213086
 20
220.3996340000003
 11
690.1929558213086
 21
237.3996340000003
  0
LINE
  5
10F
100
AcDbEntity
  8
LC-007-002-----0
  6
CONTINUOUS
 62
             7
100
AcDbLine
 10
670.64420182130959
 20
237.3996340000003
 11
669.74170882130772
 21
237.3996340000003
  0
LINE
  5
10E
100
AcDbEntity
  8
LC-007-002-----0
  6
CONTINUOUS
 62
             7
100
AcDbLine
 10
690.07326282130873
 20
237.3996340000003
 11
689.41249982130864
 21
237.3996340000003
  0
LINE
  5
10D
100
AcDbEntity
  8
LC-007-002-----0
  6
CONTINUOUS
 62
             7
100
AcDbLine
 10
690.1929558213086
 20
237.3996340000003
 11
689.74170882130772
 21
237.3996340000003
  0
LINE
  5
10C
100
AcDbEntity
  8
LC-007-002-----0
  6
CONTINUOUS
 62
             7
100
AcDbLine
 10
608.1929558213086
 20
218.3996340000003
 11
600.1929558213086
 21
218.3996340000003
  0
LINE
  5
10B
100
AcDbEntity
  8
LC-007-002-----0
  6
CONTINUOUS
 62
             7
100
AcDbLine
 10
650.64420182130959
 20
237.3996340000003
 11
649.74170882130772
 21
237.3996340000003
  0
LINE
  5
10A
100
AcDbEntity
  8
LC-007-002-----0
  6
CONTINUOUS
 62
             7
100
AcDbLine
 10
630.64420182130959
 20
237.3996340000003
 11
629.74170882130772
 21
237.3996340000003
  0
LINE
  5
109
100
AcDbEntity
  8
LC-007-002-----0
  6
CONTINUOUS
 62
             7
100
AcDbLine
 10
610.64420182130959
 20
237.3996340000003
 11
610.1929558213086
 21
237.3996340000003
  0
LINE
  5
108
100
AcDbEntity
  8
LC-007-002-----0
  6
CONTINUOUS
 62
             7
100
AcDbLine
 10
690.1929558213086
 20
237.3996340000003
 11
689.74170882130772
 21
237.3996340000003
  0
LINE
  5
107
100
AcDbEntity
  8
LC-008-006-MLN-0
  6
CONTINUOUS
 62
             2
100
AcDbLine
 10
607.6929558213086
 20
242.8996340000003
 11
607.6929558213086
 21
125.9005430000002
  0
LINE
  5
106
100
AcDbEntity
  8
LC-008-006-MLN-0
  6
CONTINUOUS
 62
             2
100
AcDbLine
 10
692.6929558213086
 20
242.8996340000003
 11
692.6929558213086
 21
125.9005430000002
  0
LINE
  5
105
100
AcDbEntity
  8
LC-008-006-MLN-0
  6
PHANTOM
 62
             2
100
AcDbLine
 10
575.67785982130965
 20
-11.50004799999806
 11
724.70805182130778
 21
-11.50004799999806
  0
POINT
  5
104
100
AcDbEntity
  8
0
 62
             7
100
AcDbPoint
 10
512.69285382131079
 20
136.78399800007489
  0
POINT
  5
103
100
AcDbEntity
  8
0
 62
             7
100
AcDbPoint
 10
787.69305782131062
 20
138.51730200007611
  0
ENDBLK
  5
1F7
100
AcDbEntity
  8
0
100
AcDbBlockEnd
  0
BLOCK
  5
1FA
100
AcDbEntity
  8
0
100
AcDbBlockBegin
  2
*D2
 70
             1
 10
0.0
 20
0.0
 30
0.0
  3
*D2
  1

  0
LINE
  5
1FB
100
AcDbEntity
  8
0
  6
CONTINUOUS
 62
             4
100
AcDbLine
 10
-45.33385384276559
 20
-99.099408
 11
-45.33385384276559
 21
255.89963400000028
  0
LINE
  5
1FC
100
AcDbEntity
  8
0
  6
CONTINUOUS
 62
             4
100
AcDbLine
 10
136.20931000000002
 20
255.89963400000028
 11
-47.33385384276559
 21
255.89963400000028
  0
LINE
  5
1FD
100
AcDbEntity
  8
0
  6
CONTINUOUS
 62
             4
100
AcDbLine
 10
95.455567
 20
-99.099408
 11
-47.33385384276559
 21
-99.099408
  0
SOLID
  5
1FE
100
AcDbEntity
  8
0
 62
             4
100
AcDbTrace
 10
-46.91368381381435
 20
-87.099408
 11
-43.75402387171684
 21
-87.099408
 12
-45.33385384276559
 22
-99.099408
 13
-45.33385384276559
 23
-99.099408
  0
SOLID
  5
1FF
100
AcDbEntity
  8
0
 62
             4
100
AcDbTrace
 10
-43.75402387171685
 20
243.89963400000028
 11
-46.91368381381435
 21
243.89963400000028
 12
-45.33385384276559
 22
255.89963400000028
 13
-45.33385384276559
 23
255.89963400000028
  0
MTEXT
  5
201
100
AcDbEntity
  8
0
 62
             1
100
AcDbMText
 10
-47.33385384276559
 20
90.7933560165918
 30
0.0
 40
12.0
 41
0.0
 71
             7
 72
             1
  1
\C1;265-\C1;355
  7
CONVERTER_1
 11
0.0
 21
1.0
 31
0.0
  0
ENDBLK
  5
202
100
AcDbEntity
  8
0
100
AcDbBlockEnd
  0
BLOCK
  5
206
100
AcDbEntity
  8
0
100
AcDbBlockBegin
  2
*D3
 70
             1
 10
0.0
 20
0.0
 30
0.0
  3
*D3
  1

  0
LINE
  5
207
100
AcDbEntity
  8
0
  6
CONTINUOUS
 62
             4
100
AcDbLine
 10
338.12490548754113
 20
-11.49997252403291
 11
338.12490548754113
 21
-35.49997252403291
  0
LINE
  5
208
100
AcDbEntity
  8
0
  6
CONTINUOUS
 62
             4
100
AcDbLine
 10
338.12490548754113
 20
0.0
 11
338.12490548754113
 21
-11.49997252403291
  0
LINE
  5
209
100
AcDbEntity
  8
0
  6
CONTINUOUS
 62
             4
100
AcDbLine
 10
338.12490548754113
 20
103.73142497754989
 11
338.12490548754113
 21
0.0
  0
LINE
  5
20A
100
AcDbEntity
  8
0
  6
CONTINUOUS
 62
             4
100
AcDbLine
 10
282.52758784230059
 20
-11.49997252403291
 11
340.12490548754113
 21
-11.49997252403291
  0
LINE
  5
20B
100
AcDbEntity
  8
0
  6
CONTINUOUS
 62
             4
100
AcDbLine
 10
102.39317986597712
 20
0.0
 11
340.12490548754113
 21
0.0
  0
SOLID
  5
20C
100
AcDbEntity
  8
0
 62
             4
100
AcDbTrace
 10
336.54507551649237
 20
12.0
 11
339.70473545858988
 21
12.0
 12
338.12490548754113
 22
0.0
 13
338.12490548754113
 23
0.0
  0
SOLID
  5
20D
100
AcDbEntity
  8
0
 62
             4
100
AcDbTrace
 10
339.70473545858988
 20
-23.49997252403291
 11
336.54507551649237
 21
-23.49997252403291
 12
338.12490548754113
 22
-11.49997252403291
 13
338.12490548754113
 23
-11.49997252403291
  0
MTEXT
  5
20E
100
AcDbEntity
  8
0
 62
             1
100
AcDbMText
 10
334.92490548754108
 20
77.93142497754988
 30
0.0
 40
12.0
 41
0.0
 71
             7
 72
             1
  1
11,5
  7
CONVERTER_1
 11
0.0
 21
1.0
 31
0.0
  0
ENDBLK
  5
20F
100
AcDbEntity
  8
0
100
AcDbBlockEnd
  0
BLOCK
  5
213
100
AcDbEntity
  8
0
100
AcDbBlockBegin
  2
*D4
 70
             1
 10
0.0
 20
0.0
 30
0.0
  3
*D4
  1

  0
LINE
  5
214
100
AcDbEntity
  8
0
  6
CONTINUOUS
 62
             4
100
AcDbLine
 10
401.38144455498212
 20
68.50002799999993
 11
401.38144455498212
 21
-91.49995499999909
  0
LINE
  5
215
100
AcDbEntity
  8
0
  6
CONTINUOUS
 62
             4
100
AcDbLine
 10
369.99974144483423
 20
-91.49995499999909
 11
403.38144455498212
 21
-91.49995499999909
  0
LINE
  5
216
100
AcDbEntity
  8
0
  6
CONTINUOUS
 62
             4
100
AcDbLine
 10
369.99967800000007
 20
68.50002799999993
 11
403.38144455498212
 21
68.50002799999993
  0
SOLID
  5
217
100
AcDbEntity
  8
0
 62
             4
100
AcDbTrace
 10
402.96127452603088
 20
56.50002799999993
 11
399.80161458393337
 21
56.50002799999993
 12
401.38144455498212
 22
68.50002799999993
 13
401.38144455498212
 23
68.50002799999993
  0
SOLID
  5
218
100
AcDbEntity
  8
0
 62
             4
100
AcDbTrace
 10
399.80161458393337
 20
-79.49995499999909
 11
402.96127452603088
 21
-79.49995499999909
 12
401.38144455498212
 22
-91.49995499999909
 13
401.38144455498212
 23
-91.49995499999909
  0
MTEXT
  5
219
100
AcDbEntity
  8
0
 62
             1
100
AcDbMText
 10
399.38144455498212
 20
-29.19168287525516
 30
0.0
 40
12.0
 41
0.0
 71
             7
 72
             1
  1
\C1;DN\C1;160
  7
CONVERTER_1
 11
0.0
 21
1.0
 31
0.0
  0
ENDBLK
  5
21A
100
AcDbEntity
  8
0
100
AcDbBlockEnd
  0
BLOCK
  5
21E
100
AcDbEntity
  8
0
100
AcDbBlockBegin
  2
*D5
 70
             1
 10
0.0
 20
0.0
 30
0.0
  3
*D5
  1

  0
LINE
  5
21F
100
AcDbEntity
  8
0
  6
CONTINUOUS
 62
             4
100
AcDbLine
 10
-22.0
 20
80.0
 11
-22.0
 21
-80.00000000000046
  0
LINE
  5
220
100
AcDbEntity
  8
0
  6
CONTINUOUS
 62
             4
100
AcDbLine
 10
-5.0
 20
-80.00000000000046
 11
-24.0
 21
-80.00000000000046
  0
LINE
  5
221
100
AcDbEntity
  8
0
  6
CONTINUOUS
 62
             4
100
AcDbLine
 10
-5.0
 20
80.0
 11
-24.0
 21
80.0
  0
SOLID
  5
222
100
AcDbEntity
  8
0
 62
             4
100
AcDbTrace
 10
-20.42017002895125
 20
68.0
 11
-23.57982997104875
 21
68.0
 12
-22.0
 22
80.0
 13
-22.0
 23
80.0
  0
SOLID
  5
223
100
AcDbEntity
  8
0
 62
             4
100
AcDbTrace
 10
-23.57982997104875
 20
-68.00000000000046
 11
-20.42017002895125
 21
-68.00000000000046
 12
-22.0
 22
-80.00000000000046
 13
-22.0
 23
-80.00000000000046
  0
MTEXT
  5
224
100
AcDbEntity
  8
0
 62
             1
100
AcDbMText
 10
-24.0
 20
-15.20409470776993
 30
0.0
 40
12.0
 41
0.0
 71
             7
 72
             1
  1
\C1;DN\C1;160
  7
CONVERTER_1
 11
0.0
 21
1.0
 31
0.0
  0
ENDBLK
  5
225
100
AcDbEntity
  8
0
100
AcDbBlockEnd
  0
BLOCK
  5
229
100
AcDbEntity
  8
0
100
AcDbBlockBegin
  2
*D6
 70
             1
 10
0.0
 20
0.0
 30
0.0
  3
*D6
  1

  0
LINE
  5
22A
100
AcDbEntity
  8
0
  6
CONTINUOUS
 62
             4
100
AcDbLine
 10
295.50191100000006
 20
170.96209533459961
 11
83.49738700000009
 21
170.96209533459961
  0
LINE
  5
22B
100
AcDbEntity
  8
0
  6
CONTINUOUS
 62
             4
100
AcDbLine
 10
83.49738700000009
 20
104.40054300000003
 11
83.49738700000009
 21
172.96209533459961
  0
LINE
  5
22C
100
AcDbEntity
  8
0
  6
CONTINUOUS
 62
             4
100
AcDbLine
 10
295.50191100000006
 20
104.40054300000003
 11
295.50191100000006
 21
172.96209533459961
  0
SOLID
  5
22D
100
AcDbEntity
  8
0
 62
             4
100
AcDbTrace
 10
283.50191100000006
 20
169.38226536355086
 11
283.50191100000006
 21
172.54192530564836
 12
295.50191100000006
 22
170.96209533459961
 13
295.50191100000006
 23
170.96209533459961
  0
SOLID
  5
22E
100
AcDbEntity
  8
0
 62
             4
100
AcDbTrace
 10
95.49738700000009
 20
172.54192530564836
 11
95.49738700000009
 21
169.38226536355086
 12
83.49738700000009
 22
170.96209533459961
 13
83.49738700000009
 23
170.96209533459961
  0
MTEXT
  5
22F
100
AcDbEntity
  8
0
 62
             1
100
AcDbMText
 10
202.9724124200265
 20
172.96209533459961
 30
0.0
 40
12.0
 41
0.0
 71
             7
 72
             1
  1
212
  7
CONVERTER_1
 11
0.99999999999706
 21
0.00000242406841
 31
0.0
  0
ENDBLK
  5
230
100
AcDbEntity
  8
0
100
AcDbBlockEnd
  0
BLOCK
  5
234
100
AcDbEntity
  8
0
100
AcDbBlockBegin
  2
*D7
 70
             1
 10
0.0
 20
0.0
 30
0.0
  3
*D7
  1

  0
LINE
  5
235
100
AcDbEntity
  8
0
  6
CONTINUOUS
 62
             4
100
AcDbLine
 10
1.0
 20
-125.0644478274901
 11
375.99967800000002
 21
-125.0644478274901
  0
LINE
  5
236
100
AcDbEntity
  8
0
  6
CONTINUOUS
 62
             4
100
AcDbLine
 10
375.99967800000002
 20
-89.89227600000027
 11
375.99967800000002
 21
-127.0644478274901
  0
LINE
  5
237
100
AcDbEntity
  8
0
  6
CONTINUOUS
 62
             4
100
AcDbLine
 10
1.0
 20
-81.0
 11
1.0
 21
-127.0644478274901
  0
SOLID
  5
238
100
AcDbEntity
  8
0
 62
             4
100
AcDbTrace
 10
13.0
 20
-123.48461785644135
 11
13.0
 21
-126.64427779853885
 12
1.0
 22
-125.0644478274901
 13
1.0
 23
-125.0644478274901
  0
SOLID
  5
239
100
AcDbEntity
  8
0
 62
             4
100
AcDbTrace
 10
363.99967800000002
 20
-126.64427779853885
 11
363.99967800000002
 21
-123.48461785644135
 12
375.99967800000002
 22
-125.0644478274901
 13
375.99967800000002
 23
-125.0644478274901
  0
MTEXT
  5
23A
100
AcDbEntity
  8
0
 62
             1
100
AcDbMText
 10
172.4127955514904
 20
-123.0644478274901
 30
0.0
 40
12.0
 41
0.0
 71
             7
 72
             1
  1
375
  7
CONVERTER_1
 11
0.99999999999706
 21
0.00000242406841
 31
0.0
  0
ENDBLK
  5
23B
100
AcDbEntity
  8
0
100
AcDbBlockEnd
  0
BLOCK
  5
23F
100
AcDbEntity
  8
0
100
AcDbBlockBegin
  2
*D8
 70
             1
 10
0.0
 20
0.0
 30
0.0
  3
*D8
  1

  0
LINE
  5
240
100
AcDbEntity
  8
0
  6
CONTINUOUS
 62
             4
100
AcDbLine
 10
787.69305782131062
 20
-129.08585823928001
 11
512.69285382131079
 21
-129.08585823928001
  0
LINE
  5
241
100
AcDbEntity
  8
0
  6
CONTINUOUS
 62
             4
100
AcDbLine
 10
512.69285382131079
 20
136.62041900007489
 11
512.69285382131079
 21
-131.08585823928001
  0
LINE
  5
242
100
AcDbEntity
  8
0
  6
CONTINUOUS
 62
             4
100
AcDbLine
 10
787.69305782131062
 20
136.62041900007489
 11
787.69305782131062
 21
-131.08585823928001
  0
SOLID
  5
243
100
AcDbEntity
  8
0
 62
             4
100
AcDbTrace
 10
775.69305782131062
 20
-130.66568821032877
 11
775.69305782131062
 21
-127.50602826823126
 12
787.69305782131062
 22
-129.08585823928001
 13
787.69305782131062
 23
-129.08585823928001
  0
SOLID
  5
244
100
AcDbEntity
  8
0
 62
             4
100
AcDbTrace
 10
524.69285382131079
 20
-127.50602826823126
 11
524.69285382131079
 21
-130.66568821032877
 12
512.69285382131079
 22
-129.08585823928001
 13
512.69285382131079
 23
-129.08585823928001
  0
MTEXT
  5
245
100
AcDbEntity
  8
0
 62
             1
100
AcDbMText
 10
593.34119104030344
 20
-127.08585823928
 30
0.0
 40
12.0
 41
0.0
 71
             7
 72
             1
  1
275
  7
CONVERTER_1
 11
0.99999999999706
 21
0.00000242406841
 31
0.0
  0
ENDBLK
  5
246
100
AcDbEntity
  8
0
100
AcDbBlockEnd
  0
ENDSEC
  0
SECTION
  2
ENTITIES
  0
DIMENSION
  5
248
100
AcDbEntity
  8
1
100
AcDbDimension
  2
*D8
 10
787.69305782131062
 20
-129.08585823928001
 11
607.74119104030342
 21
-121.08585823928
 31
0.0
 53
0.00013888888889
  1
<>
  3
ME10_DIM_6
100
AcDbAlignedDimension
 13
512.69285382131079
 23
136.62041900007489
 14
787.69305782131062
 24
136.62041900007489
100
AcDbRotatedDimension
  0
DIMENSION
  5
23D
100
AcDbEntity
  8
1
100
AcDbDimension
  2
*D7
 10
1.0
 20
-125.0644478274901
 11
186.81279555149041
 21
-117.0644478274901
 31
0.0
 53
0.00013888888889
  1
<>
  3
ME10_DIM_5
100
AcDbAlignedDimension
 13
375.99967800000002
 23
-89.89227600000027
 14
1.0
 24
-81.0
100
AcDbRotatedDimension
  0
DIMENSION
  5
232
100
AcDbEntity
  8
1
100
AcDbDimension
  2
*D6
 10
295.50191100000006
 20
170.96209533459961
 11
215.5724124200265
 21
178.96209533459961
 31
0.0
 53
0.00013888888889
  1
<>
  3
ME10_DIM_4
100
AcDbAlignedDimension
 13
83.49738700000006
 23
104.400543
 14
295.50191100000001
 24
104.400543
100
AcDbRotatedDimension
  0
DIMENSION
  5
227
100
AcDbEntity
  8
1
100
AcDbDimension
  2
*D5
 10
-22.0
 20
80.0
 11
-30.0
 21
3.87590529223007
 31
0.0
 53
90.0
  1
<>
  3
ME10_DIM_3
100
AcDbAlignedDimension
 13
-5.0
 23
-80.00000000000046
 14
-5.0
 24
80.0
 50
90.0
100
AcDbRotatedDimension
  0
DIMENSION
  5
21C
100
AcDbEntity
  8
1
100
AcDbDimension
  2
*D4
 10
401.38144455498212
 20
68.50002799999993
 11
393.38144455498212
 21
-10.11168287525516
 31
0.0
 53
90.0
  1
<>
  3
ME10_DIM_2
100
AcDbAlignedDimension
 13
369.99974144483423
 23
-91.49995499999909
 14
369.99967800000002
 24
68.50002799999993
 50
90.0
100
AcDbRotatedDimension
  0
DIMENSION
  5
211
100
AcDbEntity
  8
1
100
AcDbDimension
  2
*D3
 10
338.12490548754113
 20
0.0
 11
329.5249054875411
 21
90.83142497754989
 31
0.0
 53
90.0
  1
<>
  3
ME10_DIM_1
100
AcDbAlignedDimension
 13
282.52758784230059
 23
-11.49997252403296
 14
102.3931798659771
 24
0.0
 50
90.0
100
AcDbRotatedDimension
  0
DIMENSION
  5
204
100
AcDbEntity
  8
1
100
AcDbDimension
  2
*D2
 10
-45.33385384276559
 20
-99.099408
 11
-53.33385384276559
 21
122.3533560165918
 31
0.0
 53
90.0
  1
<>
  3
ME10_DIM_0
100
AcDbAlignedDimension
 13
136.20930999999999
 23
255.8996340000003
 14
95.45556699999997
 24
-99.09940800000004
 50
90.0
100
AcDbRotatedDimension
  0
INSERT
  5
33
100
AcDbEntity
  8
1
100
AcDbBlockReference
  2
HL_715_1_R_CKSTAUVERSCS__1
 10
-10.00000000000011
 20
1400.900592
  0
INSERT
  5
34
100
AcDbEntity
  8
1
100
AcDbBlockReference
  2
HL_715_1_R_CKSTAUVERSCS__2
 10
1500.59689794726
 20
2823.2508768820599
  0
ENDSEC
  0
SECTION
  2
OBJECTS
  0
DICTIONARY
  5
19
100
AcDbDictionary
  3
ACAD_GROUP
350
1A
  3
ACAD_MLINESTYLE
350
1B
  0
DICTIONARY
  5
1A
102
{ACAD_REACTORS
330
19
102
}
100
AcDbDictionary
  0
DICTIONARY
  5
1B
102
{ACAD_REACTORS
330
19
102
}
100
AcDbDictionary
  3
STANDARD
350
1C
  0
MLINESTYLE
  5
1C
102
{ACAD_REACTORS
330
1B
102
}
100
AcDbMlineStyle
  2
STANDARD
 70
             0
  3

 62
             0
 51
90.0
 52
90.0
 71
             2
 49
0.5
 62
           256
  6
BYLAYER
 49
-0.5
 62
           256
  6
BYLAYER
  0
ENDSEC
  0
EOF
